0
SECTION
2
HEADER
9
$ACADVER
1
AC1015
9
$DWGCODEPAGE
3
ANSI_1252
9
$HANDSEED
5
24f
9
$ANGBASE
50
0
9
$ANGDIR
70
0
9
$ATTMODE
70
1
9
$AUNITS
70
0
9
$AUPREC
70
0
9
$CECOLOR
62
256
9
$CELTSCALE
40
1
9
$CELTYPE
6
ByLayer
9
$CELWEIGHT
370
18
9
$CLAYER
8
0
9
$CMLJUST
70
0
9
$CMLSCALE
40
1
9
$CMLSTYLE
2
Standard
9
$DIMSTYLE
2
Standard
9
$TEXTSIZE
40
0.2
9
$TEXTSTYLE
7
Standard
9
$LUNITS
70
2
9
$LUPREC
70
4
9
$EXTNAMES
290
1
9
$INSUNITS
70
4
9
$LTSCALE
40
1
9
$LWDISPLAY
290
1
9
$PDMODE
70
0
9
$PDSIZE
40
0
9
$PLINEGEN
70
0
0
ENDSEC
0
SECTION
2
CLASSES
0
CLASS
1
RASTERVARIABLES
2
AcDbRasterVariables
3
ISM
90
0
280
0
281
0
0
ENDSEC
0
SECTION
2
TABLES
0
TABLE
2
VPORT
5
245
100
AcDbSymbolTable
0
VPORT
5
1
100
AcDbSymbolTableRecord
100
AcDbViewportTableRecord
2
*Active
70
0
10
0
20
0
11
1
21
1
12
-1
22
1
13
0
23
0
14
0.5
24
0.5
15
10
25
10
16
0
26
0
36
1
17
0
27
0
37
0
0
ENDTAB
0
TABLE
2
LTYPE
5
246
100
AcDbSymbolTable
0
LTYPE
5
14
100
AcDbSymbolTableRecord
100
AcDbLinetypeTableRecord
70
0
2
ByBlock
3

72
65
73
0
40
0
0
LTYPE
5
15
100
AcDbSymbolTableRecord
100
AcDbLinetypeTableRecord
70
0
2
ByLayer
3

72
65
73
0
40
0
0
LTYPE
5
16
100
AcDbSymbolTableRecord
100
AcDbLinetypeTableRecord
70
0
2
Continuous
3
Solid line
72
65
73
0
40
0
0
LTYPE
5
6E
100
AcDbSymbolTableRecord
100
AcDbLinetypeTableRecord
70
0
2
CENTER
3
____ _ ____ _ ____ _ ____
72
65
73
4
40
47.5
49
22
74
0
49
-8.5
74
0
49
8.5
74
0
49
-8.5
74
0
0
LTYPE
5
6F
100
AcDbSymbolTableRecord
100
AcDbLinetypeTableRecord
70
0
2
DASHED
3
__ __ __ __ __ __ __ __ __
72
65
73
2
40
25.72
49
12.86
74
0
49
-12.86
74
0
0
ENDTAB
0
TABLE
2
LAYER
5
247
100
AcDbSymbolTable
0
LAYER
5
10
100
AcDbSymbolTableRecord
100
AcDbLayerTableRecord
2
0
70
0
62
7
6
Continuous
290
1
370
-3
390
0
0
LAYER
5
71
100
AcDbSymbolTableRecord
100
AcDbLayerTableRecord
2
81
70
0
62
-3
6
Continuous
290
1
370
-3
390
0
0
LAYER
5
73
100
AcDbSymbolTableRecord
100
AcDbLayerTableRecord
2
80
70
0
62
-6
6
Continuous
290
1
370
-3
390
0
0
LAYER
5
75
100
AcDbSymbolTableRecord
100
AcDbLayerTableRecord
2
1
70
0
62
4
6
Continuous
290
1
370
-3
390
0
0
LAYER
5
7F
100
AcDbSymbolTableRecord
100
AcDbLayerTableRecord
2
4
70
0
62
-2
6
CENTER
290
1
370
-3
390
0
0
LAYER
5
B1
100
AcDbSymbolTableRecord
100
AcDbLayerTableRecord
2
2
70
0
62
7
6
Continuous
290
1
370
-3
390
0
0
LAYER
5
174
100
AcDbSymbolTableRecord
100
AcDbLayerTableRecord
2
Defpoints
70
0
62
7
6
Continuous
290
0
370
-3
390
0
0
LAYER
5
231
100
AcDbSymbolTableRecord
100
AcDbLayerTableRecord
2
SK4
70
0
62
2
6
CENTER
290
1
370
-3
390
0
0
LAYER
5
232
100
AcDbSymbolTableRecord
100
AcDbLayerTableRecord
2
SK1
70
0
62
4
6
Continuous
290
1
370
-3
390
0
0
LAYER
5
233
100
AcDbSymbolTableRecord
100
AcDbLayerTableRecord
2
SK2
70
0
62
7
6
Continuous
290
1
370
-3
390
0
0
LAYER
5
234
100
AcDbSymbolTableRecord
100
AcDbLayerTableRecord
2
SK6
70
0
62
5
6
Continuous
290
1
370
-3
390
0
0
ENDTAB
0
TABLE
2
STYLE
5
248
100
AcDbSymbolTable
0
STYLE
5
11
100
AcDbSymbolTableRecord
100
AcDbTextStyleTableRecord
2
Standard
3
txt
70
0
71
0
40
0
41
1
42
0
50
0
0
STYLE
5
150
100
AcDbSymbolTableRecord
100
AcDbTextStyleTableRecord
2
iso_b_vert
3
simplex.shx
70
0
71
0
40
0
41
1
42
0
50
0
0
STYLE
5
151
100
AcDbSymbolTableRecord
100
AcDbTextStyleTableRecord
2
DWGDirectTextStyle
3
simplex
70
0
71
0
40
0
41
1
42
0
50
0
0
ENDTAB
0
TABLE
2
DIMSTYLE
5
249
100
AcDbSymbolTable
100
AcDbDimStyleTable
0
DIMSTYLE
105
27
100
AcDbSymbolTableRecord
100
AcDbDimStyleTableRecord
2
Standard
70
0
3
<>
41
0.18
42
0.0625
44
0.18
140
0.18
147
0.09
73
0
74
0
77
1
271
2
275
0
278
52
280
0
340
11
0
ENDTAB
0
TABLE
2
VIEW
5
24a
100
AcDbSymbolTable
0
ENDTAB
0
TABLE
2
UCS
5
24b
100
AcDbSymbolTable
0
ENDTAB
0
TABLE
2
APPID
5
24c
100
AcDbSymbolTable
0
APPID
5
12
100
AcDbSymbolTableRecord
100
AcDbRegAppTableRecord
2
ACAD
70
0
0
APPID
5
170
100
AcDbSymbolTableRecord
100
AcDbRegAppTableRecord
2
ACAD_DSTYLE_DIMBREAK
70
0
0
APPID
5
1F0
100
AcDbSymbolTableRecord
100
AcDbRegAppTableRecord
2
ACAD_DSTYLE_DIM_LINETYPE
70
0
0
APPID
5
1F1
100
AcDbSymbolTableRecord
100
AcDbRegAppTableRecord
2
ACAD_DSTYLE_DIM_EXT1_LINETYPE
70
0
0
APPID
5
1F2
100
AcDbSymbolTableRecord
100
AcDbRegAppTableRecord
2
ACAD_DSTYLE_DIM_EXT2_LINETYPE
70
0
0
APPID
5
22D
100
AcDbSymbolTableRecord
100
AcDbRegAppTableRecord
2
ACAD_MLEADERVER
70
0
0
ENDTAB
0
TABLE
2
BLOCK_RECORD
5
24d
100
AcDbSymbolTable
0
BLOCK_RECORD
5
1F
100
AcDbSymbolTableRecord
100
AcDbBlockTableRecord
2
*Model_Space
340
0
70
0
0
BLOCK_RECORD
5
1B
100
AcDbSymbolTableRecord
100
AcDbBlockTableRecord
2
*Paper_Space
340
0
70
0
0
BLOCK_RECORD
5
23
100
AcDbSymbolTableRecord
100
AcDbBlockTableRecord
2
*Paper_Space0
340
0
70
0
0
BLOCK_RECORD
5
175
100
AcDbSymbolTableRecord
100
AcDbBlockTableRecord
2
*D1
340
0
70
0
0
BLOCK_RECORD
5
181
100
AcDbSymbolTableRecord
100
AcDbBlockTableRecord
2
_U0
340
0
70
0
0
BLOCK_RECORD
5
18D
100
AcDbSymbolTableRecord
100
AcDbBlockTableRecord
2
*D3
340
0
70
0
0
BLOCK_RECORD
5
199
100
AcDbSymbolTableRecord
100
AcDbBlockTableRecord
2
_U1
340
0
70
0
0
BLOCK_RECORD
5
1A5
100
AcDbSymbolTableRecord
100
AcDbBlockTableRecord
2
*D5
340
0
70
0
0
BLOCK_RECORD
5
1B1
100
AcDbSymbolTableRecord
100
AcDbBlockTableRecord
2
_U2
340
0
70
0
0
BLOCK_RECORD
5
1BD
100
AcDbSymbolTableRecord
100
AcDbBlockTableRecord
2
*D7
340
0
70
0
0
BLOCK_RECORD
5
1C9
100
AcDbSymbolTableRecord
100
AcDbBlockTableRecord
2
_U3
340
0
70
0
0
ENDTAB
0
ENDSEC
0
SECTION
2
BLOCKS
0
BLOCK
5
20
100
AcDbEntity
8
0
100
AcDbBlockBegin
2
*Model_Space
70
0
10
0
20
0
30
0
3
*Model_Space
0
ENDBLK
5
21
100
AcDbEntity
8
0
100
AcDbBlockEnd
0
BLOCK
5
1C
100
AcDbEntity
8
0
100
AcDbBlockBegin
2
*Paper_Space
70
0
10
0
20
0
30
0
3
*Paper_Space
0
ENDBLK
5
1D
100
AcDbEntity
8
0
100
AcDbBlockEnd
0
BLOCK
5
24
100
AcDbEntity
8
0
100
AcDbBlockBegin
2
*Paper_Space0
70
0
10
0
20
0
30
0
3
*Paper_Space0
0
ENDBLK
5
25
100
AcDbEntity
8
0
100
AcDbBlockEnd
0
BLOCK
5
176
100
AcDbEntity
8
0
100
AcDbBlockBegin
2
*D1
70
1
10
0
20
0
30
0
3
*D1
0
LINE
5
178
100
AcDbEntity
8
0
62
256
6
ByLayer
370
-2
48
1
60
0
100
AcDbLine
10
-60
20
-17.5875
30
0
11
-60
21
-47.952229
31
0
39
0
210
0
220
0
230
1
0
LINE
5
179
100
AcDbEntity
8
0
62
256
6
ByLayer
370
-2
48
1
60
0
100
AcDbLine
10
115
20
-1.5875
30
0
11
115
21
-47.952229
31
0
39
0
210
0
220
0
230
1
0
LINE
5
17A
100
AcDbEntity
8
0
62
256
6
ByLayer
370
-2
48
1
60
0
100
AcDbLine
10
-56.5
20
-45.952229
30
0
11
111.5
21
-45.952229
31
0
39
0
210
0
220
0
230
1
0
SOLID
5
17B
100
AcDbEntity
8
0
62
256
6
ByLayer
370
-1
48
1
60
0
100
AcDbTrace
10
-56.5
20
-45.368896
30
0
11
-56.5
21
-46.535563
31
0
12
-60
22
-45.952229
32
0
13
-60
23
-45.952229
33
0
39
0
210
0
220
0
230
1
0
SOLID
5
17C
100
AcDbEntity
8
0
62
256
6
ByLayer
370
-1
48
1
60
0
100
AcDbTrace
10
111.5
20
-46.535563
30
0
11
111.5
21
-45.368896
31
0
12
115
22
-45.952229
32
0
13
115
23
-45.952229
33
0
39
0
210
0
220
0
230
1
0
MTEXT
5
17D
100
AcDbEntity
8
0
62
256
6
ByLayer
370
18
48
1
60
0
100
AcDbMText
10
27.5
20
-39.952229
30
0
210
0
220
0
230
1
1
\A1;175
40
3
41
0
44
1
50
0
71
5
72
5
7
iso_b_vert
0
POINT
5
17E
100
AcDbEntity
8
Defpoints
62
0
6
ByLayer
370
-1
48
1
60
0
100
AcDbPoint
10
-60
20
-16
30
0
39
0
210
0
220
0
230
1
50
360
0
POINT
5
17F
100
AcDbEntity
8
Defpoints
62
0
6
ByLayer
370
-1
48
1
60
0
100
AcDbPoint
10
115
20
0
30
0
39
0
210
0
220
0
230
1
50
360
0
POINT
5
180
100
AcDbEntity
8
Defpoints
62
0
6
ByLayer
370
-1
48
1
60
0
100
AcDbPoint
10
115
20
-45.952229
30
0
39
0
210
0
220
0
230
1
50
360
0
ENDBLK
5
177
100
AcDbEntity
8
0
100
AcDbBlockEnd
0
BLOCK
5
188
100
AcDbEntity
8
0
100
AcDbBlockBegin
2
_U0
70
0
10
0
20
0
30
0
3
_U0
0
MTEXT
5
182
100
AcDbEntity
8
SK2
62
256
6
ByLayer
370
18
48
1
60
0
100
AcDbMText
10
22.271658
20
-45.067115
30
0
210
0
220
0
230
1
1
\W0.7022;175.00
40
3
41
0
44
1.084337
50
0
71
7
72
5
7
iso_b_vert
0
LINE
5
183
100
AcDbEntity
8
SK2
62
256
6
ByLayer
370
13
48
1
60
0
100
AcDbLine
10
-60
20
-17.5875
30
0
11
-60
21
-47.952229
31
0
39
0
210
0
220
0
230
1
0
LINE
5
184
100
AcDbEntity
8
SK2
62
256
6
ByLayer
370
13
48
1
60
0
100
AcDbLine
10
115
20
-1.5875
30
0
11
115
21
-47.952229
31
0
39
0
210
0
220
0
230
1
0
LINE
5
185
100
AcDbEntity
8
SK2
62
256
6
ByLayer
370
13
48
1
60
0
100
AcDbLine
10
-60
20
-45.952229
30
0
11
115
21
-45.952229
31
0
39
0
210
0
220
0
230
1
0
SOLID
5
186
100
AcDbEntity
8
SK2
62
256
6
ByLayer
370
18
48
1
60
0
100
AcDbTrace
10
-60
20
-45.952229
30
0
11
-56.500002
21
-45.491446
31
0
12
-56.499998
22
-46.413013
32
0
13
-56.499998
23
-46.413013
33
0
39
0
210
0
220
0
230
1
0
SOLID
5
187
100
AcDbEntity
8
SK2
62
256
6
ByLayer
370
18
48
1
60
0
100
AcDbTrace
10
115
20
-45.952229
30
0
11
111.500002
21
-46.413013
31
0
12
111.499998
22
-45.491446
32
0
13
111.499998
23
-45.491446
33
0
39
0
210
0
220
0
230
1
0
ENDBLK
5
189
100
AcDbEntity
8
0
100
AcDbBlockEnd
0
BLOCK
5
18E
100
AcDbEntity
8
0
100
AcDbBlockBegin
2
*D3
70
1
10
0
20
0
30
0
3
*D3
0
LINE
5
190
100
AcDbEntity
8
0
62
256
6
ByLayer
370
-2
48
1
60
0
100
AcDbLine
10
115
20
-1.5875
30
0
11
115
21
-37.952229
31
0
39
0
210
0
220
0
230
1
0
LINE
5
191
100
AcDbEntity
8
0
62
256
6
ByLayer
370
-2
48
1
60
0
100
AcDbLine
10
3
20
-15.0875
30
0
11
3
21
-37.952229
31
0
39
0
210
0
220
0
230
1
0
LINE
5
192
100
AcDbEntity
8
0
62
256
6
ByLayer
370
-2
48
1
60
0
100
AcDbLine
10
111.5
20
-35.952229
30
0
11
6.5
21
-35.952229
31
0
39
0
210
0
220
0
230
1
0
SOLID
5
193
100
AcDbEntity
8
0
62
256
6
ByLayer
370
-1
48
1
60
0
100
AcDbTrace
10
111.5
20
-36.535563
30
0
11
111.5
21
-35.368896
31
0
12
115
22
-35.952229
32
0
13
115
23
-35.952229
33
0
39
0
210
0
220
0
230
1
0
SOLID
5
194
100
AcDbEntity
8
0
62
256
6
ByLayer
370
-1
48
1
60
0
100
AcDbTrace
10
6.5
20
-35.368896
30
0
11
6.5
21
-36.535563
31
0
12
3
22
-35.952229
32
0
13
3
23
-35.952229
33
0
39
0
210
0
220
0
230
1
0
MTEXT
5
195
100
AcDbEntity
8
0
62
256
6
ByLayer
370
18
48
1
60
0
100
AcDbMText
10
59
20
-29.952229
30
0
210
0
220
0
230
1
1
\A1;112
40
3
41
0
44
1
50
0
71
5
72
5
7
iso_b_vert
0
POINT
5
196
100
AcDbEntity
8
Defpoints
62
0
6
ByLayer
370
-1
48
1
60
0
100
AcDbPoint
10
115
20
0
30
0
39
0
210
0
220
0
230
1
50
360
0
POINT
5
197
100
AcDbEntity
8
Defpoints
62
0
6
ByLayer
370
-1
48
1
60
0
100
AcDbPoint
10
3
20
-13.5
30
0
39
0
210
0
220
0
230
1
50
360
0
POINT
5
198
100
AcDbEntity
8
Defpoints
62
0
6
ByLayer
370
-1
48
1
60
0
100
AcDbPoint
10
3
20
-35.952229
30
0
39
0
210
0
220
0
230
1
50
360
0
ENDBLK
5
18F
100
AcDbEntity
8
0
100
AcDbBlockEnd
0
BLOCK
5
1A0
100
AcDbEntity
8
0
100
AcDbBlockBegin
2
_U1
70
0
10
0
20
0
30
0
3
_U1
0
MTEXT
5
19A
100
AcDbEntity
8
SK2
62
256
6
ByLayer
370
18
48
1
60
0
100
AcDbMText
10
54.146601
20
-35.067115
30
0
210
0
220
0
230
1
1
\W0.6532;112.00
40
3
41
0
44
1.084337
50
0
71
7
72
5
7
iso_b_vert
0
LINE
5
19B
100
AcDbEntity
8
SK2
62
256
6
ByLayer
370
13
48
1
60
0
100
AcDbLine
10
115
20
-1.5875
30
0
11
115
21
-37.952229
31
0
39
0
210
0
220
0
230
1
0
LINE
5
19C
100
AcDbEntity
8
SK2
62
256
6
ByLayer
370
13
48
1
60
0
100
AcDbLine
10
3
20
-15.0875
30
0
11
3
21
-37.952229
31
0
39
0
210
0
220
0
230
1
0
LINE
5
19D
100
AcDbEntity
8
SK2
62
256
6
ByLayer
370
13
48
1
60
0
100
AcDbLine
10
115
20
-35.952229
30
0
11
3
21
-35.952229
31
0
39
0
210
0
220
0
230
1
0
SOLID
5
19E
100
AcDbEntity
8
SK2
62
256
6
ByLayer
370
18
48
1
60
0
100
AcDbTrace
10
115
20
-35.952229
30
0
11
111.500002
21
-36.413013
31
0
12
111.499998
22
-35.491446
32
0
13
111.499998
23
-35.491446
33
0
39
0
210
0
220
0
230
1
0
SOLID
5
19F
100
AcDbEntity
8
SK2
62
256
6
ByLayer
370
18
48
1
60
0
100
AcDbTrace
10
3
20
-35.952229
30
0
11
6.499998
21
-35.491446
31
0
12
6.500002
22
-36.413013
32
0
13
6.500002
23
-36.413013
33
0
39
0
210
0
220
0
230
1
0
ENDBLK
5
1A1
100
AcDbEntity
8
0
100
AcDbBlockEnd
0
BLOCK
5
1A6
100
AcDbEntity
8
0
100
AcDbBlockBegin
2
*D5
70
1
10
0
20
0
30
0
3
*D5
0
LINE
5
1A8
100
AcDbEntity
8
0
62
256
6
ByLayer
370
-2
48
1
60
0
100
AcDbLine
10
-60
20
-17.5875
30
0
11
-60
21
-37.952229
31
0
39
0
210
0
220
0
230
1
0
LINE
5
1A9
100
AcDbEntity
8
0
62
256
6
ByLayer
370
-2
48
1
60
0
100
AcDbLine
10
0
20
-17.5875
30
0
11
0
21
-37.952229
31
0
39
0
210
0
220
0
230
1
0
LINE
5
1AA
100
AcDbEntity
8
0
62
256
6
ByLayer
370
-2
48
1
60
0
100
AcDbLine
10
-56.5
20
-35.952229
30
0
11
-3.5
21
-35.952229
31
0
39
0
210
0
220
0
230
1
0
SOLID
5
1AB
100
AcDbEntity
8
0
62
256
6
ByLayer
370
-1
48
1
60
0
100
AcDbTrace
10
-56.5
20
-35.368896
30
0
11
-56.5
21
-36.535563
31
0
12
-60
22
-35.952229
32
0
13
-60
23
-35.952229
33
0
39
0
210
0
220
0
230
1
0
SOLID
5
1AC
100
AcDbEntity
8
0
62
256
6
ByLayer
370
-1
48
1
60
0
100
AcDbTrace
10
-3.5
20
-36.535563
30
0
11
-3.5
21
-35.368896
31
0
12
0
22
-35.952229
32
0
13
0
23
-35.952229
33
0
39
0
210
0
220
0
230
1
0
MTEXT
5
1AD
100
AcDbEntity
8
0
62
256
6
ByLayer
370
18
48
1
60
0
100
AcDbMText
10
-30
20
-29.952229
30
0
210
0
220
0
230
1
1
\A1;60
40
3
41
0
44
1
50
0
71
5
72
5
7
iso_b_vert
0
POINT
5
1AE
100
AcDbEntity
8
Defpoints
62
0
6
ByLayer
370
-1
48
1
60
0
100
AcDbPoint
10
-60
20
-16
30
0
39
0
210
0
220
0
230
1
50
360
0
POINT
5
1AF
100
AcDbEntity
8
Defpoints
62
0
6
ByLayer
370
-1
48
1
60
0
100
AcDbPoint
10
0
20
-16
30
0
39
0
210
0
220
0
230
1
50
360
0
POINT
5
1B0
100
AcDbEntity
8
Defpoints
62
0
6
ByLayer
370
-1
48
1
60
0
100
AcDbPoint
10
0
20
-35.952229
30
0
39
0
210
0
220
0
230
1
50
360
0
ENDBLK
5
1A7
100
AcDbEntity
8
0
100
AcDbBlockEnd
0
BLOCK
5
1B8
100
AcDbEntity
8
0
100
AcDbBlockBegin
2
_U2
70
0
10
0
20
0
30
0
3
_U2
0
MTEXT
5
1B2
100
AcDbEntity
8
SK2
62
256
6
ByLayer
370
18
48
1
60
0
100
AcDbMText
10
-34.48237
20
-35.067115
30
0
210
0
220
0
230
1
1
\W0.7468;60.00
40
3
41
0
44
1.084337
50
0
71
7
72
5
7
iso_b_vert
0
LINE
5
1B3
100
AcDbEntity
8
SK2
62
256
6
ByLayer
370
13
48
1
60
0
100
AcDbLine
10
-60
20
-17.5875
30
0
11
-60
21
-37.952229
31
0
39
0
210
0
220
0
230
1
0
LINE
5
1B4
100
AcDbEntity
8
SK2
62
256
6
ByLayer
370
13
48
1
60
0
100
AcDbLine
10
0
20
-17.5875
30
0
11
0
21
-37.952229
31
0
39
0
210
0
220
0
230
1
0
LINE
5
1B5
100
AcDbEntity
8
SK2
62
256
6
ByLayer
370
13
48
1
60
0
100
AcDbLine
10
-60
20
-35.952229
30
0
11
0
21
-35.952229
31
0
39
0
210
0
220
0
230
1
0
SOLID
5
1B6
100
AcDbEntity
8
SK2
62
256
6
ByLayer
370
18
48
1
60
0
100
AcDbTrace
10
-60
20
-35.952229
30
0
11
-56.500002
21
-35.491446
31
0
12
-56.499998
22
-36.413013
32
0
13
-56.499998
23
-36.413013
33
0
39
0
210
0
220
0
230
1
0
SOLID
5
1B7
100
AcDbEntity
8
SK2
62
256
6
ByLayer
370
18
48
1
60
0
100
AcDbTrace
10
0
20
-35.952229
30
0
11
-3.499998
21
-36.413013
31
0
12
-3.500002
22
-35.491446
32
0
13
-3.500002
23
-35.491446
33
0
39
0
210
0
220
0
230
1
0
ENDBLK
5
1B9
100
AcDbEntity
8
0
100
AcDbBlockEnd
0
BLOCK
5
1BE
100
AcDbEntity
8
0
100
AcDbBlockBegin
2
*D7
70
1
10
0
20
0
30
0
3
*D7
0
LINE
5
1C0
100
AcDbEntity
8
0
62
256
6
ByLayer
370
-2
48
1
60
0
100
AcDbLine
10
115
20
1.5875
30
0
11
115
21
34.952229
31
0
39
0
210
0
220
0
230
1
0
LINE
5
1C1
100
AcDbEntity
8
0
62
256
6
ByLayer
370
-2
48
1
60
0
100
AcDbLine
10
21
20
15.0875
30
0
11
21
21
34.952229
31
0
39
0
210
0
220
0
230
1
0
LINE
5
1C2
100
AcDbEntity
8
0
62
256
6
ByLayer
370
-2
48
1
60
0
100
AcDbLine
10
111.5
20
32.952229
30
0
11
24.5
21
32.952229
31
0
39
0
210
0
220
0
230
1
0
SOLID
5
1C3
100
AcDbEntity
8
0
62
256
6
ByLayer
370
-1
48
1
60
0
100
AcDbTrace
10
111.5
20
32.368896
30
0
11
111.5
21
33.535563
31
0
12
115
22
32.952229
32
0
13
115
23
32.952229
33
0
39
0
210
0
220
0
230
1
0
SOLID
5
1C4
100
AcDbEntity
8
0
62
256
6
ByLayer
370
-1
48
1
60
0
100
AcDbTrace
10
24.5
20
33.535563
30
0
11
24.5
21
32.368896
31
0
12
21
22
32.952229
32
0
13
21
23
32.952229
33
0
39
0
210
0
220
0
230
1
0
MTEXT
5
1C5
100
AcDbEntity
8
0
62
256
6
ByLayer
370
18
48
1
60
0
100
AcDbMText
10
68
20
38.952229
30
0
210
0
220
0
230
1
1
\A1;94
40
3
41
0
44
1
50
0
71
5
72
5
7
iso_b_vert
0
POINT
5
1C6
100
AcDbEntity
8
Defpoints
62
0
6
ByLayer
370
-1
48
1
60
0
100
AcDbPoint
10
115
20
0
30
0
39
0
210
0
220
0
230
1
50
360
0
POINT
5
1C7
100
AcDbEntity
8
Defpoints
62
0
6
ByLayer
370
-1
48
1
60
0
100
AcDbPoint
10
21
20
13.5
30
0
39
0
210
0
220
0
230
1
50
360
0
POINT
5
1C8
100
AcDbEntity
8
Defpoints
62
0
6
ByLayer
370
-1
48
1
60
0
100
AcDbPoint
10
21
20
32.952229
30
0
39
0
210
0
220
0
230
1
50
360
0
ENDBLK
5
1BF
100
AcDbEntity
8
0
100
AcDbBlockEnd
0
BLOCK
5
1D0
100
AcDbEntity
8
0
100
AcDbBlockBegin
2
_U3
70
0
10
0
20
0
30
0
3
_U3
0
MTEXT
5
1CA
100
AcDbEntity
8
SK2
62
256
6
ByLayer
370
18
48
1
60
0
100
AcDbMText
10
63.359687
20
33.837344
30
0
210
0
220
0
230
1
1
\W0.7694;94.00
40
3
41
0
44
1.084337
50
0
71
7
72
5
7
iso_b_vert
0
LINE
5
1CB
100
AcDbEntity
8
SK2
62
256
6
ByLayer
370
13
48
1
60
0
100
AcDbLine
10
115
20
1.5875
30
0
11
115
21
34.952229
31
0
39
0
210
0
220
0
230
1
0
LINE
5
1CC
100
AcDbEntity
8
SK2
62
256
6
ByLayer
370
13
48
1
60
0
100
AcDbLine
10
21
20
15.0875
30
0
11
21
21
34.952229
31
0
39
0
210
0
220
0
230
1
0
LINE
5
1CD
100
AcDbEntity
8
SK2
62
256
6
ByLayer
370
13
48
1
60
0
100
AcDbLine
10
115
20
32.952229
30
0
11
21
21
32.952229
31
0
39
0
210
0
220
0
230
1
0
SOLID
5
1CE
100
AcDbEntity
8
SK2
62
256
6
ByLayer
370
18
48
1
60
0
100
AcDbTrace
10
115
20
32.952229
30
0
11
111.500002
21
32.491446
31
0
12
111.499998
22
33.413013
32
0
13
111.499998
23
33.413013
33
0
39
0
210
0
220
0
230
1
0
SOLID
5
1CF
100
AcDbEntity
8
SK2
62
256
6
ByLayer
370
18
48
1
60
0
100
AcDbTrace
10
21
20
32.952229
30
0
11
24.499998
21
33.413013
31
0
12
24.500002
22
32.491446
32
0
13
24.500002
23
32.491446
33
0
39
0
210
0
220
0
230
1
0
ENDBLK
5
1D1
100
AcDbEntity
8
0
100
AcDbBlockEnd
0
ENDSEC
0
SECTION
2
ENTITIES
0
ARC
5
C2
100
AcDbEntity
8
SK2
62
256
6
ByLayer
370
13
48
1
60
0
100
AcDbCircle
39
0
10
115
20
0
30
0
40
19
210
0
220
0
230
1
100
AcDbArc
50
290
51
70
0
ELLIPSE
5
C3
100
AcDbEntity
8
SK1
62
256
6
ByLayer
370
18
48
1
60
0
100
AcDbEllipse
10
375.907546
20
0
30
0
11
458.180052524353
21
-5.19163675692399E-13
31
0
210
0
220
0
230
1
40
0.034921
41
2.59367031451701
42
2.79796683129766
0
ELLIPSE
5
C4
100
AcDbEntity
8
SK1
62
256
6
ByLayer
370
18
48
1
60
0
100
AcDbEllipse
10
-29.157899
20
0
30
0
11
17.1578993603954
21
-1.94416104542868E-14
31
0
210
0
220
0
230
1
40
0.932515
41
-0.494065251162693
42
0.494065251162695
0
ELLIPSE
5
C5
100
AcDbEntity
8
SK1
62
256
6
ByLayer
370
18
48
1
60
0
100
AcDbEllipse
10
375.907546
20
0
30
0
11
458.180052528051
21
-5.19163675696589E-13
31
0
210
0
220
0
230
1
40
0.034921
41
-2.79796683129846
42
-2.59367031451889
0
ELLIPSE
5
C6
100
AcDbEntity
8
SK1
62
256
6
ByLayer
370
18
48
1
60
0
100
AcDbEllipse
10
-42.079759
20
0
30
0
11
-2.93905524917505E-15
21
-16.0000000000073
31
0
210
0
220
0
230
1
40
0.932515
41
-1.80249142112189
42
-1.3391012324679
0
POINT
5
70
100
AcDbEntity
8
81
62
256
6
ByLayer
370
18
48
1
60
0
100
AcDbPoint
10
115
20
0
30
0
39
0
210
0
220
0
230
1
50
360
0
POINT
5
72
100
AcDbEntity
8
80
62
256
6
ByLayer
370
18
48
1
60
0
100
AcDbPoint
10
0
20
0
30
0
39
0
210
0
220
0
230
1
50
360
0
POINT
5
74
100
AcDbEntity
8
1
62
256
6
ByLayer
370
18
48
1
60
1
100
AcDbPoint
10
-60
20
-16
30
0
39
0
210
0
220
0
230
1
50
360
0
POINT
5
76
100
AcDbEntity
8
1
62
256
6
ByLayer
370
18
48
1
60
1
100
AcDbPoint
10
115
20
0
30
0
39
0
210
0
220
0
230
1
50
360
0
POINT
5
77
100
AcDbEntity
8
1
62
256
6
ByLayer
370
18
48
1
60
1
100
AcDbPoint
10
115
20
0
30
0
39
0
210
0
220
0
230
1
50
360
0
POINT
5
78
100
AcDbEntity
8
1
62
256
6
ByLayer
370
18
48
1
60
1
100
AcDbPoint
10
3
20
-13.5
30
0
39
0
210
0
220
0
230
1
50
360
0
POINT
5
79
100
AcDbEntity
8
1
62
256
6
ByLayer
370
18
48
1
60
1
100
AcDbPoint
10
-60
20
-16
30
0
39
0
210
0
220
0
230
1
50
360
0
POINT
5
7A
100
AcDbEntity
8
1
62
256
6
ByLayer
370
18
48
1
60
1
100
AcDbPoint
10
0
20
-16
30
0
39
0
210
0
220
0
230
1
50
360
0
POINT
5
7B
100
AcDbEntity
8
1
62
256
6
ByLayer
370
18
48
1
60
1
100
AcDbPoint
10
115
20
0
30
0
39
0
210
0
220
0
230
1
50
360
0
POINT
5
7C
100
AcDbEntity
8
1
62
256
6
ByLayer
370
18
48
1
60
1
100
AcDbPoint
10
21
20
13.5
30
0
39
0
210
0
220
0
230
1
50
360
0
SPLINE
5
C7
100
AcDbEntity
8
1
62
256
6
ByLayer
370
18
48
1
60
0
100
AcDbSpline
70
4
71
3
72
22
73
18
40
0
40
0
40
0
40
0
40
0.124999999999987
40
0.124999999999987
40
0.187499999999984
40
0.187499999999984
40
0.24999999999998
40
0.24999999999998
40
0.499999999999979
40
0.499999999999979
40
0.624999999999981
40
0.624999999999981
40
0.687499999999982
40
0.687499999999982
40
0.749999999999983
40
0.749999999999983
40
1
40
1
40
1
40
1
41
1
10
110.086401837409
20
-1.92667582381972
30
0
41
1
10
109.578043784472
20
-1.74376181241908
30
0
41
1
10
109.069943128908
20
-1.56021763860764
30
0
41
1
10
108.308217224673
20
-1.28384903037684
30
0
41
1
10
108.054383593909
20
-1.19153930586884
30
0
41
1
10
107.546724451007
20
-1.00693871152004
30
0
41
1
10
107.292891521118
20
-0.914668329039387
30
0
41
1
10
106.023723386512
20
-0.453428566077264
30
0
41
1
10
105.008382794891
20
-0.0847808113219912
30
0
41
1
10
103.485646547408
20
0.468461597801621
30
0
41
1
10
102.978117733977
20
0.652932193266906
30
0
41
1
10
102.21693881957
20
0.929830471701024
30
0
41
1
10
101.963241319529
20
1.0221888243484
30
0
41
1
10
101.455797100601
20
1.20672872497906
30
0
41
1
10
101.202030963826
20
1.29885676841141
30
0
41
1
10
99.9329116624106
20
1.75859922333467
30
0
41
1
10
98.9167796705183
20
2.12376102117733
30
0
41
1
10
97.9000000000005
20
2.4868115316913
30
0
0
SPLINE
5
C8
100
AcDbEntity
8
1
62
256
6
ByLayer
370
18
48
1
60
0
100
AcDbSpline
70
4
71
3
72
95
73
91
40
0
40
0
40
0
40
0
40
0.0312499999999945
40
0.0312499999999945
40
0.0624999999999891
40
0.0624999999999891
40
0.0937499999999836
40
0.0937499999999836
40
0.124999999999978
40
0.124999999999978
40
0.140624999999975
40
0.140624999999975
40
0.148437499999974
40
0.148437499999974
40
0.156249999999973
40
0.187499999999967
40
0.187499999999967
40
0.218749999999961
40
0.218749999999961
40
0.249999999999956
40
0.249999999999956
40
0.28124999999995
40
0.28124999999995
40
0.296874999999947
40
0.296874999999947
40
0.304687499999947
40
0.304687499999947
40
0.312499999999946
40
0.312499999999946
40
0.343749999999945
40
0.343749999999945
40
0.374999999999944
40
0.374999999999944
40
0.406249999999942
40
0.406249999999942
40
0.437499999999941
40
0.437499999999941
40
0.44531249999994
40
0.44531249999994
40
0.45312499999994
40
0.46874999999994
40
0.46874999999994
40
0.499999999999939
40
0.499999999999939
40
0.531249999999939
40
0.531249999999939
40
0.539062499999938
40
0.539062499999938
40
0.546874999999938
40
0.562499999999938
40
0.562499999999938
40
0.593749999999938
40
0.593749999999938
40
0.624999999999938
40
0.624999999999938
40
0.632812499999938
40
0.632812499999938
40
0.640624999999938
40
0.656249999999939
40
0.656249999999939
40
0.687499999999943
40
0.687499999999943
40
0.718749999999947
40
0.718749999999947
40
0.726562499999948
40
0.726562499999948
40
0.734374999999949
40
0.734374999999949
40
0.74999999999995
40
0.74999999999995
40
0.781249999999955
40
0.781249999999955
40
0.81249999999996
40
0.81249999999996
40
0.843749999999965
40
0.843749999999965
40
0.851562499999966
40
0.851562499999966
40
0.859374999999968
40
0.874999999999972
40
0.874999999999972
40
0.906249999999979
40
0.906249999999979
40
0.937499999999986
40
0.968749999999993
40
0.968749999999993
40
0.976562499999994
40
0.976562499999994
40
0.984374999999996
40
1
40
1
40
1
40
1
41
1
10
110.086401837406
20
13.0713173052111
30
0
41
1
10
110.170715552939
20
12.8622620351887
30
0
41
1
10
110.255161738695
20
12.6500687742839
30
0
41
1
10
110.424462413099
20
12.219901072493
30
0
41
1
10
110.509316753124
20
12.0019255296362
30
0
41
1
10
110.679534300369
20
11.560550034922
30
0
41
1
10
110.764897569046
20
11.3371494730624
30
0
41
1
10
110.936192742173
20
10.8851712875196
30
0
41
1
10
111.022124945476
20
10.6565933779297
30
0
41
1
10
111.15146001724
20
10.3099569063851
30
0
41
1
10
111.19464411483
20
10.1937824190628
30
0
41
1
10
111.259526093563
20
10.0185848191109
30
0
41
1
10
111.28118599954
20
9.95998898927655
30
0
41
1
10
111.324463596115
20
9.8426936310513
30
0
41
1
10
111.432498313192
20
9.54933921936745
30
0
41
1
10
111.539747366105
20
9.25541391373241
30
0
41
1
10
111.710269935068
20
8.78439756547206
30
0
41
1
10
111.794994322699
20
8.54852181069739
30
0
41
1
10
111.96317419092
20
8.07597978965913
30
0
41
1
10
112.046631595709
20
7.83931419493621
30
0
41
1
10
112.211917671189
20
7.3650733407506
30
0
41
1
10
112.293749670141
20
7.12749927437628
30
0
41
1
10
112.414823832126
20
6.77029785848291
30
0
41
1
10
112.454900627869
20
6.65108979379121
30
0
41
1
10
112.514512797098
20
6.47203758644201
30
0
41
1
10
112.534309825235
20
6.41228201987676
30
0
41
1
10
112.573669000321
20
6.2928389855708
30
0
41
1
10
112.593220434625
20
6.23318439030945
30
0
41
1
10
112.690297262002
20
5.93523172805754
30
0
41
1
10
112.765805492465
20
5.69789716070045
30
0
41
1
10
112.911151028007
20
5.22487948817783
30
0
41
1
10
112.980996937397
20
4.98919907772137
30
0
41
1
10
113.112893996069
20
4.51900761630131
30
0
41
1
10
113.174956280591
20
4.28449755508262
30
0
41
1
10
113.288091544977
20
3.81601805164144
30
0
41
1
10
113.33916960242
20
3.58204669195754
30
0
41
1
10
113.393304764191
20
3.28943858224329
30
0
41
1
10
113.403647817977
20
3.23087946889388
30
0
41
1
10
113.423250456277
20
3.11386231856139
30
0
41
1
10
113.450953421165
20
2.93895317866742
30
0
41
1
10
113.473255581787
20
2.76591788427649
30
0
41
1
10
113.509933551636
20
2.42244272245981
30
0
41
1
10
113.523738972214
20
2.19690815426745
30
0
41
1
10
113.527481918562
20
1.7535402628462
30
0
41
1
10
113.517397877215
20
1.53571065147347
30
0
41
1
10
113.489971003258
20
1.26894537889783
30
0
41
1
10
113.483745747129
20
1.21582452964063
30
0
41
1
10
113.469882633935
20
1.11034861258003
30
0
41
1
10
113.447044168955
20
0.953820045048161
30
0
41
1
10
113.41842907685
20
0.80228444723096
30
0
41
1
10
113.354459266479
20
0.505707419642619
30
0
41
1
10
113.302863606226
20
0.31663617961749
30
0
41
1
10
113.1864329067
20
-0.0448971978391342
30
0
41
1
10
113.121607622951
20
-0.217364208141191
30
0
41
1
10
113.034456718999
20
-0.422729930893922
30
0
41
1
10
113.01670427366
20
-0.463319899355781
30
0
41
1
10
112.98068054517
20
-0.543345102383228
30
0
41
1
10
112.925970673797
20
-0.661422270591913
30
0
41
1
10
112.869447631697
20
-0.773733506890665
30
0
41
1
10
112.754423322267
20
-0.99090014284414
30
0
41
1
10
112.675129016415
20
-1.12575752787691
30
0
41
1
10
112.512857047406
20
-1.37629994102485
30
0
41
1
10
112.429868397784
20
-1.49198134279476
30
0
41
1
10
112.324330195417
20
-1.62462233527799
30
0
41
1
10
112.30313109296
20
-1.65055109183254
30
0
41
1
10
112.260557860465
20
-1.70120484283771
30
0
41
1
10
112.239166362243
20
-1.72594815479064
30
0
41
1
10
112.175008550768
20
-1.79806574354402
30
0
41
1
10
112.132186474836
20
-1.84342044694333
30
0
41
1
10
112.003636618623
20
-1.97149808861221
30
0
41
1
10
111.917831587559
20
-2.04625103995335
30
0
41
1
10
111.746167061841
20
-2.17503550709282
30
0
41
1
10
111.660304887388
20
-2.22906486548447
30
0
41
1
10
111.488499602289
20
-2.31643420027152
30
0
41
1
10
111.402555265683
20
-2.34977417778364
30
0
41
1
10
111.294984579618
20
-2.37824412448344
30
0
41
1
10
111.273446382538
20
-2.3832788231073
30
0
41
1
10
111.23054233597
20
-2.39198026674757
30
0
41
1
10
111.166383453547
20
-2.40299941537018
30
0
41
1
10
111.102795059794
20
-2.40798768737477
30
0
41
1
10
110.976323074016
20
-2.4100605228692
30
0
41
1
10
110.892947948796
20
-2.40091755946045
30
0
41
1
10
110.727783288433
20
-2.36196789024754
30
0
41
1
10
110.564204201867
20
-2.30235212244602
30
0
41
1
10
110.403219940774
20
-2.20133609038174
30
0
41
1
10
110.30323453942
20
-2.12498120837529
30
0
41
1
10
110.283279830594
20
-2.10905550824256
30
0
41
1
10
110.243536917215
20
-2.07596572560698
30
0
41
1
10
110.184134870183
20
-2.02444491032446
30
0
41
1
10
110.125344633526
20
-1.96728434053117
30
0
41
1
10
110.086401837406
20
-1.92667582381873
30
0
0
SPLINE
5
C9
100
AcDbEntity
8
1
62
256
6
ByLayer
370
18
48
1
60
0
100
AcDbSpline
70
4
71
3
72
22
73
18
40
0
40
0
40
0
40
0
40
0.0243704299998619
40
0.0243704299998619
40
0.105672894166542
40
0.105672894166542
40
0.186975358333222
40
0.186975358333222
40
0.349580286666582
40
0.349580286666582
40
0.674790143333303
40
0.674790143333303
40
0.756092607499977
40
0.756092607499977
40
0.837395071666651
40
0.837395071666651
40
1
40
1
40
1
40
1
41
1
10
100.719962611901
20
13.4983148254831
30
0
41
1
10
100.796046587421
20
13.4983282685402
30
0
41
1
10
100.872124825956
20
13.4982564038067
30
0
41
1
10
101.201982951672
20
13.4975747252006
30
0
41
1
10
101.455689113727
20
13.4960955899631
30
0
41
1
10
101.96307546642
20
13.4912267498767
30
0
41
1
10
102.216784876575
20
13.4878401013277
30
0
41
1
10
102.978021860062
20
13.4748520594723
30
0
41
1
10
103.485610881245
20
13.4624215562789
30
0
41
1
10
105.008474095413
20
13.4138722247989
30
0
41
1
10
106.023884036409
20
13.3665426915909
30
0
41
1
10
107.292887493358
20
13.2883020493296
30
0
41
1
10
107.546664966298
20
13.2716912292505
30
0
41
1
10
108.054242209302
20
13.2365654639829
30
0
41
1
10
108.308066250889
20
13.2180627328435
30
0
41
1
10
109.069835989346
20
13.1598559058655
30
0
41
1
10
109.577999418673
20
13.1174155568344
30
0
41
1
10
110.086401837409
20
13.0713173052112
30
0
0
SPLINE
5
CA
100
AcDbEntity
8
1
62
256
6
ByLayer
370
18
48
1
60
0
100
AcDbSpline
70
4
71
3
72
39
73
35
40
0
40
0
40
0
40
0
40
0.0983319078779682
40
0.0983319078779682
40
0.148424579662527
40
0.148424579662527
40
0.198517251447086
40
0.198517251447086
40
0.248609923231645
40
0.248609923231645
40
0.298702595016203
40
0.348795266800762
40
0.348795266800762
40
0.398887938585321
40
0.398887938585321
40
0.499073282154439
40
0.499073282154439
40
0.599258625723556
40
0.599258625723556
40
0.624304961615835
40
0.624304961615835
40
0.649351297508114
40
0.649351297508114
40
0.699443969292671
40
0.699443969292671
40
0.799629312861786
40
0.799629312861786
40
0.849721984646343
40
0.849721984646343
40
0.874768320538621
40
0.874768320538621
40
0.899814656430898
40
0.899814656430898
40
1
40
1
40
1
40
1
41
1
10
73.6194214094101
20
9.7559884984955
30
0
41
1
10
74.4154342311197
20
9.94638189936506
30
0
41
1
10
75.2112750677535
20
10.1301421063233
30
0
41
1
10
76.4120007937443
20
10.3978665698022
30
0
41
1
10
76.8171450214419
20
10.486558924048
30
0
41
1
10
77.6278552523527
20
10.6595704159269
30
0
41
1
10
78.0333553119972
20
10.7440092320045
30
0
41
1
10
78.8445574657562
20
10.9089255757738
30
0
41
1
10
79.2503063754506
20
10.98940347575
30
0
41
1
10
80.0617810949867
20
11.1464099240136
30
0
41
1
10
80.8730739339881
20
11.2994388668973
30
0
41
1
10
81.6839026269738
20
11.4446457363177
30
0
41
1
10
82.4944512109636
20
11.5859749195893
30
0
41
1
10
82.8995331906783
20
11.6547631604987
30
0
41
1
10
84.1151691535864
20
11.8542052304288
30
0
41
1
10
84.9259720161625
20
11.9781759427686
30
0
41
1
10
86.547828343656
20
12.2089602603831
30
0
41
1
10
87.3589087006847
20
12.3157403531676
30
0
41
1
10
88.3727082773501
20
12.4385742724963
30
0
41
1
10
88.5754766591405
20
12.4626114892713
30
0
41
1
10
88.9809491509701
20
12.5095988736682
30
0
41
1
10
89.1836434902316
20
12.5325430570821
30
0
41
1
10
89.7917588328937
20
12.5995886691817
30
0
41
1
10
90.1972209430614
20
12.6419007752162
30
0
41
1
10
91.4136084710062
20
12.7618926194004
30
0
41
1
10
92.2245420114241
20
12.8326337891792
30
0
41
1
10
93.4407000194135
20
12.9250868684742
30
0
41
1
10
93.8460439120389
20
12.9536254673006
30
0
41
1
10
94.4539606693369
20
12.9930094170547
30
0
41
1
10
94.6565830508176
20
13.0055665009502
30
0
41
1
10
95.0617889992991
20
13.0295348243365
30
0
41
1
10
95.2643701001667
20
13.0409464817673
30
0
41
1
10
96.2773941664972
20
13.0950342630372
30
0
41
1
10
97.0884829465026
20
13.1287114153104
30
0
41
1
10
97.9
20
13.1530066987074
30
0
0
SPLINE
5
CB
100
AcDbEntity
8
1
62
256
6
ByLayer
370
18
48
1
60
0
100
AcDbSpline
70
4
71
3
72
82
73
78
40
0
40
0
40
0
40
0
40
0.0253062048424256
40
0.0253062048424256
40
0.0379593072636392
40
0.0379593072636392
40
0.0506124096848527
40
0.0506124096848527
40
0.101224819369711
40
0.101224819369711
40
0.15183722905457
40
0.15183722905457
40
0.177143433896999
40
0.177143433896999
40
0.202449638739428
40
0.202449638739428
40
0.253062048424285
40
0.253062048424285
40
0.278368253266713
40
0.278368253266713
40
0.291021355687926
40
0.291021355687926
40
0.30367445810914
40
0.30367445810914
40
0.328980662951568
40
0.328980662951568
40
0.354286867793996
40
0.379593072636424
40
0.379593072636424
40
0.404899277478851
40
0.404899277478851
40
0.417552379900066
40
0.417552379900066
40
0.430205482321281
40
0.455511687163711
40
0.455511687163711
40
0.480817892006142
40
0.480817892006142
40
0.506124096848572
40
0.506124096848572
40
0.518777199269788
40
0.518777199269788
40
0.531430301691003
40
0.531430301691003
40
0.556736506533434
40
0.556736506533434
40
0.607348916218295
40
0.607348916218295
40
0.632655121060726
40
0.632655121060726
40
0.645308223481941
40
0.645308223481941
40
0.657961325903156
40
0.657961325903156
40
0.708573735588017
40
0.708573735588017
40
0.759186145272877
40
0.759186145272877
40
0.784492350115307
40
0.784492350115307
40
0.809798554957738
40
0.809798554957738
40
0.835104759800168
40
0.835104759800168
40
0.860410964642598
40
0.860410964642598
40
0.885717169485029
40
0.885717169485029
40
0.898370271906244
40
0.898370271906244
40
0.911023374327459
40
0.911023374327459
40
0.96163578401232
40
0.96163578401232
40
0.98694198885475
40
0.98694198885475
40
1
40
1
40
1
40
1
41
1
10
97.9
20
2.32224832060072
30
0
41
1
10
97.4635947284664
20
2.47492171406432
30
0
41
1
10
97.0273170593225
20
2.62716139670286
30
0
41
1
10
96.3731168010709
20
2.85493387171334
30
0
41
1
10
96.1550866511001
20
2.93076165144913
30
0
41
1
10
95.7190980741082
20
3.08221872537686
30
0
41
1
10
95.5011378565246
20
3.15784289062915
30
0
41
1
10
94.4112829603183
20
3.53482797510497
30
0
41
1
10
93.5391674698847
20
3.83262861431612
30
0
41
1
10
91.7946936343331
20
4.42132251053647
30
0
41
1
10
90.9223320786864
20
4.71220761004514
30
0
41
1
10
89.6137991972789
20
5.14381564004597
30
0
41
1
10
89.1776170952605
20
5.28701597529053
30
0
41
1
10
88.305297740526
20
5.57047835646046
30
0
41
1
10
87.8691342490625
20
5.71082857734407
30
0
41
1
10
86.560677684696
20
6.12788465058389
30
0
41
1
10
85.6884099555165
20
6.40058224545615
30
0
41
1
10
84.3802448800834
20
6.80207032747825
30
0
41
1
10
83.9442315506968
20
6.93464346361046
30
0
41
1
10
83.2902935611836
20
7.13164906588628
30
0
41
1
10
83.0723296837482
20
7.19701236097833
30
0
41
1
10
82.6363513443645
20
7.32693428464043
30
0
41
1
10
82.4183275378444
20
7.39147120505055
30
0
41
1
10
81.7641407392588
20
7.58378725945721
30
0
41
1
10
81.3278603455964
20
7.71029313615418
30
0
41
1
10
80.4550763031677
20
7.95995892595863
30
0
41
1
10
79.582421104288
20
8.20617309696951
30
0
41
1
10
78.710077275543
20
8.44562298570912
30
0
41
1
10
77.8379265456771
20
8.68176075415383
30
0
41
1
10
77.4019571784928
20
8.79819300542354
30
0
41
1
10
76.7481335452604
20
8.97030417805564
30
0
41
1
10
76.5302046371164
20
9.02723160145638
30
0
41
1
10
76.0942836737015
20
9.14002154952033
30
0
41
1
10
75.4403269221726
20
9.30765005957994
30
0
41
1
10
74.7861650466947
20
9.47067140002557
30
0
41
1
10
73.9137931476935
20
9.68400651338303
30
0
41
1
10
73.4775285020614
20
9.78865947936447
30
0
41
1
10
72.6048706224144
20
9.99398857637945
30
0
41
1
10
72.1684372521905
20
10.0946750200212
30
0
41
1
10
71.5140978101736
20
10.2426693370315
30
0
41
1
10
71.2960222041337
20
10.2914975982307
30
0
41
1
10
70.8599495094215
20
10.3881495487925
30
0
41
1
10
70.6419573998991
20
10.4359814778961
30
0
41
1
10
69.9880103401965
20
10.5778119024708
30
0
41
1
10
69.5520195019403
20
10.6700352060556
30
0
41
1
10
68.2439012922244
20
10.939660127743
30
0
41
1
10
67.3716743231641
20
11.1101087417569
30
0
41
1
10
66.0632745366278
20
11.3521215594578
30
0
41
1
10
65.6271337499694
20
11.430516127969
30
0
41
1
10
64.9729345315491
20
11.5447036187003
30
0
41
1
10
64.7548716225735
20
11.5822005047184
30
0
41
1
10
64.3187445922153
20
11.6560460514365
30
0
41
1
10
64.1006690157087
20
11.6923917307038
30
0
41
1
10
63.0101353471744
20
11.870904969515
30
0
41
1
10
62.1377232379633
20
12.0034051612696
30
0
41
1
10
60.3931434284404
20
12.2483038363885
30
0
41
1
10
59.5209732527039
20
12.3607008041094
30
0
41
1
10
58.2130963809116
20
12.5142874284663
30
0
41
1
10
57.7772326218936
20
12.5629984378222
30
0
41
1
10
56.9051511607699
20
12.6549692652655
30
0
41
1
10
56.4689704047689
20
12.6982688649944
30
0
41
1
10
55.596360242209
20
12.7795509493317
30
0
41
1
10
55.1598958735962
20
12.8175347024707
30
0
41
1
10
54.2872545812189
20
12.8881662055666
30
0
41
1
10
53.8510181371764
20
12.9208201033537
30
0
41
1
10
52.9787499426706
20
12.9808146282681
30
0
41
1
10
52.5427193761769
20
13.0081556883705
30
0
41
1
10
51.8888462779972
20
13.0451610488126
30
0
41
1
10
51.6709165289262
20
13.056827125703
30
0
41
1
10
51.2350267440294
20
13.0787839867158
30
0
41
1
10
51.0170598203615
20
13.0890727415884
30
0
41
1
10
49.927115316196
20
13.1370840522415
30
0
41
1
10
49.0548217281449
20
13.1645334759896
30
0
41
1
10
47.7460329776316
20
13.1894003910428
30
0
41
1
10
47.3096854674144
20
13.1949680769648
30
0
41
1
10
46.6482094166439
20
13.1992636482983
30
0
41
1
10
46.4231086291781
20
13.1999973074737
30
0
41
1
10
46.1980488524283
20
13.1999999453489
30
0
0
SPLINE
5
CC
100
AcDbEntity
8
1
62
256
6
ByLayer
370
18
48
1
60
0
100
AcDbSpline
70
4
71
3
72
8
73
4
40
0
40
0
40
0
40
0
40
1
40
1
40
1
40
1
41
1
10
97.9
20
-13.4588878949546
30
0
41
1
10
98.8406596952203
20
-13.4849832816912
30
0
41
1
10
99.7807485392652
20
-13.4981488834432
30
0
41
1
10
100.719963150692
20
-13.4983148255783
30
0
0
SPLINE
5
CD
100
AcDbEntity
8
1
62
256
6
ByLayer
370
18
48
1
60
0
100
AcDbSpline
70
4
71
3
72
117
73
113
40
0
40
0
40
0
40
0
40
0.0312499999999973
40
0.0312499999999973
40
0.0624999999999947
40
0.0624999999999947
40
0.0781249999999931
40
0.0781249999999931
40
0.0859374999999923
40
0.0859374999999923
40
0.0937499999999915
40
0.0937499999999915
40
0.12499999999999
40
0.12499999999999
40
0.156249999999988
40
0.156249999999988
40
0.164062499999988
40
0.164062499999988
40
0.171874999999987
40
0.171874999999987
40
0.187499999999986
40
0.187499999999986
40
0.218749999999985
40
0.218749999999985
40
0.234374999999984
40
0.234374999999984
40
0.249999999999983
40
0.249999999999983
40
0.281249999999982
40
0.281249999999982
40
0.312499999999981
40
0.312499999999981
40
0.32031249999998
40
0.32031249999998
40
0.32812499999998
40
0.32812499999998
40
0.343749999999979
40
0.343749999999979
40
0.374999999999978
40
0.374999999999978
40
0.390624999999977
40
0.390624999999977
40
0.398437499999977
40
0.398437499999977
40
0.406249999999976
40
0.406249999999976
40
0.421874999999976
40
0.421874999999976
40
0.437499999999975
40
0.437499999999975
40
0.468749999999974
40
0.468749999999974
40
0.476562499999974
40
0.476562499999974
40
0.484374999999974
40
0.484374999999974
40
0.499999999999974
40
0.499999999999974
40
0.531249999999975
40
0.531249999999975
40
0.546874999999975
40
0.546874999999975
40
0.562499999999976
40
0.562499999999976
40
0.570312499999976
40
0.570312499999976
40
0.578124999999976
40
0.578124999999976
40
0.593749999999976
40
0.593749999999976
40
0.624999999999977
40
0.624999999999977
40
0.640624999999978
40
0.640624999999978
40
0.648437499999978
40
0.648437499999978
40
0.656249999999978
40
0.656249999999978
40
0.68749999999998
40
0.68749999999998
40
0.718749999999982
40
0.718749999999982
40
0.734374999999983
40
0.734374999999983
40
0.749999999999984
40
0.749999999999984
40
0.765624999999985
40
0.765624999999985
40
0.781249999999986
40
0.796874999999987
40
0.796874999999987
40
0.812499999999988
40
0.812499999999988
40
0.84374999999999
40
0.84374999999999
40
0.874999999999992
40
0.874999999999992
40
0.882812499999992
40
0.882812499999992
40
0.890624999999992
40
0.890624999999992
40
0.906249999999993
40
0.906249999999993
40
0.937499999999994
40
0.937499999999994
40
0.953124999999995
40
0.953124999999995
40
0.960937499999995
40
0.960937499999995
40
0.968749999999996
40
0.968749999999996
40
1
40
1
40
1
40
1
41
1
10
20.0529904299467
20
7.58838152913663
30
0
41
1
10
20.8638780483098
20
7.35112187164316
30
0
41
1
10
21.6749337891982
20
7.10966939899271
30
0
41
1
10
23.2969641728961
20
6.61757295465236
30
0
41
1
10
24.1079425368587
20
6.36693723929778
30
0
41
1
10
25.324064128172
20
5.98335796704572
30
0
41
1
10
25.7293717694105
20
5.85420350444957
30
0
41
1
10
26.3372402906845
20
5.65852754877164
30
0
41
1
10
26.5398558874519
20
5.59299869325767
30
0
41
1
10
26.945179693457
20
5.46160811620521
30
0
41
1
10
27.1478860464909
20
5.39574208427888
30
0
41
1
10
28.1616064800473
20
5.06548027440243
30
0
41
1
10
28.9733145086058
20
4.79815524851824
30
0
41
1
10
30.59577074308
20
4.25699768400241
30
0
41
1
10
31.4067002372842
20
3.98311573278326
30
0
41
1
10
32.4197469499865
20
3.63594290731331
30
0
41
1
10
32.6223256016798
20
3.56626695338852
30
0
41
1
10
33.0275159811453
20
3.42668790325769
30
0
41
1
10
33.2301392146058
20
3.3568162450045
30
0
41
1
10
33.8381045786636
20
3.14698937681004
30
0
41
1
10
34.2435265897625
20
3.00677971965033
30
0
41
1
10
35.4600061005496
20
2.58485546523707
30
0
41
1
10
36.2713300144307
20
2.30190356374808
30
0
41
1
10
37.4884173105831
20
1.87425332541395
30
0
41
1
10
37.8939738095918
20
1.731217341676
30
0
41
1
10
38.7047593420566
20
1.44403489795715
30
0
41
1
10
39.1099541960707
20
1.29979218781068
30
0
41
1
10
40.3259184551198
20
0.867840825070829
30
0
41
1
10
41.1368354220495
20
0.580259859910711
30
0
41
1
10
42.7587392671127
20
0.0045357355721762
30
0
41
1
10
43.5697482773049
20
-0.28354524132078
30
0
41
1
10
44.5833385711447
20
-0.644608947047146
30
0
41
1
10
44.7860436152777
20
-0.716882479462953
30
0
41
1
10
45.191456181263
20
-0.861470941197837
30
0
41
1
10
45.3941779867194
20
-0.933774793462362
30
0
41
1
10
46.0024581465736
20
-1.15023718220604
30
0
41
1
10
46.4080189398828
20
-1.29398207876153
30
0
41
1
10
47.6246717618915
20
-1.72396888981049
30
0
41
1
10
48.4357485496338
20
-2.00892493663773
30
0
41
1
10
49.6520678911847
20
-2.43453391616509
30
0
41
1
10
50.0574567402578
20
-2.5761031880393
30
0
41
1
10
50.6654276070682
20
-2.78810102169203
30
0
41
1
10
50.8680653047833
20
-2.85870901002877
30
0
41
1
10
51.2732996440474
20
-2.99981473300744
30
0
41
1
10
51.4758984300798
20
-3.07030642934467
30
0
41
1
10
52.0837866610434
20
-3.28119444098715
30
0
41
1
10
52.489213880319
20
-3.42087885302269
30
0
41
1
10
53.3003213566356
20
-3.69867058651983
30
0
41
1
10
53.7060229956712
20
-3.83680011746745
30
0
41
1
10
54.9232610267419
20
-4.24897651286537
30
0
41
1
10
55.7344841599897
20
-4.52064898912298
30
0
41
1
10
56.7479331242403
20
-4.85697080522496
30
0
41
1
10
56.950593893096
20
-4.92407127270081
30
0
41
1
10
57.3558514594421
20
-5.05795738585422
30
0
41
1
10
57.5584423245181
20
-5.12475825084962
30
0
41
1
10
58.1662170413248
20
-5.32443061610175
30
0
41
1
10
58.5714873532918
20
-5.45635429311386
30
0
41
1
10
59.7876261470936
20
-5.84841317051379
30
0
41
1
10
60.5987128432954
20
-6.10512459426607
30
0
41
1
10
61.815575715591
20
-6.4838721804808
30
0
41
1
10
62.2212661125354
20
-6.60907913017027
30
0
41
1
10
63.0325352866948
20
-6.85744849908198
30
0
41
1
10
63.4379962370646
20
-6.98062081596123
30
0
41
1
10
64.0459757396187
20
-7.16372420507739
30
0
41
1
10
64.2486134268928
20
-7.22445109546544
30
0
41
1
10
64.6539433549993
20
-7.34505882812633
30
0
41
1
10
64.8566273488782
20
-7.40495958439914
30
0
41
1
10
65.4647167160938
20
-7.58350534975742
30
0
41
1
10
65.8701549652651
20
-7.70100492242059
30
0
41
1
10
67.0865173726797
20
-8.04914100395982
30
0
41
1
10
67.8975061382121
20
-8.27538576570291
30
0
41
1
10
69.1138281087301
20
-8.60656677096441
30
0
41
1
10
69.5192382726305
20
-8.71560129489433
30
0
41
1
10
70.1272874151693
20
-8.87713358749093
30
0
41
1
10
70.329964422216
20
-8.93063002876158
30
0
41
1
10
70.7354083046682
20
-9.03671476054549
30
0
41
1
10
70.9381956234478
20
-9.08929313426708
30
0
41
1
10
71.9521813703525
20
-9.34986460483358
30
0
41
1
10
72.7633864101755
20
-9.55097844331834
30
0
41
1
10
74.385432860378
20
-9.9394523201633
30
0
41
1
10
75.1962811366884
20
-10.1267989263923
30
0
41
1
10
76.4120007937444
20
-10.3978665698023
30
0
41
1
10
76.8171450214418
20
-10.486558924048
30
0
41
1
10
77.6278552523526
20
-10.6595704159269
30
0
41
1
10
78.0333553119971
20
-10.7440092320045
30
0
41
1
10
78.8445574657561
20
-10.9089255757738
30
0
41
1
10
79.2503063754506
20
-10.98940347575
30
0
41
1
10
80.0617810949867
20
-11.1464099240136
30
0
41
1
10
80.8730739339879
20
-11.2994388668972
30
0
41
1
10
81.6839026269737
20
-11.4446457363177
30
0
41
1
10
82.4944512109636
20
-11.5859749195893
30
0
41
1
10
82.8995331906784
20
-11.6547631604987
30
0
41
1
10
84.1151691535864
20
-11.8542052304288
30
0
41
1
10
84.9259720161624
20
-11.9781759427686
30
0
41
1
10
86.5478283436559
20
-12.2089602603832
30
0
41
1
10
87.3589087006847
20
-12.3157403531676
30
0
41
1
10
88.37270827735
20
-12.4385742724963
30
0
41
1
10
88.5754766591405
20
-12.4626114892713
30
0
41
1
10
88.98094915097
20
-12.5095988736682
30
0
41
1
10
89.1836434902315
20
-12.532543057082
30
0
41
1
10
89.7917588328935
20
-12.5995886691817
30
0
41
1
10
90.1972209430614
20
-12.6419007752162
30
0
41
1
10
91.4136084710061
20
-12.7618926194004
30
0
41
1
10
92.2245420114241
20
-12.8326337891792
30
0
41
1
10
93.4407000194134
20
-12.9250868684742
30
0
41
1
10
93.8460439120389
20
-12.9536254673005
30
0
41
1
10
94.4539606693369
20
-12.9930094170547
30
0
41
1
10
94.6565830508175
20
-13.0055665009502
30
0
41
1
10
95.0617889992989
20
-13.0295348243365
30
0
41
1
10
95.2643701001667
20
-13.0409464817673
30
0
41
1
10
96.2773941664972
20
-13.0950342630372
30
0
41
1
10
97.0884829465026
20
-13.1287114153104
30
0
41
1
10
97.9000000000001
20
-13.1530066987074
30
0
0
SPLINE
5
CE
100
AcDbEntity
8
1
62
256
6
ByLayer
370
18
48
1
60
0
100
AcDbSpline
70
4
71
3
72
91
73
87
40
0
40
0
40
0
40
0
40
0.0097048976424824
40
0.0097048976424824
40
0.0317114554726493
40
0.0317114554726493
40
0.0427147343877327
40
0.0427147343877327
40
0.0537180133028161
40
0.0537180133028161
40
0.0757245711329829
40
0.0757245711329829
40
0.119737686793316
40
0.119737686793316
40
0.141744244623483
40
0.141744244623483
40
0.152747523538567
40
0.152747523538567
40
0.16375080245365
40
0.16375080245365
40
0.207763918113985
40
0.207763918113985
40
0.25177703377432
40
0.25177703377432
40
0.273783591604487
40
0.273783591604487
40
0.295790149434654
40
0.295790149434654
40
0.317796707264822
40
0.317796707264822
40
0.339803265094989
40
0.339803265094989
40
0.361809822925157
40
0.361809822925157
40
0.372813101840241
40
0.372813101840241
40
0.383816380755324
40
0.383816380755324
40
0.427829496415659
40
0.427829496415659
40
0.449836054245828
40
0.449836054245828
40
0.471842612075995
40
0.471842612075995
40
0.482845890991079
40
0.482845890991079
40
0.493849169906163
40
0.51585572773633
40
0.51585572773633
40
0.559868843396664
40
0.559868843396664
40
0.570872122311747
40
0.570872122311747
40
0.581875401226831
40
0.581875401226831
40
0.603881959056996
40
0.603881959056996
40
0.647895074717329
40
0.647895074717329
40
0.669901632547495
40
0.669901632547495
40
0.680904911462579
40
0.680904911462579
40
0.691908190377662
40
0.691908190377662
40
0.71391474820783
40
0.71391474820783
40
0.735921306037997
40
0.735921306037997
40
0.779934421698331
40
0.779934421698331
40
0.801940979528498
40
0.801940979528498
40
0.823947537358665
40
0.823947537358665
40
0.867960653018999
40
0.867960653018999
40
0.889967210849166
40
0.889967210849166
40
0.900970489764249
40
0.900970489764249
40
0.911973768679333
40
0.911973768679333
40
0.955986884339666
40
0.955986884339666
40
1
40
1
40
1
40
1
41
1
10
73.6184243378238
20
-9.75433637688613
30
0
41
1
10
73.4260294067755
20
-9.80038713360275
30
0
41
1
10
73.2336207365133
20
-9.84604893567143
30
0
41
1
10
72.6048706224144
20
-9.99398857637942
30
0
41
1
10
72.1684372521905
20
-10.0946750200212
30
0
41
1
10
71.5140978101736
20
-10.2426693370315
30
0
41
1
10
71.2960222041337
20
-10.2914975982306
30
0
41
1
10
70.8599495094215
20
-10.3881495487925
30
0
41
1
10
70.6419573998991
20
-10.4359814778961
30
0
41
1
10
69.9880103401965
20
-10.5778119024708
30
0
41
1
10
69.5520195019402
20
-10.6700352060556
30
0
41
1
10
68.2439012922243
20
-10.939660127743
30
0
41
1
10
67.3716743231641
20
-11.1101087417569
30
0
41
1
10
66.0632745366278
20
-11.3521215594578
30
0
41
1
10
65.6271337499694
20
-11.430516127969
30
0
41
1
10
64.9729345315491
20
-11.5447036187003
30
0
41
1
10
64.7548716225735
20
-11.5822005047184
30
0
41
1
10
64.3187445922154
20
-11.6560460514365
30
0
41
1
10
64.1006690157087
20
-11.6923917307038
30
0
41
1
10
63.0101353471743
20
-11.870904969515
30
0
41
1
10
62.1377232379633
20
-12.0034051612696
30
0
41
1
10
60.3931434284405
20
-12.2483038363885
30
0
41
1
10
59.5209732527038
20
-12.3607008041094
30
0
41
1
10
58.2130963809116
20
-12.5142874284663
30
0
41
1
10
57.7772326218935
20
-12.5629984378222
30
0
41
1
10
56.9051511607699
20
-12.6549692652655
30
0
41
1
10
56.4689704047689
20
-12.6982688649944
30
0
41
1
10
55.596360242209
20
-12.7795509493317
30
0
41
1
10
55.1598958735961
20
-12.8175347024707
30
0
41
1
10
54.2872545812188
20
-12.8881662055666
30
0
41
1
10
53.8510181371764
20
-12.9208201033537
30
0
41
1
10
52.9787499426706
20
-12.9808146282681
30
0
41
1
10
52.5427193761769
20
-13.0081556883705
30
0
41
1
10
51.8888462779972
20
-13.0451610488126
30
0
41
1
10
51.6709165289263
20
-13.056827125703
30
0
41
1
10
51.2350267440295
20
-13.0787839867158
30
0
41
1
10
51.0170598203615
20
-13.0890727415884
30
0
41
1
10
49.927115316196
20
-13.1370840522415
30
0
41
1
10
49.054821728145
20
-13.1645334759896
30
0
41
1
10
47.7460329776317
20
-13.1894003910428
30
0
41
1
10
47.3096854674144
20
-13.1949680769648
30
0
41
1
10
46.437025984706
20
-13.2006350562205
30
0
41
1
10
46.0008672137138
20
-13.2007327521895
30
0
41
1
10
45.3468362593217
20
-13.19674723241
30
0
41
1
10
45.1288479256512
20
-13.1947301198277
30
0
41
1
10
44.6928367674631
20
-13.1893286346938
30
0
41
1
10
44.0387910746508
20
-13.179174892228
30
0
41
1
10
43.3846788128138
20
-13.1628949771791
30
0
41
1
10
42.0764034658965
20
-13.1222006757076
30
0
41
1
10
41.2041464142321
20
-13.0842438365562
30
0
41
1
10
40.1138996055417
20
-13.0231267848957
30
0
41
1
10
39.8958537956614
20
-13.0102185828141
30
0
41
1
10
39.4597724800639
20
-12.983024456308
30
0
41
1
10
39.2417405675153
20
-12.9687360890782
30
0
41
1
10
38.5875555058768
20
-12.9238517625072
30
0
41
1
10
38.1512316553584
20
-12.8912663457554
30
0
41
1
10
36.8425009712262
20
-12.7856656431206
30
0
41
1
10
35.9701099804032
20
-12.7047912927581
30
0
41
1
10
34.6618309443541
20
-12.5677130826394
30
0
41
1
10
34.2257917566553
20
-12.519386771935
30
0
41
1
10
33.5718368557258
20
-12.4429028023513
30
0
41
1
10
33.3538718368606
20
-12.4167395577651
30
0
41
1
10
32.9179652871975
20
-12.3630855158216
30
0
41
1
10
32.7000197507438
20
-12.3355980158512
30
0
41
1
10
32.0460685203564
20
-12.2512937727358
30
0
41
1
10
31.6099672649958
20
-12.1926198723657
30
0
41
1
10
30.737529867474
20
-12.0703304867256
30
0
41
1
10
30.3011600675135
20
-12.0067105269605
30
0
41
1
10
28.9919503520806
20
-11.8084418680994
30
0
41
1
10
28.119481944886
20
-11.6664709870327
30
0
41
1
10
26.8114858653249
20
-11.4384599426009
30
0
41
1
10
26.3756255064373
20
-11.3599070828908
30
0
41
1
10
25.5036427124348
20
-11.1984736032837
30
0
41
1
10
25.0675655994153
20
-11.1155347584822
30
0
41
1
10
23.7591227834622
20
-10.860027562482
30
0
41
1
10
22.8864902813994
20
-10.6807858333736
30
0
41
1
10
21.5774350610692
20
-10.3982675848846
30
0
41
1
10
21.1412293099075
20
-10.3018435574796
30
0
41
1
10
20.4871499813947
20
-10.1537913011074
30
0
41
1
10
20.2691587311303
20
-10.1038758886846
30
0
41
1
10
19.8331561187607
20
-10.0030798619291
30
0
41
1
10
19.6151420771811
20
-9.95220471314121
30
0
41
1
10
18.5250179780872
20
-9.69543730169428
30
0
41
1
10
17.6527529074349
20
-9.48237108519544
30
0
41
1
10
15.9080807838761
20
-9.0406656656717
30
0
41
1
10
15.0356715253306
20
-8.81203350927601
30
0
41
1
10
14.1633321745031
20
-8.57520340386529
30
0
0
SPLINE
5
CF
100
AcDbEntity
8
1
62
256
6
ByLayer
370
18
48
1
60
0
100
AcDbSpline
70
4
71
3
72
101
73
97
40
0
40
0
40
0
40
0
40
0.062500000000001
40
0.062500000000001
40
0.0937500000000023
40
0.0937500000000023
40
0.125000000000004
40
0.125000000000004
40
0.156250000000005
40
0.156250000000005
40
0.187500000000006
40
0.187500000000006
40
0.195312500000006
40
0.195312500000006
40
0.203125000000006
40
0.218750000000005
40
0.218750000000005
40
0.250000000000003
40
0.250000000000003
40
0.281250000000002
40
0.281250000000002
40
0.296875000000001
40
0.296875000000001
40
0.304687500000001
40
0.304687500000001
40
0.312500000000001
40
0.312500000000001
40
0.343749999999999
40
0.343749999999999
40
0.374999999999997
40
0.374999999999997
40
0.390624999999996
40
0.390624999999996
40
0.394531249999996
40
0.394531249999996
40
0.398437499999996
40
0.398437499999996
40
0.406249999999996
40
0.406249999999996
40
0.437499999999997
40
0.437499999999997
40
0.468749999999998
40
0.468749999999998
40
0.484374999999999
40
0.484374999999999
40
0.488281249999999
40
0.488281249999999
40
0.492187499999999
40
0.492187499999999
40
0.499999999999999
40
0.499999999999999
40
0.53125
40
0.53125
40
0.5625
40
0.5625
40
0.5703125
40
0.5703125
40
0.578125
40
0.578125
40
0.59375
40
0.59375
40
0.625
40
0.625
40
0.640624999999999
40
0.640624999999999
40
0.648437499999999
40
0.648437499999999
40
0.656249999999999
40
0.656249999999999
40
0.687499999999998
40
0.687499999999998
40
0.718749999999997
40
0.718749999999997
40
0.749999999999996
40
0.749999999999996
40
0.757812499999996
40
0.757812499999996
40
0.765624999999996
40
0.765624999999996
40
0.781249999999996
40
0.781249999999996
40
0.812499999999996
40
0.812499999999996
40
0.843749999999996
40
0.843749999999996
40
0.874999999999996
40
0.874999999999996
40
0.906249999999996
40
0.906249999999996
40
0.937499999999996
40
0.937499999999996
40
0.953124999999997
40
0.953124999999997
40
0.968749999999997
40
0.968749999999997
40
1
40
1
40
1
40
1
41
1
10
10
20
7.98892833712557
30
0
41
1
10
9.54270587156901
20
7.92864915210754
30
0
41
1
10
9.09863307642428
20
7.84454293377394
30
0
41
1
10
8.45190714338116
20
7.67933395246618
30
0
41
1
10
8.23956892737669
20
7.61773627220182
30
0
41
1
10
7.82138364793403
20
7.48064237152613
30
0
41
1
10
7.61553599248808
20
7.40514853542203
30
0
41
1
10
7.21042583483052
20
7.23916120201659
30
0
41
1
10
7.01116238123109
20
7.14867147494937
30
0
41
1
10
6.61941492090091
20
6.95123967212206
30
0
41
1
10
6.42692933571135
20
6.84430376778275
30
0
41
1
10
6.19076656760546
20
6.69913324706584
30
0
41
1
10
6.14370427267406
20
6.66948794215355
30
0
41
1
10
6.0504039510655
20
6.60925066036612
30
0
41
1
10
5.91162508122363
20
6.51743977553966
30
0
41
1
10
5.77636343537233
20
6.42121199341773
30
0
41
1
10
5.51055768616931
20
6.22269933922118
30
0
41
1
10
5.33963437056863
20
6.0822952702886
30
0
41
1
10
5.01070524302631
20
5.78417446071859
30
0
41
1
10
4.85269581185244
20
5.62646394871146
30
0
41
1
10
4.62589401611791
20
5.37564302404644
30
0
41
1
10
4.55199850528493
20
5.28965562221734
30
0
41
1
10
4.44381196276723
20
5.15689336948734
30
0
41
1
10
4.40818486843688
20
5.11199837607498
30
0
41
1
10
4.33786928592252
20
5.02094892389314
30
0
41
1
10
4.30330974748677
20
4.97496187809529
30
0
41
1
10
4.13350756057926
20
4.74269405831802
30
0
41
1
10
4.00722844399064
20
4.54943251759548
30
0
41
1
10
3.77425797200385
20
4.14721914084205
30
0
41
1
10
3.66756037690092
20
3.93827297111977
30
0
41
1
10
3.5230533679059
20
3.61210678729151
30
0
41
1
10
3.47748008588445
20
3.50125570404836
30
0
41
1
10
3.423899781763
20
3.35988622882451
30
0
41
1
10
3.41335319587557
20
3.33147192418846
30
0
41
1
10
3.39260318486322
20
3.27435834775184
30
0
41
1
10
3.38239077189388
20
3.24563265979163
30
0
41
1
10
3.35236894582999
20
3.15929506314095
30
0
41
1
10
3.33316012905499
20
3.10148728776323
30
0
41
1
10
3.24112205623516
20
2.81120320943765
30
0
41
1
10
3.18027458373922
20
2.57500084487688
30
0
41
1
10
3.08414496560414
20
2.09453786697128
30
0
41
1
10
3.04885905951511
20
1.85027856847736
30
0
41
1
10
3.01582995988784
20
1.4775700740289
30
0
41
1
10
3.00814478536088
20
1.35227849974314
30
0
41
1
10
3.00283629859493
20
1.19429759070857
30
0
41
1
10
3.0019896920351
20
1.1626330334731
30
0
41
1
10
3.00073101039288
20
1.09916576783755
30
0
41
1
10
3.00031915202439
20
1.06733850559016
30
0
41
1
10
2.99974254890984
20
0.972033260368107
30
0
41
1
10
3.0002331785021
20
0.908626174383016
30
0
41
1
10
3.00699593957864
20
0.592229703143829
30
0
41
1
10
3.0261552679022
20
0.341151283104438
30
0
41
1
10
3.09099699665049
20
-0.157078131401022
30
0
41
1
10
3.13668445437247
20
-0.404228388679286
30
0
41
1
10
3.210370127647
20
-0.710719119095643
30
0
41
1
10
3.22593825995529
20
-0.771894602777479
30
0
41
1
10
3.25874495228629
20
-0.893999243516788
30
0
41
1
10
3.2759273482061
20
-0.954714165950662
30
0
41
1
10
3.32963474438489
20
-1.13541746645441
30
0
41
1
10
3.3683705362335
20
-1.25416155034603
30
0
41
1
10
3.4930199125395
20
-1.60545329197004
30
0
41
1
10
3.58735485827521
20
-1.83307227453051
30
0
41
1
10
3.74476586704776
20
-2.1653095679462
30
0
41
1
10
3.79989326792358
20
-2.2745202357732
30
0
41
1
10
3.88649490980035
20
-2.4360929624186
30
0
41
1
10
3.91601413868446
20
-2.4895765110893
30
0
41
1
10
3.97634696575318
20
-2.59580382017242
30
0
41
1
10
4.00711973731461
20
-2.64847179815152
30
0
41
1
10
4.16332568854102
20
-2.90860315481839
30
0
41
1
10
4.29633479106269
20
-3.10748329794399
30
0
41
1
10
4.57683809312562
20
-3.48896374210898
30
0
41
1
10
4.72433992415171
20
-3.67155502090833
30
0
41
1
10
5.03265973514715
20
-4.0220661211284
30
0
41
1
10
5.19348251513355
20
-4.18998044402002
30
0
41
1
10
5.40224724492799
20
-4.39150697438598
30
0
41
1
10
5.44438739662317
20
-4.43139336529458
30
0
41
1
10
5.52942865925098
20
-4.51034642412182
30
0
41
1
10
5.57236622621338
20
-4.54944547018462
30
0
41
1
10
5.70203188642267
20
-4.66530010758424
30
0
41
1
10
5.78946306984665
20
-4.74048682735835
30
0
41
1
10
6.05453397366446
20
-4.9603472116593
30
0
41
1
10
6.23494726442704
20
-5.09933343939809
30
0
41
1
10
6.60230483221724
20
-5.36416239454812
30
0
41
1
10
6.78925061444232
20
-5.4900010039122
30
0
41
1
10
7.1689138988387
20
-5.73020643205052
30
0
41
1
10
7.36163180602549
20
-5.84457132424259
30
0
41
1
10
7.7521551755255
20
-6.06324313621445
30
0
41
1
10
7.94996013870929
20
-6.16754965400756
30
0
41
1
10
8.35005065892599
20
-6.36729323236472
30
0
41
1
10
8.5523349887728
20
-6.46273092536541
30
0
41
1
10
8.85874460605447
20
-6.59995375059495
30
0
41
1
10
8.96142267339241
20
-6.64472176514732
30
0
41
1
10
9.16740641115115
20
-6.732238254349
30
0
41
1
10
9.27073316808355
20
-6.77499733856348
30
0
41
1
10
9.5816703678102
20
-6.9004236566376
30
0
41
1
10
9.79023200387277
20
-6.98025064752986
30
0
41
1
10
10
20
-7.05655009015291
30
0
0
SPLINE
5
D0
100
AcDbEntity
8
1
62
256
6
ByLayer
370
18
48
1
60
0
100
AcDbSpline
70
4
71
3
72
14
73
10
40
0
40
0
40
0
40
0
40
0.25
40
0.25
40
0.5
40
0.5
40
0.75
40
0.75
40
1
40
1
40
1
40
1
41
1
10
14.1633321745029
20
-8.5752034038652
30
0
41
1
10
13.8047845294236
20
-8.47485056572296
30
0
41
1
10
13.4495763916618
20
-8.36769966070489
30
0
41
1
10
12.7447611543151
20
-8.14088674137975
30
0
41
1
10
12.3951481636992
20
-8.02123956376559
30
0
41
1
10
11.7011718403588
20
-7.76933120045405
30
0
41
1
10
11.3568096168323
20
-7.63707479081648
30
0
41
1
10
10.6738100560838
20
-7.35830473778165
30
0
41
1
10
10.3351788524728
20
-7.2117874210366
30
0
41
1
10
10
20
-7.05655009015294
30
0
0
SPLINE
5
D1
100
AcDbEntity
8
1
62
256
6
ByLayer
370
18
48
1
60
0
100
AcDbSpline
70
4
71
4
72
16
73
11
40
0
40
0
40
0
40
0
40
0
40
0.294038105554562
40
0.294038105554562
40
0.294038105554562
40
0.705961894445433
40
0.705961894445433
40
0.705961894445433
40
1
40
1
40
1
40
1
40
1
41
0.997003827776728
10
20.0529904299466
20
7.58838152913642
30
0
41
0.994765290493932
10
19.8834172082057
20
7.20007662123991
30
0
41
0.993902846349513
10
19.56929230015
20
6.41105143405905
30
0
41
1
10
19.1229721298306
20
5.24281648817453
30
0
41
1
10
17.9808061485568
20
2.19946746156083
30
0
41
0.988033871712585
10
17.1081613022249
20
-0.167197672627688
30
0
41
1
10
16.2355164558929
20
-2.59030759100568
30
0
41
1
10
15.0933504746192
20
-5.81608184632114
30
0
41
0.993902846349512
10
14.6470303042998
20
-7.09761008443874
30
0
41
0.994765290493932
10
14.3329053962441
20
-8.03275441973802
30
0
41
0.997003827776728
10
14.1633321745032
20
-8.57520340386501
30
0
0
SPLINE
5
D2
100
AcDbEntity
8
1
62
256
6
ByLayer
370
18
48
1
60
0
100
AcDbSpline
70
4
71
3
72
27
73
23
40
0
40
0
40
0
40
0
40
0.125000000000018
40
0.125000000000018
40
0.250000000000036
40
0.250000000000036
40
0.375000000000054
40
0.375000000000054
40
0.437500000000061
40
0.437500000000061
40
0.453125000000061
40
0.453125000000061
40
0.468750000000061
40
0.500000000000056
40
0.500000000000056
40
0.625000000000042
40
0.625000000000042
40
0.750000000000028
40
0.750000000000028
40
0.875000000000014
40
0.875000000000014
40
1
40
1
40
1
40
1
41
1
10
10
20
7.9889283371256
30
0
41
1
10
10.4091623205371
20
8.10389337640947
30
0
41
1
10
10.8219733961805
20
8.19814495466554
30
0
41
1
10
11.6543726935951
20
8.35034887822411
30
0
41
1
10
12.0739649439643
20
8.40827079252765
30
0
41
1
10
12.9196484888546
20
8.49064264803172
30
0
41
1
10
13.3457428628927
20
8.51507286362349
30
0
41
1
10
13.9896467112291
20
8.52761691222895
30
0
41
1
10
14.205075785175
20
8.52777136499444
30
0
41
1
10
14.475346049741
20
8.52297779914539
30
0
41
1
10
14.5294884666292
20
8.52176846776166
30
0
41
1
10
14.6376410951093
20
8.51885828144856
30
0
41
1
10
14.799664829594
20
8.51375726913813
30
0
41
1
10
14.9610823680529
20
8.50648042819367
30
0
41
1
10
15.4978343427169
20
8.47751834086907
30
0
41
1
10
15.9230566574153
20
8.43931268170849
30
0
41
1
10
16.7661380596998
20
8.33566199561653
30
0
41
1
10
17.1839940183519
20
8.27019794222386
30
0
41
1
10
18.013356358784
20
8.11459348496558
30
0
41
1
10
18.4248637545674
20
8.02444956669592
30
0
41
1
10
19.2426112381124
20
7.82220310088294
30
0
41
1
10
19.6488581419861
20
7.71012153365956
30
0
41
1
10
20.0529904299465
20
7.58838152913668
30
0
0
SPLINE
5
D3
100
AcDbEntity
8
SK1
62
256
6
ByLayer
370
18
48
1
60
0
100
AcDbSpline
70
4
71
3
72
37
73
33
40
0
40
0
40
0
40
0
40
0.124999999999999
40
0.124999999999999
40
0.249999999999997
40
0.249999999999997
40
0.374999999999996
40
0.374999999999996
40
0.437499999999996
40
0.437499999999996
40
0.499999999999995
40
0.499999999999995
40
0.624999999999995
40
0.624999999999995
40
0.656249999999996
40
0.656249999999996
40
0.687499999999996
40
0.687499999999996
40
0.749999999999997
40
0.749999999999997
40
0.812499999999999
40
0.812499999999999
40
0.843749999999999
40
0.843749999999999
40
0.874999999999999
40
0.874999999999999
40
0.9375
40
0.9375
40
0.953125
40
0.953125
40
0.96875
40
1
40
1
40
1
40
1
41
1
10
-56.6013095599541
20
-3.67404242557649
30
0
41
1
10
-56.5818983671532
20
-3.76227101295461
30
0
41
1
10
-56.5608730792548
20
-3.84980231602845
30
0
41
1
10
-56.5149011456991
20
-4.02327304907473
30
0
41
1
10
-56.4899592553202
20
-4.1092138747162
30
0
41
1
10
-56.4351919062966
20
-4.27922783366643
30
0
41
1
10
-56.4053764863432
20
-4.36330392303796
30
0
41
1
10
-56.3559085219568
20
-4.48770487574166
30
0
41
1
10
-56.3386238532612
20
-4.52888499906533
30
0
41
1
10
-56.3022004610974
20
-4.6105950760475
30
0
41
1
10
-56.2830277903437
20
-4.65119311461675
30
0
41
1
10
-56.2224911706718
20
-4.77130399167868
30
0
41
1
10
-56.1782467144578
20
-4.84907413383172
30
0
41
1
10
-56.115968443464
20
-4.94231131697211
30
0
41
1
10
-56.10315836213
20
-4.96075692759766
30
0
41
1
10
-56.0767470461803
20
-4.99720157474036
30
0
41
1
10
-56.0631669720757
20
-5.01516889117784
30
0
41
1
10
-56.0213776959376
20
-5.06798704911631
30
0
41
1
10
-55.992061754375
20
-5.10185542724588
30
0
41
1
10
-55.9298321318183
20
-5.16631273888052
30
0
41
1
10
-55.8969272538349
20
-5.19690945406094
30
0
41
1
10
-55.8440712942131
20
-5.23964848292457
30
0
41
1
10
-55.8258658181591
20
-5.25336554431573
30
0
41
1
10
-55.7880772055068
20
-5.27956269503571
30
0
41
1
10
-55.7687283546429
20
-5.29187752331967
30
0
41
1
10
-55.7092375195426
20
-5.32619065397267
30
0
41
1
10
-55.6676447686972
20
-5.34560920419477
30
0
41
1
10
-55.6125612417126
20
-5.36437634382568
30
0
41
1
10
-55.6013755519815
20
-5.36785346658095
30
0
41
1
10
-55.5789098857052
20
-5.37414928699397
30
0
41
1
10
-55.5449888078968
20
-5.38263478003245
30
0
41
1
10
-55.5103812675636
20
-5.38816693911767
30
0
41
1
10
-55.4869828320874
20
-5.39045045482675
30
0
0
SPLINE
5
D4
100
AcDbEntity
8
SK1
62
256
6
ByLayer
370
18
48
1
60
0
100
AcDbSpline
70
4
71
3
72
38
73
34
40
0
40
0
40
0
40
0
40
0.0624999999999988
40
0.0624999999999988
40
0.0937499999999982
40
0.0937499999999982
40
0.109374999999998
40
0.109374999999998
40
0.124999999999999
40
0.124999999999999
40
0.187499999999997
40
0.187499999999997
40
0.218749999999997
40
0.218749999999997
40
0.249999999999996
40
0.249999999999996
40
0.312499999999996
40
0.312499999999996
40
0.374999999999996
40
0.374999999999996
40
0.437499999999996
40
0.437499999999996
40
0.468749999999996
40
0.468749999999996
40
0.499999999999996
40
0.499999999999996
40
0.624999999999997
40
0.624999999999997
40
0.749999999999998
40
0.749999999999998
40
0.874999999999999
40
0.874999999999999
40
1
40
1
40
1
40
1
41
1
10
-55.4869828320874
20
5.39045045482675
30
0
41
1
10
-55.5340112854939
20
5.38586082265942
30
0
41
1
10
-55.5792475407432
20
5.37567921640115
30
0
41
1
10
-55.6448597758275
20
5.35339526064908
30
0
41
1
10
-55.6663543340588
20
5.34479075805541
30
0
41
1
10
-55.6980700363939
20
5.33023526841174
30
0
41
1
10
-55.7085426555182
20
5.32511155488996
30
0
41
1
10
-55.7290868425515
20
5.31446061507978
30
0
41
1
10
-55.7391894091154
20
5.30891956332113
30
0
41
1
10
-55.7889172059676
20
5.28021446580462
30
0
41
1
10
-55.8262117488448
20
5.25408170222258
30
0
41
1
10
-55.87927436858
20
5.21118741343659
30
0
41
1
10
-55.8964771995976
20
5.19626735233749
30
0
41
1
10
-55.9300114215657
20
5.16530406746776
30
0
41
1
10
-55.9462917892921
20
5.14930296213541
30
0
41
1
10
-55.9934356942821
20
5.10035000843709
30
0
41
1
10
-56.0228020768564
20
5.06628595710666
30
0
41
1
10
-56.078326436026
20
4.99590453061043
30
0
41
1
10
-56.1044778219573
20
4.95958275029739
30
0
41
1
10
-56.1541566098393
20
4.88506830814691
30
0
41
1
10
-56.1776808746374
20
4.84687355258669
30
0
41
1
10
-56.2113079014024
20
4.78837896752557
30
0
41
1
10
-56.2222393682362
20
4.76867706562567
30
0
41
1
10
-56.2434756231488
20
4.72911675343036
30
0
41
1
10
-56.2537968848612
20
4.7092302403565
30
0
41
1
10
-56.3040524668077
20
4.60930752204828
30
0
41
1
10
-56.339989360063
20
4.52781806830399
30
0
41
1
10
-56.4056776145828
20
4.36246555081721
30
0
41
1
10
-56.4354058590262
20
4.27859519764016
30
0
41
1
10
-56.4900491389977
20
4.10890313734902
30
0
41
1
10
-56.5149546873468
20
4.02307844746088
30
0
41
1
10
-56.56088189532
20
3.84976160662609
30
0
41
1
10
-56.5818990222464
20
3.76226803539686
30
0
41
1
10
-56.6013095599541
20
3.67404242557649
30
0
0
SPLINE
5
D5
100
AcDbEntity
8
SK1
62
256
6
ByLayer
370
18
48
1
60
0
100
AcDbSpline
70
4
71
3
72
33
73
29
40
0
40
0
40
0
40
0
40
0.125000000000006
40
0.125000000000006
40
0.250000000000012
40
0.250000000000012
40
0.375000000000017
40
0.375000000000017
40
0.40625000000002
40
0.40625000000002
40
0.437500000000023
40
0.437500000000023
40
0.500000000000019
40
0.500000000000019
40
0.625000000000009
40
0.625000000000009
40
0.656250000000005
40
0.656250000000005
40
0.687500000000001
40
0.687500000000001
40
0.749999999999993
40
0.812499999999985
40
0.812499999999985
40
0.843749999999988
40
0.843749999999988
40
0.87499999999999
40
0.87499999999999
40
1
40
1
40
1
40
1
41
1
10
-14.051872681288
20
7.58734230610622
30
0
41
1
10
-14.0806477010082
20
7.63716049470688
30
0
41
1
10
-14.1111960666033
20
7.68574713585582
30
0
41
1
10
-14.1763795738798
20
7.78016829172287
30
0
41
1
10
-14.2110110664831
20
7.82600493913273
30
0
41
1
10
-14.2851110385999
20
7.91451556477941
30
0
41
1
10
-14.3245721279275
20
7.95719387593883
30
0
41
1
10
-14.3776213268518
20
8.00817431396229
30
0
41
1
10
-14.3884185818754
20
8.01825128676794
30
0
41
1
10
-14.4104115542246
20
8.03815365023897
30
0
41
1
10
-14.4216108037395
20
8.04798083475526
30
0
41
1
10
-14.455622663142
20
8.07687937861485
30
0
41
1
10
-14.4789160665747
20
8.09543103467254
30
0
41
1
10
-14.5508106006942
20
8.14878338695524
30
0
41
1
10
-14.6014062936362
20
8.18130323174049
30
0
41
1
10
-14.6687381239779
20
8.21735588111801
30
0
41
1
10
-14.6824104044294
20
8.22433484183665
30
0
41
1
10
-14.710192970406
20
8.23780190427706
30
0
41
1
10
-14.7242927464647
20
8.24428275713819
30
0
41
1
10
-14.7668701147152
20
8.26277278740699
30
0
41
1
10
-14.8246359059293
20
8.28501525135295
30
0
41
1
10
-14.8845078995177
20
8.30218349007504
30
0
41
1
10
-14.9302595196826
20
8.31302504752674
30
0
41
1
10
-14.9456514993249
20
8.31629937780269
30
0
41
1
10
-14.976730334019
20
8.3221411784192
30
0
41
1
10
-14.9924519952567
20
8.32471328587587
30
0
41
1
10
-15.0714171524834
20
8.33566995587665
30
0
41
1
10
-15.1349687406039
20
8.33829643503807
30
0
41
1
10
-15.198909252112
20
8.33463752287949
30
0
0
SPLINE
5
D6
100
AcDbEntity
8
SK1
62
256
6
ByLayer
370
18
48
1
60
0
100
AcDbSpline
70
4
71
3
72
28
73
24
40
0
40
0
40
0
40
0
40
0.124999999999995
40
0.124999999999995
40
0.187499999999992
40
0.187499999999992
40
0.24999999999999
40
0.24999999999999
40
0.374999999999983
40
0.374999999999983
40
0.437499999999979
40
0.437499999999979
40
0.499999999999976
40
0.499999999999976
40
0.624999999999981
40
0.624999999999981
40
0.687499999999984
40
0.687499999999984
40
0.749999999999987
40
0.749999999999987
40
0.874999999999994
40
0.874999999999994
40
1
40
1
40
1
40
1
41
1
10
-15.198909252112
20
-8.33463752287949
30
0
41
1
10
-15.1350143484387
20
-8.33829382518937
30
0
41
1
10
-15.0719017967204
20
-8.33565332559238
30
0
41
1
10
-14.978337274282
20
-8.32279548271791
30
0
41
1
10
-14.9473338896935
20
-8.31702027865589
30
0
41
1
10
-14.8856931933269
20
-8.30251274872501
30
0
41
1
10
-14.8554833479755
20
-8.29387762923409
30
0
41
1
10
-14.7669559756536
20
-8.26429996307647
30
0
41
1
10
-14.7105270717761
20
-8.23965842490713
30
0
41
1
10
-14.6292411643099
20
-8.19624288886422
30
0
41
1
10
-14.6029581616285
20
-8.18081975592636
30
0
41
1
10
-14.5521237698499
20
-8.14844888077508
30
0
41
1
10
-14.5275204196119
20
-8.13147265143903
30
0
41
1
10
-14.4558957807576
20
-8.07840113768455
30
0
41
1
10
-14.411048006958
20
-8.04017416621042
30
0
41
1
10
-14.347408645875
20
-7.9791980354984
30
0
41
1
10
-14.3267704985616
20
-7.9582267315275
30
0
41
1
10
-14.2867812208927
20
-7.91531082173958
30
0
41
1
10
-14.267487937703
20
-7.89343345035931
30
0
41
1
10
-14.2115013365259
20
-7.82665213506647
30
0
41
1
10
-14.1766922853205
20
-7.78060380498701
30
0
41
1
10
-14.1112733091055
20
-7.68587638410847
30
0
41
1
10
-14.080667629502
20
-7.63719499690606
30
0
41
1
10
-14.051872681288
20
-7.58734230610622
30
0
0
SPLINE
5
D7
100
AcDbEntity
8
1
62
256
6
ByLayer
370
13
48
1
60
0
100
AcDbSpline
70
4
71
3
72
43
73
39
40
0
40
0
40
0
40
0
40
0.0624999999999998
40
0.0624999999999998
40
0.125
40
0.125
40
0.187499999999999
40
0.187499999999999
40
0.249999999999999
40
0.249999999999999
40
0.312499999999999
40
0.312499999999999
40
0.374999999999999
40
0.374999999999999
40
0.382812499999999
40
0.382812499999999
40
0.390624999999999
40
0.406249999999999
40
0.406249999999999
40
0.437499999999999
40
0.437499999999999
40
0.499999999999999
40
0.499999999999999
40
0.562499999999999
40
0.562499999999999
40
0.624999999999999
40
0.624999999999999
40
0.687499999999999
40
0.687499999999999
40
0.749999999999999
40
0.749999999999999
40
0.8125
40
0.8125
40
0.875
40
0.875
40
0.9375
40
0.9375
40
1
40
1
40
1
40
1
41
1
10
97.9
20
-11.1270144725028
30
0
41
1
10
98.0022529174944
20
-10.705473653614
30
0
41
1
10
98.1045058349888
20
-10.2295963004676
30
0
41
1
10
98.3090116699777
20
-9.18632415574385
30
0
41
1
10
98.4112645874721
20
-8.6190254084093
30
0
41
1
10
98.6157704224611
20
-7.41785271942683
30
0
41
1
10
98.7180233399554
20
-6.78411176381942
30
0
41
1
10
98.9225291749444
20
-5.47916156689701
30
0
41
1
10
99.0247820924387
20
-4.80808403155044
30
0
41
1
10
99.2292879274275
20
-3.45761101874032
30
0
41
1
10
99.3315408449221
20
-2.77831336054925
30
0
41
1
10
99.536046679911
20
-1.43703754627197
30
0
41
1
10
99.6382995974054
20
-0.775108328268288
30
0
41
1
10
99.7533341295865
20
-0.0513647339307113
30
0
41
1
10
99.7661157442734
20
0.0285930511101924
30
0
41
1
10
99.791678973647
20
0.189316195559002
30
0
41
1
10
99.8300238177073
20
0.431264872374925
30
0
41
1
10
99.8683686617678
20
0.67565947626349
30
0
41
1
10
99.9450583498887
20
1.16728519871265
30
0
41
1
10
99.9961848086358
20
1.49882977559335
30
0
41
1
10
100.149564184878
20
2.50100079102529
30
0
41
1
10
100.251817102372
20
3.17932072057266
30
0
41
1
10
100.456322937361
20
4.53160707163389
30
0
41
1
10
100.558575854855
20
5.20548192941351
30
0
41
1
10
100.763081689844
20
6.5200968095115
30
0
41
1
10
100.865334607338
20
7.16070815367468
30
0
41
1
10
101.069840442327
20
8.37945436563172
30
0
41
1
10
101.172093359822
20
8.95745410942831
30
0
41
1
10
101.376599194811
20
10.0251659625804
30
0
41
1
10
101.478852112305
20
10.5147749835758
30
0
41
1
10
101.683357947294
20
11.3871461800506
30
0
41
1
10
101.785610864788
20
11.7698660814281
30
0
41
1
10
101.990116699777
20
12.4194259204361
30
0
41
1
10
102.092369617272
20
12.686290299069
30
0
41
1
10
102.296875452261
20
13.1048980102009
30
0
41
1
10
102.399128369755
20
13.2567154103126
30
0
41
1
10
102.603634204744
20
13.4542188818358
30
0
41
1
10
102.705887122238
20
13.5
30
0
41
1
10
102.808140039733
20
13.5
30
0
0
SPLINE
5
D8
100
AcDbEntity
8
1
62
256
6
ByLayer
370
13
48
1
60
0
100
AcDbSpline
70
4
71
3
72
84
73
80
40
0
40
0
40
0
40
0
40
0.0312499999999999
40
0.0312499999999999
40
0.0624999999999998
40
0.0624999999999998
40
0.0937499999999996
40
0.0937499999999996
40
0.125
40
0.125
40
0.156249999999999
40
0.156249999999999
40
0.187499999999999
40
0.187499999999999
40
0.218749999999999
40
0.218749999999999
40
0.249999999999999
40
0.249999999999999
40
0.281249999999999
40
0.281249999999999
40
0.312499999999999
40
0.312499999999999
40
0.328124999999999
40
0.328124999999999
40
0.335937499999999
40
0.335937499999999
40
0.343749999999999
40
0.343749999999999
40
0.374999999999999
40
0.374999999999999
40
0.406249999999999
40
0.406249999999999
40
0.437499999999999
40
0.437499999999999
40
0.468749999999999
40
0.468749999999999
40
0.499999999999999
40
0.499999999999999
40
0.531249999999999
40
0.531249999999999
40
0.562499999999999
40
0.562499999999999
40
0.59375
40
0.59375
40
0.625
40
0.625
40
0.65625
40
0.65625
40
0.66015625
40
0.66015625
40
0.664062499999999
40
0.671874999999999
40
0.671874999999999
40
0.6875
40
0.6875
40
0.71875
40
0.71875
40
0.75
40
0.75
40
0.78125
40
0.78125
40
0.8125
40
0.8125
40
0.84375
40
0.84375
40
0.875
40
0.875
40
0.90625
40
0.90625
40
0.9375
40
0.9375
40
0.96875
40
0.96875
40
0.984375
40
0.984375
40
0.98828125
40
0.98828125
40
0.9921875
40
1
40
1
40
1
40
1
41
1
10
100.811305572118
20
13.5
30
0
41
1
10
100.907921158214
20
13.5
30
0
41
1
10
101.004536744311
20
13.4591449956746
30
0
41
1
10
101.197767916505
20
13.2834944930926
30
0
41
1
10
101.294383502601
20
13.1486270742991
30
0
41
1
10
101.487614674795
20
12.7768670354839
30
0
41
1
10
101.584230260892
20
12.539915667034
30
0
41
1
10
101.777461433085
20
11.9622173656506
30
0
41
1
10
101.874077019182
20
11.621444505591
30
0
41
1
10
102.067308191375
20
10.8419919326887
30
0
41
1
10
102.163923777472
20
10.4033326784237
30
0
41
1
10
102.357154949666
20
9.44177921680114
30
0
41
1
10
102.453770535763
20
8.91895166008609
30
0
41
1
10
102.647001707956
20
7.80919342506661
30
0
41
1
10
102.743617294053
20
7.22235980743682
30
0
41
1
10
102.936848466246
20
6.00865096210578
30
0
41
1
10
103.033464052343
20
5.38187797992163
30
0
41
1
10
103.226695224537
20
4.11319010677244
30
0
41
1
10
103.323310810633
20
3.47135862373204
30
0
41
1
10
103.516541982827
20
2.19541985288922
30
0
41
1
10
103.613157568924
20
1.56136300820106
30
0
41
1
10
103.758080948069
20
0.630157027858957
30
0
41
1
10
103.806388741117
20
0.323031803041857
30
0
41
1
10
103.87885043069
20
-0.131337563403548
30
0
41
1
10
103.903004327214
20
-0.283492789972911
30
0
41
1
10
103.951312120262
20
-0.590049998218518
30
0
41
1
10
103.975466016786
20
-0.744277570623922
30
0
41
1
10
104.096235499407
20
-1.51955486873737
30
0
41
1
10
104.192851085504
20
-2.15320966309733
30
0
41
1
10
104.386082257698
20
-3.42880853350991
30
0
41
1
10
104.482697843794
20
-4.0707029590053
30
0
41
1
10
104.675929015988
20
-5.34005327217997
30
0
41
1
10
104.772544602084
20
-5.96742637528797
30
0
41
1
10
104.965775774278
20
-7.18288900541896
30
0
41
1
10
105.062391360375
20
-7.77087646838166
30
0
41
1
10
105.255622532568
20
-8.88344448385837
30
0
41
1
10
105.352238118665
20
-9.40792757178428
30
0
41
1
10
105.545469290859
20
-10.3731772741914
30
0
41
1
10
105.642084876955
20
-10.813876342178
30
0
41
1
10
105.835316049149
20
-11.5976314551466
30
0
41
1
10
105.931931635246
20
-11.9406659563476
30
0
41
1
10
106.125162807439
20
-12.5229338576471
30
0
41
1
10
106.221778393536
20
-12.762192265221
30
0
41
1
10
106.415009565729
20
-13.138453176753
30
0
41
1
10
106.511625151826
20
-13.2755139091464
30
0
41
1
10
106.70485632402
20
-13.4553177105267
30
0
41
1
10
106.801471910117
20
-13.4981326178572
30
0
41
1
10
106.910164444475
20
-13.5001659195433
30
0
41
1
10
106.922241392737
20
-13.4997562459322
30
0
41
1
10
106.946395289262
20
-13.497643698115
30
0
41
1
10
106.982626134048
20
-13.4925331874516
30
0
41
1
10
107.018856978834
20
-13.4814800262293
30
0
41
1
10
107.091318668407
20
-13.4511517088297
30
0
41
1
10
107.139626461455
20
-13.4199627325248
30
0
41
1
10
107.2845498406
20
-13.2913321713621
30
0
41
1
10
107.381165426697
20
-13.1586540209396
30
0
41
1
10
107.574396598891
20
-12.7913898896007
30
0
41
1
10
107.671012184987
20
-12.5567446502599
30
0
41
1
10
107.864243357181
20
-11.9836179367881
30
0
41
1
10
107.960858943278
20
-11.6451096228799
30
0
41
1
10
108.154090115471
20
-10.8699692792424
30
0
41
1
10
108.250705701568
20
-10.4333566228819
30
0
41
1
10
108.443936873762
20
-9.47551619042599
30
0
41
1
10
108.540552459858
20
-8.95435416110811
30
0
41
1
10
108.733783632052
20
-7.84742764994556
30
0
41
1
10
108.830399218149
20
-7.26175981201482
30
0
41
1
10
109.023630390342
20
-6.04982902121239
30
0
41
1
10
109.120245976439
20
-5.42366848315206
30
0
41
1
10
109.313477148632
20
-4.15566666335897
30
0
41
1
10
109.410092734729
20
-3.51390940587856
30
0
41
1
10
109.603323906922
20
-2.23765125214609
30
0
41
1
10
109.699939493019
20
-1.60320159086532
30
0
41
1
10
109.844862872164
20
-0.671134342065699
30
0
41
1
10
109.893170665213
20
-0.363676874120756
30
0
41
1
10
109.953555406523
20
0.0154271076989403
30
0
41
1
10
109.965632354785
20
0.0910663546815726
30
0
41
1
10
109.989786251309
20
0.243189323877345
30
0
41
1
10
110.026017096096
20
0.472134645467946
30
0
41
1
10
110.062247940882
20
0.703238035526937
30
0
41
1
10
110.086401837406
20
0.858145979466997
30
0
0
SPLINE
5
D9
100
AcDbEntity
8
1
62
256
6
ByLayer
370
13
48
1
60
0
100
AcDbSpline
70
4
71
3
72
43
73
39
40
0
40
0
40
0
40
0
40
0.0625
40
0.0625
40
0.125
40
0.125
40
0.1875
40
0.1875
40
0.25
40
0.25
40
0.28125
40
0.28125
40
0.296875
40
0.3046875
40
0.3046875
40
0.3125
40
0.3125
40
0.375
40
0.375
40
0.4375
40
0.4375
40
0.5
40
0.5
40
0.5625
40
0.5625
40
0.625
40
0.625
40
0.6875
40
0.6875
40
0.75
40
0.75
40
0.8125
40
0.8125
40
0.875
40
0.875
40
0.9375
40
0.9375
40
1
40
1
40
1
40
1
41
1
10
97.9
20
-8.75368403601442
30
0
41
1
10
97.9921442197069
20
-8.23949472834215
30
0
41
1
10
98.0842884394139
20
-7.6938603852613
30
0
41
1
10
98.2685768788277
20
-6.5597847331133
30
0
41
1
10
98.3607210985347
20
-5.97142515753035
30
0
41
1
10
98.5450095379487
20
-4.7735523279419
30
0
41
1
10
98.6371537576555
20
-4.16411156126529
30
0
41
1
10
98.8214421970695
20
-2.94477246425873
30
0
41
1
10
98.9135864167763
20
-2.33492441103158
30
0
41
1
10
99.0518027463368
20
-1.43319995834804
30
0
41
1
10
99.0978748561902
20
-1.13477290592925
30
0
41
1
10
99.1669830209704
20
-0.691750323809714
30
0
41
1
10
99.2015371033606
20
-0.471390533964154
30
0
41
1
10
99.2360911857506
20
-0.252992131204508
30
0
41
1
10
99.2591272406773
20
-0.107853124922059
30
0
41
1
10
99.2706452681407
20
-0.0356346914292942
30
0
41
1
10
99.3743075153111
20
0.614703692013222
30
0
41
1
10
99.4664517350181
20
1.20817823922482
30
0
41
1
10
99.650740174432
20
2.41189409612613
30
0
41
1
10
99.7428843941389
20
3.02211071454363
30
0
41
1
10
99.9271728335527
20
4.24136118447092
30
0
41
1
10
100.01931705326
20
4.85034366814773
30
0
41
1
10
100.203605492674
20
6.04639001704572
30
0
41
1
10
100.29574971238
20
6.6333806871622
30
0
41
1
10
100.480038151794
20
7.76381725195662
30
0
41
1
10
100.572182371501
20
8.30718140895132
30
0
41
1
10
100.756470810915
20
9.33023159274882
30
0
41
1
10
100.848615030622
20
9.80984579203994
30
0
41
1
10
101.032903470036
20
10.689132792374
30
0
41
1
10
101.125047689743
20
11.0887606992372
30
0
41
1
10
101.309336129157
20
11.7974938143087
30
0
41
1
10
101.401480348864
20
12.1065900342636
30
0
41
1
10
101.585768788278
20
12.6301934664029
30
0
41
1
10
101.677913007985
20
12.8447256097524
30
0
41
1
10
101.862201447398
20
13.1813925431674
30
0
41
1
10
101.954345667105
20
13.3035753878325
30
0
41
1
10
102.138634106519
20
13.462850655154
30
0
41
1
10
102.230778326226
20
13.5
30
0
41
1
10
102.322922545933
20
13.5
30
0
0
SPLINE
5
DA
100
AcDbEntity
8
1
62
256
6
ByLayer
370
13
48
1
60
0
100
AcDbSpline
70
4
71
3
72
84
73
80
40
0
40
0
40
0
40
0
40
0.0312500000000005
40
0.0312500000000005
40
0.0625000000000011
40
0.0625000000000011
40
0.0937500000000016
40
0.0937500000000016
40
0.125000000000002
40
0.125000000000002
40
0.156250000000003
40
0.156250000000003
40
0.187500000000003
40
0.187500000000003
40
0.218750000000004
40
0.218750000000004
40
0.250000000000004
40
0.250000000000004
40
0.281250000000005
40
0.281250000000005
40
0.296875000000005
40
0.296875000000005
40
0.304687500000005
40
0.304687500000005
40
0.312500000000005
40
0.312500000000005
40
0.343750000000006
40
0.343750000000006
40
0.375000000000006
40
0.375000000000006
40
0.406250000000007
40
0.406250000000007
40
0.437500000000008
40
0.437500000000008
40
0.468750000000008
40
0.468750000000008
40
0.500000000000009
40
0.500000000000009
40
0.531250000000009
40
0.531250000000009
40
0.56250000000001
40
0.56250000000001
40
0.59375000000001
40
0.59375000000001
40
0.609375000000011
40
0.609375000000011
40
0.617187500000011
40
0.621093750000011
40
0.621093750000011
40
0.625000000000011
40
0.625000000000011
40
0.65625000000001
40
0.65625000000001
40
0.687500000000009
40
0.687500000000009
40
0.718750000000008
40
0.718750000000008
40
0.750000000000007
40
0.750000000000007
40
0.781250000000006
40
0.781250000000006
40
0.812500000000005
40
0.812500000000005
40
0.843750000000005
40
0.843750000000005
40
0.875000000000004
40
0.875000000000004
40
0.906250000000003
40
0.906250000000003
40
0.921875000000002
40
0.921875000000002
40
0.929687500000002
40
0.933593750000002
40
0.933593750000002
40
0.937500000000002
40
0.937500000000002
40
0.968750000000001
40
0.968750000000001
40
1
40
1
40
1
40
1
41
1
10
100.326088078318
20
13.5
30
0
41
1
10
100.427758013308
20
13.5
30
0
41
1
10
100.529427948299
20
13.4547414786556
30
0
41
1
10
100.73276781828
20
13.2595606459867
30
0
41
1
10
100.834437753271
20
13.1095459170489
30
0
41
1
10
101.037777623252
20
12.6959176308058
30
0
41
1
10
101.139447558242
20
12.4322316807024
30
0
41
1
10
101.342787428223
20
11.7902897959952
30
0
41
1
10
101.444457363214
20
11.4120090830116
30
0
41
1
10
101.647797233194
20
10.5494309669466
30
0
41
1
10
101.749467168185
20
10.0651731390516
30
0
41
1
10
101.952807038166
20
9.00854380323901
30
0
41
1
10
102.054476973157
20
8.43627111101853
30
0
41
1
10
102.257816843138
20
7.22874510393785
30
0
41
1
10
102.359486778128
20
6.59362267476632
30
0
41
1
10
102.562826648109
20
5.28919250075467
30
0
41
1
10
102.6644965831
20
4.62001074379202
30
0
41
1
10
102.867836453081
20
3.27592224812452
30
0
41
1
10
102.969506388071
20
2.60110655303055
30
0
41
1
10
103.122011290557
20
1.60316436481531
30
0
41
1
10
103.172846258052
20
1.27285983817333
30
0
41
1
10
103.249098709295
20
0.782837184115664
30
0
41
1
10
103.274516193043
20
0.620399063093942
30
0
41
1
10
103.325351160538
20
0.297612274410795
30
0
41
1
10
103.350768644285
20
0.137463109293265
30
0
41
1
10
103.477856063024
20
-0.659479551122359
30
0
41
1
10
103.579525998014
20
-1.31588448012772
30
0
41
1
10
103.782865867995
20
-2.64731650384382
30
0
41
1
10
103.884535802986
20
-3.32229906952989
30
0
41
1
10
104.087875672967
20
-4.66610134986834
30
0
41
1
10
104.189545607957
20
-5.33482900377513
30
0
41
1
10
104.392885477938
20
-6.63768054553898
30
0
41
1
10
104.494555412929
20
-7.27167794236897
30
0
41
1
10
104.69789528291
20
-8.47632046527798
30
0
41
1
10
104.7995652179
20
-9.04683503174155
30
0
41
1
10
105.002905087881
20
-10.0994427978527
30
0
41
1
10
105.104575022872
20
-10.5814383049387
30
0
41
1
10
105.307914892853
20
-11.4391833899879
30
0
41
1
10
105.409584827843
20
-11.8148949058727
30
0
41
1
10
105.612924697824
20
-12.4516143616258
30
0
41
1
10
105.714594632815
20
-12.7126484270467
30
0
41
1
10
105.917934502796
20
-13.121095656334
30
0
41
1
10
106.019604437786
20
-13.2685819953748
30
0
41
1
10
106.172109340272
20
-13.4113840078492
30
0
41
1
10
106.222944307767
20
-13.4459680508864
30
0
41
1
10
106.29919675901
20
-13.4795584264397
30
0
41
1
10
106.337322984631
20
-13.4917856908553
30
0
41
1
10
106.375449210253
20
-13.4974208669375
30
0
41
1
10
106.400866694001
20
-13.4997431684063
30
0
41
1
10
106.413575435874
20
-13.5001878582474
30
0
41
1
10
106.527954112739
20
-13.497855737903
30
0
41
1
10
106.629624047729
20
-13.4503399292893
30
0
41
1
10
106.83296391771
20
-13.2503684655419
30
0
41
1
10
106.934633852701
20
-13.0978205393215
30
0
41
1
10
107.137973722682
20
-12.6790058153389
30
0
41
1
10
107.239643657672
20
-12.41266742229
30
0
41
1
10
107.442983527653
20
-11.7655070809731
30
0
41
1
10
107.544653462644
20
-11.3846617108454
30
0
41
1
10
107.747993332625
20
-10.5172646511966
30
0
41
1
10
107.849663267615
20
-10.030754047303
30
0
41
1
10
108.053003137596
20
-8.97012610108419
30
0
41
1
10
108.154673072587
20
-8.3961086827083
30
0
41
1
10
108.358012942568
20
-7.185727935996
30
0
41
1
10
108.459682877558
20
-6.54949579917152
30
0
41
1
10
108.663022747539
20
-5.24351743548635
30
0
41
1
10
108.76469268253
20
-4.57389667706411
30
0
41
1
10
108.968032552511
20
-3.22955016555818
30
0
41
1
10
109.069702487501
20
-2.55491443232569
30
0
41
1
10
109.222207389987
20
-1.5576213967245
30
0
41
1
10
109.273042357482
20
-1.22759606918117
30
0
41
1
10
109.349294808725
20
-0.738073484458056
30
0
41
1
10
109.387421034347
20
-0.494686638669606
30
0
41
1
10
109.425547259968
20
-0.253678155711981
30
0
41
1
10
109.450964743716
20
-0.0935666590219171
30
0
41
1
10
109.463673485589
20
-0.0139801345590911
30
0
41
1
10
109.578052162454
20
0.70422287527964
30
0
41
1
10
109.679722097444
20
1.36129219114338
30
0
41
1
10
109.883061967425
20
2.69354341870789
30
0
41
1
10
109.984731902416
20
3.36867970255281
30
0
41
1
10
110.086401837406
20
4.04042359089885
30
0
0
SPLINE
5
DB
100
AcDbEntity
8
1
62
256
6
ByLayer
370
13
48
1
60
0
100
AcDbSpline
70
4
71
3
72
42
73
38
40
0
40
0
40
0
40
0
40
0.0624999999999997
40
0.0624999999999997
40
0.124999999999999
40
0.124999999999999
40
0.187499999999999
40
0.187499999999999
40
0.218749999999999
40
0.218749999999999
40
0.234374999999999
40
0.234374999999999
40
0.249999999999999
40
0.249999999999999
40
0.312499999999999
40
0.312499999999999
40
0.374999999999999
40
0.374999999999999
40
0.437499999999999
40
0.437499999999999
40
0.499999999999999
40
0.499999999999999
40
0.562499999999999
40
0.562499999999999
40
0.624999999999999
40
0.624999999999999
40
0.687499999999999
40
0.687499999999999
40
0.75
40
0.75
40
0.8125
40
0.8125
40
0.875
40
0.875
40
0.9375
40
0.9375
40
1
40
1
40
1
40
1
41
1
10
97.9
20
-5.81014142921887
30
0
41
1
10
97.9820355219194
20
-5.28209203916762
30
0
41
1
10
98.0640710438389
20
-4.74360928520207
30
0
41
1
10
98.2281420876779
20
-3.66064381106358
30
0
41
1
10
98.3101776095973
20
-3.11619419837325
30
0
41
1
10
98.4742486534361
20
-2.03482940722975
30
0
41
1
10
98.5562841753556
20
-1.49793435752844
30
0
41
1
10
98.6793374582348
20
-0.706723796020981
30
0
41
1
10
98.7203552191945
20
-0.445323082561117
30
0
41
1
10
98.7818818606341
20
-0.0576011727846435
30
0
41
1
10
98.802390741114
20
0.0705578776041023
30
0
41
1
10
98.8434085020738
20
0.329136673860319
30
0
41
1
10
98.8639173825536
20
0.459152354393495
30
0
41
1
10
98.9664617849529
20
1.11250978194357
30
0
41
1
10
99.0484973068723
20
1.64578933328897
30
0
41
1
10
99.2125683507112
20
2.72287490062848
30
0
41
1
10
99.2946038726305
20
3.2666640394458
30
0
41
1
10
99.4586749164694
20
4.35173991790776
30
0
41
1
10
99.5407104383889
20
4.89299651242979
30
0
41
1
10
99.7047814822279
20
5.95832438504985
30
0
41
1
10
99.7868170041473
20
6.48235476539168
30
0
41
1
10
99.9508880479862
20
7.49797217199415
30
0
41
1
10
100.032923569906
20
7.98951343473624
30
0
41
1
10
100.196994613745
20
8.92564530398982
30
0
41
1
10
100.279030135664
20
9.37019339998989
30
0
41
1
10
100.443101179503
20
10.1999392828387
30
0
41
1
10
100.525136701422
20
10.5851058874017
30
0
41
1
10
100.689207745261
20
11.2869322516543
30
0
41
1
10
100.771243267181
20
11.6035776676031
30
0
41
1
10
100.93531431102
20
12.1631490552841
30
0
41
1
10
101.017349832939
20
12.4060788465542
30
0
41
1
10
101.181420876778
20
12.8171090373431
30
0
41
1
10
101.263456398697
20
12.9852285407627
30
0
41
1
10
101.427527442536
20
13.2492723215036
30
0
41
1
10
101.509562964456
20
13.3452253334961
30
0
41
1
10
101.673634008295
20
13.4705731793086
30
0
41
1
10
101.755669530214
20
13.5
30
0
41
1
10
101.837705052134
20
13.5
30
0
0
SPLINE
5
DC
100
AcDbEntity
8
1
62
256
6
ByLayer
370
13
48
1
60
0
100
AcDbSpline
70
4
71
3
72
85
73
81
40
0
40
0
40
0
40
0
40
0.0312499999999982
40
0.0312499999999982
40
0.0624999999999964
40
0.0624999999999964
40
0.0937499999999945
40
0.0937499999999945
40
0.124999999999993
40
0.124999999999993
40
0.156249999999991
40
0.156249999999991
40
0.187499999999989
40
0.187499999999989
40
0.218749999999987
40
0.218749999999987
40
0.249999999999986
40
0.249999999999986
40
0.281249999999984
40
0.281249999999984
40
0.296874999999983
40
0.296874999999983
40
0.300781249999983
40
0.300781249999983
40
0.304687499999983
40
0.312499999999983
40
0.312499999999983
40
0.343749999999982
40
0.343749999999982
40
0.374999999999982
40
0.374999999999982
40
0.406249999999982
40
0.406249999999982
40
0.437499999999982
40
0.437499999999982
40
0.468749999999981
40
0.468749999999981
40
0.499999999999981
40
0.499999999999981
40
0.531249999999981
40
0.531249999999981
40
0.562499999999981
40
0.562499999999981
40
0.59374999999998
40
0.59374999999998
40
0.597656249999981
40
0.597656249999981
40
0.601562499999981
40
0.609374999999981
40
0.609374999999981
40
0.624999999999982
40
0.624999999999982
40
0.656249999999983
40
0.656249999999983
40
0.687499999999985
40
0.687499999999985
40
0.718749999999986
40
0.718749999999986
40
0.749999999999988
40
0.749999999999988
40
0.781249999999989
40
0.781249999999989
40
0.812499999999991
40
0.812499999999991
40
0.843749999999992
40
0.843749999999992
40
0.874999999999994
40
0.874999999999994
40
0.890624999999995
40
0.890624999999995
40
0.894531249999995
40
0.894531249999995
40
0.898437499999995
40
0.906249999999995
40
0.906249999999995
40
0.937499999999997
40
0.937499999999997
40
0.968749999999998
40
0.968749999999998
40
1
40
1
40
1
40
1
41
1
10
99.8408705845184
20
13.5
30
0
41
1
10
99.9475948684027
20
13.5
30
0
41
1
10
100.054319152287
20
13.4501094958086
30
0
41
1
10
100.267767720055
20
13.234308567188
30
0
41
1
10
100.37449200394
20
13.0682809430975
30
0
41
1
10
100.587940571708
20
12.6104491439781
30
0
41
1
10
100.694664855593
20
12.318557422409
30
0
41
1
10
100.908113423361
20
11.6091656737595
30
0
41
1
10
101.014837707245
20
11.1916456017464
30
0
41
1
10
101.228286275014
20
10.2428427027904
30
0
41
1
10
101.335010558898
20
9.71162679010681
30
0
41
1
10
101.548459126666
20
8.55829897682301
30
0
41
1
10
101.655183410551
20
7.93632706052114
30
0
41
1
10
101.868631978319
20
6.63218330452148
30
0
41
1
10
101.975356262203
20
5.95018110490366
30
0
41
1
10
102.188804829972
20
4.55967009991644
30
0
41
1
10
102.295529113856
20
3.85130957716075
30
0
41
1
10
102.508977681625
20
2.43981218330961
30
0
41
1
10
102.615701965509
20
1.73676775931892
30
0
41
1
10
102.775788391335
20
0.705653637577541
30
0
41
1
10
102.829150533277
20
0.36580487861761
30
0
41
1
10
102.895853210705
20
-0.0525924912351741
30
0
41
1
10
102.909193746191
20
-0.136306733577697
30
0
41
1
10
102.935874817162
20
-0.304606115897457
30
0
41
1
10
102.975896423618
20
-0.557971732571446
30
0
41
1
10
103.015918030075
20
-0.813917230209967
30
0
41
1
10
103.14932338493
20
-1.67197752365848
30
0
41
1
10
103.256047668814
20
-2.37440633704804
30
0
41
1
10
103.469496236583
20
-3.78557502640527
30
0
41
1
10
103.576220520467
20
-4.49422444197097
30
0
41
1
10
103.789669088236
20
-5.88634623635082
30
0
41
1
10
103.89639337212
20
-6.56967167609454
30
0
41
1
10
104.109841939888
20
-7.87748757522229
30
0
41
1
10
104.216566223773
20
-8.50180832265471
30
0
41
1
10
104.430014791541
20
-9.66069256692035
30
0
41
1
10
104.536739075425
20
-10.1951144020023
30
0
41
1
10
104.750187643194
20
-11.1508877671382
30
0
41
1
10
104.856911927078
20
-11.5721697260423
30
0
41
1
10
105.070360494847
20
-12.2892786141108
30
0
41
1
10
105.177084778731
20
-12.5851230385166
30
0
41
1
10
105.390533346499
20
-13.0507056467088
30
0
41
1
10
105.497257630384
20
-13.220529813985
30
0
41
1
10
105.710706198152
20
-13.4435031646014
30
0
41
1
10
105.817430482036
20
-13.4967692219642
30
0
41
1
10
105.937495301406
20
-13.5002426271936
30
0
41
1
10
105.950835836892
20
-13.4998525726731
30
0
41
1
10
105.977516907863
20
-13.4974958612958
30
0
41
1
10
106.017538514319
20
-13.491591185612
30
0
41
1
10
106.057560120776
20
-13.4784192041827
30
0
41
1
10
106.137603333689
20
-13.4419857187304
30
0
41
1
10
106.190965475631
20
-13.4042325003636
30
0
41
1
10
106.351051901458
20
-13.2477418248644
30
0
41
1
10
106.457776185342
20
-13.0855011416967
30
0
41
1
10
106.67122475311
20
-12.6354105878349
30
0
41
1
10
106.777949036995
20
-12.347471645643
30
0
41
1
10
106.991397604763
20
-11.6458085936282
30
0
41
1
10
107.098121888647
20
-11.2320619092166
30
0
41
1
10
107.311570456416
20
-10.2902632655311
30
0
41
1
10
107.4182947403
20
-9.76227554999269
30
0
41
1
10
107.631743308069
20
-8.61455636633934
30
0
41
1
10
107.738467591953
20
-7.99496316146676
30
0
41
1
10
107.951916159721
20
-6.69455419284145
30
0
41
1
10
108.058640443606
20
-6.01390794623319
30
0
41
1
10
108.272089011374
20
-4.62507116555218
30
0
41
1
10
108.378813295258
20
-3.91703022370749
30
0
41
1
10
108.592261863027
20
-2.50525988862921
30
0
41
1
10
108.698986146911
20
-1.80162492258228
30
0
41
1
10
108.859072572737
20
-0.769101119713099
30
0
41
1
10
108.91243471468
20
-0.428695640132531
30
0
41
1
10
108.979137392107
20
-0.0095123347749677
30
0
41
1
10
108.992477927593
20
0.0739629033192841
30
0
41
1
10
109.019158998564
20
0.241957109726002
30
0
41
1
10
109.05918060502
20
0.494878814372726
30
0
41
1
10
109.099202211477
20
0.750424058768232
30
0
41
1
10
109.232607566332
20
1.60725641633331
30
0
41
1
10
109.339331850216
20
2.30904476199782
30
0
41
1
10
109.552780417985
20
3.71982932494717
30
0
41
1
10
109.659504701869
20
4.42873707434273
30
0
41
1
10
109.872953269638
20
5.8224063466011
30
0
41
1
10
109.979677553522
20
6.50702230707546
30
0
41
1
10
110.086401837406
20
7.1627349209831
30
0
0
SPLINE
5
DD
100
AcDbEntity
8
1
62
256
6
ByLayer
370
13
48
1
60
0
100
AcDbSpline
70
4
71
3
72
42
73
38
40
0
40
0
40
0
40
0
40
0.0625000000000006
40
0.0625000000000006
40
0.0937500000000011
40
0.0937500000000011
40
0.109375000000001
40
0.109375000000001
40
0.125000000000002
40
0.125000000000002
40
0.187500000000001
40
0.187500000000001
40
0.250000000000001
40
0.250000000000001
40
0.312500000000001
40
0.312500000000001
40
0.375000000000001
40
0.375000000000001
40
0.437500000000001
40
0.437500000000001
40
0.500000000000001
40
0.500000000000001
40
0.562500000000001
40
0.562500000000001
40
0.625000000000001
40
0.625000000000001
40
0.687500000000001
40
0.687500000000001
40
0.75
40
0.75
40
0.8125
40
0.8125
40
0.875
40
0.875
40
0.9375
40
0.9375
40
1
40
1
40
1
40
1
41
1
10
97.9
20
-2.62162767217026
30
0
41
1
10
97.971926824132
20
-2.14739069465858
30
0
41
1
10
98.0438536482638
20
-1.67590990832096
30
0
41
1
10
98.1517438844618
20
-0.978631856115356
30
0
41
1
10
98.1877072965278
20
-0.747851867599707
30
0
41
1
10
98.2416524146267
20
-0.404771299751047
30
0
41
1
10
98.2596341206598
20
-0.290925251427808
30
0
41
1
10
98.2955975327258
20
-0.0643556018452216
30
0
41
1
10
98.3135792387587
20
0.0480498363100139
30
0
41
1
10
98.4034877689238
20
0.614203331595803
30
0
41
1
10
98.4754145930556
20
1.07620196285436
30
0
41
1
10
98.6192682413196
20
2.01175417430647
30
0
41
1
10
98.6911950654516
20
2.48530173642027
30
0
41
1
10
98.8350487137155
20
3.43585936070076
30
0
41
1
10
98.9069755378474
20
3.91285733469581
30
0
41
1
10
99.0508291861113
20
4.86099859758571
30
0
41
1
10
99.1227560102433
20
5.33212402117272
30
0
41
1
10
99.2666096585072
20
6.25842984012485
30
0
41
1
10
99.3385364826391
20
6.71358809210133
30
0
41
1
10
99.4823901309031
20
7.59770327103669
30
0
41
1
10
99.5543169550351
20
8.02663640623135
30
0
41
1
10
99.6981706032989
20
8.84857934266688
30
0
41
1
10
99.7700974274309
20
9.24156701505638
30
0
41
1
10
99.9139510756948
20
9.98313336599432
30
0
41
1
10
99.9858778998267
20
10.3316948348098
30
0
41
1
10
100.129731548091
20
10.9777617858833
30
0
41
1
10
100.201658372223
20
11.275257386276
30
0
41
1
10
100.345512020486
20
11.8147988855207
30
0
41
1
10
100.417438844619
20
12.056843226511
30
0
41
1
10
100.561292492883
20
12.4835157460298
30
0
41
1
10
100.633219317014
20
12.6681501332055
30
0
41
1
10
100.777072965278
20
12.9803902016696
30
0
41
1
10
100.84899978941
20
13.108008046961
30
0
41
1
10
100.992853437674
20
13.3086728184846
30
0
41
1
10
101.064780261806
20
13.3817353840776
30
0
41
1
10
101.20863391007
20
13.4773906742266
30
0
41
1
10
101.280560734202
20
13.5
30
0
41
1
10
101.352487558334
20
13.5
30
0
0
SPLINE
5
DE
100
AcDbEntity
8
1
62
256
6
ByLayer
370
13
48
1
60
0
100
AcDbSpline
70
4
71
3
72
121
73
117
40
0
40
0
40
0
40
0
40
0.0312499999999999
40
0.0312499999999999
40
0.0624999999999998
40
0.0624999999999998
40
0.0781249999999998
40
0.0781249999999998
40
0.0937499999999998
40
0.0937499999999998
40
0.109375
40
0.109375
40
0.125
40
0.125
40
0.140625
40
0.140625
40
0.15625
40
0.15625
40
0.171875
40
0.171875
40
0.1875
40
0.1875
40
0.203124999999999
40
0.203124999999999
40
0.218749999999999
40
0.218749999999999
40
0.249999999999999
40
0.249999999999999
40
0.281249999999999
40
0.281249999999999
40
0.285156249999999
40
0.285156249999999
40
0.289062499999999
40
0.296874999999999
40
0.296874999999999
40
0.312499999999999
40
0.312499999999999
40
0.343749999999999
40
0.343749999999999
40
0.359374999999999
40
0.359374999999999
40
0.374999999999999
40
0.374999999999999
40
0.390624999999999
40
0.390624999999999
40
0.406249999999999
40
0.406249999999999
40
0.421874999999999
40
0.421874999999999
40
0.437499999999999
40
0.437499999999999
40
0.453124999999999
40
0.453124999999999
40
0.468749999999999
40
0.468749999999999
40
0.484374999999999
40
0.484374999999999
40
0.499999999999999
40
0.499999999999999
40
0.531249999999999
40
0.531249999999999
40
0.562499999999999
40
0.562499999999999
40
0.566406249999999
40
0.566406249999999
40
0.570312499999999
40
0.570312499999999
40
0.578124999999999
40
0.578124999999999
40
0.593749999999999
40
0.593749999999999
40
0.625
40
0.625
40
0.640625
40
0.640625
40
0.65625
40
0.65625
40
0.671875
40
0.671875
40
0.6875
40
0.6875
40
0.703125
40
0.703125
40
0.71875
40
0.71875
40
0.734375
40
0.734375
40
0.75
40
0.75
40
0.765625
40
0.765625
40
0.78125
40
0.78125
40
0.8125
40
0.8125
40
0.84375
40
0.84375
40
0.8515625
40
0.8515625
40
0.859375
40
0.859375
40
0.875
40
0.875
40
0.90625
40
0.90625
40
0.921875
40
0.921875
40
0.9375
40
0.9375
40
0.953125
40
0.953125
40
0.96875
40
0.96875
40
0.984375
40
0.984375
40
1
40
1
40
1
40
1
41
1
10
99.3556530907189
20
13.5
30
0
41
1
10
99.4674317234969
20
13.5
30
0
41
1
10
99.5792103562748
20
13.445248357138
30
0
41
1
10
99.8027676218308
20
13.207730300305
30
0
41
1
10
99.9145462546088
20
13.0248170425488
30
0
41
1
10
100.082214203776
20
12.6465409313814
30
0
41
1
10
100.138103520165
20
12.5032104780411
30
0
41
1
10
100.249882152943
20
12.1818919386639
30
0
41
1
10
100.305771469332
20
12.0039018582995
30
0
41
1
10
100.41755010211
20
11.613925437136
30
0
41
1
10
100.473439418499
20
11.4019387504889
30
0
41
1
10
100.585218051277
20
10.9455155669577
30
0
41
1
10
100.641107367666
20
10.7010805533801
30
0
41
1
10
100.752886000444
20
10.1821757116789
30
0
41
1
10
100.808775316833
20
9.90770917799671
30
0
41
1
10
100.920553949611
20
9.33195289406538
30
0
41
1
10
100.976443266
20
9.03066801976593
30
0
41
1
10
101.088221898778
20
8.40515960134019
30
0
41
1
10
101.144111215167
20
8.08094209886178
30
0
41
1
10
101.255889847945
20
7.41396037366022
30
0
41
1
10
101.311779164334
20
7.07120281624819
30
0
41
1
10
101.423557797112
20
6.37184752531871
30
0
41
1
10
101.479447113501
20
6.01525649403095
30
0
41
1
10
101.591225746279
20
5.29305258545187
30
0
41
1
10
101.647115062668
20
4.92744590066718
30
0
41
1
10
101.814783011835
20
3.824195026566
30
0
41
1
10
101.926561644613
20
3.08033414118731
30
0
41
1
10
102.150118910169
20
1.61010098997349
30
0
41
1
10
102.261897542947
20
0.883814353571438
30
0
41
1
10
102.387648504822
20
0.0915382465124424
30
0
41
1
10
102.401620833919
20
0.0040809337640439
30
0
41
1
10
102.429565492114
20
-0.171482542640916
30
0
41
1
10
102.471482479405
20
-0.435866183055594
30
0
41
1
10
102.513399466697
20
-0.703175314103987
30
0
41
1
10
102.597233441281
20
-1.24113743401284
30
0
41
1
10
102.65312275767
20
-1.60425444085956
30
0
41
1
10
102.820790706837
20
-2.70194141772458
30
0
41
1
10
102.932569339615
20
-3.44505858960577
30
0
41
1
10
103.100237288782
20
-4.55191038958984
30
0
41
1
10
103.156126605171
20
-4.91949890316809
30
0
41
1
10
103.267905237949
20
-5.64729854153708
30
0
41
1
10
103.323794554338
20
-6.00750375440629
30
0
41
1
10
103.435573187116
20
-6.715727221088
30
0
41
1
10
103.491462503505
20
-7.06373888931793
30
0
41
1
10
103.603241136283
20
-7.74280816943531
30
0
41
1
10
103.659130452672
20
-8.07385903783111
30
0
41
1
10
103.77090908545
20
-8.71448414721783
30
0
41
1
10
103.826798401839
20
-9.02405206901506
30
0
41
1
10
103.938577034617
20
-9.61763148457146
30
0
41
1
10
103.994466351006
20
-9.9016376504359
30
0
41
1
10
104.106244983784
20
-10.4406333903777
30
0
41
1
10
104.162134300173
20
-10.6956190948595
30
0
41
1
10
104.27391293295
20
-11.1738730392659
30
0
41
1
10
104.32980224934
20
-11.3971391657558
30
0
41
1
10
104.441580882118
20
-11.8101030951566
30
0
41
1
10
104.497470198507
20
-11.9998006313852
30
0
41
1
10
104.609248831285
20
-12.3446623858623
30
0
41
1
10
104.665138147674
20
-12.4998280675566
30
0
41
1
10
104.832806096841
20
-12.9133785508271
30
0
41
1
10
104.944584729619
20
-13.1194774738156
30
0
41
1
10
105.168141995175
20
-13.4008713508453
30
0
41
1
10
105.279920627953
20
-13.4763097412499
30
0
41
1
10
105.405671589828
20
-13.4975578654074
30
0
41
1
10
105.419643918925
20
-13.49903925663
30
0
41
1
10
105.44758857712
20
-13.5002833467944
30
0
41
1
10
105.461560906217
20
-13.5000521152911
30
0
41
1
10
105.503477893509
20
-13.4967741179251
30
0
41
1
10
105.531422551703
20
-13.4911286005206
30
0
41
1
10
105.615256526287
20
-13.4633378739667
30
0
41
1
10
105.671145842676
20
-13.4303255479937
30
0
41
1
10
105.838813791842
20
-13.2844391956762
30
0
41
1
10
105.95059242462
20
-13.1243971657174
30
0
41
1
10
106.118260373788
20
-12.7811940522284
30
0
41
1
10
106.174149690177
20
-12.6496764951844
30
0
41
1
10
106.285928322955
20
-12.3519555238225
30
0
41
1
10
106.341817639344
20
-12.1857496236904
30
0
41
1
10
106.453596272121
20
-11.8190174633182
30
0
41
1
10
106.509485588511
20
-11.6184902660972
30
0
41
1
10
106.621264221288
20
-11.1843593486046
30
0
41
1
10
106.677153537677
20
-10.9507564795352
30
0
41
1
10
106.788932170455
20
-10.4525984576579
30
0
41
1
10
106.844821486844
20
-10.1880459972327
30
0
41
1
10
106.956600119622
20
-9.63094028744726
30
0
41
1
10
107.012489436011
20
-9.33839141324651
30
0
41
1
10
107.124268068789
20
-8.72896478727844
30
0
41
1
10
107.180157385178
20
-8.41209273591016
30
0
41
1
10
107.291936017956
20
-7.75825937738315
30
0
41
1
10
107.347825334345
20
-7.42130458842902
30
0
41
1
10
107.459603967123
20
-6.73192771262066
30
0
41
1
10
107.515493283512
20
-6.37951238050852
30
0
41
1
10
107.62727191629
20
-5.66401731560336
30
0
41
1
10
107.683161232679
20
-5.30094400482704
30
0
41
1
10
107.850829181847
20
-4.20290348687916
30
0
41
1
10
107.962607814624
20
-3.45930916606244
30
0
41
1
10
108.18616508018
20
-1.98420886425276
30
0
41
1
10
108.297943712958
20
-1.25280308629073
30
0
41
1
10
108.437667003931
20
-0.363670986630297
30
0
41
1
10
108.465611662125
20
-0.187079483806485
30
0
41
1
10
108.521500978514
20
0.163285201563753
30
0
41
1
10
108.549445636709
20
0.339632857685132
30
0
41
1
10
108.633279611292
20
0.872775872805619
30
0
41
1
10
108.689168927681
20
1.23319492470799
30
0
41
1
10
108.856836876848
20
2.32461708267971
30
0
41
1
10
108.968615509626
20
3.06601481389515
30
0
41
1
10
109.136283458793
20
4.17489174958382
30
0
41
1
10
109.192172775182
20
4.54391873723162
30
0
41
1
10
109.30395140796
20
5.27621012196249
30
0
41
1
10
109.359840724349
20
5.63946893299183
30
0
41
1
10
109.471619357127
20
6.35544422978396
30
0
41
1
10
109.527508673516
20
6.70815430708331
30
0
41
1
10
109.639287306294
20
7.39822818406992
30
0
41
1
10
109.695176622683
20
7.73558523045531
30
0
41
1
10
109.806955255461
20
8.39032428958939
30
0
41
1
10
109.86284457185
20
8.70769977223159
30
0
41
1
10
109.974623204628
20
9.31822367080844
30
0
41
1
10
110.030512521017
20
9.61136636177815
30
0
41
1
10
110.086401837406
20
9.89055090111617
30
0
0
SPLINE
5
DF
100
AcDbEntity
8
1
62
256
6
ByLayer
370
13
48
1
60
0
100
AcDbSpline
70
4
71
3
72
10
73
6
40
0
40
0
40
0
40
0
40
0.5
40
0.5
40
1
40
1
40
1
40
1
41
1
10
109.54522046051
20
13.5
30
0
41
1
10
109.635417356659
20
13.5
30
0
41
1
10
109.725614252809
20
13.4644088765976
30
0
41
1
10
109.906008045107
20
13.3120018056943
30
0
41
1
10
109.996204941257
20
13.1951346437824
30
0
41
1
10
110.086401837406
20
13.0341577030257
30
0
0
SPLINE
5
E0
100
AcDbEntity
8
1
62
256
6
ByLayer
370
13
48
1
60
0
100
AcDbSpline
70
4
71
3
72
38
73
34
40
0
40
0
40
0
40
0
40
0.0624999999999999
40
0.0624999999999999
40
0.125
40
0.125
40
0.1875
40
0.1875
40
0.25
40
0.25
40
0.3125
40
0.3125
40
0.375
40
0.375
40
0.4375
40
0.4375
40
0.5
40
0.5
40
0.5625
40
0.5625
40
0.625
40
0.625
40
0.6875
40
0.6875
40
0.75
40
0.75
40
0.8125
40
0.8125
40
0.875
40
0.875
40
0.9375
40
0.9375
40
1
40
1
40
1
40
1
41
1
10
97.9000000000001
20
0.500781532505641
30
0
41
1
10
97.9618181263445
20
0.893743413026641
30
0
41
1
10
98.0236362526889
20
1.29284469666175
30
0
41
1
10
98.1472725053778
20
2.09896202863911
30
0
41
1
10
98.2090906317225
20
2.50597495939218
30
0
41
1
10
98.3327268844113
20
3.32274530360283
30
0
41
1
10
98.3945450107558
20
3.73249713999112
30
0
41
1
10
98.5181812634447
20
4.54890035739248
30
0
41
1
10
98.5799993897892
20
4.95554378762304
30
0
41
1
10
98.7036356424782
20
5.75941418697266
30
0
41
1
10
98.7654537688226
20
6.15663127699034
30
0
41
1
10
98.8890900215115
20
6.93513148045895
30
0
41
1
10
98.950908147856
20
7.31640358931614
30
0
41
1
10
99.0745444005448
20
8.05661152293342
30
0
41
1
10
99.1363625268893
20
8.41553629212876
30
0
41
1
10
99.2599987795782
20
9.1050977452667
30
0
41
1
10
99.3218169059227
20
9.4357245058016
30
0
41
1
10
99.4454531586117
20
10.0635079617728
30
0
41
1
10
99.5072712849561
20
10.3606569506984
30
0
41
1
10
99.630907537645
20
10.9173411927848
30
0
41
1
10
99.6927256639896
20
11.1768717443921
30
0
41
1
10
99.8163619166785
20
11.6554025831118
30
0
41
1
10
99.8781800430229
20
11.8744015292364
30
0
41
1
10
100.001816295712
20
12.2702713460065
30
0
41
1
10
100.063634422056
20
12.4471441211008
30
0
41
1
10
100.187270674745
20
12.7584731661181
30
0
41
1
10
100.24908880109
20
12.8929340629308
30
0
41
1
10
100.372725053779
20
13.1203599589855
30
0
41
1
10
100.434543180123
20
13.2133315140607
30
0
41
1
10
100.558179432812
20
13.3597373534673
30
0
41
1
10
100.619997559156
20
13.4131792262798
30
0
41
1
10
100.743633811845
20
13.483306661616
30
0
41
1
10
100.80545193819
20
13.5
30
0
41
1
10
100.867270064534
20
13.5
30
0
0
SPLINE
5
E1
100
AcDbEntity
8
1
62
256
6
ByLayer
370
13
48
1
60
0
100
AcDbSpline
70
4
71
3
72
145
73
141
40
0
40
0
40
0
40
0
40
0.0156250000000003
40
0.0156250000000003
40
0.0312500000000007
40
0.0312500000000007
40
0.046875000000001
40
0.046875000000001
40
0.0625000000000014
40
0.0625000000000014
40
0.0781250000000017
40
0.0781250000000017
40
0.0937500000000021
40
0.0937500000000021
40
0.109375000000002
40
0.109375000000002
40
0.125000000000003
40
0.125000000000003
40
0.140625000000003
40
0.140625000000003
40
0.156250000000003
40
0.156250000000003
40
0.171875000000004
40
0.171875000000004
40
0.187500000000004
40
0.187500000000004
40
0.203125000000005
40
0.203125000000005
40
0.218750000000005
40
0.218750000000005
40
0.234375000000005
40
0.234375000000005
40
0.250000000000006
40
0.250000000000006
40
0.265625000000006
40
0.265625000000006
40
0.269531250000006
40
0.269531250000006
40
0.273437500000006
40
0.273437500000006
40
0.281250000000006
40
0.281250000000006
40
0.296875000000006
40
0.296875000000006
40
0.312500000000005
40
0.312500000000005
40
0.328125000000005
40
0.328125000000005
40
0.343750000000005
40
0.343750000000005
40
0.359375000000004
40
0.359375000000004
40
0.375000000000004
40
0.375000000000004
40
0.390625000000004
40
0.390625000000004
40
0.406250000000003
40
0.406250000000003
40
0.421875000000003
40
0.421875000000003
40
0.437500000000003
40
0.437500000000003
40
0.453125000000003
40
0.453125000000003
40
0.468750000000002
40
0.468750000000002
40
0.484375000000002
40
0.484375000000002
40
0.500000000000001
40
0.500000000000001
40
0.515625000000001
40
0.515625000000001
40
0.531250000000001
40
0.531250000000001
40
0.539062500000001
40
0.539062500000001
40
0.542968750000001
40
0.542968750000001
40
0.546875000000001
40
0.546875000000001
40
0.5625
40
0.5625
40
0.578125
40
0.578125
40
0.59375
40
0.59375
40
0.609374999999999
40
0.609374999999999
40
0.624999999999999
40
0.624999999999999
40
0.640624999999999
40
0.640624999999999
40
0.656249999999998
40
0.656249999999998
40
0.671874999999998
40
0.671874999999998
40
0.687499999999998
40
0.687499999999998
40
0.703124999999997
40
0.703124999999997
40
0.718749999999997
40
0.718749999999997
40
0.734374999999997
40
0.734374999999997
40
0.749999999999996
40
0.749999999999996
40
0.765624999999996
40
0.765624999999996
40
0.781249999999996
40
0.781249999999996
40
0.796874999999995
40
0.796874999999995
40
0.812499999999995
40
0.812499999999995
40
0.816406249999995
40
0.816406249999995
40
0.820312499999995
40
0.828124999999995
40
0.828124999999995
40
0.843749999999996
40
0.843749999999996
40
0.859374999999996
40
0.859374999999996
40
0.874999999999996
40
0.874999999999996
40
0.890624999999997
40
0.890624999999997
40
0.906249999999997
40
0.906249999999997
40
0.921874999999998
40
0.921874999999998
40
0.937499999999998
40
0.937499999999998
40
0.953124999999999
40
0.953124999999999
40
0.968749999999999
40
0.968749999999999
40
0.984375
40
0.984375
40
1
40
1
40
1
40
1
41
1
10
98.8704355969193
20
13.5
30
0
41
1
10
98.9288520877551
20
13.5
30
0
41
1
10
98.9872685785911
20
13.4850952245896
30
0
41
1
10
99.1041015602628
20
13.4226344145732
30
0
41
1
10
99.1625180510986
20
13.3750725266318
30
0
41
1
10
99.2793510327704
20
13.244902938273
30
0
41
1
10
99.3377675236062
20
13.1622894714105
30
0
41
1
10
99.454600505278
20
12.9602564993546
30
0
41
1
10
99.5130169961138
20
12.8408318754172
30
0
41
1
10
99.6298499777856
20
12.5642162427952
30
0
41
1
10
99.6882664686215
20
12.4070213684418
30
0
41
1
10
99.8050994502933
20
12.0548419050673
30
0
41
1
10
99.863515941129
20
11.8598552640142
30
0
41
1
10
99.9803489228008
20
11.4330968168931
30
0
41
1
10
100.038765413637
20
11.2013251865563
30
0
41
1
10
100.155598395308
20
10.7030587606683
30
0
41
1
10
100.214014886144
20
10.4365665452531
30
0
41
1
10
100.330847867816
20
9.87193748374838
30
0
41
1
10
100.389264358652
20
9.57380550580999
30
0
41
1
10
100.506097340324
20
8.94987951270238
30
0
41
1
10
100.56451383116
20
8.62409224290104
30
0
41
1
10
100.681346812831
20
7.94956624277376
30
0
41
1
10
100.739763303667
20
7.6008354874989
30
0
41
1
10
100.856596285339
20
6.8856375551492
30
0
41
1
10
100.915012776175
20
6.51917880334571
30
0
41
1
10
101.031845757846
20
5.77399526027335
30
0
41
1
10
101.090262248682
20
5.39527855965648
30
0
41
1
10
101.207095230354
20
4.63105409347071
30
0
41
1
10
101.26551172119
20
4.24555341167732
30
0
41
1
10
101.382344702862
20
3.4730104597964
30
0
41
1
10
101.440761193697
20
3.08597379094508
30
0
41
1
10
101.557594175369
20
2.31519092064357
30
0
41
1
10
101.616010666205
20
1.93144859568508
30
0
41
1
10
101.732843647877
20
1.17152615726116
30
0
41
1
10
101.791260138713
20
0.795348177357766
30
0
41
1
10
101.864280752258
20
0.332115462270963
30
0
41
1
10
101.878884874967
20
0.239816752492629
30
0
41
1
10
101.908093120385
20
0.0559648421549355
30
0
41
1
10
101.922697243093
20
-0.0353700477925543
30
0
41
1
10
101.96650961122
20
-0.31098003007196
30
0
41
1
10
101.995717856638
20
-0.496219633759978
30
0
41
1
10
102.083342592892
20
-1.05582543140159
30
0
41
1
10
102.141759083728
20
-1.43409932637854
30
0
41
1
10
102.2585920654
20
-2.19728181688572
30
0
41
1
10
102.317008556236
20
-2.58218788450535
30
0
41
1
10
102.433841537907
20
-3.35422697083371
30
0
41
1
10
102.492258028743
20
-3.7413557048863
30
0
41
1
10
102.609091010415
20
-4.51290030701111
30
0
41
1
10
102.667507501251
20
-4.89731020077181
30
0
41
1
10
102.784340482923
20
-5.65809959964068
30
0
41
1
10
102.842756973758
20
-6.03447173770147
30
0
41
1
10
102.95958995543
20
-6.77369191326355
30
0
41
1
10
103.018006446266
20
-7.13653171719213
30
0
41
1
10
103.134839427938
20
-7.84325360073819
30
0
41
1
10
103.193255918774
20
-8.18712728757436
30
0
41
1
10
103.310088900445
20
-8.85079570041668
30
0
41
1
10
103.368505391281
20
-9.17058266930405
30
0
41
1
10
103.485338372953
20
-9.78151418113006
30
0
41
1
10
103.543754863789
20
-10.0726523625077
30
0
41
1
10
103.660587845461
20
-10.6224952593055
30
0
41
1
10
103.719004336297
20
-10.8811956094372
30
0
41
1
10
103.835837317968
20
-11.3633072721487
30
0
41
1
10
103.894253808804
20
-11.5867165614669
30
0
41
1
10
104.011086790476
20
-11.9964229024749
30
0
41
1
10
104.069503281312
20
-12.1827203192533
30
0
41
1
10
104.186336262983
20
-12.5174368511358
30
0
41
1
10
104.244752753819
20
-12.6658584815045
30
0
41
1
10
104.361585735491
20
-12.9250701297532
30
0
41
1
10
104.420002226327
20
-13.0358643561882
30
0
41
1
10
104.536835207999
20
-13.2209778310581
30
0
41
1
10
104.595251698835
20
-13.2953024015022
30
0
41
1
10
104.712084680506
20
-13.4093978517027
30
0
41
1
10
104.770501171342
20
-13.4491745647291
30
0
41
1
10
104.858125907596
20
-13.4848115756016
30
0
41
1
10
104.887334153014
20
-13.4926899921012
30
0
41
1
10
104.931146521141
20
-13.4987727938036
30
0
41
1
10
104.94575064385
20
-13.4998447775354
30
0
41
1
10
104.974958889268
20
-13.500123873924
30
0
41
1
10
104.989563011977
20
-13.4993340028715
30
0
41
1
10
105.062583625521
20
-13.4906249557634
30
0
41
1
10
105.121000116357
20
-13.4684071773002
30
0
41
1
10
105.237833098029
20
-13.3907193874618
30
0
41
1
10
105.296249588865
20
-13.3352434978774
30
0
41
1
10
105.413082570537
20
-13.1887760900551
30
0
41
1
10
105.471499061372
20
-13.0977789024589
30
0
41
1
10
105.588332043044
20
-12.8786796879788
30
0
41
1
10
105.64674853388
20
-12.7505727783815
30
0
41
1
10
105.763581515552
20
-12.4564997006192
30
0
41
1
10
105.821998006388
20
-12.2905300400968
30
0
41
1
10
105.938830988059
20
-11.9209398015449
30
0
41
1
10
105.997247478895
20
-11.7173176572652
30
0
41
1
10
106.114080460567
20
-11.2736714085939
30
0
41
1
10
106.172496951403
20
-11.0336480304466
30
0
41
1
10
106.289329933075
20
-10.5195027068763
30
0
41
1
10
106.34774642391
20
-10.2453838922472
30
0
41
1
10
106.464579405582
20
-9.66634782713004
30
0
41
1
10
106.522995896418
20
-9.36143592543317
30
0
41
1
10
106.63982887809
20
-8.7249823381479
30
0
41
1
10
106.698245368926
20
-8.39344774664212
30
0
41
1
10
106.815078350598
20
-7.70859720929107
30
0
41
1
10
106.873494841433
20
-7.35528941418585
30
0
41
1
10
106.990327823105
20
-6.6321891538627
30
0
41
1
10
107.048744313941
20
-6.26240510391457
30
0
41
1
10
107.165577295613
20
-5.51184564847165
30
0
41
1
10
107.223993786449
20
-5.13107815438872
30
0
41
1
10
107.34082676812
20
-4.36399393288647
30
0
41
1
10
107.399243258956
20
-3.97768398037388
30
0
41
1
10
107.516076240628
20
-3.2046831756401
30
0
41
1
10
107.574492731464
20
-2.81799753867173
30
0
41
1
10
107.691325713136
20
-2.04895862152045
30
0
41
1
10
107.749742203971
20
-1.6666088088875
30
0
41
1
10
107.866575185643
20
-0.910368961122742
30
0
41
1
10
107.924991676479
20
-0.536480674131838
30
0
41
1
10
107.998012290024
20
-0.0765724532724334
30
0
41
1
10
108.012616412733
20
0.0147881300594577
30
0
41
1
10
108.041824658151
20
0.198415654222202
30
0
41
1
10
108.085637026278
20
0.474985387301615
30
0
41
1
10
108.129449394405
20
0.754722668083161
30
0
41
1
10
108.217074130659
20
1.31777940144809
30
0
41
1
10
108.275490621494
20
1.69794706184149
30
0
41
1
10
108.392323603166
20
2.46395117805119
30
0
41
1
10
108.450740094002
20
2.849784704645
30
0
41
1
10
108.567573075674
20
3.62257875547095
30
0
41
1
10
108.62598956651
20
4.00953459030362
30
0
41
1
10
108.742822548181
20
4.77953050829507
30
0
41
1
10
108.801239039017
20
5.16256425994484
30
0
41
1
10
108.918072020689
20
5.91933830909278
30
0
41
1
10
108.976488511525
20
6.29307098462164
30
0
41
1
10
109.093321493196
20
7.02574113665887
30
0
41
1
10
109.151737984032
20
7.38467027491049
30
0
41
1
10
109.268570965704
20
8.08234941152679
30
0
41
1
10
109.32698745654
20
8.42109109264882
30
0
41
1
10
109.443820438212
20
9.07338200881767
30
0
41
1
10
109.502236929048
20
9.38692374586464
30
0
41
1
10
109.619069910719
20
9.98441245109242
30
0
41
1
10
109.677486401555
20
10.2683534740674
30
0
41
1
10
109.794319383227
20
10.8030538023602
30
0
41
1
10
109.852735874063
20
11.0538092639382
30
0
41
1
10
109.969568855735
20
11.5195156454916
30
0
41
1
10
110.02798534657
20
11.7344651014895
30
0
41
1
10
110.086401837406
20
11.9307231465304
30
0
0
SPLINE
5
E2
100
AcDbEntity
8
1
62
256
6
ByLayer
370
13
48
1
60
0
100
AcDbSpline
70
4
71
3
72
14
73
10
40
0
40
0
40
0
40
0
40
0.25
40
0.25
40
0.5
40
0.5
40
0.75
40
0.75
40
1
40
1
40
1
40
1
41
1
10
109.06000296671
20
13.5
30
0
41
1
10
109.145536205935
20
13.5
30
0
41
1
10
109.23106944516
20
13.4680037008746
30
0
41
1
10
109.402135923609
20
13.3313991914167
30
0
41
1
10
109.487669162834
20
13.2267516181668
30
0
41
1
10
109.658735641283
20
12.9386301950503
30
0
41
1
10
109.744268880508
20
12.7551216742623
30
0
41
1
10
109.915335358957
20
12.3066835332273
30
0
41
1
10
110.000868598182
20
12.0417324706056
30
0
41
1
10
110.086401837406
20
11.7370207452892
30
0
0
SPLINE
5
E3
100
AcDbEntity
8
1
62
256
6
ByLayer
370
13
48
1
60
0
100
AcDbSpline
70
4
71
3
72
22
73
18
40
0
40
0
40
0
40
0
40
0.125
40
0.125
40
0.25
40
0.25
40
0.375
40
0.375
40
0.5
40
0.5
40
0.625
40
0.625
40
0.75
40
0.75
40
0.875
40
0.875
40
1
40
1
40
1
40
1
41
1
10
97.9
20
3.67038126795256
30
0
41
1
10
98.003418857114
20
4.35455988019885
30
0
41
1
10
98.1068377142279
20
5.03768854839751
30
0
41
1
10
98.3136754284558
20
6.37248064452012
30
0
41
1
10
98.4170942855697
20
7.02401008491185
30
0
41
1
10
98.6239319997976
20
8.26514462081533
30
0
41
1
10
98.7273508569116
20
8.85460592361378
30
0
41
1
10
98.9341885711395
20
9.94454331790604
30
0
41
1
10
99.0376074282534
20
10.4449074102436
30
0
41
1
10
99.2444451424814
20
11.3369862308487
30
0
41
1
10
99.3478639995953
20
11.7286529482195
30
0
41
1
10
99.5547017138232
20
12.3935758221882
30
0
41
1
10
99.6581205709371
20
12.6668555944958
30
0
41
1
10
99.8649582851651
20
13.095515145855
30
0
41
1
10
99.9683771422791
20
13.2509724014248
30
0
41
1
10
100.175214856507
20
13.4531645888514
30
0
41
1
10
100.278633713621
20
13.5
30
0
41
1
10
100.382052570735
20
13.5
30
0
0
SPLINE
5
E4
100
AcDbEntity
8
1
62
256
6
ByLayer
370
13
48
1
60
0
100
AcDbSpline
70
4
71
3
72
144
73
140
40
0
40
0
40
0
40
0
40
0.0156250000000003
40
0.0156250000000003
40
0.0312500000000005
40
0.0312500000000005
40
0.0468750000000008
40
0.0468750000000008
40
0.0625000000000011
40
0.0625000000000011
40
0.0781250000000014
40
0.0781250000000014
40
0.0937500000000016
40
0.0937500000000016
40
0.109375000000002
40
0.109375000000002
40
0.125000000000002
40
0.125000000000002
40
0.140625000000002
40
0.140625000000002
40
0.156250000000003
40
0.156250000000003
40
0.171875000000003
40
0.171875000000003
40
0.187500000000003
40
0.187500000000003
40
0.203125000000003
40
0.203125000000003
40
0.218750000000004
40
0.218750000000004
40
0.234375000000004
40
0.234375000000004
40
0.250000000000004
40
0.250000000000004
40
0.257812500000004
40
0.257812500000004
40
0.261718750000004
40
0.261718750000004
40
0.265625000000004
40
0.265625000000004
40
0.281250000000004
40
0.281250000000004
40
0.296875000000004
40
0.296875000000004
40
0.312500000000004
40
0.312500000000004
40
0.328125000000004
40
0.328125000000004
40
0.343750000000004
40
0.343750000000004
40
0.359375000000004
40
0.359375000000004
40
0.375000000000003
40
0.375000000000003
40
0.390625000000003
40
0.390625000000003
40
0.406250000000003
40
0.406250000000003
40
0.421875000000003
40
0.421875000000003
40
0.437500000000003
40
0.437500000000003
40
0.453125000000003
40
0.453125000000003
40
0.468750000000003
40
0.468750000000003
40
0.484375000000003
40
0.484375000000003
40
0.500000000000003
40
0.500000000000003
40
0.515625000000003
40
0.515625000000003
40
0.519531250000003
40
0.519531250000003
40
0.523437500000003
40
0.523437500000003
40
0.531250000000003
40
0.531250000000003
40
0.546875000000002
40
0.546875000000002
40
0.562500000000002
40
0.562500000000002
40
0.578125000000002
40
0.578125000000002
40
0.593750000000002
40
0.593750000000002
40
0.609375000000002
40
0.609375000000002
40
0.625000000000002
40
0.625000000000002
40
0.640625000000002
40
0.640625000000002
40
0.656250000000002
40
0.656250000000002
40
0.671875000000002
40
0.671875000000002
40
0.687500000000002
40
0.687500000000002
40
0.703125000000002
40
0.703125000000002
40
0.718750000000002
40
0.718750000000002
40
0.734375000000002
40
0.734375000000002
40
0.750000000000001
40
0.750000000000001
40
0.765625000000001
40
0.765625000000001
40
0.773437500000001
40
0.773437500000001
40
0.781250000000001
40
0.781250000000001
40
0.796875000000001
40
0.796875000000001
40
0.812500000000001
40
0.812500000000001
40
0.828125000000001
40
0.828125000000001
40
0.843750000000001
40
0.843750000000001
40
0.859375000000001
40
0.859375000000001
40
0.875000000000001
40
0.875000000000001
40
0.890625000000001
40
0.890625000000001
40
0.906250000000001
40
0.906250000000001
40
0.921875
40
0.921875
40
0.9375
40
0.9375
40
0.953125
40
0.953125
40
0.96875
40
0.96875
40
0.984375
40
0.984375
40
1
40
1
40
1
40
1
41
1
10
98.3852181031197
20
13.5
30
0
41
1
10
98.4461617684025
20
13.5
30
0
41
1
10
98.5071054336852
20
13.4837761615863
30
0
41
1
10
98.6289927642506
20
13.4156637105786
30
0
41
1
10
98.6899364295335
20
13.363767858445
30
0
41
1
10
98.8118237600989
20
13.2216323922621
30
0
41
1
10
98.8727674253817
20
13.1313856951797
30
0
41
1
10
98.9946547559471
20
12.9106386478019
30
0
41
1
10
99.0555984212299
20
12.7801321334046
30
0
41
1
10
99.1774857517953
20
12.4779264495228
30
0
41
1
10
99.2384294170781
20
12.3062228472652
30
0
41
1
10
99.3603167476437
20
11.9218169918853
30
0
41
1
10
99.4212604129264
20
11.7091127654413
30
0
41
1
10
99.5431477434918
20
11.244131451946
30
0
41
1
10
99.6040914087745
20
10.9918553468331
30
0
41
1
10
99.7259787393401
20
10.4504043631069
30
0
41
1
10
99.7869224046227
20
10.1612335608547
30
0
41
1
10
99.9088097351882
20
9.54983984290911
30
0
41
1
10
99.969753400471
20
9.22762381826351
30
0
41
1
10
100.091640731037
20
8.55499287269475
30
0
41
1
10
100.152584396319
20
8.20458698340053
30
0
41
1
10
100.274471726885
20
7.48119426761997
30
0
41
1
10
100.335415392168
20
7.10821765585973
30
0
41
1
10
100.457302722733
20
6.34577356264674
30
0
41
1
10
100.518246388016
20
5.95631640831559
30
0
41
1
10
100.640133718581
20
5.16716107674259
30
0
41
1
10
100.701077383864
20
4.76747233942936
30
0
41
1
10
100.822964714429
20
3.96396320575428
30
0
41
1
10
100.883908379712
20
3.56015058582349
30
0
41
1
10
101.005795710278
20
2.75410155464775
30
0
41
1
10
101.06673937556
20
2.35187079139627
30
0
41
1
10
101.188626706126
20
1.55408897400332
30
0
41
1
10
101.249570371408
20
1.15854130056229
30
0
41
1
10
101.340985869333
20
0.573502161313087
30
0
41
1
10
101.371457701974
20
0.379863427862347
30
0
41
1
10
101.417165450936
20
0.091818994873023
30
0
41
1
10
101.432401367257
20
-0.0035146773784902
30
0
41
1
10
101.462873199898
20
-0.195044389522906
30
0
41
1
10
101.478109116219
20
-0.291219592469901
30
0
41
1
10
101.554288697822
20
-0.774007039681521
30
0
41
1
10
101.615232363105
20
-1.16638496643938
30
0
41
1
10
101.73711969367
20
-1.95933860015828
30
0
41
1
10
101.798063358953
20
-2.35991164868048
30
0
41
1
10
101.919950689519
20
-3.16438690079102
30
0
41
1
10
101.980894354802
20
-3.56828419743098
30
0
41
1
10
102.102781685367
20
-4.37388295615244
30
0
41
1
10
102.16372535065
20
-4.77557730279383
30
0
41
1
10
102.285612681215
20
-5.57076959139496
30
0
41
1
10
102.346556346498
20
-5.96425856596878
30
0
41
1
10
102.468443677063
20
-6.73680692482935
30
0
41
1
10
102.529387342346
20
-7.11585617037019
30
0
41
1
10
102.651274672912
20
-7.85334882311707
30
0
41
1
10
102.712218338195
20
-8.2117818608755
30
0
41
1
10
102.83410566876
20
-8.90223428663072
30
0
41
1
10
102.895049334043
20
-9.23424414150807
30
0
41
1
10
103.016936664608
20
-9.8667135750224
30
0
41
1
10
103.077880329891
20
-10.1671654717859
30
0
41
1
10
103.199767660457
20
-10.732315595549
30
0
41
1
10
103.260711325739
20
-10.997008774554
30
0
41
1
10
103.382598656305
20
-11.4875650069227
30
0
41
1
10
103.443542321587
20
-11.7134260620332
30
0
41
1
10
103.565429652153
20
-12.1244754528816
30
0
41
1
10
103.626373317435
20
-12.309664834982
30
0
41
1
10
103.748260648001
20
-12.6387760067808
30
0
41
1
10
103.809204313284
20
-12.7827014968846
30
0
41
1
10
103.931091643849
20
-13.0298646803296
30
0
41
1
10
103.992035309132
20
-13.1331080599882
30
0
41
1
10
104.113922639697
20
-13.3005178787388
30
0
41
1
10
104.17486630498
20
-13.3646911891096
30
0
41
1
10
104.296753635546
20
-13.4564112376134
30
0
41
1
10
104.357697300829
20
-13.4839652405175
30
0
41
1
10
104.433876882432
20
-13.4974378951434
30
0
41
1
10
104.449112798753
20
-13.4990851549297
30
0
41
1
10
104.479584631394
20
-13.5003373996126
30
0
41
1
10
104.494820547715
20
-13.4999502660093
30
0
41
1
10
104.540528296677
20
-13.4957055790836
30
0
41
1
10
104.571000129318
20
-13.4887498713003
30
0
41
1
10
104.662415627242
20
-13.4548947505706
30
0
41
1
10
104.723359292525
20
-13.4149882324571
30
0
41
1
10
104.84524662309
20
-13.2976332089484
30
0
41
1
10
104.906190288373
20
-13.2201774910352
30
0
41
1
10
105.028077618939
20
-13.0255392783818
30
0
41
1
10
105.089021284221
20
-12.9083502296969
30
0
41
1
10
105.210908614787
20
-12.6329686426368
30
0
41
1
10
105.271852280069
20
-12.4747710181768
30
0
41
1
10
105.393739610635
20
-12.1171814380067
30
0
41
1
10
105.454683275918
20
-11.9177866360497
30
0
41
1
10
105.576570606483
20
-11.4788196244346
30
0
41
1
10
105.637514271766
20
-11.2392473957995
30
0
41
1
10
105.759401602331
20
-10.7221952389252
30
0
41
1
10
105.820345267614
20
-10.4447183853142
30
0
41
1
10
105.94223259818
20
-9.85533430798779
30
0
41
1
10
106.003176263463
20
-9.5434331115184
30
0
41
1
10
106.125063594028
20
-8.88974780496395
30
0
41
1
10
106.186007259311
20
-8.54797212125754
30
0
41
1
10
106.307894589876
20
-7.83993608311113
30
0
41
1
10
106.368838255159
20
-7.47368567269882
30
0
41
1
10
106.490725585724
20
-6.72266995991586
30
0
41
1
10
106.551669251007
20
-6.33791506493983
30
0
41
1
10
106.673556581573
20
-5.55612222957788
30
0
41
1
10
106.734500246855
20
-5.15909411796497
30
0
41
1
10
106.856387577421
20
-4.35894124841991
30
0
41
1
10
106.917331242704
20
-3.95582487810361
30
0
41
1
10
107.039218573269
20
-3.14936006145055
30
0
41
1
10
107.100162238552
20
-2.74601798970741
30
0
41
1
10
107.222049569117
20
-1.94442114867087
30
0
41
1
10
107.2829932344
20
-1.54617049805367
30
0
41
1
10
107.374408732324
20
-0.956072106433282
30
0
41
1
10
107.404880564966
20
-0.760579708056213
30
0
41
1
10
107.465824230248
20
-0.372511779443442
30
0
41
1
10
107.49629606289
20
-0.180060983574236
30
0
41
1
10
107.587711560814
20
0.392997425484538
30
0
41
1
10
107.648655226097
20
0.781766783075284
30
0
41
1
10
107.770542556662
20
1.56893183401826
30
0
41
1
10
107.831486221945
20
1.96732556749865
30
0
41
1
10
107.95337355251
20
2.76911312389365
30
0
41
1
10
108.014317217793
20
3.17250278466236
30
0
41
1
10
108.136204548359
20
3.97895519777293
30
0
41
1
10
108.197148213641
20
4.38201153370159
30
0
41
1
10
108.319035544207
20
5.18192829191378
30
0
41
1
10
108.37997920949
20
5.5787802926196
30
0
41
1
10
108.501866540055
20
6.36010123444447
30
0
41
1
10
108.562810205338
20
6.74456032684142
30
0
41
1
10
108.684697535903
20
7.49486679733664
30
0
41
1
10
108.745641201186
20
7.86070376679982
30
0
41
1
10
108.867528531752
20
8.56780331829597
30
0
41
1
10
108.928472197034
20
8.90905597570071
30
0
41
1
10
109.0503595276
20
9.56159938699852
30
0
41
1
10
109.111303192882
20
9.87288175296493
30
0
41
1
10
109.233190523448
20
10.4609509409484
30
0
41
1
10
109.294134188731
20
10.7377317882354
30
0
41
1
10
109.416021519296
20
11.2533367837356
30
0
41
1
10
109.476965184579
20
11.4921579165307
30
0
41
1
10
109.598852515144
20
11.9295914264269
30
0
41
1
10
109.659796180427
20
12.1282038802807
30
0
41
1
10
109.781683510992
20
12.4842212655952
30
0
41
1
10
109.842627176275
20
12.6416290924751
30
0
41
1
10
109.964514506841
20
12.9154457392553
30
0
41
1
10
110.025458172124
20
13.0318596809013
30
0
41
1
10
110.086401837406
20
13.128420610911
30
0
0
SPLINE
5
E5
100
AcDbEntity
8
1
62
256
6
ByLayer
370
13
48
1
60
0
100
AcDbSpline
70
4
71
3
72
22
73
18
40
0
40
0
40
0
40
0
40
0.125
40
0.125
40
0.25
40
0.25
40
0.375
40
0.375
40
0.5
40
0.5
40
0.625
40
0.625
40
0.75
40
0.75
40
0.875
40
0.875
40
1
40
1
40
1
40
1
41
1
10
108.574785472911
20
13.5
30
0
41
1
10
108.637769488098
20
13.5
30
0
41
1
10
108.700753503285
20
13.4826702339753
30
0
41
1
10
108.82672153366
20
13.4098086644396
30
0
41
1
10
108.889705548847
20
13.3542683212396
30
0
41
1
10
109.015673579222
20
13.2020647117035
30
0
41
1
10
109.078657594409
20
13.1053931406247
30
0
41
1
10
109.204625624784
20
12.8688997501823
30
0
41
1
10
109.267609639971
20
12.7290708286025
30
0
41
1
10
109.393577670346
20
12.4053639864812
30
0
41
1
10
109.456561685533
20
12.2214811852791
30
0
41
1
10
109.582529715908
20
11.8100800988193
30
0
41
1
10
109.645513731095
20
11.5825600411558
30
0
41
1
10
109.77148176147
20
11.0857132518362
30
0
41
1
10
109.834465776657
20
10.816388413196
30
0
41
1
10
109.960433807032
20
10.2391761213362
30
0
41
1
10
110.023417822219
20
9.93129429835309
30
0
41
1
10
110.086401837406
20
9.60640427580992
30
0
0
SPLINE
5
E6
100
AcDbEntity
8
1
62
256
6
ByLayer
370
13
48
1
60
0
100
AcDbSpline
70
4
71
3
72
22
73
18
40
0
40
0
40
0
40
0
40
0.125
40
0.125
40
0.25
40
0.25
40
0.375
40
0.375
40
0.5
40
0.5
40
0.625
40
0.625
40
0.75
40
0.75
40
0.875
40
0.875
40
1
40
1
40
1
40
1
41
1
10
97.9
20
6.81633071675532
30
0
41
1
10
97.983201461539
20
7.3349974088182
30
0
41
1
10
98.066402923078
20
7.83781555829734
30
0
41
1
10
98.2328058461559
20
8.79656375908232
30
0
41
1
10
98.3160073076948
20
9.25244744569807
30
0
41
1
10
98.4824102307727
20
10.1041308575922
30
0
41
1
10
98.5656116923117
20
10.4998958074196
30
0
41
1
10
98.7320146153896
20
11.2214899058986
30
0
41
1
10
98.8152160769286
20
11.5473022761387
30
0
41
1
10
98.9816190000066
20
12.1232778637875
30
0
41
1
10
99.0648204615455
20
12.3734441127702
30
0
41
1
10
99.2312233846235
20
12.7967610402872
30
0
41
1
10
99.3144248461625
20
12.969931621824
30
0
41
1
10
99.4808277692405
20
13.2418782931885
30
0
41
1
10
99.5640292307794
20
13.3406850110892
30
0
41
1
10
99.7304321538574
20
13.469728708296
30
0
41
1
10
99.8136336153963
20
13.5
30
0
41
1
10
99.8968350769352
20
13.5
30
0
0
SPLINE
5
E7
100
AcDbEntity
8
1
62
256
6
ByLayer
370
13
48
1
60
0
100
AcDbSpline
70
4
71
3
72
134
73
130
40
0
40
0
40
0
40
0
40
0.015625
40
0.015625
40
0.03125
40
0.03125
40
0.046875
40
0.046875
40
0.0625
40
0.0625
40
0.078125
40
0.078125
40
0.09375
40
0.09375
40
0.109375
40
0.109375
40
0.125
40
0.125
40
0.140625
40
0.140625
40
0.15625
40
0.15625
40
0.171875
40
0.171875
40
0.1875
40
0.1875
40
0.203125
40
0.203125
40
0.21875
40
0.21875
40
0.234375
40
0.234375
40
0.25
40
0.25
40
0.265625
40
0.265625
40
0.28125
40
0.28125
40
0.296875
40
0.296875
40
0.3125
40
0.3125
40
0.328125
40
0.328125
40
0.34375
40
0.34375
40
0.359375
40
0.359375
40
0.375
40
0.375
40
0.390625
40
0.390625
40
0.40625
40
0.40625
40
0.421875
40
0.421875
40
0.4375
40
0.4375
40
0.453125
40
0.453125
40
0.46875
40
0.46875
40
0.484375
40
0.484375
40
0.5
40
0.5
40
0.515625
40
0.515625
40
0.53125
40
0.53125
40
0.546875
40
0.546875
40
0.5625
40
0.5625
40
0.578125
40
0.578125
40
0.59375
40
0.59375
40
0.609375
40
0.609375
40
0.625
40
0.625
40
0.640625
40
0.640625
40
0.65625
40
0.65625
40
0.671875
40
0.671875
40
0.6875
40
0.6875
40
0.703125
40
0.703125
40
0.71875
40
0.71875
40
0.734375
40
0.734375
40
0.75
40
0.75
40
0.765625
40
0.765625
40
0.78125
40
0.78125
40
0.796875
40
0.796875
40
0.8125
40
0.8125
40
0.828125
40
0.828125
40
0.84375
40
0.84375
40
0.859375
40
0.859375
40
0.875
40
0.875
40
0.890625
40
0.890625
40
0.90625
40
0.90625
40
0.921875
40
0.921875
40
0.9375
40
0.9375
40
0.953125
40
0.953125
40
0.96875
40
0.96875
40
0.984375
40
0.984375
40
1
40
1
40
1
40
1
41
1
10
97.9000006093202
20
13.5
30
0
41
1
10
97.9634714490498
20
13.5
30
0
41
1
10
98.0269422887794
20
13.4824009509021
30
0
41
1
10
98.1538839682386
20
13.4083815927486
30
0
41
1
10
98.2173548079682
20
13.3519524078949
30
0
41
1
10
98.3442964874274
20
13.1972925857505
30
0
41
1
10
98.407767327157
20
13.0990533298401
30
0
41
1
10
98.5347090066161
20
12.8587186493604
30
0
41
1
10
98.5981798463459
20
12.7166158862952
30
0
41
1
10
98.7251215258051
20
12.3876684397588
30
0
41
1
10
98.7885923655348
20
12.2008187720795
30
0
41
1
10
98.915534044994
20
11.7828497258007
30
0
41
1
10
98.9790048847236
20
11.5517286449452
30
0
41
1
10
99.1059465641828
20
11.0471506120786
30
0
41
1
10
99.1694174039125
20
10.7736958102213
30
0
41
1
10
99.2963590833717
20
10.1878408694472
30
0
41
1
10
99.3598299231012
20
9.87544678246556
30
0
41
1
10
99.4867716025605
20
9.21643710038285
30
0
41
1
10
99.5502424422901
20
8.86983092707482
30
0
41
1
10
99.6771841217493
20
8.14821945987993
30
0
41
1
10
99.740654961479
20
7.77322591760017
30
0
41
1
10
99.8675966409382
20
7.00143858147973
30
0
41
1
10
99.9310674806678
20
6.60465751427535
30
0
41
1
10
100.058009160127
20
5.79629783203026
30
0
41
1
10
100.121479999857
20
5.38473150899958
30
0
41
1
10
100.248421679316
20
4.55382714479887
30
0
41
1
10
100.311892519046
20
4.13449974919172
30
0
41
1
10
100.438834198505
20
3.29477368909912
30
0
41
1
10
100.502305038234
20
2.87438319022601
30
0
41
1
10
100.629246717694
20
2.03862098000258
30
0
41
1
10
100.692717557423
20
1.62325457310399
30
0
41
1
10
100.819659236883
20
0.802817096118361
30
0
41
1
10
100.883130076612
20
0.397748510773937
30
0
41
1
10
101.010071756071
20
-0.39774660158568
30
0
41
1
10
101.073542595801
20
-0.802815143422066
30
0
41
1
10
101.20048427526
20
-1.62325258770039
30
0
41
1
10
101.26395511499
20
-2.03861898210448
30
0
41
1
10
101.390896794449
20
-2.87438117646545
30
0
41
1
10
101.454367634178
20
-3.29477167197521
30
0
41
1
10
101.581309313638
20
-4.13449773563045
30
0
41
1
10
101.644780153368
20
-4.55382513816798
30
0
41
1
10
101.771721832827
20
-5.38472952728941
30
0
41
1
10
101.835192672556
20
-5.79629586831388
30
0
41
1
10
101.962134352015
20
-6.60465559786508
30
0
41
1
10
102.025605191745
20
-7.0014366943835
30
0
41
1
10
102.152546871204
20
-7.77322410011692
30
0
41
1
10
102.216017710934
20
-8.14821768269516
30
0
41
1
10
102.342959390393
20
-8.86982924052424
30
0
41
1
10
102.406430230123
20
-9.21643546416533
30
0
41
1
10
102.533371909582
20
-9.87544525543632
30
0
41
1
10
102.596842749312
20
-10.1878394012686
30
0
41
1
10
102.723784428771
20
-10.7736944662958
30
0
41
1
10
102.787255268501
20
-11.0471493335499
30
0
41
1
10
102.91419694796
20
-11.551727501499
30
0
41
1
10
102.977667787689
20
-11.782848652034
30
0
41
1
10
103.104609467149
20
-12.2008178395943
30
0
41
1
10
103.168080306878
20
-12.3876675788698
30
0
41
1
10
103.295021986337
20
-12.7166151682362
30
0
41
1
10
103.358492826067
20
-12.8587180025306
30
0
41
1
10
103.485434505526
20
-13.099052823063
30
0
41
1
10
103.548905345256
20
-13.1972921477939
30
0
41
1
10
103.675847024715
20
-13.3519521034841
30
0
41
1
10
103.739317864445
20
-13.4083813530619
30
0
41
1
10
103.866259543904
20
-13.4824008352956
30
0
41
1
10
103.929730383634
20
-13.4999999437499
30
0
41
1
10
104.056672063093
20
-13.5000000562499
30
0
41
1
10
104.120142902822
20
-13.4824010665083
30
0
41
1
10
104.247084582282
20
-13.408381832435
30
0
41
1
10
104.310555422011
20
-13.3519527123055
30
0
41
1
10
104.43749710147
20
-13.1972930237068
30
0
41
1
10
104.5009679412
20
-13.0990538366168
30
0
41
1
10
104.627909620659
20
-12.8587192961898
30
0
41
1
10
104.691380460389
20
-12.716616604354
30
0
41
1
10
104.818322139848
20
-12.3876693006476
30
0
41
1
10
104.881792979578
20
-12.2008197045643
30
0
41
1
10
105.008734659037
20
-11.782850799567
30
0
41
1
10
105.072205498767
20
-11.5517297883911
30
0
41
1
10
105.199147178226
20
-11.047151890607
30
0
41
1
10
105.262618017956
20
-10.7736971541464
30
0
41
1
10
105.389559697415
20
-10.1878423376256
30
0
41
1
10
105.453030537144
20
-9.87544830949454
30
0
41
1
10
105.579972216604
20
-9.21643873660017
30
0
41
1
10
105.643443056333
20
-8.86983261362514
30
0
41
1
10
105.770384735793
20
-8.14822123706449
30
0
41
1
10
105.833855575522
20
-7.77322773508325
30
0
41
1
10
105.960797254981
20
-7.00144046857579
30
0
41
1
10
106.024268094711
20
-6.6046594306855
30
0
41
1
10
106.15120977417
20
-5.79629979574656
30
0
41
1
10
106.2146806139
20
-5.38473349070969
30
0
41
1
10
106.341622293359
20
-4.55382915142974
30
0
41
1
10
106.405093133089
20
-4.13450176275296
30
0
41
1
10
106.532034812548
20
-3.29477570622302
30
0
41
1
10
106.595505652277
20
-2.87438520398658
30
0
41
1
10
106.722447331737
20
-2.03862297790073
30
0
41
1
10
106.785918171466
20
-1.62325655850768
30
0
41
1
10
106.912859850926
20
-0.802819048814769
30
0
41
1
10
106.976330690655
20
-0.397750443261828
30
0
41
1
10
107.103272370114
20
0.397744715696803
30
0
41
1
10
107.166743209844
20
0.802813190725885
30
0
41
1
10
107.293684889303
20
1.62325060229688
30
0
41
1
10
107.357155729033
20
2.03861698420644
30
0
41
1
10
107.484097408492
20
2.87437916270488
30
0
41
1
10
107.547568248222
20
3.29476965485131
30
0
41
1
10
107.674509927681
20
4.13449572206915
30
0
41
1
10
107.737980767411
20
4.553823131537
30
0
41
1
10
107.86492244687
20
5.38472754557915
30
0
41
1
10
107.928393286599
20
5.79629390459738
30
0
41
1
10
108.055334966059
20
6.60465368145466
30
0
41
1
10
108.118805805788
20
7.00143480728715
30
0
41
1
10
108.245747485248
20
7.7732222826335
30
0
41
1
10
108.309218324977
20
8.1482159055102
30
0
41
1
10
108.436160004436
20
8.86982755397344
30
0
41
1
10
108.499630844166
20
9.21643382794753
30
0
41
1
10
108.626572523625
20
9.87544372840679
30
0
41
1
10
108.690043363355
20
10.1878379330896
30
0
41
1
10
108.816985042814
20
10.7736931223701
30
0
41
1
10
108.880455882544
20
11.0471480550208
30
0
41
1
10
109.007397562003
20
11.5517263580525
30
0
41
1
10
109.070868401732
20
11.782847578267
30
0
41
1
10
109.197810081192
20
12.2008169071088
30
0
41
1
10
109.261280920921
20
12.3876667179804
30
0
41
1
10
109.388222600381
20
12.7166144501768
30
0
41
1
10
109.45169344011
20
12.8587173557006
30
0
41
1
10
109.578635119569
20
13.0990523162856
30
0
41
1
10
109.642105959299
20
13.197291709837
30
0
41
1
10
109.769047638758
20
13.3519517990729
30
0
41
1
10
109.832518478488
20
13.4083811133748
30
0
41
1
10
109.959460157947
20
13.4824007196887
30
0
41
1
10
110.022930997677
20
13.4999998874995
30
0
41
1
10
110.086401837406
20
13.4999999999995
30
0
0
SPLINE
5
E8
100
AcDbEntity
8
1
62
256
6
ByLayer
370
13
48
1
60
0
100
AcDbSpline
70
4
71
3
72
22
73
18
40
0
40
0
40
0
40
0
40
0.125
40
0.125
40
0.25
40
0.25
40
0.375
40
0.375
40
0.5
40
0.5
40
0.625
40
0.625
40
0.75
40
0.75
40
0.875
40
0.875
40
1
40
1
40
1
40
1
41
1
10
108.089567979111
20
13.5
30
0
41
1
10
108.172769389873
20
13.5
30
0
41
1
10
108.255970800636
20
13.469728745335
30
0
41
1
10
108.42237362216
20
13.3406852103108
30
0
41
1
10
108.505575032923
20
13.2418786176579
30
0
41
1
10
108.671977854447
20
12.9699322931454
30
0
41
1
10
108.75517926521
20
12.7967619332972
30
0
41
1
10
108.921582086734
20
12.3734455448584
30
0
41
1
10
109.004783497497
20
12.1232796132998
30
0
41
1
10
109.171186319021
20
11.5473047447419
30
0
41
1
10
109.254387729783
20
11.2214927761311
30
0
41
1
10
109.420790551308
20
10.499899542865
30
0
41
1
10
109.50399196207
20
10.1041350565097
30
0
41
1
10
109.670394783595
20
9.25245260264393
30
0
41
1
10
109.753596194357
20
8.79656941042211
30
0
41
1
10
109.919999015882
20
7.83782219427434
30
0
41
1
10
110.003200426644
20
7.33500453486647
30
0
41
1
10
110.086401837406
20
6.81633831359261
30
0
0
SPLINE
5
E9
100
AcDbEntity
8
1
62
256
6
ByLayer
370
13
48
1
60
0
100
AcDbSpline
70
4
71
3
72
22
73
18
40
0
40
0
40
0
40
0
40
0.125
40
0.125
40
0.25
40
0.25
40
0.375
40
0.375
40
0.5
40
0.5
40
0.625
40
0.625
40
0.75
40
0.75
40
0.875
40
0.875
40
1
40
1
40
1
40
1
41
1
10
97.9
20
9.60639798970445
30
0
41
1
10
97.962984065964
20
9.93128849292253
30
0
41
1
10
98.025968131928
20
10.2391707856242
30
0
41
1
10
98.151936263856
20
10.816383976785
30
0
41
1
10
98.2149203298198
20
11.0857092449647
30
0
41
1
10
98.3408884617478
20
11.5825568381302
30
0
41
1
10
98.4038725277119
20
11.810077270074
30
0
41
1
10
98.5298406596399
20
12.2214790390509
30
0
41
1
10
98.5928247256039
20
12.4053621484828
30
0
41
1
10
98.7187928575319
20
12.7290695349941
30
0
41
1
10
98.7817769234958
20
12.8688986927449
30
0
41
1
10
98.9077450554237
20
13.1053924821477
30
0
41
1
10
98.9707291213878
20
13.2020642160404
30
0
41
1
10
99.0966972533157
20
13.3542680806781
30
0
41
1
10
99.1596813192797
20
13.4098085161981
30
0
41
1
10
99.2856494512076
20
13.4826702059973
30
0
41
1
10
99.3486335171717
20
13.5
30
0
41
1
10
99.4116175831357
20
13.5
30
0
0
SPLINE
5
EA
100
AcDbEntity
8
1
62
256
6
ByLayer
370
13
48
1
60
0
100
AcDbSpline
70
4
71
3
72
144
73
140
40
0
40
0
40
0
40
0
40
0.0156249999999996
40
0.0156249999999996
40
0.0312499999999993
40
0.0312499999999993
40
0.0468749999999989
40
0.0468749999999989
40
0.0624999999999985
40
0.0624999999999985
40
0.0781249999999981
40
0.0781249999999981
40
0.0937499999999977
40
0.0937499999999977
40
0.109374999999997
40
0.109374999999997
40
0.124999999999997
40
0.124999999999997
40
0.140624999999996
40
0.140624999999996
40
0.156249999999996
40
0.156249999999996
40
0.171874999999996
40
0.171874999999996
40
0.187499999999995
40
0.187499999999995
40
0.203124999999995
40
0.203124999999995
40
0.218749999999994
40
0.218749999999994
40
0.226562499999994
40
0.226562499999994
40
0.234374999999994
40
0.234374999999994
40
0.249999999999994
40
0.249999999999994
40
0.265624999999994
40
0.265624999999994
40
0.281249999999994
40
0.281249999999994
40
0.296874999999994
40
0.296874999999994
40
0.312499999999994
40
0.312499999999994
40
0.328124999999994
40
0.328124999999994
40
0.343749999999994
40
0.343749999999994
40
0.359374999999993
40
0.359374999999993
40
0.374999999999993
40
0.374999999999993
40
0.390624999999993
40
0.390624999999993
40
0.406249999999993
40
0.406249999999993
40
0.421874999999993
40
0.421874999999993
40
0.437499999999993
40
0.437499999999993
40
0.453124999999993
40
0.453124999999993
40
0.468749999999993
40
0.468749999999993
40
0.476562499999993
40
0.476562499999993
40
0.480468749999993
40
0.480468749999993
40
0.484374999999993
40
0.484374999999993
40
0.499999999999993
40
0.499999999999993
40
0.515624999999994
40
0.515624999999994
40
0.531249999999994
40
0.531249999999994
40
0.546874999999995
40
0.546874999999995
40
0.562499999999995
40
0.562499999999995
40
0.578124999999995
40
0.578124999999995
40
0.593749999999996
40
0.593749999999996
40
0.609374999999996
40
0.609374999999996
40
0.624999999999997
40
0.624999999999997
40
0.640624999999997
40
0.640624999999997
40
0.656249999999998
40
0.656249999999998
40
0.671874999999999
40
0.671874999999999
40
0.687499999999999
40
0.687499999999999
40
0.703125
40
0.703125
40
0.71875
40
0.71875
40
0.734375000000001
40
0.734375000000001
40
0.738281250000001
40
0.738281250000001
40
0.742187500000001
40
0.742187500000001
40
0.750000000000001
40
0.750000000000001
40
0.765625000000001
40
0.765625000000001
40
0.781250000000001
40
0.781250000000001
40
0.796875000000001
40
0.796875000000001
40
0.812500000000001
40
0.812500000000001
40
0.828125000000001
40
0.828125000000001
40
0.843750000000001
40
0.843750000000001
40
0.859375000000001
40
0.859375000000001
40
0.875000000000001
40
0.875000000000001
40
0.890625000000001
40
0.890625000000001
40
0.906250000000001
40
0.906250000000001
40
0.921875
40
0.921875
40
0.9375
40
0.9375
40
0.953125
40
0.953125
40
0.96875
40
0.96875
40
0.984375
40
0.984375
40
1
40
1
40
1
40
1
41
1
10
97.9
20
13.1284225417576
30
0
41
1
10
97.9609436716298
20
13.0318618658028
30
0
41
1
10
98.0218873432597
20
12.9154481799968
30
0
41
1
10
98.1437746865194
20
12.6416320414623
30
0
41
1
10
98.2047183581491
20
12.4842244669733
30
0
41
1
10
98.3266057014089
20
12.1282075754151
30
0
41
1
10
98.3875493730387
20
11.9295953629086
30
0
41
1
10
98.5094367162983
20
11.4921623170255
30
0
41
1
10
98.5703803879281
20
11.253341406877
30
0
41
1
10
98.6922677311878
20
10.7377368308342
30
0
41
1
10
98.7532114028176
20
10.4609561803403
30
0
41
1
10
98.8750987460772
20
9.87288735402097
30
0
41
1
10
98.9360424177071
20
9.56160515291185
30
0
41
1
10
99.0579297609668
20
8.90906203487123
30
0
41
1
10
99.1188734325966
20
8.56780950585858
30
0
41
1
10
99.2407607758562
20
7.86071017203633
30
0
41
1
10
99.301704447486
20
7.49487329185405
30
0
41
1
10
99.4235917907457
20
6.74456696017396
30
0
41
1
10
99.4845354623755
20
6.36010791731695
30
0
41
1
10
99.6064228056352
20
5.57878703613108
30
0
41
1
10
99.667366477265
20
5.18193504653536
30
0
41
1
10
99.7892538205247
20
4.38201827509283
30
0
41
1
10
99.8501974921545
20
3.9789619148381
30
0
41
1
10
99.9720848354142
20
3.17250942191052
30
0
41
1
10
100.033028507044
20
2.76911970566633
30
0
41
1
10
100.154915850304
20
1.96733201228216
30
0
41
1
10
100.215859521933
20
1.5689381973026
30
0
41
1
10
100.337746865193
20
0.78177296283522
30
0
41
1
10
100.398690536823
20
0.393003503231341
30
0
41
1
10
100.490106044268
20
-0.180055070121796
30
0
41
1
10
100.520577880083
20
-0.372505787489416
30
0
41
1
10
100.581521551712
20
-0.760573696455936
30
0
41
1
10
100.611993387527
20
-0.956066087776037
30
0
41
1
10
100.703408894972
20
-1.5461644670626
30
0
41
1
10
100.764352566602
20
-1.94441512126497
30
0
41
1
10
100.886239909862
20
-2.74601199546089
30
0
41
1
10
100.947183581491
20
-3.14935409678739
30
0
41
1
10
101.069070924751
20
-3.95581900008028
30
0
41
1
10
101.130014596381
20
-4.35893542746041
30
0
41
1
10
101.25190193964
20
-5.15908843892654
30
0
41
1
10
101.31284561127
20
-5.55611663540088
30
0
41
1
10
101.43473295453
20
-6.33790966725707
30
0
41
1
10
101.49567662616
20
-6.72266467386569
30
0
41
1
10
101.617563969419
20
-7.47368063425688
30
0
41
1
10
101.678507641049
20
-7.83993118063975
30
0
41
1
10
101.800394984309
20
-8.54796751131298
30
0
41
1
10
101.861338655939
20
-8.88974335156598
30
0
41
1
10
101.983225999198
20
-9.54342898693602
30
0
41
1
10
102.044169670828
20
-9.85533035566127
30
0
41
1
10
102.166057014088
20
-10.4447147875997
30
0
41
1
10
102.227000685718
20
-10.722191823552
30
0
41
1
10
102.348888028977
20
-11.239244349255
30
0
41
1
10
102.409831700607
20
-11.478816764363
30
0
41
1
10
102.531719043867
20
-11.9177841472321
30
0
41
1
10
102.592662715497
20
-12.1171791339578
30
0
41
1
10
102.714550058756
20
-12.4747690766597
30
0
41
1
10
102.775493730386
20
-12.632966878874
30
0
41
1
10
102.897381073646
20
-12.9083488099673
30
0
41
1
10
102.958324745276
20
-13.0255380249264
30
0
41
1
10
103.080212088535
20
-13.2201765552278
30
0
41
1
10
103.141155760165
20
-13.2976324245143
30
0
41
1
10
103.263043103425
20
-13.4149877335647
30
0
41
1
10
103.323986775054
20
-13.4548943858495
30
0
41
1
10
103.415402282499
20
-13.488749694018
30
0
41
1
10
103.445874118314
20
-13.4957054619861
30
0
41
1
10
103.491581872037
20
-13.499950235701
30
0
41
1
10
103.506817789944
20
-13.5003373974086
30
0
41
1
10
103.537289625759
20
-13.499085209169
30
0
41
1
10
103.552525543667
20
-13.4974379777589
30
0
41
1
10
103.628705133204
20
-13.4839654656934
30
0
41
1
10
103.689648804833
20
-13.4564115790337
30
0
41
1
10
103.811536148093
20
-13.3646917647132
30
0
41
1
10
103.872479819723
20
-13.3005185722774
30
0
41
1
10
103.994367162983
20
-13.1331089879208
30
0
41
1
10
104.055310834613
20
-13.0298657247151
30
0
41
1
10
104.177198177872
20
-12.7827027692095
30
0
41
1
10
104.238141849502
20
-12.6387773905841
30
0
41
1
10
104.360029192762
20
-12.3096664331771
30
0
41
1
10
104.420972864392
20
-12.1244771539809
30
0
41
1
10
104.542860207651
20
-11.7134279569271
30
0
41
1
10
104.603803879281
20
-11.4875669926979
30
0
41
1
10
104.725691222541
20
-10.9970109270544
30
0
41
1
10
104.78663489417
20
-10.7323178238855
30
0
41
1
10
104.90852223743
20
-10.1671678344151
30
0
41
1
10
104.96946590906
20
-9.86671599610278
30
0
41
1
10
105.091353252319
20
-9.23424666064943
30
0
41
1
10
105.152296923949
20
-8.90223684537983
30
0
41
1
10
105.274184267209
20
-8.21178447952863
30
0
41
1
10
105.335127938839
20
-7.85335146206793
30
0
41
1
10
105.457015282099
20
-7.11585883113358
30
0
41
1
10
105.517958953728
20
-6.73680958711222
30
0
41
1
10
105.639846296988
20
-5.96426121393981
30
0
41
1
10
105.700789968618
20
-5.57077222354161
30
0
41
1
10
105.822677311877
20
-4.77557988809835
30
0
41
1
10
105.883620983507
20
-4.37388551044725
30
0
41
1
10
106.005508326767
20
-3.56828667716536
30
0
41
1
10
106.066451998397
20
-3.16438933698274
30
0
41
1
10
106.188339341657
20
-2.35991398814701
30
0
41
1
10
106.249283013286
20
-1.95934088644935
30
0
41
1
10
106.371170356546
20
-1.16638713965946
30
0
41
1
10
106.432114028176
20
-0.774009153011576
30
0
41
1
10
106.508293617713
20
-0.29122162845519
30
0
41
1
10
106.523529535621
20
-0.195046409914539
30
0
41
1
10
106.554001371436
20
-0.003516666373315
30
0
41
1
10
106.569237289343
20
0.0918170104696969
30
0
41
1
10
106.614945043065
20
0.379861456889046
30
0
41
1
10
106.64541687888
20
0.573500200391891
30
0
41
1
10
106.736832386325
20
1.15853937313241
30
0
41
1
10
106.797776057955
20
1.55408707336153
30
0
41
1
10
106.919663401214
20
2.3518689531511
30
0
41
1
10
106.980607072844
20
2.75409975201285
30
0
41
1
10
107.102494416104
20
3.5601488626684
30
0
41
1
10
107.163438087734
20
3.96396152646903
30
0
41
1
10
107.285325430993
20
4.76747075508305
30
0
41
1
10
107.346269102623
20
5.16715954346404
30
0
41
1
10
107.468156445883
20
5.95631498282765
30
0
41
1
10
107.529100117513
20
6.34577219387847
30
0
41
1
10
107.650987460772
20
7.10821640422768
30
0
41
1
10
107.711931132402
20
7.48119307639953
30
0
41
1
10
107.833818475662
20
8.20458591445103
30
0
41
1
10
107.894762147292
20
8.55499186559854
30
0
41
1
10
108.016649490551
20
9.22762293394695
30
0
41
1
10
108.077593162181
20
9.54983901951266
30
0
41
1
10
108.199480505441
20
10.1612328560591
30
0
41
1
10
108.260424177071
20
10.4504037159864
30
0
41
1
10
108.38231152033
20
10.9918548097561
30
0
41
1
10
108.44325519196
20
11.244130967233
30
0
41
1
10
108.56514253522
20
11.709112378481
30
0
41
1
10
108.626086206849
20
11.921816650311
30
0
41
1
10
108.747973550109
20
12.3062225883201
30
0
41
1
10
108.808917221739
20
12.4779262278204
30
0
41
1
10
108.930804564999
20
12.7801319774221
30
0
41
1
10
108.991748236629
20
12.9106385202979
30
0
41
1
10
109.113635579888
20
13.131385615773
30
0
41
1
10
109.174579251518
20
13.2216323324769
30
0
41
1
10
109.296466594778
20
13.3637678294126
30
0
41
1
10
109.357410266408
20
13.4156636926809
30
0
41
1
10
109.479297609667
20
13.4837761582029
30
0
41
1
10
109.540241281297
20
13.5
30
0
41
1
10
109.601184952927
20
13.5
30
0
0
SPLINE
5
EB
100
AcDbEntity
8
1
62
256
6
ByLayer
370
13
48
1
60
0
100
AcDbSpline
70
4
71
3
72
22
73
18
40
0
40
0
40
0
40
0
40
0.125
40
0.125
40
0.25
40
0.25
40
0.375
40
0.375
40
0.5
40
0.5
40
0.625
40
0.625
40
0.75
40
0.75
40
0.875
40
0.875
40
1
40
1
40
1
40
1
41
1
10
107.604350485312
20
13.5
30
0
41
1
10
107.707769291649
20
13.5
30
0
41
1
10
107.811188097986
20
13.4531646350307
30
0
41
1
10
108.018025710661
20
13.2509726530628
30
0
41
1
10
108.121444516998
20
13.095515557014
30
0
41
1
10
108.328282129673
20
12.6668564461182
30
0
41
1
10
108.43170093601
20
12.3935769549033
30
0
41
1
10
108.638538548684
20
11.728654753683
30
0
41
1
10
108.741957355022
20
11.3369884279273
30
0
41
1
10
108.948794967696
20
10.4449104690866
30
0
41
1
10
109.052213774034
20
9.94454684663822
30
0
41
1
10
109.259051386708
20
8.85461042195504
30
0
41
1
10
109.362470193045
20
8.26514961847775
30
0
41
1
10
109.56930780572
20
7.02401605596597
30
0
41
1
10
109.672726612057
20
6.37248708926185
30
0
41
1
10
109.879564224732
20
5.03769586615783
30
0
41
1
10
109.982983031069
20
4.35456759706133
30
0
41
1
10
110.086401837406
20
3.67038932999802
30
0
0
SPLINE
5
EC
100
AcDbEntity
8
1
62
256
6
ByLayer
370
13
48
1
60
0
100
AcDbSpline
70
4
71
3
72
14
73
10
40
0
40
0
40
0
40
0
40
0.25
40
0.25
40
0.5
40
0.5
40
0.75
40
0.75
40
1
40
1
40
1
40
1
41
1
10
97.9
20
11.7370164038872
30
0
41
1
10
97.9855333407781
20
12.041728866757
30
0
41
1
10
98.071066681556
20
12.3066805823112
30
0
41
1
10
98.2421333631121
20
12.7551198333126
30
0
41
1
10
98.32766670389
20
12.9386288111995
30
0
41
1
10
98.4987333854461
20
13.2267509495023
30
0
41
1
10
98.5842667262241
20
13.3313987810233
30
0
41
1
10
98.7553334077801
20
13.4680036246974
30
0
41
1
10
98.8408667485581
20
13.5
30
0
41
1
10
98.9264000893361
20
13.5
30
0
0
SPLINE
5
ED
100
AcDbEntity
8
1
62
256
6
ByLayer
370
13
48
1
60
0
100
AcDbSpline
70
4
71
3
72
145
73
141
40
0
40
0
40
0
40
0
40
0.0156249999999999
40
0.0156249999999999
40
0.0312499999999999
40
0.0312499999999999
40
0.0468749999999998
40
0.0468749999999998
40
0.0624999999999998
40
0.0624999999999998
40
0.0781249999999997
40
0.0781249999999997
40
0.0937499999999997
40
0.0937499999999997
40
0.109375
40
0.109375
40
0.125
40
0.125
40
0.140624999999999
40
0.140624999999999
40
0.156249999999999
40
0.156249999999999
40
0.171874999999999
40
0.171874999999999
40
0.179687499999999
40
0.179687499999999
40
0.183593749999999
40
0.183593749999999
40
0.187499999999999
40
0.187499999999999
40
0.203124999999999
40
0.203124999999999
40
0.218749999999999
40
0.218749999999999
40
0.234374999999999
40
0.234374999999999
40
0.249999999999999
40
0.249999999999999
40
0.265624999999999
40
0.265624999999999
40
0.281249999999999
40
0.281249999999999
40
0.296874999999999
40
0.296874999999999
40
0.312499999999999
40
0.312499999999999
40
0.328124999999999
40
0.328124999999999
40
0.343749999999999
40
0.343749999999999
40
0.359374999999999
40
0.359374999999999
40
0.374999999999999
40
0.374999999999999
40
0.390624999999998
40
0.390624999999998
40
0.406249999999998
40
0.406249999999998
40
0.421874999999998
40
0.421874999999998
40
0.437499999999998
40
0.437499999999998
40
0.453124999999998
40
0.453124999999998
40
0.457031249999998
40
0.457031249999998
40
0.460937499999998
40
0.468749999999998
40
0.468749999999998
40
0.484374999999998
40
0.484374999999998
40
0.499999999999998
40
0.499999999999998
40
0.515624999999998
40
0.515624999999998
40
0.531249999999998
40
0.531249999999998
40
0.546874999999998
40
0.546874999999998
40
0.562499999999998
40
0.562499999999998
40
0.578124999999998
40
0.578124999999998
40
0.593749999999998
40
0.593749999999998
40
0.609374999999999
40
0.609374999999999
40
0.624999999999999
40
0.624999999999999
40
0.640624999999999
40
0.640624999999999
40
0.656249999999999
40
0.656249999999999
40
0.671874999999999
40
0.671874999999999
40
0.687499999999999
40
0.687499999999999
40
0.703124999999999
40
0.703124999999999
40
0.718749999999999
40
0.718749999999999
40
0.726562499999999
40
0.726562499999999
40
0.730468749999999
40
0.730468749999999
40
0.734374999999999
40
0.734374999999999
40
0.749999999999999
40
0.749999999999999
40
0.765624999999999
40
0.765624999999999
40
0.781249999999999
40
0.781249999999999
40
0.796874999999999
40
0.796874999999999
40
0.812499999999999
40
0.812499999999999
40
0.828124999999999
40
0.828124999999999
40
0.843749999999999
40
0.843749999999999
40
0.859374999999999
40
0.859374999999999
40
0.875
40
0.875
40
0.890625
40
0.890625
40
0.90625
40
0.90625
40
0.921875
40
0.921875
40
0.9375
40
0.9375
40
0.953125
40
0.953125
40
0.96875
40
0.96875
40
0.984375
40
0.984375
40
1
40
1
40
1
40
1
41
1
10
97.9
20
11.930727240713
30
0
41
1
10
97.958416497183
20
11.7344694336867
30
0
41
1
10
98.0168329943659
20
11.5195202079906
30
0
41
1
10
98.1336659887319
20
11.0538142648446
30
0
41
1
10
98.1920824859147
20
10.8030590113566
30
0
41
1
10
98.3089154802807
20
10.2683590709975
30
0
41
1
10
98.3673319774636
20
9.98441822785298
30
0
41
1
10
98.4841649718296
20
9.38692984918623
30
0
41
1
10
98.5425814690125
20
9.07338825886077
30
0
41
1
10
98.6594144633785
20
8.42109759972226
30
0
41
1
10
98.7178309605614
20
8.08235602890525
30
0
41
1
10
98.8346639549273
20
7.38467707491202
30
0
41
1
10
98.8930804521103
20
7.02574800898026
30
0
41
1
10
99.0099134464762
20
6.29307796379015
30
0
41
1
10
99.0683299436591
20
5.91934532279541
30
0
41
1
10
99.185162938025
20
5.16257130675325
30
0
41
1
10
99.2435794352079
20
4.77953755368566
30
0
41
1
10
99.3604124295738
20
4.00954160009547
30
0
41
1
10
99.4188289267569
20
3.62258573109446
30
0
41
1
10
99.5356619211229
20
2.849791583383
30
0
41
1
10
99.5940784183057
20
2.46395799408498
30
0
41
1
10
99.7109114126716
20
1.69795372875799
30
0
41
1
10
99.7693279098546
20
1.3177859819634
30
0
41
1
10
99.856952655629
20
0.75472910503143
30
0
41
1
10
99.8861609042206
20
0.568237534327977
30
0
41
1
10
99.9299732771078
20
0.290612096522494
30
0
41
1
10
99.9445774014035
20
0.198421936096963
30
0
41
1
10
99.973785649995
20
0.0147943578058403
30
0
41
1
10
99.9883897742907
20
-0.0765662237750178
30
0
41
1
10
100.061410395769
20
-0.536474410799826
30
0
41
1
10
100.119826892952
20
-0.910362680834112
30
0
41
1
10
100.236659887318
20
-1.66660251759913
30
0
41
1
10
100.295076384501
20
-2.04895233619712
30
0
41
1
10
100.411909378867
20
-2.81799129032203
30
0
41
1
10
100.47032587605
20
-3.20467695830675
30
0
41
1
10
100.587158870416
20
-3.97767785142847
30
0
41
1
10
100.645575367599
20
-4.36398786131883
30
0
41
1
10
100.762408361965
20
-5.13107222421246
30
0
41
1
10
100.820824859148
20
-5.51183980231252
30
0
41
1
10
100.937657853514
20
-6.26239945152466
30
0
41
1
10
100.996074350697
20
-6.63218361122489
30
0
41
1
10
101.112907345062
20
-7.3552841146477
30
0
41
1
10
101.171323842246
20
-7.70859204309661
30
0
41
1
10
101.288156836611
20
-8.39344286740885
30
0
41
1
10
101.346573333794
20
-8.72497761252441
30
0
41
1
10
101.46340632816
20
-9.36143152297421
30
0
41
1
10
101.521822825343
20
-9.66634359421511
30
0
41
1
10
101.638655819709
20
-10.245380009308
30
0
41
1
10
101.697072316892
20
-10.5194990043566
30
0
41
1
10
101.813905311258
20
-11.0336446942192
30
0
41
1
10
101.872321808441
20
-11.2736682582269
30
0
41
1
10
101.989154802807
20
-11.71731487864
30
0
41
1
10
102.04757129999
20
-11.92093720879
30
0
41
1
10
102.164404294356
20
-12.2905278140315
30
0
41
1
10
102.222820791538
20
-12.4564976553648
30
0
41
1
10
102.339653785905
20
-12.7505710852842
30
0
41
1
10
102.398070283088
20
-12.8786781662225
30
0
41
1
10
102.514903277453
20
-13.0977777103718
30
0
41
1
10
102.573319774636
20
-13.1887750562944
30
0
41
1
10
102.690152769002
20
-13.3352427651804
30
0
41
1
10
102.748569266185
20
-13.3907187975034
30
0
41
1
10
102.865402260551
20
-13.468406855634
30
0
41
1
10
102.923818757734
20
-13.4906247596546
30
0
41
1
10
102.996839379213
20
-13.4993339525408
30
0
41
1
10
103.011443503509
20
-13.5001238520981
30
0
41
1
10
103.0406517521
20
-13.4998448120052
30
0
41
1
10
103.084464124987
20
-13.4966293197199
30
0
41
1
10
103.128276497874
20
-13.4848117810898
30
0
41
1
10
103.215901243649
20
-13.4491749436475
30
0
41
1
10
103.274317740832
20
-13.4093983478437
30
0
41
1
10
103.391150735198
20
-13.295303132636
30
0
41
1
10
103.449567232381
20
-13.2209786799582
30
0
41
1
10
103.566400226747
20
-13.0358654381347
30
0
41
1
10
103.624816723929
20
-12.925071326974
30
0
41
1
10
103.741649718295
20
-12.6658599035281
30
0
41
1
10
103.800066215478
20
-12.5174383826807
30
0
41
1
10
103.916899209844
20
-12.1827220608011
30
0
41
1
10
103.975315707027
20
-11.9964247444967
30
0
41
1
10
104.092148701393
20
-11.5867185922945
30
0
41
1
10
104.150565198576
20
-11.3633093913008
30
0
41
1
10
104.267398192942
20
-10.8811978904164
30
0
41
1
10
104.325814690125
20
-10.6224976137811
30
0
41
1
10
104.442647684491
20
-10.0726548471073
30
0
41
1
10
104.501064181674
20
-9.78151672235308
30
0
41
1
10
104.61789717604
20
-9.17058530564975
30
0
41
1
10
104.676313673223
20
-8.85079837526021
30
0
41
1
10
104.793146667589
20
-8.18713002091121
30
0
41
1
10
104.851563164772
20
-7.84325635407194
30
0
41
1
10
104.968396159137
20
-7.13653449251734
30
0
41
1
10
105.02681265632
20
-6.77369469058726
30
0
41
1
10
105.143645650686
20
-6.03447450231596
30
0
41
1
10
105.202062147869
20
-5.6581023495533
30
0
41
1
10
105.318895142235
20
-4.89731290651767
30
0
41
1
10
105.377311639418
20
-4.51290298329891
30
0
41
1
10
105.494144633784
20
-3.74135830989292
30
0
41
1
10
105.552561130967
20
-3.35422953402411
30
0
41
1
10
105.669394125333
20
-2.58219035434286
30
0
41
1
10
105.727810622516
20
-2.19728423519271
30
0
41
1
10
105.844643616882
20
-1.43410163459762
30
0
41
1
10
105.903060114065
20
-1.05582768106817
30
0
41
1
10
105.990684859839
20
-0.496221792258496
30
0
41
1
10
106.019893108431
20
-0.310982157623187
30
0
41
1
10
106.063705481318
20
-0.0353721283102857
30
0
41
1
10
106.078309605614
20
0.0559627702459977
30
0
41
1
10
106.107517854205
20
0.239814689384815
30
0
41
1
10
106.122121978501
20
0.332113403826497
30
0
41
1
10
106.19514259998
20
0.795346143553701
30
0
41
1
10
106.253559097162
20
1.17152414741909
30
0
41
1
10
106.370392091528
20
1.93144664229698
30
0
41
1
10
106.428808588711
20
2.31518899974918
30
0
41
1
10
106.545641583077
20
3.08597194321064
30
0
41
1
10
106.60405808026
20
3.47300865272891
30
0
41
1
10
106.720891074626
20
4.24555169332592
30
0
41
1
10
106.779307571809
20
4.63105242316786
30
0
41
1
10
106.896140566175
20
5.3952769916051
30
0
41
1
10
106.954557063358
20
5.77399374642289
30
0
41
1
10
107.071390057724
20
6.51917740242433
30
0
41
1
10
107.129806554907
20
6.88563621295253
30
0
41
1
10
107.246639549273
20
7.60083426533552
30
0
41
1
10
107.305056046456
20
7.94956508191439
30
0
41
1
10
107.421889040822
20
8.62409120509693
30
0
41
1
10
107.480305538005
20
8.94987853664429
30
0
41
1
10
107.59713853237
20
9.57380465151169
30
0
41
1
10
107.655555029553
20
9.87193668945864
30
0
41
1
10
107.772388023919
20
10.4365658671853
30
0
41
1
10
107.830804521102
20
10.7030581388094
30
0
41
1
10
107.947637515468
20
11.2013246715218
30
0
41
1
10
108.006054012651
20
11.4330963524709
30
0
41
1
10
108.122887007017
20
11.8598548938074
30
0
41
1
10
108.1813035042
20
12.054841578462
30
0
41
1
10
108.298136498566
20
12.4070211210706
30
0
41
1
10
108.356552995749
20
12.5642160310568
30
0
41
1
10
108.473385990115
20
12.8408317264967
30
0
41
1
10
108.531802487298
20
12.9602563776207
30
0
41
1
10
108.648635481664
20
13.1622893955823
30
0
41
1
10
108.707051978847
20
13.2449028811664
30
0
41
1
10
108.823884973212
20
13.3750724988791
30
0
41
1
10
108.882301470395
20
13.4226343974561
30
0
41
1
10
108.999134464761
20
13.4850952213472
30
0
41
1
10
109.057550961944
20
13.5
30
0
41
1
10
109.115967459127
20
13.5
30
0
0
SPLINE
5
EE
100
AcDbEntity
8
1
62
256
6
ByLayer
370
13
48
1
60
0
100
AcDbSpline
70
4
71
3
72
38
73
34
40
0
40
0
40
0
40
0
40
0.0625
40
0.0625
40
0.125
40
0.125
40
0.1875
40
0.1875
40
0.25
40
0.25
40
0.3125
40
0.3125
40
0.375
40
0.375
40
0.4375
40
0.4375
40
0.5
40
0.5
40
0.5625
40
0.5625
40
0.625
40
0.625
40
0.6875
40
0.6875
40
0.75
40
0.75
40
0.8125
40
0.8125
40
0.875
40
0.875
40
0.9375
40
0.9375
40
1
40
1
40
1
40
1
41
1
10
107.119132991512
20
13.5
30
0
41
1
10
107.180951092468
20
13.5
30
0
41
1
10
107.242769193424
20
13.4833066753446
30
0
41
1
10
107.366405395337
20
13.4131792989539
30
0
41
1
10
107.428223496293
20
13.3597374713742
30
0
41
1
10
107.551859698205
20
13.2133317569218
30
0
41
1
10
107.613677799161
20
13.120360281583
30
0
41
1
10
107.737314001073
20
12.8929345809553
30
0
41
1
10
107.79913210203
20
12.7584737998446
30
0
41
1
10
107.922768303942
20
12.4471450217058
30
0
41
1
10
107.984586404898
20
12.2702723977935
30
0
41
1
10
108.10822260681
20
11.8744029161695
30
0
41
1
10
108.170040707766
20
11.6554041540067
30
0
41
1
10
108.293676909678
20
11.1768737110324
30
0
41
1
10
108.355495010635
20
10.9173433711975
30
0
41
1
10
108.479131212547
20
10.3606595734498
30
0
41
1
10
108.540949313503
20
10.0635108170713
30
0
41
1
10
108.664585515415
20
9.43572783834833
30
0
41
1
10
108.726403616371
20
9.10510132248984
30
0
41
1
10
108.850039818284
20
8.41554036127172
30
0
41
1
10
108.91185791924
20
8.05661583929313
30
0
41
1
10
109.035494121152
20
7.31640839292515
30
0
41
1
10
109.097312222108
20
6.93513652407572
30
0
41
1
10
109.22094842402
20
6.15663678431088
30
0
41
1
10
109.282766524977
20
5.75941991796947
30
0
41
1
10
109.406402726889
20
4.955549941838
30
0
41
1
10
109.468220827845
20
4.54890671113688
30
0
41
1
10
109.591857029757
20
3.73250386263231
30
0
41
1
10
109.653675130713
20
3.32275219560688
30
0
41
1
10
109.777311332626
20
2.50598215598271
30
0
41
1
10
109.839129433582
20
2.09896936045601
30
0
41
1
10
109.962765635494
20
1.29285226288741
30
0
41
1
10
110.02458373645
20
0.893751078443017
30
0
41
1
10
110.086401837406
20
0.500789279087542
30
0
0
SPLINE
5
EF
100
AcDbEntity
8
1
62
256
6
ByLayer
370
13
48
1
60
0
100
AcDbSpline
70
4
71
3
72
10
73
6
40
0
40
0
40
0
40
0
40
0.5
40
0.5
40
1
40
1
40
1
40
1
41
1
10
97.9000000000001
20
13.0341555280816
30
0
41
1
10
97.9901970992562
20
13.1951332271141
30
0
41
1
10
98.0803941985122
20
13.3120009368807
30
0
41
1
10
98.2607883970244
20
13.4644087158326
30
0
41
1
10
98.3509854962805
20
13.5
30
0
41
1
10
98.4411825955365
20
13.5
30
0
0
SPLINE
5
F0
100
AcDbEntity
8
1
62
256
6
ByLayer
370
13
48
1
60
0
100
AcDbSpline
70
4
71
3
72
122
73
118
40
0
40
0
40
0
40
0
40
0.0156250000000004
40
0.0156250000000004
40
0.0312500000000007
40
0.0312500000000007
40
0.046875000000001
40
0.046875000000001
40
0.0625000000000013
40
0.0625000000000013
40
0.0781250000000016
40
0.0781250000000016
40
0.0937500000000019
40
0.0937500000000019
40
0.125000000000002
40
0.125000000000002
40
0.140625000000003
40
0.140625000000003
40
0.148437500000003
40
0.148437500000003
40
0.156250000000003
40
0.156250000000003
40
0.187500000000004
40
0.187500000000004
40
0.218750000000005
40
0.218750000000005
40
0.234375000000005
40
0.234375000000005
40
0.250000000000005
40
0.250000000000005
40
0.265625000000006
40
0.265625000000006
40
0.281250000000006
40
0.281250000000006
40
0.296875000000006
40
0.296875000000006
40
0.312500000000007
40
0.312500000000007
40
0.328125000000007
40
0.328125000000007
40
0.343750000000007
40
0.343750000000007
40
0.359375000000008
40
0.359375000000008
40
0.375000000000008
40
0.375000000000008
40
0.406250000000009
40
0.406250000000009
40
0.421875000000009
40
0.421875000000009
40
0.429687500000009
40
0.429687500000009
40
0.433593750000009
40
0.433593750000009
40
0.437500000000009
40
0.437500000000009
40
0.46875000000001
40
0.46875000000001
40
0.50000000000001
40
0.50000000000001
40
0.51562500000001
40
0.51562500000001
40
0.53125000000001
40
0.53125000000001
40
0.546875000000011
40
0.546875000000011
40
0.562500000000011
40
0.562500000000011
40
0.578125000000011
40
0.578125000000011
40
0.593750000000011
40
0.593750000000011
40
0.609375000000011
40
0.609375000000011
40
0.625000000000011
40
0.625000000000011
40
0.640625000000011
40
0.640625000000011
40
0.656250000000012
40
0.656250000000012
40
0.687500000000012
40
0.687500000000012
40
0.703125000000012
40
0.703125000000012
40
0.710937500000012
40
0.710937500000012
40
0.714843750000012
40
0.714843750000012
40
0.718750000000012
40
0.718750000000012
40
0.75000000000001
40
0.75000000000001
40
0.781250000000009
40
0.781250000000009
40
0.796875000000008
40
0.796875000000008
40
0.812500000000008
40
0.812500000000008
40
0.828125000000007
40
0.828125000000007
40
0.843750000000006
40
0.843750000000006
40
0.859375000000006
40
0.859375000000006
40
0.875000000000005
40
0.875000000000005
40
0.890625000000004
40
0.890625000000004
40
0.906250000000004
40
0.906250000000004
40
0.921875000000003
40
0.921875000000003
40
0.937500000000002
40
0.937500000000002
40
0.968750000000001
40
0.968750000000001
40
1
40
1
40
1
40
1
41
1
10
97.9
20
9.89055698860113
30
0
41
1
10
97.9558893227361
20
9.61137262005863
30
0
41
1
10
98.0117786454722
20
9.31823008452267
30
0
41
1
10
98.1235572909443
20
8.70770646269628
30
0
41
1
10
98.1794466136804
20
8.39033110136626
30
0
41
1
10
98.2912252591525
20
7.73559224881808
30
0
41
1
10
98.3471145818887
20
7.39823528770643
30
0
41
1
10
98.4588932273608
20
6.70816154486414
30
0
41
1
10
98.5147825500969
20
6.35545151643967
30
0
41
1
10
98.626561195569
20
5.63947628211918
30
0
41
1
10
98.6824505183052
20
5.27621748469434
30
0
41
1
10
98.7942291637773
20
4.54392609432429
30
0
41
1
10
98.8501184865133
20
4.17489908744284
30
0
41
1
10
99.0177864547216
20
3.06602204997725
30
0
41
1
10
99.1295651001939
20
2.32462419198015
30
0
41
1
10
99.2972330684021
20
1.2332017816594
30
0
41
1
10
99.3531223911381
20
0.872782635333408
30
0
41
1
10
99.4369563752422
20
0.33963946659793
30
0
41
1
10
99.4649010366104
20
0.16329169215112
30
0
41
1
10
99.5207903593465
20
-0.187072963309277
30
0
41
1
10
99.5487350207144
20
-0.363664453543407
30
0
41
1
10
99.6884583275545
20
-1.25279650289988
30
0
41
1
10
99.8002369730268
20
-1.98420228141887
30
0
41
1
10
100.023794263971
20
-3.45930268232607
30
0
41
1
10
100.135572909443
20
-4.2028971018789
30
0
41
1
10
100.303240877652
20
-5.30093784488324
30
0
41
1
10
100.359130200388
20
-5.66401124338847
30
0
41
1
10
100.47090884586
20
-6.37950650818209
30
0
41
1
10
100.526798168596
20
-6.73192195245338
30
0
41
1
10
100.638576814068
20
-7.4212990749418
30
0
41
1
10
100.694466136804
20
-7.7582539984133
30
0
41
1
10
100.806244782276
20
-8.41208764524066
30
0
41
1
10
100.862134105012
20
-8.72895985038539
30
0
41
1
10
100.973912750485
20
-9.33838679920069
30
0
41
1
10
101.029802073221
20
-9.63093584246323
30
0
41
1
10
101.141580718693
20
-10.1880419010548
30
0
41
1
10
101.197470041429
20
-10.452594541214
30
0
41
1
10
101.309248686901
20
-10.9507529282826
30
0
41
1
10
101.365138009637
20
-11.1843559827987
30
0
41
1
10
101.476916655109
20
-11.6184872719186
30
0
41
1
10
101.532805977845
20
-11.8190146553106
30
0
41
1
10
101.644584623317
20
-12.1857471840438
30
0
41
1
10
101.700473946054
20
-12.3519532663583
30
0
41
1
10
101.812252591526
20
-12.6496745939233
30
0
41
1
10
101.868141914262
20
-12.7811923249828
30
0
41
1
10
102.03580988247
20
-13.1243959430917
30
0
41
1
10
102.147588527942
20
-13.2844382857887
30
0
41
1
10
102.31525649615
20
-13.4303250585818
30
0
41
1
10
102.371145818887
20
-13.4633375167176
30
0
41
1
10
102.454979802991
20
-13.4911284288212
30
0
41
1
10
102.482924464359
20
-13.496774005966
30
0
41
1
10
102.524841456411
20
-13.5000520897432
30
0
41
1
10
102.538813787095
20
-13.5002833492936
30
0
41
1
10
102.566758448463
20
-13.4990393155884
30
0
41
1
10
102.580730779147
20
-13.4975579527366
30
0
41
1
10
102.706481755303
20
-13.476310085047
30
0
41
1
10
102.818260400775
20
-13.4008719309074
30
0
41
1
10
103.04181769172
20
-13.1194785235369
30
0
41
1
10
103.153596337192
20
-12.9133798338142
30
0
41
1
10
103.3212643054
20
-12.4998296803803
30
0
41
1
10
103.377153628136
20
-12.3446641052671
30
0
41
1
10
103.488932273608
20
-11.9998025542602
30
0
41
1
10
103.544821596344
20
-11.8101051149142
30
0
41
1
10
103.656600241816
20
-11.3971413668488
30
0
41
1
10
103.712489564552
20
-11.1738753248054
30
0
41
1
10
103.824268210025
20
-10.6956215345525
30
0
41
1
10
103.880157532761
20
-10.4406358997726
30
0
41
1
10
103.991936178233
20
-9.90164028277977
30
0
41
1
10
104.047825500969
20
-9.61763417015936
30
0
41
1
10
104.159604146441
20
-9.02405484363607
30
0
41
1
10
104.215493469177
20
-8.71448695762712
30
0
41
1
10
104.327272114649
20
-8.07386190213586
30
0
41
1
10
104.383161437385
20
-7.74281105184861
30
0
41
1
10
104.494940082857
20
-7.06374179080467
30
0
41
1
10
104.550829405594
20
-6.7157301235431
30
0
41
1
10
104.662608051066
20
-6.00750664288037
30
0
41
1
10
104.718497373802
20
-5.64730141506672
30
0
41
1
10
104.830276019274
20
-4.91950173267793
30
0
41
1
10
104.88616534201
20
-4.55191319002998
30
0
41
1
10
105.053833310218
20
-3.44506128491895
30
0
41
1
10
105.165611955691
20
-2.70194401905098
30
0
41
1
10
105.333279923899
20
-1.60425687996931
30
0
41
1
10
105.389169246635
20
-1.24113981552131
30
0
41
1
10
105.473003230739
20
-0.703177605696624
30
0
41
1
10
105.500947892107
20
-0.524971487772376
30
0
41
1
10
105.542864884159
20
-0.259612824292304
30
0
41
1
10
105.556837214843
20
-0.171484741551865
30
0
41
1
10
105.584781876211
20
0.0040787662725279
30
0
41
1
10
105.598754206895
20
0.0915360826507481
30
0
41
1
10
105.724505183051
20
0.88381222985808
30
0
41
1
10
105.836283828524
20
1.61009891826461
30
0
41
1
10
106.059841119468
20
3.0803322056787
30
0
41
1
10
106.17161976494
20
3.82419317528203
30
0
41
1
10
106.339287733148
20
4.92744419519894
30
0
41
1
10
106.395177055884
20
5.29305093178615
30
0
41
1
10
106.506955701357
20
6.01525494902316
30
0
41
1
10
106.562845024093
20
6.37184603716389
30
0
41
1
10
106.674623669565
20
7.07120144519442
30
0
41
1
10
106.730512992301
20
7.41395906285109
30
0
41
1
10
106.842291637773
20
8.08094091005458
30
0
41
1
10
106.898180960509
20
8.40515847428605
30
0
41
1
10
107.009959605981
20
9.03066701573937
30
0
41
1
10
107.065848928717
20
9.33195195130887
30
0
41
1
10
107.17762757419
20
9.90770835533365
30
0
41
1
10
107.233516896926
20
10.182174947835
30
0
41
1
10
107.345295542398
20
10.7010799029145
30
0
41
1
10
107.401184865134
20
10.9455149710479
30
0
41
1
10
107.512963510606
20
11.4019382578886
30
0
41
1
10
107.568852833342
20
11.6139249932871
30
0
41
1
10
107.680631478814
20
12.0039015049685
30
0
41
1
10
107.73652080155
20
12.1818916270983
30
0
41
1
10
107.848299447022
20
12.5032102422474
30
0
41
1
10
107.904188769759
20
12.6465407295946
30
0
41
1
10
108.071856737967
20
13.0248169306141
30
0
41
1
10
108.183635383439
20
13.2077302318808
30
0
41
1
10
108.407192674383
20
13.4452483446407
30
0
41
1
10
108.518971319855
20
13.5
30
0
41
1
10
108.630749965328
20
13.5
30
0
0
SPLINE
5
F1
100
AcDbEntity
8
1
62
256
6
ByLayer
370
13
48
1
60
0
100
AcDbSpline
70
4
71
3
72
41
73
37
40
0
40
0
40
0
40
0
40
0.0625
40
0.0625
40
0.125
40
0.125
40
0.1875
40
0.1875
40
0.25
40
0.25
40
0.3125
40
0.3125
40
0.375
40
0.375
40
0.4375
40
0.4375
40
0.5
40
0.5
40
0.5625
40
0.5625
40
0.625
40
0.625
40
0.6875
40
0.6875
40
0.75
40
0.75
40
0.812499999999999
40
0.812499999999999
40
0.874999999999999
40
0.874999999999999
40
0.890624999999999
40
0.890624999999999
40
0.906249999999999
40
0.937499999999999
40
0.937499999999999
40
1
40
1
40
1
40
1
41
1
10
106.633915497712
20
13.5
30
0
41
1
10
106.705842296456
20
13.5
30
0
41
1
10
106.7777690952
20
13.4773906902156
30
0
41
1
10
106.921622692687
20
13.3817354693804
30
0
41
1
10
106.993549491431
20
13.3086729571414
30
0
41
1
10
107.137403088918
20
13.1080083332815
30
0
41
1
10
107.209329887661
20
12.9803905823258
30
0
41
1
10
107.353183485149
20
12.6681507444642
30
0
41
1
10
107.425110283892
20
12.4835164935718
30
0
41
1
10
107.56896388138
20
12.0568442862229
30
0
41
1
10
107.640890680123
20
11.8148001211202
30
0
41
1
10
107.78474427761
20
11.2752590073421
30
0
41
1
10
107.856671076354
20
10.977763616511
30
0
41
1
10
108.000524673841
20
10.3316971089947
30
0
41
1
10
108.072451472585
20
9.98313587414029
30
0
41
1
10
108.216305070072
20
9.24157000374427
30
0
41
1
10
108.288231868816
20
8.84858257788969
30
0
41
1
10
108.432085466303
20
8.02664013400573
30
0
41
1
10
108.504012265047
20
7.5977072447792
30
0
41
1
10
108.647865862534
20
6.71359254425172
30
0
41
1
10
108.719792661278
20
6.25843452467325
30
0
41
1
10
108.863646258765
20
5.33212914549443
30
0
41
1
10
108.935573057508
20
4.86100392925474
30
0
41
1
10
109.079426654996
20
3.91286304712707
30
0
41
1
10
109.151353453739
20
3.4358652465358
30
0
41
1
10
109.295207051226
20
2.48530792940002
30
0
41
1
10
109.36713384997
20
2.01176050103175
30
0
41
1
10
109.510987447457
20
1.07620851494769
30
0
41
1
10
109.582914246201
20
0.614209975327924
30
0
41
1
10
109.67282274463
20
0.0480565685638226
30
0
41
1
10
109.690804444316
20
-0.064348826686853
30
0
41
1
10
109.726767843688
20
-0.29091835115068
30
0
41
1
10
109.780712942746
20
-0.632454786947335
30
0
41
1
10
109.834658041804
20
-0.978624589289211
30
0
41
1
10
109.942548239919
20
-1.67590229104974
30
0
41
1
10
110.014475038663
20
-2.14738285762678
30
0
41
1
10
110.086401837406
20
-2.62161963727903
30
0
0
SPLINE
5
F2
100
AcDbEntity
8
1
62
256
6
ByLayer
370
13
48
1
60
0
100
AcDbSpline
70
4
71
3
72
8
73
4
40
0
40
0
40
0
40
0
40
1
40
1
40
1
40
1
41
1
10
97.9
20
13.495395852488
30
0
41
1
10
97.9186550339123
20
13.4984813618938
30
0
41
1
10
97.9373100678246
20
13.5
30
0
41
1
10
97.9559651017369
20
13.5
30
0
0
SPLINE
5
F3
100
AcDbEntity
8
1
62
256
6
ByLayer
370
13
48
1
60
0
100
AcDbSpline
70
4
71
3
72
88
73
84
40
0
40
0
40
0
40
0
40
0.0312500000000003
40
0.0312500000000003
40
0.0625000000000006
40
0.0625000000000006
40
0.0937500000000009
40
0.0937500000000009
40
0.101562500000001
40
0.101562500000001
40
0.105468750000001
40
0.105468750000001
40
0.109375000000001
40
0.109375000000001
40
0.125000000000001
40
0.125000000000001
40
0.156250000000002
40
0.156250000000002
40
0.187500000000002
40
0.187500000000002
40
0.218750000000003
40
0.218750000000003
40
0.250000000000003
40
0.250000000000003
40
0.281250000000004
40
0.281250000000004
40
0.312500000000004
40
0.312500000000004
40
0.343750000000005
40
0.343750000000005
40
0.375000000000005
40
0.375000000000005
40
0.390625000000005
40
0.390625000000005
40
0.398437500000005
40
0.398437500000005
40
0.402343750000005
40
0.402343750000005
40
0.406250000000005
40
0.406250000000005
40
0.437500000000005
40
0.437500000000005
40
0.468750000000005
40
0.468750000000005
40
0.500000000000005
40
0.500000000000005
40
0.531250000000006
40
0.531250000000006
40
0.562500000000006
40
0.562500000000006
40
0.593750000000006
40
0.593750000000006
40
0.625000000000006
40
0.625000000000006
40
0.656250000000006
40
0.656250000000006
40
0.687500000000006
40
0.687500000000006
40
0.695312500000006
40
0.695312500000006
40
0.699218750000006
40
0.699218750000006
40
0.703125000000006
40
0.703125000000006
40
0.718750000000005
40
0.718750000000005
40
0.750000000000005
40
0.750000000000005
40
0.781250000000004
40
0.781250000000004
40
0.812500000000004
40
0.812500000000004
40
0.843750000000003
40
0.843750000000003
40
0.875000000000002
40
0.875000000000002
40
0.906250000000002
40
0.906250000000002
40
0.937500000000001
40
0.937500000000001
40
0.968750000000001
40
0.968750000000001
40
1
40
1
40
1
40
1
41
1
10
97.9
20
7.16274240829128
30
0
41
1
10
98.0067242965785
20
6.50702993622812
30
0
41
1
10
98.1134485931569
20
5.82241404746739
30
0
41
1
10
98.3268971863137
20
4.42874478990069
30
0
41
1
10
98.4336214828921
20
3.71983698373512
30
0
41
1
10
98.647070076049
20
2.30905220554917
30
0
41
1
10
98.7537943726273
20
1.60726370170045
30
0
41
1
10
98.8871997433504
20
0.750431104006793
30
0
41
1
10
98.9138808174949
20
0.580067557602547
30
0
41
1
10
98.9539024287118
20
0.326271416834572
30
0
41
1
10
98.9672429657843
20
0.241964000375987
30
0
41
1
10
98.9939240399289
20
0.0739697401895398
30
0
41
1
10
99.0072645770011
20
-0.0095055211515955
30
0
41
1
10
99.0739672623626
20
-0.428688790961871
30
0
41
1
10
99.1273294106518
20
-0.769094251246827
30
0
41
1
10
99.2874158555194
20
-1.80161802708722
30
0
41
1
10
99.3941401520979
20
-2.50525301656646
30
0
41
1
10
99.6075887452546
20
-3.91702349416784
30
0
41
1
10
99.7143130418332
20
-4.62506455525221
30
0
41
1
10
99.92776163499
20
-6.01390167146124
30
0
41
1
10
100.034485931568
20
-6.69454813439836
30
0
41
1
10
100.247934524725
20
-7.99495761926082
30
0
41
1
10
100.354658821304
20
-8.61455112392713
30
0
41
1
10
100.56810741446
20
-9.76227096340693
30
0
41
1
10
100.674831711039
20
-10.2902590347357
30
0
41
1
10
100.888280304196
20
-11.2320584105671
30
0
41
1
10
100.995004600774
20
-11.6458054710597
30
0
41
1
10
101.208453193931
20
-12.3474692599601
30
0
41
1
10
101.315177490509
20
-12.6354085627569
30
0
41
1
10
101.528626083666
20
-13.0854997940433
30
0
41
1
10
101.635350380245
20
-13.2477407939618
30
0
41
1
10
101.795436825112
20
-13.4042318989998
30
0
41
1
10
101.848798973402
20
-13.4419852530434
30
0
41
1
10
101.928842195835
20
-13.4784189300019
30
0
41
1
10
101.95552326998
20
-13.4872003127942
30
0
41
1
10
101.995544881197
20
-13.4955274224821
30
0
41
1
10
102.008885418269
20
-13.4974957680717
30
0
41
1
10
102.035566492414
20
-13.4998525372306
30
0
41
1
10
102.048907029486
20
-13.5002426199318
30
0
41
1
10
102.168971863137
20
-13.4967694684439
30
0
41
1
10
102.275696159715
20
-13.4435036456016
30
0
41
1
10
102.489144752872
20
-13.2205307651307
30
0
41
1
10
102.59586904945
20
-13.0507068333867
30
0
41
1
10
102.809317642607
20
-12.5851246761183
30
0
41
1
10
102.916041939186
20
-12.28928046695
30
0
41
1
10
103.129490532343
20
-11.5721719673856
30
0
41
1
10
103.236214828921
20
-11.1508901815807
30
0
41
1
10
103.449663422078
20
-10.1951171032985
30
0
41
1
10
103.556387718656
20
-9.6606953818596
30
0
41
1
10
103.769836311813
20
-8.50181129707204
30
0
41
1
10
103.876560608391
20
-7.87749059546937
30
0
41
1
10
104.090009201548
20
-6.56967472254297
30
0
41
1
10
104.196733498127
20
-5.8863492632689
30
0
41
1
10
104.410182091284
20
-4.49422737607495
30
0
41
1
10
104.516906387862
20
-3.78557788737516
30
0
41
1
10
104.730354981019
20
-2.37440901511022
30
0
41
1
10
104.837079277597
20
-1.67198009208485
30
0
41
1
10
104.97048464832
20
-0.813919649926362
30
0
41
1
10
104.997165722465
20
-0.643289287838854
30
0
41
1
10
105.037187333682
20
-0.389063819407681
30
0
41
1
10
105.050527870754
20
-0.304608443598369
30
0
41
1
10
105.077208944899
20
-0.136309030065263
30
0
41
1
10
105.090549481971
20
-0.0525947647281839
30
0
41
1
10
105.157252167332
20
0.365802626014727
30
0
41
1
10
105.210614315622
20
0.705651405522786
30
0
41
1
10
105.370700760489
20
1.73676560063069
30
0
41
1
10
105.477425057068
20
2.43981008932448
30
0
41
1
10
105.690873650224
20
3.85130764182057
30
0
41
1
10
105.797597946803
20
4.5596682585242
30
0
41
1
10
106.01104653996
20
5.95017947305635
30
0
41
1
10
106.117770836538
20
6.63218178821916
30
0
41
1
10
106.331219429695
20
7.93632578467185
30
0
41
1
10
106.437943726273
20
8.55829782577928
30
0
41
1
10
106.65139231943
20
9.71162588343634
30
0
41
1
10
106.758116616009
20
10.2428419155724
30
0
41
1
10
106.971565209166
20
11.1916450347162
30
0
41
1
10
107.078289505744
20
11.6091652073842
30
0
41
1
10
107.291738098901
20
12.3185571293859
30
0
41
1
10
107.398462395479
20
12.6104489236347
30
0
41
1
10
107.611910988636
20
13.068280836704
30
0
41
1
10
107.718635285214
20
13.2343085021045
30
0
41
1
10
107.932083878371
20
13.4501094838878
30
0
41
1
10
108.03880817495
20
13.5
30
0
41
1
10
108.145532471528
20
13.5
30
0
0
SPLINE
5
F4
100
AcDbEntity
8
1
62
256
6
ByLayer
370
13
48
1
60
0
100
AcDbSpline
70
4
71
3
72
42
73
38
40
0
40
0
40
0
40
0
40
0.0625000000000003
40
0.0625000000000003
40
0.125000000000001
40
0.125000000000001
40
0.187500000000001
40
0.187500000000001
40
0.250000000000001
40
0.250000000000001
40
0.312500000000001
40
0.312500000000001
40
0.375000000000002
40
0.375000000000002
40
0.437500000000002
40
0.437500000000002
40
0.500000000000002
40
0.500000000000002
40
0.562500000000002
40
0.562500000000002
40
0.625000000000003
40
0.625000000000003
40
0.687500000000003
40
0.687500000000003
40
0.750000000000003
40
0.750000000000003
40
0.765625000000003
40
0.765625000000003
40
0.781250000000003
40
0.781250000000003
40
0.812500000000002
40
0.812500000000002
40
0.875000000000002
40
0.875000000000002
40
0.937500000000001
40
0.937500000000001
40
1
40
1
40
1
40
1
41
1
10
106.148698003913
20
13.5
30
0
41
1
10
106.230733500444
20
13.5
30
0
41
1
10
106.312768996975
20
13.4705731975658
30
0
41
1
10
106.476839990037
20
13.3452254316167
30
0
41
1
10
106.558875486568
20
13.2492724812796
30
0
41
1
10
106.722946479631
20
12.985228871284
30
0
41
1
10
106.804981976162
20
12.8171094769947
30
0
41
1
10
106.969052969224
20
12.4060795517522
30
0
41
1
10
107.051088465755
20
12.1631499169158
30
0
41
1
10
107.215159458817
20
11.6035788840835
30
0
41
1
10
107.297194955349
20
11.2869336665339
30
0
41
1
10
107.461265948411
20
10.5851077305379
30
0
41
1
10
107.543301444942
20
10.1999413557817
30
0
41
1
10
107.707372438004
20
9.37019594925883
30
0
41
1
10
107.789407934535
20
8.92564809970241
30
0
41
1
10
107.953478927597
20
7.98951672301493
30
0
41
1
10
108.035514424129
20
7.49797570631347
30
0
41
1
10
108.199585417191
20
6.48235877458546
30
0
41
1
10
108.281620913722
20
5.95832862300949
30
0
41
1
10
108.445691906784
20
4.89300117630103
30
0
41
1
10
108.527727403315
20
4.35174477888489
30
0
41
1
10
108.691798396377
20
3.26666925274051
30
0
41
1
10
108.773833892909
20
2.72288026912727
30
0
41
1
10
108.937904885971
20
1.64579496488591
30
0
41
1
10
109.019940382502
20
1.11251552145399
30
0
41
1
10
109.122484753166
20
0.459158198749719
30
0
41
1
10
109.142993627299
20
0.329142537693684
30
0
41
1
10
109.184011375564
20
0.070563777434046
30
0
41
1
10
109.204520249697
20
-0.0575952357114033
30
0
41
1
10
109.266046872095
20
-0.445316957894391
30
0
41
1
10
109.307064620361
20
-0.706717548670639
30
0
41
1
10
109.430117865157
20
-1.49792775286306
30
0
41
1
10
109.512153361689
20
-2.03482257863089
30
0
41
1
10
109.676224354751
20
-3.1161869712291
30
0
41
1
10
109.758259851282
20
-3.6606364093972
30
0
41
1
10
109.922330844344
20
-4.74360160485094
30
0
41
1
10
110.004366340875
20
-5.28208425476032
30
0
41
1
10
110.086401837406
20
-5.81013358502841
30
0
0
SPLINE
5
F5
100
AcDbEntity
8
1
62
256
6
ByLayer
370
13
48
1
60
0
100
AcDbSpline
70
4
71
3
72
84
73
80
40
0
40
0
40
0
40
0
40
0.0312500000000009
40
0.0312500000000009
40
0.0625000000000018
40
0.0625000000000018
40
0.066406250000002
40
0.066406250000002
40
0.0703125000000022
40
0.0781250000000024
40
0.0781250000000024
40
0.0937500000000029
40
0.0937500000000029
40
0.125000000000004
40
0.125000000000004
40
0.156250000000005
40
0.156250000000005
40
0.187500000000006
40
0.187500000000006
40
0.218750000000007
40
0.218750000000007
40
0.250000000000007
40
0.250000000000007
40
0.281250000000008
40
0.281250000000008
40
0.312500000000009
40
0.312500000000009
40
0.34375000000001
40
0.34375000000001
40
0.375000000000011
40
0.375000000000011
40
0.378906250000011
40
0.378906250000011
40
0.382812500000011
40
0.390625000000011
40
0.390625000000011
40
0.406250000000011
40
0.406250000000011
40
0.43750000000001
40
0.43750000000001
40
0.468750000000009
40
0.468750000000009
40
0.500000000000009
40
0.500000000000009
40
0.531250000000008
40
0.531250000000008
40
0.562500000000008
40
0.562500000000008
40
0.593750000000007
40
0.593750000000007
40
0.625000000000007
40
0.625000000000007
40
0.656250000000006
40
0.656250000000006
40
0.687500000000006
40
0.687500000000006
40
0.695312500000005
40
0.695312500000005
40
0.703125000000005
40
0.703125000000005
40
0.718750000000005
40
0.718750000000005
40
0.750000000000005
40
0.750000000000005
40
0.781250000000004
40
0.781250000000004
40
0.812500000000003
40
0.812500000000003
40
0.843750000000003
40
0.843750000000003
40
0.875000000000002
40
0.875000000000002
40
0.906250000000002
40
0.906250000000002
40
0.937500000000001
40
0.937500000000001
40
0.968750000000001
40
0.968750000000001
40
1
40
1
40
1
40
1
41
1
10
97.9
20
4.04043164258169
30
0
41
1
10
98.0016699476847
20
3.3686876989938
30
0
41
1
10
98.1033398953693
20
2.69355130485189
30
0
41
1
10
98.3066797907388
20
1.36129977466089
30
0
41
1
10
98.4083497384235
20
0.704230266681861
30
0
41
1
10
98.5227284295687
20
-0.0139729879649053
30
0
41
1
10
98.5354371730292
20
-0.0935594989976778
30
0
41
1
10
98.5608546599503
20
-0.253670982200305
30
0
41
1
10
98.5989808903321
20
-0.494679446574452
30
0
41
1
10
98.6371071207139
20
-0.738066278876715
30
0
41
1
10
98.7133595814774
20
-1.22758884381082
30
0
41
1
10
98.7641945553198
20
-1.55761416775201
30
0
41
1
10
98.9166994768468
20
-2.55490722402203
30
0
41
1
10
99.0183694245314
20
-3.22954301331418
30
0
41
1
10
99.2217093199007
20
-4.57388972985632
30
0
41
1
10
99.3233792675854
20
-5.2435106373556
30
0
41
1
10
99.5267191629548
20
-6.54948938943338
30
0
41
1
10
99.6283891106394
20
-7.18572176557296
30
0
41
1
10
99.8317290060088
20
-8.39610306544981
30
0
41
1
10
99.9333989536934
20
-8.97012079755183
30
0
41
1
10
100.136738849063
20
-10.0307494188481
30
0
41
1
10
100.238408796747
20
-10.5172603838813
30
0
41
1
10
100.441748692117
20
-11.3846581805363
30
0
41
1
10
100.543418639802
20
-11.7655039263081
30
0
41
1
10
100.746758535171
20
-12.4126650015951
30
0
41
1
10
100.848428482855
20
-12.679003752814
30
0
41
1
10
101.051768378225
20
-13.0978191505845
30
0
41
1
10
101.15343832591
20
-13.2503673923705
30
0
41
1
10
101.356778221279
20
-13.4503394294891
30
0
41
1
10
101.458448168964
20
-13.4978554959481
30
0
41
1
10
101.572826860109
20
-13.5001878710199
30
0
41
1
10
101.585535603569
20
-13.4997432092253
30
0
41
1
10
101.61095309049
20
-13.4974209644252
30
0
41
1
10
101.649079320872
20
-13.4917858737153
30
0
41
1
10
101.687205551254
20
-13.4795586956641
30
0
41
1
10
101.763458012018
20
-13.4459684938268
30
0
41
1
10
101.81429298586
20
-13.4113845679252
30
0
41
1
10
101.966797907387
20
-13.2685829078153
30
0
41
1
10
102.068467855071
20
-13.1210968050394
30
0
41
1
10
102.271807750441
20
-12.7126500321968
30
0
41
1
10
102.373477698126
20
-12.4516161868345
30
0
41
1
10
102.576817593495
20
-11.8148971350943
30
0
41
1
10
102.67848754118
20
-11.4391858030236
30
0
41
1
10
102.881827436549
20
-10.5814410324708
30
0
41
1
10
102.983497384234
20
-10.099445655959
30
0
41
1
10
103.186837279603
20
-9.04683808776338
30
0
41
1
10
103.288507227287
20
-8.47632358860938
30
0
41
1
10
103.491847122657
20
-7.27168113615792
30
0
41
1
10
103.593517070342
20
-6.63768374253135
30
0
41
1
10
103.796856965711
20
-5.33483215090047
30
0
41
1
10
103.898526913396
20
-4.6661044440369
30
0
41
1
10
104.101866808765
20
-3.32230201553719
30
0
41
1
10
104.20353675645
20
-2.64731935477013
30
0
41
1
10
104.406876651819
20
-1.31588711506063
30
0
41
1
10
104.508546599504
20
-0.65948206523646
30
0
41
1
10
104.63563403411
20
0.137460752713736
30
0
41
1
10
104.661051521031
20
0.297609906752569
30
0
41
1
10
104.711886494873
20
0.62039671540893
30
0
41
1
10
104.737303981794
20
0.782834847339785
30
0
41
1
10
104.813556442558
20
1.27285753690981
30
0
41
1
10
104.8643914164
20
1.60316209094799
30
0
41
1
10
105.016896337927
20
2.60110437237995
30
0
41
1
10
105.118566285612
20
3.27592014446915
30
0
41
1
10
105.321906180981
20
4.62000881980578
30
0
41
1
10
105.423576128666
20
5.28919067943011
30
0
41
1
10
105.626916024035
20
6.59362107588811
30
0
41
1
10
105.72858597172
20
7.22874362478552
30
0
41
1
10
105.931925867089
20
8.43626987635284
30
0
41
1
10
106.033595814774
20
9.0085426932425
30
0
41
1
10
106.236935710143
20
10.0651722701398
30
0
41
1
10
106.338605657828
20
10.5494302143587
30
0
41
1
10
106.541945553197
20
11.4120085432159
30
0
41
1
10
106.643615500882
20
11.7902893526103
30
0
41
1
10
106.846955396251
20
12.4322314027308
30
0
41
1
10
106.948625343936
20
12.6959174218299
30
0
41
1
10
107.151965239305
20
13.1095458161593
30
0
41
1
10
107.25363518699
20
13.2595605842241
30
0
41
1
10
107.456975082359
20
13.4547414673094
30
0
41
1
10
107.558645030044
20
13.5
30
0
41
1
10
107.660314977729
20
13.5
30
0
0
SPLINE
5
F6
100
AcDbEntity
8
1
62
256
6
ByLayer
370
13
48
1
60
0
100
AcDbSpline
70
4
71
3
72
43
73
39
40
0
40
0
40
0
40
0
40
0.0625000000000005
40
0.0625000000000005
40
0.125000000000001
40
0.125000000000001
40
0.187500000000002
40
0.187500000000002
40
0.250000000000002
40
0.250000000000002
40
0.312500000000003
40
0.312500000000003
40
0.375000000000003
40
0.375000000000003
40
0.437500000000004
40
0.437500000000004
40
0.500000000000004
40
0.500000000000004
40
0.562500000000005
40
0.562500000000005
40
0.625000000000005
40
0.625000000000005
40
0.687500000000006
40
0.687500000000006
40
0.695312500000006
40
0.695312500000006
40
0.703125000000005
40
0.718750000000005
40
0.718750000000005
40
0.750000000000005
40
0.750000000000005
40
0.812500000000004
40
0.812500000000004
40
0.875000000000003
40
0.875000000000003
40
0.937500000000001
40
0.937500000000001
40
1
40
1
40
1
40
1
41
1
10
105.663480510113
20
13.5
30
0
41
1
10
105.755624704432
20
13.5
30
0
41
1
10
105.847768898751
20
13.4628506756893
30
0
41
1
10
106.032057287388
20
13.3035754989517
30
0
41
1
10
106.124201481707
20
13.1813927244129
30
0
41
1
10
106.308489870343
20
12.8447259850743
30
0
41
1
10
106.400634064662
20
12.6301939657321
30
0
41
1
10
106.584922453299
20
12.1065908333421
30
0
41
1
10
106.677066647618
20
11.7974947891388
30
0
41
1
10
106.861355036255
20
11.0887620677188
30
0
41
1
10
106.953499230574
20
10.6891343787026
30
0
41
1
10
107.137787619211
20
9.80984783973716
30
0
41
1
10
107.22993181353
20
9.33023388386039
30
0
41
1
10
107.414220202167
20
8.30718419166558
30
0
41
1
10
107.506364396485
20
7.76382028272886
30
0
41
1
10
107.690652785123
20
6.63338419720117
30
0
41
1
10
107.782796979441
20
6.0463937581807
30
0
41
1
10
107.967085368078
20
4.85034783608216
30
0
41
1
10
108.059229562397
20
4.2413655480446
30
0
41
1
10
108.243517951034
20
3.02211542129493
30
0
41
1
10
108.335662145353
20
2.41189895040893
30
0
41
1
10
108.51995053399
20
1.20818333467454
30
0
41
1
10
108.612094728309
20
0.614708881136778
30
0
41
1
10
108.715756946917
20
-0.0356294269112993
30
0
41
1
10
108.727274971207
20
-0.107847817546485
30
0
41
1
10
108.750311019787
20
-0.252986761278066
30
0
41
1
10
108.784865092656
20
-0.471385070712046
30
0
41
1
10
108.819419165526
20
-0.691744768939145
30
0
41
1
10
108.888527311264
20
-1.13476717066803
30
0
41
1
10
108.934599408424
20
-1.43319410661599
30
0
41
1
10
109.072815699902
20
-2.33491822605544
30
0
41
1
10
109.16495989422
20
-2.94476607868754
30
0
41
1
10
109.349248282858
20
-4.16410484430355
30
0
41
1
10
109.441392477176
20
-4.7735454803466
30
0
41
1
10
109.625680865813
20
-5.9714181431163
30
0
41
1
10
109.717825060132
20
-6.55977768267931
30
0
41
1
10
109.902113448769
20
-7.69385337454787
30
0
41
1
10
109.994257643088
20
-8.23948779348342
30
0
41
1
10
110.086401837406
20
-8.75367723567564
30
0
0
SPLINE
5
F7
100
AcDbEntity
8
1
62
256
6
ByLayer
370
13
48
1
60
0
100
AcDbSpline
70
4
71
3
72
84
73
80
40
0
40
0
40
0
40
0
40
0.0078125
40
0.01171875
40
0.01171875
40
0.015625
40
0.015625
40
0.03125
40
0.03125
40
0.0624999999999999
40
0.0624999999999999
40
0.0937499999999998
40
0.0937499999999998
40
0.125
40
0.125
40
0.15625
40
0.15625
40
0.1875
40
0.1875
40
0.21875
40
0.21875
40
0.25
40
0.25
40
0.28125
40
0.28125
40
0.3125
40
0.3125
40
0.328125
40
0.328125
40
0.3359375
40
0.33984375
40
0.33984375
40
0.34375
40
0.34375
40
0.375
40
0.375
40
0.40625
40
0.40625
40
0.4375
40
0.4375
40
0.46875
40
0.46875
40
0.5
40
0.5
40
0.53125
40
0.53125
40
0.5625
40
0.5625
40
0.59375
40
0.59375
40
0.625
40
0.625
40
0.65625
40
0.65625
40
0.6640625
40
0.6640625
40
0.671875
40
0.671875
40
0.6875
40
0.6875
40
0.71875
40
0.71875
40
0.75
40
0.75
40
0.78125
40
0.78125
40
0.8125
40
0.8125
40
0.84375
40
0.84375
40
0.875
40
0.875
40
0.90625
40
0.90625
40
0.9375
40
0.9375
40
0.96875
40
0.96875
40
1
40
1
40
1
40
1
41
1
10
97.9
20
0.858153795061469
30
0
41
1
10
97.9241538996978
20
0.70324580257568
30
0
41
1
10
97.9603847492443
20
0.472142336870689
30
0
41
1
10
97.996615598791
20
0.243196935877336
30
0
41
1
10
98.0207694984887
20
0.0910739129645606
30
0
41
1
10
98.0328464483376
20
0.0154346316917326
30
0
41
1
10
98.0932311975819
20
-0.36366931383435
30
0
41
1
10
98.1415389969774
20
-0.671126760981991
30
0
41
1
10
98.2864623951637
20
-1.60319397494726
30
0
41
1
10
98.3830779939547
20
-2.23764364996157
30
0
41
1
10
98.5763091915365
20
-3.51390191636551
30
0
41
1
10
98.6729247903274
20
-4.15565927289106
30
0
41
1
10
98.8661559879093
20
-5.42366137935443
30
0
41
1
10
98.9627715867003
20
-6.0498221050903
30
0
41
1
10
99.1560027842821
20
-7.26175335250767
30
0
41
1
10
99.252618383073
20
-7.84742145933794
30
0
41
1
10
99.4458495806548
20
-8.95434857129067
30
0
41
1
10
99.5424651794458
20
-9.47551093236825
30
0
41
1
10
99.7356963770276
20
-10.4333520647043
30
0
41
1
10
99.8323119758186
20
-10.8699650890023
30
0
41
1
10
100.0255431734
20
-11.6451061747825
30
0
41
1
10
100.122158772191
20
-11.9836148627223
30
0
41
1
10
100.315389969773
20
-12.5567423025637
30
0
41
1
10
100.412005568564
20
-12.7913878941307
30
0
41
1
10
100.605236766146
20
-13.1586526868635
30
0
41
1
10
100.701852364937
20
-13.2913311464237
30
0
41
1
10
100.846775763123
20
-13.4199621295549
30
0
41
1
10
100.895083562519
20
-13.4511512396303
30
0
41
1
10
100.967545261612
20
-13.4814797467896
30
0
41
1
10
101.003776111159
20
-13.4925330001738
30
0
41
1
10
101.040006960705
20
-13.4976435988681
30
0
41
1
10
101.064160860403
20
-13.499756204452
30
0
41
1
10
101.076237810252
20
-13.5001659063333
30
0
41
1
10
101.184930358892
20
-13.498132858173
30
0
41
1
10
101.281545957682
20
-13.4553181843546
30
0
41
1
10
101.474777155264
20
-13.2755148527648
30
0
41
1
10
101.571392754055
20
-13.1384543565924
30
0
41
1
10
101.764623951637
20
-12.7621939032501
30
0
41
1
10
101.861239550428
20
-12.5229357175478
30
0
41
1
10
102.05447074801
20
-11.940668227621
30
0
41
1
10
102.151086346801
20
-11.5976339158064
30
0
41
1
10
102.344317544383
20
-10.81387913331
30
0
41
1
10
102.440933143173
20
-10.3731802063137
30
0
41
1
10
102.634164340755
20
-9.40793072714683
30
0
41
1
10
102.730779939546
20
-8.88344772143026
30
0
41
1
10
102.924011137128
20
-7.77087980884355
30
0
41
1
10
103.020626735919
20
-7.18289236658978
30
0
41
1
10
103.213857933501
20
-5.96742972142036
30
0
41
1
10
103.310473532292
20
-5.34005658264729
30
0
41
1
10
103.503704729874
20
-4.0707061528768
30
0
41
1
10
103.600320328665
20
-3.42881164655321
30
0
41
1
10
103.793551526247
20
-2.15321258361484
30
0
41
1
10
103.890167125037
20
-1.51955767764639
30
0
41
1
10
104.010936623526
20
-0.744280229857736
30
0
41
1
10
104.035090523224
20
-0.590052627006173
30
0
41
1
10
104.083398322619
20
-0.283495357055813
30
0
41
1
10
104.107552222317
20
-0.131340079070242
30
0
41
1
10
104.18001392141
20
0.323029312317942
30
0
41
1
10
104.228321720806
20
0.630154557233169
30
0
41
1
10
104.373245118992
20
1.56136060847231
30
0
41
1
10
104.469860717783
20
2.19541751468029
30
0
41
1
10
104.663091915365
20
3.47135643556464
30
0
41
1
10
104.759707514156
20
4.1131880071359
30
0
41
1
10
104.952938711738
20
5.38187607897689
30
0
41
1
10
105.049554310529
20
6.00864917129675
30
0
41
1
10
105.24278550811
20
7.22235824943292
30
0
41
1
10
105.339401106901
20
7.80919198967251
30
0
41
1
10
105.532632304483
20
8.91895047091137
30
0
41
1
10
105.629247903274
20
9.44177815115788
30
0
41
1
10
105.822479100856
20
10.4033318490121
30
0
41
1
10
105.919094699647
20
10.841991215907
30
0
41
1
10
106.112325897229
20
11.6214439934402
30
0
41
1
10
106.20894149602
20
11.9622169454615
30
0
41
1
10
106.402172693602
20
12.5399154040973
30
0
41
1
10
106.498788292392
20
12.7768668378384
30
0
41
1
10
106.692019489974
20
13.1486269788748
30
0
41
1
10
106.788635088765
20
13.2834944346305
30
0
41
1
10
106.981866286347
20
13.4591449849013
30
0
41
1
10
107.078481885138
20
13.5
30
0
41
1
10
107.175097483929
20
13.5
30
0
0
SPLINE
5
F8
100
AcDbEntity
8
1
62
256
6
ByLayer
370
13
48
1
60
0
100
AcDbSpline
70
4
71
3
72
43
73
39
40
0
40
0
40
0
40
0
40
0.0625000000000012
40
0.0625000000000012
40
0.125000000000002
40
0.125000000000002
40
0.187500000000003
40
0.187500000000003
40
0.250000000000005
40
0.250000000000005
40
0.312500000000006
40
0.312500000000006
40
0.375000000000007
40
0.375000000000007
40
0.437500000000008
40
0.437500000000008
40
0.500000000000009
40
0.500000000000009
40
0.56250000000001
40
0.56250000000001
40
0.593750000000011
40
0.593750000000011
40
0.609375000000011
40
0.617187500000011
40
0.617187500000011
40
0.625000000000011
40
0.625000000000011
40
0.687500000000009
40
0.687500000000009
40
0.750000000000007
40
0.750000000000007
40
0.812500000000005
40
0.812500000000005
40
0.875000000000004
40
0.875000000000004
40
0.937500000000002
40
0.937500000000002
40
1
40
1
40
1
40
1
41
1
10
105.178263016314
20
13.5
30
0
41
1
10
105.28051590842
20
13.5
30
0
41
1
10
105.382768800526
20
13.4542189046606
30
0
41
1
10
105.587274584738
20
13.256715534602
30
0
41
1
10
105.689527476844
20
13.1048982132458
30
0
41
1
10
105.894033261056
20
12.6862907196396
30
0
41
1
10
105.996286153163
20
12.4194264798504
30
0
41
1
10
106.200791937375
20
11.7698669735242
30
0
41
1
10
106.303044829481
20
11.3871472659692
30
0
41
1
10
106.507550613693
20
10.5147764968654
30
0
41
1
10
106.609803505799
20
10.0251677092984
30
0
41
1
10
106.814309290011
20
8.95745633923619
30
0
41
1
10
106.916562182117
20
8.37945684491208
30
0
41
1
10
107.12106796633
20
7.16071112123024
30
0
41
1
10
107.223320858436
20
6.52010001568374
30
0
41
1
10
107.427826642648
20
5.20548557775049
30
0
41
1
10
107.530079534754
20
4.53161092340224
30
0
41
1
10
107.734585318966
20
3.17932492701178
30
0
41
1
10
107.836838211072
20
2.50100514868296
30
0
41
1
10
107.990217549231
20
1.49883431513825
30
0
41
1
10
108.041343995284
20
1.16728979147086
30
0
41
1
10
108.118033664364
20
0.675664137621538
30
0
41
1
10
108.156378498904
20
0.431269565233976
30
0
41
1
10
108.194723333444
20
0.189320915754109
30
0
41
1
10
108.22028655647
20
0.0285977886108242
30
0
41
1
10
108.233068167983
20
-0.0513599733329499
30
0
41
1
10
108.348102671603
20
-0.775103285530349
30
0
41
1
10
108.450355563709
20
-1.4370322640352
30
0
41
1
10
108.654861347921
20
-2.77830765296648
30
0
41
1
10
108.757114240027
20
-3.45760512550723
30
0
41
1
10
108.961620024239
20
-4.8080778536804
30
0
41
1
10
109.063872916345
20
-5.47915529029478
30
0
41
1
10
109.268378700558
20
-6.78410540420316
30
0
41
1
10
109.370631592664
20
-7.41784637575552
30
0
41
1
10
109.575137376876
20
-8.61901922605301
30
0
41
1
10
109.677390268982
20
-9.18631811885797
30
0
41
1
10
109.881896053194
20
-10.2295906808363
30
0
41
1
10
109.9841489453
20
-10.7054683056865
30
0
41
1
10
110.086401837406
20
-11.1270094486185
30
0
0
SPLINE
5
F9
100
AcDbEntity
8
1
62
256
6
ByLayer
370
13
48
1
60
0
100
AcDbSpline
70
4
71
3
72
81
73
77
40
0
40
0
40
0
40
0
40
0.0312499999999987
40
0.0312499999999987
40
0.0624999999999975
40
0.0624999999999975
40
0.0937499999999962
40
0.0937499999999962
40
0.124999999999995
40
0.124999999999995
40
0.156249999999994
40
0.156249999999994
40
0.187499999999992
40
0.187499999999992
40
0.218749999999991
40
0.218749999999991
40
0.24999999999999
40
0.24999999999999
40
0.281249999999989
40
0.281249999999989
40
0.296874999999988
40
0.296874999999988
40
0.304687499999988
40
0.304687499999988
40
0.308593749999988
40
0.308593749999988
40
0.312499999999988
40
0.312499999999988
40
0.343749999999988
40
0.343749999999988
40
0.374999999999989
40
0.374999999999989
40
0.40624999999999
40
0.40624999999999
40
0.43749999999999
40
0.43749999999999
40
0.468749999999991
40
0.468749999999991
40
0.499999999999991
40
0.499999999999991
40
0.531249999999992
40
0.531249999999992
40
0.562499999999992
40
0.562499999999992
40
0.593749999999993
40
0.593749999999993
40
0.624999999999993
40
0.624999999999993
40
0.640624999999994
40
0.640624999999994
40
0.648437499999994
40
0.652343749999994
40
0.652343749999994
40
0.656249999999994
40
0.656249999999994
40
0.687499999999995
40
0.687499999999995
40
0.718749999999995
40
0.718749999999995
40
0.749999999999996
40
0.749999999999996
40
0.781249999999996
40
0.781249999999996
40
0.812499999999997
40
0.812499999999997
40
0.843749999999997
40
0.843749999999997
40
0.874999999999998
40
0.874999999999998
40
0.906249999999998
40
0.906249999999998
40
0.937499999999999
40
0.937499999999999
40
0.968749999999999
40
0.968749999999999
40
1
40
1
40
1
40
1
41
1
10
97.9
20
-2.25324471573521
30
0
41
1
10
97.9915612498971
20
-2.85480034314318
30
0
41
1
10
98.0831224997944
20
-3.46259692412516
30
0
41
1
10
98.2662449995887
20
-4.67232886300849
30
0
41
1
10
98.3578062494859
20
-5.27420866647662
30
0
41
1
10
98.5409287492802
20
-6.45136615558567
30
0
41
1
10
98.6324899991775
20
-7.02656959168584
30
0
41
1
10
98.8156124989719
20
-8.12927735493565
30
0
41
1
10
98.907173748869
20
-8.6567030260866
30
0
41
1
10
99.0902962486634
20
-9.64475753955679
30
0
41
1
10
99.1818574985605
20
-10.1053212881207
30
0
41
1
10
99.3649799983549
20
-10.9447800645356
30
0
41
1
10
99.4565412482521
20
-11.3236386305797
30
0
41
1
10
99.6396637480464
20
-11.9906166848758
30
0
41
1
10
99.7312249979436
20
-12.2787347616487
30
0
41
1
10
99.9143474977379
20
-12.7615460323047
30
0
41
1
10
100.005908747635
20
-12.9562689049148
30
0
41
1
10
100.18903124743
20
-13.2555400143062
30
0
41
1
10
100.280592497327
20
-13.3601375677284
30
0
41
1
10
100.417934372172
20
-13.4553671167081
30
0
41
1
10
100.463714997121
20
-13.4768642611599
30
0
41
1
10
100.532385934544
20
-13.4947104080568
30
0
41
1
10
100.555276247018
20
-13.4982605289368
30
0
41
1
10
100.58961171573
20
-13.5001193854626
30
0
41
1
10
100.601056871967
20
-13.5001639390938
30
0
41
1
10
100.623947184441
20
-13.4991055537835
30
0
41
1
10
100.635392340678
20
-13.4979995804494
30
0
41
1
10
100.738398746813
20
-13.4827548451612
30
0
41
1
10
100.82995999671
20
-13.4314689831688
30
0
41
1
10
101.013082496504
20
-13.243433726861
30
0
41
1
10
101.104643746401
20
-13.1066297124781
30
0
41
1
10
101.287766246196
20
-12.7411246578216
30
0
41
1
10
101.379327496093
20
-12.5123798873141
30
0
41
1
10
101.562449995887
20
-11.9617528399634
30
0
41
1
10
101.654011245784
20
-11.6398512026392
30
0
41
1
10
101.837133745579
20
-10.9078602441652
30
0
41
1
10
101.928694995476
20
-10.4977852033011
30
0
41
1
10
102.11181749527
20
-9.60069282491017
30
0
41
1
10
102.203378745167
20
-9.11372369424959
30
0
41
1
10
102.386501244962
20
-8.0794375621339
30
0
41
1
10
102.478062494859
20
-7.53219265740776
30
0
41
1
10
102.661184994653
20
-6.39744579098192
30
0
41
1
10
102.75274624455
20
-5.81002289242917
30
0
41
1
10
102.935868744345
20
-4.61617045875983
30
0
41
1
10
103.027429994242
20
-4.00980964344816
30
0
41
1
10
103.210552494037
20
-2.79821036188642
30
0
41
1
10
103.302113743934
20
-2.19301852682844
30
0
41
1
10
103.439455618779
20
-1.29900163949173
30
0
41
1
10
103.485236243728
20
-1.00326429144971
30
0
41
1
10
103.553907181151
20
-0.564402516491839
30
0
41
1
10
103.588242649862
20
-0.346154740664616
30
0
41
1
10
103.622578118574
20
-0.129906071822461
30
0
41
1
10
103.645468431048
20
0.0137924300098859
30
0
41
1
10
103.656913587285
20
0.0854741626424413
30
0
41
1
10
103.75991999342
20
0.734033756436787
30
0
41
1
10
103.851481243317
20
1.32531577118058
30
0
41
1
10
104.034603743111
20
2.52341652404269
30
0
41
1
10
104.126164993008
20
3.13020972436104
30
0
41
1
10
104.309287492803
20
4.34151818046763
30
0
41
1
10
104.4008487427
20
4.94598225934021
30
0
41
1
10
104.583971242494
20
6.13218804580075
30
0
41
1
10
104.675532492391
20
6.71385804621016
30
0
41
1
10
104.858654992186
20
7.83327294811323
30
0
41
1
10
104.950216242083
20
8.37093868499554
30
0
41
1
10
105.133338741877
20
9.38270487009299
30
0
41
1
10
105.224899991775
20
9.85673644554907
30
0
41
1
10
105.408022491569
20
10.7254479054264
30
0
41
1
10
105.499583741466
20
11.1200853138667
30
0
41
1
10
105.68270624126
20
11.819803559826
30
0
41
1
10
105.774267491158
20
12.124876590761
30
0
41
1
10
105.957389990952
20
12.6416194467248
30
0
41
1
10
106.048951240849
20
12.8533139730523
30
0
41
1
10
106.232073740643
20
13.1855399996873
30
0
41
1
10
106.32363499054
20
13.3061182581078
30
0
41
1
10
106.506757490335
20
13.4633206764661
30
0
41
1
10
106.598318740232
20
13.5
30
0
41
1
10
106.689879990129
20
13.5
30
0
0
SPLINE
5
FA
100
AcDbEntity
8
1
62
256
6
ByLayer
370
13
48
1
60
0
100
AcDbSpline
70
4
71
3
72
63
73
59
40
0
40
0
40
0
40
0
40
0.0625000000000013
40
0.0625000000000013
40
0.125000000000002
40
0.125000000000002
40
0.156250000000003
40
0.156250000000003
40
0.187500000000004
40
0.187500000000004
40
0.218750000000004
40
0.218750000000004
40
0.250000000000005
40
0.250000000000005
40
0.281250000000006
40
0.281250000000006
40
0.312500000000006
40
0.312500000000006
40
0.343750000000007
40
0.343750000000007
40
0.375000000000007
40
0.375000000000007
40
0.406250000000008
40
0.406250000000008
40
0.437500000000009
40
0.437500000000009
40
0.50000000000001
40
0.50000000000001
40
0.562500000000011
40
0.562500000000011
40
0.570312500000011
40
0.570312500000011
40
0.578125000000011
40
0.593750000000011
40
0.593750000000011
40
0.62500000000001
40
0.62500000000001
40
0.687500000000008
40
0.687500000000008
40
0.718750000000007
40
0.718750000000007
40
0.750000000000006
40
0.750000000000006
40
0.781250000000006
40
0.781250000000006
40
0.812500000000005
40
0.812500000000005
40
0.843750000000004
40
0.843750000000004
40
0.875000000000003
40
0.875000000000003
40
0.906250000000002
40
0.906250000000002
40
0.937500000000002
40
0.937500000000002
40
0.968750000000001
40
0.968750000000001
40
1
40
1
40
1
40
1
41
1
10
104.693045522514
20
13.5
30
0
41
1
10
104.805407112408
20
13.5
30
0
41
1
10
104.917768702301
20
13.4446729119743
30
0
41
1
10
105.142491882089
20
13.2045791707631
30
0
41
1
10
105.254853471982
20
13.0196619147909
30
0
41
1
10
105.423395856822
20
12.637247898256
30
0
41
1
10
105.479576651769
20
12.492351417116
30
0
41
1
10
105.591938241663
20
12.1675439409748
30
0
41
1
10
105.64811903661
20
11.987630939585
30
0
41
1
10
105.760480626503
20
11.5934876722649
30
0
41
1
10
105.81666142145
20
11.3792571083725
30
0
41
1
10
105.929023011344
20
10.9180799662817
30
0
41
1
10
105.98520380629
20
10.6711349799754
30
0
41
1
10
106.097565396184
20
10.1470153586459
30
0
41
1
10
106.153746191131
20
9.86984417865332
30
0
41
1
10
106.266107781024
20
9.28856762688591
30
0
41
1
10
106.322288575971
20
8.98446732631746
30
0
41
1
10
106.434650165865
20
8.35330801543608
30
0
41
1
10
106.490830960811
20
8.02625525359105
30
0
41
1
10
106.603192550705
20
7.35367485633887
30
0
41
1
10
106.659373345652
20
7.00815408002322
30
0
41
1
10
106.771734935545
20
6.30343093159607
30
0
41
1
10
106.827915730492
20
5.94423542089163
30
0
41
1
10
106.940277320386
20
5.21705734075621
30
0
41
1
10
106.996458115333
20
4.84908107350114
30
0
41
1
10
107.165000500173
20
3.73916602835061
30
0
41
1
10
107.277362090067
20
2.99146422626012
30
0
41
1
10
107.502085269854
20
1.51503721487404
30
0
41
1
10
107.614446859747
20
0.786396243159203
30
0
41
1
10
107.740853648378
20
-0.0076845935791425
30
0
41
1
10
107.754898847114
20
-0.0956083490830508
30
0
41
1
10
107.782989244588
20
-0.272611307100505
30
0
41
1
10
107.825124840798
20
-0.539140592798901
30
0
41
1
10
107.867260437008
20
-0.808547693585695
30
0
41
1
10
107.951531629428
20
-1.3506227441147
30
0
41
1
10
108.007712424375
20
-1.71637121663622
30
0
41
1
10
108.176254809215
20
-2.82145630288667
30
0
41
1
10
108.288616399109
20
-3.56884170907691
30
0
41
1
10
108.457158783949
20
-4.68042636652964
30
0
41
1
10
108.513339578896
20
-5.04931443384939
30
0
41
1
10
108.62570116879
20
-5.7790575396059
30
0
41
1
10
108.681881963737
20
-6.13990640359953
30
0
41
1
10
108.79424355363
20
-6.84868036426022
30
0
41
1
10
108.850424348577
20
-7.19659865069872
30
0
41
1
10
108.962785938471
20
-7.87468950456801
30
0
41
1
10
109.018966733417
20
-8.20485517346688
30
0
41
1
10
109.131328323311
20
-8.84289549575843
30
0
41
1
10
109.187509118258
20
-9.15076376899952
30
0
41
1
10
109.299870708151
20
-9.74014222840708
30
0
41
1
10
109.356051503098
20
-10.021647131637
30
0
41
1
10
109.468413092992
20
-10.5548871427848
30
0
41
1
10
109.524593887938
20
-10.8066185282418
30
0
41
1
10
109.636955477832
20
-11.2776919015748
30
0
41
1
10
109.693136272779
20
-11.497032006492
30
0
41
1
10
109.805497862672
20
-11.9015802942951
30
0
41
1
10
109.861678657619
20
-12.0867884941915
30
0
41
1
10
109.974040247513
20
-12.4222355378561
30
0
41
1
10
110.03022104246
20
-12.5724761466059
30
0
41
1
10
110.086401837406
20
-12.7052521495039
30
0
0
SPLINE
5
FB
100
AcDbEntity
8
1
62
256
6
ByLayer
370
13
48
1
60
0
100
AcDbSpline
70
4
71
3
72
79
73
75
40
0
40
0
40
0
40
0
40
0.03125
40
0.03125
40
0.0625
40
0.0625
40
0.09375
40
0.09375
40
0.125
40
0.125
40
0.15625
40
0.15625
40
0.1875
40
0.1875
40
0.21875
40
0.21875
40
0.25
40
0.25
40
0.265625
40
0.265625
40
0.26953125
40
0.26953125
40
0.2734375
40
0.28125
40
0.28125
40
0.3125
40
0.3125
40
0.34375
40
0.34375
40
0.375
40
0.375
40
0.40625
40
0.40625
40
0.4375
40
0.4375
40
0.46875
40
0.46875
40
0.5
40
0.5
40
0.53125
40
0.53125
40
0.5625
40
0.5625
40
0.59375
40
0.59375
40
0.625
40
0.625
40
0.6328125
40
0.6328125
40
0.640625
40
0.640625
40
0.65625
40
0.65625
40
0.6875
40
0.6875
40
0.71875
40
0.71875
40
0.75
40
0.75
40
0.78125
40
0.78125
40
0.8125
40
0.8125
40
0.84375
40
0.84375
40
0.875
40
0.875
40
0.90625
40
0.90625
40
0.9375
40
0.9375
40
0.96875
40
0.96875
40
1
40
1
40
1
40
1
41
1
10
97.9
20
-5.44836486532918
30
0
41
1
10
97.9865069010035
20
-6.00980142442813
30
0
41
1
10
98.0730138020069
20
-6.56151622816463
30
0
41
1
10
98.2460276040138
20
-7.62771638662386
30
0
41
1
10
98.3325345050172
20
-8.14214206348305
30
0
41
1
10
98.505548307024
20
-9.11691543275862
30
0
41
1
10
98.5920552080275
20
-9.57720904191117
30
0
41
1
10
98.7650690100343
20
-10.4296680254677
30
0
41
1
10
98.8515759110378
20
-10.8217962926348
30
0
41
1
10
99.0245897130446
20
-11.5280821956064
30
0
41
1
10
99.1110966140482
20
-11.8422266927967
30
0
41
1
10
99.284110416055
20
-12.3876856425894
30
0
41
1
10
99.3706173170584
20
-12.6190113515933
30
0
41
1
10
99.5436311190653
20
-12.9989797308614
30
0
41
1
10
99.6301380200687
20
-13.1476524844101
30
0
41
1
10
99.8031518220756
20
-13.3668220392304
30
0
41
1
10
99.889658723079
20
-13.4373589032689
30
0
41
1
10
100.019419074584
20
-13.4903665653532
30
0
41
1
10
100.062672525086
20
-13.4992577771781
30
0
41
1
10
100.116739338213
20
-13.5001297852556
30
0
41
1
10
100.127552700839
20
-13.4997945809659
30
0
41
1
10
100.149179426089
20
-13.4980889365617
30
0
41
1
10
100.181619513966
20
-13.4939763412709
30
0
41
1
10
100.214059601842
20
-13.4851168145894
30
0
41
1
10
100.322193228096
20
-13.4446763682356
30
0
41
1
10
100.4087001291
20
-13.3773184302655
30
0
41
1
10
100.581713931107
20
-13.1647809106045
30
0
41
1
10
100.66822083211
20
-13.0195610480755
30
0
41
1
10
100.841234634117
20
-12.6466095041289
30
0
41
1
10
100.92774153512
20
-12.4188471220475
30
0
41
1
10
101.100755337127
20
-11.8804232774279
30
0
41
1
10
101.187262238131
20
-11.569749606912
30
0
41
1
10
101.360276040137
20
-10.8700956669628
30
0
41
1
10
101.446782941141
20
-10.4811274556936
30
0
41
1
10
101.619796743148
20
-9.63447661243961
30
0
41
1
10
101.706303644151
20
-9.17683016525044
30
0
41
1
10
101.879317446158
20
-8.20668391210393
30
0
41
1
10
101.965824347162
20
-7.69423767891851
30
0
41
1
10
102.138838149168
20
-6.63124339401034
30
0
41
1
10
102.225345050172
20
-6.08075503459543
30
0
41
1
10
102.398358852179
20
-4.95957312482852
30
0
41
1
10
102.484865753182
20
-4.38893348670129
30
0
41
1
10
102.657879555189
20
-3.24474182415119
30
0
41
1
10
102.744386456192
20
-2.67122916550051
30
0
41
1
10
102.917400258199
20
-1.53655146228272
30
0
41
1
10
103.003907159203
20
-0.97540756162212
30
0
41
1
10
103.112040785457
20
-0.289388824973457
30
0
41
1
10
103.133667510708
20
-0.152947786603789
30
0
41
1
10
103.17692096121
20
0.11824906126472
30
0
41
1
10
103.19854768646
20
0.254417349573743
30
0
41
1
10
103.263427862213
20
0.665636608957698
30
0
41
1
10
103.306681312715
20
0.942868292892371
30
0
41
1
10
103.43644166422
20
1.78168308250471
30
0
41
1
10
103.522948565223
20
2.35047742817878
30
0
41
1
10
103.69596236723
20
3.4934939909823
30
0
41
1
10
103.782469268234
20
4.06768621768884
30
0
41
1
10
103.955483070241
20
5.20515126106253
30
0
41
1
10
104.041989971244
20
5.76837695928884
30
0
41
1
10
104.215003773251
20
6.86614466087929
30
0
41
1
10
104.301510674254
20
7.40062862644791
30
0
41
1
10
104.474524476261
20
8.42333828806062
30
0
41
1
10
104.561031377264
20
8.9115056751466
30
0
41
1
10
104.734045179271
20
9.82598717163995
30
0
41
1
10
104.820552080275
20
10.2522548256725
30
0
41
1
10
104.993565882282
20
11.030939469183
30
0
41
1
10
105.080072783285
20
11.383331370586
30
0
41
1
10
105.253086585292
20
12.0069704318835
30
0
41
1
10
105.339593486295
20
12.278217542364
30
0
41
1
10
105.512607288302
20
12.7373611194076
30
0
41
1
10
105.599114189306
20
12.9252796381346
30
0
41
1
10
105.772127991313
20
13.2203010979489
30
0
41
1
10
105.858634892316
20
13.3274405010442
30
0
41
1
10
106.031648694323
20
13.4672691332761
30
0
41
1
10
106.118155595326
20
13.5
30
0
41
1
10
106.20466249633
20
13.5
30
0
0
SPLINE
5
FC
100
AcDbEntity
8
1
62
256
6
ByLayer
370
13
48
1
60
0
100
AcDbSpline
70
4
71
3
72
74
73
70
40
0
40
0
40
0
40
0
40
0.0312499999999993
40
0.0312499999999993
40
0.0624999999999986
40
0.0624999999999986
40
0.0937499999999979
40
0.0937499999999979
40
0.124999999999997
40
0.124999999999997
40
0.156249999999996
40
0.156249999999996
40
0.187499999999996
40
0.187499999999996
40
0.218749999999995
40
0.218749999999995
40
0.249999999999994
40
0.249999999999994
40
0.281249999999994
40
0.281249999999994
40
0.312499999999993
40
0.312499999999993
40
0.343749999999993
40
0.343749999999993
40
0.374999999999992
40
0.374999999999992
40
0.406249999999991
40
0.406249999999991
40
0.437499999999991
40
0.437499999999991
40
0.46874999999999
40
0.46874999999999
40
0.499999999999989
40
0.499999999999989
40
0.515624999999989
40
0.515624999999989
40
0.523437499999989
40
0.523437499999989
40
0.531249999999989
40
0.531249999999989
40
0.56249999999999
40
0.56249999999999
40
0.59374999999999
40
0.59374999999999
40
0.624999999999991
40
0.624999999999991
40
0.656249999999992
40
0.656249999999992
40
0.687499999999993
40
0.687499999999993
40
0.718749999999993
40
0.718749999999993
40
0.749999999999994
40
0.749999999999994
40
0.781249999999995
40
0.781249999999995
40
0.812499999999996
40
0.812499999999996
40
0.843749999999996
40
0.843749999999996
40
0.874999999999997
40
0.874999999999997
40
0.906249999999998
40
0.906249999999998
40
0.937499999999999
40
0.937499999999999
40
0.968749999999999
40
0.968749999999999
40
1
40
1
40
1
40
1
41
1
10
104.207828028715
20
13.5
30
0
41
1
10
104.269063172555
20
13.5
30
0
41
1
10
104.330298316396
20
13.4836204131718
30
0
41
1
10
104.452768604077
20
13.4148397185766
30
0
41
1
10
104.514003747917
20
13.3624311958889
30
0
41
1
10
104.636474035598
20
13.2188797493839
30
0
41
1
10
104.697709179439
20
13.1277295770137
30
0
41
1
10
104.82017946712
20
12.904767936974
30
0
41
1
10
104.881414610961
20
12.772950176351
30
0
41
1
10
105.003884898642
20
12.4677187679637
30
0
41
1
10
105.065120042482
20
12.2943006224612
30
0
41
1
10
105.187590330163
20
11.906091282424
30
0
41
1
10
105.248825474004
20
11.6912981348503
30
0
41
1
10
105.371295761685
20
11.2218185831441
30
0
41
1
10
105.432530905525
20
10.9671332756541
30
0
41
1
10
105.555001193206
20
10.4206206580774
30
0
41
1
10
105.616236337047
20
10.1287976262011
30
0
41
1
10
105.738706624728
20
9.51195175761779
30
0
41
1
10
105.799941768569
20
9.18693607689443
30
0
41
1
10
105.92241205625
20
8.50866492565677
30
0
41
1
10
105.98364720009
20
8.15541877821784
30
0
41
1
10
106.106117487771
20
7.426414213508
30
0
41
1
10
106.167352631612
20
7.05066628768421
30
0
41
1
10
106.289822919293
20
6.28285187413204
30
0
41
1
10
106.351058063134
20
5.89079593866876
30
0
41
1
10
106.473528350815
20
5.09670540913012
30
0
41
1
10
106.534763494655
20
4.69468040349898
30
0
41
1
10
106.657233782336
20
3.88683188120402
30
0
41
1
10
106.718468926177
20
3.48101620334231
30
0
41
1
10
106.840939213858
20
2.67134252993614
30
0
41
1
10
106.902174357698
20
2.2674901641073
30
0
41
1
10
107.024644645379
20
1.46687185546659
30
0
41
1
10
107.08587978922
20
1.07010921107036
30
0
41
1
10
107.177732504981
20
0.483555453035819
30
0
41
1
10
107.208350076901
20
0.289462993418624
30
0
41
1
10
107.254276434782
20
0.000813734469574
30
0
41
1
10
107.269585220742
20
-0.0949827649412782
30
0
41
1
10
107.300202792662
20
-0.287951173592859
30
0
41
1
10
107.315511578622
20
-0.384840758435104
30
0
41
1
10
107.392055508423
20
-0.871170642096587
30
0
41
1
10
107.453290652263
20
-1.26628865543222
30
0
41
1
10
107.575760939944
20
-2.06440794878105
30
0
41
1
10
107.636996083785
20
-2.46740631334794
30
0
41
1
10
107.759466371466
20
-3.27628293734199
30
0
41
1
10
107.820701515306
20
-3.68215595960353
30
0
41
1
10
107.943171802987
20
-4.49112341981086
30
0
41
1
10
108.004406946828
20
-4.89421036808798
30
0
41
1
10
108.126877234509
20
-5.69148357569003
30
0
41
1
10
108.18811237835
20
-6.0856604942974
30
0
41
1
10
108.310582666031
20
-6.85878227952531
30
0
41
1
10
108.371817809871
20
-7.23771668927054
30
0
41
1
10
108.494288097552
20
-7.97411297687049
30
0
41
1
10
108.555523241393
20
-8.33156427546587
30
0
41
1
10
108.677993529074
20
-9.01916436216527
30
0
41
1
10
108.739228672915
20
-9.34930355522113
30
0
41
1
10
108.861698960596
20
-9.9771669133018
30
0
41
1
10
108.922934104436
20
-10.2748834980626
30
0
41
1
10
109.045404392117
20
-10.8337680701529
30
0
41
1
10
109.106639535958
20
-11.0949312616384
30
0
41
1
10
109.229109823639
20
-11.5777427458034
30
0
41
1
10
109.290344967479
20
-11.7993894039925
30
0
41
1
10
109.41281525516
20
-12.201466300803
30
0
41
1
10
109.474050399001
20
-12.3818980056527
30
0
41
1
10
109.596520686682
20
-12.7011101332571
30
0
41
1
10
109.657755830523
20
-12.8398946731137
30
0
41
1
10
109.780226118204
20
-13.0765584373788
30
0
41
1
10
109.841461262044
20
-13.1744437107955
30
0
41
1
10
109.963931549725
20
-13.3310802534374
30
0
41
1
10
110.025166693566
20
-13.3898386684925
30
0
41
1
10
110.086401837406
20
-13.4303277982227
30
0
0
SPLINE
5
FD
100
AcDbEntity
8
1
62
256
6
ByLayer
370
13
48
1
60
0
100
AcDbSpline
70
4
71
3
72
80
73
76
40
0
40
0
40
0
40
0
40
0.0312499999999991
40
0.0312499999999991
40
0.0624999999999982
40
0.0624999999999982
40
0.0937499999999973
40
0.0937499999999973
40
0.124999999999996
40
0.124999999999996
40
0.156249999999995
40
0.156249999999995
40
0.187499999999994
40
0.187499999999994
40
0.218749999999994
40
0.218749999999994
40
0.222656249999993
40
0.222656249999993
40
0.226562499999993
40
0.234374999999993
40
0.234374999999993
40
0.249999999999992
40
0.249999999999992
40
0.281249999999992
40
0.281249999999992
40
0.312499999999991
40
0.312499999999991
40
0.34374999999999
40
0.34374999999999
40
0.374999999999989
40
0.374999999999989
40
0.406249999999989
40
0.406249999999989
40
0.437499999999988
40
0.437499999999988
40
0.468749999999987
40
0.468749999999987
40
0.499999999999987
40
0.499999999999987
40
0.531249999999986
40
0.531249999999986
40
0.562499999999985
40
0.562499999999985
40
0.593749999999984
40
0.593749999999984
40
0.609374999999984
40
0.609374999999984
40
0.613281249999984
40
0.613281249999984
40
0.617187499999984
40
0.624999999999984
40
0.624999999999984
40
0.656249999999986
40
0.656249999999986
40
0.687499999999987
40
0.687499999999987
40
0.718749999999988
40
0.718749999999988
40
0.74999999999999
40
0.74999999999999
40
0.781249999999991
40
0.781249999999991
40
0.812499999999992
40
0.812499999999992
40
0.843749999999994
40
0.843749999999994
40
0.874999999999995
40
0.874999999999995
40
0.906249999999996
40
0.906249999999996
40
0.937499999999997
40
0.937499999999997
40
0.968749999999999
40
0.968749999999999
40
1
40
1
40
1
40
1
41
1
10
97.9
20
-8.43760613369943
30
0
41
1
10
97.9814525521098
20
-8.90300523141616
30
0
41
1
10
98.0629051042195
20
-9.34531696305837
30
0
41
1
10
98.2258102084388
20
-10.1716642528299
30
0
41
1
10
98.3072627605485
20
-10.5556694162129
30
0
41
1
10
98.4701678647678
20
-11.2563522157342
30
0
41
1
10
98.5516204168775
20
-11.5730155093712
30
0
41
1
10
98.7145255210969
20
-12.1337840281493
30
0
41
1
10
98.7959780732066
20
-12.3778923444496
30
0
41
1
10
98.9588831774258
20
-12.7923112585414
30
0
41
1
10
99.0403357295356
20
-12.9626397649543
30
0
41
1
10
99.2032408337551
20
-13.2319217798487
30
0
41
1
10
99.2846933858648
20
-13.3309027059622
30
0
41
1
10
99.447598490084
20
-13.4628724552461
30
0
41
1
10
99.5290510421938
20
-13.4958921236046
30
0
41
1
10
99.620685163317
20
-13.5001068527562
30
0
41
1
10
99.6308667323309
20
-13.5001206572479
30
0
41
1
10
99.6512298703584
20
-13.4992399972339
30
0
41
1
10
99.6817745773995
20
-13.496550531135
30
0
41
1
10
99.7123192844406
20
-13.4896845546292
30
0
41
1
10
99.7734086985229
20
-13.4702015195264
30
0
41
1
10
99.8141349745777
20
-13.4495413031448
30
0
41
1
10
99.9363138027423
20
-13.3631957963855
30
0
41
1
10
100.017766354852
20
-13.2730677337028
30
0
41
1
10
100.180671459071
20
-13.0220381827423
30
0
41
1
10
100.262124011181
20
-12.8611084990578
30
0
41
1
10
100.4250291154
20
-12.4656087829455
30
0
41
1
10
100.50648166751
20
-12.2310192831387
30
0
41
1
10
100.669386771729
20
-11.688911357576
30
0
41
1
10
100.750839323839
20
-11.3813877106969
30
0
41
1
10
100.913744428058
20
-10.6980915699238
30
0
41
1
10
100.995196980168
20
-10.3223311594992
30
0
41
1
10
101.158102084387
20
-9.51111587994933
30
0
41
1
10
101.239554636497
20
-9.07568956258237
30
0
41
1
10
101.402459740717
20
-8.1569542262524
30
0
41
1
10
101.483912292826
20
-7.6736853574854
30
0
41
1
10
101.646817397046
20
-6.67328108824051
30
0
41
1
10
101.728269949155
20
-6.15618991320471
30
0
41
1
10
101.891175053375
20
-5.10306520645201
30
0
41
1
10
101.972627605485
20
-4.56707212301086
30
0
41
1
10
102.135532709704
20
-3.49067598051289
30
0
41
1
10
102.216985261814
20
-2.95030363043864
30
0
41
1
10
102.379890366033
20
-1.87820155957363
30
0
41
1
10
102.461342918143
20
-1.34648996747146
30
0
41
1
10
102.583521746307
20
-0.563528780000809
30
0
41
1
10
102.624248022362
20
-0.304957124267645
30
0
41
1
10
102.675155867431
20
0.0145430282894097
30
0
41
1
10
102.685337436444
20
0.0783209218183458
30
0
41
1
10
102.705700574472
20
0.206476408673609
30
0
41
1
10
102.736245281513
20
0.399253628827211
30
0
41
1
10
102.766789988554
20
0.59358863101744
30
0
41
1
10
102.868605678691
20
1.2444801308541
30
0
41
1
10
102.950058230801
20
1.77523640977714
30
0
41
1
10
103.11296333502
20
2.84619663853581
30
0
41
1
10
103.19441588713
20
3.38638329049689
30
0
41
1
10
103.357320991349
20
4.46330179671654
30
0
41
1
10
103.438773543459
20
5.00000370251786
30
0
41
1
10
103.601678647678
20
6.05550613806355
30
0
41
1
10
103.683131199788
20
6.5742666969702
30
0
41
1
10
103.846036304007
20
7.5789580883102
30
0
41
1
10
103.927488856117
20
8.06484471213167
30
0
41
1
10
104.090393960336
20
8.98966610398131
30
0
41
1
10
104.171846512446
20
9.42856021611439
30
0
41
1
10
104.334751616666
20
10.2473849805198
30
0
41
1
10
104.416204168775
20
10.6272861486968
30
0
41
1
10
104.579109272994
20
11.3193043055756
30
0
41
1
10
104.660561825104
20
11.6314080790033
30
0
41
1
10
104.823466929324
20
12.1828585547838
30
0
41
1
10
104.904919481433
20
12.4222094194268
30
0
41
1
10
105.067824585653
20
12.8271650598593
30
0
41
1
10
105.149277137762
20
12.9927885352417
30
0
41
1
10
105.312182241982
20
13.2529270179186
30
0
41
1
10
105.393634794091
20
13.3474698446131
30
0
41
1
10
105.556539898311
20
13.470990899755
30
0
41
1
10
105.63799245042
20
13.5
30
0
41
1
10
105.71944500253
20
13.5
30
0
0
SPLINE
5
FE
100
AcDbEntity
8
1
62
256
6
ByLayer
370
13
48
1
60
0
100
AcDbSpline
70
4
71
3
72
78
73
74
40
0
40
0
40
0
40
0
40
0.0312500000000007
40
0.0312500000000007
40
0.0625000000000013
40
0.0625000000000013
40
0.093750000000002
40
0.093750000000002
40
0.125000000000003
40
0.125000000000003
40
0.156250000000003
40
0.156250000000003
40
0.187500000000004
40
0.187500000000004
40
0.218750000000004
40
0.218750000000004
40
0.250000000000005
40
0.250000000000005
40
0.281250000000006
40
0.281250000000006
40
0.312500000000006
40
0.312500000000006
40
0.343750000000007
40
0.343750000000007
40
0.375000000000007
40
0.375000000000007
40
0.406250000000008
40
0.406250000000008
40
0.437500000000008
40
0.437500000000008
40
0.468750000000009
40
0.468750000000009
40
0.476562500000009
40
0.476562500000009
40
0.484375000000009
40
0.484375000000009
40
0.500000000000009
40
0.500000000000009
40
0.531250000000008
40
0.531250000000008
40
0.562500000000008
40
0.562500000000008
40
0.593750000000007
40
0.593750000000007
40
0.625000000000006
40
0.625000000000006
40
0.656250000000005
40
0.656250000000005
40
0.687500000000005
40
0.687500000000005
40
0.718750000000004
40
0.718750000000004
40
0.750000000000003
40
0.750000000000003
40
0.781250000000003
40
0.781250000000003
40
0.812500000000002
40
0.812500000000002
40
0.843750000000001
40
0.843750000000001
40
0.875000000000001
40
0.875000000000001
40
0.90625
40
0.90625
40
0.937499999999999
40
0.937499999999999
40
0.953124999999999
40
0.953124999999999
40
0.960937499999999
40
0.960937499999999
40
0.968749999999999
40
0.968749999999999
40
1
40
1
40
1
40
1
41
1
10
103.722610534915
20
13.5
30
0
41
1
10
103.788900027649
20
13.5
30
0
41
1
10
103.855189520384
20
13.4808008417528
30
0
41
1
10
103.987768505852
20
13.3998907079581
30
0
41
1
10
104.054057998586
20
13.3381686974564
30
0
41
1
10
104.186636984055
20
13.1688775132354
30
0
41
1
10
104.252926476789
20
13.0612977225532
30
0
41
1
10
104.385505462258
20
12.7980839775639
30
0
41
1
10
104.451794954992
20
12.6424412237865
30
0
41
1
10
104.584373940461
20
12.2823197808816
30
0
41
1
10
104.650663433195
20
12.0778355525856
30
0
41
1
10
104.783242418664
20
11.6208952349792
30
0
41
1
10
104.849531911398
20
11.3684380549605
30
0
41
1
10
104.982110896866
20
10.8181654318489
30
0
41
1
10
105.048400389601
20
10.520353975788
30
0
41
1
10
105.180979375069
20
9.88369425505269
30
0
41
1
10
105.247268867803
20
9.54485491248639
30
0
41
1
10
105.379847853272
20
8.83197372751357
30
0
41
1
10
105.446137346006
20
8.45794478988284
30
0
41
1
10
105.578716331475
20
7.68169971848002
30
0
41
1
10
105.645005824209
20
7.27949887787923
30
0
41
1
10
105.777584809678
20
6.45467662760672
30
0
41
1
10
105.843874302412
20
6.0320709937867
30
0
41
1
10
105.976453287881
20
5.17448352350232
30
0
41
1
10
106.042742780615
20
4.73951611950628
30
0
41
1
10
106.175321766084
20
3.8650672161655
30
0
41
1
10
106.241611258818
20
3.42559739383191
30
0
41
1
10
106.374190244286
20
2.54942685847737
30
0
41
1
10
106.440479737021
20
2.11273426124541
30
0
41
1
10
106.573058722489
20
1.24852304876487
30
0
41
1
10
106.639348215224
20
0.821008813283015
30
0
41
1
10
106.722210081141
20
0.295686620097882
30
0
41
1
10
106.738782454325
20
0.191072973807906
30
0
41
1
10
106.771927200692
20
-0.0171805079475291
30
0
41
1
10
106.788499573876
20
-0.120937966623501
30
0
41
1
10
106.838216693426
20
-0.434589959863359
30
0
41
1
10
106.871361439794
20
-0.645578307565444
30
0
41
1
10
106.970795678895
20
-1.28328718496536
30
0
41
1
10
107.037085171629
20
-1.71478518807302
30
0
41
1
10
107.169664157098
20
-2.5847721942003
30
0
41
1
10
107.235953649832
20
-3.023255486148
30
0
41
1
10
107.368532635301
20
-3.90047133771878
30
0
41
1
10
107.434822128035
20
-4.33919444531119
30
0
41
1
10
107.567401113503
20
-5.20936451757697
30
0
41
1
10
107.633690606238
20
-5.64079868469219
30
0
41
1
10
107.766269591706
20
-6.48841770166231
30
0
41
1
10
107.832559084441
20
-6.90458744429966
30
0
41
1
10
107.965138069909
20
-7.71367991305908
30
0
41
1
10
108.031427562643
20
-8.10658681448672
30
0
41
1
10
108.164006548112
20
-8.86160202283321
30
0
41
1
10
108.230296040846
20
-9.22369568622207
30
0
41
1
10
108.362875026315
20
-9.91044352942799
30
0
41
1
10
108.429164519049
20
-10.2350860847794
30
0
41
1
10
108.561743504518
20
-10.8416024519161
30
0
41
1
10
108.628032997252
20
-11.1234690524174
30
0
41
1
10
108.760611982721
20
-11.6407032647143
30
0
41
1
10
108.826901475455
20
-11.8760687475492
30
0
41
1
10
108.959480460924
20
-12.2983114321439
30
0
41
1
10
109.025769953658
20
-12.4851914366571
30
0
41
1
10
109.158348939126
20
-12.8102033682618
30
0
41
1
10
109.224638431861
20
-12.9483421675165
30
0
41
1
10
109.357217417329
20
-13.1771923285905
30
0
41
1
10
109.423506910063
20
-13.2679133152596
30
0
41
1
10
109.556085895532
20
-13.4045760508778
30
0
41
1
10
109.622375388266
20
-13.4505287188061
30
0
41
1
10
109.721809627368
20
-13.4886197296477
30
0
41
1
10
109.754954373735
20
-13.4961839340107
30
0
41
1
10
109.804671493286
20
-13.5002236558648
30
0
41
1
10
109.821243866469
20
-13.5003602704552
30
0
41
1
10
109.854388612836
20
-13.4982252550552
30
0
41
1
10
109.87096098602
20
-13.4959441645405
30
0
41
1
10
109.953822851938
20
-13.478303700363
30
0
41
1
10
110.020112344672
20
-13.4442107148887
30
0
41
1
10
110.086401837406
20
-13.3882055985402
30
0
0
SPLINE
5
FF
100
AcDbEntity
8
1
62
256
6
ByLayer
370
13
48
1
60
0
100
AcDbSpline
70
4
71
3
72
81
73
77
40
0
40
0
40
0
40
0
40
0.0312499999999998
40
0.0312499999999998
40
0.0624999999999997
40
0.0624999999999997
40
0.0937499999999995
40
0.0937499999999995
40
0.124999999999999
40
0.124999999999999
40
0.156249999999999
40
0.156249999999999
40
0.164062499999999
40
0.167968749999999
40
0.167968749999999
40
0.171874999999999
40
0.171874999999999
40
0.187499999999999
40
0.187499999999999
40
0.218749999999999
40
0.218749999999999
40
0.249999999999999
40
0.249999999999999
40
0.281249999999999
40
0.281249999999999
40
0.312499999999998
40
0.312499999999998
40
0.343749999999998
40
0.343749999999998
40
0.374999999999998
40
0.374999999999998
40
0.406249999999998
40
0.406249999999998
40
0.437499999999998
40
0.437499999999998
40
0.468749999999998
40
0.468749999999998
40
0.499999999999998
40
0.499999999999998
40
0.531249999999998
40
0.531249999999998
40
0.562499999999997
40
0.562499999999997
40
0.578124999999997
40
0.578124999999997
40
0.582031249999997
40
0.582031249999997
40
0.585937499999997
40
0.585937499999997
40
0.593749999999997
40
0.593749999999997
40
0.624999999999997
40
0.624999999999997
40
0.656249999999998
40
0.656249999999998
40
0.687499999999998
40
0.687499999999998
40
0.718749999999998
40
0.718749999999998
40
0.749999999999998
40
0.749999999999998
40
0.781249999999998
40
0.781249999999998
40
0.812499999999998
40
0.812499999999998
40
0.843749999999999
40
0.843749999999999
40
0.874999999999999
40
0.874999999999999
40
0.906249999999999
40
0.906249999999999
40
0.937499999999999
40
0.937499999999999
40
0.96875
40
0.96875
40
1
40
1
40
1
40
1
41
1
10
97.9
20
-10.8909455065652
30
0
41
1
10
97.9763982032159
20
-11.2204465139772
30
0
41
1
10
98.052796406432
20
-11.5203822599244
30
0
41
1
10
98.2055928128638
20
-12.0566824209613
30
0
41
1
10
98.2819910160797
20
-12.2930481578167
30
0
41
1
10
98.4347874225116
20
-12.7008393109063
30
0
41
1
10
98.5111856257275
20
-12.8722764600159
30
0
41
1
10
98.6639820321595
20
-13.151730689068
30
0
41
1
10
98.7403802353754
20
-13.2597666703699
30
0
41
1
10
98.8931766418073
20
-13.4163547642737
30
0
41
1
10
98.9695748450232
20
-13.4649290460235
30
0
41
1
10
99.0650725990432
20
-13.4920449769713
30
0
41
1
10
99.0937219252492
20
-13.4976647311954
30
0
41
1
10
99.1223712514552
20
-13.4996255856801
30
0
41
1
10
99.1414708022591
20
-13.5001328097618
30
0
41
1
10
99.1510205776611
20
-13.4999883401995
30
0
41
1
10
99.198769454671
20
-13.4972585048712
30
0
41
1
10
99.2369685562791
20
-13.4886336520867
30
0
41
1
10
99.3515658611029
20
-13.4422338036198
30
0
41
1
10
99.4279640643189
20
-13.3838827439629
30
0
41
1
10
99.5807604707508
20
-13.2069244471267
30
0
41
1
10
99.6571586739667
20
-13.0882953267502
30
0
41
1
10
99.8099550803986
20
-12.7872070577737
30
0
41
1
10
99.8863532836147
20
-12.6047299584917
30
0
41
1
10
100.039149690047
20
-12.1748752921606
30
0
41
1
10
100.115547893262
20
-11.9274875735491
30
0
41
1
10
100.268344299694
20
-11.3696809546786
30
0
41
1
10
100.34474250291
20
-11.0592627205322
30
0
41
1
10
100.497538909342
20
-10.3803567263214
30
0
41
1
10
100.573937112558
20
-10.0118815772903
30
0
41
1
10
100.72673351899
20
-9.22471874295664
30
0
41
1
10
100.803131722206
20
-8.80605425834491
30
0
41
1
10
100.955928128638
20
-7.92872014179173
30
0
41
1
10
101.032326331854
20
-7.47008065083295
30
0
41
1
10
101.185122738286
20
-6.52453810545072
30
0
41
1
10
101.261520941502
20
-6.0376671484384
30
0
41
1
10
101.414317347934
20
-5.04798381345324
30
0
41
1
10
101.490715551149
20
-4.54520052830742
30
0
41
1
10
101.643511957581
20
-3.53565873101454
30
0
41
1
10
101.719910160797
20
-3.02892258401911
30
0
41
1
10
101.872706567229
20
-2.0223005275586
30
0
41
1
10
101.949104770445
20
-1.52242842665794
30
0
41
1
10
102.063702075269
20
-0.784610608071716
30
0
41
1
10
102.101901176877
20
-0.540655292916
30
0
41
1
10
102.149650053887
20
-0.238789283395647
30
0
41
1
10
102.159199829289
20
-0.178569682003143
30
0
41
1
10
102.178299380093
20
-0.0584514055961733
30
0
41
1
10
102.187849155495
20
0.0013374474519878
30
0
41
1
10
102.216498481701
20
0.181206868693181
30
0
41
1
10
102.235598032505
20
0.301770433527963
30
0
41
1
10
102.331095786525
20
0.907565038717308
30
0
41
1
10
102.407493989741
20
1.40180323714938
30
0
41
1
10
102.560290396173
20
2.40116669402826
30
0
41
1
10
102.636688599389
20
2.90628177095712
30
0
41
1
10
102.789485005821
20
3.91723990794878
30
0
41
1
10
102.865883209036
20
4.42306404424181
30
0
41
1
10
103.018679615468
20
5.42387969132042
30
0
41
1
10
103.095077818684
20
5.91884454870043
30
0
41
1
10
103.247874225116
20
6.8856690373317
30
0
41
1
10
103.324272428332
20
7.35749726322894
30
0
41
1
10
103.477068834764
20
8.2659482713245
30
0
41
1
10
103.55346703798
20
8.70253946581724
30
0
41
1
10
103.706263444412
20
9.52955244004244
30
0
41
1
10
103.782661647628
20
9.91994759289815
30
0
41
1
10
103.93545805406
20
10.6456339230023
30
0
41
1
10
104.011856257275
20
10.980907787907
30
0
41
1
10
104.164652663707
20
11.5901210152104
30
0
41
1
10
104.241050866923
20
11.8640547581261
30
0
41
1
10
104.393847273355
20
12.347412192224
30
0
41
1
10
104.470245476571
20
12.5568418274966
30
0
41
1
10
104.623041883003
20
12.9110627173003
30
0
41
1
10
104.699440086219
20
13.0558691344741
30
0
41
1
10
104.852236492651
20
13.2834350099321
30
0
41
1
10
104.928634695867
20
13.3662151979316
30
0
41
1
10
105.081431102299
20
13.4744864751726
30
0
41
1
10
105.157829305515
20
13.5
30
0
41
1
10
105.234227508731
20
13.5
30
0
0
SPLINE
5
100
100
AcDbEntity
8
1
62
256
6
ByLayer
370
13
48
1
60
0
100
AcDbSpline
70
4
71
3
72
77
73
73
40
0
40
0
40
0
40
0
40
0.0312499999999988
40
0.0312499999999988
40
0.0624999999999976
40
0.0624999999999976
40
0.0937499999999964
40
0.0937499999999964
40
0.124999999999995
40
0.124999999999995
40
0.156249999999994
40
0.156249999999994
40
0.187499999999993
40
0.187499999999993
40
0.218749999999992
40
0.218749999999992
40
0.249999999999991
40
0.249999999999991
40
0.281249999999989
40
0.281249999999989
40
0.312499999999988
40
0.312499999999988
40
0.343749999999987
40
0.343749999999987
40
0.374999999999986
40
0.374999999999986
40
0.406249999999985
40
0.406249999999985
40
0.437499999999983
40
0.437499999999983
40
0.445312499999983
40
0.445312499999983
40
0.453124999999983
40
0.468749999999983
40
0.468749999999983
40
0.499999999999984
40
0.499999999999984
40
0.531249999999985
40
0.531249999999985
40
0.562499999999985
40
0.562499999999985
40
0.593749999999986
40
0.593749999999986
40
0.624999999999986
40
0.624999999999986
40
0.656249999999987
40
0.656249999999987
40
0.687499999999988
40
0.687499999999988
40
0.718749999999988
40
0.718749999999988
40
0.749999999999989
40
0.749999999999989
40
0.78124999999999
40
0.78124999999999
40
0.81249999999999
40
0.81249999999999
40
0.843749999999991
40
0.843749999999991
40
0.874999999999992
40
0.874999999999992
40
0.882812499999992
40
0.882812499999992
40
0.890624999999993
40
0.890624999999993
40
0.906249999999994
40
0.906249999999994
40
0.937499999999996
40
0.937499999999996
40
0.968749999999998
40
0.968749999999998
40
1
40
1
40
1
40
1
41
1
10
103.237393041115
20
13.5
30
0
41
1
10
103.308736882744
20
13.5
30
0
41
1
10
103.380080724372
20
13.4777563232816
30
0
41
1
10
103.522768407628
20
13.3836857334863
30
0
41
1
10
103.594112249256
20
13.3118428810319
30
0
41
1
10
103.736799932512
20
13.1145536870156
30
0
41
1
10
103.80814377414
20
12.98909229427
30
0
41
1
10
103.950831457396
20
12.6821241931399
30
0
41
1
10
104.022175299024
20
12.5006056932257
30
0
41
1
10
104.16486298228
20
12.0810721128219
30
0
41
1
10
104.236206823908
20
11.8430508520627
30
0
41
1
10
104.378894507164
20
11.3123294954221
30
0
41
1
10
104.450238348792
20
11.0196305726286
30
0
41
1
10
104.592926032048
20
10.383721649039
30
0
41
1
10
104.664269873676
20
10.0405207579545
30
0
41
1
10
104.806957556932
20
9.30997235460595
30
0
41
1
10
104.87830139856
20
8.92264101936649
30
0
41
1
10
105.020989081816
20
8.11200875509803
30
0
41
1
10
105.092332923444
20
7.68872885853415
30
0
41
1
10
105.2350206067
20
6.81562119127909
30
0
41
1
10
105.306364448328
20
6.3658162611442
30
0
41
1
10
105.449052131584
20
5.4496544943853
30
0
41
1
10
105.520395973212
20
4.98331915502968
30
0
41
1
10
105.663083656468
20
4.04398969226176
30
0
41
1
10
105.734427498096
20
3.57101316519336
30
0
41
1
10
105.877115181352
20
2.62759605427166
30
0
41
1
10
105.948459022981
20
2.1571676463449
30
0
41
1
10
106.091146706237
20
1.22689167509696
30
0
41
1
10
106.162490547865
20
0.767050486121775
30
0
41
1
10
106.2516703499
20
0.202997243102999
30
0
41
1
10
106.269506310307
20
0.0908507495049946
30
0
41
1
10
106.305178231121
20
-0.132835172531543
30
0
41
1
10
106.358686112342
20
-0.470080155676271
30
0
41
1
10
106.412193993563
20
-0.812083013457936
30
0
41
1
10
106.519209756005
20
-1.50125700710666
30
0
41
1
10
106.590553597633
20
-1.96764146255583
30
0
41
1
10
106.733241280889
20
-2.90690018687198
30
0
41
1
10
106.804585122517
20
-3.37976501627131
30
0
41
1
10
106.947272805773
20
-4.32329421671412
30
0
41
1
10
107.018616647401
20
-4.79394341378503
30
0
41
1
10
107.161304330657
20
-5.72341863300238
30
0
41
1
10
107.232648172285
20
-6.18222472462793
30
0
41
1
10
107.375335855541
20
-7.07799010671997
30
0
41
1
10
107.446679697169
20
-7.51492681587268
30
0
41
1
10
107.589367380425
20
-8.35717582621288
30
0
41
1
10
107.660711222053
20
-8.76246584372703
30
0
41
1
10
107.803398905309
20
-9.53257493536444
30
0
41
1
10
107.874742746937
20
-9.89737521476209
30
0
41
1
10
108.017430430193
20
-10.5792178621904
30
0
41
1
10
108.088774271822
20
-10.8962476103138
30
0
41
1
10
108.231461955078
20
-11.4773026436244
30
0
41
1
10
108.302805796706
20
-11.7413230224606
30
0
41
1
10
108.445493479962
20
-12.2134207525068
30
0
41
1
10
108.51683732159
20
-12.4215009945597
30
0
41
1
10
108.659525004846
20
-12.7811170275779
30
0
41
1
10
108.730868846474
20
-12.9326622500282
30
0
41
1
10
108.87355652973
20
-13.1807531303415
30
0
41
1
10
108.944900371358
20
-13.2773126184076
30
0
41
1
10
109.087588054614
20
-13.4187653917759
30
0
41
1
10
109.158931896242
20
-13.4636744760788
30
0
41
1
10
109.248111698277
20
-13.4904369089283
30
0
41
1
10
109.265947658684
20
-13.4943232875375
30
0
41
1
10
109.301619579498
20
-13.499245656072
30
0
41
1
10
109.319455539905
20
-13.5002828353805
30
0
41
1
10
109.372963421126
20
-13.4992383486247
30
0
41
1
10
109.40863534194
20
-13.4929663241449
30
0
41
1
10
109.515651104382
20
-13.4564324899915
30
0
41
1
10
109.58699494601
20
-13.4084163861454
30
0
41
1
10
109.729682629266
20
-13.2604967193766
30
0
41
1
10
109.801026470894
20
-13.1605774118524
30
0
41
1
10
109.94371415415
20
-12.9056129793408
30
0
41
1
10
110.015057995778
20
-12.7505542281606
30
0
41
1
10
110.086401837406
20
-12.567218190443
30
0
0
SPLINE
5
101
100
AcDbEntity
8
1
62
256
6
ByLayer
370
13
48
1
60
0
100
AcDbSpline
70
4
71
3
72
78
73
74
40
0
40
0
40
0
40
0
40
0.0312499999999989
40
0.0312499999999989
40
0.0624999999999979
40
0.0624999999999979
40
0.0937499999999968
40
0.0937499999999968
40
0.109374999999996
40
0.109374999999996
40
0.117187499999996
40
0.117187499999996
40
0.124999999999996
40
0.124999999999996
40
0.156249999999997
40
0.156249999999997
40
0.187499999999997
40
0.187499999999997
40
0.218749999999997
40
0.218749999999997
40
0.249999999999997
40
0.249999999999997
40
0.281249999999997
40
0.281249999999997
40
0.312499999999997
40
0.312499999999997
40
0.343749999999997
40
0.343749999999997
40
0.374999999999997
40
0.374999999999997
40
0.406249999999998
40
0.406249999999998
40
0.437499999999998
40
0.437499999999998
40
0.468749999999998
40
0.468749999999998
40
0.499999999999998
40
0.499999999999998
40
0.531249999999998
40
0.531249999999998
40
0.546874999999998
40
0.546874999999998
40
0.554687499999998
40
0.554687499999998
40
0.562499999999998
40
0.562499999999998
40
0.593749999999998
40
0.593749999999998
40
0.624999999999998
40
0.624999999999998
40
0.656249999999998
40
0.656249999999998
40
0.687499999999999
40
0.687499999999999
40
0.718749999999999
40
0.718749999999999
40
0.749999999999999
40
0.749999999999999
40
0.781249999999999
40
0.781249999999999
40
0.812499999999999
40
0.812499999999999
40
0.843749999999999
40
0.843749999999999
40
0.874999999999999
40
0.874999999999999
40
0.90625
40
0.90625
40
0.9375
40
0.9375
40
0.96875
40
0.96875
40
1
40
1
40
1
40
1
41
1
10
97.9
20
-12.5672150588362
30
0
41
1
10
97.9713438543222
20
-12.750551450216
30
0
41
1
10
98.0426877086444
20
-12.905610543841
30
0
41
1
10
98.1853754172888
20
-13.1605756283395
30
0
41
1
10
98.256719271611
20
-13.2604952453993
30
0
41
1
10
98.3994069802554
20
-13.4084154913848
30
0
41
1
10
98.4707508345776
20
-13.4564318649208
30
0
41
1
10
98.5777666160609
20
-13.4929660711388
30
0
41
1
10
98.6134385432221
20
-13.4992382142547
30
0
41
1
10
98.6669464339637
20
-13.5002828707834
30
0
41
1
10
98.6847823975442
20
-13.4992457476573
30
0
41
1
10
98.7204543247053
20
-13.4943234928566
30
0
41
1
10
98.7382902882858
20
-13.4904371714452
30
0
41
1
10
98.8274701061886
20
-13.4636750259752
30
0
41
1
10
98.8988139605108
20
-13.4187661760861
30
0
41
1
10
99.0415016691552
20
-13.2773138727512
30
0
41
1
10
99.1128455234774
20
-13.1807546202868
30
0
41
1
10
99.2555332321218
20
-12.9326642032074
30
0
41
1
10
99.326877086444
20
-12.7811192083621
30
0
41
1
10
99.4695647950883
20
-12.4215036127425
30
0
41
1
10
99.5409086494105
20
-12.21342358045
30
0
41
1
10
99.683596358055
20
-11.7413262425198
30
0
41
1
10
99.7549402123772
20
-11.4773060460053
30
0
41
1
10
99.8976279210216
20
-10.8962513416184
30
0
41
1
10
99.9689717753438
20
-10.5792217400688
30
0
41
1
10
100.111659483988
20
-9.89737934399275
30
0
41
1
10
100.18300333831
20
-9.53257916935684
30
0
41
1
10
100.325691046955
20
-8.76247024231199
30
0
41
1
10
100.397034901277
20
-8.35718028462682
30
0
41
1
10
100.539722609921
20
-7.51493134911024
30
0
41
1
10
100.611066464244
20
-7.07799465496524
30
0
41
1
10
100.753754172888
20
-6.18222926121382
30
0
41
1
10
100.82509802721
20
-5.72342314294562
30
0
41
1
10
100.967785735855
20
-4.79394783441472
30
0
41
1
10
101.039129590177
20
-4.32329857470313
30
0
41
1
10
101.181817298821
20
-3.37976922024404
30
0
41
1
10
101.253161153143
20
-2.90690429949907
30
0
41
1
10
101.395848861788
20
-1.96764537177342
30
0
41
1
10
101.46719271611
20
-1.50126080428538
30
0
41
1
10
101.574208497593
20
-0.812086632963627
30
0
41
1
10
101.609880424754
20
-0.584084666945756
30
0
41
1
10
101.663388315496
20
-0.245254127593881
30
0
41
1
10
101.681224279077
20
-0.132838606966118
30
0
41
1
10
101.716896206238
20
0.0908473780868064
30
0
41
1
10
101.734732169818
20
0.202993861510095
30
0
41
1
10
101.823911987721
20
0.767047151734147
30
0
41
1
10
101.895255842043
20
1.22688838884486
30
0
41
1
10
102.037943550688
20
2.15716447718208
30
0
41
1
10
102.10928740501
20
2.62759295406997
30
0
41
1
10
102.251975113654
20
3.57101022237529
30
0
41
1
10
102.323318967976
20
4.04398683786769
30
0
41
1
10
102.466006676621
20
4.9833164939902
30
0
41
1
10
102.537350530943
20
5.44965193827028
30
0
41
1
10
102.680038239587
20
6.3658139268951
30
0
41
1
10
102.751382093909
20
6.81561897395727
30
0
41
1
10
102.894069802554
20
7.68872688136412
30
0
41
1
10
102.965413656876
20
8.11200690113193
30
0
41
1
10
103.10810136552
20
8.92263941168449
30
0
41
1
10
103.179445219843
20
9.30997086998056
30
0
41
1
10
103.322132928487
20
10.0405195128725
30
0
41
1
10
103.393476782809
20
10.3837205204219
30
0
41
1
10
103.536164491454
20
11.0196296646012
30
0
41
1
10
103.607508345776
20
11.3123286915032
30
0
41
1
10
103.75019605442
20
11.8430502395173
30
0
41
1
10
103.821539908742
20
12.0810715875335
30
0
41
1
10
103.964227617387
20
12.5006053227457
30
0
41
1
10
104.035571471709
20
12.682123890212
30
0
41
1
10
104.178259180354
20
12.98909210563
30
0
41
1
10
104.249603034676
20
13.1145535451192
30
0
41
1
10
104.39229074332
20
13.3118428123069
30
0
41
1
10
104.463634597642
20
13.3836856912017
30
0
41
1
10
104.606322306287
20
13.4777563153524
30
0
41
1
10
104.677666160609
20
13.5
30
0
41
1
10
104.749010014931
20
13.5
30
0
0
SPLINE
5
102
100
AcDbEntity
8
1
62
256
6
ByLayer
370
13
48
1
60
0
100
AcDbSpline
70
4
71
3
72
80
73
76
40
0
40
0
40
0
40
0
40
0.0312500000000015
40
0.0312500000000015
40
0.062500000000003
40
0.062500000000003
40
0.0937500000000045
40
0.0937500000000045
40
0.125000000000006
40
0.125000000000006
40
0.156250000000007
40
0.156250000000007
40
0.187500000000009
40
0.187500000000009
40
0.21875000000001
40
0.21875000000001
40
0.250000000000012
40
0.250000000000012
40
0.281250000000013
40
0.281250000000013
40
0.312500000000015
40
0.312500000000015
40
0.343750000000016
40
0.343750000000016
40
0.375000000000018
40
0.375000000000018
40
0.406250000000019
40
0.406250000000019
40
0.41406250000002
40
0.41406250000002
40
0.41796875000002
40
0.41796875000002
40
0.42187500000002
40
0.437500000000019
40
0.437500000000019
40
0.468750000000019
40
0.468750000000019
40
0.500000000000019
40
0.500000000000019
40
0.531250000000018
40
0.531250000000018
40
0.562500000000018
40
0.562500000000018
40
0.593750000000018
40
0.593750000000018
40
0.625000000000017
40
0.625000000000017
40
0.656250000000017
40
0.656250000000017
40
0.687500000000016
40
0.687500000000016
40
0.718750000000016
40
0.718750000000016
40
0.750000000000016
40
0.750000000000016
40
0.781250000000015
40
0.781250000000015
40
0.812500000000015
40
0.812500000000015
40
0.828125000000015
40
0.828125000000015
40
0.832031250000015
40
0.832031250000015
40
0.835937500000014
40
0.843750000000014
40
0.843750000000014
40
0.875000000000011
40
0.875000000000011
40
0.906250000000008
40
0.906250000000008
40
0.937500000000005
40
0.937500000000005
40
0.968750000000003
40
0.968750000000003
40
1
40
1
40
1
40
1
41
1
10
102.752175547316
20
13.5
30
0
41
1
10
102.828573737838
20
13.5
30
0
41
1
10
102.904971928359
20
13.4744864836682
30
0
41
1
10
103.057768309403
20
13.3662152434064
30
0
41
1
10
103.134166499925
20
13.283435083909
30
0
41
1
10
103.286962880968
20
13.0558692873684
30
0
41
1
10
103.36336107149
20
12.9110629206256
30
0
41
1
10
103.516157452534
20
12.5568421538807
30
0
41
1
10
103.592555643055
20
12.3474125912446
30
0
41
1
10
103.745352024099
20
11.8640553228696
30
0
41
1
10
103.821750214621
20
11.5901216730379
30
0
41
1
10
103.974546595664
20
10.9809086484636
30
0
41
1
10
104.050944786186
20
10.645634893189
30
0
41
1
10
104.203741167229
20
9.91994879312514
30
0
41
1
10
104.280139357751
20
9.52955376065427
30
0
41
1
10
104.432935738795
20
8.70254103091554
30
0
41
1
10
104.509333929317
20
8.2659499604938
30
0
41
1
10
104.66213031036
20
7.35749919677193
30
0
41
1
10
104.738528500882
20
6.885671091148
30
0
41
1
10
104.891324881926
20
5.91884683231436
30
0
41
1
10
104.967723072447
20
5.42388208443663
30
0
41
1
10
105.120519453491
20
4.42306663992969
30
0
41
1
10
105.196917644013
20
3.91724259669485
30
0
41
1
10
105.349714025056
20
2.90628462550902
30
0
41
1
10
105.426112215578
20
2.40116962132768
30
0
41
1
10
105.578908596622
20
1.4018062877285
30
0
41
1
10
105.655306787143
20
0.907568139837338
30
0
41
1
10
105.750804525296
20
0.301773583894004
30
0
41
1
10
105.769904072926
20
0.181210028215929
30
0
41
1
10
105.798553394371
20
0.0013406196814572
30
0
41
1
10
105.808103168187
20
-0.0584482179243366
30
0
41
1
10
105.827202715817
20
-0.178566462962749
30
0
41
1
10
105.874951584893
20
-0.479663166998307
30
0
41
1
10
105.922700453969
20
-0.784607234708432
30
0
41
1
10
106.037297739752
20
-1.52242487546431
30
0
41
1
10
106.113695930274
20
-2.02229686463957
30
0
41
1
10
106.266492311318
20
-3.02891872031694
30
0
41
1
10
106.342890501839
20
-3.53565477828809
30
0
41
1
10
106.495686882883
20
-4.54519642935102
30
0
41
1
10
106.572085073405
20
-5.0479796573309
30
0
41
1
10
106.724881454448
20
-6.03766291792914
30
0
41
1
10
106.80127964497
20
-6.52453385775914
30
0
41
1
10
106.954076026013
20
-7.47007641461585
30
0
41
1
10
107.030474216535
20
-7.92871593425991
30
0
41
1
10
107.183270597579
20
-8.80605015664165
30
0
41
1
10
107.259668788101
20
-9.22471471840717
30
0
41
1
10
107.412465169144
20
-10.0118777542366
30
0
41
1
10
107.488863359666
20
-10.3803530275986
30
0
41
1
10
107.64165974071
20
-11.0592593124985
30
0
41
1
10
107.718057931231
20
-11.3696777129728
30
0
41
1
10
107.870854312275
20
-11.9274846981084
30
0
41
1
10
107.947252502797
20
-12.1748726166148
30
0
41
1
10
108.10004888384
20
-12.6047277057947
30
0
41
1
10
108.176447074362
20
-12.7872050279858
30
0
41
1
10
108.329243455405
20
-13.0882937545041
30
0
41
1
10
108.405641645927
20
-13.2069231094749
30
0
41
1
10
108.558438026971
20
-13.3838818763846
30
0
41
1
10
108.634836217493
20
-13.4422331714942
30
0
41
1
10
108.749433503275
20
-13.4886333667903
30
0
41
1
10
108.787632598536
20
-13.4972583341402
30
0
41
1
10
108.835381467612
20
-13.4999883107605
30
0
41
1
10
108.844931241427
20
-13.5001328083309
30
0
41
1
10
108.864030789058
20
-13.4996256409626
30
0
41
1
10
108.892680110504
20
-13.4976648726415
30
0
41
1
10
108.921329431949
20
-13.4920452078565
30
0
41
1
10
109.016827170101
20
-13.4649295822654
30
0
41
1
10
109.093225360623
20
-13.4163555680815
30
0
41
1
10
109.246021741667
20
-13.2597680521001
30
0
41
1
10
109.322419932189
20
-13.1517323811667
30
0
41
1
10
109.475216313232
20
-12.8722788076308
30
0
41
1
10
109.551614503754
20
-12.7008420036591
30
0
41
1
10
109.704410884797
20
-12.2930515632557
30
0
41
1
10
109.780809075319
20
-12.0566861939132
30
0
41
1
10
109.933605456363
20
-11.5203867742469
30
0
41
1
10
110.010003646884
20
-11.2204514020991
30
0
41
1
10
110.086401837406
20
-10.8909507624869
30
0
0
SPLINE
5
103
100
AcDbEntity
8
1
62
256
6
ByLayer
370
13
48
1
60
0
100
AcDbSpline
70
4
71
3
72
78
73
74
40
0
40
0
40
0
40
0
40
0.0312499999999989
40
0.0312499999999989
40
0.0390624999999989
40
0.0390624999999989
40
0.0468749999999989
40
0.0468749999999989
40
0.0624999999999988
40
0.0624999999999988
40
0.093749999999999
40
0.093749999999999
40
0.124999999999999
40
0.124999999999999
40
0.156249999999999
40
0.156249999999999
40
0.1875
40
0.1875
40
0.21875
40
0.21875
40
0.25
40
0.25
40
0.28125
40
0.28125
40
0.3125
40
0.3125
40
0.34375
40
0.34375
40
0.375000000000001
40
0.375000000000001
40
0.406250000000001
40
0.406250000000001
40
0.437500000000001
40
0.437500000000001
40
0.468750000000001
40
0.468750000000001
40
0.500000000000001
40
0.500000000000001
40
0.515625000000001
40
0.515625000000001
40
0.523437500000001
40
0.523437500000001
40
0.531250000000001
40
0.531250000000001
40
0.562500000000001
40
0.562500000000001
40
0.593750000000001
40
0.593750000000001
40
0.625000000000001
40
0.625000000000001
40
0.656250000000001
40
0.656250000000001
40
0.6875
40
0.6875
40
0.71875
40
0.71875
40
0.75
40
0.75
40
0.78125
40
0.78125
40
0.8125
40
0.8125
40
0.84375
40
0.84375
40
0.875
40
0.875
40
0.90625
40
0.90625
40
0.9375
40
0.9375
40
0.96875
40
0.96875
40
1
40
1
40
1
40
1
41
1
10
97.9
20
-13.3882045689615
30
0
41
1
10
97.9662895054284
20
-13.4442099641825
30
0
41
1
10
98.0325790108569
20
-13.4783032094611
30
0
41
1
10
98.1154408926425
20
-13.4959439731022
30
0
41
1
10
98.1320132689996
20
-13.4982251222512
30
0
41
1
10
98.1651580217139
20
-13.5003602523908
30
0
41
1
10
98.1817303980711
20
-13.5002236936164
30
0
41
1
10
98.2314475271423
20
-13.4961841416356
30
0
41
1
10
98.2645922798566
20
-13.4886200518212
30
0
41
1
10
98.3640265379993
20
-13.4505293874224
30
0
41
1
10
98.4303160434276
20
-13.4045769542236
30
0
41
1
10
98.5628950542845
20
-13.2679146887309
30
0
41
1
10
98.6291845597131
20
-13.1771939374441
30
0
41
1
10
98.7617635705699
20
-12.9483442398644
30
0
41
1
10
98.8280530759985
20
-12.8102056687018
30
0
41
1
10
98.9606320868553
20
-12.4851941775289
30
0
41
1
10
99.0269215922837
20
-12.298314385331
30
0
41
1
10
99.1595006031406
20
-11.8760721012637
30
0
41
1
10
99.2257901085691
20
-11.6407068066152
30
0
41
1
10
99.358369119426
20
-11.123472939132
30
0
41
1
10
99.4246586248544
20
-10.8416064952355
30
0
41
1
10
99.5572376357113
20
-10.2350904039274
30
0
41
1
10
99.6235271411398
20
-9.91044796778442
30
0
41
1
10
99.7561061519966
20
-9.22370032201351
30
0
41
1
10
99.8223956574251
20
-8.86160673684554
30
0
41
1
10
99.954974668282
20
-8.10659164290746
30
0
41
1
10
100.021264173711
20
-7.71368477767226
30
0
41
1
10
100.153843184567
20
-6.90459234077429
30
0
41
1
10
100.220132689996
20
-6.48842259382027
30
0
41
1
10
100.352711700853
20
-5.64080353146937
30
0
41
1
10
100.419001206281
20
-5.20936932331063
30
0
41
1
10
100.551580217138
20
-4.33919913771712
30
0
41
1
10
100.617869722566
20
-3.90047595786339
30
0
41
1
10
100.750448733423
20
-3.02325993709999
30
0
41
1
10
100.816738238852
20
-2.58477654824256
30
0
41
1
10
100.949317249709
20
-1.71478933057872
30
0
41
1
10
101.015606755137
20
-1.28329121286185
30
0
41
1
10
101.11504101328
20
-0.645582155313065
30
0
41
1
10
101.148185765994
20
-0.43459374618547
30
0
41
1
10
101.197902895066
20
-0.120941659329361
30
0
41
1
10
101.214475271423
20
-0.017184165508354
30
0
41
1
10
101.247620024137
20
0.191069333384832
30
0
41
1
10
101.264192400494
20
0.295682988838991
30
0
41
1
10
101.34705428228
20
0.821005230847675
30
0
41
1
10
101.413343787708
20
1.24851951503788
30
0
41
1
10
101.545922798565
20
2.11273084426929
30
0
41
1
10
101.612212303993
20
2.54942350954929
30
0
41
1
10
101.74479131485
20
3.42559419921926
30
0
41
1
10
101.811080820279
20
3.86506410782187
30
0
41
1
10
101.943659831136
20
4.73951319952704
30
0
41
1
10
102.009949336564
20
5.1744807056148
30
0
41
1
10
102.142528347421
20
6.03206839226502
30
0
41
1
10
102.208817852849
20
6.45467414034982
30
0
41
1
10
102.341396863706
20
7.27949662663266
30
0
41
1
10
102.407686369135
20
7.68169758896479
30
0
41
1
10
102.540265379992
20
8.45794290590786
30
0
41
1
10
102.60655488542
20
8.83197196733033
30
0
41
1
10
102.739133896277
20
9.54485339633698
30
0
41
1
10
102.805423401705
20
9.88369285912799
30
0
41
1
10
102.938002412562
20
10.5203528114398
30
0
41
1
10
103.004291917991
20
10.8181643788376
30
0
41
1
10
103.136870928848
20
11.368437211222
30
0
41
1
10
103.203160434276
20
11.6208944891667
30
0
41
1
10
103.335739445133
20
12.0778349858647
30
0
41
1
10
103.402028950562
20
12.2823192953225
30
0
41
1
10
103.534607961419
20
12.642440881804
30
0
41
1
10
103.600897466847
20
12.7980836979984
30
0
41
1
10
103.733476477704
20
13.0612975484794
30
0
41
1
10
103.799765983132
20
13.1688773822431
30
0
41
1
10
103.932344993989
20
13.3381686339372
30
0
41
1
10
103.998634499418
20
13.39989066884
30
0
41
1
10
104.131213510275
20
13.480800834389
30
0
41
1
10
104.197503015703
20
13.5
30
0
41
1
10
104.263792521131
20
13.5
30
0
0
SPLINE
5
104
100
AcDbEntity
8
1
62
256
6
ByLayer
370
13
48
1
60
0
100
AcDbSpline
70
4
71
3
72
80
73
76
40
0
40
0
40
0
40
0
40
0.0312499999999999
40
0.0312499999999999
40
0.0624999999999998
40
0.0624999999999998
40
0.0937499999999996
40
0.0937499999999996
40
0.125
40
0.125
40
0.156249999999999
40
0.156249999999999
40
0.187499999999999
40
0.187499999999999
40
0.218749999999999
40
0.218749999999999
40
0.249999999999999
40
0.249999999999999
40
0.281249999999999
40
0.281249999999999
40
0.312499999999999
40
0.312499999999999
40
0.343749999999999
40
0.343749999999999
40
0.374999999999999
40
0.374999999999999
40
0.382812499999998
40
0.386718749999998
40
0.386718749999998
40
0.390624999999998
40
0.390624999999998
40
0.406249999999998
40
0.406249999999998
40
0.437499999999998
40
0.437499999999998
40
0.468749999999998
40
0.468749999999998
40
0.499999999999998
40
0.499999999999998
40
0.531249999999998
40
0.531249999999998
40
0.562499999999998
40
0.562499999999998
40
0.593749999999997
40
0.593749999999997
40
0.624999999999997
40
0.624999999999997
40
0.656249999999997
40
0.656249999999997
40
0.687499999999997
40
0.687499999999997
40
0.718749999999997
40
0.718749999999997
40
0.749999999999997
40
0.749999999999997
40
0.765624999999997
40
0.765624999999997
40
0.773437499999997
40
0.777343749999997
40
0.777343749999997
40
0.781249999999997
40
0.781249999999997
40
0.812499999999997
40
0.812499999999997
40
0.843749999999998
40
0.843749999999998
40
0.874999999999998
40
0.874999999999998
40
0.906249999999999
40
0.906249999999999
40
0.937499999999999
40
0.937499999999999
40
0.96875
40
0.96875
40
1
40
1
40
1
40
1
41
1
10
102.266958053516
20
13.5
30
0
41
1
10
102.348410592932
20
13.5
30
0
41
1
10
102.429863132347
20
13.4709909088181
30
0
41
1
10
102.592768211178
20
13.3474698933013
30
0
41
1
10
102.674220750594
20
13.2529270971928
30
0
41
1
10
102.837125829425
20
12.992788699219
30
0
41
1
10
102.918578368841
20
12.8271652779734
30
0
41
1
10
103.081483447672
20
12.4222097693142
30
0
41
1
10
103.162935987087
20
12.1828589823163
30
0
41
1
10
103.325841065918
20
11.6314086827761
30
0
41
1
10
103.407293605334
20
11.3193050079365
30
0
41
1
10
103.570198684165
20
10.6272870640742
30
0
41
1
10
103.65165122358
20
10.2473860103016
30
0
41
1
10
103.814556302411
20
9.42856148334315
30
0
41
1
10
103.896008841827
20
8.98966749421623
30
0
41
1
10
104.058913920658
20
8.06484634864779
30
0
41
1
10
104.140366460073
20
7.57895984806151
30
0
41
1
10
104.303271538904
20
6.57426869510371
30
0
41
1
10
104.38472407832
20
6.05550825131044
30
0
41
1
10
104.547629157151
20
5.00000603069824
30
0
41
1
10
104.629081696567
20
4.46330422469669
30
0
41
1
10
104.791986775397
20
3.38638589756522
30
0
41
1
10
104.873439314813
20
2.84619932488778
30
0
41
1
10
105.036344393644
20
1.77523923133541
30
0
41
1
10
105.11779693306
20
1.24448300834365
30
0
41
1
10
105.219612607329
20
0.59359156347611
30
0
41
1
10
105.25015730961
20
0.399256576663419
30
0
41
1
10
105.28070201189
20
0.206479370229488
30
0
41
1
10
105.301065146745
20
0.078323892154458
30
0
41
1
10
105.311246714172
20
0.014546000151114
30
0
41
1
10
105.362154551306
20
-0.304954073734706
30
0
41
1
10
105.402880821014
20
-0.563525667610747
30
0
41
1
10
105.525059630137
20
-1.34648667449966
30
0
41
1
10
105.606512169553
20
-1.87819815284496
30
0
41
1
10
105.769417248384
20
-2.95030001962596
30
0
41
1
10
105.850869787799
20
-3.49067227941535
30
0
41
1
10
106.01377486663
20
-4.56706827519901
30
0
41
1
10
106.095227406046
20
-5.10306130226198
30
0
41
1
10
106.258132484877
20
-6.15618593931052
30
0
41
1
10
106.339585024292
20
-6.67327710106977
30
0
41
1
10
106.502490103123
20
-7.6736813932248
30
0
41
1
10
106.583942642539
20
-8.15695029821285
30
0
41
1
10
106.74684772137
20
-9.07568575876508
30
0
41
1
10
106.828300260785
20
-9.51111216414174
30
0
41
1
10
106.991205339616
20
-10.3223276690351
30
0
41
1
10
107.072657879032
20
-10.6980882167723
30
0
41
1
10
107.235562957863
20
-11.3813846744508
30
0
41
1
10
107.317015497279
20
-11.688908500877
30
0
41
1
10
107.47992057611
20
-12.2310168172104
30
0
41
1
10
107.561373115525
20
-12.465606528183
30
0
41
1
10
107.724278194356
20
-12.8611066857359
30
0
41
1
10
107.805730733772
20
-13.0220365996399
30
0
41
1
10
107.968635812603
20
-13.2730666173637
30
0
41
1
10
108.050088352018
20
-13.3631949165482
30
0
41
1
10
108.172267161142
20
-13.4495407741774
30
0
41
1
10
108.212993430849
20
-13.4702011068824
30
0
41
1
10
108.274082835411
20
-13.4896843146013
30
0
41
1
10
108.304627537692
20
-13.4965503769496
30
0
41
1
10
108.335172239972
20
-13.4992399280372
30
0
41
1
10
108.355535374826
20
-13.5001206445046
30
0
41
1
10
108.365716942253
20
-13.5001068680197
30
0
41
1
10
108.457351049096
20
-13.4958923955978
30
0
41
1
10
108.538803588511
20
-13.4628729804964
30
0
41
1
10
108.701708667342
20
-13.3309037849457
30
0
41
1
10
108.783161206758
20
-13.23192315933
30
0
41
1
10
108.946066285589
20
-12.9626417847883
30
0
41
1
10
109.027518825005
20
-12.7923136182245
30
0
41
1
10
109.190423903836
20
-12.3778954099956
30
0
41
1
10
109.271876443251
20
-12.1337874596686
30
0
41
1
10
109.434781522082
20
-11.5730196811529
30
0
41
1
10
109.516234061498
20
-11.2563567617315
30
0
41
1
10
109.679139140329
20
-10.5556746981746
30
0
41
1
10
109.760591679744
20
-10.1716698964474
30
0
41
1
10
109.923496758575
20
-9.34532329635593
30
0
41
1
10
110.004949297991
20
-8.90301189264687
30
0
41
1
10
110.086401837406
20
-8.43761309669671
30
0
0
SPLINE
5
105
100
AcDbEntity
8
1
62
256
6
ByLayer
370
13
48
1
60
0
100
AcDbSpline
70
4
71
3
72
74
73
70
40
0
40
0
40
0
40
0
40
0.0312500000000003
40
0.0312500000000003
40
0.0625000000000006
40
0.0625000000000006
40
0.0937500000000009
40
0.0937500000000009
40
0.125000000000001
40
0.125000000000001
40
0.156250000000001
40
0.156250000000001
40
0.187500000000002
40
0.187500000000002
40
0.218750000000002
40
0.218750000000002
40
0.250000000000002
40
0.250000000000002
40
0.281250000000003
40
0.281250000000003
40
0.312500000000003
40
0.312500000000003
40
0.343750000000003
40
0.343750000000003
40
0.375000000000004
40
0.375000000000004
40
0.406250000000004
40
0.406250000000004
40
0.437500000000005
40
0.437500000000005
40
0.468750000000005
40
0.468750000000005
40
0.476562500000005
40
0.476562500000005
40
0.484375000000005
40
0.484375000000005
40
0.500000000000005
40
0.500000000000005
40
0.531250000000004
40
0.531250000000004
40
0.562500000000004
40
0.562500000000004
40
0.593750000000004
40
0.593750000000004
40
0.625000000000004
40
0.625000000000004
40
0.656250000000003
40
0.656250000000003
40
0.687500000000003
40
0.687500000000003
40
0.718750000000003
40
0.718750000000003
40
0.750000000000002
40
0.750000000000002
40
0.781250000000002
40
0.781250000000002
40
0.812500000000002
40
0.812500000000002
40
0.843750000000001
40
0.843750000000001
40
0.875000000000001
40
0.875000000000001
40
0.906250000000001
40
0.906250000000001
40
0.937500000000001
40
0.937500000000001
40
0.96875
40
0.96875
40
1
40
1
40
1
40
1
41
1
10
97.9
20
-13.4303286039942
30
0
41
1
10
97.9612351565347
20
-13.3898397078731
30
0
41
1
10
98.0224703130694
20
-13.3310815285717
30
0
41
1
10
98.1449406261388
20
-13.1744454554659
30
0
41
1
10
98.2061757826735
20
-13.0765604158198
30
0
41
1
10
98.3286460957429
20
-12.8398971101466
30
0
41
1
10
98.3898812522777
20
-12.7011127950957
30
0
41
1
10
98.5123515653471
20
-12.381901100888
30
0
41
1
10
98.5735867218818
20
-12.2014696046111
30
0
41
1
10
98.6960570349512
20
-11.7993931016936
30
0
41
1
10
98.757292191486
20
-11.5777466288063
30
0
41
1
10
98.8797625045554
20
-11.094935485743
30
0
41
1
10
98.94099766109
20
-10.8337724500411
30
0
41
1
10
99.0634679741595
20
-10.2748881550871
30
0
41
1
10
99.1247031306941
20
-9.97717169166737
30
0
41
1
10
99.2471734437636
20
-9.34930853865316
30
0
41
1
10
99.3084086002983
20
-9.0191694293178
30
0
41
1
10
99.4308789133677
20
-8.33156947125468
30
0
41
1
10
99.4921140699024
20
-7.97411821757746
30
0
41
1
10
99.6145843829719
20
-7.23772198185583
30
0
41
1
10
99.6758195395065
20
-6.85878757907972
30
0
41
1
10
99.7982898525759
20
-6.08566577254228
30
0
41
1
10
99.8595250091107
20
-5.69148882567012
30
0
41
1
10
99.9819953221801
20
-4.89421553051673
30
0
41
1
10
100.043230478715
20
-4.49112852296938
30
0
41
1
10
100.165700791784
20
-3.68216091847972
30
0
41
1
10
100.226935948319
20
-3.27628781122257
30
0
41
1
10
100.349406261388
20
-2.46741099732728
30
0
41
1
10
100.410641417923
20
-2.06441252786937
30
0
41
1
10
100.533111730992
20
-1.26629301073788
30
0
41
1
10
100.594346887527
20
-0.871174878522027
30
0
41
1
10
100.670890833196
20
-0.384844841004309
30
0
41
1
10
100.686199622329
20
-0.287955225126837
30
0
41
1
10
100.716817200596
20
-0.0949867539583522
30
0
41
1
10
100.73212598973
20
0.0008097765827699
30
0
41
1
10
100.778052357131
20
0.289459061353711
30
0
41
1
10
100.808669935399
20
0.48355154038731
30
0
41
1
10
100.900522670201
20
1.07010536336568
30
0
41
1
10
100.961757826735
20
1.46686806001182
30
0
41
1
10
101.084228139805
20
2.26748649092192
30
0
41
1
10
101.14546329634
20
2.67133892677398
30
0
41
1
10
101.267933609409
20
3.48101275693134
30
0
41
1
10
101.329168765944
20
3.88682852152201
30
0
41
1
10
101.451639079013
20
4.69467723190465
30
0
41
1
10
101.512874235548
20
5.0967023388919
30
0
41
1
10
101.635344548617
20
5.8907930827105
30
0
41
1
10
101.696579705152
20
6.28284913109124
30
0
41
1
10
101.819050018221
20
7.05066377813219
30
0
41
1
10
101.880285174756
20
7.42641182451751
30
0
41
1
10
102.002755487825
20
8.15541663348469
30
0
41
1
10
102.06399064436
20
8.50866290460729
30
0
41
1
10
102.18646095743
20
9.18693430155531
30
0
41
1
10
102.247696113964
20
9.51195010429259
30
0
41
1
10
102.370166427034
20
10.1287962105646
30
0
41
1
10
102.431401583568
20
10.4206193581043
30
0
41
1
10
102.553871896638
20
10.9671321964706
30
0
41
1
10
102.615107053172
20
11.2218176090779
30
0
41
1
10
102.737577366242
20
11.6912973570832
30
0
41
1
10
102.798812522777
20
11.9060905958336
30
0
41
1
10
102.921282835846
20
12.2943001019029
30
0
41
1
10
102.982517992381
20
12.4677183222598
30
0
41
1
10
103.10498830545
20
12.7729498627538
30
0
41
1
10
103.166223461985
20
12.9047676806318
30
0
41
1
10
103.288693775054
20
13.1277294173723
30
0
41
1
10
103.349928931589
20
13.2188796291938
30
0
41
1
10
103.472399244658
20
13.362431137528
30
0
41
1
10
103.533634401193
20
13.4148396826008
30
0
41
1
10
103.656104714262
20
13.4836204063725
30
0
41
1
10
103.717339870797
20
13.5
30
0
41
1
10
103.778575027332
20
13.5
30
0
0
SPLINE
5
106
100
AcDbEntity
8
1
62
256
6
ByLayer
370
13
48
1
60
0
100
AcDbSpline
70
4
71
3
72
79
73
75
40
0
40
0
40
0
40
0
40
0.0312500000000001
40
0.0312500000000001
40
0.0625000000000003
40
0.0625000000000003
40
0.0937500000000004
40
0.0937500000000004
40
0.125000000000001
40
0.125000000000001
40
0.156250000000001
40
0.156250000000001
40
0.187500000000001
40
0.187500000000001
40
0.218750000000001
40
0.218750000000001
40
0.250000000000001
40
0.250000000000001
40
0.281250000000001
40
0.281250000000001
40
0.312500000000001
40
0.312500000000001
40
0.343750000000002
40
0.343750000000002
40
0.359375000000002
40
0.359375000000002
40
0.367187500000002
40
0.367187500000002
40
0.375000000000002
40
0.375000000000002
40
0.406250000000001
40
0.406250000000001
40
0.437500000000001
40
0.437500000000001
40
0.468750000000001
40
0.468750000000001
40
0.500000000000001
40
0.500000000000001
40
0.531250000000001
40
0.531250000000001
40
0.562500000000001
40
0.562500000000001
40
0.593750000000001
40
0.593750000000001
40
0.625000000000001
40
0.625000000000001
40
0.656250000000001
40
0.656250000000001
40
0.687500000000001
40
0.687500000000001
40
0.718750000000001
40
0.718750000000001
40
0.726562500000001
40
0.730468750000001
40
0.730468750000001
40
0.734375000000001
40
0.734375000000001
40
0.750000000000001
40
0.750000000000001
40
0.781250000000001
40
0.781250000000001
40
0.812500000000001
40
0.812500000000001
40
0.84375
40
0.84375
40
0.875
40
0.875
40
0.90625
40
0.90625
40
0.9375
40
0.9375
40
0.96875
40
0.96875
40
1
40
1
40
1
40
1
41
1
10
101.781740559717
20
13.5
30
0
41
1
10
101.868247448026
20
13.5
30
0
41
1
10
101.954754336335
20
13.4672691429079
30
0
41
1
10
102.127768112954
20
13.3274405529685
30
0
41
1
10
102.214275001263
20
13.2203011825642
30
0
41
1
10
102.387288777882
20
12.925279813271
30
0
41
1
10
102.473795666191
20
12.7373613523979
30
0
41
1
10
102.646809442809
20
12.2782179157532
30
0
41
1
10
102.733316331119
20
12.0069708878255
30
0
41
1
10
102.906330107737
20
11.38333201281
30
0
41
1
10
102.992836996047
20
11.0309402151216
30
0
41
1
10
103.165850772665
20
10.2522557937162
30
0
41
1
10
103.252357660974
20
9.82598825803791
30
0
41
1
10
103.425371437593
20
8.91150700421451
30
0
41
1
10
103.511878325902
20
8.42333974139493
30
0
41
1
10
103.684892102521
20
7.4006303246704
30
0
41
1
10
103.77139899083
20
6.86614647967488
30
0
41
1
10
103.944412767448
20
5.7683790066119
30
0
41
1
10
104.030919655758
20
5.20515341630471
30
0
41
1
10
104.203933432376
20
4.06768856911211
30
0
41
1
10
104.290440320685
20
3.4934964306527
30
0
41
1
10
104.463454097304
20
2.3504800203537
30
0
41
1
10
104.549960985613
20
1.78168573894212
30
0
41
1
10
104.679721318077
20
0.942871026613943
30
0
41
1
10
104.722974762232
20
0.665639365277258
30
0
41
1
10
104.787854928464
20
0.254420135081631
30
0
41
1
10
104.809481650541
20
0.118251835361065
30
0
41
1
10
104.852735094696
20
-0.15294494948094
30
0
41
1
10
104.874361816773
20
-0.28938595661856
30
0
41
1
10
104.98249542716
20
-0.975404538915626
30
0
41
1
10
105.069002315469
20
-1.5365483218319
30
0
41
1
10
105.242016092087
20
-2.67122581227523
30
0
41
1
10
105.328522980397
20
-3.24473837594627
30
0
41
1
10
105.501536757015
20
-4.38892988308038
30
0
41
1
10
105.588043645324
20
-4.95956946083561
30
0
41
1
10
105.761057421943
20
-6.0807512950025
30
0
41
1
10
105.847564310252
20
-6.63123963925295
30
0
41
1
10
106.020578086871
20
-7.69423394636777
30
0
41
1
10
106.10708497518
20
-8.20668021696815
30
0
41
1
10
106.280098751799
20
-9.17682659997948
30
0
41
1
10
106.366605640108
20
-9.63447313962712
30
0
41
1
10
106.539619416726
20
-10.4811242196002
30
0
41
1
10
106.626126305036
20
-10.8700925750989
30
0
41
1
10
106.799140081654
20
-11.5697468466754
30
0
41
1
10
106.885646969963
20
-11.8804207045274
30
0
41
1
10
107.058660746582
20
-12.4188449543925
30
0
41
1
10
107.145167634891
20
-12.6466075543095
30
0
41
1
10
107.31818141151
20
-13.0195595500577
30
0
41
1
10
107.404688299819
20
-13.1647796464864
30
0
41
1
10
107.577702076438
20
-13.3773176359656
30
0
41
1
10
107.664208964747
20
-13.444675809809
30
0
41
1
10
107.772342575133
20
-13.485116544728
30
0
41
1
10
107.80478265825
20
-13.4939761575181
30
0
41
1
10
107.837222741365
20
-13.4980888380474
30
0
41
1
10
107.858849463443
20
-13.4997945390656
30
0
41
1
10
107.869662824481
20
-13.5001297714225
30
0
41
1
10
107.923729629675
20
-13.4992579046743
30
0
41
1
10
107.966983073829
20
-13.4903668125312
30
0
41
1
10
108.096743406293
20
-13.4373595290035
30
0
41
1
10
108.183250294602
20
-13.3668229435451
30
0
41
1
10
108.356264071221
20
-13.1476539921904
30
0
41
1
10
108.44277095953
20
-12.998981563537
30
0
41
1
10
108.615784736149
20
-12.6190138679757
30
0
41
1
10
108.702291624458
20
-12.3876885177494
30
0
41
1
10
108.875305401077
20
-11.8422303009997
30
0
41
1
10
108.961812289386
20
-11.528086177994
30
0
41
1
10
109.134826066004
20
-10.8218010161363
30
0
41
1
10
109.221332954314
20
-10.4296731157847
30
0
41
1
10
109.394346730932
20
-9.57721483453091
30
0
41
1
10
109.480853619242
20
-9.11692156074713
30
0
41
1
10
109.65386739586
20
-8.14214880908125
30
0
41
1
10
109.740374284169
20
-7.62772341437184
30
0
41
1
10
109.913388060788
20
-6.56152375082314
30
0
41
1
10
109.999894949097
20
-6.00980915980654
30
0
41
1
10
110.086401837406
20
-5.44837277439865
30
0
0
SPLINE
5
107
100
AcDbEntity
8
1
62
256
6
ByLayer
370
13
48
1
60
0
100
AcDbSpline
70
4
71
3
72
64
73
60
40
0
40
0
40
0
40
0
40
0.0312499999999991
40
0.0312499999999991
40
0.0624999999999983
40
0.0624999999999983
40
0.0937499999999974
40
0.0937499999999974
40
0.124999999999997
40
0.124999999999997
40
0.156249999999996
40
0.156249999999996
40
0.187499999999995
40
0.187499999999995
40
0.218749999999994
40
0.218749999999994
40
0.249999999999993
40
0.249999999999993
40
0.281249999999992
40
0.281249999999992
40
0.312499999999991
40
0.312499999999991
40
0.37499999999999
40
0.37499999999999
40
0.406249999999989
40
0.406249999999989
40
0.421874999999989
40
0.421874999999989
40
0.429687499999989
40
0.429687499999989
40
0.437499999999989
40
0.437499999999989
40
0.49999999999999
40
0.49999999999999
40
0.56249999999999
40
0.56249999999999
40
0.593749999999991
40
0.593749999999991
40
0.624999999999992
40
0.624999999999992
40
0.656249999999992
40
0.656249999999992
40
0.687499999999993
40
0.687499999999993
40
0.718749999999993
40
0.718749999999993
40
0.749999999999994
40
0.749999999999994
40
0.781249999999995
40
0.781249999999995
40
0.812499999999995
40
0.812499999999995
40
0.843749999999996
40
0.843749999999996
40
0.874999999999997
40
0.874999999999997
40
0.937499999999998
40
0.937499999999998
40
1
40
1
40
1
40
1
41
1
10
97.9
20
-12.7052550295987
30
0
41
1
10
97.956180807641
20
-12.5724792487505
30
0
41
1
10
98.0123616152819
20
-12.422238855795
30
0
41
1
10
98.1247232305639
20
-12.086792225179
30
0
41
1
10
98.1809040382049
20
-11.9015842225238
30
0
41
1
10
98.2932656534867
20
-11.4970363050267
30
0
41
1
10
98.3494464611277
20
-11.2776963731617
30
0
41
1
10
98.4618080764096
20
-10.8066233169321
30
0
41
1
10
98.5179888840506
20
-10.5548920755158
30
0
41
1
10
98.6303504993326
20
-10.0216523197851
30
0
41
1
10
98.6865313069736
20
-9.74014752792493
30
0
41
1
10
98.7988929222554
20
-9.15076925635393
30
0
41
1
10
98.8550737298964
20
-8.84290105957732
30
0
41
1
10
98.9674353451783
20
-8.20486085463645
30
0
41
1
10
99.0236161528193
20
-7.87469522662616
30
0
41
1
10
99.1359777681013
20
-7.19660441984263
30
0
41
1
10
99.1921585757422
20
-6.84868613960793
30
0
41
1
10
99.304520191024
20
-6.13991215897596
30
0
41
1
10
99.3607009986649
20
-5.779063268817
30
0
41
1
10
99.4730626139469
20
-5.04932008183957
30
0
41
1
10
99.5292434215879
20
-4.68043195947575
30
0
41
1
10
99.6977858445108
20
-3.56884710006662
30
0
41
1
10
99.8101474597926
20
-2.82146151009894
30
0
41
1
10
99.9786898827155
20
-1.71637610391909
30
0
41
1
10
100.034870690356
20
-1.35062751740281
30
0
41
1
10
100.119141901818
20
-0.808552288472669
30
0
41
1
10
100.147232305638
20
-0.628947493910914
30
0
41
1
10
100.189367911369
20
-0.361459034223458
30
0
41
1
10
100.203413113279
20
-0.272615717734311
30
0
41
1
10
100.2315035171
20
-0.0956126971773017
30
0
41
1
10
100.24554871901
20
-0.007688908304857
30
0
41
1
10
100.371955536202
20
0.786392005333852
30
0
41
1
10
100.484317151484
20
1.51503307810643
30
0
41
1
10
100.709040382048
20
2.99146035658521
30
0
41
1
10
100.82140199733
20
3.73916232477416
30
0
41
1
10
100.989944420253
20
4.849077658749
30
0
41
1
10
101.046125227894
20
5.21705402879189
30
0
41
1
10
101.158486843176
20
5.94423232486665
30
0
41
1
10
101.214667650817
20
6.30342794871791
30
0
41
1
10
101.327029266099
20
7.00815133048886
30
0
41
1
10
101.38321007374
20
7.35367222699458
30
0
41
1
10
101.495571689022
20
8.02625286789365
30
0
41
1
10
101.551752496663
20
8.35330575318702
30
0
41
1
10
101.664114111944
20
8.9844653102131
30
0
41
1
10
101.720294919585
20
9.28856573346877
30
0
41
1
10
101.832656534867
20
9.8698425258724
30
0
41
1
10
101.888837342508
20
10.1470138238053
30
0
41
1
10
102.00119895779
20
10.6711336725934
30
0
41
1
10
102.057379765431
20
10.9180787684109
30
0
41
1
10
102.169741380713
20
11.3792561179603
30
0
41
1
10
102.225922188354
20
11.5934867797954
30
0
41
1
10
102.338283803636
20
11.9876302290194
30
0
41
1
10
102.394464611277
20
12.1675433143684
30
0
41
1
10
102.506826226559
20
12.4923509428584
30
0
41
1
10
102.5630070342
20
12.6372474923886
30
0
41
1
10
102.731549457123
20
13.0196616896386
30
0
41
1
10
102.843911072405
20
13.2045790331418
30
0
41
1
10
103.068634302969
20
13.4446728868465
30
0
41
1
10
103.18099591825
20
13.5
30
0
41
1
10
103.293357533532
20
13.5
30
0
0
SPLINE
5
108
100
AcDbEntity
8
1
62
256
6
ByLayer
370
13
48
1
60
0
100
AcDbSpline
70
4
71
3
72
81
73
77
40
0
40
0
40
0
40
0
40
0.0312500000000001
40
0.0312500000000001
40
0.0625000000000001
40
0.0625000000000001
40
0.0937500000000002
40
0.0937500000000002
40
0.125
40
0.125
40
0.15625
40
0.15625
40
0.1875
40
0.1875
40
0.21875
40
0.21875
40
0.25
40
0.25
40
0.28125
40
0.28125
40
0.3125
40
0.3125
40
0.34375
40
0.34375
40
0.34765625
40
0.34765625
40
0.3515625
40
0.359375
40
0.359375
40
0.375
40
0.375
40
0.40625
40
0.40625
40
0.4375
40
0.4375
40
0.46875
40
0.46875
40
0.5
40
0.5
40
0.53125
40
0.53125
40
0.5625
40
0.5625
40
0.59375
40
0.59375
40
0.625
40
0.625
40
0.65625
40
0.65625
40
0.6875
40
0.6875
40
0.69140625
40
0.69140625
40
0.6953125
40
0.6953125
40
0.703125
40
0.703125
40
0.71875
40
0.71875
40
0.75
40
0.75
40
0.78125
40
0.78125
40
0.8125
40
0.8125
40
0.84375
40
0.84375
40
0.875
40
0.875
40
0.90625
40
0.90625
40
0.9375
40
0.9375
40
0.96875
40
0.96875
40
1
40
1
40
1
40
1
41
1
10
101.296523065917
20
13.5
30
0
41
1
10
101.38808430312
20
13.5
30
0
41
1
10
101.479645540323
20
13.4633206866679
30
0
41
1
10
101.662768014729
20
13.3061183132903
30
0
41
1
10
101.754329251932
20
13.1855400896864
30
0
41
1
10
101.937451726338
20
12.8533141594146
30
0
41
1
10
102.029012963541
20
12.6416196946618
30
0
41
1
10
102.212135437947
20
12.124876987601
30
0
41
1
10
102.30369667515
20
11.8198040439998
30
0
41
1
10
102.486819149556
20
11.1200859938108
30
0
41
1
10
102.578380386759
20
10.7254486937822
30
0
41
1
10
102.761502861165
20
9.85673746378217
30
0
41
1
10
102.853064098368
20
9.3827060097401
30
0
41
1
10
103.036186572774
20
8.37094007025428
30
0
41
1
10
103.127747809977
20
7.83327445750612
30
0
41
1
10
103.310870284383
20
6.71385979595647
30
0
41
1
10
103.402431521586
20
6.13218991171067
30
0
41
1
10
103.585553995992
20
4.9459843404002
30
0
41
1
10
103.677115233195
20
4.34152036048138
30
0
41
1
10
103.860237707602
20
3.13021207865569
30
0
41
1
10
103.951798944805
20
2.52341895365964
30
0
41
1
10
104.134921419211
20
1.32531832475021
30
0
41
1
10
104.226482656414
20
0.734036358654436
30
0
41
1
10
104.329489048267
20
0.0854768046306162
30
0
41
1
10
104.340934202917
20
0.0137950739412815
30
0
41
1
10
104.363824512218
20
-0.129903396434912
30
0
41
1
10
104.398159976169
20
-0.34615201832267
30
0
41
1
10
104.43249544012
20
-0.564399747984766
30
0
41
1
10
104.501166368022
20
-1.00326143194295
30
0
41
1
10
104.546946986624
20
-1.29899872108965
30
0
41
1
10
104.684288842429
20
-2.19301543940267
30
0
41
1
10
104.775850079631
20
-2.79820717199397
30
0
41
1
10
104.958972554038
20
-4.00980628221148
30
0
41
1
10
105.050533791241
20
-4.6161670287234
30
0
41
1
10
105.233656265647
20
-5.81001937074197
30
0
41
1
10
105.32521750285
20
-6.39744224652515
30
0
41
1
10
105.508339977256
20
-7.5321891223401
30
0
41
1
10
105.599901214459
20
-8.0794340592841
30
0
41
1
10
105.783023688865
20
-9.11372031415058
30
0
41
1
10
105.874584926068
20
-9.60068953535827
30
0
41
1
10
106.057707400474
20
-10.4977821497762
30
0
41
1
10
106.149268637677
20
-10.9078573360816
30
0
41
1
10
106.332391112083
20
-11.6398486305766
30
0
41
1
10
106.423952349286
20
-11.9617504584018
30
0
41
1
10
106.607074823692
20
-12.5123779175145
30
0
41
1
10
106.698636060895
20
-12.7411229091901
30
0
41
1
10
106.881758535301
20
-13.1066284206623
30
0
41
1
10
106.973319772504
20
-13.2434326706131
30
0
41
1
10
107.15644224691
20
-13.4314683970394
30
0
41
1
10
107.248003484113
20
-13.4827544935328
30
0
41
1
10
107.351009875966
20
-13.4979994849074
30
0
41
1
10
107.362455030617
20
-13.4991054865906
30
0
41
1
10
107.385345339917
20
-13.5001639283679
30
0
41
1
10
107.396790494568
20
-13.5001194027386
30
0
41
1
10
107.431125958519
20
-13.4982606320009
30
0
41
1
10
107.45401626782
20
-13.4947105700606
30
0
41
1
10
107.522687195722
20
-13.4768646051864
30
0
41
1
10
107.568467814323
20
-13.4553675890349
30
0
41
1
10
107.705809670128
20
-13.36013844505
30
0
41
1
10
107.797370907331
20
-13.2555411886541
30
0
41
1
10
107.980493381737
20
-12.9562707179395
30
0
41
1
10
108.07205461894
20
-12.7615481869714
30
0
41
1
10
108.255177093346
20
-12.2787376272964
30
0
41
1
10
108.346738330549
20
-11.9906199197921
30
0
41
1
10
108.529860804955
20
-11.3236426083736
30
0
41
1
10
108.621422042158
20
-10.9447844158124
30
0
41
1
10
108.804544516564
20
-10.1053263639149
30
0
41
1
10
108.896105753767
20
-9.64476296623448
30
0
41
1
10
109.079228228173
20
-8.65670910615751
30
0
41
1
10
109.170789465376
20
-8.12928373738538
30
0
41
1
10
109.353911939782
20
-7.0265765098643
30
0
41
1
10
109.445473176985
20
-6.45137330704176
30
0
41
1
10
109.628595651391
20
-5.27421620325453
30
0
41
1
10
109.720156888594
20
-4.67233655183182
30
0
41
1
10
109.903279363
20
-3.46260483314793
30
0
41
1
10
109.994840600203
20
-2.85480832038221
30
0
41
1
10
110.086401837406
20
-2.25325272217773
30
0
0
SPLINE
5
109
100
AcDbEntity
8
1
62
256
6
ByLayer
370
13
48
1
60
0
100
AcDbSpline
70
4
71
3
72
8
73
4
40
0
40
0
40
0
40
0
40
1
40
1
40
1
40
1
41
1
10
110.086401837406
20
-8.59640248077116
30
0
41
1
10
111.724267891604
20
-5.71388607882619
30
0
41
1
10
113.362133945802
20
-2.84838406277743
30
0
41
1
10
115
20
-8.53E-14
30
0
0
SPLINE
5
10A
100
AcDbEntity
8
1
62
256
6
ByLayer
370
13
48
1
60
0
100
AcDbSpline
70
4
71
3
72
8
73
4
40
0
40
0
40
0
40
0
40
1
40
1
40
1
40
1
41
1
10
110.086401837406
20
-0.473618128997885
30
0
41
1
10
111.724267891604
20
-0.337842999596177
30
0
41
1
10
113.362133945802
20
-0.179968295219822
30
0
41
1
10
115
20
2.84E-14
30
0
0
SPLINE
5
10B
100
AcDbEntity
8
1
62
256
6
ByLayer
370
13
48
1
60
0
100
AcDbSpline
70
4
71
3
72
8
73
4
40
0
40
0
40
0
40
0
40
1
40
1
40
1
40
1
41
1
10
110.086401837406
20
-13.4986012789371
30
0
41
1
10
111.724267891604
20
-8.99938580311891
30
0
41
1
10
113.362133945802
20
-4.49979772517457
30
0
41
1
10
115
20
-1.137E-13
30
0
0
SPLINE
5
10C
100
AcDbEntity
8
1
62
256
6
ByLayer
370
13
48
1
60
0
100
AcDbSpline
70
4
71
3
72
8
73
4
40
0
40
0
40
0
40
0
40
1
40
1
40
1
40
1
41
1
10
110.086401837406
20
-2.86789411477997
30
0
41
1
10
111.724267891604
20
-1.93353591035142
30
0
41
1
10
113.362133945802
20
-0.977559578363952
30
0
41
1
10
115
20
1.137E-13
30
0
0
SPLINE
5
10D
100
AcDbEntity
8
1
62
256
6
ByLayer
370
13
48
1
60
0
100
AcDbSpline
70
4
71
3
72
8
73
4
40
0
40
0
40
0
40
0
40
1
40
1
40
1
40
1
41
1
10
110.086401837406
20
10.9755134502356
30
0
41
1
10
111.724267891604
20
7.30413445358425
30
0
41
1
10
113.362133945802
20
3.64558585761253
30
0
41
1
10
115
20
-3.979E-13
30
0
0
SPLINE
5
10E
100
AcDbEntity
8
1
62
256
6
ByLayer
370
13
48
1
60
0
100
AcDbSpline
70
4
71
3
72
8
73
4
40
0
40
0
40
0
40
0
40
1
40
1
40
1
40
1
41
1
10
110.086401837406
20
0.734022512545579
30
0
41
1
10
111.724267891604
20
0.467269858019847
30
0
41
1
10
113.362133945802
20
0.222592822379994
30
0
41
1
10
115
20
-2.84E-14
30
0
0
SPLINE
5
10F
100
AcDbEntity
8
1
62
256
6
ByLayer
370
13
48
1
60
0
100
AcDbSpline
70
4
71
3
72
8
73
4
40
0
40
0
40
0
40
0
40
1
40
1
40
1
40
1
41
1
10
110.086401837406
20
1.5503861179279
30
0
41
1
10
111.724267891604
20
1.05555564067285
30
0
41
1
10
113.362133945802
20
0.538753941047332
30
0
41
1
10
115
20
-2.84E-14
30
0
0
SPLINE
5
110
100
AcDbEntity
8
1
62
256
6
ByLayer
370
13
48
1
60
0
100
AcDbSpline
70
4
71
3
72
8
73
4
40
0
40
0
40
0
40
0
40
1
40
1
40
1
40
1
41
1
10
110.086401837406
20
-0.861799081399312
30
0
41
1
10
111.724267891604
20
-0.552466628501492
30
0
41
1
10
113.362133945802
20
-0.265196889033803
30
0
41
1
10
115
20
0
30
0
0
SPLINE
5
111
100
AcDbEntity
8
1
62
256
6
ByLayer
370
13
48
1
60
0
100
AcDbSpline
70
4
71
3
72
8
73
4
40
0
40
0
40
0
40
0
40
1
40
1
40
1
40
1
41
1
10
110.086401837406
20
-12.2538201436319
30
0
41
1
10
111.724267891604
20
-8.15993467692866
30
0
41
1
10
113.362133945802
20
-4.07527869157803
30
0
41
1
10
115
20
-1.137E-13
30
0
0
SPLINE
5
112
100
AcDbEntity
8
1
62
256
6
ByLayer
370
13
48
1
60
0
100
AcDbSpline
70
4
71
3
72
8
73
4
40
0
40
0
40
0
40
0
40
1
40
1
40
1
40
1
41
1
10
110.086401837406
20
5.0520766876063
30
0
41
1
10
111.724267891604
20
3.38855564609418
30
0
41
1
10
113.362133945802
20
1.70450967200054
30
0
41
1
10
115
20
-8.53E-14
30
0
0
SPLINE
5
113
100
AcDbEntity
8
1
62
256
6
ByLayer
370
13
48
1
60
0
100
AcDbSpline
70
4
71
3
72
8
73
4
40
0
40
0
40
0
40
0
40
1
40
1
40
1
40
1
41
1
10
110.086401837406
20
12.9272104525723
30
0
41
1
10
111.724267891604
20
8.62451268053738
30
0
41
1
10
113.362133945802
20
4.31539048623955
30
0
41
1
10
115
20
-2.84E-14
30
0
0
SPLINE
5
114
100
AcDbEntity
8
1
62
256
6
ByLayer
370
13
48
1
60
0
100
AcDbSpline
70
4
71
3
72
8
73
4
40
0
40
0
40
0
40
0
40
1
40
1
40
1
40
1
41
1
10
110.086401837406
20
-13.4619542048602
30
0
41
1
10
111.724267891604
20
-8.97297728550086
30
0
41
1
10
113.362133945802
20
-4.48560505433525
30
0
41
1
10
115
20
5.116E-13
30
0
0
SPLINE
5
115
100
AcDbEntity
8
1
62
256
6
ByLayer
370
13
48
1
60
0
100
AcDbSpline
70
4
71
3
72
8
73
4
40
0
40
0
40
0
40
0
40
1
40
1
40
1
40
1
41
1
10
110.086401837406
20
-10.8216990189522
30
0
41
1
10
111.724267891604
20
-7.22768520818386
30
0
41
1
10
113.362133945802
20
-3.62040860324225
30
0
41
1
10
115
20
-5.969E-13
30
0
0
SPLINE
5
116
100
AcDbEntity
8
1
62
256
6
ByLayer
370
13
48
1
60
0
100
AcDbSpline
70
4
71
3
72
8
73
4
40
0
40
0
40
0
40
0
40
1
40
1
40
1
40
1
41
1
10
110.086401837406
20
-13.2483820745546
30
0
41
1
10
111.724267891604
20
-8.83650382593456
30
0
41
1
10
113.362133945802
20
-4.42032314049078
30
0
41
1
10
115
20
-1.137E-13
30
0
0
SPLINE
5
117
100
AcDbEntity
8
1
62
256
6
ByLayer
370
13
48
1
60
0
100
AcDbSpline
70
4
71
3
72
8
73
4
40
0
40
0
40
0
40
0
40
1
40
1
40
1
40
1
41
1
10
110.086401837406
20
-12.5749085075732
30
0
41
1
10
111.724267891604
20
-8.39131652471875
30
0
41
1
10
113.362133945802
20
-4.19962972298785
30
0
41
1
10
115
20
-1.137E-13
30
0
0
SPLINE
5
118
100
AcDbEntity
8
1
62
256
6
ByLayer
370
13
48
1
60
0
100
AcDbSpline
70
4
71
3
72
8
73
4
40
0
40
0
40
0
40
0
40
1
40
1
40
1
40
1
41
1
10
110.086401837406
20
2.7426878928317
30
0
41
1
10
111.724267891604
20
1.85010866080268
30
0
41
1
10
113.362133945802
20
0.935868239773299
30
0
41
1
10
115
20
2.84E-14
30
0
0
SPLINE
5
119
100
AcDbEntity
8
1
62
256
6
ByLayer
370
13
48
1
60
0
100
AcDbSpline
70
4
71
3
72
8
73
4
40
0
40
0
40
0
40
0
40
1
40
1
40
1
40
1
41
1
10
110.086401837406
20
13.0338513217811
30
0
41
1
10
111.724267891604
20
8.68347397216584
30
0
41
1
10
113.362133945802
20
4.33880444117327
30
0
41
1
10
115
20
-4.832E-13
30
0
0
SPLINE
5
11A
100
AcDbEntity
8
1
62
256
6
ByLayer
370
13
48
1
60
0
100
AcDbSpline
70
4
71
3
72
8
73
4
40
0
40
0
40
0
40
0
40
1
40
1
40
1
40
1
41
1
10
110.086401837406
20
1.93578883188565
30
0
41
1
10
111.724267891604
20
1.26864319313481
30
0
41
1
10
113.362133945802
20
0.623372547806611
30
0
41
1
10
115
20
-5.68E-14
30
0
0
SPLINE
5
11B
100
AcDbEntity
8
1
62
256
6
ByLayer
370
13
48
1
60
0
100
AcDbSpline
70
4
71
3
72
8
73
4
40
0
40
0
40
0
40
0
40
1
40
1
40
1
40
1
41
1
10
110.086401837406
20
-5.17054769046538
30
0
41
1
10
111.724267891604
20
-3.46745693796709
30
0
41
1
10
113.362133945802
20
-1.74392015319103
30
0
41
1
10
115
20
1.99E-13
30
0
0
SPLINE
5
11C
100
AcDbEntity
8
1
62
256
6
ByLayer
370
13
48
1
60
0
100
AcDbSpline
70
4
71
3
72
8
73
4
40
0
40
0
40
0
40
0
40
1
40
1
40
1
40
1
41
1
10
110.086401837406
20
-12.0856627696955
30
0
41
1
10
111.724267891604
20
-8.06696116651256
30
0
41
1
10
113.362133945802
20
-4.03835823880624
30
0
41
1
10
115
20
-1.137E-13
30
0
0
SPLINE
5
11D
100
AcDbEntity
8
1
62
256
6
ByLayer
370
13
48
1
60
0
100
AcDbSpline
70
4
71
3
72
8
73
4
40
0
40
0
40
0
40
0
40
1
40
1
40
1
40
1
41
1
10
110.086401837406
20
-13.0666107747458
30
0
41
1
10
111.724267891604
20
-8.70551627251263
30
0
41
1
10
113.362133945802
20
-4.34992679122928
30
0
41
1
10
115
20
-7.105E-13
30
0
0
SPLINE
5
11E
100
AcDbEntity
8
1
62
256
6
ByLayer
370
13
48
1
60
0
100
AcDbSpline
70
4
71
3
72
8
73
4
40
0
40
0
40
0
40
0
40
1
40
1
40
1
40
1
41
1
10
110.086401837406
20
3.12206319134452
30
0
41
1
10
111.724267891604
20
2.05986368041437
30
0
41
1
10
113.362133945802
20
1.01916347365827
30
0
41
1
10
115
20
-1.137E-13
30
0
0
SPLINE
5
11F
100
AcDbEntity
8
1
62
256
6
ByLayer
370
13
48
1
60
0
100
AcDbSpline
70
4
71
3
72
8
73
4
40
0
40
0
40
0
40
0
40
1
40
1
40
1
40
1
41
1
10
110.086401837406
20
12.5277764897769
30
0
41
1
10
111.724267891604
20
8.36009009701166
30
0
41
1
10
113.362133945802
20
4.18411415674964
30
0
41
1
10
115
20
-1.137E-13
30
0
0
SPLINE
5
120
100
AcDbEntity
8
1
62
256
6
ByLayer
370
13
48
1
60
0
100
AcDbSpline
70
4
71
3
72
8
73
4
40
0
40
0
40
0
40
0
40
1
40
1
40
1
40
1
41
1
10
110.086401837406
20
-12.7110783198828
30
0
41
1
10
111.724267891604
20
-8.46660424577905
30
0
41
1
10
113.362133945802
20
-4.22952702101708
30
0
41
1
10
115
20
-7.105E-13
30
0
0
SPLINE
5
121
100
AcDbEntity
8
1
62
256
6
ByLayer
370
13
48
1
60
0
100
AcDbSpline
70
4
71
3
72
8
73
4
40
0
40
0
40
0
40
0
40
1
40
1
40
1
40
1
41
1
10
110.086401837406
20
-11.0495490430457
30
0
41
1
10
111.724267891604
20
-7.35366253580529
30
0
41
1
10
113.362133945802
20
-3.67043511029704
30
0
41
1
10
115
20
-8.53E-14
30
0
0
SPLINE
5
122
100
AcDbEntity
8
1
62
256
6
ByLayer
370
13
48
1
60
0
100
AcDbSpline
70
4
71
3
72
8
73
4
40
0
40
0
40
0
40
0
40
1
40
1
40
1
40
1
41
1
10
110.086401837406
20
-6.26434764626151
30
0
41
1
10
111.724267891604
20
-4.19581833784375
30
0
41
1
10
113.362133945802
20
-2.10767716983528
30
0
41
1
10
115
20
2.274E-13
30
0
0
SPLINE
5
123
100
AcDbEntity
8
1
62
256
6
ByLayer
370
13
48
1
60
0
100
AcDbSpline
70
4
71
3
72
8
73
4
40
0
40
0
40
0
40
0
40
1
40
1
40
1
40
1
41
1
10
110.086401837406
20
7.20006362318179
30
0
41
1
10
111.724267891604
20
4.81874632113994
30
0
41
1
10
113.362133945802
20
2.41869606581596
30
0
41
1
10
115
20
5.68E-14
30
0
0
SPLINE
5
124
100
AcDbEntity
8
1
62
256
6
ByLayer
370
13
48
1
60
0
100
AcDbSpline
70
4
71
3
72
8
73
4
40
0
40
0
40
0
40
0
40
1
40
1
40
1
40
1
41
1
10
110.086401837406
20
-2.06237798473117
30
0
41
1
10
111.724267891604
20
-1.35306700669003
30
0
41
1
10
113.362133945802
20
-0.665599467573031
30
0
41
1
10
115
20
-2.84E-14
30
0
0
SPLINE
5
125
100
AcDbEntity
8
1
62
256
6
ByLayer
370
13
48
1
60
0
100
AcDbSpline
70
4
71
3
72
8
73
4
40
0
40
0
40
0
40
0
40
1
40
1
40
1
40
1
41
1
10
110.086401837406
20
5.41036136131407
30
0
41
1
10
111.724267891604
20
3.58664974725124
30
0
41
1
10
113.362133945802
20
1.78317427091025
30
0
41
1
10
115.000000000001
20
-6.821E-13
30
0
0
SPLINE
5
126
100
AcDbEntity
8
1
62
256
6
ByLayer
370
13
48
1
60
0
100
AcDbSpline
70
4
71
3
72
8
73
4
40
0
40
0
40
0
40
0
40
1
40
1
40
1
40
1
41
1
10
110.086401837406
20
8.19182386776862
30
0
41
1
10
111.724267891604
20
5.47879106341651
30
0
41
1
10
113.362133945802
20
2.74815007369512
30
0
41
1
10
115
20
-1.137E-13
30
0
0
SPLINE
5
127
100
AcDbEntity
8
1
62
256
6
ByLayer
370
13
48
1
60
0
100
AcDbSpline
70
4
71
3
72
8
73
4
40
0
40
0
40
0
40
0
40
1
40
1
40
1
40
1
41
1
10
110.086401837406
20
13.2960021789543
30
0
41
1
10
111.724267891604
20
8.86017209305919
30
0
41
1
10
113.362133945802
20
4.42811788037042
30
0
41
1
10
115
20
-5.116E-13
30
0
0
SPLINE
5
128
100
AcDbEntity
8
1
62
256
6
ByLayer
370
13
48
1
60
0
100
AcDbSpline
70
4
71
3
72
8
73
4
40
0
40
0
40
0
40
0
40
1
40
1
40
1
40
1
41
1
10
110.086401837406
20
-7.6317375784092
30
0
41
1
10
111.724267891604
20
-5.06958606376239
30
0
41
1
10
113.362133945802
20
-2.52564290167123
30
0
41
1
10
115
20
-5.68E-14
30
0
0
SPLINE
5
129
100
AcDbEntity
8
1
62
256
6
ByLayer
370
13
48
1
60
0
100
AcDbSpline
70
4
71
3
72
8
73
4
40
0
40
0
40
0
40
0
40
1
40
1
40
1
40
1
41
1
10
110.086401837406
20
-11.4996964599861
30
0
41
1
10
111.724267891604
20
-7.67804657710491
30
0
41
1
10
113.362133945802
20
-3.84476810354474
30
0
41
1
10
115
20
4.263E-13
30
0
0
SPLINE
5
12A
100
AcDbEntity
8
1
62
256
6
ByLayer
370
13
48
1
60
0
100
AcDbSpline
70
4
71
3
72
8
73
4
40
0
40
0
40
0
40
0
40
1
40
1
40
1
40
1
41
1
10
110.086401837406
20
6.49407210850845
30
0
41
1
10
111.724267891604
20
4.30999658264369
30
0
41
1
10
113.362133945802
20
2.14527982631517
30
0
41
1
10
115
20
-2.274E-13
30
0
0
SPLINE
5
12B
100
AcDbEntity
8
1
62
256
6
ByLayer
370
13
48
1
60
0
100
AcDbSpline
70
4
71
3
72
8
73
4
40
0
40
0
40
0
40
0
40
1
40
1
40
1
40
1
41
1
10
110.086401837406
20
9.11802561515637
30
0
41
1
10
111.724267891604
20
6.09498948839158
30
0
41
1
10
113.362133945802
20
3.0556108610393
30
0
41
1
10
115
20
-2.84E-14
30
0
0
SPLINE
5
12C
100
AcDbEntity
8
1
62
256
6
ByLayer
370
13
48
1
60
0
100
AcDbSpline
70
4
71
3
72
8
73
4
40
0
40
0
40
0
40
0
40
1
40
1
40
1
40
1
41
1
10
110.086401837406
20
7.52581132713868
30
0
41
1
10
111.724267891604
20
4.99885086748168
30
0
41
1
10
113.362133945802
20
2.49021688252409
30
0
41
1
10
115
20
-2.842E-13
30
0
0
SPLINE
5
12D
100
AcDbEntity
8
1
62
256
6
ByLayer
370
13
48
1
60
0
100
AcDbSpline
70
4
71
3
72
8
73
4
40
0
40
0
40
0
40
0
40
1
40
1
40
1
40
1
41
1
10
110.086401837406
20
-5.52738817856925
30
0
41
1
10
111.724267891604
20
-3.66475255492983
30
0
41
1
10
113.362133945802
20
-1.82226766825812
30
0
41
1
10
115
20
-5.68E-14
30
0
0
SPLINE
5
12E
100
AcDbEntity
8
1
62
256
6
ByLayer
370
13
48
1
60
0
100
AcDbSpline
70
4
71
3
72
8
73
4
40
0
40
0
40
0
40
0
40
1
40
1
40
1
40
1
41
1
10
110.086401837406
20
-10.3121738019479
30
0
41
1
10
111.724267891604
20
-6.86051249361071
30
0
41
1
10
113.362133945802
20
-3.42307978856274
30
0
41
1
10
115
20
-8.53E-14
30
0
0
SPLINE
5
12F
100
AcDbEntity
8
1
62
256
6
ByLayer
370
13
48
1
60
0
100
AcDbSpline
70
4
71
3
72
8
73
4
40
0
40
0
40
0
40
0
40
1
40
1
40
1
40
1
41
1
10
110.086401837406
20
-6.6059965036668
30
0
41
1
10
111.724267891604
20
-4.38471456558003
30
0
41
1
10
113.362133945802
20
-2.18268922675028
30
0
41
1
10
115
20
-5.68E-14
30
0
0
SPLINE
5
130
100
AcDbEntity
8
1
62
256
6
ByLayer
370
13
48
1
60
0
100
AcDbSpline
70
4
71
3
72
8
73
4
40
0
40
0
40
0
40
0
40
1
40
1
40
1
40
1
41
1
10
110.086401837406
20
12.0280837551655
30
0
41
1
10
111.724267891604
20
8.02876239540046
30
0
41
1
10
113.362133945802
20
4.01935270347622
30
0
41
1
10
115
20
-2.84E-14
30
0
0
SPLINE
5
131
100
AcDbEntity
8
1
62
256
6
ByLayer
370
13
48
1
60
0
100
AcDbSpline
70
4
71
3
72
8
73
4
40
0
40
0
40
0
40
0
40
1
40
1
40
1
40
1
41
1
10
110.086401837406
20
12.1995558124514
30
0
41
1
10
111.724267891604
20
8.12356858040997
30
0
41
1
10
113.362133945802
20
4.05700092457096
30
0
41
1
10
115
20
-4.547E-13
30
0
0
SPLINE
5
132
100
AcDbEntity
8
1
62
256
6
ByLayer
370
13
48
1
60
0
100
AcDbSpline
70
4
71
3
72
8
73
4
40
0
40
0
40
0
40
0
40
1
40
1
40
1
40
1
41
1
10
110.086401837406
20
6.15068185761342
30
0
41
1
10
111.724267891604
20
4.12013754571302
30
0
41
1
10
113.362133945802
20
2.06988543091251
30
0
41
1
10
115
20
5.68E-14
30
0
0
SPLINE
5
133
100
AcDbEntity
8
1
62
256
6
ByLayer
370
13
48
1
60
0
100
AcDbSpline
70
4
71
3
72
8
73
4
40
0
40
0
40
0
40
0
40
1
40
1
40
1
40
1
41
1
10
110.086401837406
20
11.4321312488717
30
0
41
1
10
111.724267891604
20
7.63318116423255
30
0
41
1
10
113.362133945802
20
3.82242469886981
30
0
41
1
10
115
20
-2.84E-14
30
0
0
SPLINE
5
134
100
AcDbEntity
8
1
62
256
6
ByLayer
370
13
48
1
60
0
100
AcDbSpline
70
4
71
3
72
8
73
4
40
0
40
0
40
0
40
0
40
1
40
1
40
1
40
1
41
1
10
110.086401837406
20
13.4517462168798
30
0
41
1
10
111.724267891604
20
8.96596298050588
30
0
41
1
10
113.362133945802
20
4.48199345391723
30
0
41
1
10
115
20
-5.116E-13
30
0
0
SPLINE
5
135
100
AcDbEntity
8
1
62
256
6
ByLayer
370
13
48
1
60
0
100
AcDbSpline
70
4
71
3
72
8
73
4
40
0
40
0
40
0
40
0
40
1
40
1
40
1
40
1
41
1
10
110.086401837406
20
10.2291028038516
30
0
41
1
10
111.724267891604
20
6.80497232917585
30
0
41
1
10
113.362133945802
20
3.39523029173768
30
0
41
1
10
115
20
-3.695E-13
30
0
0
SPLINE
5
136
100
AcDbEntity
8
1
62
256
6
ByLayer
370
13
48
1
60
0
100
AcDbSpline
70
4
71
3
72
8
73
4
40
0
40
0
40
0
40
0
40
1
40
1
40
1
40
1
41
1
10
110.086401837406
20
4.2833519341338
30
0
41
1
10
111.724267891604
20
2.83459924693605
30
0
41
1
10
113.362133945802
20
1.40679811748879
30
0
41
1
10
115
20
-1.705E-13
30
0
0
SPLINE
5
137
100
AcDbEntity
8
1
62
256
6
ByLayer
370
13
48
1
60
0
100
AcDbSpline
70
4
71
3
72
8
73
4
40
0
40
0
40
0
40
0
40
1
40
1
40
1
40
1
41
1
10
110.086401837406
20
-4.03536826389998
30
0
41
1
10
111.724267891604
20
-2.71134576348285
30
0
41
1
10
113.362133945802
20
-1.36620668602686
30
0
41
1
10
115
20
1.421E-13
30
0
0
SPLINE
5
138
100
AcDbEntity
8
1
62
256
6
ByLayer
370
13
48
1
60
0
100
AcDbSpline
70
4
71
3
72
8
73
4
40
0
40
0
40
0
40
0
40
1
40
1
40
1
40
1
41
1
10
110.086401837406
20
-11.698495645823
30
0
41
1
10
111.724267891604
20
-7.78796181746856
30
0
41
1
10
113.362133945802
20
-3.88841623969248
30
0
41
1
10
115
20
-1.137E-13
30
0
0
SPLINE
5
139
100
AcDbEntity
8
1
62
256
6
ByLayer
370
13
48
1
60
0
100
AcDbSpline
70
4
71
3
72
8
73
4
40
0
40
0
40
0
40
0
40
1
40
1
40
1
40
1
41
1
10
110.086401837406
20
0.345676729578003
30
0
41
1
10
111.724267891604
20
0.252555094982256
30
0
41
1
10
113.362133945802
20
0.137328038543643
30
0
41
1
10
115
20
0
30
0
0
SPLINE
5
13A
100
AcDbEntity
8
1
62
256
6
ByLayer
370
13
48
1
60
0
100
AcDbSpline
70
4
71
3
72
8
73
4
40
0
40
0
40
0
40
0
40
1
40
1
40
1
40
1
41
1
10
110.086401837406
20
-7.30801453959802
30
0
41
1
10
111.724267891604
20
-4.89060094633166
30
0
41
1
10
113.362133945802
20
-2.45456661827183
30
0
41
1
10
115
20
2.842E-13
30
0
0
SPLINE
5
13B
100
AcDbEntity
8
1
62
256
6
ByLayer
370
13
48
1
60
0
100
AcDbSpline
70
4
71
3
72
8
73
4
40
0
40
0
40
0
40
0
40
1
40
1
40
1
40
1
41
1
10
110.086401837406
20
9.97125654842495
30
0
41
1
10
111.724267891604
20
6.66241021040898
30
0
41
1
10
113.362133945802
20
3.33861784428456
30
0
41
1
10
115
20
-2.84E-14
30
0
0
SPLINE
5
13C
100
AcDbEntity
8
1
62
256
6
ByLayer
370
13
48
1
60
0
100
AcDbSpline
70
4
71
3
72
8
73
4
40
0
40
0
40
0
40
0
40
1
40
1
40
1
40
1
41
1
10
110.086401837406
20
-12.9635182799468
30
0
41
1
10
111.724267891604
20
-8.64851686228943
30
0
41
1
10
113.362133945802
20
-4.32729191357674
30
0
41
1
10
115
20
-1.137E-13
30
0
0
SPLINE
5
13D
100
AcDbEntity
8
1
62
256
6
ByLayer
370
13
48
1
60
0
100
AcDbSpline
70
4
71
3
72
8
73
4
40
0
40
0
40
0
40
0
40
1
40
1
40
1
40
1
41
1
10
110.086401837406
20
12.667391617254
30
0
41
1
10
111.724267891604
20
8.43728271845231
30
0
41
1
10
113.362133945802
20
4.21476790448338
30
0
41
1
10
115
20
-4.832E-13
30
0
0
SPLINE
5
13E
100
AcDbEntity
8
1
62
256
6
ByLayer
370
13
48
1
60
0
100
AcDbSpline
70
4
71
3
72
8
73
4
40
0
40
0
40
0
40
0
40
1
40
1
40
1
40
1
41
1
10
110.086401837406
20
-9.21200766956849
30
0
41
1
10
111.724267891604
20
-6.15750186217227
30
0
41
1
10
113.362133945802
20
-3.08679550574766
30
0
41
1
10
115
20
-8.53E-14
30
0
0
SPLINE
5
13F
100
AcDbEntity
8
1
62
256
6
ByLayer
370
13
48
1
60
0
100
AcDbSpline
70
4
71
3
72
8
73
4
40
0
40
0
40
0
40
0
40
1
40
1
40
1
40
1
41
1
10
110.086401837406
20
-9.49227107634545
30
0
41
1
10
111.724267891604
20
-6.31245833038565
30
0
41
1
10
113.362133945802
20
-3.14832983892228
30
0
41
1
10
115
20
-8.53E-14
30
0
0
SPLINE
5
140
100
AcDbEntity
8
1
62
256
6
ByLayer
370
13
48
1
60
0
100
AcDbSpline
70
4
71
3
72
8
73
4
40
0
40
0
40
0
40
0
40
1
40
1
40
1
40
1
41
1
10
110.086401837406
20
-13.3175722110292
30
0
41
1
10
111.724267891604
20
-8.87475876369683
30
0
41
1
10
113.362133945802
20
-4.43551445268946
30
0
41
1
10
115
20
-1.137E-13
30
0
0
SPLINE
5
141
100
AcDbEntity
8
1
62
256
6
ByLayer
370
13
48
1
60
0
100
AcDbSpline
70
4
71
3
72
8
73
4
40
0
40
0
40
0
40
0
40
1
40
1
40
1
40
1
41
1
10
110.086401837406
20
-13.42722014972
30
0
41
1
10
111.724267891604
20
-8.95377297134146
30
0
41
1
10
113.362133945802
20
-4.47797888242133
30
0
41
1
10
115
20
-7.39E-13
30
0
0
SPLINE
5
142
100
AcDbEntity
8
1
62
256
6
ByLayer
370
13
48
1
60
0
100
AcDbSpline
70
4
71
3
72
8
73
4
40
0
40
0
40
0
40
0
40
1
40
1
40
1
40
1
41
1
10
110.086401837406
20
10.7446883301184
30
0
41
1
10
111.724267891604
20
7.17651220778481
30
0
41
1
10
113.362133945802
20
3.5949061416637
30
0
41
1
10
115
20
-2.84E-14
30
0
0
SPLINE
5
143
100
AcDbEntity
8
1
62
256
6
ByLayer
370
13
48
1
60
0
100
AcDbSpline
70
4
71
3
72
8
73
4
40
0
40
0
40
0
40
0
40
1
40
1
40
1
40
1
41
1
10
110.086401837406
20
9.40082948337448
30
0
41
1
10
111.724267891604
20
6.25135056713569
30
0
41
1
10
113.362133945802
20
3.11770297520459
30
0
41
1
10
115
20
-3.411E-13
30
0
0
SPLINE
5
144
100
AcDbEntity
8
1
62
256
6
ByLayer
370
13
48
1
60
0
100
AcDbSpline
70
4
71
3
72
8
73
4
40
0
40
0
40
0
40
0
40
1
40
1
40
1
40
1
41
1
10
110.086401837406
20
13.4133434584102
30
0
41
1
10
111.724267891604
20
8.9447302555829
30
0
41
1
10
113.362133945802
20
4.47356178543222
30
0
41
1
10
115
20
-2.84E-14
30
0
0
SPLINE
5
145
100
AcDbEntity
8
1
62
256
6
ByLayer
370
13
48
1
60
0
100
AcDbSpline
70
4
71
3
72
8
73
4
40
0
40
0
40
0
40
0
40
1
40
1
40
1
40
1
41
1
10
110.086401837406
20
-4.40454461742755
30
0
41
1
10
111.724267891604
20
-2.91546182896715
30
0
41
1
10
113.362133945802
20
-1.44726265048339
30
0
41
1
10
115
20
-2.84E-14
30
0
0
SPLINE
5
146
100
AcDbEntity
8
1
62
256
6
ByLayer
370
13
48
1
60
0
100
AcDbSpline
70
4
71
3
72
8
73
4
40
0
40
0
40
0
40
0
40
1
40
1
40
1
40
1
41
1
10
110.086401837406
20
-8.29319598958739
30
0
41
1
10
111.724267891604
20
-5.54624447497369
30
0
41
1
10
113.362133945802
20
-2.78181237058314
30
0
41
1
10
115
20
3.126E-13
30
0
0
SPLINE
5
147
100
AcDbEntity
8
1
62
256
6
ByLayer
370
13
48
1
60
0
100
AcDbSpline
70
4
71
3
72
8
73
4
40
0
40
0
40
0
40
0
40
1
40
1
40
1
40
1
41
1
10
110.086401837406
20
11.6340879591
30
0
41
1
10
111.724267891604
20
7.74484218665731
30
0
41
1
10
113.362133945802
20
3.86676609768776
30
0
41
1
10
115
20
-4.263E-13
30
0
0
SPLINE
5
148
100
AcDbEntity
8
1
62
256
6
ByLayer
370
13
48
1
60
0
100
AcDbSpline
70
4
71
3
72
8
73
4
40
0
40
0
40
0
40
0
40
1
40
1
40
1
40
1
41
1
10
110.086401837406
20
3.9130401605876
30
0
41
1
10
111.724267891604
20
2.62985541246101
30
0
41
1
10
113.362133945802
20
1.32549286143023
30
0
41
1
10
115
20
2.84E-14
30
0
0
SPLINE
5
149
100
AcDbEntity
8
1
62
256
6
ByLayer
370
13
48
1
60
0
100
AcDbSpline
70
4
71
3
72
8
73
4
40
0
40
0
40
0
40
0
40
1
40
1
40
1
40
1
41
1
10
110.086401837406
20
-1.67746844334627
30
0
41
1
10
111.724267891604
20
-1.14025212728583
30
0
41
1
10
113.362133945802
20
-0.581089141255148
30
0
41
1
10
115
20
5.68E-14
30
0
0
SPLINE
5
14A
100
AcDbEntity
8
1
62
256
6
ByLayer
370
13
48
1
60
0
100
AcDbSpline
70
4
71
3
72
8
73
4
40
0
40
0
40
0
40
0
40
1
40
1
40
1
40
1
41
1
10
110.086401837406
20
-10.0570964047267
30
0
41
1
10
111.724267891604
20
-6.71948126499268
30
0
41
1
10
113.362133945802
20
-3.36707526864936
30
0
41
1
10
115
20
-5.684E-13
30
0
0
SPLINE
5
14B
100
AcDbEntity
8
1
62
256
6
ByLayer
370
13
48
1
60
0
100
AcDbSpline
70
4
71
3
72
8
73
4
40
0
40
0
40
0
40
0
40
1
40
1
40
1
40
1
41
1
10
110.086401837406
20
13.4961520187206
30
0
41
1
10
111.724267891604
20
8.99796257200921
30
0
41
1
10
113.362133945802
20
4.49919092314912
30
0
41
1
10
115
20
0
30
0
0
SPLINE
5
14C
100
AcDbEntity
8
1
62
256
6
ByLayer
370
13
48
1
60
0
100
AcDbSpline
70
4
71
3
72
8
73
4
40
0
40
0
40
0
40
0
40
1
40
1
40
1
40
1
41
1
10
110.086401837406
20
8.49732209252392
30
0
41
1
10
111.724267891604
20
5.64769975719832
30
0
41
1
10
113.362133945802
20
2.81522493645548
30
0
41
1
10
115
20
-3.126E-13
30
0
0
SPLINE
5
14D
100
AcDbEntity
8
1
62
256
6
ByLayer
370
13
48
1
60
0
100
AcDbSpline
70
4
71
3
72
8
73
4
40
0
40
0
40
0
40
0
40
1
40
1
40
1
40
1
41
1
10
110.086401837406
20
-3.24645184553304
30
0
41
1
10
111.724267891604
20
-2.14283890016012
30
0
41
1
10
113.362133945802
20
-1.06067530794809
30
0
41
1
10
115
20
-2.84E-14
30
0
0
SPLINE
5
14E
100
AcDbEntity
8
1
62
256
6
ByLayer
370
13
48
1
60
0
100
AcDbSpline
70
4
71
3
72
8
73
4
40
0
40
0
40
0
40
0
40
1
40
1
40
1
40
1
41
1
10
110.086401837406
20
13.2231890061785
30
0
41
1
10
111.724267891604
20
8.81991399364307
30
0
41
1
10
113.362133945802
20
4.41213109820524
30
0
41
1
10
115
20
-2.84E-14
30
0
0
LINE
5
7D
100
AcDbEntity
8
80
62
256
6
ByLayer
370
18
48
1
60
0
100
AcDbLine
10
0
20
0
30
0
11
-5
21
0
31
0
39
0
210
0
220
0
230
1
0
LINE
5
7E
100
AcDbEntity
8
4
62
256
6
ByLayer
370
18
48
0.05
60
0
100
AcDbLine
10
-5
20
0
30
0
11
120
21
0
31
0
39
0
210
0
220
0
230
1
0
LINE
5
80
100
AcDbEntity
8
81
62
256
6
ByLayer
370
18
48
1
60
0
100
AcDbLine
10
115
20
0
30
0
11
120
21
0
31
0
39
0
210
0
220
0
230
1
0
LINE
5
81
100
AcDbEntity
8
SK4
62
256
6
ByLayer
370
18
48
0.05
60
0
100
AcDbLine
10
-65
20
0
30
0
11
120
21
0
31
0
39
0
210
0
220
0
230
1
0
LINE
5
83
100
AcDbEntity
8
1
62
256
6
ByLayer
370
18
48
1
60
0
100
AcDbLine
10
10
20
-13.2
30
0
11
46.197373
21
-13.2
31
0
39
0
210
0
220
0
230
1
0
LINE
5
84
100
AcDbEntity
8
1
62
256
6
ByLayer
370
18
48
1
60
0
100
AcDbLine
10
46.197373
20
13.2
30
0
11
10
21
13.2
31
0
39
0
210
0
220
0
230
1
0
LINE
5
85
100
AcDbEntity
8
1
62
256
6
ByLayer
370
18
48
1
60
0
100
AcDbLine
10
115
20
0
30
0
11
110.086402
21
13.5
31
0
39
0
210
0
220
0
230
1
0
LINE
5
86
100
AcDbEntity
8
1
62
256
6
ByLayer
370
18
48
1
60
0
100
AcDbLine
10
110.086402
20
-13.5
30
0
11
115
21
0
31
0
39
0
210
0
220
0
230
1
0
LINE
5
87
100
AcDbEntity
8
1
62
256
6
ByLayer
370
18
48
1
60
0
100
AcDbLine
10
10
20
13.2
30
0
11
0
21
16
31
0
39
0
210
0
220
0
230
1
0
LINE
5
88
100
AcDbEntity
8
1
62
256
6
ByLayer
370
18
48
1
60
0
100
AcDbLine
10
0
20
-16
30
0
11
10
21
-13.2
31
0
39
0
210
0
220
0
230
1
0
LINE
5
89
100
AcDbEntity
8
1
62
256
6
ByLayer
370
18
48
1
60
0
100
AcDbLine
10
110.086402
20
13.5
30
0
11
97.9
21
13.5
31
0
39
0
210
0
220
0
230
1
0
LINE
5
8A
100
AcDbEntity
8
1
62
256
6
ByLayer
370
18
48
1
60
0
100
AcDbLine
10
97.9
20
-13.5
30
0
11
110.086402
21
-13.5
31
0
39
0
210
0
220
0
230
1
0
LINE
5
8B
100
AcDbEntity
8
1
62
256
6
ByLayer
370
18
48
1
60
0
100
AcDbLine
10
115
20
0
30
0
11
110.086402
21
13.5
31
0
39
0
210
0
220
0
230
1
0
LINE
5
8C
100
AcDbEntity
8
1
62
256
6
ByLayer
370
18
48
1
60
0
100
AcDbLine
10
110.086402
20
-13.5
30
0
11
115
21
0
31
0
39
0
210
0
220
0
230
1
0
LINE
5
8D
100
AcDbEntity
8
SK1
62
256
6
ByLayer
370
18
48
1
60
0
100
AcDbLine
10
-60
20
-15
30
0
11
-59
21
-16
31
0
39
0
210
0
220
0
230
1
0
LINE
5
8F
100
AcDbEntity
8
SK1
62
256
6
ByLayer
370
18
48
1
60
0
100
AcDbLine
10
-59
20
16
30
0
11
-60
21
15
31
0
39
0
210
0
220
0
230
1
0
LINE
5
90
100
AcDbEntity
8
SK1
62
256
6
ByLayer
370
18
48
1
60
0
100
AcDbLine
10
-59
20
-16
30
0
11
0
21
-16
31
0
39
0
210
0
220
0
230
1
0
LINE
5
91
100
AcDbEntity
8
SK1
62
256
6
ByLayer
370
18
48
1
60
0
100
AcDbLine
10
0
20
16
30
0
11
-59
21
16
31
0
39
0
210
0
220
0
230
1
0
LINE
5
92
100
AcDbEntity
8
1
62
256
6
ByLayer
370
18
48
1
60
0
100
AcDbLine
10
0
20
16
30
0
11
0
21
-16
31
0
39
0
210
0
220
0
230
1
0
LINE
5
93
100
AcDbEntity
8
1
62
256
6
ByLayer
370
18
48
1
60
0
100
AcDbLine
10
110.086402
20
13.5
30
0
11
110.086402
21
13.071317
31
0
39
0
210
0
220
0
230
1
0
LINE
5
94
100
AcDbEntity
8
1
62
256
6
ByLayer
370
18
48
1
60
0
100
AcDbLine
10
110.086402
20
-13.5
30
0
11
110.086402
21
-1.926676
31
0
39
0
210
0
220
0
230
1
0
LINE
5
95
100
AcDbEntity
8
1
62
256
6
ByLayer
370
18
48
1
60
0
100
AcDbLine
10
10
20
-13.2
30
0
11
10
21
-7.05655
31
0
39
0
210
0
220
0
230
1
0
LINE
5
96
100
AcDbEntity
8
1
62
256
6
ByLayer
370
18
48
1
60
0
100
AcDbLine
10
10
20
13.2
30
0
11
10
21
7.988928
31
0
39
0
210
0
220
0
230
1
0
LINE
5
97
100
AcDbEntity
8
SK1
62
256
6
ByLayer
370
13
48
1
60
0
100
AcDbLine
10
-15.198909
20
-8.334638
30
0
11
-15.198909
21
8.334638
31
0
39
0
210
0
220
0
230
1
0
LINE
5
98
100
AcDbEntity
8
SK1
62
256
6
ByLayer
370
13
48
1
60
0
100
AcDbLine
10
-55.486983
20
5.39045
30
0
11
-55.486983
21
-5.39045
31
0
39
0
210
0
220
0
230
1
0
LINE
5
99
100
AcDbEntity
8
SK1
62
256
6
ByLayer
370
18
48
1
60
0
100
AcDbLine
10
-60
20
-15
30
0
11
-60
21
15
31
0
39
0
210
0
220
0
230
1
0
LINE
5
9A
100
AcDbEntity
8
SK1
62
256
6
ByLayer
370
13
48
1
60
0
100
AcDbLine
10
-14.051873
20
7.587342
30
0
11
-14.051873
21
-7.587342
31
0
39
0
210
0
220
0
230
1
0
LINE
5
9B
100
AcDbEntity
8
SK1
62
256
6
ByLayer
370
18
48
1
60
0
100
AcDbLine
10
-59
20
-16
30
0
11
-59
21
16
31
0
39
0
210
0
220
0
230
1
0
LINE
5
9C
100
AcDbEntity
8
SK1
62
256
6
ByLayer
370
18
48
1
60
0
100
AcDbLine
10
0
20
16
30
0
11
0
21
-16
31
0
39
0
210
0
220
0
230
1
0
LINE
5
9D
100
AcDbEntity
8
SK1
62
256
6
ByLayer
370
13
48
1
60
0
100
AcDbLine
10
-56.60131
20
-3.674042
30
0
11
-56.60131
21
3.674042
31
0
39
0
210
0
220
0
230
1
0
LINE
5
9E
100
AcDbEntity
8
1
62
256
6
ByLayer
370
18
48
1
60
0
100
AcDbLine
10
110.086402
20
13.5
30
0
11
110.086402
21
-13.5
31
0
39
0
210
0
220
0
230
1
0
LINE
5
9F
100
AcDbEntity
8
1
62
256
6
ByLayer
370
18
48
1
60
0
100
AcDbLine
10
110.086402
20
13.5
30
0
11
110.086402
21
-13.5
31
0
39
0
210
0
220
0
230
1
0
LINE
5
A0
100
AcDbEntity
8
1
62
256
6
ByLayer
370
18
48
1
60
0
100
AcDbLine
10
110.086402
20
13.5
30
0
11
110.086402
21
-13.5
31
0
39
0
210
0
220
0
230
1
0
LINE
5
A1
100
AcDbEntity
8
1
62
256
6
ByLayer
370
18
48
1
60
0
100
AcDbLine
10
97.9
20
13.5
30
0
11
97.9
21
-13.5
31
0
39
0
210
0
220
0
230
1
0
LINE
5
A2
100
AcDbEntity
8
1
62
256
6
ByLayer
370
18
48
1
60
0
100
AcDbLine
10
97.9
20
13.5
30
0
11
97.9
21
-13.5
31
0
39
0
210
0
220
0
230
1
0
LINE
5
A3
100
AcDbEntity
8
1
62
256
6
ByLayer
370
18
48
1
60
0
100
AcDbLine
10
110.086402
20
13.5
30
0
11
110.086402
21
-13.5
31
0
39
0
210
0
220
0
230
1
0
LINE
5
A4
100
AcDbEntity
8
1
62
256
6
ByLayer
370
18
48
1
60
0
100
AcDbLine
10
97.9
20
13.5
30
0
11
97.9
21
-13.5
31
0
39
0
210
0
220
0
230
1
0
LINE
5
A5
100
AcDbEntity
8
1
62
256
6
ByLayer
370
18
48
1
60
0
100
AcDbLine
10
110.086402
20
13.5
30
0
11
110.086402
21
-13.5
31
0
39
0
210
0
220
0
230
1
0
LINE
5
A6
100
AcDbEntity
8
SK2
62
256
6
ByLayer
370
13
48
1
60
0
100
AcDbLine
10
-66.5
20
-16
30
0
11
-66.5
21
45.024569
31
0
39
0
210
0
220
0
230
1
0
LINE
5
A8
100
AcDbEntity
8
SK2
62
256
6
ByLayer
370
13
48
1
60
0
100
AcDbLine
10
-61.5875
20
16
30
0
11
-68.5
21
16
31
0
39
0
210
0
220
0
230
1
0
LINE
5
A9
100
AcDbEntity
8
SK2
62
256
6
ByLayer
370
13
48
1
60
0
100
AcDbLine
10
-61.5875
20
-16
30
0
11
-68.5
21
-16
31
0
39
0
210
0
220
0
230
1
0
LINE
5
AA
100
AcDbEntity
8
1
62
256
6
ByLayer
370
18
48
1
60
1
100
AcDbLine
10
-66.5
20
16
30
0
11
-66.039216
21
12.500002
31
0
39
0
210
0
220
0
230
1
0
LINE
5
AB
100
AcDbEntity
8
1
62
256
6
ByLayer
370
18
48
1
60
1
100
AcDbLine
10
-66.039216
20
12.500002
30
0
11
-66.960784
21
12.499998
31
0
39
0
210
0
220
0
230
1
0
LINE
5
AC
100
AcDbEntity
8
1
62
256
6
ByLayer
370
18
48
1
60
1
100
AcDbLine
10
-66.960784
20
12.499998
30
0
11
-66.5
21
16
31
0
39
0
210
0
220
0
230
1
0
LINE
5
AD
100
AcDbEntity
8
1
62
256
6
ByLayer
370
18
48
1
60
1
100
AcDbLine
10
-66.5
20
-16
30
0
11
-66.960784
21
-12.500002
31
0
39
0
210
0
220
0
230
1
0
LINE
5
AE
100
AcDbEntity
8
1
62
256
6
ByLayer
370
18
48
1
60
1
100
AcDbLine
10
-66.960784
20
-12.500002
30
0
11
-66.039216
21
-12.499998
31
0
39
0
210
0
220
0
230
1
0
LINE
5
AF
100
AcDbEntity
8
1
62
256
6
ByLayer
370
18
48
1
60
1
100
AcDbLine
10
-66.039216
20
-12.499998
30
0
11
-66.5
21
-16
31
0
39
0
210
0
220
0
230
1
0
LINE
5
B0
100
AcDbEntity
8
2
62
256
6
ByLayer
370
13
48
1
60
0
100
AcDbLine
10
122.5
20
-13.5
30
0
11
122.5
21
42.524569
31
0
39
0
210
0
220
0
230
1
0
LINE
5
B2
100
AcDbEntity
8
2
62
256
6
ByLayer
370
13
48
1
60
0
100
AcDbLine
10
111.673902
20
13.5
30
0
11
124.5
21
13.5
31
0
39
0
210
0
220
0
230
1
0
LINE
5
B3
100
AcDbEntity
8
2
62
256
6
ByLayer
370
13
48
1
60
0
100
AcDbLine
10
111.673902
20
-13.5
30
0
11
124.5
21
-13.5
31
0
39
0
210
0
220
0
230
1
0
LINE
5
B4
100
AcDbEntity
8
1
62
256
6
ByLayer
370
18
48
1
60
1
100
AcDbLine
10
122.5
20
13.5
30
0
11
122.960784
21
10.000002
31
0
39
0
210
0
220
0
230
1
0
LINE
5
B5
100
AcDbEntity
8
1
62
256
6
ByLayer
370
18
48
1
60
1
100
AcDbLine
10
122.960784
20
10.000002
30
0
11
122.039216
21
9.999998
31
0
39
0
210
0
220
0
230
1
0
LINE
5
B6
100
AcDbEntity
8
1
62
256
6
ByLayer
370
18
48
1
60
1
100
AcDbLine
10
122.039216
20
9.999998
30
0
11
122.5
21
13.5
31
0
39
0
210
0
220
0
230
1
0
LINE
5
B7
100
AcDbEntity
8
1
62
256
6
ByLayer
370
18
48
1
60
1
100
AcDbLine
10
122.5
20
-13.5
30
0
11
122.039216
21
-10.000002
31
0
39
0
210
0
220
0
230
1
0
LINE
5
B8
100
AcDbEntity
8
1
62
256
6
ByLayer
370
18
48
1
60
1
100
AcDbLine
10
122.039216
20
-10.000002
30
0
11
122.960784
21
-9.999998
31
0
39
0
210
0
220
0
230
1
0
LINE
5
B9
100
AcDbEntity
8
1
62
256
6
ByLayer
370
18
48
1
60
1
100
AcDbLine
10
122.960784
20
-9.999998
30
0
11
122.5
21
-13.5
31
0
39
0
210
0
220
0
230
1
0
LINE
5
BA
100
AcDbEntity
8
SK2
62
256
6
ByLayer
370
13
48
1
60
0
100
AcDbLine
10
115.542957
20
-1.491762
30
0
11
122.182423
21
-19.733545
31
0
39
0
210
0
220
0
230
1
0
LINE
5
BB
100
AcDbEntity
8
SK2
62
256
6
ByLayer
370
13
48
1
60
0
100
AcDbLine
10
115.542957
20
1.491762
30
0
11
122.182423
21
19.733545
31
0
39
0
210
0
220
0
230
1
0
LINE
5
BC
100
AcDbEntity
8
1
62
256
6
ByLayer
370
18
48
1
60
1
100
AcDbLine
10
121.498383
20
-17.85416
30
0
11
124.551575
21
-16.082064
31
0
39
0
210
0
220
0
230
1
0
LINE
5
BD
100
AcDbEntity
8
1
62
256
6
ByLayer
370
18
48
1
60
1
100
AcDbLine
10
124.551575
20
-16.082064
30
0
11
124.906196
21
-16.93267
31
0
39
0
210
0
220
0
230
1
0
LINE
5
BE
100
AcDbEntity
8
1
62
256
6
ByLayer
370
18
48
1
60
1
100
AcDbLine
10
124.906196
20
-16.93267
30
0
11
121.498383
21
-17.85416
31
0
39
0
210
0
220
0
230
1
0
LINE
5
BF
100
AcDbEntity
8
1
62
256
6
ByLayer
370
18
48
1
60
1
100
AcDbLine
10
121.498383
20
17.85416
30
0
11
124.906193
21
16.932671
31
0
39
0
210
0
220
0
230
1
0
LINE
5
C0
100
AcDbEntity
8
1
62
256
6
ByLayer
370
18
48
1
60
1
100
AcDbLine
10
124.906193
20
16.932671
30
0
11
124.551579
21
16.082063
31
0
39
0
210
0
220
0
230
1
0
LINE
5
C1
100
AcDbEntity
8
1
62
256
6
ByLayer
370
18
48
1
60
1
100
AcDbLine
10
124.551579
20
16.082063
30
0
11
121.498383
21
17.85416
31
0
39
0
210
0
220
0
230
1
0
LINE
5
153
100
AcDbEntity
8
1
62
256
6
ByLayer
370
18
48
1
60
1
100
AcDbLine
10
-66.5
20
16
30
0
11
-66.039216
21
12.500002
31
0
39
0
210
0
220
0
230
1
0
LINE
5
154
100
AcDbEntity
8
1
62
256
6
ByLayer
370
18
48
1
60
1
100
AcDbLine
10
-66.039216
20
12.500002
30
0
11
-66.960784
21
12.499998
31
0
39
0
210
0
220
0
230
1
0
LINE
5
155
100
AcDbEntity
8
1
62
256
6
ByLayer
370
18
48
1
60
1
100
AcDbLine
10
-66.960784
20
12.499998
30
0
11
-66.5
21
16
31
0
39
0
210
0
220
0
230
1
0
LINE
5
157
100
AcDbEntity
8
1
62
256
6
ByLayer
370
18
48
1
60
1
100
AcDbLine
10
-66.5
20
-16
30
0
11
-66.960784
21
-12.500002
31
0
39
0
210
0
220
0
230
1
0
LINE
5
158
100
AcDbEntity
8
1
62
256
6
ByLayer
370
18
48
1
60
1
100
AcDbLine
10
-66.960784
20
-12.500002
30
0
11
-66.039216
21
-12.499998
31
0
39
0
210
0
220
0
230
1
0
LINE
5
159
100
AcDbEntity
8
1
62
256
6
ByLayer
370
18
48
1
60
1
100
AcDbLine
10
-66.039216
20
-12.499998
30
0
11
-66.5
21
-16
31
0
39
0
210
0
220
0
230
1
0
LINE
5
15D
100
AcDbEntity
8
1
62
256
6
ByLayer
370
18
48
1
60
1
100
AcDbLine
10
122.5
20
13.5
30
0
11
122.960784
21
10.000002
31
0
39
0
210
0
220
0
230
1
0
LINE
5
15E
100
AcDbEntity
8
1
62
256
6
ByLayer
370
18
48
1
60
1
100
AcDbLine
10
122.960784
20
10.000002
30
0
11
122.039216
21
9.999998
31
0
39
0
210
0
220
0
230
1
0
LINE
5
15F
100
AcDbEntity
8
1
62
256
6
ByLayer
370
18
48
1
60
1
100
AcDbLine
10
122.039216
20
9.999998
30
0
11
122.5
21
13.5
31
0
39
0
210
0
220
0
230
1
0
LINE
5
161
100
AcDbEntity
8
1
62
256
6
ByLayer
370
18
48
1
60
1
100
AcDbLine
10
122.5
20
-13.5
30
0
11
122.039216
21
-10.000002
31
0
39
0
210
0
220
0
230
1
0
LINE
5
162
100
AcDbEntity
8
1
62
256
6
ByLayer
370
18
48
1
60
1
100
AcDbLine
10
122.039216
20
-10.000002
30
0
11
122.960784
21
-9.999998
31
0
39
0
210
0
220
0
230
1
0
LINE
5
163
100
AcDbEntity
8
1
62
256
6
ByLayer
370
18
48
1
60
1
100
AcDbLine
10
122.960784
20
-9.999998
30
0
11
122.5
21
-13.5
31
0
39
0
210
0
220
0
230
1
0
LINE
5
166
100
AcDbEntity
8
1
62
256
6
ByLayer
370
18
48
1
60
1
100
AcDbLine
10
121.498383
20
-17.85416
30
0
11
124.551575
21
-16.082064
31
0
39
0
210
0
220
0
230
1
0
LINE
5
167
100
AcDbEntity
8
1
62
256
6
ByLayer
370
18
48
1
60
1
100
AcDbLine
10
124.551575
20
-16.082064
30
0
11
124.906196
21
-16.93267
31
0
39
0
210
0
220
0
230
1
0
LINE
5
168
100
AcDbEntity
8
1
62
256
6
ByLayer
370
18
48
1
60
1
100
AcDbLine
10
124.906196
20
-16.93267
30
0
11
121.498383
21
-17.85416
31
0
39
0
210
0
220
0
230
1
0
LINE
5
16A
100
AcDbEntity
8
1
62
256
6
ByLayer
370
18
48
1
60
1
100
AcDbLine
10
121.498383
20
17.85416
30
0
11
124.906193
21
16.932671
31
0
39
0
210
0
220
0
230
1
0
LINE
5
16B
100
AcDbEntity
8
1
62
256
6
ByLayer
370
18
48
1
60
1
100
AcDbLine
10
124.906193
20
16.932671
30
0
11
124.551579
21
16.082063
31
0
39
0
210
0
220
0
230
1
0
LINE
5
16C
100
AcDbEntity
8
1
62
256
6
ByLayer
370
18
48
1
60
1
100
AcDbLine
10
124.551579
20
16.082063
30
0
11
121.498383
21
17.85416
31
0
39
0
210
0
220
0
230
1
0
MTEXT
5
14F
100
AcDbEntity
8
SK2
62
256
6
ByLayer
370
18
48
1
60
0
100
AcDbMText
10
-67.841114
20
27.658438
30
0
210
0
220
0
230
1
1
%%c
40
3
41
0
44
1.084337
50
90
71
7
72
5
7
iso_b_vert
0
MTEXT
5
152
100
AcDbEntity
8
SK2
62
256
6
ByLayer
370
18
48
1
60
0
100
AcDbMText
10
-67.841114
20
33.635
30
0
210
0
220
0
230
1
1
\W0.7513;32.000
40
3
41
0
44
1.084337
50
90
71
7
72
5
7
iso_b_vert
0
MTEXT
5
15B
100
AcDbEntity
8
2
62
256
6
ByLayer
370
18
48
1
60
0
100
AcDbMText
10
121.158886
20
25.158438
30
0
210
0
220
0
230
1
1
%%c
40
3
41
0
44
1.084337
50
90
71
7
72
5
7
iso_b_vert
0
MTEXT
5
15C
100
AcDbEntity
8
2
62
256
6
ByLayer
370
18
48
1
60
0
100
AcDbMText
10
121.158886
20
31.135
30
0
210
0
220
0
230
1
1
\W0.7513;27.000
40
3
41
0
44
1.084337
50
90
71
7
72
5
7
iso_b_vert
0
MTEXT
5
165
100
AcDbEntity
8
SK2
62
256
6
ByLayer
370
18
48
1
60
0
100
AcDbMText
10
134.909114
20
3.734657
30
0
210
0
220
0
230
1
1
\W0.7071;140%%d
40
3
41
0
44
1.084337
50
270
71
7
72
5
7
iso_b_vert
0
MTEXT
5
16E
100
AcDbEntity
8
SK6
62
256
6
ByLayer
370
18
48
1
60
0
100
AcDbMText
10
3.21286
20
-67.114886
30
0
210
0
220
0
230
1
1
\W0.7680;H85327.0
40
3
41
0
44
1.084337
50
0
71
7
72
5
7
iso_b_vert
0
HATCH
5
156
100
AcDbEntity
8
SK2
62
256
6
ByLayer
370
13
48
1
60
0
100
AcDbHatch
10
0
20
0
30
0
210
0
220
0
230
1
2
ANSI31
70
0
71
0
91
1
92
5
93
3
72
1
10
-66.5
20
16
11
-66.0392162584472
21
12.5000016925532
72
1
10
-66.0392162584472
20
12.5000016925532
11
-66.9607837415528
21
12.4999983074468
72
1
10
-66.9607837415528
20
12.4999983074468
11
-66.5
21
16
97
0
75
0
76
1
52
0
41
0.0062
77
0
78
1
53
45
43
0
44
0
45
-0.0139193969876572
46
0.0139193969876572
79
0
47
0
98
1
10
0
20
0
0
HATCH
5
15A
100
AcDbEntity
8
SK2
62
256
6
ByLayer
370
13
48
1
60
0
100
AcDbHatch
10
0
20
0
30
0
210
0
220
0
230
1
2
ANSI31
70
0
71
0
91
1
92
5
93
3
72
1
10
-66.5
20
-16
11
-66.9607837415528
21
-12.5000016925532
72
1
10
-66.9607837415528
20
-12.5000016925532
11
-66.0392162584472
21
-12.4999983074468
72
1
10
-66.0392162584472
20
-12.4999983074468
11
-66.5
21
-16
97
0
75
0
76
1
52
0
41
0.0062
77
0
78
1
53
45
43
0
44
0
45
-0.0139193969876572
46
0.0139193969876572
79
0
47
0
98
1
10
0
20
0
0
HATCH
5
160
100
AcDbEntity
8
2
62
256
6
ByLayer
370
13
48
1
60
0
100
AcDbHatch
10
0
20
0
30
0
210
0
220
0
230
1
2
ANSI31
70
0
71
0
91
1
92
5
93
3
72
1
10
122.5
20
13.5
11
122.960783741553
21
10.0000016925532
72
1
10
122.960783741553
20
10.0000016925532
11
122.039216258447
21
9.99999830744682
72
1
10
122.039216258447
20
9.99999830744682
11
122.5
21
13.5
97
0
75
0
76
1
52
0
41
0.0062
77
0
78
1
53
45
43
0
44
0
45
-0.0139193969876572
46
0.0139193969876572
79
0
47
0
98
1
10
0
20
0
0
HATCH
5
164
100
AcDbEntity
8
2
62
256
6
ByLayer
370
13
48
1
60
0
100
AcDbHatch
10
0
20
0
30
0
210
0
220
0
230
1
2
ANSI31
70
0
71
0
91
1
92
5
93
3
72
1
10
122.5
20
-13.5
11
122.039216258447
21
-10.0000016925532
72
1
10
122.039216258447
20
-10.0000016925532
11
122.960783741553
21
-9.99999830744682
72
1
10
122.960783741553
20
-9.99999830744682
11
122.5
21
-13.5
97
0
75
0
76
1
52
0
41
0.0062
77
0
78
1
53
45
43
0
44
0
45
-0.0139193969876572
46
0.0139193969876572
79
0
47
0
98
1
10
0
20
0
0
HATCH
5
169
100
AcDbEntity
8
SK2
62
256
6
ByLayer
370
13
48
1
60
0
100
AcDbHatch
10
0
20
0
30
0
210
0
220
0
230
1
2
ANSI31
70
0
71
0
91
1
92
5
93
3
72
1
10
121.498382723188
20
-17.8541597949323
11
124.551575425693
21
-16.0820638240607
72
1
10
124.551575425693
20
-16.0820638240607
11
124.906195833975
21
-16.9326700737196
72
1
10
124.906195833975
20
-16.9326700737196
11
121.498382723188
21
-17.8541597949323
97
0
75
0
76
1
52
0
41
0.0062
77
0
78
1
53
45
43
0
44
0
45
-0.0139193969876572
46
0.0139193969876572
79
0
47
0
98
1
10
0
20
0
0
HATCH
5
16D
100
AcDbEntity
8
SK2
62
256
6
ByLayer
370
13
48
1
60
0
100
AcDbHatch
10
0
20
0
30
0
210
0
220
0
230
1
2
ANSI31
70
0
71
0
91
1
92
5
93
3
72
1
10
121.498382723188
20
17.8541597949323
11
124.906192709519
21
16.9326713763016
72
1
10
124.906192709519
20
16.9326713763016
11
124.551578550149
21
16.0820625214787
72
1
10
124.551578550149
20
16.0820625214787
11
121.498382723188
21
17.8541597949323
97
0
75
0
76
1
52
0
41
0.0062
77
0
78
1
53
45
43
0
44
0
45
-0.0139193969876572
46
0.0139193969876572
79
0
47
0
98
1
10
0
20
0
0
DIMENSION
5
171
100
AcDbEntity
8
SK2
62
256
6
ByLayer
370
18
48
1
60
0
100
AcDbDimension
2
_U0
10
115
20
-45.952229
30
0
11
27.5
21
-45.952229
31
0
70
32
71
1
72
1
41
1
210
0
220
0
230
1
3
Standard
100
AcDbAlignedDimension
13
-60
23
-16
33
0
14
115
24
0
34
0
50
0
100
AcDbRotatedDimension
1001
ACAD
1000
DSTYLE
1002
{
1070
   371
1070
    13
1070
   372
1070
    13
1070
     3
1000

1070
   170
1070
     0
1070
   144
1040
1.0
1070
   277
1070
     2
1070
   284
1070
     8
1070
   278
1070
    46
1070
   146
1040
1.166667
1070
   345
1005
16
1070
   347
1005
16
1070
   346
1005
16
1070
   344
1005
0
1070
   343
1005
0
1070
   172
1070
     1
1070
    76
1070
     0
1070
    75
1070
     0
1070
   282
1070
     0
1070
   281
1070
     0
1070
    71
1070
     0
1070
    74
1070
     0
1070
   279
1070
     0
1070
   173
1070
     1
1070
   340
1005
150
1070
   271
1070
     2
1070
   272
1070
     3
1070
    77
1070
     1
1070
    73
1070
     1
1070
   171
1070
     3
1070
   274
1070
     4
1070
   177
1070
     2
1070
   176
1070
     2
1070
   178
1070
     2
1070
    78
1070
     8
1070
    48
1040
-0.1
1070
    41
1040
3.5
1070
   147
1040
1.5
1070
    42
1040
1.5875
1070
    44
1040
2.0
1070
   140
1040
3.0
1002
}
1001
ACAD_DSTYLE_DIM_LINETYPE
1070
   380
1005
16
1001
ACAD_DSTYLE_DIM_EXT1_LINETYPE
1070
   381
1005
16
1001
ACAD_DSTYLE_DIM_EXT2_LINETYPE
1070
   382
1005
16
0
DIMENSION
5
18A
100
AcDbEntity
8
SK2
62
256
6
ByLayer
370
18
48
1
60
0
100
AcDbDimension
2
_U1
10
3
20
-35.952229
30
0
11
59
21
-35.952229
31
0
70
32
71
1
72
1
41
1
210
0
220
0
230
1
3
Standard
100
AcDbAlignedDimension
13
115
23
0
33
0
14
3
24
-13.5
34
0
50
0
100
AcDbRotatedDimension
1001
ACAD
1000
DSTYLE
1002
{
1070
   371
1070
    13
1070
   372
1070
    13
1070
     3
1000

1070
   170
1070
     0
1070
   144
1040
1.0
1070
   277
1070
     2
1070
   284
1070
     8
1070
   278
1070
    46
1070
   146
1040
1.166667
1070
   345
1005
16
1070
   347
1005
16
1070
   346
1005
16
1070
   344
1005
0
1070
   343
1005
0
1070
   172
1070
     1
1070
    76
1070
     0
1070
    75
1070
     0
1070
   282
1070
     0
1070
   281
1070
     0
1070
    71
1070
     0
1070
    74
1070
     0
1070
   279
1070
     0
1070
   173
1070
     1
1070
   340
1005
150
1070
   271
1070
     2
1070
   272
1070
     3
1070
    77
1070
     1
1070
    73
1070
     1
1070
   171
1070
     3
1070
   274
1070
     4
1070
   177
1070
     2
1070
   176
1070
     2
1070
   178
1070
     2
1070
    78
1070
     8
1070
    48
1040
-0.1
1070
    41
1040
3.5
1070
   147
1040
1.5
1070
    42
1040
1.5875
1070
    44
1040
2.0
1070
   140
1040
3.0
1002
}
1001
ACAD_DSTYLE_DIM_LINETYPE
1070
   380
1005
16
1001
ACAD_DSTYLE_DIM_EXT1_LINETYPE
1070
   381
1005
16
1001
ACAD_DSTYLE_DIM_EXT2_LINETYPE
1070
   382
1005
16
0
DIMENSION
5
1A2
100
AcDbEntity
8
SK2
62
256
6
ByLayer
370
18
48
1
60
0
100
AcDbDimension
2
_U2
10
0
20
-35.952229
30
0
11
-30
21
-35.952229
31
0
70
32
71
1
72
1
41
1
210
0
220
0
230
1
3
Standard
100
AcDbAlignedDimension
13
-60
23
-16
33
0
14
0
24
-16
34
0
50
0
100
AcDbRotatedDimension
1001
ACAD
1000
DSTYLE
1002
{
1070
   371
1070
    13
1070
   372
1070
    13
1070
     3
1000

1070
   170
1070
     0
1070
   144
1040
1.0
1070
   277
1070
     2
1070
   284
1070
     8
1070
   278
1070
    46
1070
   146
1040
1.166667
1070
   345
1005
16
1070
   347
1005
16
1070
   346
1005
16
1070
   344
1005
0
1070
   343
1005
0
1070
   172
1070
     1
1070
    76
1070
     0
1070
    75
1070
     0
1070
   282
1070
     0
1070
   281
1070
     0
1070
    71
1070
     0
1070
    74
1070
     0
1070
   279
1070
     0
1070
   173
1070
     1
1070
   340
1005
150
1070
   271
1070
     2
1070
   272
1070
     3
1070
    77
1070
     1
1070
    73
1070
     1
1070
   171
1070
     3
1070
   274
1070
     4
1070
   177
1070
     2
1070
   176
1070
     2
1070
   178
1070
     2
1070
    78
1070
     8
1070
    48
1040
-0.1
1070
    41
1040
3.5
1070
   147
1040
1.5
1070
    42
1040
1.5875
1070
    44
1040
2.0
1070
   140
1040
3.0
1002
}
1001
ACAD_DSTYLE_DIM_LINETYPE
1070
   380
1005
16
1001
ACAD_DSTYLE_DIM_EXT1_LINETYPE
1070
   381
1005
16
1001
ACAD_DSTYLE_DIM_EXT2_LINETYPE
1070
   382
1005
16
0
DIMENSION
5
1BA
100
AcDbEntity
8
SK2
62
256
6
ByLayer
370
18
48
1
60
0
100
AcDbDimension
2
_U3
10
21
20
32.952229
30
0
11
68
21
32.952229
31
0
70
32
71
1
72
1
41
1
210
0
220
0
230
1
3
Standard
100
AcDbAlignedDimension
13
115
23
0
33
0
14
21
24
13.5
34
0
50
0
100
AcDbRotatedDimension
1001
ACAD
1000
DSTYLE
1002
{
1070
   371
1070
    13
1070
   372
1070
    13
1070
     3
1000

1070
   170
1070
     0
1070
   144
1040
1.0
1070
   277
1070
     2
1070
   284
1070
     8
1070
   278
1070
    46
1070
   146
1040
1.166667
1070
   345
1005
16
1070
   347
1005
16
1070
   346
1005
16
1070
   344
1005
0
1070
   343
1005
0
1070
   172
1070
     1
1070
    76
1070
     0
1070
    75
1070
     0
1070
   282
1070
     0
1070
   281
1070
     0
1070
    71
1070
     0
1070
    74
1070
     0
1070
   279
1070
     0
1070
   173
1070
     1
1070
   340
1005
150
1070
   271
1070
     2
1070
   272
1070
     3
1070
    77
1070
     1
1070
    73
1070
     1
1070
   171
1070
     3
1070
   274
1070
     4
1070
   177
1070
     2
1070
   176
1070
     2
1070
   178
1070
     2
1070
    78
1070
     8
1070
    48
1040
-0.1
1070
    41
1040
3.5
1070
   147
1040
1.5
1070
    42
1040
1.5875
1070
    44
1040
2.0
1070
   140
1040
3.0
1002
}
1001
ACAD_DSTYLE_DIM_LINETYPE
1070
   380
1005
16
1001
ACAD_DSTYLE_DIM_EXT1_LINETYPE
1070
   381
1005
16
1001
ACAD_DSTYLE_DIM_EXT2_LINETYPE
1070
   382
1005
16
0
ENDSEC
0
SECTION
2
OBJECTS
0
DICTIONARY
5
242
330
0
100
AcDbDictionary
280
0
281
1
3
ACAD_GROUP
350
243
3
ACAD_MLINESTYLE
350
244
0
DICTIONARY
5
243
330
0
100
AcDbDictionary
280
0
281
1
0
DICTIONARY
5
244
330
0
100
AcDbDictionary
280
0
281
1
3
Standard
350
18
0
MLINESTYLE
5
18
330
244
100
AcDbMlineStyle
2
Standard
70
0
3

62
256
51
90
52
90
71
2
49
-0.5
62
256
6
ByLayer
49
0.5
62
256
6
ByLayer
0
RASTERVARIABLES
5
230
330

100
AcDbRasterVariables
90
0
70
1
71
1
72
1
0
ENDSEC
0
EOF
