0
SECTION
2
HEADER
9
$ACADVER
1
AC1015
9
$DWGCODEPAGE
3
ANSI_1252
9
$HANDSEED
5
233
9
$ANGBASE
50
0
9
$ANGDIR
70
0
9
$ATTMODE
70
1
9
$AUNITS
70
0
9
$AUPREC
70
0
9
$CECOLOR
62
256
9
$CELTSCALE
40
1
9
$CELTYPE
6
ByLayer
9
$CELWEIGHT
370
18
9
$CLAYER
8
0
9
$CMLJUST
70
0
9
$CMLSCALE
40
1
9
$CMLSTYLE
2
Standard
9
$DIMSTYLE
2
Standard
9
$TEXTSIZE
40
0.2
9
$TEXTSTYLE
7
Standard
9
$LUNITS
70
2
9
$LUPREC
70
4
9
$EXTNAMES
290
1
9
$INSUNITS
70
4
9
$LTSCALE
40
1
9
$LWDISPLAY
290
1
9
$PDMODE
70
0
9
$PDSIZE
40
0
9
$PLINEGEN
70
0
0
ENDSEC
0
SECTION
2
CLASSES
0
CLASS
1
RASTERVARIABLES
2
AcDbRasterVariables
3
ISM
90
0
280
0
281
0
0
ENDSEC
0
SECTION
2
TABLES
0
TABLE
2
VPORT
5
229
100
AcDbSymbolTable
0
VPORT
5
1
100
AcDbSymbolTableRecord
100
AcDbViewportTableRecord
2
*Active
70
0
10
0
20
0
11
1
21
1
12
-1
22
1
13
0
23
0
14
0.5
24
0.5
15
10
25
10
16
0
26
0
36
1
17
0
27
0
37
0
0
ENDTAB
0
TABLE
2
LTYPE
5
22a
100
AcDbSymbolTable
0
LTYPE
5
14
100
AcDbSymbolTableRecord
100
AcDbLinetypeTableRecord
70
0
2
ByBlock
3

72
65
73
0
40
0
0
LTYPE
5
15
100
AcDbSymbolTableRecord
100
AcDbLinetypeTableRecord
70
0
2
ByLayer
3

72
65
73
0
40
0
0
LTYPE
5
16
100
AcDbSymbolTableRecord
100
AcDbLinetypeTableRecord
70
0
2
Continuous
3
Solid line
72
65
73
0
40
0
0
LTYPE
5
6E
100
AcDbSymbolTableRecord
100
AcDbLinetypeTableRecord
70
0
2
CENTER
3
____ _ ____ _ ____ _ ____
72
65
73
4
40
47.5
49
22
74
0
49
-8.5
74
0
49
8.5
74
0
49
-8.5
74
0
0
LTYPE
5
6F
100
AcDbSymbolTableRecord
100
AcDbLinetypeTableRecord
70
0
2
DASHED
3
__ __ __ __ __ __ __ __ __
72
65
73
2
40
25.72
49
12.86
74
0
49
-12.86
74
0
0
ENDTAB
0
TABLE
2
LAYER
5
22b
100
AcDbSymbolTable
0
LAYER
5
10
100
AcDbSymbolTableRecord
100
AcDbLayerTableRecord
2
0
70
0
62
7
6
Continuous
290
1
370
-3
390
0
0
LAYER
5
71
100
AcDbSymbolTableRecord
100
AcDbLayerTableRecord
2
81
70
0
62
-3
6
Continuous
290
1
370
-3
390
0
0
LAYER
5
73
100
AcDbSymbolTableRecord
100
AcDbLayerTableRecord
2
80
70
0
62
-6
6
Continuous
290
1
370
-3
390
0
0
LAYER
5
75
100
AcDbSymbolTableRecord
100
AcDbLayerTableRecord
2
1
70
0
62
4
6
Continuous
290
1
370
-3
390
0
0
LAYER
5
7E
100
AcDbSymbolTableRecord
100
AcDbLayerTableRecord
2
4
70
0
62
-2
6
CENTER
290
1
370
-3
390
0
0
LAYER
5
B0
100
AcDbSymbolTableRecord
100
AcDbLayerTableRecord
2
2
70
0
62
7
6
Continuous
290
1
370
-3
390
0
0
LAYER
5
158
100
AcDbSymbolTableRecord
100
AcDbLayerTableRecord
2
Defpoints
70
0
62
7
6
Continuous
290
0
370
-3
390
0
0
LAYER
5
215
100
AcDbSymbolTableRecord
100
AcDbLayerTableRecord
2
SK4
70
0
62
2
6
CENTER
290
1
370
-3
390
0
0
LAYER
5
216
100
AcDbSymbolTableRecord
100
AcDbLayerTableRecord
2
SK1
70
0
62
4
6
Continuous
290
1
370
-3
390
0
0
LAYER
5
217
100
AcDbSymbolTableRecord
100
AcDbLayerTableRecord
2
SK2
70
0
62
7
6
Continuous
290
1
370
-3
390
0
0
LAYER
5
218
100
AcDbSymbolTableRecord
100
AcDbLayerTableRecord
2
SK6
70
0
62
5
6
Continuous
290
1
370
-3
390
0
0
ENDTAB
0
TABLE
2
STYLE
5
22c
100
AcDbSymbolTable
0
STYLE
5
11
100
AcDbSymbolTableRecord
100
AcDbTextStyleTableRecord
2
Standard
3
txt
70
0
71
0
40
0
41
1
42
0
50
0
0
STYLE
5
134
100
AcDbSymbolTableRecord
100
AcDbTextStyleTableRecord
2
iso_b_vert
3
simplex.shx
70
0
71
0
40
0
41
1
42
0
50
0
0
STYLE
5
135
100
AcDbSymbolTableRecord
100
AcDbTextStyleTableRecord
2
DWGDirectTextStyle
3
simplex
70
0
71
0
40
0
41
1
42
0
50
0
0
ENDTAB
0
TABLE
2
DIMSTYLE
5
22d
100
AcDbSymbolTable
100
AcDbDimStyleTable
0
DIMSTYLE
105
27
100
AcDbSymbolTableRecord
100
AcDbDimStyleTableRecord
2
Standard
70
0
3
<>
41
0.18
42
0.0625
44
0.18
140
0.18
147
0.09
73
0
74
0
77
1
271
2
275
0
278
52
280
0
340
11
0
ENDTAB
0
TABLE
2
VIEW
5
22e
100
AcDbSymbolTable
0
ENDTAB
0
TABLE
2
UCS
5
22f
100
AcDbSymbolTable
0
ENDTAB
0
TABLE
2
APPID
5
230
100
AcDbSymbolTable
0
APPID
5
12
100
AcDbSymbolTableRecord
100
AcDbRegAppTableRecord
2
ACAD
70
0
0
APPID
5
154
100
AcDbSymbolTableRecord
100
AcDbRegAppTableRecord
2
ACAD_DSTYLE_DIMBREAK
70
0
0
APPID
5
1D4
100
AcDbSymbolTableRecord
100
AcDbRegAppTableRecord
2
ACAD_DSTYLE_DIM_LINETYPE
70
0
0
APPID
5
1D5
100
AcDbSymbolTableRecord
100
AcDbRegAppTableRecord
2
ACAD_DSTYLE_DIM_EXT1_LINETYPE
70
0
0
APPID
5
1D6
100
AcDbSymbolTableRecord
100
AcDbRegAppTableRecord
2
ACAD_DSTYLE_DIM_EXT2_LINETYPE
70
0
0
APPID
5
211
100
AcDbSymbolTableRecord
100
AcDbRegAppTableRecord
2
ACAD_MLEADERVER
70
0
0
ENDTAB
0
TABLE
2
BLOCK_RECORD
5
231
100
AcDbSymbolTable
0
BLOCK_RECORD
5
1F
100
AcDbSymbolTableRecord
100
AcDbBlockTableRecord
2
*Model_Space
340
0
70
0
0
BLOCK_RECORD
5
1B
100
AcDbSymbolTableRecord
100
AcDbBlockTableRecord
2
*Paper_Space
340
0
70
0
0
BLOCK_RECORD
5
23
100
AcDbSymbolTableRecord
100
AcDbBlockTableRecord
2
*Paper_Space0
340
0
70
0
0
BLOCK_RECORD
5
159
100
AcDbSymbolTableRecord
100
AcDbBlockTableRecord
2
*D1
340
0
70
0
0
BLOCK_RECORD
5
165
100
AcDbSymbolTableRecord
100
AcDbBlockTableRecord
2
_U0
340
0
70
0
0
BLOCK_RECORD
5
171
100
AcDbSymbolTableRecord
100
AcDbBlockTableRecord
2
*D3
340
0
70
0
0
BLOCK_RECORD
5
17D
100
AcDbSymbolTableRecord
100
AcDbBlockTableRecord
2
_U1
340
0
70
0
0
BLOCK_RECORD
5
189
100
AcDbSymbolTableRecord
100
AcDbBlockTableRecord
2
*D5
340
0
70
0
0
BLOCK_RECORD
5
195
100
AcDbSymbolTableRecord
100
AcDbBlockTableRecord
2
_U2
340
0
70
0
0
BLOCK_RECORD
5
1A1
100
AcDbSymbolTableRecord
100
AcDbBlockTableRecord
2
*D7
340
0
70
0
0
BLOCK_RECORD
5
1AD
100
AcDbSymbolTableRecord
100
AcDbBlockTableRecord
2
_U3
340
0
70
0
0
ENDTAB
0
ENDSEC
0
SECTION
2
BLOCKS
0
BLOCK
5
20
100
AcDbEntity
8
0
100
AcDbBlockBegin
2
*Model_Space
70
0
10
0
20
0
30
0
3
*Model_Space
0
ENDBLK
5
21
100
AcDbEntity
8
0
100
AcDbBlockEnd
0
BLOCK
5
1C
100
AcDbEntity
8
0
100
AcDbBlockBegin
2
*Paper_Space
70
0
10
0
20
0
30
0
3
*Paper_Space
0
ENDBLK
5
1D
100
AcDbEntity
8
0
100
AcDbBlockEnd
0
BLOCK
5
24
100
AcDbEntity
8
0
100
AcDbBlockBegin
2
*Paper_Space0
70
0
10
0
20
0
30
0
3
*Paper_Space0
0
ENDBLK
5
25
100
AcDbEntity
8
0
100
AcDbBlockEnd
0
BLOCK
5
15A
100
AcDbEntity
8
0
100
AcDbBlockBegin
2
*D1
70
1
10
0
20
0
30
0
3
*D1
0
LINE
5
15C
100
AcDbEntity
8
0
62
256
6
ByLayer
370
-2
48
1
60
0
100
AcDbLine
10
-56
20
-14.2875
30
0
11
-56
21
-47.952229
31
0
39
0
210
0
220
0
230
1
0
LINE
5
15D
100
AcDbEntity
8
0
62
256
6
ByLayer
370
-2
48
1
60
0
100
AcDbLine
10
100.5
20
-1.5875
30
0
11
100.5
21
-47.952229
31
0
39
0
210
0
220
0
230
1
0
LINE
5
15E
100
AcDbEntity
8
0
62
256
6
ByLayer
370
-2
48
1
60
0
100
AcDbLine
10
-52.5
20
-45.952229
30
0
11
97
21
-45.952229
31
0
39
0
210
0
220
0
230
1
0
SOLID
5
15F
100
AcDbEntity
8
0
62
256
6
ByLayer
370
-1
48
1
60
0
100
AcDbTrace
10
-52.5
20
-45.368896
30
0
11
-52.5
21
-46.535563
31
0
12
-56
22
-45.952229
32
0
13
-56
23
-45.952229
33
0
39
0
210
0
220
0
230
1
0
SOLID
5
160
100
AcDbEntity
8
0
62
256
6
ByLayer
370
-1
48
1
60
0
100
AcDbTrace
10
97
20
-46.535563
30
0
11
97
21
-45.368896
31
0
12
100.5
22
-45.952229
32
0
13
100.5
23
-45.952229
33
0
39
0
210
0
220
0
230
1
0
MTEXT
5
161
100
AcDbEntity
8
0
62
256
6
ByLayer
370
18
48
1
60
0
100
AcDbMText
10
22.25
20
-39.952229
30
0
210
0
220
0
230
1
1
\A1;156.5
40
3
41
0
44
1
50
0
71
5
72
5
7
iso_b_vert
0
POINT
5
162
100
AcDbEntity
8
Defpoints
62
0
6
ByLayer
370
-1
48
1
60
0
100
AcDbPoint
10
-56
20
-12.7
30
0
39
0
210
0
220
0
230
1
50
360
0
POINT
5
163
100
AcDbEntity
8
Defpoints
62
0
6
ByLayer
370
-1
48
1
60
0
100
AcDbPoint
10
100.5
20
0
30
0
39
0
210
0
220
0
230
1
50
360
0
POINT
5
164
100
AcDbEntity
8
Defpoints
62
0
6
ByLayer
370
-1
48
1
60
0
100
AcDbPoint
10
100.5
20
-45.952229
30
0
39
0
210
0
220
0
230
1
50
360
0
ENDBLK
5
15B
100
AcDbEntity
8
0
100
AcDbBlockEnd
0
BLOCK
5
16C
100
AcDbEntity
8
0
100
AcDbBlockBegin
2
_U0
70
0
10
0
20
0
30
0
3
_U0
0
MTEXT
5
166
100
AcDbEntity
8
SK2
62
256
6
ByLayer
370
18
48
1
60
0
100
AcDbMText
10
17.021658
20
-45.067115
30
0
210
0
220
0
230
1
1
\W0.7022;156.50
40
3
41
0
44
1.084337
50
0
71
7
72
5
7
iso_b_vert
0
LINE
5
167
100
AcDbEntity
8
SK2
62
256
6
ByLayer
370
13
48
1
60
0
100
AcDbLine
10
-56
20
-14.2875
30
0
11
-56
21
-47.952229
31
0
39
0
210
0
220
0
230
1
0
LINE
5
168
100
AcDbEntity
8
SK2
62
256
6
ByLayer
370
13
48
1
60
0
100
AcDbLine
10
100.5
20
-1.5875
30
0
11
100.5
21
-47.952229
31
0
39
0
210
0
220
0
230
1
0
LINE
5
169
100
AcDbEntity
8
SK2
62
256
6
ByLayer
370
13
48
1
60
0
100
AcDbLine
10
-56
20
-45.952229
30
0
11
100.5
21
-45.952229
31
0
39
0
210
0
220
0
230
1
0
SOLID
5
16A
100
AcDbEntity
8
SK2
62
256
6
ByLayer
370
18
48
1
60
0
100
AcDbTrace
10
-56
20
-45.952229
30
0
11
-52.500002
21
-45.491446
31
0
12
-52.499998
22
-46.413013
32
0
13
-52.499998
23
-46.413013
33
0
39
0
210
0
220
0
230
1
0
SOLID
5
16B
100
AcDbEntity
8
SK2
62
256
6
ByLayer
370
18
48
1
60
0
100
AcDbTrace
10
100.5
20
-45.952229
30
0
11
97.000002
21
-46.413013
31
0
12
96.999998
22
-45.491446
32
0
13
96.999998
23
-45.491446
33
0
39
0
210
0
220
0
230
1
0
ENDBLK
5
16D
100
AcDbEntity
8
0
100
AcDbBlockEnd
0
BLOCK
5
172
100
AcDbEntity
8
0
100
AcDbBlockBegin
2
*D3
70
1
10
0
20
0
30
0
3
*D3
0
LINE
5
174
100
AcDbEntity
8
0
62
256
6
ByLayer
370
-2
48
1
60
0
100
AcDbLine
10
100.5
20
-1.5875
30
0
11
100.5
21
-37.952229
31
0
39
0
210
0
220
0
230
1
0
LINE
5
175
100
AcDbEntity
8
0
62
256
6
ByLayer
370
-2
48
1
60
0
100
AcDbLine
10
3
20
-12.303
30
0
11
3
21
-37.952229
31
0
39
0
210
0
220
0
230
1
0
LINE
5
176
100
AcDbEntity
8
0
62
256
6
ByLayer
370
-2
48
1
60
0
100
AcDbLine
10
97
20
-35.952229
30
0
11
6.5
21
-35.952229
31
0
39
0
210
0
220
0
230
1
0
SOLID
5
177
100
AcDbEntity
8
0
62
256
6
ByLayer
370
-1
48
1
60
0
100
AcDbTrace
10
97
20
-36.535563
30
0
11
97
21
-35.368896
31
0
12
100.5
22
-35.952229
32
0
13
100.5
23
-35.952229
33
0
39
0
210
0
220
0
230
1
0
SOLID
5
178
100
AcDbEntity
8
0
62
256
6
ByLayer
370
-1
48
1
60
0
100
AcDbTrace
10
6.5
20
-35.368896
30
0
11
6.5
21
-36.535563
31
0
12
3
22
-35.952229
32
0
13
3
23
-35.952229
33
0
39
0
210
0
220
0
230
1
0
MTEXT
5
179
100
AcDbEntity
8
0
62
256
6
ByLayer
370
18
48
1
60
0
100
AcDbMText
10
51.75
20
-29.952229
30
0
210
0
220
0
230
1
1
\A1;97.5
40
3
41
0
44
1
50
0
71
5
72
5
7
iso_b_vert
0
POINT
5
17A
100
AcDbEntity
8
Defpoints
62
0
6
ByLayer
370
-1
48
1
60
0
100
AcDbPoint
10
100.5
20
0
30
0
39
0
210
0
220
0
230
1
50
360
0
POINT
5
17B
100
AcDbEntity
8
Defpoints
62
0
6
ByLayer
370
-1
48
1
60
0
100
AcDbPoint
10
3
20
-10.7155
30
0
39
0
210
0
220
0
230
1
50
360
0
POINT
5
17C
100
AcDbEntity
8
Defpoints
62
0
6
ByLayer
370
-1
48
1
60
0
100
AcDbPoint
10
3
20
-35.952229
30
0
39
0
210
0
220
0
230
1
50
360
0
ENDBLK
5
173
100
AcDbEntity
8
0
100
AcDbBlockEnd
0
BLOCK
5
184
100
AcDbEntity
8
0
100
AcDbBlockBegin
2
_U1
70
0
10
0
20
0
30
0
3
_U1
0
MTEXT
5
17E
100
AcDbEntity
8
SK2
62
256
6
ByLayer
370
18
48
1
60
0
100
AcDbMText
10
47.26763
20
-35.067115
30
0
210
0
220
0
230
1
1
\W0.7468;97.50
40
3
41
0
44
1.084337
50
0
71
7
72
5
7
iso_b_vert
0
LINE
5
17F
100
AcDbEntity
8
SK2
62
256
6
ByLayer
370
13
48
1
60
0
100
AcDbLine
10
100.5
20
-1.5875
30
0
11
100.5
21
-37.952229
31
0
39
0
210
0
220
0
230
1
0
LINE
5
180
100
AcDbEntity
8
SK2
62
256
6
ByLayer
370
13
48
1
60
0
100
AcDbLine
10
3
20
-12.303
30
0
11
3
21
-37.952229
31
0
39
0
210
0
220
0
230
1
0
LINE
5
181
100
AcDbEntity
8
SK2
62
256
6
ByLayer
370
13
48
1
60
0
100
AcDbLine
10
100.5
20
-35.952229
30
0
11
3
21
-35.952229
31
0
39
0
210
0
220
0
230
1
0
SOLID
5
182
100
AcDbEntity
8
SK2
62
256
6
ByLayer
370
18
48
1
60
0
100
AcDbTrace
10
100.5
20
-35.952229
30
0
11
97.000002
21
-36.413013
31
0
12
96.999998
22
-35.491446
32
0
13
96.999998
23
-35.491446
33
0
39
0
210
0
220
0
230
1
0
SOLID
5
183
100
AcDbEntity
8
SK2
62
256
6
ByLayer
370
18
48
1
60
0
100
AcDbTrace
10
3
20
-35.952229
30
0
11
6.499998
21
-35.491446
31
0
12
6.500002
22
-36.413013
32
0
13
6.500002
23
-36.413013
33
0
39
0
210
0
220
0
230
1
0
ENDBLK
5
185
100
AcDbEntity
8
0
100
AcDbBlockEnd
0
BLOCK
5
18A
100
AcDbEntity
8
0
100
AcDbBlockBegin
2
*D5
70
1
10
0
20
0
30
0
3
*D5
0
LINE
5
18C
100
AcDbEntity
8
0
62
256
6
ByLayer
370
-2
48
1
60
0
100
AcDbLine
10
-56
20
-14.2875
30
0
11
-56
21
-37.952229
31
0
39
0
210
0
220
0
230
1
0
LINE
5
18D
100
AcDbEntity
8
0
62
256
6
ByLayer
370
-2
48
1
60
0
100
AcDbLine
10
0
20
-14.2875
30
0
11
0
21
-37.952229
31
0
39
0
210
0
220
0
230
1
0
LINE
5
18E
100
AcDbEntity
8
0
62
256
6
ByLayer
370
-2
48
1
60
0
100
AcDbLine
10
-52.5
20
-35.952229
30
0
11
-3.5
21
-35.952229
31
0
39
0
210
0
220
0
230
1
0
SOLID
5
18F
100
AcDbEntity
8
0
62
256
6
ByLayer
370
-1
48
1
60
0
100
AcDbTrace
10
-52.5
20
-35.368896
30
0
11
-52.5
21
-36.535563
31
0
12
-56
22
-35.952229
32
0
13
-56
23
-35.952229
33
0
39
0
210
0
220
0
230
1
0
SOLID
5
190
100
AcDbEntity
8
0
62
256
6
ByLayer
370
-1
48
1
60
0
100
AcDbTrace
10
-3.5
20
-36.535563
30
0
11
-3.5
21
-35.368896
31
0
12
0
22
-35.952229
32
0
13
0
23
-35.952229
33
0
39
0
210
0
220
0
230
1
0
MTEXT
5
191
100
AcDbEntity
8
0
62
256
6
ByLayer
370
18
48
1
60
0
100
AcDbMText
10
-28
20
-29.952229
30
0
210
0
220
0
230
1
1
\A1;56
40
3
41
0
44
1
50
0
71
5
72
5
7
iso_b_vert
0
POINT
5
192
100
AcDbEntity
8
Defpoints
62
0
6
ByLayer
370
-1
48
1
60
0
100
AcDbPoint
10
-56
20
-12.7
30
0
39
0
210
0
220
0
230
1
50
360
0
POINT
5
193
100
AcDbEntity
8
Defpoints
62
0
6
ByLayer
370
-1
48
1
60
0
100
AcDbPoint
10
0
20
-12.7
30
0
39
0
210
0
220
0
230
1
50
360
0
POINT
5
194
100
AcDbEntity
8
Defpoints
62
0
6
ByLayer
370
-1
48
1
60
0
100
AcDbPoint
10
0
20
-35.952229
30
0
39
0
210
0
220
0
230
1
50
360
0
ENDBLK
5
18B
100
AcDbEntity
8
0
100
AcDbBlockEnd
0
BLOCK
5
19C
100
AcDbEntity
8
0
100
AcDbBlockBegin
2
_U2
70
0
10
0
20
0
30
0
3
_U2
0
MTEXT
5
196
100
AcDbEntity
8
SK2
62
256
6
ByLayer
370
18
48
1
60
0
100
AcDbMText
10
-32.48237
20
-35.067115
30
0
210
0
220
0
230
1
1
\W0.7468;56.00
40
3
41
0
44
1.084337
50
0
71
7
72
5
7
iso_b_vert
0
LINE
5
197
100
AcDbEntity
8
SK2
62
256
6
ByLayer
370
13
48
1
60
0
100
AcDbLine
10
-56
20
-14.2875
30
0
11
-56
21
-37.952229
31
0
39
0
210
0
220
0
230
1
0
LINE
5
198
100
AcDbEntity
8
SK2
62
256
6
ByLayer
370
13
48
1
60
0
100
AcDbLine
10
0
20
-14.2875
30
0
11
0
21
-37.952229
31
0
39
0
210
0
220
0
230
1
0
LINE
5
199
100
AcDbEntity
8
SK2
62
256
6
ByLayer
370
13
48
1
60
0
100
AcDbLine
10
-56
20
-35.952229
30
0
11
0
21
-35.952229
31
0
39
0
210
0
220
0
230
1
0
SOLID
5
19A
100
AcDbEntity
8
SK2
62
256
6
ByLayer
370
18
48
1
60
0
100
AcDbTrace
10
-56
20
-35.952229
30
0
11
-52.500002
21
-35.491446
31
0
12
-52.499998
22
-36.413013
32
0
13
-52.499998
23
-36.413013
33
0
39
0
210
0
220
0
230
1
0
SOLID
5
19B
100
AcDbEntity
8
SK2
62
256
6
ByLayer
370
18
48
1
60
0
100
AcDbTrace
10
0
20
-35.952229
30
0
11
-3.499998
21
-36.413013
31
0
12
-3.500002
22
-35.491446
32
0
13
-3.500002
23
-35.491446
33
0
39
0
210
0
220
0
230
1
0
ENDBLK
5
19D
100
AcDbEntity
8
0
100
AcDbBlockEnd
0
BLOCK
5
1A2
100
AcDbEntity
8
0
100
AcDbBlockBegin
2
*D7
70
1
10
0
20
0
30
0
3
*D7
0
LINE
5
1A4
100
AcDbEntity
8
0
62
256
6
ByLayer
370
-2
48
1
60
0
100
AcDbLine
10
100.5
20
1.5875
30
0
11
100.5
21
34.952229
31
0
39
0
210
0
220
0
230
1
0
LINE
5
1A5
100
AcDbEntity
8
0
62
256
6
ByLayer
370
-2
48
1
60
0
100
AcDbLine
10
24
20
12.303
30
0
11
24
21
34.952229
31
0
39
0
210
0
220
0
230
1
0
LINE
5
1A6
100
AcDbEntity
8
0
62
256
6
ByLayer
370
-2
48
1
60
0
100
AcDbLine
10
97
20
32.952229
30
0
11
27.5
21
32.952229
31
0
39
0
210
0
220
0
230
1
0
SOLID
5
1A7
100
AcDbEntity
8
0
62
256
6
ByLayer
370
-1
48
1
60
0
100
AcDbTrace
10
97
20
32.368896
30
0
11
97
21
33.535563
31
0
12
100.5
22
32.952229
32
0
13
100.5
23
32.952229
33
0
39
0
210
0
220
0
230
1
0
SOLID
5
1A8
100
AcDbEntity
8
0
62
256
6
ByLayer
370
-1
48
1
60
0
100
AcDbTrace
10
27.5
20
33.535563
30
0
11
27.5
21
32.368896
31
0
12
24
22
32.952229
32
0
13
24
23
32.952229
33
0
39
0
210
0
220
0
230
1
0
MTEXT
5
1A9
100
AcDbEntity
8
0
62
256
6
ByLayer
370
18
48
1
60
0
100
AcDbMText
10
62.25
20
38.952229
30
0
210
0
220
0
230
1
1
\A1;76.5
40
3
41
0
44
1
50
0
71
5
72
5
7
iso_b_vert
0
POINT
5
1AA
100
AcDbEntity
8
Defpoints
62
0
6
ByLayer
370
-1
48
1
60
0
100
AcDbPoint
10
100.5
20
0
30
0
39
0
210
0
220
0
230
1
50
360
0
POINT
5
1AB
100
AcDbEntity
8
Defpoints
62
0
6
ByLayer
370
-1
48
1
60
0
100
AcDbPoint
10
24
20
10.7155
30
0
39
0
210
0
220
0
230
1
50
360
0
POINT
5
1AC
100
AcDbEntity
8
Defpoints
62
0
6
ByLayer
370
-1
48
1
60
0
100
AcDbPoint
10
24
20
32.952229
30
0
39
0
210
0
220
0
230
1
50
360
0
ENDBLK
5
1A3
100
AcDbEntity
8
0
100
AcDbBlockEnd
0
BLOCK
5
1B4
100
AcDbEntity
8
0
100
AcDbBlockBegin
2
_U3
70
0
10
0
20
0
30
0
3
_U3
0
MTEXT
5
1AE
100
AcDbEntity
8
SK2
62
256
6
ByLayer
370
18
48
1
60
0
100
AcDbMText
10
57.76763
20
33.837344
30
0
210
0
220
0
230
1
1
\W0.7468;76.50
40
3
41
0
44
1.084337
50
0
71
7
72
5
7
iso_b_vert
0
LINE
5
1AF
100
AcDbEntity
8
SK2
62
256
6
ByLayer
370
13
48
1
60
0
100
AcDbLine
10
100.5
20
1.5875
30
0
11
100.5
21
34.952229
31
0
39
0
210
0
220
0
230
1
0
LINE
5
1B0
100
AcDbEntity
8
SK2
62
256
6
ByLayer
370
13
48
1
60
0
100
AcDbLine
10
24
20
12.303
30
0
11
24
21
34.952229
31
0
39
0
210
0
220
0
230
1
0
LINE
5
1B1
100
AcDbEntity
8
SK2
62
256
6
ByLayer
370
13
48
1
60
0
100
AcDbLine
10
100.5
20
32.952229
30
0
11
24
21
32.952229
31
0
39
0
210
0
220
0
230
1
0
SOLID
5
1B2
100
AcDbEntity
8
SK2
62
256
6
ByLayer
370
18
48
1
60
0
100
AcDbTrace
10
100.5
20
32.952229
30
0
11
97.000002
21
32.491446
31
0
12
96.999998
22
33.413013
32
0
13
96.999998
23
33.413013
33
0
39
0
210
0
220
0
230
1
0
SOLID
5
1B3
100
AcDbEntity
8
SK2
62
256
6
ByLayer
370
18
48
1
60
0
100
AcDbTrace
10
24
20
32.952229
30
0
11
27.499998
21
33.413013
31
0
12
27.500002
22
32.491446
32
0
13
27.500002
23
32.491446
33
0
39
0
210
0
220
0
230
1
0
ENDBLK
5
1B5
100
AcDbEntity
8
0
100
AcDbBlockEnd
0
ENDSEC
0
SECTION
2
ENTITIES
0
ARC
5
C1
100
AcDbEntity
8
SK2
62
256
6
ByLayer
370
13
48
1
60
0
100
AcDbCircle
39
0
10
100.5
20
0
30
0
40
19
210
0
220
0
230
1
100
AcDbArc
50
290
51
70
0
ELLIPSE
5
C2
100
AcDbEntity
8
SK1
62
256
6
ByLayer
370
18
48
1
60
0
100
AcDbEllipse
10
-20.619083
20
0
30
0
11
13.6190826173124
21
-1.54317782980885E-14
31
0
210
0
220
0
230
1
40
0.932515
41
-0.624896586633934
42
0.624896586633934
0
ELLIPSE
5
C3
100
AcDbEntity
8
SK1
62
256
6
ByLayer
370
18
48
1
60
0
100
AcDbEllipse
10
-37.157058
20
0
30
0
11
-2.33287510403163E-15
21
-12.7
31
0
210
0
220
0
230
1
40
0.932515
41
-2.1956929134288
42
-0.945899740160989
0
POINT
5
70
100
AcDbEntity
8
81
62
256
6
ByLayer
370
18
48
1
60
0
100
AcDbPoint
10
100.5
20
0
30
0
39
0
210
0
220
0
230
1
50
360
0
POINT
5
72
100
AcDbEntity
8
80
62
256
6
ByLayer
370
18
48
1
60
0
100
AcDbPoint
10
0
20
0
30
0
39
0
210
0
220
0
230
1
50
360
0
POINT
5
74
100
AcDbEntity
8
1
62
256
6
ByLayer
370
18
48
1
60
1
100
AcDbPoint
10
-56
20
-12.7
30
0
39
0
210
0
220
0
230
1
50
360
0
POINT
5
76
100
AcDbEntity
8
1
62
256
6
ByLayer
370
18
48
1
60
1
100
AcDbPoint
10
100.5
20
0
30
0
39
0
210
0
220
0
230
1
50
360
0
POINT
5
77
100
AcDbEntity
8
1
62
256
6
ByLayer
370
18
48
1
60
1
100
AcDbPoint
10
100.5
20
0
30
0
39
0
210
0
220
0
230
1
50
360
0
POINT
5
78
100
AcDbEntity
8
1
62
256
6
ByLayer
370
18
48
1
60
1
100
AcDbPoint
10
3
20
-10.7155
30
0
39
0
210
0
220
0
230
1
50
360
0
POINT
5
79
100
AcDbEntity
8
1
62
256
6
ByLayer
370
18
48
1
60
1
100
AcDbPoint
10
-56
20
-12.7
30
0
39
0
210
0
220
0
230
1
50
360
0
POINT
5
7A
100
AcDbEntity
8
1
62
256
6
ByLayer
370
18
48
1
60
1
100
AcDbPoint
10
0
20
-12.7
30
0
39
0
210
0
220
0
230
1
50
360
0
POINT
5
7B
100
AcDbEntity
8
1
62
256
6
ByLayer
370
18
48
1
60
1
100
AcDbPoint
10
100.5
20
0
30
0
39
0
210
0
220
0
230
1
50
360
0
POINT
5
7C
100
AcDbEntity
8
1
62
256
6
ByLayer
370
18
48
1
60
1
100
AcDbPoint
10
24
20
10.7155
30
0
39
0
210
0
220
0
230
1
50
360
0
SPLINE
5
C4
100
AcDbEntity
8
1
62
256
6
ByLayer
370
18
48
1
60
0
100
AcDbSpline
70
4
71
3
72
24
73
20
40
0
40
0
40
0
40
0
40
0.250000000000013
40
0.250000000000013
40
0.375000000000024
40
0.375000000000024
40
0.437500000000025
40
0.437500000000025
40
0.500000000000027
40
0.500000000000027
40
0.750000000000014
40
0.750000000000014
40
0.81250000000001
40
0.81250000000001
40
0.875000000000007
40
0.875000000000007
40
0.937500000000003
40
0.937500000000003
40
1
40
1
40
1
40
1
41
1
10
96.5998769547172
20
-1.5290481283026
30
0
41
1
10
95.6904108177367
20
-1.20129485226028
30
0
41
1
10
94.7814278725181
20
-0.872856012938712
30
0
41
1
10
93.4190107762719
20
-0.378237126936568
30
0
41
1
10
92.9650655915043
20
-0.212989010887043
30
0
41
1
10
92.2844240782055
20
0.0354034342099396
30
0
41
1
10
92.0575776830167
20
0.118254529425343
30
0
41
1
10
91.6038144126312
20
0.283680557265939
30
0
41
1
10
91.3769046961617
20
0.366275346373072
30
0
41
1
10
90.2422415566343
20
0.778730787509232
30
0
41
1
10
89.3341390337043
20
1.10702300606116
30
0
41
1
10
88.1988414711815
20
1.51611281666195
30
0
41
1
10
87.9717746507204
20
1.59787007140065
30
0
41
1
10
87.5176318977924
20
1.76127780588905
30
0
41
1
10
87.290564640966
20
1.84295208837574
30
0
41
1
10
86.8363607567046
20
2.00602784090225
30
0
41
1
10
86.6092095522154
20
2.0873892889696
30
0
41
1
10
86.1547231761788
20
2.24952519531439
30
0
41
1
10
85.9273992643241
20
2.33033057766232
30
0
41
1
10
85.6999999999999
20
2.4108882650676
30
0
0
SPLINE
5
C5
100
AcDbEntity
8
1
62
256
6
ByLayer
370
18
48
1
60
0
100
AcDbSpline
70
4
71
3
72
90
73
86
40
0
40
0
40
0
40
0
40
0.0312499999999992
40
0.0312499999999992
40
0.0624999999999985
40
0.0937499999999977
40
0.0937499999999977
40
0.124999999999997
40
0.124999999999997
40
0.140624999999997
40
0.140624999999997
40
0.148437499999997
40
0.148437499999997
40
0.156249999999996
40
0.187499999999995
40
0.187499999999995
40
0.218749999999994
40
0.218749999999994
40
0.249999999999992
40
0.249999999999992
40
0.281249999999991
40
0.281249999999991
40
0.29687499999999
40
0.29687499999999
40
0.31249999999999
40
0.31249999999999
40
0.343749999999988
40
0.343749999999988
40
0.374999999999987
40
0.374999999999987
40
0.406249999999985
40
0.406249999999985
40
0.437499999999984
40
0.437499999999984
40
0.445312499999984
40
0.445312499999984
40
0.453124999999983
40
0.468749999999983
40
0.468749999999983
40
0.499999999999981
40
0.499999999999981
40
0.531249999999979
40
0.531249999999979
40
0.539062499999979
40
0.539062499999979
40
0.546874999999978
40
0.562499999999978
40
0.562499999999978
40
0.593749999999976
40
0.593749999999976
40
0.624999999999974
40
0.624999999999974
40
0.632812499999975
40
0.632812499999975
40
0.640624999999975
40
0.656249999999976
40
0.656249999999976
40
0.687499999999979
40
0.687499999999979
40
0.718749999999982
40
0.718749999999982
40
0.726562499999982
40
0.726562499999982
40
0.734374999999982
40
0.734374999999982
40
0.749999999999984
40
0.749999999999984
40
0.781249999999987
40
0.781249999999987
40
0.81249999999999
40
0.81249999999999
40
0.843749999999993
40
0.843749999999993
40
0.851562499999994
40
0.851562499999994
40
0.859374999999994
40
0.874999999999995
40
0.874999999999995
40
0.906249999999997
40
0.937499999999998
40
0.968749999999999
40
0.968749999999999
40
0.984375
40
0.984375
40
1
40
1
40
1
40
1
41
1
10
96.5998769547206
20
10.3752725280824
30
0
41
1
10
96.6668169394333
20
10.2092609018109
30
0
41
1
10
96.7338615134804
20
10.0407530523859
30
0
41
1
10
96.8682733968814
20
9.69914522888476
30
0
41
1
10
97.00300776045
20
9.35294382888506
30
0
41
1
10
97.1385442053951
20
8.99814883492729
30
0
41
1
10
97.2745263012907
20
8.63927208250396
30
0
41
1
10
97.3427402795453
20
8.45779353989576
30
0
41
1
10
97.4454027752896
20
8.18260659060371
30
0
41
1
10
97.4796802262537
20
8.09038214743845
30
0
41
1
10
97.5311790734894
20
7.95130840303372
30
0
41
1
10
97.5483708984427
20
7.90479563077815
30
0
41
1
10
97.5827210081875
20
7.81168858625909
30
0
41
1
10
97.6684705867913
20
7.57882874327282
30
0
41
1
10
97.7535999841015
20
7.34551498592373
30
0
41
1
10
97.8889570521354
20
6.97162781820927
30
0
41
1
10
97.9562114527806
20
6.78439194098308
30
0
41
1
10
98.0897175877357
20
6.40929188719014
30
0
41
1
10
98.1559708493542
20
6.22142824501668
30
0
41
1
10
98.2871901820479
20
5.84497841327675
30
0
41
1
10
98.3521588934617
20
5.65639317083071
30
0
41
1
10
98.4482888792944
20
5.37284825170991
30
0
41
1
10
98.480109951454
20
5.27822144948186
30
0
41
1
10
98.5432212010749
20
5.08871337191536
30
0
41
1
10
98.5745252641726
20
4.99378716729177
30
0
41
1
10
98.6670325878288
20
4.70994951163419
30
0
41
1
10
98.7269956595428
20
4.52153899547343
30
0
41
1
10
98.8424082279261
20
4.14603717511514
30
0
41
1
10
98.8978653062117
20
3.9589470939539
30
0
41
1
10
99.0025803307415
20
3.58569607540292
30
0
41
1
10
99.0518471205935
20
3.39953593359607
30
0
41
1
10
99.1416429336396
20
3.02763905898772
30
0
41
1
10
99.1821760069724
20
2.84190078080528
30
0
41
1
10
99.2251207222319
20
2.60960524898027
30
0
41
1
10
99.2333282860059
20
2.56309513175799
30
0
41
1
10
99.2488641653262
20
2.47026311392318
30
0
41
1
10
99.2708180762004
20
2.3315010957879
30
0
41
1
10
99.2884859735751
20
2.19421526932518
30
0
41
1
10
99.3175313470754
20
1.92168660064212
30
0
41
1
10
99.3284458933782
20
1.74271526948382
30
0
41
1
10
99.3313291672836
20
1.39083179195811
30
0
41
1
10
99.3232806965434
20
1.21792253470071
30
0
41
1
10
99.3014494146088
20
1.00613592740993
30
0
41
1
10
99.2964922534306
20
0.963937416430667
30
0
41
1
10
99.2854738829817
20
0.880275969033335
30
0
41
1
10
99.2673263591283
20
0.756114274310733
30
0
41
1
10
99.2445991178934
20
0.635895386630494
30
0
41
1
10
99.1937989229119
20
0.400589014373509
30
0
41
1
10
99.1528336868344
20
0.250550485583574
30
0
41
1
10
99.0603906110305
20
-0.0363860654122448
30
0
41
1
10
99.0089205940296
20
-0.17328795434733
30
0
41
1
10
98.939718646712
20
-0.336321986059033
30
0
41
1
10
98.9256176158221
20
-0.36855591480051
30
0
41
1
10
98.897030300524
20
-0.432048775212166
30
0
41
1
10
98.8536137451205
20
-0.525735867417836
30
0
41
1
10
98.8087563491802
20
-0.614857083356839
30
0
41
1
10
98.7174681900495
20
-0.787192851732726
30
0
41
1
10
98.6545323414473
20
-0.894224196329702
30
0
41
1
10
98.5257254522681
20
-1.09308596938675
30
0
41
1
10
98.4598457414536
20
-1.18491359374016
30
0
41
1
10
98.3760571078022
20
-1.29020800536455
30
0
41
1
10
98.3592263665796
20
-1.31079126888173
30
0
41
1
10
98.325425094295
20
-1.35100251196033
30
0
41
1
10
98.3084487221943
20
-1.37063567062913
30
0
41
1
10
98.2575430424405
20
-1.42784816464947
30
0
41
1
10
98.2235645204032
20
-1.46383078920803
30
0
41
1
10
98.1215578882744
20
-1.56544560988786
30
0
41
1
10
98.0534637783218
20
-1.62475778540568
30
0
41
1
10
97.9172198151851
20
-1.72693958099239
30
0
41
1
10
97.8490678445067
20
-1.76980752543739
30
0
41
1
10
97.7126869270317
20
-1.83911621369435
30
0
41
1
10
97.6444570129651
20
-1.86555698595402
30
0
41
1
10
97.5590499115767
20
-1.88811719651869
30
0
41
1
10
97.541958920144
20
-1.89210295850421
30
0
41
1
10
97.5079198660326
20
-1.89898817954699
30
0
41
1
10
97.4570164788395
20
-1.90770327440487
30
0
41
1
10
97.4065620517193
20
-1.91163355780574
30
0
41
1
10
97.3062077062026
20
-1.91322175659036
30
0
41
1
10
97.1738802174701
20
-1.89863497791239
30
0
41
1
10
96.9791278941977
20
-1.82753068039071
30
0
41
1
10
96.8513284393994
20
-1.74724133544169
30
0
41
1
10
96.756069475282
20
-1.67441737127652
30
0
41
1
10
96.7245234819574
20
-1.64812016547762
30
0
41
1
10
96.6618861876117
20
-1.59156611004099
30
0
41
1
10
96.6307825041363
20
-1.56129981215648
30
0
41
1
10
96.5998769547206
20
-1.5290481283038
30
0
0
SPLINE
5
C6
100
AcDbEntity
8
1
62
256
6
ByLayer
370
18
48
1
60
0
100
AcDbSpline
70
4
71
3
72
14
73
10
40
0
40
0
40
0
40
0
40
0.267533399189646
40
0.267533399189646
40
0.450650049392232
40
0.450650049392232
40
0.633766699594818
40
0.633766699594818
40
1
40
1
40
1
40
1
41
1
10
89.1602714999782
20
10.7141689317178
30
0
41
1
10
89.8237426528771
20
10.714304096943
30
0
41
1
10
90.4870356118615
20
10.7063090408327
30
0
41
1
10
91.6037428665629
20
10.6790398862692
30
0
41
1
10
92.0572601635409
20
10.664066084211
30
0
41
1
10
92.9649401861942
20
10.6266213320226
30
0
41
1
10
93.4190054602527
20
10.6041475111906
30
0
41
1
10
94.7816220926121
20
10.5254752454961
30
0
41
1
10
95.6906547045022
20
10.4581013705391
30
0
41
1
10
96.5998769547173
20
10.3752725280828
30
0
0
SPLINE
5
C7
100
AcDbEntity
8
1
62
256
6
ByLayer
370
18
48
1
60
0
100
AcDbSpline
70
4
71
3
72
40
73
36
40
0
40
0
40
0
40
0
40
0.068087827084676
40
0.068087827084676
40
0.126332337891884
40
0.126332337891884
40
0.155454593295489
40
0.155454593295489
40
0.184576848699093
40
0.184576848699093
40
0.242821359506301
40
0.242821359506301
40
0.301065870313508
40
0.301065870313508
40
0.417554891927925
40
0.417554891927925
40
0.446677147331527
40
0.446677147331527
40
0.475799402735129
40
0.475799402735129
40
0.534043913542332
40
0.534043913542332
40
0.592288424349536
40
0.592288424349536
40
0.65053293515674
40
0.65053293515674
40
0.708777445963943
40
0.708777445963943
40
0.737899701367547
40
0.737899701367547
40
0.767021956771152
40
0.767021956771152
40
0.883510978385576
40
0.883510978385576
40
1
40
1
40
1
40
1
41
1
10
67.6499670556088
20
7.47503924906363
30
0
41
1
10
68.0596806518515
20
7.57139349524167
30
0
41
1
10
68.4693783213024
20
7.66551679909924
30
0
41
1
10
69.2294517399681
20
7.8361523606111
30
0
41
1
10
69.5798394439994
20
7.91324303861001
30
0
41
1
10
70.1053253244328
20
8.0265599068693
30
0
41
1
10
70.2804707660528
20
8.06394645903814
30
0
41
1
10
70.6307246624566
20
8.1379492817762
30
0
41
1
10
70.8058358381337
20
8.17456023908957
30
0
41
1
10
71.3312351653174
20
8.28302236895354
30
0
41
1
10
71.6816521271094
20
8.35339705642679
30
0
41
1
10
72.3827715574675
20
8.49034716854695
30
0
41
1
10
72.733476934072
20
8.55695706764647
30
0
41
1
10
73.7853074379636
20
8.75119299159908
30
0
41
1
10
74.4863446129803
20
8.87326858352097
30
0
41
1
10
75.3621593853071
20
9.01688148240387
30
0
41
1
10
75.5372973108274
20
9.04515494506938
30
0
41
1
10
75.8875208459023
20
9.10080016090447
30
0
41
1
10
76.0626097375761
20
9.12816697021202
30
0
41
1
10
76.5879221396007
20
9.20874930112254
30
0
41
1
10
76.9382522673891
20
9.26037229349035
30
0
41
1
10
77.6391264820849
20
9.35950701478808
30
0
41
1
10
77.9896544107148
20
9.40703803933025
30
0
41
1
10
78.6908507903996
20
9.49809005995391
30
0
41
1
10
79.0415702750574
20
9.54161538686236
30
0
41
1
10
79.7428195743354
20
9.62466033896376
30
0
41
1
10
80.0933418844578
20
9.66417993281033
30
0
41
1
10
80.6189324492831
20
9.7204682770093
30
0
41
1
10
80.7940959812586
20
9.73873325824084
30
0
41
1
10
81.1443562320178
20
9.77426092258006
30
0
41
1
10
81.3194566634582
20
9.79151981945557
30
0
41
1
10
82.1950037239565
20
9.87512888101494
30
0
41
1
10
82.8958316358338
20
9.93326403626386
30
0
41
1
10
84.2977713779634
20
10.0326746114846
30
0
41
1
10
84.9989041070929
20
10.0739345514523
30
0
41
1
10
85.7
20
10.1067468598049
30
0
0
SPLINE
5
C8
100
AcDbEntity
8
1
62
256
6
ByLayer
370
18
48
1
60
0
100
AcDbSpline
70
4
71
3
72
65
73
61
40
0
40
0
40
0
40
0
40
0.0560569535896293
40
0.0560569535896293
40
0.0840854303844439
40
0.0840854303844439
40
0.112113907179259
40
0.112113907179259
40
0.16817086076889
40
0.16817086076889
40
0.196199337563706
40
0.196199337563706
40
0.224227814358523
40
0.224227814358523
40
0.23824205275593
40
0.23824205275593
40
0.252256291153337
40
0.252256291153337
40
0.280284767948152
40
0.280284767948152
40
0.33634172153778
40
0.33634172153778
40
0.364370198332593
40
0.364370198332593
40
0.392398675127407
40
0.392398675127407
40
0.448455628717034
40
0.448455628717034
40
0.476484105511848
40
0.476484105511848
40
0.504512582306662
40
0.504512582306662
40
0.560569535896289
40
0.560569535896289
40
0.588598012691103
40
0.588598012691103
40
0.616626489485916
40
0.616626489485916
40
0.630640727883323
40
0.630640727883323
40
0.64465496628073
40
0.672683443075544
40
0.672683443075544
40
0.72874039666517
40
0.72874039666517
40
0.756768873459984
40
0.756768873459984
40
0.784797350254798
40
0.784797350254798
40
0.840854303844424
40
0.840854303844424
40
0.868882780639238
40
0.868882780639238
40
0.896911257434051
40
0.896911257434051
40
0.952968211023677
40
0.952968211023677
40
0.980996687818489
40
0.980996687818489
40
1
40
1
40
1
40
1
41
1
10
85.6999999999999
20
2.11943852612219
30
0
41
1
10
84.9506050058963
20
2.37323981881559
30
0
41
1
10
84.2013776074746
20
2.6243528040032
30
0
41
1
10
83.0779461396115
20
2.99744810532312
30
0
41
1
10
82.7035407148378
20
3.12122575629496
30
0
41
1
10
81.9548927975628
20
3.36764725178637
30
0
41
1
10
81.5806499533131
20
3.49028739602449
30
0
41
1
10
80.4574949575775
20
3.85467483395962
30
0
41
1
10
79.7083178222873
20
4.09334271328808
30
0
41
1
10
78.5840927962478
20
4.44539439629219
30
0
41
1
10
78.2094393505417
20
4.56169981579291
30
0
41
1
10
77.4603732045406
20
4.79229555449311
30
0
41
1
10
77.0859707295969
20
4.90662472789973
30
0
41
1
10
76.5244933987893
20
5.07647307386412
30
0
41
1
10
76.337346682231
20
5.13279290384116
30
0
41
1
10
75.9630090511124
20
5.24466907226025
30
0
41
1
10
75.7758232950904
20
5.30023861907495
30
0
41
1
10
75.2142221074109
20
5.46586344258458
30
0
41
1
10
74.8397640605713
20
5.57483859805012
30
0
41
1
10
73.7162523908549
20
5.89754191552569
30
0
41
1
10
72.9670567888417
20
6.10704678559713
30
0
41
1
10
71.8431628157059
20
6.41321457119847
30
0
41
1
10
71.4687081556993
20
6.51395679826626
30
0
41
1
10
70.7198604555283
20
6.71200288827663
30
0
41
1
10
70.3454083471487
20
6.80920447736438
30
0
41
1
10
69.2220098564503
20
7.09548744335982
30
0
41
1
10
68.4730174071061
20
7.27925028640016
30
0
41
1
10
67.3495987771259
20
7.54459249431221
30
0
41
1
10
66.9751409124233
20
7.6313264516605
30
0
41
1
10
66.2262735425848
20
7.80137135303411
30
0
41
1
10
65.85186021389
20
7.88466901532081
30
0
41
1
10
64.7280195520015
20
8.12816535917565
30
0
41
1
10
63.9788014062021
20
8.2821648718126
30
0
41
1
10
62.8552624759059
20
8.50101924566124
30
0
41
1
10
62.4807905053784
20
8.57194487624383
30
0
41
1
10
61.7319638938426
20
8.70978251299357
30
0
41
1
10
61.3576248794245
20
8.77671645189099
30
0
41
1
10
60.7961532306809
20
8.87400183655041
30
0
41
1
10
60.6089930550985
20
8.9058976163266
30
0
41
1
10
60.2345995105194
20
8.96853108591432
30
0
41
1
10
59.6729150724622
20
9.06076736834942
30
0
41
1
10
59.1109739891612
20
9.14792024706878
30
0
41
1
10
57.9867844709213
20
9.31551787378245
30
0
41
1
10
57.237532608129
20
9.41822285379567
30
0
41
1
10
56.1143216370723
20
9.5588551261547
30
0
41
1
10
55.7400573004999
20
9.6035246414832
30
0
41
1
10
54.991448087348
20
9.68807155067634
30
0
41
1
10
54.6170569457247
20
9.72791223622772
30
0
41
1
10
53.493671251071
20
9.84023858149598
30
0
41
1
10
52.7444591324891
20
9.90553955106384
30
0
41
1
10
51.6203685426551
20
9.98921683383207
30
0
41
1
10
51.2457583600491
20
10.0147182633739
30
0
41
1
10
50.4968665834863
20
10.0609044852092
30
0
41
1
10
50.1225562561733
20
10.081578960111
30
0
41
1
10
48.9993782943965
20
10.1360706642611
30
0
41
1
10
48.2504308753722
20
10.1624738971699
30
0
41
1
10
47.1269154883357
20
10.187356625194
30
0
41
1
10
46.7523947016318
20
10.1931933413021
30
0
41
1
10
46.1239515965137
20
10.1988456008425
30
0
41
1
10
45.8700358619504
20
10.1999941660307
30
0
41
1
10
45.6161117565413
20
10.1999998317459
30
0
0
SPLINE
5
C9
100
AcDbEntity
8
1
62
256
6
ByLayer
370
18
48
1
60
0
100
AcDbSpline
70
4
71
3
72
14
73
10
40
0
40
0
40
0
40
0
40
0.196927914452736
40
0.196927914452736
40
0.393855828905471
40
0.393855828905471
40
0.787711657810943
40
0.787711657810943
40
1
40
1
40
1
40
1
41
1
10
85.6999999999999
20
-10.6394581244216
30
0
41
1
10
85.9273606883986
20
-10.6492233056997
30
0
41
1
10
86.1546225105134
20
-10.6580457789306
30
0
41
1
10
86.6089733428147
20
-10.6737850702506
30
0
41
1
10
86.8360724877098
20
-10.6806974063076
30
0
41
1
10
87.517428437339
20
-10.698510195365
30
0
41
1
10
87.9716973526789
20
-10.7065101669532
30
0
41
1
10
88.6707043444006
20
-10.7129626275495
30
0
41
1
10
88.9155000364747
20
-10.7141190657376
30
0
41
1
10
89.1602714752815
20
-10.7141689317128
30
0
0
SPLINE
5
CA
100
AcDbEntity
8
1
62
256
6
ByLayer
370
18
48
1
60
0
100
AcDbSpline
70
4
71
3
72
145
73
141
40
0
40
0
40
0
40
0
40
0.0312499999999997
40
0.0312499999999997
40
0.0624999999999995
40
0.0624999999999995
40
0.070312499999999
40
0.070312499999999
40
0.0781249999999985
40
0.0781249999999985
40
0.085937499999998
40
0.085937499999998
40
0.0937499999999976
40
0.0937499999999976
40
0.109374999999997
40
0.109374999999997
40
0.124999999999996
40
0.124999999999996
40
0.140624999999995
40
0.140624999999995
40
0.148437499999994
40
0.148437499999994
40
0.156249999999994
40
0.156249999999994
40
0.164062499999993
40
0.164062499999993
40
0.171874999999993
40
0.171874999999993
40
0.187499999999992
40
0.187499999999992
40
0.203124999999992
40
0.203124999999992
40
0.218749999999992
40
0.218749999999992
40
0.226562499999992
40
0.226562499999992
40
0.234374999999992
40
0.234374999999992
40
0.242187499999992
40
0.242187499999992
40
0.249999999999992
40
0.249999999999992
40
0.281249999999993
40
0.281249999999993
40
0.296874999999993
40
0.296874999999993
40
0.304687499999993
40
0.304687499999993
40
0.312499999999993
40
0.312499999999993
40
0.320312499999992
40
0.320312499999992
40
0.328124999999992
40
0.328124999999992
40
0.343749999999992
40
0.343749999999992
40
0.374999999999993
40
0.374999999999993
40
0.382812499999992
40
0.382812499999992
40
0.390624999999992
40
0.390624999999992
40
0.398437499999992
40
0.398437499999992
40
0.406249999999991
40
0.406249999999991
40
0.437499999999988
40
0.437499999999988
40
0.453124999999986
40
0.453124999999986
40
0.460937499999985
40
0.460937499999985
40
0.468749999999984
40
0.468749999999984
40
0.484374999999982
40
0.484374999999982
40
0.499999999999979
40
0.499999999999979
40
0.515624999999977
40
0.515624999999977
40
0.531249999999975
40
0.531249999999975
40
0.539062499999974
40
0.546874999999973
40
0.546874999999973
40
0.562499999999972
40
0.562499999999972
40
0.593749999999969
40
0.593749999999969
40
0.609374999999968
40
0.609374999999968
40
0.617187499999968
40
0.617187499999968
40
0.624999999999967
40
0.624999999999967
40
0.640624999999967
40
0.640624999999967
40
0.656249999999967
40
0.656249999999967
40
0.687499999999967
40
0.687499999999967
40
0.695312499999967
40
0.695312499999967
40
0.703124999999968
40
0.703124999999968
40
0.718749999999969
40
0.718749999999969
40
0.749999999999971
40
0.749999999999971
40
0.765624999999973
40
0.765624999999973
40
0.773437499999973
40
0.773437499999973
40
0.781249999999974
40
0.781249999999974
40
0.796874999999976
40
0.796874999999976
40
0.812499999999977
40
0.812499999999977
40
0.84374999999998
40
0.84374999999998
40
0.851562499999981
40
0.851562499999981
40
0.859374999999982
40
0.859374999999982
40
0.874999999999984
40
0.874999999999984
40
0.890624999999986
40
0.890624999999986
40
0.906249999999989
40
0.906249999999989
40
0.921874999999991
40
0.921874999999991
40
0.929687499999991
40
0.929687499999991
40
0.937499999999992
40
0.937499999999992
40
0.968749999999996
40
0.968749999999996
40
1
40
1
40
1
40
1
41
1
10
18.4167010222642
20
7.6619697476302
30
0
41
1
10
19.1174910506152
20
7.50083660709652
30
0
41
1
10
19.8184640315709
20
7.33415742948125
30
0
41
1
10
21.220350787847
20
6.98912323260492
30
0
41
1
10
21.9212674582863
20
6.81077293254063
30
0
41
1
10
22.7971370000889
20
6.5799737744309
30
0
41
1
10
22.9722969065115
20
6.53341951457386
30
0
41
1
10
23.3225818710707
20
6.43950225038006
30
0
41
1
10
23.497702216258
20
6.39212831229776
30
0
41
1
10
23.8479616142423
20
6.29668812511915
30
0
41
1
10
24.0231046311663
20
6.24863081003173
30
0
41
1
10
24.3734902775503
20
6.15201232470068
30
0
41
1
10
24.5487254075057
20
6.10343439088271
30
0
41
1
10
25.0745347821306
20
5.9568480363225
30
0
41
1
10
25.4252322913118
20
5.85796796944229
30
0
41
1
10
26.1264430032112
20
5.65791825474926
30
0
41
1
10
26.4770059719965
20
5.55674189077811
30
0
41
1
10
27.17800161726
20
5.35197674301421
30
0
41
1
10
27.5284334867552
20
5.24838602359776
30
0
41
1
10
28.0539442883968
20
5.09108264539594
30
0
41
1
10
28.2290915781232
20
5.03832813774576
30
0
41
1
10
28.5793333346142
20
4.93215845285522
30
0
41
1
10
28.7544235678231
20
4.8787322831007
30
0
41
1
10
29.1046083171315
20
4.7713614251077
30
0
41
1
10
29.2797073572401
20
4.71742825771526
30
0
41
1
10
29.62998806529
20
4.60924702591137
30
0
41
1
10
29.8051619563486
20
4.55497928795529
30
0
41
1
10
30.3307613750988
20
4.39159056968478
30
0
41
1
10
30.6812595208355
20
4.2818711604954
30
0
41
1
10
31.3824030800791
20
4.06072539998826
30
0
41
1
10
31.7330858741811
20
3.94929442203417
30
0
41
1
10
32.4343989172822
20
3.7246642265348
30
0
41
1
10
32.7849552425957
20
3.61148663315115
30
0
41
1
10
33.310601081788
20
3.44031683836963
30
0
41
1
10
33.4857847710531
20
3.38302585452584
30
0
41
1
10
33.8360820352178
20
3.2679543749561
30
0
41
1
10
34.0111919975512
20
3.21016380765255
30
0
41
1
10
34.3614020422405
20
3.09425719124772
30
0
41
1
10
34.5365071994938
20
3.03615512325075
30
0
41
1
10
34.8867823896939
20
2.91983366430685
30
0
41
1
10
35.0619445679273
20
2.8615927217264
30
0
41
1
10
35.937840567699
20
2.56988688157119
30
0
41
1
10
36.6388067450784
20
2.33486021868038
30
0
41
1
10
37.6903676274163
20
1.97910555587205
30
0
41
1
10
38.0409055207697
20
1.85998090174337
30
0
41
1
10
38.5667014829016
20
1.68037032442379
30
0
41
1
10
38.7419764408246
20
1.62034173491014
30
0
41
1
10
39.0924250134543
20
1.4999860632453
30
0
41
1
10
39.2676025395028
20
1.43964831495234
30
0
41
1
10
39.6179333487343
20
1.31885195300507
30
0
41
1
10
39.793092286813
20
1.25840960365719
30
0
41
1
10
40.1434572176341
20
1.13760947648689
30
0
41
1
10
40.3186553767131
20
1.07722918464069
30
0
41
1
10
40.8442744186659
20
0.896083311282666
30
0
41
1
10
41.1947151991065
20
0.775299326531581
30
0
41
1
10
42.2460518156616
20
0.412687284092726
30
0
41
1
10
42.946973182164
20
0.170632478191294
30
0
41
1
10
43.822915155496
20
-0.133047778876716
30
0
41
1
10
43.9980928415153
20
-0.193840127306032
30
0
41
1
10
44.3484201241106
20
-0.315557090335574
30
0
41
1
10
44.523567692793
20
-0.376487611356055
30
0
41
1
10
44.8739015621357
20
-0.498287504306717
30
0
41
1
10
45.0490940719958
20
-0.559138865973011
30
0
41
1
10
45.3995848939149
20
-0.680585585498619
30
0
41
1
10
45.5748809897214
20
-0.741205155298076
30
0
41
1
10
46.4512972074326
20
-1.04379776664223
30
0
41
1
10
47.1523992397399
20
-1.28437962413787
30
0
41
1
10
48.2037482771866
20
-1.64377125746182
30
0
41
1
10
48.5541459992429
20
-1.76332454168153
30
0
41
1
10
49.0796263241378
20
-1.9423934052289
30
0
41
1
10
49.254766909874
20
-2.00203987895441
30
0
41
1
10
49.6050022659245
20
-2.12126443125715
30
0
41
1
10
49.780096014069
20
-2.18084528294557
30
0
41
1
10
50.3054136955956
20
-2.359186343038
30
0
41
1
10
50.6557413626392
20
-2.47735534069022
30
0
41
1
10
51.356676990649
20
-2.71211630829782
30
0
41
1
10
51.7072557931589
20
-2.82879039307764
30
0
41
1
10
52.4085903080031
20
-3.06085532111999
30
0
41
1
10
52.7592690967666
20
-3.17621464768817
30
0
41
1
10
53.4603893069317
20
-3.40564748465886
30
0
41
1
10
53.8108630629599
20
-3.51973311157769
30
0
41
1
10
54.3364054902375
20
-3.6900115614188
30
0
41
1
10
54.6867105963422
20
-3.80324843693424
30
0
41
1
10
55.0368897205917
20
-3.91594909023036
30
0
41
1
10
55.5621731769978
20
-4.08430357379564
30
0
41
1
10
55.9124485581644
20
-4.1954343822762
30
0
41
1
10
56.9635816083049
20
-4.52541784284156
30
0
41
1
10
57.6646402913377
20
-4.74114832678089
30
0
41
1
10
58.7164252316792
20
-5.05903820620438
30
0
41
1
10
59.0670979339254
20
-5.1640656158651
30
0
41
1
10
59.5928454867888
20
-5.32018427671844
30
0
41
1
10
59.7680576304226
20
-5.37198926941636
30
0
41
1
10
60.1184014040449
20
-5.47514197111951
30
0
41
1
10
60.2935341874639
20
-5.52648643079314
30
0
41
1
10
60.8189256438798
20
-5.67955261040584
30
0
41
1
10
61.1692434086593
20
-5.78014877228108
30
0
41
1
10
61.870008639835
20
-5.97844194886403
30
0
41
1
10
62.22043225735
20
-6.07619592075105
30
0
41
1
10
63.271761907904
20
-6.36545062832545
30
0
41
1
10
63.9727351119806
20
-6.55293630775785
30
0
41
1
10
64.8488109891335
20
-6.78109622092097
30
0
41
1
10
65.0240187088429
20
-6.82641838949121
30
0
41
1
10
65.3744140597701
20
-6.91644954409594
30
0
41
1
10
65.5496054784873
20
-6.96115423357102
30
0
41
1
10
66.0752562711332
20
-7.09409136387808
30
0
41
1
10
66.4257162543276
20
-7.18097726322679
30
0
41
1
10
67.4771766227743
20
-7.43648528627898
30
0
41
1
10
68.1781744853943
20
-7.60014189078868
30
0
41
1
10
69.2294517399711
20
-7.83615236061178
30
0
41
1
10
69.5798394440023
20
-7.91324303861066
30
0
41
1
10
70.1053253244357
20
-8.02655990686995
30
0
41
1
10
70.2804707660558
20
-8.06394645903879
30
0
41
1
10
70.6307246624595
20
-8.13794928177686
30
0
41
1
10
70.8058358381368
20
-8.17456023909023
30
0
41
1
10
71.3312351653204
20
-8.28302236895416
30
0
41
1
10
71.6816521271123
20
-8.35339705642741
30
0
41
1
10
72.3827715574706
20
-8.49034716854757
30
0
41
1
10
72.733476934075
20
-8.55695706764706
30
0
41
1
10
73.7853074379668
20
-8.75119299159968
30
0
41
1
10
74.4863446129835
20
-8.87326858352151
30
0
41
1
10
75.3621593853103
20
-9.01688148240441
30
0
41
1
10
75.5372973108307
20
-9.04515494506992
30
0
41
1
10
75.8875208459057
20
-9.10080016090501
30
0
41
1
10
76.0626097375793
20
-9.12816697021256
30
0
41
1
10
76.587922139604
20
-9.20874930112302
30
0
41
1
10
76.9382522673925
20
-9.26037229349083
30
0
41
1
10
77.6391264820882
20
-9.35950701478856
30
0
41
1
10
77.9896544107181
20
-9.40703803933073
30
0
41
1
10
78.690850790403
20
-9.49809005995436
30
0
41
1
10
79.041570275061
20
-9.54161538686282
30
0
41
1
10
79.7428195743389
20
-9.62466033896419
30
0
41
1
10
80.0933418844613
20
-9.66417993281073
30
0
41
1
10
80.6189324492866
20
-9.72046827700967
30
0
41
1
10
80.7940959812621
20
-9.73873325824121
30
0
41
1
10
81.1443562320214
20
-9.77426092258045
30
0
41
1
10
81.3194566634618
20
-9.79151981945594
30
0
41
1
10
82.19500372396
20
-9.87512888101531
30
0
41
1
10
82.8958316358374
20
-9.93326403626415
30
0
41
1
10
84.2977713779673
20
-10.0326746114848
30
0
41
1
10
84.998904107093
20
-10.0739345514523
30
0
41
1
10
85.6999999999999
20
-10.1067468598049
30
0
0
SPLINE
5
CB
100
AcDbEntity
8
1
62
256
6
ByLayer
370
18
48
1
60
0
100
AcDbSpline
70
4
71
3
72
89
73
85
40
0
40
0
40
0
40
0
40
0.0194851178011342
40
0.0194851178011342
40
0.0403471365713228
40
0.0403471365713228
40
0.0820711741116998
40
0.0820711741116998
40
0.102933192881888
40
0.102933192881888
40
0.123795211652076
40
0.123795211652076
40
0.13422622103717
40
0.13422622103717
40
0.144657230422264
40
0.165519249192452
40
0.165519249192452
40
0.207243286732829
40
0.207243286732829
40
0.228105305503017
40
0.228105305503017
40
0.248967324273206
40
0.248967324273206
40
0.290691361813582
40
0.290691361813582
40
0.31155338058377
40
0.31155338058377
40
0.332415399353958
40
0.332415399353958
40
0.374139436894335
40
0.374139436894335
40
0.395001455664523
40
0.395001455664523
40
0.415863474434711
40
0.415863474434711
40
0.426294483819805
40
0.426294483819805
40
0.436725493204898
40
0.436725493204898
40
0.457587511975087
40
0.457587511975087
40
0.499311549515463
40
0.499311549515463
40
0.520173568285651
40
0.520173568285651
40
0.54103558705584
40
0.54103558705584
40
0.561897605826029
40
0.561897605826029
40
0.582759624596217
40
0.582759624596217
40
0.603621643366406
40
0.603621643366406
40
0.624483662136594
40
0.624483662136594
40
0.666207699676971
40
0.666207699676971
40
0.687069718447159
40
0.687069718447159
40
0.707931737217347
40
0.707931737217347
40
0.718362746602442
40
0.718362746602442
40
0.728793755987536
40
0.728793755987536
40
0.749655774757724
40
0.749655774757724
40
0.791379812298101
40
0.791379812298101
40
0.801810821683196
40
0.801810821683196
40
0.812241831068291
40
0.812241831068291
40
0.833103849838481
40
0.833103849838481
40
0.87482788737886
40
0.87482788737886
40
0.895689906149051
40
0.895689906149051
40
0.916551924919241
40
0.916551924919241
40
0.95827596245962
40
0.95827596245962
40
1
40
1
40
1
40
1
41
1
10
67.6499258067496
20
-7.47363538471993
30
0
41
1
10
67.30017016681
20
-7.55603398555232
30
0
41
1
10
66.9504281504758
20
-7.63693796491003
30
0
41
1
10
66.2262735425849
20
-7.80137135303409
30
0
41
1
10
65.8518602138901
20
-7.88466901532078
30
0
41
1
10
64.7280195520016
20
-8.12816535917563
30
0
41
1
10
63.9788014062021
20
-8.28216487181254
30
0
41
1
10
62.855262475906
20
-8.50101924566124
30
0
41
1
10
62.4807905053785
20
-8.5719448762438
30
0
41
1
10
61.7319638938428
20
-8.70978251299354
30
0
41
1
10
61.3576248794245
20
-8.77671645189096
30
0
41
1
10
60.796153230681
20
-8.87400183655038
30
0
41
1
10
60.6089930550985
20
-8.9058976163266
30
0
41
1
10
60.2345995105194
20
-8.96853108591429
30
0
41
1
10
59.6729150724623
20
-9.06076736834942
30
0
41
1
10
59.1109739891612
20
-9.14792024706875
30
0
41
1
10
57.9867844709214
20
-9.31551787378245
30
0
41
1
10
57.237532608129
20
-9.41822285379567
30
0
41
1
10
56.1143216370723
20
-9.5588551261547
30
0
41
1
10
55.7400573004999
20
-9.6035246414832
30
0
41
1
10
54.9914480873481
20
-9.68807155067634
30
0
41
1
10
54.6170569457247
20
-9.72791223622772
30
0
41
1
10
53.4936712510711
20
-9.84023858149595
30
0
41
1
10
52.7444591324891
20
-9.90553955106381
30
0
41
1
10
51.6203685426552
20
-9.98921683383207
30
0
41
1
10
51.2457583600491
20
-10.0147182633739
30
0
41
1
10
50.4968665834862
20
-10.0609044852092
30
0
41
1
10
50.1225562561733
20
-10.081578960111
30
0
41
1
10
48.9993782943964
20
-10.1360706642611
30
0
41
1
10
48.2504308753723
20
-10.1624738971699
30
0
41
1
10
47.1269154883357
20
-10.187356625194
30
0
41
1
10
46.7523947016318
20
-10.1931933413021
30
0
41
1
10
46.0033565139698
20
-10.1999302411231
30
0
41
1
10
45.6288554253762
20
-10.2008290730903
30
0
41
1
10
45.067050678176
20
-10.1984360516514
30
0
41
1
10
44.879782380485
20
-10.1970148806445
30
0
41
1
10
44.5052535415318
20
-10.1929346413622
30
0
41
1
10
44.3179876320486
20
-10.1902756666257
30
0
41
1
10
43.756192147453
20
-10.1804510646468
30
0
41
1
10
43.3816660219156
20
-10.1714384935271
30
0
41
1
10
42.2581330522381
20
-10.1370472895977
30
0
41
1
10
41.5091673574533
20
-10.1043342194387
30
0
41
1
10
40.3859872997996
20
-10.0404148836438
30
0
41
1
10
40.0116761669055
20
-10.016604058643
30
0
41
1
10
39.2628507043746
20
-9.96414436675275
30
0
41
1
10
38.8882939243649
20
-9.93552766972388
30
0
41
1
10
38.1389262479906
20
-9.87353646995609
30
0
41
1
10
37.7642268165692
20
-9.84017092464248
30
0
41
1
10
37.0150022562831
20
-9.76871925892496
30
0
41
1
10
36.6404477204983
20
-9.73063120786526
30
0
41
1
10
35.8914874683254
20
-9.64969364027567
30
0
41
1
10
35.5170836129102
20
-9.60684218315697
30
0
41
1
10
34.7684465682416
20
-9.51631871639361
30
0
41
1
10
34.3942030404432
20
-9.46864937928731
30
0
41
1
10
33.2710512757966
20
-9.31912155987536
30
0
41
1
10
32.5218928738312
20
-9.21059989548024
30
0
41
1
10
31.3977195284203
20
-9.03446775303922
30
0
41
1
10
31.0230259226673
20
-8.97354416996643
30
0
41
1
10
30.2739427989827
20
-8.84724103120212
30
0
41
1
10
29.8995380450301
20
-8.78182999195371
30
0
41
1
10
29.3380524647641
20
-8.68042302636195
30
0
41
1
10
29.1509007666162
20
-8.64608729908105
30
0
41
1
10
28.7765540838069
20
-8.57644977476335
30
0
41
1
10
28.5893649339095
20
-8.54113945140742
30
0
41
1
10
28.0277570071406
20
-8.43373015325787
30
0
41
1
10
27.6532989372201
20
-8.36015171607013
30
0
41
1
10
26.5297998306563
20
-8.13347336799899
30
0
41
1
10
25.7806303388446
20
-7.97445155218591
30
0
41
1
10
24.8441064872058
20
-7.76543371786426
30
0
41
1
10
24.656811401342
20
-7.72311525879141
30
0
41
1
10
24.2823538521467
20
-7.63750555672655
30
0
41
1
10
24.095171347165
20
-7.59421400274448
30
0
41
1
10
23.5336569469705
20
-7.46308820324538
30
0
41
1
10
23.1593446868281
20
-7.37403197168481
30
0
41
1
10
22.0365483218598
20
-7.10189778195314
30
0
41
1
10
21.288195953082
20
-6.91388221523974
30
0
41
1
10
20.1660950864281
20
-6.6216532009681
30
0
41
1
10
19.7921362318954
20
-6.52253224097981
30
0
41
1
10
19.0443855266134
20
-6.32080356059907
30
0
41
1
10
18.6705814660982
20
-6.21821827413635
30
0
41
1
10
17.5487489435699
20
-5.90676476231994
30
0
41
1
10
16.8004719179078
20
-5.69383027064885
30
0
41
1
10
15.3033336761139
20
-5.25697604082819
30
0
41
1
10
14.5544663510382
20
-5.03307329276481
30
0
41
1
10
13.805424597487
20
-4.80326400244513
30
0
0
SPLINE
5
CC
100
AcDbEntity
8
1
62
256
6
ByLayer
370
18
48
1
60
0
100
AcDbSpline
70
4
71
3
72
101
73
97
40
0
40
0
40
0
40
0
40
0.0625000000000003
40
0.0625000000000003
40
0.0937499999999995
40
0.0937499999999995
40
0.124999999999999
40
0.124999999999999
40
0.156249999999998
40
0.156249999999998
40
0.164062499999999
40
0.164062499999999
40
0.171874999999999
40
0.171874999999999
40
0.1875
40
0.1875
40
0.218750000000002
40
0.218750000000002
40
0.250000000000004
40
0.250000000000004
40
0.281250000000005
40
0.281250000000005
40
0.289062500000006
40
0.289062500000006
40
0.296875000000006
40
0.312500000000007
40
0.312500000000007
40
0.34375000000001
40
0.34375000000001
40
0.359375000000012
40
0.359375000000012
40
0.367187500000013
40
0.367187500000013
40
0.371093750000013
40
0.371093750000013
40
0.375000000000014
40
0.406250000000016
40
0.406250000000016
40
0.437500000000019
40
0.437500000000019
40
0.44140625000002
40
0.44140625000002
40
0.44531250000002
40
0.453125000000021
40
0.468750000000022
40
0.468750000000022
40
0.500000000000024
40
0.500000000000024
40
0.507812500000025
40
0.507812500000025
40
0.515625000000025
40
0.515625000000025
40
0.531250000000026
40
0.531250000000026
40
0.562500000000029
40
0.562500000000029
40
0.566406250000029
40
0.566406250000029
40
0.570312500000029
40
0.570312500000029
40
0.578125000000029
40
0.593750000000029
40
0.593750000000029
40
0.625000000000029
40
0.625000000000029
40
0.640625000000029
40
0.640625000000029
40
0.648437500000029
40
0.648437500000029
40
0.656250000000029
40
0.656250000000029
40
0.687500000000029
40
0.687500000000029
40
0.718750000000029
40
0.718750000000029
40
0.750000000000029
40
0.750000000000029
40
0.757812500000028
40
0.757812500000028
40
0.765625000000028
40
0.765625000000028
40
0.781250000000027
40
0.781250000000027
40
0.812500000000024
40
0.812500000000024
40
0.84375000000002
40
0.84375000000002
40
0.875000000000016
40
0.875000000000016
40
0.906250000000012
40
0.906250000000012
40
0.937500000000008
40
0.937500000000008
40
0.968750000000004
40
0.968750000000004
40
1
40
1
40
1
40
1
41
1
10
10
20
8.16369262511671
30
0
41
1
10
9.57438593945471
20
8.18468685460306
30
0
41
1
10
9.15661402953333
20
8.19027806813682
30
0
41
1
10
8.54176218560252
20
8.1717874541373
30
0
41
1
10
8.33878198459144
20
8.16112674798168
30
0
41
1
10
7.93681399015966
20
8.12991349370589
30
0
41
1
10
7.73782573412433
20
8.10936348350495
30
0
41
1
10
7.34393589640533
20
8.05722635973174
30
0
41
1
10
7.1490335920324
20
8.02564333577126
30
0
41
1
10
6.90805666138644
20
7.97833340128511
30
0
41
1
10
6.85999400471377
20
7.96847881449705
30
0
41
1
10
6.76413738387169
20
7.94795645631308
30
0
41
1
10
6.71630719864604
20
7.93727978259633
30
0
41
1
10
6.57367074998083
20
7.90409133942717
30
0
41
1
10
6.47962110470624
20
7.8804037248147
30
0
41
1
10
6.2006368450231
20
7.80443439436229
30
0
41
1
10
6.01886057794445
20
7.74726001905503
30
0
41
1
10
5.66408481620601
20
7.61839296772541
30
0
41
1
10
5.49108235497175
20
7.5467074497187
30
0
41
1
10
5.15443740154342
20
7.38684038942424
30
0
41
1
10
4.99078945383511
20
7.2986718231659
30
0
41
1
10
4.79266697478579
20
7.17640724715528
30
0
41
1
10
4.75344491730118
20
7.15139650397009
30
0
41
1
10
4.67601975555382
20
7.10036083379416
30
0
41
1
10
4.56131664940187
20
7.02222740976481
30
0
41
1
10
4.45096708794944
20
6.93924151055791
30
0
41
1
10
4.23625590867371
20
6.76643763221799
30
0
41
1
10
4.10107198694593
20
6.64215970391231
30
0
41
1
10
3.91137276746053
20
6.44017439771713
30
0
41
1
10
3.85032522330462
20
6.37024361406594
30
0
41
1
10
3.76224573050726
20
6.2611095022005
30
0
41
1
10
3.73346844992318
20
6.22402440025303
30
0
41
1
10
3.69120904018257
20
6.16728664465916
30
0
41
1
10
3.677261018389
20
6.14817096902516
30
0
41
1
10
3.64975097299666
20
6.10967024687523
30
0
41
1
10
3.52768991636287
20
5.93519664899637
30
0
41
1
10
3.4211829565632
20
5.74972576123864
30
0
41
1
10
3.25794579822048
20
5.40099810476957
30
0
41
1
10
3.18935928369564
20
5.21715020665584
30
0
41
1
10
3.12861063075491
20
4.99813338402956
30
0
41
1
10
3.12209949504552
20
4.97365978311342
30
0
41
1
10
3.10959955487385
20
4.92460387217395
30
0
41
1
10
3.0916124522264
20
4.8507827717672
30
0
41
1
10
3.05496433780351
20
4.6768743224772
30
0
41
1
10
3.03262638185367
20
4.52496762144278
30
0
41
1
10
3.00005695859366
20
4.21733872502432
30
0
41
1
10
2.99443272331195
20
4.00717827702422
30
0
41
1
10
3.00831126770729
20
3.73786595316386
30
0
41
1
10
3.0121412779628
20
3.6836206987717
30
0
41
1
10
3.02191829321808
20
3.57467218567032
30
0
41
1
10
3.02783454217979
20
3.52028858925843
30
0
41
1
10
3.04858732930757
20
3.35740384987722
30
0
41
1
10
3.06642449601381
20
3.2491683645919
30
0
41
1
10
3.13144575809557
20
2.92549320182496
30
0
41
1
10
3.19010045463119
20
2.71108021187746
30
0
41
1
10
3.27246438673114
20
2.47138696321997
30
0
41
1
10
3.28184422174437
20
2.44477560680633
30
0
41
1
10
3.30105888080902
20
2.3915954352124
30
0
41
1
10
3.31090324661099
20
2.36500223873557
30
0
41
1
10
3.34100152539193
20
2.2855861453904
30
0
41
1
10
3.40352602294956
20
2.12800929571125
30
0
41
1
10
3.47274412414808
20
1.97404209513684
30
0
41
1
10
3.61947889649886
20
1.67058321236891
30
0
41
1
10
3.72833875690122
20
1.47422951182187
30
0
41
1
10
3.90637199555744
20
1.18765169718427
30
0
41
1
10
3.96818165645681
20
1.09345553109776
30
0
41
1
10
4.06442465589245
20
0.954064757655658
30
0
41
1
10
4.09712818542823
20
0.907871746830637
30
0
41
1
10
4.16353140743675
20
0.81632111429272
30
0
41
1
10
4.19715951875367
20
0.771059458645539
30
0
41
1
10
4.36733857587907
20
0.547200270541026
30
0
41
1
10
4.50997914746819
20
0.375916768746947
30
0
41
1
10
4.80632243168779
20
0.046511951943728
30
0
41
1
10
4.96003442170118
20
-0.111597836744835
30
0
41
1
10
5.27709080985383
20
-0.416448202518609
30
0
41
1
10
5.44044014767914
20
-0.563182637094286
30
0
41
1
10
5.64992106387942
20
-0.740389908979864
30
0
41
1
10
5.69208245231451
20
-0.775520144679433
30
0
41
1
10
5.77691911973707
20
-0.845178259683593
30
0
41
1
10
5.81961647026884
20
-0.879723694046533
30
0
41
1
10
5.94830535529829
20
-0.982365934086914
30
0
41
1
10
6.03469538668742
20
-1.04931426072378
30
0
41
1
10
6.2955072644549
20
-1.24610611125516
30
0
41
1
10
6.47156701891339
20
-1.37190845330775
30
0
41
1
10
6.82736535407898
20
-1.61444512411555
30
0
41
1
10
7.00710480912852
20
-1.73117622003849
30
0
41
1
10
7.36968836741531
20
-1.95693127474814
30
0
41
1
10
7.55253261484501
20
-2.06595378313932
30
0
41
1
10
7.92085108101418
20
-2.27737538665346
30
0
41
1
10
8.10632499193406
20
-2.3797740477755
30
0
41
1
10
8.4795310696411
20
-2.57878009612918
30
0
41
1
10
8.66726269442887
20
-2.6753875426071
30
0
41
1
10
9.04472902989394
20
-2.86339541039939
30
0
41
1
10
9.23446316839124
20
-2.95479597149401
30
0
41
1
10
9.61581341139993
20
-3.13272190270504
30
0
41
1
10
9.8074290988383
20
-3.21924717412691
30
0
41
1
10
10
20
-3.30337367918966
30
0
0
SPLINE
5
CD
100
AcDbEntity
8
1
62
256
6
ByLayer
370
18
48
1
60
0
100
AcDbSpline
70
4
71
3
72
14
73
10
40
0
40
0
40
0
40
0
40
0.25
40
0.25
40
0.5
40
0.5
40
0.75
40
0.75
40
1
40
1
40
1
40
1
41
1
10
13.8054245974869
20
-4.80326400244513
30
0
41
1
10
13.4797374544105
20
-4.70028806332977
30
0
41
1
10
13.1566440974782
20
-4.59116597315813
30
0
41
1
10
12.5146989582589
20
-4.36213154432232
30
0
41
1
10
12.1958426047786
20
-4.2422309998409
30
0
41
1
10
11.5618772929767
20
-3.99226126461051
30
0
41
1
10
11.246766672288
20
-3.8621991318492
30
0
41
1
10
10.6203613822555
20
-3.59132503485623
30
0
41
1
10
10.3090679732301
20
-3.45051469800072
30
0
41
1
10
10
20
-3.30337367918966
30
0
0
SPLINE
5
CE
100
AcDbEntity
8
1
62
256
6
ByLayer
370
18
48
1
60
0
100
AcDbSpline
70
4
71
4
72
16
73
11
40
0
40
0
40
0
40
0
40
0
40
0.287118880093184
40
0.287118880093184
40
0.287118880093184
40
0.712881119906814
40
0.712881119906814
40
0.712881119906814
40
1
40
1
40
1
40
1
40
1
41
0.996537753475019
10
18.4167010222642
20
7.6619697476302
30
0
41
0.994683864275089
10
18.271607066926
20
7.05344459999431
30
0
41
0.994558196276752
10
18.0251168793441
20
6.18513300601433
30
0
41
1
10
17.689430511763
20
5.12019149862513
30
0
41
1
10
16.8037165766067
20
2.45860423090164
30
0
41
0.988033871712585
10
16.1110628098756
20
0.501556801296716
30
0
41
1
10
15.4184090431445
20
-1.28616850221013
30
0
41
1
10
14.5326951079882
20
-3.41311708460333
30
0
41
0.994558196276751
10
14.197008740407
20
-4.16303491469782
30
0
41
0.994683864275089
10
13.9505185528251
20
-4.62735121905811
30
0
41
0.996537753475019
10
13.805424597487
20
-4.80326400244514
30
0
0
SPLINE
5
CF
100
AcDbEntity
8
1
62
256
6
ByLayer
370
18
48
1
60
0
100
AcDbSpline
70
4
71
3
72
26
73
22
40
0
40
0
40
0
40
0
40
0.124999999999995
40
0.124999999999995
40
0.249999999999989
40
0.249999999999989
40
0.374999999999984
40
0.374999999999984
40
0.406249999999984
40
0.406249999999984
40
0.437499999999984
40
0.437499999999984
40
0.499999999999983
40
0.499999999999983
40
0.624999999999987
40
0.624999999999987
40
0.749999999999992
40
0.749999999999992
40
0.874999999999996
40
0.874999999999996
40
1
40
1
40
1
40
1
41
1
10
10
20
8.16369262511671
30
0
41
1
10
10.3509315189147
20
8.21401363243663
30
0
41
1
10
10.7032792717005
20
8.25290345856689
30
0
41
1
10
11.4105933738942
20
8.31102939107484
30
0
41
1
10
11.7655612597564
20
8.33024664841807
30
0
41
1
10
12.4779769583031
20
8.35078659429232
30
0
41
1
10
12.8354259601453
20
8.35209660480857
30
0
41
1
10
13.2837201131769
20
8.34306236521726
30
0
41
1
10
13.3734531188143
20
8.34072011068827
30
0
41
1
10
13.5530658178825
20
8.33497140821126
30
0
41
1
10
13.6430187071548
20
8.33156101481461
30
0
41
1
10
13.9120925500887
20
8.3197886794452
30
0
41
1
10
14.0906816480486
20
8.30988207443835
30
0
41
1
10
14.6242073494397
20
8.27422336665475
30
0
41
1
10
14.976902075738
20
8.24253946557297
30
0
41
1
10
15.6770354313872
20
8.16430889515362
30
0
41
1
10
16.0244729730376
20
8.11775333654685
30
0
41
1
10
16.7148322542721
20
8.01059628991251
30
0
41
1
10
17.0577549345283
20
7.94999208206946
30
0
41
1
10
17.7398523209673
20
7.81562012233354
30
0
41
1
10
18.0790301820588
20
7.74185807250115
30
0
41
1
10
18.4167010222642
20
7.6619697476302
30
0
0
SPLINE
5
D0
100
AcDbEntity
8
1
62
256
6
ByLayer
370
13
48
1
60
0
100
AcDbSpline
70
4
71
3
72
81
73
77
40
0
40
0
40
0
40
0
40
0.0312500000000008
40
0.0312500000000008
40
0.0625000000000016
40
0.0625000000000016
40
0.0937500000000024
40
0.0937500000000024
40
0.125000000000003
40
0.125000000000003
40
0.156250000000004
40
0.156250000000004
40
0.187500000000005
40
0.187500000000005
40
0.218750000000006
40
0.218750000000006
40
0.250000000000006
40
0.250000000000006
40
0.281250000000007
40
0.281250000000007
40
0.312500000000008
40
0.312500000000008
40
0.343750000000009
40
0.343750000000009
40
0.359375000000009
40
0.359375000000009
40
0.363281250000009
40
0.363281250000009
40
0.367187500000009
40
0.367187500000009
40
0.375000000000009
40
0.375000000000009
40
0.406250000000009
40
0.406250000000009
40
0.437500000000009
40
0.437500000000009
40
0.468750000000009
40
0.468750000000009
40
0.50000000000001
40
0.50000000000001
40
0.53125000000001
40
0.53125000000001
40
0.56250000000001
40
0.56250000000001
40
0.59375000000001
40
0.59375000000001
40
0.62500000000001
40
0.62500000000001
40
0.65625000000001
40
0.65625000000001
40
0.68750000000001
40
0.68750000000001
40
0.718750000000011
40
0.718750000000011
40
0.72656250000001
40
0.73046875000001
40
0.73046875000001
40
0.73437500000001
40
0.73437500000001
40
0.75000000000001
40
0.75000000000001
40
0.781250000000008
40
0.781250000000008
40
0.812500000000007
40
0.812500000000007
40
0.843750000000006
40
0.843750000000006
40
0.875000000000005
40
0.875000000000005
40
0.906250000000004
40
0.906250000000004
40
0.937500000000002
40
0.937500000000002
40
0.968750000000001
40
0.968750000000001
40
1
40
1
40
1
40
1
41
1
10
89.1506480563355
20
10.7155
30
0
41
1
10
89.2282441906937
20
10.7155
30
0
41
1
10
89.3058403250519
20
10.6893706053239
30
0
41
1
10
89.4610325937683
20
10.57772609488
30
0
41
1
10
89.5386287281264
20
10.4921774569249
30
0
41
1
10
89.6938209968428
20
10.2566010179385
30
0
41
1
10
89.771417131201
20
10.1065439056389
30
0
41
1
10
89.9266093999173
20
9.7399225829738
30
0
41
1
10
90.0042055342755
20
9.52334074872445
30
0
41
1
10
90.1593978029917
20
9.02544071543099
30
0
41
1
10
90.23699393735
20
8.74412278405541
30
0
41
1
10
90.3921862060664
20
8.12260177377536
30
0
41
1
10
90.4697823404246
20
7.7824191751036
30
0
41
1
10
90.624974609141
20
7.05279344322509
30
0
41
1
10
90.7025707434991
20
6.66338795244374
30
0
41
1
10
90.8577630122154
20
5.84782541554594
30
0
41
1
10
90.9353591465735
20
5.42171540903951
30
0
41
1
10
91.0905514152898
20
4.54683325931725
30
0
41
1
10
91.1681475496482
20
4.0981077288485
30
0
41
1
10
91.3233398183644
20
3.19222109774822
30
0
41
1
10
91.4009359527226
20
2.73509762344901
30
0
41
1
10
91.556128221439
20
1.82548456607412
30
0
41
1
10
91.6337243557972
20
1.37301870446814
30
0
41
1
10
91.7501185573344
20
0.706028087278867
30
0
41
1
10
91.7889166245135
20
0.485630752651275
30
0
41
1
10
91.8374142084874
20
0.213256348042791
30
0
41
1
10
91.8471137252822
20
0.158937177289772
30
0
41
1
10
91.8665127588718
20
0.0506262907790642
30
0
41
1
10
91.8762122756665
20
-0.0032533834087474
30
0
41
1
10
91.9053108260508
20
-0.165430471931273
30
0
41
1
10
91.9247098596404
20
-0.274212898608539
30
0
41
1
10
92.021705027588
20
-0.821123473815902
30
0
41
1
10
92.0993011619462
20
-1.26834738516848
30
0
41
1
10
92.2544934306626
20
-2.17227343588988
30
0
41
1
10
92.3320895650208
20
-2.62895799933565
30
0
41
1
10
92.4872818337371
20
-3.53953793115647
30
0
41
1
10
92.5648779680953
20
-3.99340104777738
30
0
41
1
10
92.7200702368117
20
-4.88447104540117
30
0
41
1
10
92.7976663711698
20
-5.32163414757963
30
0
41
1
10
92.9528586398862
20
-6.16499450289814
30
0
41
1
10
93.0304547742443
20
-6.57114370299075
30
0
41
1
10
93.1856470429607
20
-7.33913331736687
30
0
41
1
10
93.2632431773189
20
-7.70093108866416
30
0
41
1
10
93.4184354460352
20
-8.36924067515588
30
0
41
1
10
93.4960315803934
20
-8.67572426833237
30
0
41
1
10
93.6512238491098
20
-9.22588974550521
30
0
41
1
10
93.7288199834679
20
-9.46956303125691
30
0
41
1
10
93.8840122521843
20
-9.89062127221146
30
0
41
1
10
93.9616083865425
20
-10.0680170714826
30
0
41
1
10
94.1168006552588
20
-10.35702328185
30
0
41
1
10
94.194396789617
20
-10.4686590891201
30
0
41
1
10
94.3495890583333
20
-10.6300717064229
30
0
41
1
10
94.4271851926915
20
-10.6798811833899
30
0
41
1
10
94.5241803606392
20
-10.7075121898766
30
0
41
1
10
94.5532789110235
20
-10.7132112986751
30
0
41
1
10
94.5823774614079
20
-10.715156440878
30
0
41
1
10
94.6017764949975
20
-10.7156341837123
30
0
41
1
10
94.6114760117922
20
-10.7154657558489
30
0
41
1
10
94.659973595766
20
-10.7125648337888
30
0
41
1
10
94.6987716629452
20
-10.7036377664948
30
0
41
1
10
94.8151658644824
20
-10.6556518399485
30
0
41
1
10
94.8927619988406
20
-10.5953166573704
30
0
41
1
10
95.047954267557
20
-10.4119445499367
30
0
41
1
10
95.1255504019151
20
-10.2888756941939
30
0
41
1
10
95.2807426706315
20
-9.97663924800148
30
0
41
1
10
95.3583388049897
20
-9.78744833757818
30
0
41
1
10
95.5135310737061
20
-9.34311096860722
30
0
41
1
10
95.5911272080641
20
-9.08795685949502
30
0
41
1
10
95.7463194767806
20
-8.5158669545375
30
0
41
1
10
95.8239156111387
20
-8.19894337256773
30
0
41
1
10
95.9791078798551
20
-7.51146279618513
30
0
41
1
10
96.0567040142132
20
-7.14093709503945
30
0
41
1
10
96.2118962829296
20
-6.35771387976462
30
0
41
1
10
96.2894924172878
20
-5.94506068616423
30
0
41
1
10
96.4446846860042
20
-5.09119517153127
30
0
41
1
10
96.5222808203623
20
-4.65003081814407
30
0
41
1
10
96.5998769547205
20
-4.20175754550837
30
0
0
SPLINE
5
D1
100
AcDbEntity
8
1
62
256
6
ByLayer
370
13
48
1
60
0
100
AcDbSpline
70
4
71
3
72
43
73
39
40
0
40
0
40
0
40
0
40
0.0624999999999962
40
0.0624999999999962
40
0.124999999999992
40
0.124999999999992
40
0.187499999999989
40
0.187499999999989
40
0.218749999999987
40
0.218749999999987
40
0.226562499999986
40
0.226562499999986
40
0.234374999999986
40
0.249999999999986
40
0.249999999999986
40
0.312499999999987
40
0.312499999999987
40
0.374999999999989
40
0.374999999999989
40
0.43749999999999
40
0.43749999999999
40
0.499999999999991
40
0.499999999999991
40
0.562499999999992
40
0.562499999999992
40
0.624999999999993
40
0.624999999999993
40
0.687499999999994
40
0.687499999999994
40
0.749999999999995
40
0.749999999999995
40
0.812499999999997
40
0.812499999999997
40
0.874999999999998
40
0.874999999999998
40
0.937499999999999
40
0.937499999999999
40
1
40
1
40
1
40
1
41
1
10
85.7
20
-4.51812091607405
30
0
41
1
10
85.7730340173448
20
-4.09973799995271
30
0
41
1
10
85.8460680346898
20
-3.67359662943895
30
0
41
1
10
85.9921360693795
20
-2.81738222452674
30
0
41
1
10
86.0651700867244
20
-2.38733421617846
30
0
41
1
10
86.211238121414
20
-1.53379888398504
30
0
41
1
10
86.284272138759
20
-1.11032648869693
30
0
41
1
10
86.3938231647762
20
-0.486584309547936
30
0
41
1
10
86.4303401734486
20
-0.280566201756926
30
0
41
1
10
86.4759864342892
20
-0.0259745276572971
30
0
41
1
10
86.4851156864573
20
0.0247216512460966
30
0
41
1
10
86.5033741907936
20
0.126553513977228
30
0
41
1
10
86.5307619472978
20
0.279740029088487
30
0
41
1
10
86.5581497038022
20
0.434183946750181
30
0
41
1
10
86.6494422254832
20
0.951510933924226
30
0
41
1
10
86.7224762428281
20
1.37349509448032
30
0
41
1
10
86.8685442775179
20
2.22525755161254
30
0
41
1
10
86.9415782948627
20
2.655022229075
30
0
41
1
10
87.0876463295524
20
3.51206920003727
30
0
41
1
10
87.1606803468973
20
3.93932766421602
30
0
41
1
10
87.3067483815871
20
4.77983011157045
30
0
41
1
10
87.3797823989319
20
5.19304211187526
30
0
41
1
10
87.5258504336217
20
5.99351182892431
30
0
41
1
10
87.5988844509665
20
6.38073402978981
30
0
41
1
10
87.7449524856562
20
7.11790938121786
30
0
41
1
10
87.8179865030011
20
7.46782975644931
30
0
41
1
10
87.9640545376909
20
8.12076136749698
30
0
41
1
10
88.0370885550357
20
8.4237487398984
30
0
41
1
10
88.1831565897254
20
8.97572143780783
30
0
41
1
10
88.2561906070704
20
9.22469596900163
30
0
41
1
10
88.40225864176
20
9.66463058140553
30
0
41
1
10
88.475292659105
20
9.8555938751843
30
0
41
1
10
88.6213606937947
20
10.1786881993521
30
0
41
1
10
88.6943947111396
20
10.3108341836621
30
0
41
1
10
88.8404627458293
20
10.5183867066667
30
0
41
1
10
88.9134967631741
20
10.5938155763072
30
0
41
1
10
89.0595647978638
20
10.6923598191209
30
0
41
1
10
89.1325988152087
20
10.7155
30
0
41
1
10
89.2056328325536
20
10.7155
30
0
0
SPLINE
5
D2
100
AcDbEntity
8
1
62
256
6
ByLayer
370
13
48
1
60
0
100
AcDbSpline
70
4
71
3
72
79
73
75
40
0
40
0
40
0
40
0
40
0.03125
40
0.03125
40
0.0624999999999999
40
0.0624999999999999
40
0.0937499999999999
40
0.0937499999999999
40
0.125
40
0.125
40
0.15625
40
0.15625
40
0.1875
40
0.1875
40
0.21875
40
0.21875
40
0.25
40
0.25
40
0.28125
40
0.28125
40
0.3125
40
0.3125
40
0.328125
40
0.328125
40
0.3359375
40
0.3359375
40
0.34375
40
0.34375
40
0.375
40
0.375
40
0.40625
40
0.40625
40
0.4375
40
0.4375
40
0.46875
40
0.46875
40
0.5
40
0.5
40
0.53125
40
0.53125
40
0.5625
40
0.5625
40
0.59375
40
0.59375
40
0.625
40
0.625
40
0.65625
40
0.65625
40
0.671875
40
0.671875
40
0.6796875
40
0.68359375
40
0.68359375
40
0.6875
40
0.6875
40
0.71875
40
0.71875
40
0.75
40
0.75
40
0.78125
40
0.78125
40
0.8125
40
0.8125
40
0.84375
40
0.84375
40
0.875
40
0.875
40
0.90625
40
0.90625
40
0.9375
40
0.9375
40
0.96875
40
0.96875
40
1
40
1
40
1
40
1
41
1
10
88.6576984118581
20
10.7155
30
0
41
1
10
88.7404294383464
20
10.7155
30
0
41
1
10
88.8231604648344
20
10.6857868543358
30
0
41
1
10
88.9886225178107
20
10.5583656579981
30
0
41
1
10
89.0713535442987
20
10.4606115671531
30
0
41
1
10
89.2368155972752
20
10.1912471911126
30
0
41
1
10
89.3195466237634
20
10.0195981336071
30
0
41
1
10
89.4850086767396
20
9.60069094216033
30
0
41
1
10
89.5677397032277
20
9.3534129168805
30
0
41
1
10
89.733201756204
20
8.78652788517667
30
0
41
1
10
89.8159327826921
20
8.46692860450702
30
0
41
1
10
89.9813948356684
20
7.7639252339099
30
0
41
1
10
90.0641258621566
20
7.38055797143085
30
0
41
1
10
90.229587915133
20
6.56311566826289
30
0
41
1
10
90.3123189416211
20
6.1290990843828
30
0
41
1
10
90.4777809945974
20
5.2265615294927
30
0
41
1
10
90.5605120210856
20
4.75810667989498
30
0
41
1
10
90.7259740740619
20
3.80407561547699
30
0
41
1
10
90.80870510055
20
3.31855820002653
30
0
41
1
10
90.9741671535263
20
2.34703459826849
30
0
41
1
10
91.0568981800145
20
1.861069250708
30
0
41
1
10
91.1809947197468
20
1.14251880293611
30
0
41
1
10
91.2223602329908
20
0.904713331129869
30
0
41
1
10
91.2844085028569
20
0.55169418564833
30
0
41
1
10
91.3050912594789
20
0.434634370812603
30
0
41
1
10
91.3464567727229
20
0.201908484130513
30
0
41
1
10
91.367139529345
20
0.0864655554018725
30
0
41
1
10
91.4705533124552
20
-0.489270327920451
30
0
41
1
10
91.5532843389433
20
-0.962175309439886
30
0
41
1
10
91.7187463919197
20
-1.92135210664807
30
0
41
1
10
91.8014774184078
20
-2.40760387085837
30
0
41
1
10
91.9669394713841
20
-3.37904793916877
30
0
41
1
10
92.0496704978722
20
-3.86419853522196
30
0
41
1
10
92.2151325508486
20
-4.81677753155597
30
0
41
1
10
92.2978635773367
20
-5.28414657282545
30
0
41
1
10
92.463325630313
20
-6.18380199888648
30
0
41
1
10
92.5460566568012
20
-6.61602226873279
30
0
41
1
10
92.7115187097774
20
-7.4292525059146
30
0
41
1
10
92.7942497362656
20
-7.81020466555069
30
0
41
1
10
92.959711789242
20
-8.50792285238396
30
0
41
1
10
93.0424428157301
20
-8.82465317157499
30
0
41
1
10
93.2079048687062
20
-9.38555571940836
30
0
41
1
10
93.2906358951946
20
-9.62972146026439
30
0
41
1
10
93.4560979481709
20
-10.0423790755737
30
0
41
1
10
93.5388289746589
20
-10.2108918360268
30
0
41
1
10
93.7042910276354
20
-10.4741524894653
30
0
41
1
10
93.7870220541233
20
-10.5689396905415
30
0
41
1
10
93.9111185938556
20
-10.6602903535595
30
0
41
1
10
93.9524841070996
20
-10.6822967807084
30
0
41
1
10
94.0145323769658
20
-10.7034024849889
30
0
41
1
10
94.0455565118989
20
-10.7109811574352
30
0
41
1
10
94.076580646832
20
-10.7142556349249
30
0
41
1
10
94.097263403454
20
-10.7155004036855
30
0
41
1
10
94.107604781765
20
-10.7156550083487
30
0
41
1
10
94.2006771865642
20
-10.7128765339565
30
0
41
1
10
94.2834082130523
20
-10.680494886779
30
0
41
1
10
94.4488702660286
20
-10.5474279248953
30
0
41
1
10
94.5316012925168
20
-10.4466966482936
30
0
41
1
10
94.6970633454931
20
-10.1712151022563
30
0
41
1
10
94.7797943719812
20
-9.99642661698988
30
0
41
1
10
94.9452564249575
20
-9.57127237709892
30
0
41
1
10
95.0279874514457
20
-9.32088774155665
30
0
41
1
10
95.193449504422
20
-8.74804075406902
30
0
41
1
10
95.2761805309101
20
-8.42558736868676
30
0
41
1
10
95.4416425838864
20
-7.71733653693579
30
0
41
1
10
95.5243736103746
20
-7.33157702418677
30
0
41
1
10
95.6898356633508
20
-6.50997378828561
30
0
41
1
10
95.772566689839
20
-6.07418914610417
30
0
41
1
10
95.9380287428153
20
-5.16882800840256
30
0
41
1
10
96.0207597693035
20
-4.69931761407614
30
0
41
1
10
96.1862218222798
20
-3.74389365277312
30
0
41
1
10
96.2689528487679
20
-3.25803830679067
30
0
41
1
10
96.4344149017442
20
-2.28648892128771
30
0
41
1
10
96.5171459282323
20
-1.80083484494884
30
0
41
1
10
96.5998769547205
20
-1.32237803687451
30
0
0
SPLINE
5
D3
100
AcDbEntity
8
1
62
256
6
ByLayer
370
13
48
1
60
0
100
AcDbSpline
70
4
71
3
72
42
73
38
40
0
40
0
40
0
40
0
40
0.0625000000000007
40
0.0625000000000007
40
0.0937500000000011
40
0.0937500000000011
40
0.109375000000001
40
0.109375000000001
40
0.125000000000001
40
0.125000000000001
40
0.187500000000001
40
0.187500000000001
40
0.250000000000001
40
0.250000000000001
40
0.312500000000001
40
0.312500000000001
40
0.375000000000001
40
0.375000000000001
40
0.437500000000001
40
0.437500000000001
40
0.500000000000001
40
0.500000000000001
40
0.562500000000001
40
0.562500000000001
40
0.625000000000001
40
0.625000000000001
40
0.6875
40
0.6875
40
0.75
40
0.75
40
0.8125
40
0.8125
40
0.875
40
0.875
40
0.9375
40
0.9375
40
1
40
1
40
1
40
1
41
1
10
85.6999999999999
20
-1.64134249852418
30
0
41
1
10
85.7627642330849
20
-1.27622086150083
30
0
41
1
10
85.8255284661697
20
-0.91438729958216
30
0
41
1
10
85.9196748157972
20
-0.380542094635956
30
0
41
1
10
85.9510569323397
20
-0.204069414364568
30
0
41
1
10
85.9981301071534
20
0.0580079341392263
30
0
41
1
10
86.0138211654245
20
0.14544983032016
30
0
41
1
10
86.045203281967
20
0.321487048621321
30
0
41
1
10
86.0608943402382
20
0.409917738381068
30
0
41
1
10
86.1393496315944
20
0.853954310226385
30
0
41
1
10
86.2021138646793
20
1.21525256178032
30
0
41
1
10
86.3276423308491
20
1.94475073363708
30
0
41
1
10
86.390406563934
20
2.31294510652452
30
0
41
1
10
86.5159350301039
20
3.04996846501567
30
0
41
1
10
86.5786992631888
20
3.41878772548924
30
0
41
1
10
86.7042277293587
20
4.1499949689846
30
0
41
1
10
86.7669919624436
20
4.51236947123658
30
0
41
1
10
86.8925204286134
20
5.22317298698067
30
0
41
1
10
86.9552846616984
20
5.57158598356071
30
0
41
1
10
87.0808131278683
20
6.24695195673479
30
0
41
1
10
87.1435773609531
20
6.57388828634694
30
0
41
1
10
87.269105827123
20
7.19928401436181
30
0
41
1
10
87.3318700602079
20
7.49772838842543
30
0
41
1
10
87.4573985263778
20
8.06010488335431
30
0
41
1
10
87.5201627594627
20
8.32402570913285
30
0
41
1
10
87.6456912256325
20
8.81270398509218
30
0
41
1
10
87.7084554587174
20
9.03745533897424
30
0
41
1
10
87.8339839248873
20
9.44479353877597
30
0
41
1
10
87.8967481579722
20
9.62737999915521
30
0
41
1
10
88.022276624142
20
9.94913550428635
30
0
41
1
10
88.0850408572269
20
10.0883093824887
30
0
41
1
10
88.2105693233968
20
10.3236655157606
30
0
41
1
10
88.2733335564818
20
10.4198565487224
30
0
41
1
10
88.3988620226516
20
10.5711417696712
30
0
41
1
10
88.4616262557365
20
10.6262470058044
30
0
41
1
10
88.5871547219064
20
10.6984202977569
30
0
41
1
10
88.6499189549913
20
10.7155
30
0
41
1
10
88.7126831880762
20
10.7155
30
0
0
SPLINE
5
D4
100
AcDbEntity
8
1
62
256
6
ByLayer
370
13
48
1
60
0
100
AcDbSpline
70
4
71
3
72
85
73
81
40
0
40
0
40
0
40
0
40
0.0312499999999998
40
0.0312499999999998
40
0.0624999999999996
40
0.0624999999999996
40
0.0937499999999993
40
0.0937499999999993
40
0.124999999999999
40
0.124999999999999
40
0.156249999999999
40
0.156249999999999
40
0.187499999999999
40
0.187499999999999
40
0.218749999999999
40
0.218749999999999
40
0.249999999999998
40
0.249999999999998
40
0.281249999999998
40
0.281249999999998
40
0.312499999999998
40
0.312499999999998
40
0.320312499999998
40
0.320312499999998
40
0.324218749999998
40
0.324218749999998
40
0.328124999999998
40
0.343749999999999
40
0.343749999999999
40
0.375
40
0.375
40
0.406250000000001
40
0.406250000000001
40
0.437500000000002
40
0.437500000000002
40
0.468750000000003
40
0.468750000000003
40
0.500000000000004
40
0.500000000000004
40
0.531250000000005
40
0.531250000000005
40
0.562500000000006
40
0.562500000000006
40
0.593750000000007
40
0.593750000000007
40
0.625000000000008
40
0.625000000000008
40
0.640625000000008
40
0.640625000000008
40
0.644531250000008
40
0.644531250000008
40
0.648437500000008
40
0.648437500000008
40
0.656250000000008
40
0.656250000000008
40
0.687500000000008
40
0.687500000000008
40
0.718750000000007
40
0.718750000000007
40
0.750000000000006
40
0.750000000000006
40
0.781250000000005
40
0.781250000000005
40
0.812500000000005
40
0.812500000000005
40
0.843750000000004
40
0.843750000000004
40
0.875000000000003
40
0.875000000000003
40
0.906250000000002
40
0.906250000000002
40
0.937500000000002
40
0.937500000000002
40
0.968750000000001
40
0.968750000000001
40
0.9765625
40
0.9765625
40
0.984375
40
0.984375
40
1
40
1
40
1
40
1
41
1
10
88.1647487673807
20
10.7155
30
0
41
1
10
88.2526146859989
20
10.7155
30
0
41
1
10
88.340480604617
20
10.6819702954606
30
0
41
1
10
88.5162124418532
20
10.537670733283
30
0
41
1
10
88.6040783604714
20
10.4268389143699
30
0
41
1
10
88.7798101977075
20
10.1212999932163
30
0
41
1
10
88.8676761163257
20
9.92654292543031
30
0
41
1
10
89.043407953562
20
9.45192508103926
30
0
41
1
10
89.13127387218
20
9.17204377042302
30
0
41
1
10
89.3070057094163
20
8.532479070747
30
0
41
1
10
89.3948716280345
20
8.17281616441875
30
0
41
1
10
89.5706034652707
20
7.38555574041007
30
0
41
1
10
89.6584693838888
20
6.95801858187167
30
0
41
1
10
89.834201221125
20
6.05221145450565
30
0
41
1
10
89.9220671397432
20
5.57402666823231
30
0
41
1
10
90.0977989769794
20
4.58720736206382
30
0
41
1
10
90.1856648955975
20
4.07866005847185
30
0
41
1
10
90.3613967328338
20
3.05180305959186
30
0
41
1
10
90.4492626514519
20
2.53356194730282
30
0
41
1
10
90.6249944886882
20
1.50599828571239
30
0
41
1
10
90.7128604073063
20
0.996714581097649
30
0
41
1
10
90.822692805579
20
0.375078275324967
30
0
41
1
10
90.8446592852334
20
0.251489297166444
30
0
41
1
10
90.8776090047152
20
0.0673573617689271
30
0
41
1
10
90.8885922445426
20
0.0063311954921232
30
0
41
1
10
90.9105587241971
20
-0.11608490429191
30
0
41
1
10
90.9654749233333
20
-0.423187605951199
30
0
41
1
10
91.0203911224697
20
-0.735343551114426
30
0
41
1
10
91.1521900003968
20
-1.49175263920731
30
0
41
1
10
91.240055919015
20
-2.00579020040709
30
0
41
1
10
91.4157877562512
20
-3.03715396363717
30
0
41
1
10
91.5036536748694
20
-3.55443115733016
30
0
41
1
10
91.6793855121056
20
-4.57277228538433
30
0
41
1
10
91.7672514307238
20
-5.07375981356529
30
0
41
1
10
91.9429832679601
20
-6.03870085062005
30
0
41
1
10
92.0308491865782
20
-6.50256523716746
30
0
41
1
10
92.2065810238144
20
-7.373670855048
30
0
41
1
10
92.2944469424325
20
-7.78083265108813
30
0
41
1
10
92.4701787796687
20
-8.52279464199978
30
0
41
1
10
92.5580446982868
20
-8.85754639126895
30
0
41
1
10
92.7337765355231
20
-9.44479513450096
30
0
41
1
10
92.8216424541412
20
-9.6972855540422
30
0
41
1
10
92.9973742913775
20
-10.1168179933431
30
0
41
1
10
93.0852402099956
20
-10.283891828652
30
0
41
1
10
93.2609720472318
20
-10.5356917671338
30
0
41
1
10
93.34883796585
20
-10.6204736934421
30
0
41
1
10
93.4806368437771
20
-10.6918991607661
30
0
41
1
10
93.5245698030862
20
-10.7064491480202
30
0
41
1
10
93.5794860022226
20
-10.7138771769463
30
0
41
1
10
93.5904692420498
20
-10.7148251963431
30
0
41
1
10
93.6124357217044
20
-10.7156678329104
30
0
41
1
10
93.6234189615316
20
-10.7155656430924
30
0
41
1
10
93.6563686810134
20
-10.7136789217342
30
0
41
1
10
93.6783351606679
20
-10.7103053971405
30
0
41
1
10
93.7881675589406
20
-10.6824310389381
30
0
41
1
10
93.8760334775588
20
-10.6247842627986
30
0
41
1
10
94.051765314795
20
-10.429602804506
30
0
41
1
10
94.1396312334131
20
-10.2920081235241
30
0
41
1
10
94.3153630706494
20
-9.93187955925163
30
0
41
1
10
94.4032289892674
20
-9.70930347147748
30
0
41
1
10
94.5789608265037
20
-9.18002636180503
30
0
41
1
10
94.6668267451219
20
-8.87331736953828
30
0
41
1
10
94.842558582358
20
-8.18326619948587
30
0
41
1
10
94.9304245009762
20
-7.79995830394245
30
0
41
1
10
95.1061563382124
20
-6.97050292702397
30
0
41
1
10
95.1940222568305
20
-6.52442607748537
30
0
41
1
10
95.3697540940668
20
-5.58791725860229
30
0
41
1
10
95.4576200126849
20
-5.09757373023751
30
0
41
1
10
95.6333518499212
20
-4.09323980081427
30
0
41
1
10
95.7212177685393
20
-3.57933246741888
30
0
41
1
10
95.8969496057755
20
-2.54814103247293
30
0
41
1
10
95.9848155243936
20
-2.0309165090971
30
0
41
1
10
96.1605473616299
20
-1.0107212397545
30
0
41
1
10
96.2484132802481
20
-0.507779199850631
30
0
41
1
10
96.3582456785207
20
0.103459243851518
30
0
41
1
10
96.3802121581752
20
0.22623634406898
30
0
41
1
10
96.4241451174843
20
0.47367383084719
30
0
41
1
10
96.4461115971387
20
0.598170469253546
30
0
41
1
10
96.5120110361024
20
0.973690554907563
30
0
41
1
10
96.5559439954114
20
1.22675230446581
30
0
41
1
10
96.5998769547205
20
1.48161971472533
30
0
0
SPLINE
5
D5
100
AcDbEntity
8
1
62
256
6
ByLayer
370
13
48
1
60
0
100
AcDbSpline
70
4
71
3
72
32
73
28
40
0
40
0
40
0
40
0
40
0.124999999999999
40
0.124999999999999
40
0.187499999999999
40
0.187499999999999
40
0.249999999999999
40
0.249999999999999
40
0.312499999999999
40
0.312499999999999
40
0.375
40
0.375
40
0.4375
40
0.4375
40
0.5
40
0.5
40
0.5625
40
0.5625
40
0.624999999999999
40
0.624999999999999
40
0.687499999999999
40
0.687499999999999
40
0.749999999999999
40
0.749999999999999
40
0.874999999999999
40
0.874999999999999
40
1
40
1
40
1
40
1
41
1
10
85.6999999999999
20
1.1636445160901
30
0
41
1
10
85.8049888976499
20
1.7687380326424
30
0
41
1
10
85.9099777952998
20
2.38665431524828
30
0
41
1
10
86.0674611417747
20
3.31098647233648
30
0
41
1
10
86.1199555905998
20
3.61861267489169
30
0
41
1
10
86.2249444882497
20
4.22869881127949
30
0
41
1
10
86.2774389370747
20
4.53115305375044
30
0
41
1
10
86.3824278347247
20
5.12649552628596
30
0
41
1
10
86.4349222835497
20
5.41937721550522
30
0
41
1
10
86.5399111811996
20
5.99116640393285
30
0
41
1
10
86.5924056300246
20
6.27006705651254
30
0
41
1
10
86.6973945276745
20
6.80968063279323
30
0
41
1
10
86.7498889764995
20
7.07038704509819
30
0
41
1
10
86.8548778741495
20
7.56979616812751
30
0
41
1
10
86.9073723229744
20
7.80849334441149
30
0
41
1
10
87.0123612206244
20
8.26064873353999
30
0
41
1
10
87.0648556694493
20
8.47410292638651
30
0
41
1
10
87.1698445670993
20
8.87326306642416
30
0
41
1
10
87.2223390159243
20
9.05896685334696
30
0
41
1
10
87.3273279135742
20
9.40093671566402
30
0
41
1
10
87.3798223623992
20
9.55720259415534
30
0
41
1
10
87.4848112600492
20
9.83946251253116
30
0
41
1
10
87.5373057088741
20
9.96545818037973
30
0
41
1
10
87.694789055349
20
10.2980359087149
30
0
41
1
10
87.799777952999
20
10.4588932298952
30
0
41
1
10
88.0097557482989
20
10.6675514118181
30
0
41
1
10
88.1147446459489
20
10.7155
30
0
41
1
10
88.2197335435989
20
10.7155
30
0
0
SPLINE
5
D6
100
AcDbEntity
8
1
62
256
6
ByLayer
370
13
48
1
60
0
100
AcDbSpline
70
4
71
3
72
84
73
80
40
0
40
0
40
0
40
0
40
0.0312499999999999
40
0.0312499999999999
40
0.0624999999999999
40
0.0624999999999999
40
0.0937499999999998
40
0.0937499999999998
40
0.125
40
0.125
40
0.15625
40
0.15625
40
0.1875
40
0.1875
40
0.21875
40
0.21875
40
0.249999999999999
40
0.249999999999999
40
0.281249999999999
40
0.281249999999999
40
0.296874999999999
40
0.296874999999999
40
0.304687499999999
40
0.304687499999999
40
0.312499999999999
40
0.312499999999999
40
0.34375
40
0.34375
40
0.375
40
0.375
40
0.40625
40
0.40625
40
0.4375
40
0.4375
40
0.46875
40
0.46875
40
0.500000000000001
40
0.500000000000001
40
0.531250000000001
40
0.531250000000001
40
0.562500000000001
40
0.562500000000001
40
0.593750000000001
40
0.593750000000001
40
0.609375000000001
40
0.609375000000001
40
0.613281250000001
40
0.613281250000001
40
0.617187500000001
40
0.625000000000001
40
0.625000000000001
40
0.656250000000002
40
0.656250000000002
40
0.687500000000002
40
0.687500000000002
40
0.718750000000002
40
0.718750000000002
40
0.750000000000003
40
0.750000000000003
40
0.781250000000003
40
0.781250000000003
40
0.812500000000004
40
0.812500000000004
40
0.843750000000004
40
0.843750000000004
40
0.875000000000004
40
0.875000000000004
40
0.906250000000005
40
0.906250000000005
40
0.914062500000005
40
0.914062500000005
40
0.917968750000005
40
0.917968750000005
40
0.921875000000005
40
0.937500000000004
40
0.937500000000004
40
0.968750000000002
40
0.968750000000002
40
1
40
1
40
1
40
1
41
1
10
87.6717991229033
20
10.7155
30
0
41
1
10
87.7647999336514
20
10.7155
30
0
41
1
10
87.8578007443996
20
10.6779202267959
30
0
41
1
10
88.0438023658957
20
10.5156315668439
30
0
41
1
10
88.1368031766439
20
10.3908407916874
30
0
41
1
10
88.3228047981402
20
10.0467363894876
30
0
41
1
10
88.4158056088881
20
9.82735994729498
30
0
41
1
10
88.6018072303842
20
9.29369008231092
30
0
41
1
10
88.6948080411324
20
8.97937828852196
30
0
41
1
10
88.8808096626286
20
8.26375490251084
30
0
41
1
10
88.9738104733767
20
7.86248373294831
30
0
41
1
10
89.1598120948728
20
6.98887740954555
30
0
41
1
10
89.252812905621
20
6.51663468375503
30
0
41
1
10
89.4388145271172
20
5.52299798526329
30
0
41
1
10
89.5318153378654
20
5.00172151475979
30
0
41
1
10
89.7178169593615
20
3.93463912397212
30
0
41
1
10
89.8108177701096
20
3.38894154307783
30
0
41
1
10
89.9968193916058
20
2.29682892687686
30
0
41
1
10
90.0898202023538
20
1.7504873796226
30
0
41
1
10
90.229321418476
20
0.945578918533897
30
0
41
1
10
90.2758218238499
20
0.679674984901339
30
0
41
1
10
90.3455724319111
20
0.285945417030348
30
0
41
1
10
90.3688226345982
20
0.155553999824065
30
0
41
1
10
90.4153230399722
20
-0.103302528992003
30
0
41
1
10
90.4385732426592
20
-0.233212429768287
30
0
41
1
10
90.5548242560944
20
-0.888272239097006
30
0
41
1
10
90.6478250668424
20
-1.42640376514262
30
0
41
1
10
90.8338266883386
20
-2.51340620038491
30
0
41
1
10
90.9268274990866
20
-3.06222685454904
30
0
41
1
10
91.1128291205829
20
-4.14853521380604
30
0
41
1
10
91.205829931331
20
-4.68593100104718
30
0
41
1
10
91.3918315528271
20
-5.72483781101965
30
0
41
1
10
91.4848323635753
20
-6.2262321834755
30
0
41
1
10
91.6708339850716
20
-7.16931684266945
30
0
41
1
10
91.7638347958195
20
-7.61089711069744
30
0
41
1
10
91.9498364173159
20
-8.4147974782195
30
0
41
1
10
92.0428372280638
20
-8.77704708849433
30
0
41
1
10
92.22883884956
20
-9.409821335934
30
0
41
1
10
92.3218396603082
20
-9.68033354385202
30
0
41
1
10
92.5078412818044
20
-10.1255550370527
30
0
41
1
10
92.6008420925525
20
-10.3003061904658
30
0
41
1
10
92.7868437140486
20
-10.5578375186283
30
0
41
1
10
92.8798445247967
20
-10.6406927180657
30
0
41
1
10
93.0193457409189
20
-10.7034191882297
30
0
41
1
10
93.065846146293
20
-10.7141083199543
30
0
41
1
10
93.1239716530105
20
-10.715688514978
30
0
41
1
10
93.135596754354
20
-10.7154197162384
30
0
41
1
10
93.158846957041
20
-10.7136956519742
30
0
41
1
10
93.1937222610715
20
-10.7093258582156
30
0
41
1
10
93.2285975651021
20
-10.6994885334919
30
0
41
1
10
93.3448485785372
20
-10.6540568638422
30
0
41
1
10
93.4378493892851
20
-10.5770859251067
30
0
41
1
10
93.6238510107815
20
-10.331827449978
30
0
41
1
10
93.7168518215295
20
-10.1634636117257
30
0
41
1
10
93.9028534430257
20
-9.73104716699748
30
0
41
1
10
93.9958542537738
20
-9.46694966893378
30
0
41
1
10
94.18185587527
20
-8.84647110395832
30
0
41
1
10
94.2748566860182
20
-8.49009844544133
30
0
41
1
10
94.4608583075143
20
-7.69687332590075
30
0
41
1
10
94.5538591182624
20
-7.26008779264455
30
0
41
1
10
94.7398607397587
20
-6.32510800879524
30
0
41
1
10
94.8328615505068
20
-5.82702206753046
30
0
41
1
10
95.018863172003
20
-4.79306446434416
30
0
41
1
10
95.1118639827509
20
-4.25731009612139
30
0
41
1
10
95.2978656042472
20
-3.17267355353633
30
0
41
1
10
95.3908664149953
20
-2.62388569456908
30
0
41
1
10
95.5768680364914
20
-1.53558535535294
30
0
41
1
10
95.6698688472396
20
-0.996126099667833
30
0
41
1
10
95.7861198606747
20
-0.338775179588225
30
0
41
1
10
95.8093700633617
20
-0.208140950725095
30
0
41
1
10
95.8442453673921
20
-0.0136127821665184
30
0
41
1
10
95.8558704687357
20
0.0509317914479936
30
0
41
1
10
95.8791206714227
20
0.180798402030575
30
0
41
1
10
95.9372461781403
20
0.506633790634595
30
0
41
1
10
95.9953716848579
20
0.838002470984435
30
0
41
1
10
96.13487290098
20
1.64092477260135
30
0
41
1
10
96.2278737117281
20
2.18653338983143
30
0
41
1
10
96.4138753332244
20
3.27867209178143
30
0
41
1
10
96.5068761439724
20
3.82513154415724
30
0
41
1
10
96.5998769547205
20
4.36026561714516
30
0
0
SPLINE
5
D7
100
AcDbEntity
8
1
62
256
6
ByLayer
370
13
48
1
60
0
100
AcDbSpline
70
4
71
3
72
22
73
18
40
0
40
0
40
0
40
0
40
0.125
40
0.125
40
0.25
40
0.25
40
0.375
40
0.375
40
0.5
40
0.5
40
0.625
40
0.625
40
0.75
40
0.75
40
0.875
40
0.875
40
1
40
1
40
1
40
1
41
1
10
85.6999999999999
20
4.04264147508636
30
0
41
1
10
85.78444932913
20
4.53222769379539
30
0
41
1
10
85.86889865826
20
5.0143856608706
30
0
41
1
10
86.0377973165201
20
5.94549448545922
30
0
41
1
10
86.1222466456503
20
6.39437230383299
30
0
41
1
10
86.2911453039105
20
7.24137702978388
30
0
41
1
10
86.3755946330405
20
7.63943719449094
30
0
41
1
10
86.5444932913006
20
8.37035993832498
30
0
41
1
10
86.6289426204306
20
8.70317868651884
30
0
41
1
10
86.7978412786907
20
9.29398826448218
30
0
41
1
10
86.8822906078207
20
9.55196777735364
30
0
41
1
10
87.0511892660809
20
9.98914006985677
30
0
41
1
10
87.1356385952109
20
10.1683531883969
30
0
41
1
10
87.3045372534712
20
10.4495567474066
30
0
41
1
10
87.3889865826012
20
10.5515895140709
30
0
41
1
10
87.5578852408614
20
10.6845356602815
30
0
41
1
10
87.6423345699914
20
10.7155
30
0
41
1
10
87.7267838991214
20
10.7155
30
0
0
SPLINE
5
D8
100
AcDbEntity
8
1
62
256
6
ByLayer
370
13
48
1
60
0
100
AcDbSpline
70
4
71
3
72
84
73
80
40
0
40
0
40
0
40
0
40
0.0312499999999995
40
0.0312499999999995
40
0.062499999999999
40
0.062499999999999
40
0.0937499999999984
40
0.0937499999999984
40
0.124999999999998
40
0.124999999999998
40
0.156249999999997
40
0.156249999999997
40
0.187499999999997
40
0.187499999999997
40
0.218749999999997
40
0.218749999999997
40
0.249999999999996
40
0.249999999999996
40
0.281249999999996
40
0.281249999999996
40
0.289062499999996
40
0.289062499999996
40
0.296874999999996
40
0.296874999999996
40
0.312499999999995
40
0.312499999999995
40
0.343749999999995
40
0.343749999999995
40
0.374999999999995
40
0.374999999999995
40
0.406249999999995
40
0.406249999999995
40
0.437499999999995
40
0.437499999999995
40
0.468749999999995
40
0.468749999999995
40
0.499999999999994
40
0.499999999999994
40
0.531249999999994
40
0.531249999999994
40
0.562499999999994
40
0.562499999999994
40
0.578124999999994
40
0.578124999999994
40
0.585937499999994
40
0.585937499999994
40
0.593749999999994
40
0.593749999999994
40
0.624999999999994
40
0.624999999999994
40
0.656249999999994
40
0.656249999999994
40
0.687499999999993
40
0.687499999999993
40
0.718749999999993
40
0.718749999999993
40
0.749999999999993
40
0.749999999999993
40
0.781249999999993
40
0.781249999999993
40
0.812499999999992
40
0.812499999999992
40
0.843749999999992
40
0.843749999999992
40
0.859374999999992
40
0.859374999999992
40
0.867187499999992
40
0.867187499999992
40
0.871093749999992
40
0.871093749999992
40
0.874999999999992
40
0.874999999999992
40
0.906249999999994
40
0.906249999999994
40
0.937499999999996
40
0.937499999999996
40
0.968749999999998
40
0.968749999999998
40
1
40
1
40
1
40
1
41
1
10
87.1788494784259
20
10.7155
30
0
41
1
10
87.276985181304
20
10.7155
30
0
41
1
10
87.3751208841821
20
10.6736358816169
30
0
41
1
10
87.5713922899383
20
10.4922387268694
30
0
41
1
10
87.6695279928163
20
10.3525992202043
30
0
41
1
10
87.8657993985724
20
9.96753868985559
30
0
41
1
10
87.9639351014505
20
9.72204056954303
30
0
41
1
10
88.1602065072067
20
9.12607839552393
30
0
41
1
10
88.2583422100847
20
8.77560247237668
30
0
41
1
10
88.4546136158408
20
7.98089248701754
30
0
41
1
10
88.552749318719
20
7.53672808236036
30
0
41
1
10
88.749020724475
20
6.57540806613488
30
0
41
1
10
88.8471564273531
20
6.0583865335405
30
0
41
1
10
89.0434278331094
20
4.97852258186703
30
0
41
1
10
89.1415635359873
20
4.41583446564948
30
0
41
1
10
89.3378349417434
20
3.27369837887702
30
0
41
1
10
89.4359706446215
20
2.69437723757275
30
0
41
1
10
89.6322420503777
20
1.54553517857087
30
0
41
1
10
89.7303777532558
20
0.976085311025031
30
0
41
1
10
89.8530473818533
20
0.283526946007157
30
0
41
1
10
89.8775813075728
20
0.145962211330726
30
0
41
1
10
89.9266491590118
20
-0.127012033811838
30
0
41
1
10
89.9511830847314
20
-0.264386111533412
30
0
41
1
10
90.0247848618899
20
-0.679657559385561
30
0
41
1
10
90.073852713329
20
-0.960331286685431
30
0
41
1
10
90.2210562676461
20
-1.81023465981969
30
0
41
1
10
90.3191919705241
20
-2.38751740454001
30
0
41
1
10
90.5154633762803
20
-3.53965622455013
30
0
41
1
10
90.6135990791583
20
-4.11441219326667
30
0
41
1
10
90.8098704849145
20
-5.23332125427712
30
0
41
1
10
90.9080061877926
20
-5.77732897033198
30
0
41
1
10
91.1042775935487
20
-6.80602348775395
30
0
41
1
10
91.2024132964268
20
-7.29055947464798
30
0
41
1
10
91.3986847021828
20
-8.17566791141633
30
0
41
1
10
91.4968204050609
20
-8.57613348860849
30
0
41
1
10
91.6930918108171
20
-9.27658671306151
30
0
41
1
10
91.7912275136952
20
-9.57654458063038
30
0
41
1
10
91.9874989194514
20
-10.0697468871091
30
0
41
1
10
92.0856346223293
20
-10.2630387933892
30
0
41
1
10
92.2819060280855
20
-10.5466549162112
30
0
41
1
10
92.3800417309636
20
-10.6370754323315
30
0
41
1
10
92.5272452852807
20
-10.7040619405782
30
0
41
1
10
92.5763131367197
20
-10.7150002221358
30
0
41
1
10
92.6499149138783
20
-10.7157247449361
30
0
41
1
10
92.6744488395979
20
-10.7133646215361
30
0
41
1
10
92.7235166910369
20
-10.7032022255194
30
0
41
1
10
92.7480506167563
20
-10.6953993438862
30
0
41
1
10
92.8707202453538
20
-10.642206564078
30
0
41
1
10
92.968855948232
20
-10.5540548959092
30
0
41
1
10
93.1651273539881
20
-10.2751671560166
30
0
41
1
10
93.2632630568663
20
-10.0843341069659
30
0
41
1
10
93.4595344626223
20
-9.59603215421538
30
0
41
1
10
93.5576701655003
20
-9.29851425390794
30
0
41
1
10
93.7539415712565
20
-8.60268076712015
30
0
41
1
10
93.8520772741346
20
-8.20439303871692
30
0
41
1
10
94.0483486798908
20
-7.32315650192515
30
0
41
1
10
94.1464843827688
20
-6.8403130469178
30
0
41
1
10
94.3427557885249
20
-5.81437022287608
30
0
41
1
10
94.440891491403
20
-5.27142119701409
30
0
41
1
10
94.6371628971592
20
-4.15395253672776
30
0
41
1
10
94.7352986000371
20
-3.5795789351231
30
0
41
1
10
94.9315700057933
20
-2.42758713555173
30
0
41
1
10
95.0297057086714
20
-1.85007036255342
30
0
41
1
10
95.1769092629885
20
-0.999450434102641
30
0
41
1
10
95.2259771144276
20
-0.718477353290012
30
0
41
1
10
95.2995788915861
20
-0.302680528661028
30
0
41
1
10
95.3241128173056
20
-0.165022153866971
30
0
41
1
10
95.360913705885
20
0.039857621785103
30
0
41
1
10
95.3731806687447
20
0.10815437738492
30
0
41
1
10
95.3977145944641
20
0.245497794699617
30
0
41
1
10
95.4099815573239
20
0.314425790658021
30
0
41
1
10
95.5203842230618
20
0.936934969237512
30
0
41
1
10
95.6185199259399
20
1.50588313889051
30
0
41
1
10
95.814791331696
20
2.65427624040595
30
0
41
1
10
95.9129270345741
20
3.23365152874149
30
0
41
1
10
96.1091984403302
20
4.37655175877697
30
0
41
1
10
96.2073341432082
20
4.93995094560498
30
0
41
1
10
96.4036055489644
20
6.02190632204474
30
0
41
1
10
96.5017412518424
20
6.54030834518667
30
0
41
1
10
96.5998769547205
20
7.02263604802718
30
0
0
SPLINE
5
D9
100
AcDbEntity
8
1
62
256
6
ByLayer
370
13
48
1
60
0
100
AcDbSpline
70
4
71
3
72
22
73
18
40
0
40
0
40
0
40
0
40
0.125
40
0.125
40
0.25
40
0.25
40
0.375
40
0.375
40
0.5
40
0.5
40
0.625
40
0.625
40
0.75
40
0.75
40
0.875
40
0.875
40
1
40
1
40
1
40
1
41
1
10
85.6999999999999
20
6.7487166265951
30
0
41
1
10
85.7639097606101
20
7.07127384719954
30
0
41
1
10
85.8278195212202
20
7.37955535492486
30
0
41
1
10
85.9556390424406
20
7.96105838913547
30
0
41
1
10
86.0195488030508
20
8.23426692423226
30
0
41
1
10
86.1473683242712
20
8.74052154926483
30
0
41
1
10
86.2112780848813
20
8.97356029609173
30
0
41
1
10
86.3390976061016
20
9.39612376888692
30
0
41
1
10
86.4030073667118
20
9.58564750826318
30
0
41
1
10
86.5308268879322
20
9.91970684996534
30
0
41
1
10
86.5947366485424
20
10.0642473627579
30
0
41
1
10
86.7225561697627
20
10.3086818973932
30
0
41
1
10
86.7864659303729
20
10.4085853337564
30
0
41
1
10
86.9142854515933
20
10.565682123994
30
0
41
1
10
86.9781952122034
20
10.6228875110959
30
0
41
1
10
87.1060147334237
20
10.697790074649
30
0
41
1
10
87.1699244940339
20
10.7155
30
0
41
1
10
87.2338342546441
20
10.7155
30
0
0
SPLINE
5
DA
100
AcDbEntity
8
1
62
256
6
ByLayer
370
13
48
1
60
0
100
AcDbSpline
70
4
71
3
72
107
73
103
40
0
40
0
40
0
40
0
40
0.0312500000000013
40
0.0312500000000013
40
0.0625000000000026
40
0.0625000000000026
40
0.0937500000000039
40
0.0937500000000039
40
0.109375000000005
40
0.109375000000005
40
0.125000000000005
40
0.125000000000005
40
0.140625000000006
40
0.140625000000006
40
0.156250000000007
40
0.156250000000007
40
0.171875000000007
40
0.171875000000007
40
0.187500000000008
40
0.187500000000008
40
0.218750000000009
40
0.218750000000009
40
0.250000000000011
40
0.250000000000011
40
0.265625000000011
40
0.265625000000011
40
0.273437500000012
40
0.273437500000012
40
0.277343750000012
40
0.277343750000012
40
0.281250000000012
40
0.281250000000012
40
0.312500000000011
40
0.312500000000011
40
0.343750000000011
40
0.343750000000011
40
0.37500000000001
40
0.37500000000001
40
0.39062500000001
40
0.39062500000001
40
0.406250000000009
40
0.406250000000009
40
0.421875000000009
40
0.421875000000009
40
0.437500000000009
40
0.437500000000009
40
0.453125000000009
40
0.453125000000009
40
0.468750000000008
40
0.468750000000008
40
0.500000000000008
40
0.500000000000008
40
0.531250000000007
40
0.531250000000007
40
0.546875000000007
40
0.546875000000007
40
0.550781250000007
40
0.550781250000007
40
0.554687500000007
40
0.562500000000007
40
0.562500000000007
40
0.593750000000006
40
0.593750000000006
40
0.625000000000006
40
0.625000000000006
40
0.656250000000005
40
0.656250000000005
40
0.671875000000005
40
0.671875000000005
40
0.687500000000004
40
0.687500000000004
40
0.703125000000004
40
0.703125000000004
40
0.718750000000004
40
0.718750000000004
40
0.750000000000003
40
0.750000000000003
40
0.781250000000003
40
0.781250000000003
40
0.812500000000002
40
0.812500000000002
40
0.820312500000002
40
0.820312500000002
40
0.828125000000002
40
0.828125000000002
40
0.843750000000002
40
0.843750000000002
40
0.875000000000001
40
0.875000000000001
40
0.906250000000001
40
0.906250000000001
40
0.921875000000001
40
0.921875000000001
40
0.937500000000001
40
0.937500000000001
40
0.953125
40
0.953125
40
0.96875
40
0.96875
40
0.984375
40
0.984375
40
1
40
1
40
1
40
1
41
1
10
86.6858998339486
20
10.7155
30
0
41
1
10
86.7891704289567
20
10.7155
30
0
41
1
10
86.8924410239647
20
10.669116425891
30
0
41
1
10
87.0989822139808
20
10.4674831137965
30
0
41
1
10
87.2022528089887
20
10.3120969801541
30
0
41
1
10
87.4087939990048
20
9.88369471223632
30
0
41
1
10
87.5120645940128
20
9.61058618060608
30
0
41
1
10
87.666970486525
20
9.11455408392982
30
0
41
1
10
87.718605784029
20
8.93491216933765
30
0
41
1
10
87.821876379037
20
8.5485507630811
30
0
41
1
10
87.8735116765411
20
8.34183305405287
30
0
41
1
10
87.9767822715492
20
7.90361248305734
30
0
41
1
10
88.0284175690531
20
7.67211311254377
30
0
41
1
10
88.1316881640612
20
7.18731627861109
30
0
41
1
10
88.1833234615652
20
6.93402373425303
30
0
41
1
10
88.2865940565732
20
6.40919479473277
30
0
41
1
10
88.3382293540772
20
6.13766428800994
30
0
41
1
10
88.4414999490852
20
5.58031680338789
30
0
41
1
10
88.4931352465893
20
5.29450612011158
30
0
41
1
10
88.6480411391013
20
4.42190762961448
30
0
41
1
10
88.7513117341094
20
3.8200446048107
30
0
41
1
10
88.9578529241256
20
2.60908834174433
30
0
41
1
10
89.0611235191335
20
2.00013466636392
30
0
41
1
10
89.2160294116457
20
1.10283938149584
30
0
41
1
10
89.2676647091496
20
0.80638052211944
30
0
41
1
10
89.3451176554056
20
0.367804587064626
30
0
41
1
10
89.3709353041577
20
0.222627401849678
30
0
41
1
10
89.4096617772856
20
0.0066167676689872
30
0
41
1
10
89.4225706016616
20
-0.0650590797864652
30
0
41
1
10
89.4483882504136
20
-0.209380162286351
30
0
41
1
10
89.4612970747896
20
-0.281827951035979
30
0
41
1
10
89.5774764941738
20
-0.936270663219915
30
0
41
1
10
89.6807470891818
20
-1.53548029808673
30
0
41
1
10
89.8872882791977
20
-2.74466287357706
30
0
41
1
10
89.9905588742059
20
-3.35454321885985
30
0
41
1
10
90.197100064222
20
-4.55405233160431
30
0
41
1
10
90.3003706592301
20
-5.1435139036912
30
0
41
1
10
90.455276551742
20
-5.98712904986547
30
0
41
1
10
90.5069118492461
20
-6.26156603322423
30
0
41
1
10
90.6101824442542
20
-6.79290462233655
30
0
41
1
10
90.6618177417582
20
-7.04980022197017
30
0
41
1
10
90.7650883367662
20
-7.54241351713122
30
0
41
1
10
90.8167236342703
20
-7.7781260785751
30
0
41
1
10
90.9199942292783
20
-8.22526940092354
30
0
41
1
10
90.9716295267822
20
-8.43669638329786
30
0
41
1
10
91.0749001217903
20
-8.83283873266871
30
0
41
1
10
91.1265354192944
20
-9.01755199413017
30
0
41
1
10
91.2298060143024
20
-9.35860048221161
30
0
41
1
10
91.2814413118064
20
-9.51493538305647
30
0
41
1
10
91.4363472043185
20
-9.94007351176026
30
0
41
1
10
91.5396177993265
20
-10.164653374406
30
0
41
1
10
91.7461589893427
20
-10.4983511740338
30
0
41
1
10
91.8494295843507
20
-10.6075862013218
30
0
41
1
10
92.0043354768627
20
-10.6940888992672
30
0
41
1
10
92.0559707743668
20
-10.7100973798556
30
0
41
1
10
92.1205148962467
20
-10.7154041957007
30
0
41
1
10
92.1334237206228
20
-10.7157330197179
30
0
41
1
10
92.1592413693747
20
-10.7149484155018
30
0
41
1
10
92.1979678425027
20
-10.7115928430023
30
0
41
1
10
92.2366943156309
20
-10.7015402162349
30
0
41
1
10
92.3657825593909
20
-10.6524732209528
30
0
41
1
10
92.4690531543989
20
-10.5631608665448
30
0
41
1
10
92.6755943444149
20
-10.2709338012245
30
0
41
1
10
92.778864939423
20
-10.0678939869861
30
0
41
1
10
92.9854061294391
20
-9.5436852901837
30
0
41
1
10
93.0886767244471
20
-9.22245736080262
30
0
41
1
10
93.2435826169593
20
-8.65777713646372
30
0
41
1
10
93.2952179144633
20
-8.45584511946288
30
0
41
1
10
93.3984885094712
20
-8.02672334090886
30
0
41
1
10
93.4501238069753
20
-7.79953677428921
30
0
41
1
10
93.5533944019833
20
-7.32277456686415
30
0
41
1
10
93.6050296994874
20
-7.07320361467734
30
0
41
1
10
93.7083002944954
20
-6.55513484615059
30
0
41
1
10
93.7599355919995
20
-6.28664278161415
30
0
41
1
10
93.9148414845114
20
-5.4586222523975
30
0
41
1
10
94.0181120795195
20
-4.8765365080815
30
0
41
1
10
94.2246532695356
20
-3.68564892964861
30
0
41
1
10
94.3279238645436
20
-3.07702442466078
30
0
41
1
10
94.5344650545597
20
-1.86509235945758
30
0
41
1
10
94.6377356495677
20
-1.26189232932407
30
0
41
1
10
94.7668238933278
20
-0.527348276413392
30
0
41
1
10
94.7926415420798
20
-0.381393599171986
30
0
41
1
10
94.8442768395838
20
-0.0917149923581349
30
0
41
1
10
94.8700944883359
20
0.0513158561889497
30
0
41
1
10
94.9475474345918
20
0.485204632821024
30
0
41
1
10
94.9991827320958
20
0.778998440275899
30
0
41
1
10
95.154088624608
20
1.66995668931975
30
0
41
1
10
95.2573592196159
20
2.27691367290288
30
0
41
1
10
95.463900409632
20
3.48955864216214
30
0
41
1
10
95.56717100464
20
4.09512097483622
30
0
41
1
10
95.7220768971522
20
4.97792813247753
30
0
41
1
10
95.7737121946561
20
5.2679112327624
30
0
41
1
10
95.8769827896642
20
5.83511033296907
30
0
41
1
10
95.9286180871682
20
6.1123200360982
30
0
41
1
10
96.0318886821763
20
6.64991307668717
30
0
41
1
10
96.0835239796804
20
6.910290309625
30
0
41
1
10
96.1867945746883
20
7.41049520551854
30
0
41
1
10
96.2384298721923
20
7.65031753564116
30
0
41
1
10
96.3417004672004
20
8.10619928110427
30
0
41
1
10
96.3933357647044
20
8.32225464150511
30
0
41
1
10
96.4966063597125
20
8.72804164397621
30
0
41
1
10
96.5482416572165
20
8.91777086116633
30
0
41
1
10
96.5998769547206
20
9.09343328518432
30
0
0
SPLINE
5
DB
100
AcDbEntity
8
1
62
256
6
ByLayer
370
13
48
1
60
0
100
AcDbSpline
70
4
71
3
72
14
73
10
40
0
40
0
40
0
40
0
40
0.25
40
0.25
40
0.5
40
0.5
40
0.75
40
0.75
40
1
40
1
40
1
40
1
41
1
10
85.6999999999999
20
8.90110448841514
30
0
41
1
10
85.7867403841805
20
9.21277103586701
30
0
41
1
10
85.8734807683611
20
9.48534657045579
30
0
41
1
10
86.0469615367222
20
9.94746389953457
30
0
41
1
10
86.1337019209028
20
10.1370262809871
30
0
41
1
10
86.3071826892639
20
10.4344314592476
30
0
41
1
10
86.3939230734445
20
10.5423216216968
30
0
41
1
10
86.5674038418056
20
10.6828268168861
30
0
41
1
10
86.6541442259861
20
10.7155
30
0
41
1
10
86.7408846101667
20
10.7155
30
0
0
SPLINE
5
DC
100
AcDbEntity
8
1
62
256
6
ByLayer
370
13
48
1
60
0
100
AcDbSpline
70
4
71
3
72
134
73
130
40
0
40
0
40
0
40
0
40
0.0312499999999998
40
0.0312499999999998
40
0.0468749999999998
40
0.0468749999999998
40
0.0624999999999998
40
0.0624999999999998
40
0.0781249999999998
40
0.0781249999999998
40
0.0937499999999998
40
0.0937499999999998
40
0.109375
40
0.109375
40
0.125
40
0.125
40
0.140625
40
0.140625
40
0.15625
40
0.15625
40
0.171875
40
0.171875
40
0.1875
40
0.1875
40
0.203125
40
0.203125
40
0.21875
40
0.21875
40
0.25
40
0.25
40
0.2578125
40
0.2578125
40
0.265625
40
0.265625
40
0.28125
40
0.28125
40
0.296875
40
0.296875
40
0.3125
40
0.3125
40
0.328125
40
0.328125
40
0.34375
40
0.34375
40
0.359375
40
0.359375
40
0.375
40
0.375
40
0.390625
40
0.390625
40
0.40625
40
0.40625
40
0.421874999999999
40
0.421874999999999
40
0.437499999999999
40
0.437499999999999
40
0.453124999999999
40
0.453124999999999
40
0.468749999999999
40
0.468749999999999
40
0.484374999999999
40
0.484374999999999
40
0.499999999999999
40
0.499999999999999
40
0.515624999999999
40
0.515624999999999
40
0.523437499999999
40
0.523437499999999
40
0.531249999999999
40
0.531249999999999
40
0.562499999999999
40
0.562499999999999
40
0.578124999999999
40
0.578124999999999
40
0.593749999999999
40
0.593749999999999
40
0.609374999999999
40
0.609374999999999
40
0.624999999999999
40
0.624999999999999
40
0.640624999999999
40
0.640624999999999
40
0.65625
40
0.65625
40
0.671875
40
0.671875
40
0.6875
40
0.6875
40
0.703125
40
0.703125
40
0.71875
40
0.71875
40
0.734375
40
0.734375
40
0.75
40
0.75
40
0.78125
40
0.78125
40
0.78515625
40
0.78515625
40
0.7890625
40
0.7890625
40
0.796875
40
0.796875
40
0.8125
40
0.8125
40
0.828125
40
0.828125
40
0.84375
40
0.84375
40
0.859375
40
0.859375
40
0.875
40
0.875
40
0.890625
40
0.890625
40
0.90625
40
0.90625
40
0.921875
40
0.921875
40
0.9375
40
0.9375
40
0.953125
40
0.953125
40
0.96875
40
0.96875
40
0.984375
40
0.984375
40
1
40
1
40
1
40
1
41
1
10
86.1929501894712
20
10.7155
30
0
41
1
10
86.3013556766091
20
10.7155
30
0
41
1
10
86.4097611637472
20
10.6643609558286
30
0
41
1
10
86.5723693944543
20
10.4971072167677
30
0
41
1
10
86.6265721380233
20
10.426314517042
30
0
41
1
10
86.7349776251613
20
10.2531571536886
30
0
41
1
10
86.7891803687303
20
10.1507877160729
30
0
41
1
10
86.8975858558683
20
9.91372786115721
30
0
41
1
10
86.9517885994373
20
9.77903398632054
30
0
41
1
10
87.0601940865753
20
9.47745311285399
30
0
41
1
10
87.1143968301444
20
9.31056453154343
30
0
41
1
10
87.2228023172823
20
8.94567664180224
30
0
41
1
10
87.2770050608513
20
8.74767801042495
30
0
41
1
10
87.3854105479894
20
8.32262182352363
30
0
41
1
10
87.4396132915584
20
8.09556732134809
30
0
41
1
10
87.5480187786964
20
7.61536480484449
30
0
41
1
10
87.6022215222654
20
7.36222201941848
30
0
41
1
10
87.7106270094034
20
6.83359662611181
30
0
41
1
10
87.7648297529724
20
6.55812092042802
30
0
41
1
10
87.8732352401105
20
5.98918746229663
30
0
41
1
10
87.9274379836794
20
5.69573756270987
30
0
41
1
10
88.0358434708174
20
5.09559327290097
30
0
41
1
10
88.0900462143865
20
4.78890687014035
30
0
41
1
10
88.1984517015245
20
4.16716609562579
30
0
41
1
10
88.2526544450935
20
3.85211907596207
30
0
41
1
10
88.3610599322316
20
3.21843955913386
30
0
41
1
10
88.4152626758005
20
2.89981317202773
30
0
41
1
10
88.5778709065075
20
1.94528232798115
30
0
41
1
10
88.6862763936455
20
1.31102339300293
30
0
41
1
10
88.821783252568
20
0.539513858469263
30
0
41
1
10
88.8488846243525
20
0.386255183223881
30
0
41
1
10
88.9030873679214
20
0.082198043904981
30
0
41
1
10
88.930188739706
20
-0.067903267495808
30
0
41
1
10
89.0114928550595
20
-0.52375611947113
30
0
41
1
10
89.0656955986286
20
-0.832620265928853
30
0
41
1
10
89.1741010857666
20
-1.45713652237842
30
0
41
1
10
89.2283038293357
20
-1.77278675051949
30
0
41
1
10
89.3367093164737
20
-2.40713505464632
30
0
41
1
10
89.3909120600426
20
-2.72582953246351
30
0
41
1
10
89.4993175471806
20
-3.36200497283528
30
0
41
1
10
89.5535202907496
20
-3.67948062775059
30
0
41
1
10
89.6619257778876
20
-4.30856964171446
30
0
41
1
10
89.7161285214567
20
-4.62017622724812
30
0
41
1
10
89.8245340085948
20
-5.23267332252018
30
0
41
1
10
89.8787367521637
20
-5.53355608437647
30
0
41
1
10
89.9871422393017
20
-6.11976672901145
30
0
41
1
10
90.0413449828707
20
-6.4050865873493
30
0
41
1
10
90.1497504700087
20
-6.95558707453037
30
0
41
1
10
90.2039532135777
20
-7.22076021142752
30
0
41
1
10
90.3123587007158
20
-7.72687331366134
30
0
41
1
10
90.3665614442847
20
-7.96780710787388
30
0
41
1
10
90.4749669314227
20
-8.42204592790884
30
0
41
1
10
90.5291696749917
20
-8.6353467330384
30
0
41
1
10
90.6375751621298
20
-9.03178044668729
30
0
41
1
10
90.6917779056988
20
-9.21491144752821
30
0
41
1
10
90.8001833928369
20
-9.54941594261425
30
0
41
1
10
90.8543861364058
20
-9.70078988699939
30
0
41
1
10
90.9627916235439
20
-9.97116190851767
30
0
41
1
10
91.0169943671128
20
-10.0901625375604
30
0
41
1
10
91.1253998542509
20
-10.2960945272268
30
0
41
1
10
91.1796025978198
20
-10.3830300590213
30
0
41
1
10
91.2880080849579
20
-10.5259605142894
30
0
41
1
10
91.3422108285268
20
-10.5819606260355
30
0
41
1
10
91.4506163156649
20
-10.6648281585893
30
0
41
1
10
91.5048190592339
20
-10.6917011725649
30
0
41
1
10
91.5861231745874
20
-10.711903498283
30
0
41
1
10
91.613224546372
20
-10.7152898967261
30
0
41
1
10
91.6674272899409
20
-10.7156911375089
30
0
41
1
10
91.6945286617255
20
-10.7127158514476
30
0
41
1
10
91.8300355206479
20
-10.6811521023327
30
0
41
1
10
91.938441007786
20
-10.602192443175
30
0
41
1
10
92.1010492384929
20
-10.3907145118682
30
0
41
1
10
92.1552519820619
20
-10.3047752861404
30
0
41
1
10
92.2636574692
20
-10.1008596858995
30
0
41
1
10
92.317860212769
20
-9.98287909864123
30
0
41
1
10
92.426265699907
20
-9.7145432347387
30
0
41
1
10
92.480468443476
20
-9.5641853468583
30
0
41
1
10
92.588873930614
20
-9.2316788677837
30
0
41
1
10
92.643076674183
20
-9.0495297548625
30
0
41
1
10
92.7514821613211
20
-8.65499506977724
30
0
41
1
10
92.8056849048901
20
-8.44261132996328
30
0
41
1
10
92.914090392028
20
-7.99011300315678
30
0
41
1
10
92.968293135597
20
-7.75000256787681
30
0
41
1
10
93.0766986227351
20
-7.24541762071595
30
0
41
1
10
93.130901366304
20
-6.98094922691988
30
0
41
1
10
93.239306853442
20
-6.43172056866956
30
0
41
1
10
93.2935095970111
20
-6.14696776607147
30
0
41
1
10
93.4019150841491
20
-5.5617415830005
30
0
41
1
10
93.4561178277181
20
-5.26127622278977
30
0
41
1
10
93.5645233148562
20
-4.64945991139265
30
0
41
1
10
93.6187260584251
20
-4.33811672833721
30
0
41
1
10
93.7271315455631
20
-3.7094035026438
30
0
41
1
10
93.7813342891321
20
-3.39204027298501
30
0
41
1
10
93.8897397762702
20
-2.75594812245458
30
0
41
1
10
93.9439425198392
20
-2.43722456046811
30
0
41
1
10
94.1065507505461
20
-1.4854242883255
30
0
41
1
10
94.2149562376842
20
-0.857029680059838
30
0
41
1
10
94.3369124107145
20
-0.172553413641623
30
0
41
1
10
94.3504630966067
20
-0.096806316384118
30
0
41
1
10
94.3775644683913
20
0.0540330756965659
30
0
41
1
10
94.3911151542835
20
0.129552688487166
30
0
41
1
10
94.4317672119602
20
0.357362160321117
30
0
41
1
10
94.4588685837447
20
0.510476366323104
30
0
41
1
10
94.5401726990983
20
0.972985768838583
30
0
41
1
10
94.5943754426673
20
1.28556652616911
30
0
41
1
10
94.7027809298053
20
1.91577635002059
30
0
41
1
10
94.7569836733743
20
2.23340271600506
30
0
41
1
10
94.8653891605123
20
2.86969781233842
30
0
41
1
10
94.9195919040813
20
3.18836210205276
30
0
41
1
10
95.0279973912194
20
3.82226419709619
30
0
41
1
10
95.0822001347883
20
4.13749593890546
30
0
41
1
10
95.1906056219264
20
4.7597594427499
30
0
41
1
10
95.2448083654954
20
5.06678388368636
30
0
41
1
10
95.3532138526333
20
5.66775708916515
30
0
41
1
10
95.4074165962023
20
5.96169787511494
30
0
41
1
10
95.5158220833404
20
6.53175792041691
30
0
41
1
10
95.5700248269094
20
6.80786931009754
30
0
41
1
10
95.6784303140474
20
7.33789539074346
30
0
41
1
10
95.7326330576165
20
7.59180313766609
30
0
41
1
10
95.8410385447545
20
8.07364281794412
30
0
41
1
10
95.8952412883234
20
8.30156946055962
30
0
41
1
10
96.0036467754614
20
8.72845008602295
30
0
41
1
10
96.0578495190305
20
8.9274009421874
30
0
41
1
10
96.1662550061685
20
9.29424341484165
30
0
41
1
10
96.2204577497375
20
9.46213427955482
30
0
41
1
10
96.3288632368755
20
9.7657391483967
30
0
41
1
10
96.3830659804445
20
9.90145466865519
30
0
41
1
10
96.4914714675825
20
10.1405480127074
30
0
41
1
10
96.5456742111514
20
10.2439292428406
30
0
41
1
10
96.5998769547205
20
10.3315018339608
30
0
0
SPLINE
5
DD
100
AcDbEntity
8
1
62
256
6
ByLayer
370
13
48
1
60
0
100
AcDbSpline
70
4
71
3
72
10
73
6
40
0
40
0
40
0
40
0
40
0.5
40
0.5
40
1
40
1
40
1
40
1
41
1
10
85.6999999999999
20
10.2372343830627
30
0
41
1
10
85.7913224942815
20
10.4028525560747
30
0
41
1
10
85.8826449885631
20
10.5229834332777
30
0
41
1
10
86.0652899771262
20
10.6792697073955
30
0
41
1
10
86.1566124714077
20
10.7155
30
0
41
1
10
86.2479349656893
20
10.7155
30
0
0
SPLINE
5
DE
100
AcDbEntity
8
1
62
256
6
ByLayer
370
13
48
1
60
0
100
AcDbSpline
70
4
71
3
72
134
73
130
40
0
40
0
40
0
40
0
40
0.015625
40
0.015625
40
0.03125
40
0.03125
40
0.046875
40
0.046875
40
0.0625
40
0.0625
40
0.078125
40
0.078125
40
0.09375
40
0.09375
40
0.109375
40
0.109375
40
0.125
40
0.125
40
0.140625
40
0.140625
40
0.15625
40
0.15625
40
0.171875
40
0.171875
40
0.1875
40
0.1875
40
0.203125
40
0.203125
40
0.21875
40
0.21875
40
0.234375
40
0.234375
40
0.25
40
0.25
40
0.265625
40
0.265625
40
0.28125
40
0.28125
40
0.296875
40
0.296875
40
0.3125
40
0.3125
40
0.328125
40
0.328125
40
0.34375
40
0.34375
40
0.359375
40
0.359375
40
0.375
40
0.375
40
0.390625
40
0.390625
40
0.40625
40
0.40625
40
0.421875
40
0.421875
40
0.4375
40
0.4375
40
0.453125
40
0.453125
40
0.46875
40
0.46875
40
0.484375
40
0.484375
40
0.5
40
0.5
40
0.515625
40
0.515625
40
0.53125
40
0.53125
40
0.546875
40
0.546875
40
0.5625
40
0.5625
40
0.578125
40
0.578125
40
0.59375
40
0.59375
40
0.609375
40
0.609375
40
0.625
40
0.625
40
0.640625
40
0.640625
40
0.65625
40
0.65625
40
0.671875
40
0.671875
40
0.6875
40
0.6875
40
0.703125
40
0.703125
40
0.71875
40
0.71875
40
0.734375
40
0.734375
40
0.75
40
0.75
40
0.765625
40
0.765625
40
0.78125
40
0.78125
40
0.796875
40
0.796875
40
0.8125
40
0.8125
40
0.828125
40
0.828125
40
0.84375
40
0.84375
40
0.859375
40
0.859375
40
0.875
40
0.875
40
0.890625
40
0.890625
40
0.90625
40
0.90625
40
0.921875
40
0.921875
40
0.9375
40
0.9375
40
0.953125
40
0.953125
40
0.96875
40
0.96875
40
0.984375
40
0.984375
40
1
40
1
40
1
40
1
41
1
10
85.7000005449938
20
10.7155
30
0
41
1
10
85.7567707346278
20
10.7155
30
0
41
1
10
85.8135409242618
20
10.7015309177327
30
0
41
1
10
85.9270813035298
20
10.6427787375628
30
0
41
1
10
85.9838514931638
20
10.5979885945776
30
0
41
1
10
86.0973918724318
20
10.4752287927859
30
0
41
1
10
86.1541620620658
20
10.3972522930297
30
0
41
1
10
86.2677024413338
20
10.2064888657201
30
0
41
1
10
86.3244726309678
20
10.0936961133034
30
0
41
1
10
86.4380130102357
20
9.8325971234249
30
0
41
1
10
86.4947831998697
20
9.6842869297939
30
0
41
1
10
86.6083235791378
20
9.35252786939384
30
0
41
1
10
86.6650937687717
20
9.16907765147485
30
0
41
1
10
86.7786341480397
20
8.76857350990582
30
0
41
1
10
86.8354043376737
20
8.55152129292043
30
0
41
1
10
86.9489447169417
20
8.08650435826382
30
0
41
1
10
87.0057149065757
20
7.83854444425998
30
0
41
1
10
87.1192552858436
20
7.31546161104833
30
0
41
1
10
87.1760254754777
20
7.04034617030149
30
0
41
1
10
87.2895658547455
20
6.46757374980322
30
0
41
1
10
87.3463360443797
20
6.16992609778109
30
0
41
1
10
87.4598764236477
20
5.55732704591452
30
0
41
1
10
87.5166466132816
20
5.24238574771982
30
0
41
1
10
87.6301869925496
20
4.60075773474964
30
0
41
1
10
87.6869571821836
20
4.27408077664333
30
0
41
1
10
87.8004975614515
20
3.61455813111795
30
0
41
1
10
87.8572677510856
20
3.28172089351585
30
0
41
1
10
87.9708081303535
20
2.61519610855862
30
0
41
1
10
88.0275783199876
20
2.28151504258273
30
0
41
1
10
88.1411186992555
20
1.61813652675687
30
0
41
1
10
88.1978888888896
20
1.28844328726637
30
0
41
1
10
88.3114292681574
20
0.637228636552322
30
0
41
1
10
88.3681994577915
20
0.315709197570243
30
0
41
1
10
88.4817398370595
20
-0.315707682169716
30
0
41
1
10
88.5385100266935
20
-0.637227086617713
30
0
41
1
10
88.6520504059615
20
-1.28844171137064
30
0
41
1
10
88.7088205955955
20
-1.61813494094375
30
0
41
1
10
88.8223609748635
20
-2.28151344417893
30
0
41
1
10
88.8791311644975
20
-2.6151945074852
30
0
41
1
10
88.9926715437654
20
-3.28171929527022
30
0
41
1
10
89.0494417333994
20
-3.61455653837325
30
0
41
1
10
89.1629821126675
20
-4.27407920367924
30
0
41
1
10
89.2197523023013
20
-4.60075617606793
30
0
41
1
10
89.3332926815693
20
-5.24238422658689
30
0
41
1
10
89.3900628712033
20
-5.55732554804936
30
0
41
1
10
89.5036032504714
20
-6.16992465517058
30
0
41
1
10
89.5603734401054
20
-6.46757233917927
30
0
41
1
10
89.6739138193734
20
-7.0403448316176
30
0
41
1
10
89.7306840090074
20
-7.31546031231582
30
0
41
1
10
89.8442243882754
20
-7.83854323219467
30
0
41
1
10
89.9009945779093
20
-8.08650319291061
30
0
41
1
10
90.0145349571773
20
-8.55152022619208
30
0
41
1
10
90.0713051468114
20
-8.76857249508546
30
0
41
1
10
90.1848455260794
20
-9.16907674387502
30
0
41
1
10
90.2416157157134
20
-9.35252701710152
30
0
41
1
10
90.3551560949813
20
-9.68428618964242
30
0
41
1
10
90.4119262846152
20
-9.83259644010218
30
0
41
1
10
90.5254666638832
20
-10.0936955433507
30
0
41
1
10
90.5822368535173
20
-10.206488352305
30
0
41
1
10
90.6957772327853
20
-10.3972518907801
30
0
41
1
10
90.7525474224192
20
-10.4752284451619
30
0
41
1
10
90.8660878016872
20
-10.5979883529543
30
0
41
1
10
90.9228579913213
20
-10.6427785473137
30
0
41
1
10
91.0363983705892
20
-10.7015308259711
30
0
41
1
10
91.0931685602232
20
-10.715499955352
30
0
41
1
10
91.2067089394912
20
-10.7155000446478
30
0
41
1
10
91.2634791291252
20
-10.701531009494
30
0
41
1
10
91.3770195083932
20
-10.6427789278116
30
0
41
1
10
91.4337896980271
20
-10.5979888362007
30
0
41
1
10
91.5473300772951
20
-10.4752291404097
30
0
41
1
10
91.6041002669291
20
-10.3972526952791
30
0
41
1
10
91.7176406461971
20
-10.206489379135
30
0
41
1
10
91.7744108358311
20
-10.0936966832559
30
0
41
1
10
91.8879512150991
20
-9.83259780674734
30
0
41
1
10
91.9447214047331
20
-9.68428766994509
30
0
41
1
10
92.058261784001
20
-9.3525287216859
30
0
41
1
10
92.1150319736351
20
-9.16907855907442
30
0
41
1
10
92.228572352903
20
-8.76857452472592
30
0
41
1
10
92.285342542537
20
-8.55152235964854
30
0
41
1
10
92.3988829218051
20
-8.08650552361681
30
0
41
1
10
92.455653111439
20
-7.83854565632509
30
0
41
1
10
92.569193490707
20
-7.31546290978068
30
0
41
1
10
92.625963680341
20
-7.04034750898521
30
0
41
1
10
92.739504059609
20
-6.467575160427
30
0
41
1
10
92.796274249243
20
-6.16992754039146
30
0
41
1
10
92.909814628511
20
-5.55732854377956
30
0
41
1
10
92.966584818145
20
-5.24238726885264
30
0
41
1
10
93.0801251974129
20
-4.60075929343128
30
0
41
1
10
93.1368953870469
20
-4.2740823496074
30
0
41
1
10
93.2504357663149
20
-3.61455972386264
30
0
41
1
10
93.3072059559489
20
-3.28172249176146
30
0
41
1
10
93.4207463352169
20
-2.61519770963207
30
0
41
1
10
93.4775165248509
20
-2.28151664098655
30
0
41
1
10
93.5910569041188
20
-1.61813811257002
30
0
41
1
10
93.6478270937529
20
-1.28844486316214
30
0
41
1
10
93.7613674730209
20
-0.637230186487017
30
0
41
1
10
93.8181376626549
20
-0.315710731464605
30
0
41
1
10
93.931678041923
20
0.315706185262883
30
0
41
1
10
93.9884482315568
20
0.637225536683189
30
0
41
1
10
94.1019886108248
20
1.28844013547496
30
0
41
1
10
94.1587588004588
20
1.61813335513068
30
0
41
1
10
94.2722991797268
20
2.28151184577513
30
0
41
1
10
94.3290693693608
20
2.61519290641178
30
0
41
1
10
94.4426097486288
20
3.28171769702456
30
0
41
1
10
94.4993799382627
20
3.6145549456285
30
0
41
1
10
94.6129203175307
20
4.27407763071506
30
0
41
1
10
94.6696905071647
20
4.60075461738617
30
0
41
1
10
94.7832308864327
20
5.24238270545388
30
0
41
1
10
94.8400010760667
20
5.55732405018409
30
0
41
1
10
94.9535414553347
20
6.16992321255992
30
0
41
1
10
95.0103116449687
20
6.46757092855515
30
0
41
1
10
95.1238520242367
20
7.04034349293352
30
0
41
1
10
95.1806222138707
20
7.31545901358308
30
0
41
1
10
95.2941625931387
20
7.8385420201291
30
0
41
1
10
95.3509327827726
20
8.08650202755717
30
0
41
1
10
95.4644731620406
20
8.55151915946348
30
0
41
1
10
95.5212433516747
20
8.76857148026485
30
0
41
1
10
95.6347837309426
20
9.16907583627494
30
0
41
1
10
95.6915539205767
20
9.35252616480892
30
0
41
1
10
95.8050942998447
20
9.68428544949069
30
0
41
1
10
95.8618644894786
20
9.83259575677917
30
0
41
1
10
95.9754048687466
20
10.0936949733977
30
0
41
1
10
96.0321750583806
20
10.2064878388896
30
0
41
1
10
96.1457154376486
20
10.3972514885302
30
0
41
1
10
96.2024856272826
20
10.4752280975376
30
0
41
1
10
96.3160260065506
20
10.5979881113308
30
0
41
1
10
96.3727961961845
20
10.6427783570643
30
0
41
1
10
96.4863365754525
20
10.7015307342092
30
0
41
1
10
96.5431067650865
20
10.7154999107037
30
0
41
1
10
96.5998769547205
20
10.7154999999996
30
0
0
SPLINE
5
DF
100
AcDbEntity
8
1
62
256
6
ByLayer
370
13
48
1
60
0
100
AcDbSpline
70
4
71
3
72
10
73
6
40
0
40
0
40
0
40
0
40
0.5
40
0.5
40
1
40
1
40
1
40
1
41
1
10
96.0519430790189
20
10.7155
30
0
41
1
10
96.1432653916357
20
10.7155
30
0
41
1
10
96.2345877042527
20
10.6792698521126
30
0
41
1
10
96.4172323294866
20
10.5229842212439
30
0
41
1
10
96.5085546421036
20
10.4028538433039
30
0
41
1
10
96.5998769547206
20
10.2372363598109
30
0
0
SPLINE
5
E0
100
AcDbEntity
8
1
62
256
6
ByLayer
370
13
48
1
60
0
100
AcDbSpline
70
4
71
3
72
8
73
4
40
0
40
0
40
0
40
0
40
1
40
1
40
1
40
1
41
1
10
85.6999999999999
20
10.7110859019219
30
0
41
1
10
85.7183284404039
20
10.7140455194873
30
0
41
1
10
85.7366568808079
20
10.7155
30
0
41
1
10
85.7549853212119
20
10.7155
30
0
0
SPLINE
5
E1
100
AcDbEntity
8
1
62
256
6
ByLayer
370
13
48
1
60
0
100
AcDbSpline
70
4
71
3
72
134
73
130
40
0
40
0
40
0
40
0
40
0.0156249999999988
40
0.0156249999999988
40
0.0312499999999976
40
0.0312499999999976
40
0.0468749999999963
40
0.0468749999999963
40
0.0624999999999951
40
0.0624999999999951
40
0.0781249999999939
40
0.0781249999999939
40
0.0937499999999927
40
0.0937499999999927
40
0.109374999999992
40
0.109374999999992
40
0.12499999999999
40
0.12499999999999
40
0.140624999999989
40
0.140624999999989
40
0.156249999999988
40
0.156249999999988
40
0.171874999999987
40
0.171874999999987
40
0.187499999999986
40
0.187499999999986
40
0.203124999999984
40
0.203124999999984
40
0.210937499999984
40
0.210937499999984
40
0.214843749999984
40
0.214843749999984
40
0.218749999999984
40
0.218749999999984
40
0.249999999999984
40
0.249999999999984
40
0.265624999999985
40
0.265624999999985
40
0.281249999999985
40
0.281249999999985
40
0.296874999999985
40
0.296874999999985
40
0.312499999999986
40
0.312499999999986
40
0.328124999999986
40
0.328124999999986
40
0.343749999999987
40
0.343749999999987
40
0.359374999999987
40
0.359374999999987
40
0.374999999999987
40
0.374999999999987
40
0.390624999999988
40
0.390624999999988
40
0.406249999999988
40
0.406249999999988
40
0.421874999999988
40
0.421874999999988
40
0.437499999999989
40
0.437499999999989
40
0.46874999999999
40
0.46874999999999
40
0.47656249999999
40
0.47656249999999
40
0.48437499999999
40
0.48437499999999
40
0.49999999999999
40
0.49999999999999
40
0.515624999999991
40
0.515624999999991
40
0.531249999999991
40
0.531249999999991
40
0.546874999999991
40
0.546874999999991
40
0.562499999999992
40
0.562499999999992
40
0.578124999999992
40
0.578124999999992
40
0.593749999999992
40
0.593749999999992
40
0.609374999999993
40
0.609374999999993
40
0.624999999999993
40
0.624999999999993
40
0.640624999999993
40
0.640624999999993
40
0.656249999999994
40
0.656249999999994
40
0.671874999999994
40
0.671874999999994
40
0.687499999999994
40
0.687499999999994
40
0.703124999999995
40
0.703124999999995
40
0.718749999999995
40
0.718749999999995
40
0.734374999999995
40
0.734374999999995
40
0.742187499999995
40
0.742187499999995
40
0.749999999999995
40
0.749999999999995
40
0.781249999999996
40
0.781249999999996
40
0.796874999999996
40
0.796874999999996
40
0.812499999999996
40
0.812499999999996
40
0.828124999999997
40
0.828124999999997
40
0.843749999999997
40
0.843749999999997
40
0.859374999999997
40
0.859374999999997
40
0.874999999999997
40
0.874999999999997
40
0.890624999999998
40
0.890624999999998
40
0.906249999999998
40
0.906249999999998
40
0.921874999999998
40
0.921874999999998
40
0.937499999999999
40
0.937499999999999
40
0.953124999999999
40
0.953124999999999
40
0.968749999999999
40
0.968749999999999
40
1
40
1
40
1
40
1
41
1
10
85.6999999999999
20
10.3315035949958
30
0
41
1
10
85.7542027492459
20
10.2439312061866
30
0
41
1
10
85.8084054984919
20
10.1405501788085
30
0
41
1
10
85.916810996984
20
9.90145723546141
30
0
41
1
10
85.9710137462301
20
9.76574191314035
30
0
41
1
10
86.0794192447221
20
9.46213742934435
30
0
41
1
10
86.1336219939681
20
9.29424675172507
30
0
41
1
10
86.2420274924602
20
8.9274046365058
30
0
41
1
10
86.2962302417063
20
8.72845395066767
30
0
41
1
10
86.4046357401983
20
8.30157364372758
30
0
41
1
10
86.4588384894444
20
8.07364714929597
30
0
41
1
10
86.5672439879364
20
7.59180773885035
30
0
41
1
10
86.6214467371824
20
7.33790011356692
30
0
41
1
10
86.7298522356745
20
6.80787424657007
30
0
41
1
10
86.7840549849204
20
6.53176294889488
30
0
41
1
10
86.8924604834125
20
5.96170305640155
30
0
41
1
10
86.9466632326585
20
5.667762331256
30
0
41
1
10
87.0550687311506
20
5.06678921618294
30
0
41
1
10
87.1092714803965
20
4.75976480485383
30
0
41
1
10
87.2176769788886
20
4.13750133048714
30
0
41
1
10
87.2718797281347
20
3.82226958855773
30
0
41
1
10
87.3802852266268
20
3.18836746623185
30
0
41
1
10
87.4344879758727
20
2.8697031493667
30
0
41
1
10
87.5428934743649
20
2.23340797529031
30
0
41
1
10
87.5970962236109
20
1.91578155872551
30
0
41
1
10
87.7055017221029
20
1.2855716144208
30
0
41
1
10
87.7597044713489
20
0.972990787228184
30
0
41
1
10
87.8410085952179
20
0.510481268713846
30
0
41
1
10
87.868109969841
20
0.357367022178522
30
0
41
1
10
87.9087620317755
20
0.129557487146314
30
0
41
1
10
87.922312719087
20
0.0540378330407236
30
0
41
1
10
87.9494140937101
20
-0.096801547277181
30
0
41
1
10
87.9629647810215
20
-0.172548639163125
30
0
41
1
10
88.0849209668251
20
-0.857024861999491
30
0
41
1
10
88.1933264653172
20
-1.48541946572303
30
0
41
1
10
88.3559347130552
20
-2.43721979419982
30
0
41
1
10
88.4101374623012
20
-2.75594338542541
30
0
41
1
10
88.5185429607933
20
-3.39203561628037
30
0
41
1
10
88.5727457100393
20
-3.7093988970297
30
0
41
1
10
88.6811512085313
20
-4.33811224673639
30
0
41
1
10
88.7353539577774
20
-4.6494555027169
30
0
41
1
10
88.8437594562695
20
-5.26127198071174
30
0
41
1
10
88.8979622055155
20
-5.56173743459399
30
0
41
1
10
89.0063677040076
20
-6.14696382357803
30
0
41
1
10
89.0605704532536
20
-6.4317167384128
30
0
41
1
10
89.1689759517456
20
-6.98094563652458
30
0
41
1
10
89.2231787009916
20
-7.2454141579372
30
0
41
1
10
89.3315841994837
20
-7.74999937173209
30
0
41
1
10
89.3857869487297
20
-7.99010994601892
30
0
41
1
10
89.4941924472217
20
-8.44260855773547
30
0
41
1
10
89.5483951964678
20
-8.65499244344105
30
0
41
1
10
89.6568006949599
20
-9.04952742252337
30
0
41
1
10
89.7110034442059
20
-9.23167668353906
30
0
41
1
10
89.8194089426979
20
-9.5641834565005
30
0
41
1
10
89.873611691944
20
-9.71454149016432
30
0
41
1
10
89.982017190436
20
-9.98287763928667
30
0
41
1
10
90.036219939682
20
-10.1008583659753
30
0
41
1
10
90.144625438174
20
-10.3047742353854
30
0
41
1
10
90.1988281874201
20
-10.3907135908492
30
0
41
1
10
90.3614364351582
20
-10.6021918930637
30
0
41
1
10
90.4698419336503
20
-10.681151774677
30
0
41
1
10
90.6053488067652
20
-10.7127157647608
30
0
41
1
10
90.6324501813883
20
-10.7156910970523
30
0
41
1
10
90.6866529306343
20
-10.7152899456288
30
0
41
1
10
90.7137543052573
20
-10.7119035923673
30
0
41
1
10
90.7950584291265
20
-10.6917014033482
30
0
41
1
10
90.8492611783724
20
-10.6648284820556
30
0
41
1
10
90.9576666768645
20
-10.5819611357787
30
0
41
1
10
91.0118694261105
20
-10.5259611176229
30
0
41
1
10
91.1202749246025
20
-10.3830308479034
30
0
41
1
10
91.1744776738486
20
-10.296095408062
30
0
41
1
10
91.2828831723407
20
-10.0901635979025
30
0
41
1
10
91.3370859215867
20
-9.97116305640722
30
0
41
1
10
91.4454914200787
20
-9.70079120276512
30
0
41
1
10
91.4996941693248
20
-9.54941733870163
30
0
41
1
10
91.6080996678168
20
-9.21491299437275
30
0
41
1
10
91.6623024170628
20
-9.03178206396041
30
0
41
1
10
91.7707079155549
20
-8.63534847898006
30
0
41
1
10
91.8249106648009
20
-8.42204773208474
30
0
41
1
10
91.9333161632929
20
-7.96780901458621
30
0
41
1
10
91.987518912539
20
-7.72687526467215
30
0
41
1
10
92.095924411031
20
-7.22076223606433
30
0
41
1
10
92.1501271602771
20
-6.95558912849359
30
0
41
1
10
92.2585326587691
20
-6.40508868473523
30
0
41
1
10
92.3127354080151
20
-6.1197688404952
30
0
41
1
10
92.4211409065073
20
-5.5335582093405
30
0
41
1
10
92.4753436557533
20
-5.23267544687056
30
0
41
1
10
92.5837491542453
20
-4.62017833686067
30
0
41
1
10
92.6379519034913
20
-4.30857173720841
30
0
41
1
10
92.7463574019833
20
-3.67948268324713
30
0
41
1
10
92.8005601512294
20
-3.36200700245934
30
0
41
1
10
92.9089656497215
20
-2.72583150069633
30
0
41
1
10
92.9631683989675
20
-2.40713698736664
30
0
41
1
10
93.0715738974595
20
-1.77278860485529
30
0
41
1
10
93.1257766467055
20
-1.45713833384761
30
0
41
1
10
93.2341821451976
20
-0.832621986589118
30
0
41
1
10
93.2883848944437
20
-0.52375779219318
30
0
41
1
10
93.3696890183127
20
-0.0679048661067156
30
0
41
1
10
93.3967903929357
20
0.0821964600990555
30
0
41
1
10
93.4509931421817
20
0.38625361428015
30
0
41
1
10
93.4780945168047
20
0.539512297826434
30
0
41
1
10
93.6136013899197
20
1.31102187825579
30
0
41
1
10
93.7220068884119
20
1.94528086422753
30
0
41
1
10
93.8846151361499
20
2.8998118044409
30
0
41
1
10
93.9388178853959
20
3.21843822683621
30
0
41
1
10
94.047223383888
20
3.85211781984788
30
0
41
1
10
94.1014261331341
20
4.16716488040467
30
0
41
1
10
94.209831631626
20
4.78890574107351
30
0
41
1
10
94.2640343808721
20
5.09559218909269
30
0
41
1
10
94.3724398793642
20
5.69573657223171
30
0
41
1
10
94.4266426286102
20
5.9891865198862
30
0
41
1
10
94.5350481271022
20
6.55812007519114
30
0
41
1
10
94.5892508763482
20
6.8335958299761
30
0
41
1
10
94.6976563748403
20
7.36222132065848
30
0
41
1
10
94.7518591240863
20
7.61536415435421
30
0
41
1
10
94.8602646225784
20
8.09556676476188
30
0
41
1
10
94.9144673718243
20
8.32262131256743
30
0
41
1
10
95.0228728703165
20
8.74767758648204
30
0
41
1
10
95.0770756195625
20
8.94567625923929
30
0
41
1
10
95.1854811180546
20
9.31056422619724
30
0
41
1
10
95.2396838673005
20
9.47745284334272
30
0
41
1
10
95.3480893657926
20
9.77903378203277
30
0
41
1
10
95.4022921150387
20
9.91372768625774
30
0
41
1
10
95.5106976135307
20
10.1507875930258
30
0
41
1
10
95.5649003627767
20
10.2531570531068
30
0
41
1
10
95.6733058612688
20
10.4263144544003
30
0
41
1
10
95.7275086105147
20
10.4971071696033
30
0
41
1
10
95.8901168582529
20
10.6643609450518
30
0
41
1
10
95.9985223567448
20
10.7155
30
0
41
1
10
96.1069278552369
20
10.7155
30
0
0
SPLINE
5
E2
100
AcDbEntity
8
1
62
256
6
ByLayer
370
13
48
1
60
0
100
AcDbSpline
70
4
71
3
72
14
73
10
40
0
40
0
40
0
40
0
40
0.25
40
0.25
40
0.5
40
0.5
40
0.75
40
0.75
40
1
40
1
40
1
40
1
41
1
10
95.5589934345414
20
10.7155
30
0
41
1
10
95.6457337278897
20
10.7155
30
0
41
1
10
95.732474021238
20
10.6828268855561
30
0
41
1
10
95.9059546079345
20
10.5423219944269
30
0
41
1
10
95.9926949012828
20
10.4344320676676
30
0
41
1
10
96.1661754879792
20
10.1370275411766
30
0
41
1
10
96.2529157813275
20
9.9474655760101
30
0
41
1
10
96.426396368024
20
9.48534924923459
30
0
41
1
10
96.5131366613722
20
9.21277430066371
30
0
41
1
10
96.5998769547205
20
8.90110840484374
30
0
0
SPLINE
5
E3
100
AcDbEntity
8
1
62
256
6
ByLayer
370
13
48
1
60
0
100
AcDbSpline
70
4
71
3
72
108
73
104
40
0
40
0
40
0
40
0
40
0.0156249999999997
40
0.0156249999999997
40
0.0312499999999994
40
0.0312499999999994
40
0.046874999999999
40
0.046874999999999
40
0.0624999999999987
40
0.0624999999999987
40
0.0781249999999984
40
0.0781249999999984
40
0.0937499999999981
40
0.0937499999999981
40
0.124999999999997
40
0.124999999999997
40
0.156249999999997
40
0.156249999999997
40
0.171874999999996
40
0.171874999999996
40
0.179687499999996
40
0.179687499999996
40
0.187499999999996
40
0.187499999999996
40
0.218749999999996
40
0.218749999999996
40
0.249999999999995
40
0.249999999999995
40
0.281249999999995
40
0.281249999999995
40
0.296874999999995
40
0.296874999999995
40
0.312499999999995
40
0.312499999999995
40
0.328124999999995
40
0.328124999999995
40
0.343749999999994
40
0.343749999999994
40
0.374999999999994
40
0.374999999999994
40
0.406249999999993
40
0.406249999999993
40
0.437499999999993
40
0.437499999999993
40
0.445312499999992
40
0.445312499999992
40
0.449218749999992
40
0.449218749999992
40
0.453124999999992
40
0.453124999999992
40
0.468749999999992
40
0.468749999999992
40
0.499999999999992
40
0.499999999999992
40
0.531249999999991
40
0.531249999999991
40
0.546874999999991
40
0.546874999999991
40
0.562499999999991
40
0.562499999999991
40
0.578124999999991
40
0.578124999999991
40
0.59374999999999
40
0.59374999999999
40
0.60937499999999
40
0.60937499999999
40
0.62499999999999
40
0.62499999999999
40
0.65624999999999
40
0.65624999999999
40
0.687499999999989
40
0.687499999999989
40
0.718749999999989
40
0.718749999999989
40
0.722656249999989
40
0.722656249999989
40
0.726562499999989
40
0.726562499999989
40
0.734374999999989
40
0.734374999999989
40
0.74999999999999
40
0.74999999999999
40
0.781249999999991
40
0.781249999999991
40
0.812499999999992
40
0.812499999999992
40
0.828124999999993
40
0.828124999999993
40
0.843749999999993
40
0.843749999999993
40
0.859374999999994
40
0.859374999999994
40
0.874999999999995
40
0.874999999999995
40
0.890624999999995
40
0.890624999999995
40
0.906249999999996
40
0.906249999999996
40
0.937499999999997
40
0.937499999999997
40
0.968749999999999
40
0.968749999999999
40
1
40
1
40
1
40
1
41
1
10
85.6999999999999
20
9.09343699330225
30
0
41
1
10
85.751635303181
20
8.91777474747192
30
0
41
1
10
85.803270606362
20
8.72804570039295
30
0
41
1
10
85.9065412127241
20
8.32225901714321
30
0
41
1
10
85.9581765159052
20
8.10620380584183
30
0
41
1
10
86.0614471222672
20
7.65032233353844
30
0
41
1
10
86.1130824254482
20
7.41050012746823
30
0
41
1
10
86.2163530318103
20
6.9102954517208
30
0
41
1
10
86.2679883349914
20
6.64991831487259
30
0
41
1
10
86.3712589413535
20
6.11232543688647
30
0
41
1
10
86.4228942445345
20
5.83511580027067
30
0
41
1
10
86.5261648508966
20
5.26791680325817
30
0
41
1
10
86.5778001540776
20
4.97793373965825
30
0
41
1
10
86.7327060636208
20
4.09512664888371
30
0
41
1
10
86.8359766699829
20
3.48956430278901
30
0
41
1
10
87.042517882707
20
2.27691921146658
30
0
41
1
10
87.1457884890691
20
1.66996211955058
30
0
41
1
10
87.3006943986122
20
0.77900365959681
30
0
41
1
10
87.3523297017932
20
0.485209773812215
30
0
41
1
10
87.4297826565648
20
0.0513208705829129
30
0
41
1
10
87.4556003081552
20
-0.0917099860034511
30
0
41
1
10
87.5072356113363
20
-0.381388573224172
30
0
41
1
10
87.5330532629268
20
-0.527343242682122
30
0
41
1
10
87.6621415208794
20
-1.26188726740853
30
0
41
1
10
87.7654121272415
20
-1.86508730967137
30
0
41
1
10
87.9719533399657
20
-3.07701948104824
30
0
41
1
10
88.0752239463279
20
-3.68564408024497
30
0
41
1
10
88.2817651590519
20
-4.87653193041001
30
0
41
1
10
88.385035765414
20
-5.45861785228735
30
0
41
1
10
88.5399416749572
20
-6.28663870016098
30
0
41
1
10
88.5915769781382
20
-6.55513087951508
30
0
41
1
10
88.6948475845002
20
-7.0731998918688
30
0
41
1
10
88.7464828876813
20
-7.32277097305783
30
0
41
1
10
88.8497534940434
20
-7.79953344899675
30
0
41
1
10
88.9013887972244
20
-8.02672015511922
30
0
41
1
10
89.0046594035865
20
-8.45584221908268
30
0
41
1
10
89.0562947067675
20
-8.65777438198057
30
0
41
1
10
89.2112006163106
20
-9.22245504724407
30
0
41
1
10
89.3144712226728
20
-9.54368327466199
30
0
41
1
10
89.521012435397
20
-10.0678925444729
30
0
41
1
10
89.624283041759
20
-10.270932633515
30
0
41
1
10
89.8308242544831
20
-10.5631602029129
30
0
41
1
10
89.9340948608452
20
-10.6524727865818
30
0
41
1
10
90.0631831187977
20
-10.7015400335159
30
0
41
1
10
90.0890007703883
20
-10.7082418333067
30
0
41
1
10
90.127727247774
20
-10.7138297313623
30
0
41
1
10
90.1406360735695
20
-10.7149483746957
30
0
41
1
10
90.16645372516
20
-10.7157330240337
30
0
41
1
10
90.1793625509551
20
-10.715404222218
30
0
41
1
10
90.2439066799313
20
-10.7100975188348
30
0
41
1
10
90.2955419831125
20
-10.6940891300043
30
0
41
1
10
90.4504478926556
20
-10.6075867099168
30
0
41
1
10
90.5537184990177
20
-10.4983518714299
30
0
41
1
10
90.7602597117419
20
-10.164654438045
30
0
41
1
10
90.8635303181039
20
-9.94007475269098
30
0
41
1
10
91.018436227647
20
-9.51493686596319
30
0
41
1
10
91.0700715308282
20
-9.35860204178351
30
0
41
1
10
91.1733421371902
20
-9.01755369674601
30
0
41
1
10
91.2249774403713
20
-8.8328405016579
30
0
41
1
10
91.3282480467333
20
-8.43669827281786
30
0
41
1
10
91.3798833499144
20
-8.22527134459679
30
0
41
1
10
91.4831539562764
20
-7.77812811693963
30
0
41
1
10
91.5347892594574
20
-7.5424155960313
30
0
41
1
10
91.6380598658195
20
-7.0498023675608
30
0
41
1
10
91.6896951690006
20
-6.79290679408174
30
0
41
1
10
91.7929657753626
20
-6.26156824281205
30
0
41
1
10
91.8446010785437
20
-5.98713127114291
30
0
41
1
10
91.9995069880868
20
-5.14351613919936
30
0
41
1
10
92.1027775944489
20
-4.55405454859641
30
0
41
1
10
92.309318807173
20
-3.35454535389056
30
0
41
1
10
92.4125894135351
20
-2.74466494532621
30
0
41
1
10
92.6191306262592
20
-1.53548221462839
30
0
41
1
10
92.7224012326213
20
-0.936272487977078
30
0
41
1
10
92.8385806647786
20
-0.281829665656346
30
0
41
1
10
92.851489490574
20
-0.209381864572379
30
0
41
1
10
92.8773071421645
20
-0.0650607572387685
30
0
41
1
10
92.8902159679598
20
0.0066151018066591
30
0
41
1
10
92.9289424453455
20
0.222625746244461
30
0
41
1
10
92.9547600969361
20
0.367802939121276
30
0
41
1
10
93.0322130517076
20
0.806378899665106
30
0
41
1
10
93.0838483548886
20
1.10283777938127
30
0
41
1
10
93.2387542644318
20
2.00013313526247
30
0
41
1
10
93.3420248707939
20
2.60908687148086
30
0
41
1
10
93.548566083518
20
3.82004327917548
30
0
41
1
10
93.6518366898802
20
4.42190638775023
30
0
41
1
10
93.8067425994232
20
5.29450501416969
30
0
41
1
10
93.8583779026042
20
5.58031574442509
30
0
41
1
10
93.9616485089663
20
6.13766332482129
30
0
41
1
10
94.0132838121473
20
6.40919388033558
30
0
41
1
10
94.1165544185094
20
6.93402291758781
30
0
41
1
10
94.1681897216904
20
7.1873155108824
30
0
41
1
10
94.2714603280525
20
7.67211244115171
30
0
41
1
10
94.3230956312335
20
7.90361185906147
30
0
41
1
10
94.4263662375956
20
8.3418325217296
30
0
41
1
10
94.4780015407766
20
8.54855027503092
30
0
41
1
10
94.5812721471387
20
8.93491176534286
30
0
41
1
10
94.6329074503198
20
9.11455371971505
30
0
41
1
10
94.787813359863
20
9.61058592738718
30
0
41
1
10
94.891083966225
20
9.88369452170164
30
0
41
1
10
95.0976251789491
20
10.3120968880859
30
0
41
1
10
95.2008957853113
20
10.4674830575449
30
0
41
1
10
95.4074369980355
20
10.6691164156372
30
0
41
1
10
95.5107076043975
20
10.7155
30
0
41
1
10
95.6139782107596
20
10.7155
30
0
0
SPLINE
5
E4
100
AcDbEntity
8
1
62
256
6
ByLayer
370
13
48
1
60
0
100
AcDbSpline
70
4
71
3
72
22
73
18
40
0
40
0
40
0
40
0
40
0.125
40
0.125
40
0.25
40
0.25
40
0.375
40
0.375
40
0.5
40
0.5
40
0.625
40
0.625
40
0.75
40
0.75
40
0.875
40
0.875
40
1
40
1
40
1
40
1
41
1
10
95.0660437900641
20
10.7155
30
0
41
1
10
95.1299535052581
20
10.7155
30
0
41
1
10
95.1938632204522
20
10.6977900998628
30
0
41
1
10
95.3216826508401
20
10.6228876455659
30
0
41
1
10
95.3855923660341
20
10.565682342552
30
0
41
1
10
95.5134117964222
20
10.4085857850237
30
0
41
1
10
95.5773215116162
20
10.3086824973223
30
0
41
1
10
95.7051409420043
20
10.0642483261496
30
0
41
1
10
95.7690506571983
20
9.91970802818344
30
0
41
1
10
95.8968700875863
20
9.58564917875259
30
0
41
1
10
95.9607798027803
20
9.39612571682338
30
0
41
1
10
96.0885992331684
20
8.97356285244391
30
0
41
1
10
96.1525089483623
20
8.7405244365597
30
0
41
1
10
96.2803283787503
20
8.23427051260458
30
0
41
1
10
96.3442380939445
20
7.96106234759003
30
0
41
1
10
96.4720575243325
20
7.37956007436364
30
0
41
1
10
96.5359672395265
20
7.07127895746981
30
0
41
1
10
96.5998769547205
20
6.74872212784101
30
0
0
SPLINE
5
E5
100
AcDbEntity
8
1
62
256
6
ByLayer
370
13
48
1
60
0
100
AcDbSpline
70
4
71
3
72
84
73
80
40
0
40
0
40
0
40
0
40
0.03125
40
0.03125
40
0.0625
40
0.0625
40
0.09375
40
0.09375
40
0.125
40
0.125
40
0.12890625
40
0.12890625
40
0.1328125
40
0.1328125
40
0.140625
40
0.140625
40
0.15625
40
0.15625
40
0.1875
40
0.1875
40
0.21875
40
0.21875
40
0.25
40
0.25
40
0.28125
40
0.28125
40
0.3125
40
0.3125
40
0.34375
40
0.34375
40
0.375
40
0.375
40
0.40625
40
0.40625
40
0.4140625
40
0.4140625
40
0.421875
40
0.421875
40
0.4375
40
0.4375
40
0.46875
40
0.46875
40
0.5
40
0.5
40
0.53125
40
0.53125
40
0.5625
40
0.5625
40
0.59375
40
0.59375
40
0.625
40
0.625
40
0.65625
40
0.65625
40
0.6875
40
0.6875
40
0.703125
40
0.703125
40
0.7109375
40
0.7109375
40
0.71875
40
0.71875
40
0.75
40
0.75
40
0.78125
40
0.78125
40
0.8125
40
0.8125
40
0.84375
40
0.84375
40
0.875
40
0.875
40
0.90625
40
0.90625
40
0.9375
40
0.9375
40
0.96875
40
0.96875
40
1
40
1
40
1
40
1
41
1
10
85.6999999999999
20
7.02264140521217
30
0
41
1
10
85.7981357142321
20
6.54031391229151
30
0
41
1
10
85.8962714284642
20
6.02191204460843
30
0
41
1
10
86.0925428569283
20
4.93995686471857
30
0
41
1
10
86.1906785711605
20
4.37655771909343
30
0
41
1
10
86.3869499996247
20
3.23365746916957
30
0
41
1
10
86.4850857138567
20
2.65428211997752
30
0
41
1
10
86.681357142321
20
1.50588881866227
30
0
41
1
10
86.7794928565531
20
0.936940510310222
30
0
41
1
10
86.8898955350643
20
0.314431147926882
30
0
41
1
10
86.9021624993433
20
0.245503131160405
30
0
41
1
10
86.9266964279012
20
0.108159671513249
30
0
41
1
10
86.9389633921803
20
0.0398628782323556
30
0
41
1
10
86.9757642850174
20
-0.165016879870848
30
0
41
1
10
87.0002982135754
20
-0.302675244814452
30
0
41
1
10
87.0738999992494
20
-0.718472045812803
30
0
41
1
10
87.1229678563656
20
-0.999445118777487
30
0
41
1
10
87.2701714277137
20
-1.85006505006339
30
0
41
1
10
87.3683071419458
20
-2.42758186042497
30
0
41
1
10
87.5645785704099
20
-3.5795738142248
30
0
41
1
10
87.6627142846421
20
-4.15394753280705
30
0
41
1
10
87.8589857131063
20
-5.27141650432378
30
0
41
1
10
87.9571214273384
20
-5.81436572443516
30
0
41
1
10
88.1533928558026
20
-6.8403089990407
30
0
41
1
10
88.2515285700348
20
-7.32315271021784
30
0
41
1
10
88.447799998499
20
-8.20438979540933
30
0
41
1
10
88.545935712731
20
-8.60267781580623
30
0
41
1
10
88.7422071411953
20
-9.29851189181903
30
0
41
1
10
88.8403428554274
20
-9.59603008913044
30
0
41
1
10
89.0366142838916
20
-10.0843326128495
30
0
41
1
10
89.1347499981237
20
-10.2751659357331
30
0
41
1
10
89.3310214265879
20
-10.5540541801971
30
0
41
1
10
89.42915714082
20
-10.6422060790933
30
0
41
1
10
89.5518267836102
20
-10.6953991143386
30
0
41
1
10
89.5763607121681
20
-10.7032020454349
30
0
41
1
10
89.6254285692843
20
-10.7133645370729
30
0
41
1
10
89.6499624978422
20
-10.7157247064486
30
0
41
1
10
89.7235642835163
20
-10.7150003177182
30
0
41
1
10
89.7726321406324
20
-10.7040621273638
30
0
41
1
10
89.9198357119806
20
-10.6370758957757
30
0
41
1
10
90.0179714262127
20
-10.5466555682724
30
0
41
1
10
90.2142428546769
20
-10.2630398148218
30
0
41
1
10
90.312378568909
20
-10.0697480891823
30
0
41
1
10
90.5086499973731
20
-9.57654611754114
30
0
41
1
10
90.6067857116052
20
-9.27658840401909
30
0
41
1
10
90.8030571400695
20
-8.57613544447545
30
0
41
1
10
90.9011928543017
20
-8.1756699780189
30
0
41
1
10
91.0974642827658
20
-7.2905617090413
30
0
41
1
10
91.1955999969979
20
-6.80602577915815
30
0
41
1
10
91.3918714254622
20
-5.77733132059839
30
0
41
1
10
91.4900071396943
20
-5.23332360645182
30
0
41
1
10
91.6862785681585
20
-4.11441450146413
30
0
41
1
10
91.7844142823906
20
-3.53965848698573
30
0
41
1
10
91.9806857108547
20
-2.38751954098399
30
0
41
1
10
92.078821425087
20
-1.81023671616433
30
0
41
1
10
92.2260249964351
20
-0.960333208459616
30
0
41
1
10
92.275092853551
20
-0.679659433901264
30
0
41
1
10
92.3486946392252
20
-0.264387912886036
30
0
41
1
10
92.3732285677831
20
-0.127013793209102
30
0
41
1
10
92.4222964248993
20
0.145960465082737
30
0
41
1
10
92.4468303534572
20
0.283525207114252
30
0
41
1
10
92.5694999962474
20
0.976083612864556
30
0
41
1
10
92.6676357104795
20
1.545533525818
30
0
41
1
10
92.8639071389437
20
2.6943757002947
30
0
41
1
10
92.9620428531759
20
3.27369691168127
30
0
41
1
10
93.1583142816402
20
4.41583315786127
30
0
41
1
10
93.2564499958722
20
4.97852136336829
30
0
41
1
10
93.4527214243365
20
6.05838550316645
30
0
41
1
10
93.5508571385685
20
6.57540713451104
30
0
41
1
10
93.7471285670327
20
7.53672734565183
30
0
41
1
10
93.8452642812649
20
7.98089184637098
30
0
41
1
10
94.041535709729
20
8.77560200967332
30
0
41
1
10
94.1396714239611
20
9.12607801462536
30
0
41
1
10
94.3359428524253
20
9.72204032988051
30
0
41
1
10
94.4340785666575
20
9.96753850960391
30
0
41
1
10
94.6303499951217
20
10.3525991331531
30
0
41
1
10
94.7284857093538
20
10.4922386736409
30
0
41
1
10
94.924757137818
20
10.673635871884
30
0
41
1
10
95.0228928520501
20
10.7155
30
0
41
1
10
95.1210285662822
20
10.7155
30
0
0
SPLINE
5
E6
100
AcDbEntity
8
1
62
256
6
ByLayer
370
13
48
1
60
0
100
AcDbSpline
70
4
71
3
72
22
73
18
40
0
40
0
40
0
40
0
40
0.125
40
0.125
40
0.25
40
0.25
40
0.375
40
0.375
40
0.5
40
0.5
40
0.625
40
0.625
40
0.75
40
0.75
40
0.875
40
0.875
40
1
40
1
40
1
40
1
41
1
10
94.5730941455867
20
10.7155
30
0
41
1
10
94.6575434293006
20
10.7155
30
0
41
1
10
94.7419927130145
20
10.6845356936963
30
0
41
1
10
94.9108912804423
20
10.551589695148
30
0
41
1
10
94.9953405641563
20
10.4495570428666
30
0
41
1
10
95.1642391315841
20
10.1683538003105
30
0
41
1
10
95.248688415298
20
9.98914088393769
30
0
41
1
10
95.4175869827259
20
9.55196907924105
30
0
41
1
10
95.5020362664397
20
9.29398985201786
30
0
41
1
10
95.6709348338675
20
8.70318091177242
30
0
41
1
10
95.7553841175815
20
8.37036251554483
30
0
41
1
10
95.9242826850093
20
7.63944051353315
30
0
41
1
10
96.0087319687232
20
7.24138073848587
30
0
41
1
10
96.177630536151
20
6.39437679434832
30
0
41
1
10
96.2620798198649
20
5.94549936790025
30
0
41
1
10
96.4309783872927
20
5.01439129402391
30
0
41
1
10
96.5154276710066
20
4.5322336855499
30
0
41
1
10
96.5998769547206
20
4.04264779417636
30
0
0
SPLINE
5
E7
100
AcDbEntity
8
1
62
256
6
ByLayer
370
13
48
1
60
0
100
AcDbSpline
70
4
71
3
72
85
73
81
40
0
40
0
40
0
40
0
40
0.0312499999999997
40
0.0312499999999997
40
0.0624999999999994
40
0.0624999999999994
40
0.0781249999999993
40
0.0781249999999993
40
0.0820312499999994
40
0.0820312499999994
40
0.0859374999999996
40
0.0859374999999996
40
0.0937499999999997
40
0.0937499999999997
40
0.125
40
0.125
40
0.15625
40
0.15625
40
0.1875
40
0.1875
40
0.21875
40
0.21875
40
0.25
40
0.25
40
0.28125
40
0.28125
40
0.3125
40
0.3125
40
0.34375
40
0.34375
40
0.375
40
0.375
40
0.3828125
40
0.38671875
40
0.38671875
40
0.390625
40
0.390625
40
0.40625
40
0.40625
40
0.4375
40
0.4375
40
0.46875
40
0.46875
40
0.5
40
0.5
40
0.53125
40
0.53125
40
0.5625
40
0.5625
40
0.59375
40
0.59375
40
0.625
40
0.625
40
0.65625
40
0.65625
40
0.6875
40
0.6875
40
0.6953125
40
0.6953125
40
0.703125
40
0.703125
40
0.71875
40
0.71875
40
0.75
40
0.75
40
0.78125
40
0.78125
40
0.8125
40
0.8125
40
0.84375
40
0.84375
40
0.875
40
0.875
40
0.90625
40
0.90625
40
0.9375
40
0.9375
40
0.96875
40
0.96875
40
1
40
1
40
1
40
1
41
1
10
85.7
20
4.36027188902068
30
0
41
1
10
85.7930008221021
20
3.82513783992732
30
0
41
1
10
85.8860016442043
20
3.27867836055398
30
0
41
1
10
86.0720032884085
20
2.18653952113564
30
0
41
1
10
86.1650041105106
20
1.64093079363928
30
0
41
1
10
86.3045053436638
20
0.838008282722114
30
0
41
1
10
86.3510057547149
20
0.572913261387299
30
0
41
1
10
86.4091312685288
20
0.24597177284835
30
0
41
1
10
86.4207563712915
20
0.18080401222889
30
0
41
1
10
86.444006576817
20
0.050937358894231
30
0
41
1
10
86.4556316795798
20
-0.0136072305141681
30
0
41
1
10
86.4905069878682
20
-0.208135382202926
30
0
41
1
10
86.5137571933935
20
-0.338769601586279
30
0
41
1
10
86.6300082210212
20
-0.996120483658217
30
0
41
1
10
86.7230090431234
20
-1.53557973920414
30
0
41
1
10
86.9090106873276
20
-2.62388015001196
30
0
41
1
10
87.0020115094297
20
-3.17266808082837
30
0
41
1
10
87.1880131536341
20
-4.25730484295028
30
0
41
1
10
87.2810139757362
20
-4.79305935891875
30
0
41
1
10
87.4670156199406
20
-5.82701732692914
30
0
41
1
10
87.5600164420426
20
-6.32510348522788
30
0
41
1
10
87.7460180862469
20
-7.26008375515869
30
0
41
1
10
87.839018908349
20
-7.69686955731569
30
0
41
1
10
88.0250205525533
20
-8.49009524145919
30
0
41
1
10
88.1180213746554
20
-8.84646819548078
30
0
41
1
10
88.3040230188598
20
-9.46694735056559
30
0
41
1
10
88.3970238409619
20
-9.73104514306158
30
0
41
1
10
88.5830254851661
20
-10.1634621514059
30
0
41
1
10
88.6760263072683
20
-10.3318262587506
30
0
41
1
10
88.8620279514726
20
-10.5770852299566
30
0
41
1
10
88.9550287735747
20
-10.6540563956769
30
0
41
1
10
89.0712798012024
20
-10.6994883177398
30
0
41
1
10
89.1061551094907
20
-10.7093257158694
30
0
41
1
10
89.141030417779
20
-10.7136955795055
30
0
41
1
10
89.1642806233044
20
-10.7154196895682
30
0
41
1
10
89.1759057260672
20
-10.7156885106531
30
0
41
1
10
89.234031239881
20
-10.7141084275368
30
0
41
1
10
89.2805316509322
20
-10.7034193870364
30
0
41
1
10
89.4200328840853
20
-10.6406931934605
30
0
41
1
10
89.5130337061875
20
-10.5578381823998
30
0
41
1
10
89.6990353503918
20
-10.3003072244966
30
0
41
1
10
89.7920361724939
20
-10.1255562528768
30
0
41
1
10
89.9780378166981
20
-9.68033510013325
30
0
41
1
10
90.0710386388002
20
-9.40982305075897
30
0
41
1
10
90.2570402830046
20
-8.77704908178728
30
0
41
1
10
90.3500411051066
20
-8.41479959132738
30
0
41
1
10
90.5360427493109
20
-7.61089941409014
30
0
41
1
10
90.629043571413
20
-7.16931921647912
30
0
41
1
10
90.8150452156173
20
-6.22623464541263
30
0
41
1
10
90.9080460377195
20
-5.72484029069258
30
0
41
1
10
91.0940476819237
20
-4.68593346795157
30
0
41
1
10
91.1870485040258
20
-4.14853765029383
30
0
41
1
10
91.3730501482301
20
-3.06222919246611
30
0
41
1
10
91.4660509703322
20
-2.51340847025685
30
0
41
1
10
91.6520526145365
20
-1.42640587460491
30
0
41
1
10
91.7450534366387
20
-0.88827425628466
30
0
41
1
10
91.8613044642663
20
-0.23321432466804
30
0
41
1
10
91.8845546697919
20
-0.103304384381829
30
0
41
1
10
91.931055080843
20
0.15555215771036
30
0
41
1
10
91.9543052863684
20
0.285943582294806
30
0
41
1
10
92.024055902945
20
0.679673174549862
30
0
41
1
10
92.0705563139961
20
0.945577127444437
30
0
41
1
10
92.2100575471493
20
1.75048565535403
30
0
41
1
10
92.3030583692514
20
2.29682725932503
30
0
41
1
10
92.4890600134557
20
3.3889400106863
30
0
41
1
10
92.5820608355579
20
3.93463767002061
30
0
41
1
10
92.7680624797621
20
5.00172023293308
30
0
41
1
10
92.8610633018643
20
5.52299679707647
30
0
41
1
10
93.0470649460685
20
6.51663368838868
30
0
41
1
10
93.1400657681708
20
6.9888765132828
30
0
41
1
10
93.326067412375
20
7.86248302939271
30
0
41
1
10
93.4190682344771
20
8.26375429247759
30
0
41
1
10
93.6050698786813
20
8.9793778501494
30
0
41
1
10
93.6980707007835
20
9.29368972202309
30
0
41
1
10
93.8840723449879
20
9.82735972120318
30
0
41
1
10
93.9770731670899
20
10.0467362194981
30
0
41
1
10
94.1630748112941
20
10.3908407096161
30
0
41
1
10
94.2560756333962
20
10.5156315166187
30
0
41
1
10
94.4420772776004
20
10.6779202175819
30
0
41
1
10
94.5350780997027
20
10.7155
30
0
41
1
10
94.6280789218048
20
10.7155
30
0
0
SPLINE
5
E8
100
AcDbEntity
8
1
62
256
6
ByLayer
370
13
48
1
60
0
100
AcDbSpline
70
4
71
3
72
32
73
28
40
0
40
0
40
0
40
0
40
0.125
40
0.125
40
0.25
40
0.25
40
0.3125
40
0.3125
40
0.375
40
0.375
40
0.4375
40
0.4375
40
0.5
40
0.5
40
0.5625
40
0.5625
40
0.625
40
0.625
40
0.687499999999999
40
0.687499999999999
40
0.749999999999999
40
0.749999999999999
40
0.812499999999999
40
0.812499999999999
40
0.874999999999999
40
0.874999999999999
40
1
40
1
40
1
40
1
41
1
10
94.0801445011093
20
10.7155
30
0
41
1
10
94.1851333533431
20
10.7155
30
0
41
1
10
94.2901222055769
20
10.6675514535323
30
0
41
1
10
94.5000999100445
20
10.4588934589654
30
0
41
1
10
94.6050887622782
20
10.2980362837357
30
0
41
1
10
94.762572040629
20
9.96545885606906
30
0
41
1
10
94.8150664667459
20
9.83946330190969
30
0
41
1
10
94.9200553189797
20
9.55720363627859
30
0
41
1
10
94.9725497450966
20
9.40093789684269
30
0
41
1
10
95.0775385973304
20
9.05896833489882
30
0
41
1
10
95.1300330234473
20
8.87326470928832
30
0
41
1
10
95.2350218756811
20
8.47410490956864
30
0
41
1
10
95.2875163017981
20
8.26065089571719
30
0
41
1
10
95.3925051540318
20
7.80849587648027
30
0
41
1
10
95.4449995801487
20
7.56979889107814
30
0
41
1
10
95.5499884323825
20
7.07039015508252
30
0
41
1
10
95.6024828584995
20
6.8096839389126
30
0
41
1
10
95.7074717107332
20
6.27007075318204
30
0
41
1
10
95.7599661368502
20
5.99117029500059
30
0
41
1
10
95.8649549890839
20
5.41938148681737
30
0
41
1
10
95.9174494152007
20
5.12649998342948
30
0
41
1
10
96.0224382674346
20
4.5311578678145
30
0
41
1
10
96.0749326935515
20
4.22870379642171
30
0
41
1
10
96.1799215457853
20
3.61861798229307
30
0
41
1
10
96.2324159719022
20
3.31099193091256
30
0
41
1
10
96.3898992502529
20
2.38666019171609
30
0
41
1
10
96.4948881024866
20
1.76874413949565
30
0
41
1
10
96.5998769547205
20
1.16365079813082
30
0
0
SPLINE
5
E9
100
AcDbEntity
8
1
62
256
6
ByLayer
370
13
48
1
60
0
100
AcDbSpline
70
4
71
3
72
85
73
81
40
0
40
0
40
0
40
0
40
0.0156250000000008
40
0.0156250000000008
40
0.0234375000000011
40
0.0234375000000011
40
0.0312500000000013
40
0.0312500000000013
40
0.0625000000000015
40
0.0625000000000015
40
0.0937500000000016
40
0.0937500000000016
40
0.125000000000002
40
0.125000000000002
40
0.156250000000002
40
0.156250000000002
40
0.187500000000002
40
0.187500000000002
40
0.218750000000002
40
0.218750000000002
40
0.250000000000002
40
0.250000000000002
40
0.281250000000002
40
0.281250000000002
40
0.312500000000002
40
0.312500000000002
40
0.343750000000002
40
0.343750000000002
40
0.351562500000002
40
0.351562500000002
40
0.355468750000002
40
0.355468750000002
40
0.359375000000002
40
0.375000000000002
40
0.375000000000002
40
0.406250000000002
40
0.406250000000002
40
0.437500000000002
40
0.437500000000002
40
0.468750000000002
40
0.468750000000002
40
0.500000000000003
40
0.500000000000003
40
0.531250000000003
40
0.531250000000003
40
0.562500000000003
40
0.562500000000003
40
0.593750000000003
40
0.593750000000003
40
0.625000000000003
40
0.625000000000003
40
0.656250000000003
40
0.656250000000003
40
0.671875000000003
40
0.671875000000003
40
0.675781250000003
40
0.675781250000003
40
0.679687500000003
40
0.679687500000003
40
0.687500000000002
40
0.687500000000002
40
0.718750000000002
40
0.718750000000002
40
0.750000000000002
40
0.750000000000002
40
0.781250000000002
40
0.781250000000002
40
0.812500000000001
40
0.812500000000001
40
0.843750000000001
40
0.843750000000001
40
0.875000000000001
40
0.875000000000001
40
0.906250000000001
40
0.906250000000001
40
0.9375
40
0.9375
40
0.96875
40
0.96875
40
1
40
1
40
1
40
1
41
1
10
85.6999999999999
20
1.4816260380498
30
0
41
1
10
85.7439329649861
20
1.22675856516906
30
0
41
1
10
85.7878659299721
20
0.973696745400076
30
0
41
1
10
85.8537653774513
20
0.598176545181019
30
0
41
1
10
85.8757318599443
20
0.473679867045092
30
0
41
1
10
85.9196648249305
20
0.226242298079001
30
0
41
1
10
85.9416313074234
20
0.103465108493793
30
0
41
1
10
86.0514637198886
20
-0.507773276277305
30
0
41
1
10
86.1393296498608
20
-1.01071529561543
30
0
41
1
10
86.315061509805
20
-2.03091058856521
30
0
41
1
10
86.4029274397773
20
-2.54813515621493
30
0
41
1
10
86.5786592997216
20
-3.57932675087372
30
0
41
1
10
86.6665252296938
20
-4.09323419977878
30
0
41
1
10
86.8422570896381
20
-5.09756842974522
30
0
41
1
10
86.9301230196102
20
-5.58791214314775
30
0
41
1
10
87.1058548795546
20
-6.5244213906652
30
0
41
1
10
87.1937208095267
20
-6.97049848372222
30
0
41
1
10
87.369452669471
20
-7.79995438702537
30
0
41
1
10
87.4573185994432
20
-8.18326256529332
30
0
41
1
10
87.6330504593876
20
-8.87331431609491
30
0
41
1
10
87.7209163893597
20
-9.18002360622924
30
0
41
1
10
87.896648249304
20
-9.70930130273936
30
0
41
1
10
87.9845141792761
20
-9.93187767936374
30
0
41
1
10
88.1602460392205
20
-10.2920067924374
30
0
41
1
10
88.2481119691926
20
-10.4296017333179
30
0
41
1
10
88.4238438291368
20
-10.6247836693751
30
0
41
1
10
88.5117097591091
20
-10.6824306633941
30
0
41
1
10
88.6215421715743
20
-10.7103052641042
30
0
41
1
10
88.6435086540673
20
-10.7136788357241
30
0
41
1
10
88.6764583778069
20
-10.7155656253896
30
0
41
1
10
88.6874416190535
20
-10.7156678374542
30
0
41
1
10
88.7094081015465
20
-10.7148252456962
30
0
41
1
10
88.7643243077791
20
-10.7100868067005
30
0
41
1
10
88.8192405140117
20
-10.6918994373877
30
0
41
1
10
88.9510394089699
20
-10.6204742477492
30
0
41
1
10
89.0389053389421
20
-10.5356925096751
30
0
41
1
10
89.2146371988864
20
-10.2838929407525
30
0
41
1
10
89.3025031288586
20
-10.1168192866957
30
0
41
1
10
89.4782349888029
20
-9.69728718813641
30
0
41
1
10
89.566100918775
20
-9.44479692798893
30
0
41
1
10
89.7418327787193
20
-8.85754846787975
30
0
41
1
10
89.8296987086915
20
-8.5227968422507
30
0
41
1
10
90.0054305686359
20
-7.78083505290189
30
0
41
1
10
90.093296498608
20
-7.37367333473554
30
0
41
1
10
90.2690283585524
20
-6.50256782287334
30
0
41
1
10
90.3568942885245
20
-6.03870346448011
30
0
41
1
10
90.5326261484688
20
-5.07376243667352
30
0
41
1
10
90.620492078441
20
-4.57277488964783
30
0
41
1
10
90.7962239383853
20
-3.55443368508011
30
0
41
1
10
90.8840898683575
20
-3.03715643380423
30
0
41
1
10
91.0598217283017
20
-2.00579252806366
30
0
41
1
10
91.1476876582739
20
-1.49175488201595
30
0
41
1
10
91.2794865532321
20
-0.735345655236472
30
0
41
1
10
91.3234195182182
20
-0.485620850971884
30
0
41
1
10
91.3783357244509
20
-0.177507968717123
30
0
41
1
10
91.3893189656974
20
-0.116086886187247
30
0
41
1
10
91.4112854481904
20
0.0063292385522686
30
0
41
1
10
91.4222686894369
20
0.0673554071843228
30
0
41
1
10
91.4552184131765
20
0.251487353125441
30
0
41
1
10
91.4771848956696
20
0.375076339015152
30
0
41
1
10
91.5870173081348
20
0.996712686992112
30
0
41
1
10
91.6748832381069
20
1.50599643683915
30
0
41
1
10
91.8506150980513
20
2.53356021106669
30
0
41
1
10
91.9384810280234
20
3.05180139077197
30
0
41
1
10
92.1142128879678
20
4.07865854271938
30
0
41
1
10
92.2020788179399
20
4.58720593194531
30
0
41
1
10
92.3778106778842
20
5.57402542049709
30
0
41
1
10
92.4656766078564
20
6.05221030347224
30
0
41
1
10
92.6414084678007
20
6.95801762603304
30
0
41
1
10
92.7292743977728
20
7.38555488299886
30
0
41
1
10
92.9050062577172
20
8.17281549588239
30
0
41
1
10
92.9928721876894
20
8.53247849259708
30
0
41
1
10
93.1686040476336
20
9.17204335683789
30
0
41
1
10
93.2564699776058
20
9.45192474159711
30
0
41
1
10
93.4322018375502
20
9.92654271290115
30
0
41
1
10
93.5200677675223
20
10.121299833456
30
0
41
1
10
93.6957996274666
20
10.4268388372397
30
0
41
1
10
93.7836655574388
20
10.5376706860407
30
0
41
1
10
93.9593974173831
20
10.6819702867637
30
0
41
1
10
94.0472633473553
20
10.7155
30
0
41
1
10
94.1351292773275
20
10.7155
30
0
0
SPLINE
5
EA
100
AcDbEntity
8
1
62
256
6
ByLayer
370
13
48
1
60
0
100
AcDbSpline
70
4
71
3
72
42
73
38
40
0
40
0
40
0
40
0
40
0.0624999999999997
40
0.0624999999999997
40
0.124999999999999
40
0.124999999999999
40
0.187499999999999
40
0.187499999999999
40
0.249999999999999
40
0.249999999999999
40
0.312499999999998
40
0.312499999999998
40
0.374999999999998
40
0.374999999999998
40
0.437499999999998
40
0.437499999999998
40
0.499999999999997
40
0.499999999999997
40
0.562499999999997
40
0.562499999999997
40
0.624999999999997
40
0.624999999999997
40
0.687499999999996
40
0.687499999999996
40
0.749999999999996
40
0.749999999999996
40
0.812499999999996
40
0.812499999999996
40
0.874999999999995
40
0.874999999999995
40
0.890624999999995
40
0.890624999999995
40
0.906249999999996
40
0.906249999999996
40
0.937499999999997
40
0.937499999999997
40
1
40
1
40
1
40
1
41
1
10
93.5871948566319
20
10.7155
30
0
41
1
10
93.6499590670088
20
10.7155
30
0
41
1
10
93.7127232773856
20
10.6984203101361
30
0
41
1
10
93.8382516981393
20
10.6262470717619
30
0
41
1
10
93.9010159085161
20
10.5711418768487
30
0
41
1
10
94.0265443292698
20
10.4198567699544
30
0
41
1
10
94.0893085396467
20
10.3236658098459
30
0
41
1
10
94.2148369604004
20
10.0883098547691
30
0
41
1
10
94.2776011707772
20
9.94913608192087
30
0
41
1
10
94.4031295915309
20
9.62738081845271
30
0
41
1
10
94.4658938019077
20
9.44479449438424
30
0
41
1
10
94.5914222226614
20
9.03745659398777
30
0
41
1
10
94.6541864330383
20
8.81270540318931
30
0
41
1
10
94.779714853792
20
8.32402747350039
30
0
41
1
10
94.8424790641688
20
8.06010683088547
30
0
41
1
10
94.9680074849225
20
7.49773071371348
30
0
41
1
10
95.0307716952993
20
7.19928653421113
30
0
41
1
10
95.156300116053
20
6.57389119692763
30
0
41
1
10
95.2190643264299
20
6.24695506345054
30
0
41
1
10
95.3445927471836
20
5.57158947421772
30
0
41
1
10
95.4073569575604
20
5.22317666541221
30
0
41
1
10
95.5328853783142
20
4.51237350785811
30
0
41
1
10
95.595649588691
20
4.14999917599872
30
0
41
1
10
95.7211780094447
20
3.41879224864184
30
0
41
1
10
95.7839422198215
20
3.04997313390282
30
0
41
1
10
95.9094706405752
20
2.31295003720959
30
0
41
1
10
95.9722348509521
20
1.94475578038569
30
0
41
1
10
96.0977632717057
20
1.21525780838695
30
0
41
1
10
96.1605274820827
20
0.853959640636901
30
0
41
1
10
96.2389827450538
20
0.40992315317439
30
0
41
1
10
96.254673797648
20
0.321492479277652
30
0
41
1
10
96.2860559028363
20
0.14545529068937
30
0
41
1
10
96.3017469554305
20
0.0580133836857328
30
0
41
1
10
96.3488201132132
20
-0.204063814868107
30
0
41
1
10
96.3802022184016
20
-0.380536396638661
30
0
41
1
10
96.4743485339669
20
-0.914381312528178
30
0
41
1
10
96.5371127443436
20
-1.27621469030933
30
0
41
1
10
96.5998769547206
20
-1.64133615768245
30
0
0
SPLINE
5
EB
100
AcDbEntity
8
1
62
256
6
ByLayer
370
13
48
1
60
0
100
AcDbSpline
70
4
71
3
72
79
73
75
40
0
40
0
40
0
40
0
40
0.0312499999999986
40
0.0312499999999986
40
0.0624999999999972
40
0.0624999999999972
40
0.0937499999999958
40
0.0937499999999958
40
0.124999999999994
40
0.124999999999994
40
0.156249999999993
40
0.156249999999993
40
0.187499999999992
40
0.187499999999992
40
0.21874999999999
40
0.21874999999999
40
0.249999999999989
40
0.249999999999989
40
0.281249999999987
40
0.281249999999987
40
0.312499999999986
40
0.312499999999986
40
0.316406249999986
40
0.316406249999986
40
0.320312499999986
40
0.328124999999986
40
0.328124999999986
40
0.343749999999986
40
0.343749999999986
40
0.374999999999987
40
0.374999999999987
40
0.406249999999988
40
0.406249999999988
40
0.437499999999989
40
0.437499999999989
40
0.46874999999999
40
0.46874999999999
40
0.499999999999991
40
0.499999999999991
40
0.531249999999991
40
0.531249999999991
40
0.562499999999992
40
0.562499999999992
40
0.593749999999993
40
0.593749999999993
40
0.624999999999994
40
0.624999999999994
40
0.656249999999995
40
0.656249999999995
40
0.664062499999995
40
0.664062499999995
40
0.671874999999995
40
0.671874999999995
40
0.687499999999995
40
0.687499999999995
40
0.718749999999996
40
0.718749999999996
40
0.749999999999996
40
0.749999999999996
40
0.781249999999997
40
0.781249999999997
40
0.812499999999998
40
0.812499999999998
40
0.843749999999998
40
0.843749999999998
40
0.874999999999998
40
0.874999999999998
40
0.906249999999999
40
0.906249999999999
40
0.937499999999999
40
0.937499999999999
40
0.96875
40
0.96875
40
1
40
1
40
1
40
1
41
1
10
85.6999999999999
20
-1.3223717331694
30
0
41
1
10
85.7827310378422
20
-1.80082854476228
30
0
41
1
10
85.8654620756844
20
-2.2864826545547
30
0
41
1
10
86.0309241513687
20
-3.25803217329269
30
0
41
1
10
86.1136551892109
20
-3.74388761911925
30
0
41
1
10
86.2791172648953
20
-4.69931184668098
30
0
41
1
10
86.3618483027375
20
-5.16882240744047
30
0
41
1
10
86.5273103784219
20
-6.07418393713056
30
0
41
1
10
86.610041416264
20
-6.50996880482546
30
0
41
1
10
86.7755034919485
20
-7.33157253604421
30
0
41
1
10
86.8582345297906
20
-7.71733231850041
30
0
41
1
10
87.0236966054749
20
-8.42558371386932
30
0
41
1
10
87.1064276433171
20
-8.74803739303832
30
0
41
1
10
87.2718897190015
20
-9.32088497040056
30
0
41
1
10
87.3546207568437
20
-9.57126990191776
30
0
41
1
10
87.5200828325281
20
-9.99642471604329
30
0
41
1
10
87.6028138703703
20
-10.1712134794981
30
0
41
1
10
87.7682759460547
20
-10.4466955489314
30
0
41
1
10
87.8510069838969
20
-10.5474270707218
30
0
41
1
10
88.0164690595813
20
-10.6804944808613
30
0
41
1
10
88.0992000974234
20
-10.7128763311306
30
0
41
1
10
88.1922725149959
20
-10.715655008534
30
0
41
1
10
88.2026138947261
20
-10.7155004260794
30
0
41
1
10
88.2232966541867
20
-10.7142557022165
30
0
41
1
10
88.2543207933775
20
-10.7109812923457
30
0
41
1
10
88.2853449325684
20
-10.7034026882603
30
0
41
1
10
88.34739321095
20
-10.6822971214743
30
0
41
1
10
88.3887587298711
20
-10.660290787024
30
0
41
1
10
88.5128552866344
20
-10.5689404032721
30
0
41
1
10
88.5955863244766
20
-10.4741533899892
30
0
41
1
10
88.7610484001609
20
-10.2108931033008
30
0
41
1
10
88.8437794380031
20
-10.0423805217429
30
0
41
1
10
89.0092415136875
20
-9.62972324219126
30
0
41
1
10
89.0919725515297
20
-9.3855576581216
30
0
41
1
10
89.257434627214
20
-8.82465538969862
30
0
41
1
10
89.3401656650562
20
-8.5079251930625
30
0
41
1
10
89.5056277407406
20
-7.81020720838202
30
0
41
1
10
89.5883587785828
20
-7.42925512830493
30
0
41
1
10
89.7538208542672
20
-6.6160250035274
30
0
41
1
10
89.8365518921094
20
-6.1838047665309
30
0
41
1
10
90.0020139677938
20
-5.28414936128837
30
0
41
1
10
90.084745005636
20
-4.81678030803178
30
0
41
1
10
90.2502070813204
20
-3.86420124950314
30
0
41
1
10
90.3329381191626
20
-3.37905060330846
30
0
41
1
10
90.4984001948468
20
-2.40760640625189
30
0
41
1
10
90.5811312326891
20
-1.92135456350269
30
0
41
1
10
90.7465933083735
20
-0.962177591546151
30
0
41
1
10
90.8293243462156
20
-0.48927251386624
30
0
41
1
10
90.9327381435184
20
0.0864634944190357
30
0
41
1
10
90.953420902979
20
0.201906416288495
30
0
41
1
10
90.9947864219001
20
0.434632318473263
30
0
41
1
10
91.0154691813607
20
0.551692141725567
30
0
41
1
10
91.0775174597422
20
0.904711314466397
30
0
41
1
10
91.1188829786632
20
1.14251680712951
30
0
41
1
10
91.2429795354267
20
1.86106732547262
30
0
41
1
10
91.3257105732689
20
2.34703273083446
30
0
41
1
10
91.4911726489531
20
3.318556467489
30
0
41
1
10
91.5739036867953
20
3.80407396003255
30
0
41
1
10
91.7393657624797
20
4.75810519298102
30
0
41
1
10
91.8220968003219
20
5.22656013399094
30
0
41
1
10
91.9875588760063
20
6.12909787872772
30
0
41
1
10
92.0702899138485
20
6.56311456099721
30
0
41
1
10
92.2357519895328
20
7.38055705934661
30
0
41
1
10
92.318483027375
20
7.7639244185651
30
0
41
1
10
92.4839451030595
20
8.46692797264484
30
0
41
1
10
92.5666761409016
20
8.78652734001415
30
0
41
1
10
92.732138216586
20
9.35341252844867
30
0
41
1
10
92.8148692544281
20
9.60069062373788
30
0
41
1
10
92.9803313301125
20
10.0195979346106
30
0
41
1
10
93.0630623679547
20
10.1912470415364
30
0
41
1
10
93.2285244436392
20
10.4606114949233
30
0
41
1
10
93.3112554814813
20
10.5583656137174
30
0
41
1
10
93.4767175571656
20
10.6857868461544
30
0
41
1
10
93.5594485950078
20
10.7155
30
0
41
1
10
93.64217963285
20
10.7155
30
0
0
SPLINE
5
EC
100
AcDbEntity
8
1
62
256
6
ByLayer
370
13
48
1
60
0
100
AcDbSpline
70
4
71
3
72
43
73
39
40
0
40
0
40
0
40
0
40
0.0624999999999999
40
0.0624999999999999
40
0.125
40
0.125
40
0.1875
40
0.1875
40
0.25
40
0.25
40
0.3125
40
0.3125
40
0.375
40
0.375
40
0.4375
40
0.4375
40
0.5
40
0.5
40
0.5625
40
0.5625
40
0.625
40
0.625
40
0.6875
40
0.6875
40
0.75
40
0.75
40
0.765625
40
0.7734375
40
0.7734375
40
0.781249999999999
40
0.781249999999999
40
0.8125
40
0.8125
40
0.875
40
0.875
40
0.9375
40
0.9375
40
1
40
1
40
1
40
1
41
1
10
93.0942452121545
20
10.7155
30
0
41
1
10
93.1672792067914
20
10.7155
30
0
41
1
10
93.2403132014282
20
10.6923598335444
30
0
41
1
10
93.3863811907017
20
10.5938156538031
30
0
41
1
10
93.4594151853385
20
10.5183868328501
30
0
41
1
10
93.6054831746121
20
10.3108344446779
30
0
41
1
10
93.6785171692489
20
10.1786885465444
30
0
41
1
10
93.8245851585225
20
9.85559443211378
30
0
41
1
10
93.8976191531592
20
9.66463126190956
30
0
41
1
10
94.0436871424328
20
9.22469692993553
30
0
41
1
10
94.1167211370696
20
8.97572255558535
30
0
41
1
10
94.2627891263432
20
8.42375019644933
30
0
41
1
10
94.3358231209801
20
8.12076300593898
30
0
41
1
10
94.4818911102536
20
7.46783177223247
30
0
41
1
10
94.5549251048903
20
7.11791159239277
30
0
41
1
10
94.7009930941639
20
6.38073663194024
30
0
41
1
10
94.7740270888007
20
5.99351462659462
30
0
41
1
10
94.9200950780743
20
5.19304528746304
30
0
41
1
10
94.9931290727111
20
4.77983346950208
30
0
41
1
10
95.1391970619847
20
3.93933136227332
30
0
41
1
10
95.2122310566215
20
3.51207305584424
30
0
41
1
10
95.3582990458951
20
2.65502636757904
30
0
41
1
10
95.4313330405318
20
2.22526181505694
30
0
41
1
10
95.5774010298053
20
1.37349957055653
30
0
41
1
10
95.6504350244422
20
0.951515497706168
30
0
41
1
10
95.7417275177381
20
0.434188596394904
30
0
41
1
10
95.7691152657271
20
0.27974470272153
30
0
41
1
10
95.7965030137159
20
0.126558208963416
30
0
41
1
10
95.814761512375
20
0.024726359885733
30
0
41
1
10
95.8238907617046
20
-0.0259698030516802
30
0
41
1
10
95.8695370083526
20
-0.2805613525328
30
0
41
1
10
95.906054005671
20
-0.486579362402807
30
0
41
1
10
96.0156049976262
20
-1.11032125591606
30
0
41
1
10
96.0886389922629
20
-1.53379347158344
30
0
41
1
10
96.2347069815365
20
-2.38732848240281
30
0
41
1
10
96.3077409761734
20
-2.81737634906634
30
0
41
1
10
96.4538089654469
20
-3.67359052508138
30
0
41
1
10
96.5268429600838
20
-4.09973180846515
30
0
41
1
10
96.5998769547205
20
-4.51811467196635
30
0
0
SPLINE
5
ED
100
AcDbEntity
8
1
62
256
6
ByLayer
370
13
48
1
60
0
100
AcDbSpline
70
4
71
3
72
80
73
76
40
0
40
0
40
0
40
0
40
0.0312500000000007
40
0.0312500000000007
40
0.0625000000000013
40
0.0625000000000013
40
0.093750000000002
40
0.093750000000002
40
0.125000000000003
40
0.125000000000003
40
0.156250000000003
40
0.156250000000003
40
0.187500000000004
40
0.187500000000004
40
0.218750000000005
40
0.218750000000005
40
0.250000000000006
40
0.250000000000006
40
0.265625000000006
40
0.265625000000006
40
0.269531250000006
40
0.269531250000006
40
0.273437500000006
40
0.281250000000006
40
0.281250000000006
40
0.312500000000006
40
0.312500000000006
40
0.343750000000007
40
0.343750000000007
40
0.375000000000007
40
0.375000000000007
40
0.406250000000007
40
0.406250000000007
40
0.437500000000008
40
0.437500000000008
40
0.468750000000008
40
0.468750000000008
40
0.500000000000009
40
0.500000000000009
40
0.531250000000009
40
0.531250000000009
40
0.56250000000001
40
0.56250000000001
40
0.59375000000001
40
0.59375000000001
40
0.62500000000001
40
0.62500000000001
40
0.63281250000001
40
0.63281250000001
40
0.63671875000001
40
0.63671875000001
40
0.64062500000001
40
0.65625000000001
40
0.65625000000001
40
0.687500000000009
40
0.687500000000009
40
0.718750000000008
40
0.718750000000008
40
0.750000000000007
40
0.750000000000007
40
0.781250000000006
40
0.781250000000006
40
0.812500000000005
40
0.812500000000005
40
0.843750000000005
40
0.843750000000005
40
0.875000000000004
40
0.875000000000004
40
0.906250000000003
40
0.906250000000003
40
0.937500000000002
40
0.937500000000002
40
0.968750000000001
40
0.968750000000001
40
1
40
1
40
1
40
1
41
1
10
85.6999999999999
20
-4.20175124864335
30
0
41
1
10
85.7775961457122
20
-4.65002465349477
30
0
41
1
10
85.8551922914244
20
-5.09118917032112
30
0
41
1
10
86.0103845828487
20
-5.94505506799956
30
0
41
1
10
86.087980728561
20
-6.3577084811775
30
0
41
1
10
86.2431730199855
20
-7.140932179358
30
0
41
1
10
86.3207691656977
20
-7.51145814376164
30
0
41
1
10
86.4759614571221
20
-8.198939273338
30
0
41
1
10
86.5535576028344
20
-8.51586314514927
30
0
41
1
10
86.7087498942587
20
-9.08795363728524
30
0
41
1
10
86.786346039971
20
-9.34310804364185
30
0
41
1
10
86.9415383313954
20
-9.78744599620973
30
0
41
1
10
87.0191344771076
20
-9.97663719291808
30
0
41
1
10
87.1743267685321
20
-10.2888741856783
30
0
41
1
10
87.2519229142442
20
-10.4119433016737
30
0
41
1
10
87.4071152056687
20
-10.5953158932748
30
0
41
1
10
87.484711351381
20
-10.6556512997733
30
0
41
1
10
87.6011055699493
20
-10.7036375310395
30
0
41
1
10
87.6399036428053
20
-10.7125646947524
30
0
41
1
10
87.6884012338755
20
-10.7154657307566
30
0
41
1
10
87.6981007520895
20
-10.7156341809435
30
0
41
1
10
87.7174997885177
20
-10.7151564828614
30
0
41
1
10
87.7465983431597
20
-10.7132114080514
30
0
41
1
10
87.7756968978017
20
-10.7075123673747
30
0
41
1
10
87.872692079942
20
-10.6798815892691
30
0
41
1
10
87.9502882256542
20
-10.6300722992809
30
0
41
1
10
88.1054805170786
20
-10.4686600550647
30
0
41
1
10
88.183076662791
20
-10.3570244338673
30
0
41
1
10
88.3382689542153
20
-10.0680185836094
30
0
41
1
10
88.4158650999276
20
-9.89062295832269
30
0
41
1
10
88.571057391352
20
-9.46956504175449
30
0
41
1
10
88.6486535370641
20
-9.22589190634525
30
0
41
1
10
88.8038458284886
20
-8.6757266960725
30
0
41
1
10
88.8814419742008
20
-8.3692432194031
30
0
41
1
10
89.0366342656253
20
-7.70093382499698
30
0
41
1
10
89.1142304113375
20
-7.33913612925176
30
0
41
1
10
89.2694227027619
20
-6.57114662217617
30
0
41
1
10
89.347018848474
20
-6.1649974538374
30
0
41
1
10
89.5022111398986
20
-5.32163711995298
30
0
41
1
10
89.5798072856107
20
-4.88447400748888
30
0
41
1
10
89.7349995770352
20
-3.99340395293964
30
0
41
1
10
89.8125957227474
20
-3.53954078972956
30
0
41
1
10
89.9677880141718
20
-2.62896073676163
30
0
41
1
10
90.0453841598841
20
-2.17227609880979
30
0
41
1
10
90.2005764513085
20
-1.26834988056274
30
0
41
1
10
90.2781725970207
20
-0.82112587623169
30
0
41
1
10
90.3751677791609
20
-0.274215178910737
30
0
41
1
10
90.394566815589
20
-0.165432727513803
30
0
41
1
10
90.4236653702311
20
-0.0032556015632679
30
0
41
1
10
90.4333648884452
20
0.0506240764739516
30
0
41
1
10
90.4527639248732
20
0.158934969922427
30
0
41
1
10
90.5012615159433
20
0.430529229744394
30
0
41
1
10
90.5497591070134
20
0.706025920045221
30
0
41
1
10
90.6661533255817
20
1.3730165976296
30
0
41
1
10
90.743749471294
20
1.82548250964206
30
0
41
1
10
90.8989417627184
20
2.73509568698313
30
0
41
1
10
90.9765379084307
20
3.19221923084652
30
0
41
1
10
91.1317301998551
20
4.09810601686399
30
0
41
1
10
91.2093263455672
20
4.54683163267424
30
0
41
1
10
91.3645186369918
20
5.42171396332969
30
0
41
1
10
91.442114782704
20
5.84782406539989
30
0
41
1
10
91.5973070741284
20
6.66338679655641
30
0
41
1
10
91.6749032198406
20
7.05279238599377
30
0
41
1
10
91.830095511265
20
7.78241831064659
30
0
41
1
10
91.9076916569772
20
8.12260100339699
30
0
41
1
10
92.0628839484016
20
8.7441221902987
30
0
41
1
10
92.1404800941138
20
9.02544020418799
30
0
41
1
10
92.2956723855383
20
9.52334038572135
30
0
41
1
10
92.3732685312505
20
9.73992228568497
30
0
41
1
10
92.5284608226749
20
10.1065437201241
30
0
41
1
10
92.6060569683871
20
10.2566008784896
30
0
41
1
10
92.7612492598116
20
10.4921773895535
30
0
41
1
10
92.8388454055238
20
10.5777260535391
30
0
41
1
10
92.9940376969482
20
10.6893705976565
30
0
41
1
10
93.0716338426604
20
10.7155
30
0
41
1
10
93.1492299883727
20
10.7155
30
0
0
SPLINE
5
EE
100
AcDbEntity
8
1
62
256
6
ByLayer
370
13
48
1
60
0
100
AcDbSpline
70
4
71
3
72
43
73
39
40
0
40
0
40
0
40
0
40
0.0625000000000002
40
0.0625000000000002
40
0.125
40
0.125
40
0.1875
40
0.1875
40
0.250000000000001
40
0.250000000000001
40
0.312500000000001
40
0.312500000000001
40
0.375000000000001
40
0.375000000000001
40
0.437500000000001
40
0.437500000000001
40
0.500000000000001
40
0.500000000000001
40
0.562500000000002
40
0.562500000000002
40
0.625000000000002
40
0.625000000000002
40
0.656250000000002
40
0.656250000000002
40
0.671875000000002
40
0.679687500000002
40
0.679687500000002
40
0.687500000000002
40
0.687500000000002
40
0.750000000000002
40
0.750000000000002
40
0.812500000000001
40
0.812500000000001
40
0.875000000000001
40
0.875000000000001
40
0.937500000000001
40
0.937500000000001
40
1
40
1
40
1
40
1
41
1
10
92.6012955676771
20
10.7155
30
0
41
1
10
92.6845993465739
20
10.7155
30
0
41
1
10
92.7679031254706
20
10.6853726984441
30
0
41
1
10
92.9345106832642
20
10.556123625298
30
0
41
1
10
93.0178144621609
20
10.456954216948
30
0
41
1
10
93.1844220199544
20
10.1836732610487
30
0
41
1
10
93.2677257988511
20
10.009521778221
30
0
41
1
10
93.4343333566445
20
9.58456886898202
30
0
41
1
10
93.5176371355412
20
9.33374738022653
30
0
41
1
10
93.6842446933348
20
8.75893316264975
30
0
41
1
10
93.7675484722315
20
8.43494928767981
30
0
41
1
10
93.934156030025
20
7.72267303805643
30
0
41
1
10
94.0174598089218
20
7.33441973310278
30
0
41
1
10
94.1840673667152
20
6.50712837319793
30
0
41
1
10
94.2673711456119
20
6.06815146281303
30
0
41
1
10
94.4339787034054
20
5.1560542509896
30
0
41
1
10
94.5172824823021
20
4.68300235405775
30
0
41
1
10
94.6838900400955
20
3.72050958852671
30
0
41
1
10
94.7671938189923
20
3.23112877335947
30
0
41
1
10
94.9338013767857
20
2.25286049839534
30
0
41
1
10
95.0171051556825
20
1.76401394678521
30
0
41
1
10
95.1420608240277
20
1.04195934655601
30
0
41
1
10
95.183712713476
20
0.803120998961646
30
0
41
1
10
95.2461905476486
20
0.448756210658473
30
0
41
1
10
95.2774294647349
20
0.272544494731335
30
0
41
1
10
95.3086683818211
20
0.0979762833359814
30
0
41
1
10
95.3294943265453
20
-0.0180180891238138
30
0
41
1
10
95.3399072989075
20
-0.0759159159752585
30
0
41
1
10
95.4336240501663
20
-0.599734331141605
30
0
41
1
10
95.516927829063
20
-1.07746517640513
30
0
41
1
10
95.6835353868564
20
-2.04538181333948
30
0
41
1
10
95.7668391657531
20
-2.53554500081785
30
0
41
1
10
95.9334467235466
20
-3.51335370054036
30
0
41
1
10
96.0167505024433
20
-4.00095411921185
30
0
41
1
10
96.1833580602368
20
-4.9564838955275
30
0
41
1
10
96.2666618391336
20
-5.42435054523861
30
0
41
1
10
96.433269396927
20
-6.3227221966757
30
0
41
1
10
96.5165731758238
20
-6.75315891225992
30
0
41
1
10
96.5998769547205
20
-7.15680980771282
30
0
0
SPLINE
5
EF
100
AcDbEntity
8
1
62
256
6
ByLayer
370
13
48
1
60
0
100
AcDbSpline
70
4
71
3
72
79
73
75
40
0
40
0
40
0
40
0
40
0.0312499999999993
40
0.0312499999999993
40
0.0624999999999986
40
0.0624999999999986
40
0.0937499999999978
40
0.0937499999999978
40
0.124999999999997
40
0.124999999999997
40
0.156249999999996
40
0.156249999999996
40
0.187499999999996
40
0.187499999999996
40
0.203124999999995
40
0.203124999999995
40
0.210937499999995
40
0.214843749999994
40
0.214843749999994
40
0.218749999999994
40
0.218749999999994
40
0.249999999999995
40
0.249999999999995
40
0.281249999999996
40
0.281249999999996
40
0.312499999999997
40
0.312499999999997
40
0.343749999999998
40
0.343749999999998
40
0.374999999999998
40
0.374999999999998
40
0.406249999999999
40
0.406249999999999
40
0.4375
40
0.4375
40
0.468750000000001
40
0.468750000000001
40
0.500000000000002
40
0.500000000000002
40
0.531250000000003
40
0.531250000000003
40
0.562500000000004
40
0.562500000000004
40
0.593750000000004
40
0.593750000000004
40
0.601562500000005
40
0.601562500000005
40
0.609375000000005
40
0.609375000000005
40
0.625000000000004
40
0.625000000000004
40
0.656250000000004
40
0.656250000000004
40
0.687500000000003
40
0.687500000000003
40
0.718750000000003
40
0.718750000000003
40
0.750000000000003
40
0.750000000000003
40
0.781250000000002
40
0.781250000000002
40
0.812500000000002
40
0.812500000000002
40
0.843750000000002
40
0.843750000000002
40
0.875000000000001
40
0.875000000000001
40
0.906250000000001
40
0.906250000000001
40
0.937500000000001
40
0.937500000000001
40
0.96875
40
0.96875
40
1
40
1
40
1
40
1
41
1
10
85.6999999999999
20
-6.88658479274653
30
0
41
1
10
85.7724612535823
20
-7.2475942575976
30
0
41
1
10
85.8449225071644
20
-7.58958251141209
30
0
41
1
10
85.9898450143289
20
-8.22642479373451
30
0
41
1
10
86.0623062679112
20
-8.52125719490977
30
0
41
1
10
86.2072287750757
20
-9.0571826585786
30
0
41
1
10
86.2796900286579
20
-9.29826683030592
30
0
41
1
10
86.4246125358224
20
-9.72310807826278
30
0
41
1
10
86.4970737894046
20
-9.90686953366651
30
0
41
1
10
86.6419962965691
20
-10.2165616210321
30
0
41
1
10
86.7144575501515
20
-10.3425074936737
30
0
41
1
10
86.8593800573158
20
-10.5388426716881
30
0
41
1
10
86.9318413108981
20
-10.609253834716
30
0
41
1
10
87.0405331912715
20
-10.6765618136429
30
0
41
1
10
87.0767638180625
20
-10.6926280629037
30
0
41
1
10
87.1311097582492
20
-10.7077013240235
30
0
41
1
10
87.1582827283427
20
-10.7129824163537
30
0
41
1
10
87.1854556984359
20
-10.7149871865973
30
0
41
1
10
87.2035710118315
20
-10.7156079762821
30
0
41
1
10
87.2126286685293
20
-10.7155622160067
30
0
41
1
10
87.2941475788093
20
-10.7119342269569
30
0
41
1
10
87.3666088323915
20
-10.6857055858025
30
0
41
1
10
87.511531339556
20
-10.5814776941106
30
0
41
1
10
87.5839925931383
20
-10.5034546107271
30
0
41
1
10
87.7289151003027
20
-10.2914243445137
30
0
41
1
10
87.801376353885
20
-10.1573959516936
30
0
41
1
10
87.9462988610495
20
-9.83142839584161
30
0
41
1
10
88.0187601146317
20
-9.63947529494371
30
0
41
1
10
88.1636826217962
20
-9.19856392956072
30
0
41
1
10
88.2361438753784
20
-8.94960307258305
30
0
41
1
10
88.3810663825429
20
-8.39867657305041
30
0
41
1
10
88.4535276361252
20
-8.09672172672552
30
0
41
1
10
88.5984501432897
20
-7.44678465344322
30
0
41
1
10
88.6709113968719
20
-7.0988256239815
30
0
41
1
10
88.8158339040364
20
-6.36631770308833
30
0
41
1
10
88.8882951576187
20
-5.98180041314961
30
0
41
1
10
89.0332176647831
20
-5.18723353579765
30
0
41
1
10
89.1056789183654
20
-4.77721809389664
30
0
41
1
10
89.2506014255299
20
-3.94332254820708
30
0
41
1
10
89.3230626791121
20
-3.5194731993397
30
0
41
1
10
89.4679851862766
20
-2.669191750426
30
0
41
1
10
89.5404464398589
20
-2.24278263895255
30
0
41
1
10
89.6853689470233
20
-1.39745670140616
30
0
41
1
10
89.7578302006056
20
-0.978553130235099
30
0
41
1
10
89.8484067675833
20
-0.46480584552387
30
0
41
1
10
89.8665220809789
20
-0.362545785161842
30
0
41
1
10
89.90275270777
20
-0.159114812872559
30
0
41
1
10
89.9208680211656
20
-0.0582058342034202
30
0
41
1
10
89.9752139613523
20
0.244516417462023
30
0
41
1
10
90.0114445881434
20
0.448662143787715
30
0
41
1
10
90.1201364685168
20
1.06678842304473
30
0
41
1
10
90.1925977220991
20
1.48651701079314
30
0
41
1
10
90.3375202292635
20
2.33283607769127
30
0
41
1
10
90.4099814828459
20
2.75941260246998
30
0
41
1
10
90.5549039900102
20
3.6092651783278
30
0
41
1
10
90.6273652435925
20
4.03251759836726
30
0
41
1
10
90.772287750757
20
4.86439818516325
30
0
41
1
10
90.8447490043392
20
5.27299518881242
30
0
41
1
10
90.9896715115038
20
6.06391253569248
30
0
41
1
10
91.0621327650859
20
6.44619870869138
30
0
41
1
10
91.2070552722504
20
7.17351304752319
30
0
41
1
10
91.2795165258327
20
7.51851002519436
30
0
41
1
10
91.4244390329972
20
8.16194007412298
30
0
41
1
10
91.4969002865794
20
8.46035072323645
30
0
41
1
10
91.6418227937439
20
9.00380320306985
30
0
41
1
10
91.7142840473261
20
9.24883518841523
30
0
41
1
10
91.8592065544906
20
9.68172265285003
30
0
41
1
10
91.9316678080729
20
9.86958162356109
30
0
41
1
10
92.0765903152374
20
10.1874077718463
30
0
41
1
10
92.1490515688196
20
10.3173895493844
30
0
41
1
10
92.293974075984
20
10.5215559262691
30
0
41
1
10
92.3664353295663
20
10.5957620712542
30
0
41
1
10
92.5113578367308
20
10.6927221808657
30
0
41
1
10
92.583819090313
20
10.7155
30
0
41
1
10
92.6562803438953
20
10.7155
30
0
0
SPLINE
5
F0
100
AcDbEntity
8
1
62
256
6
ByLayer
370
13
48
1
60
0
100
AcDbSpline
70
4
71
3
72
44
73
40
40
0
40
0
40
0
40
0
40
0.0625000000000009
40
0.0625000000000009
40
0.125000000000002
40
0.125000000000002
40
0.187500000000003
40
0.187500000000003
40
0.250000000000004
40
0.250000000000004
40
0.312500000000005
40
0.312500000000005
40
0.375000000000005
40
0.375000000000005
40
0.437500000000006
40
0.437500000000006
40
0.500000000000007
40
0.500000000000007
40
0.562500000000008
40
0.562500000000008
40
0.593750000000009
40
0.593750000000009
40
0.601562500000009
40
0.601562500000009
40
0.609375000000009
40
0.609375000000009
40
0.625000000000009
40
0.625000000000009
40
0.687500000000007
40
0.687500000000007
40
0.750000000000006
40
0.750000000000006
40
0.812500000000004
40
0.812500000000004
40
0.875000000000003
40
0.875000000000003
40
0.937500000000001
40
0.937500000000001
40
1
40
1
40
1
40
1
41
1
10
92.1083459231998
20
10.7155
30
0
41
1
10
92.2019194863565
20
10.7155
30
0
41
1
10
92.2954930495132
20
10.6774539685771
30
0
41
1
10
92.4826401758265
20
10.5130895440528
30
0
41
1
10
92.5762137389833
20
10.3866867636119
30
0
41
1
10
92.7633608652966
20
10.0381324681913
30
0
41
1
10
92.8569344284533
20
9.81591661024248
30
0
41
1
10
93.0440815547665
20
9.2754571111862
30
0
41
1
10
93.1376551179233
20
8.95719557754472
30
0
41
1
10
93.3248022442367
20
8.23289403298344
30
0
41
1
10
93.4183758073934
20
7.82689720455411
30
0
41
1
10
93.6055229337068
20
6.94356145403776
30
0
41
1
10
93.6990964968634
20
6.46631911603785
30
0
41
1
10
93.8862436231767
20
5.4629658569599
30
0
41
1
10
93.9798171863334
20
4.93697634968055
30
0
41
1
10
94.1669643126468
20
3.86124390402236
30
0
41
1
10
94.2605378758036
20
3.31161155222901
30
0
41
1
10
94.4476850021168
20
2.21273417924166
30
0
41
1
10
94.5412585652736
20
1.66356278088233
30
0
41
1
10
94.6816189100086
20
0.855333954705799
30
0
41
1
10
94.7284056915869
20
0.58847574196173
30
0
41
1
10
94.7868891685598
20
0.259364827122084
30
0
41
1
10
94.7985858639544
20
0.193764889566296
30
0
41
1
10
94.8219792547435
20
0.0630379079761951
30
0
41
1
10
94.8336759501381
20
-0.0019257481541217
30
0
41
1
10
94.8687660363219
20
-0.197568562439983
30
0
41
1
10
94.8921594271111
20
-0.328960781857006
30
0
41
1
10
95.0091263810569
20
-0.990167058075855
30
0
41
1
10
95.1026999442137
20
-1.53292503856605
30
0
41
1
10
95.289847070527
20
-2.62793542767537
30
0
41
1
10
95.3834206336836
20
-3.18013293323631
30
0
41
1
10
95.5705677599969
20
-4.27127316940945
30
0
41
1
10
95.6641413231537
20
-4.81011841834626
30
0
41
1
10
95.851288449467
20
-5.84947601703919
30
0
41
1
10
95.9448620126238
20
-6.34986732854509
30
0
41
1
10
96.1320091389371
20
-7.28827997614002
30
0
41
1
10
96.2255827020938
20
-7.7261901703711
30
0
41
1
10
96.4127298284071
20
-8.52026529769211
30
0
41
1
10
96.5063033915638
20
-8.87636261575119
30
0
41
1
10
96.5998769547205
20
-9.18563192946314
30
0
0
SPLINE
5
F1
100
AcDbEntity
8
1
62
256
6
ByLayer
370
13
48
1
60
0
100
AcDbSpline
70
4
71
3
72
75
73
71
40
0
40
0
40
0
40
0
40
0.0312500000000013
40
0.0312500000000013
40
0.0625000000000026
40
0.0625000000000026
40
0.0937500000000038
40
0.0937500000000038
40
0.125000000000005
40
0.125000000000005
40
0.156250000000006
40
0.156250000000006
40
0.164062500000006
40
0.164062500000006
40
0.171875000000007
40
0.187500000000007
40
0.187500000000007
40
0.218750000000006
40
0.218750000000006
40
0.250000000000006
40
0.250000000000006
40
0.281250000000006
40
0.281250000000006
40
0.312500000000006
40
0.312500000000006
40
0.343750000000005
40
0.343750000000005
40
0.375000000000005
40
0.375000000000005
40
0.406250000000005
40
0.406250000000005
40
0.437500000000005
40
0.437500000000005
40
0.468750000000004
40
0.468750000000004
40
0.500000000000004
40
0.500000000000004
40
0.531250000000004
40
0.531250000000004
40
0.562500000000004
40
0.562500000000004
40
0.578125000000004
40
0.578125000000004
40
0.593750000000004
40
0.593750000000004
40
0.625000000000003
40
0.625000000000003
40
0.656250000000003
40
0.656250000000003
40
0.687500000000003
40
0.687500000000003
40
0.718750000000003
40
0.718750000000003
40
0.750000000000002
40
0.750000000000002
40
0.781250000000002
40
0.781250000000002
40
0.812500000000002
40
0.812500000000002
40
0.843750000000001
40
0.843750000000001
40
0.875000000000001
40
0.875000000000001
40
0.906250000000001
40
0.906250000000001
40
0.937500000000001
40
0.937500000000001
40
0.96875
40
0.96875
40
1
40
1
40
1
40
1
41
1
10
85.6999999999999
20
-8.99858252230277
30
0
41
1
10
85.7673263614522
20
-9.23409102412811
30
0
41
1
10
85.8346527229045
20
-9.4458672841844
30
0
41
1
10
85.969305445809
20
-9.81966834100149
30
0
41
1
10
86.0366318072613
20
-9.98169784948462
30
0
41
1
10
86.1712845301658
20
-10.2559845865352
30
0
41
1
10
86.2386108916181
20
-10.3682531428854
30
0
41
1
10
86.3732636145226
20
-10.5450220527686
30
0
41
1
10
86.4405899759749
20
-10.6095377203595
30
0
41
1
10
86.5752426988794
20
-10.6944194739724
30
0
41
1
10
86.6425690603318
20
-10.7148020980733
30
0
41
1
10
86.7267270121471
20
-10.7156524021918
30
0
41
1
10
86.7435586025101
20
-10.7145979027783
30
0
41
1
10
86.7772217832363
20
-10.7099632064347
30
0
41
1
10
86.8277165543254
20
-10.6992224819802
30
0
41
1
10
86.8782113254147
20
-10.6767673472178
30
0
41
1
10
86.9792008675931
20
-10.6153895423608
30
0
41
1
10
87.0465272290454
20
-10.5524703971317
30
0
41
1
10
87.1811799519499
20
-10.3789957099683
30
0
41
1
10
87.2485063134021
20
-10.2684247667458
30
0
41
1
10
87.3831590363067
20
-9.99757117566145
30
0
41
1
10
87.4504853977589
20
-9.8372770151625
30
0
41
1
10
87.5851381206636
20
-9.46690931095949
30
0
41
1
10
87.6524644821158
20
-9.25683079015403
30
0
41
1
10
87.7871172050203
20
-8.78909150113921
30
0
41
1
10
87.8544435664726
20
-8.53143406934166
30
0
41
1
10
87.9890962893771
20
-7.97302921741777
30
0
41
1
10
88.0564226508294
20
-7.67229370156775
30
0
41
1
10
88.1910753737339
20
-7.03429073352723
30
0
41
1
10
88.2584017351863
20
-6.69704223209189
30
0
41
1
10
88.3930544580908
20
-5.99416670897358
30
0
41
1
10
88.460380819543
20
-5.62856269812534
30
0
41
1
10
88.5950335424476
20
-4.87808278387953
30
0
41
1
10
88.6623599038999
20
-4.49323028579204
30
0
41
1
10
88.7970126268044
20
-3.71360252590392
30
0
41
1
10
88.8643389882566
20
-3.31884767426416
30
0
41
1
10
88.9989917111611
20
-2.52833708314225
30
0
41
1
10
89.0663180726135
20
-2.13259640819456
30
0
41
1
10
89.2009707955179
20
-1.34806873164172
30
0
41
1
10
89.2682971569703
20
-0.959290475245666
30
0
41
1
10
89.3692866991487
20
-0.386309050278584
30
0
41
1
10
89.4029498798748
20
-0.197001760355477
30
0
41
1
10
89.470276241327
20
0.177551823501773
30
0
41
1
10
89.5039394220532
20
0.366592384172151
30
0
41
1
10
89.6049289642316
20
0.939222927066936
30
0
41
1
10
89.6722553256839
20
1.32781815598352
30
0
41
1
10
89.8069080485884
20
2.11210634252268
30
0
41
1
10
89.8742344100407
20
2.50779066492251
30
0
41
1
10
90.0088871329452
20
3.29833559607894
30
0
41
1
10
90.0762134943975
20
3.69318124546569
30
0
41
1
10
90.2108662173021
20
4.47315032898641
30
0
41
1
10
90.2781925787543
20
4.85825342927913
30
0
41
1
10
90.4128453016588
20
5.60939634397889
30
0
41
1
10
90.4801716631112
20
5.97541277820599
30
0
41
1
10
90.6148243860157
20
6.67926479404292
30
0
41
1
10
90.682150747468
20
7.01707732625062
30
0
41
1
10
90.8168034703725
20
7.6563378000458
30
0
41
1
10
90.8841298318247
20
7.95776669189598
30
0
41
1
10
91.0187825547293
20
8.51765557942971
30
0
41
1
10
91.0861089161815
20
8.77610353089906
30
0
41
1
10
91.220761639086
20
9.24548269663273
30
0
41
1
10
91.2880880005384
20
9.45641042324877
30
0
41
1
10
91.4227407234429
20
9.8284951328705
30
0
41
1
10
91.4900670848951
20
9.9896569605599
30
0
41
1
10
91.6247198077997
20
10.26222680643
30
0
41
1
10
91.692046169252
20
10.3736462452262
30
0
41
1
10
91.8266988921566
20
10.5487671800672
30
0
41
1
10
91.8940252536089
20
10.6124840342064
30
0
41
1
10
92.0286779765134
20
10.6958421756123
30
0
41
1
10
92.0960043379656
20
10.7155
30
0
41
1
10
92.1633306994179
20
10.7155
30
0
0
SPLINE
5
F2
100
AcDbEntity
8
1
62
256
6
ByLayer
370
13
48
1
60
0
100
AcDbSpline
70
4
71
3
72
56
73
52
40
0
40
0
40
0
40
0
40
0.0625000000000007
40
0.0625000000000007
40
0.125000000000001
40
0.125000000000001
40
0.187500000000002
40
0.187500000000002
40
0.218750000000002
40
0.218750000000002
40
0.250000000000003
40
0.250000000000003
40
0.281250000000003
40
0.281250000000003
40
0.312500000000003
40
0.312500000000003
40
0.343750000000003
40
0.343750000000003
40
0.375000000000004
40
0.375000000000004
40
0.437500000000004
40
0.437500000000004
40
0.500000000000005
40
0.500000000000005
40
0.531250000000005
40
0.531250000000005
40
0.546875000000005
40
0.546875000000005
40
0.562500000000005
40
0.562500000000005
40
0.625000000000005
40
0.625000000000005
40
0.687500000000004
40
0.687500000000004
40
0.718750000000004
40
0.718750000000004
40
0.750000000000004
40
0.750000000000004
40
0.781250000000003
40
0.781250000000003
40
0.812500000000003
40
0.812500000000003
40
0.843750000000003
40
0.843750000000003
40
0.875000000000002
40
0.875000000000002
40
0.906250000000002
40
0.906250000000002
40
0.937500000000001
40
0.937500000000001
40
1
40
1
40
1
40
1
41
1
10
91.6153962787224
20
10.7155
30
0
41
1
10
91.719239626139
20
10.7155
30
0
41
1
10
91.8230829735556
20
10.6685977064753
30
0
41
1
10
92.0307696683889
20
10.4646369755415
30
0
41
1
10
92.1346130158055
20
10.3074384421105
30
0
41
1
10
92.3422997106388
20
9.87405427875063
30
0
41
1
10
92.4461430580554
20
9.59777450717931
30
0
41
1
10
92.6019080791804
20
9.0961293320299
30
0
41
1
10
92.6538297528887
20
8.91447607488496
30
0
41
1
10
92.7576731003054
20
8.5238657890242
30
0
41
1
10
92.8095947740136
20
8.3149106638368
30
0
41
1
10
92.9134381214303
20
7.87205878331676
30
0
41
1
10
92.9653597951386
20
7.63816568996833
30
0
41
1
10
93.0692031425552
20
7.1485053839223
30
0
41
1
10
93.1211248162635
20
6.89274329011482
30
0
41
1
10
93.2249681636802
20
6.36298476759208
30
0
41
1
10
93.2768898373885
20
6.08899443101021
30
0
41
1
10
93.3807331848051
20
5.52682128177133
30
0
41
1
10
93.4326548585134
20
5.23864494581574
30
0
41
1
10
93.5884198796384
20
4.35920678865838
30
0
41
1
10
93.6922632270549
20
3.75313509364287
30
0
41
1
10
93.8999499218882
20
2.53492732926898
30
0
41
1
10
94.0037932693048
20
1.92293174281087
30
0
41
1
10
94.1595582904298
20
1.02209882001691
30
0
41
1
10
94.2114799641381
20
0.724629449548843
30
0
41
1
10
94.2893624747006
20
0.284791506765316
30
0
41
1
10
94.3153233115547
20
0.139291841701635
30
0
41
1
10
94.367244985263
20
-0.149510168530895
30
0
41
1
10
94.3932058221172
20
-0.29511940897325
30
0
41
1
10
94.5230100063879
20
-1.02843120563185
30
0
41
1
10
94.6268533538046
20
-1.63224449730757
30
0
41
1
10
94.8345400486379
20
-2.84917593362729
30
0
41
1
10
94.9383833960545
20
-3.46219419870107
30
0
41
1
10
95.0941484171794
20
-4.36482387703225
30
0
41
1
10
95.1460700908877
20
-4.66284125648332
30
0
41
1
10
95.2499134383042
20
-5.24889847774551
30
0
41
1
10
95.3018351120127
20
-5.53693205155534
30
0
41
1
10
95.4056784594293
20
-6.09877038488031
30
0
41
1
10
95.4576001331376
20
-6.37256866866528
30
0
41
1
10
95.5614434805542
20
-6.90189743260771
30
0
41
1
10
95.6133651542625
20
-7.15742182879697
30
0
41
1
10
95.7172085016791
20
-7.64656688989467
30
0
41
1
10
95.7691301753875
20
-7.88018245057236
30
0
41
1
10
95.8729735228042
20
-8.32244703774131
30
0
41
1
10
95.9248951965124
20
-8.53109242164749
30
0
41
1
10
96.028738543929
20
-8.92105991844016
30
0
41
1
10
96.0806602176374
20
-9.10238014945992
30
0
41
1
10
96.1845035650541
20
-9.43613050271946
30
0
41
1
10
96.2364252387623
20
-9.58856057937692
30
0
41
1
10
96.3921902598872
20
-10.0013937190421
30
0
41
1
10
96.4960336073039
20
-10.2169832439574
30
0
41
1
10
96.5998769547205
20
-10.3745698573502
30
0
0
SPLINE
5
F3
100
AcDbEntity
8
1
62
256
6
ByLayer
370
13
48
1
60
0
100
AcDbSpline
70
4
71
3
72
78
73
74
40
0
40
0
40
0
40
0
40
0.03125
40
0.03125
40
0.0625
40
0.0625
40
0.078125
40
0.078125
40
0.0859375
40
0.0859375
40
0.09375
40
0.09375
40
0.125
40
0.125
40
0.15625
40
0.15625
40
0.1875
40
0.1875
40
0.21875
40
0.21875
40
0.25
40
0.25
40
0.28125
40
0.28125
40
0.3125
40
0.3125
40
0.34375
40
0.34375
40
0.375
40
0.375
40
0.40625
40
0.40625
40
0.4375
40
0.4375
40
0.46875
40
0.46875
40
0.5
40
0.5
40
0.53125
40
0.53125
40
0.5390625
40
0.5390625
40
0.546875
40
0.546875
40
0.5625
40
0.5625
40
0.59375
40
0.59375
40
0.625
40
0.625
40
0.65625
40
0.65625
40
0.6875
40
0.6875
40
0.71875
40
0.71875
40
0.75
40
0.75
40
0.78125
40
0.78125
40
0.8125
40
0.8125
40
0.84375
40
0.84375
40
0.875
40
0.875
40
0.90625
40
0.90625
40
0.9375
40
0.9375
40
0.96875
40
0.96875
40
1
40
1
40
1
40
1
41
1
10
85.6999999999999
20
-10.2857284029646
30
0
41
1
10
85.7621914693223
20
-10.3923458440664
30
0
41
1
10
85.8243829386446
20
-10.4780276869369
30
0
41
1
10
85.9487658772891
20
-10.6096362003592
30
0
41
1
10
86.0109573466115
20
-10.6555736883098
30
0
41
1
10
86.1042445505949
20
-10.6970508171838
30
0
41
1
10
86.135340285256
20
-10.7063121537585
30
0
41
1
10
86.1819838872477
20
-10.7137077019323
30
0
41
1
10
86.1975317545784
20
-10.715090457715
30
0
41
1
10
86.2286274892396
20
-10.7157528276009
30
0
41
1
10
86.2441753565701
20
-10.7150394942577
30
0
41
1
10
86.3219146932229
20
-10.7061154811481
30
0
41
1
10
86.3841061625452
20
-10.6817856310166
30
0
41
1
10
86.5084891011899
20
-10.5951292008032
30
0
41
1
10
86.5706805705121
20
-10.5327914923268
30
0
41
1
10
86.6950635091567
20
-10.367336212665
30
0
41
1
10
86.7572549784791
20
-10.2642083717516
30
0
41
1
10
86.8816379171237
20
-10.0155698898868
30
0
41
1
10
86.9438293864459
20
-9.87005143293041
30
0
41
1
10
87.0682123250905
20
-9.53648659796292
30
0
41
1
10
87.1304037944129
20
-9.34843638999601
30
0
41
1
10
87.2547867330574
20
-8.9313011721155
30
0
41
1
10
87.3169782023796
20
-8.70221741117263
30
0
41
1
10
87.4413611410242
20
-8.20618880603675
30
0
41
1
10
87.5035526103466
20
-7.93925060627441
30
0
41
1
10
87.6279355489912
20
-7.3722493917721
30
0
41
1
10
87.6901270183135
20
-7.07219778866326
30
0
41
1
10
87.8145099569581
20
-6.44499436740037
30
0
41
1
10
87.8767014262803
20
-6.11785723871199
30
0
41
1
10
88.001084364925
20
-5.4433976618439
30
0
41
1
10
88.0632758342473
20
-5.09609115678904
30
0
41
1
10
88.1876587728918
20
-4.38863033283033
30
0
41
1
10
88.2498502422142
20
-4.02849111428449
30
0
41
1
10
88.3742331808588
20
-3.30265130895304
30
0
41
1
10
88.4364246501812
20
-2.93696325434996
30
0
41
1
10
88.5608075888257
20
-2.20684046636194
30
0
41
1
10
88.6229990581479
20
-1.84241463298667
30
0
41
1
10
88.7473819967926
20
-1.12083428145047
30
0
41
1
10
88.8095734661149
20
-0.763684707266634
30
0
41
1
10
88.8873128027677
20
-0.324925462292185
30
0
41
1
10
88.9028606700983
20
-0.237554890176852
30
0
41
1
10
88.9339564047595
20
-0.0636439066813068
30
0
41
1
10
88.9495042720901
20
0.022627608259711
30
0
41
1
10
88.9961478740818
20
0.283098678391411
30
0
41
1
10
89.0272436087428
20
0.458429082556194
30
0
41
1
10
89.1205308127263
20
0.988640490354214
30
0
41
1
10
89.1827222820486
20
1.34777408689732
30
0
41
1
10
89.3071052206932
20
2.07213546949916
30
0
41
1
10
89.3692966900155
20
2.43735748592448
30
0
41
1
10
89.4936796286602
20
3.1676965286965
30
0
41
1
10
89.5558710979824
20
3.53280383917388
30
0
41
1
10
89.680254036627
20
4.25597571873655
30
0
41
1
10
89.7424455059493
20
4.61402710172649
30
0
41
1
10
89.8668284445939
20
5.31575692263374
30
0
41
1
10
89.9290199139162
20
5.65941992124925
30
0
41
1
10
90.0534028525608
20
6.32508515879704
30
0
41
1
10
90.1155943218831
20
6.6470715394758
30
0
41
1
10
90.2399772605277
20
7.26261521265997
30
0
41
1
10
90.30216872985
20
7.55615834902446
30
0
41
1
10
90.4265516684947
20
8.10902524793647
30
0
41
1
10
90.4887431378169
20
8.36833850412788
30
0
41
1
10
90.6131260764615
20
8.84831053226708
30
0
41
1
10
90.6753175457837
20
9.06896377573349
30
0
41
1
10
90.7997004844284
20
9.46878077327455
30
0
41
1
10
90.8618919537506
20
9.64794440402312
30
0
41
1
10
90.9862748923953
20
9.96363279832619
30
0
41
1
10
91.0484663617175
20
10.100162342335
30
0
41
1
10
91.172849300362
20
10.3310461842448
30
0
41
1
10
91.2350407696844
20
10.425408949648
30
0
41
1
10
91.359423708329
20
10.5738318686651
30
0
41
1
10
91.4216151776513
20
10.6279026010423
30
0
41
1
10
91.5459981162959
20
10.6987311045239
30
0
41
1
10
91.6081895856182
20
10.7155
30
0
41
1
10
91.6703810549405
20
10.7155
30
0
0
SPLINE
5
F4
100
AcDbEntity
8
1
62
256
6
ByLayer
370
13
48
1
60
0
100
AcDbSpline
70
4
71
3
72
78
73
74
40
0
40
0
40
0
40
0
40
0.0312500000000009
40
0.0312500000000009
40
0.0625000000000018
40
0.0625000000000018
40
0.0937500000000028
40
0.0937500000000028
40
0.125000000000004
40
0.125000000000004
40
0.156250000000005
40
0.156250000000005
40
0.187500000000006
40
0.187500000000006
40
0.218750000000007
40
0.218750000000007
40
0.250000000000008
40
0.250000000000008
40
0.281250000000009
40
0.281250000000009
40
0.31250000000001
40
0.31250000000001
40
0.343750000000011
40
0.343750000000011
40
0.375000000000012
40
0.375000000000012
40
0.406250000000012
40
0.406250000000012
40
0.437500000000013
40
0.437500000000013
40
0.468750000000014
40
0.468750000000014
40
0.484375000000015
40
0.484375000000015
40
0.492187500000014
40
0.492187500000014
40
0.500000000000014
40
0.500000000000014
40
0.531250000000013
40
0.531250000000013
40
0.562500000000013
40
0.562500000000013
40
0.593750000000012
40
0.593750000000012
40
0.625000000000011
40
0.625000000000011
40
0.65625000000001
40
0.65625000000001
40
0.687500000000009
40
0.687500000000009
40
0.718750000000008
40
0.718750000000008
40
0.750000000000007
40
0.750000000000007
40
0.781250000000006
40
0.781250000000006
40
0.812500000000005
40
0.812500000000005
40
0.843750000000005
40
0.843750000000005
40
0.875000000000004
40
0.875000000000004
40
0.906250000000003
40
0.906250000000003
40
0.937500000000002
40
0.937500000000002
40
0.968750000000001
40
0.968750000000001
40
0.984375000000001
40
0.984375000000001
40
0.9921875
40
0.9921875
40
1
40
1
40
1
40
1
41
1
10
91.122446634245
20
10.7155
30
0
41
1
10
91.1795032000833
20
10.7155
30
0
41
1
10
91.2365597659217
20
10.7013894412271
30
0
41
1
10
91.3506728975981
20
10.642028741214
30
0
41
1
10
91.4077294634365
20
10.5967713749187
30
0
41
1
10
91.521842595113
20
10.4727203374843
30
0
41
1
10
91.5788991609513
20
10.3939196576759
30
0
41
1
10
91.6930122926279
20
10.2011369047249
30
0
41
1
10
91.7500688584661
20
10.0871488813078
30
0
41
1
10
91.8641819901427
20
9.82329577039556
30
0
41
1
10
91.9212385559811
20
9.67342667344377
30
0
41
1
10
92.0353516876576
20
9.33821796978265
30
0
41
1
10
92.0924082534959
20
9.15287705266513
30
0
41
1
10
92.2065213851725
20
8.74831603621695
30
0
41
1
10
92.2635779510108
20
8.52909778495049
30
0
41
1
10
92.3776910826874
20
8.05955155887941
30
0
41
1
10
92.4347476485256
20
7.80922861687682
30
0
41
1
10
92.5488607802022
20
7.28131702383237
30
0
41
1
10
92.6059173460405
20
7.00373613663754
30
0
41
1
10
92.720030477717
20
6.42603304752186
30
0
41
1
10
92.7770870435553
20
6.12592047152231
30
0
41
1
10
92.8912001752318
20
5.50849420319614
30
0
41
1
10
92.9482567410702
20
5.19119087839414
30
0
41
1
10
93.0623698727467
20
4.54503469684485
30
0
41
1
10
93.119426438585
20
4.216191794031
30
0
41
1
10
93.2335395702617
20
3.55261016690062
30
0
41
1
10
93.2905961360999
20
3.21788000087528
30
0
41
1
10
93.4047092677764
20
2.54789841254578
30
0
41
1
10
93.4617658336148
20
2.21265348936711
30
0
41
1
10
93.5758789652914
20
1.54650969645596
30
0
41
1
10
93.6329355311296
20
1.2156149775667
30
0
41
1
10
93.7185203798871
20
0.725682083197853
30
0
41
1
10
93.7470486628062
20
0.563433725082547
30
0
41
1
10
93.7898410871849
20
0.321995603421243
30
0
41
1
10
93.8041052286445
20
0.241838257226703
30
0
41
1
10
93.8326335115637
20
0.0822198341291767
30
0
41
1
10
93.8468976530232
20
0.0030016507728305
30
0
41
1
10
93.9182183603211
20
-0.394784008159888
30
0
41
1
10
93.9752749261593
20
-0.71875634842587
30
0
41
1
10
94.0893880578358
20
-1.37462608386184
30
0
41
1
10
94.1464446236742
20
-1.70652126814082
30
0
41
1
10
94.2605577553508
20
-2.37392669464268
30
0
41
1
10
94.317614321189
20
-2.70943240446459
30
0
41
1
10
94.4317274528656
20
-3.37910207669171
30
0
41
1
10
94.488784018704
20
-3.71325917995219
30
0
41
1
10
94.6028971503805
20
-4.37479919965873
30
0
41
1
10
94.6599537162188
20
-4.70217327946762
30
0
41
1
10
94.7740668478954
20
-5.34447635453844
30
0
41
1
10
94.8311234137336
20
-5.65939525655719
30
0
41
1
10
94.9452365454101
20
-6.27116573274469
30
0
41
1
10
95.0022931112485
20
-6.56800697884338
30
0
41
1
10
95.116406242925
20
-7.13835909622691
30
0
41
1
10
95.1734628087634
20
-7.4118605692193
30
0
41
1
10
95.28757594044
20
-7.93092977373712
30
0
41
1
10
95.3446325062782
20
-8.17649013077468
30
0
41
1
10
95.4587456379547
20
-8.63598910332786
30
0
41
1
10
95.515802203793
20
-8.84992317929618
30
0
41
1
10
95.6299153354697
20
-9.24357847305811
30
0
41
1
10
95.6869719013079
20
-9.42329836425071
30
0
41
1
10
95.8010850329845
20
-9.74712006586245
30
0
41
1
10
95.8581415988228
20
-9.89122366089958
30
0
41
1
10
95.9722547304993
20
-10.1435857296049
30
0
41
1
10
96.0293112963377
20
-10.2518485809536
30
0
41
1
10
96.1434244280142
20
-10.4333855095733
30
0
41
1
10
96.2004809938526
20
-10.5066657673384
30
0
41
1
10
96.3145941255291
20
-10.6200156107797
30
0
41
1
10
96.3716506913673
20
-10.6600922936105
30
0
41
1
10
96.4572355401248
20
-10.6971722300522
30
0
41
1
10
96.485763823044
20
-10.705697960921
30
0
41
1
10
96.5285562474227
20
-10.7130054973825
30
0
41
1
10
96.5428203888823
20
-10.7145280563418
30
0
41
1
10
96.5713486718014
20
-10.7157940557906
30
0
41
1
10
96.585612813261
20
-10.7155446760768
30
0
41
1
10
96.5998769547205
20
-10.7144029026691
30
0
0
SPLINE
5
F5
100
AcDbEntity
8
1
62
256
6
ByLayer
370
13
48
1
60
0
100
AcDbSpline
70
4
71
3
72
76
73
72
40
0
40
0
40
0
40
0
40
0.0078124999999999
40
0.0078124999999999
40
0.0156249999999997
40
0.0312499999999995
40
0.0312499999999995
40
0.0624999999999994
40
0.0624999999999994
40
0.0937499999999994
40
0.0937499999999994
40
0.124999999999999
40
0.124999999999999
40
0.156249999999999
40
0.156249999999999
40
0.187499999999999
40
0.187499999999999
40
0.218749999999999
40
0.218749999999999
40
0.249999999999999
40
0.249999999999999
40
0.281249999999999
40
0.281249999999999
40
0.312499999999999
40
0.312499999999999
40
0.343749999999999
40
0.343749999999999
40
0.374999999999999
40
0.374999999999999
40
0.406249999999999
40
0.406249999999999
40
0.437499999999999
40
0.437499999999999
40
0.468749999999999
40
0.468749999999999
40
0.499999999999999
40
0.499999999999999
40
0.507812499999999
40
0.507812499999999
40
0.515624999999999
40
0.531249999999999
40
0.531249999999999
40
0.562499999999999
40
0.562499999999999
40
0.593749999999999
40
0.593749999999999
40
0.624999999999999
40
0.624999999999999
40
0.65625
40
0.65625
40
0.6875
40
0.6875
40
0.71875
40
0.71875
40
0.75
40
0.75
40
0.78125
40
0.78125
40
0.8125
40
0.8125
40
0.84375
40
0.84375
40
0.875
40
0.875
40
0.90625
40
0.90625
40
0.9375
40
0.9375
40
0.96875
40
0.96875
40
1
40
1
40
1
40
1
41
1
10
85.6999999999999
20
-10.7144028154193
30
0
41
1
10
85.714264144298
20
-10.7155446347161
30
0
41
1
10
85.7285282885962
20
-10.7157940589475
30
0
41
1
10
85.7570565771923
20
-10.7145281491664
30
0
41
1
10
85.7998490100866
20
-10.7099610544445
30
0
41
1
10
85.8426414429808
20
-10.6971725954109
30
0
41
1
10
85.9282263087692
20
-10.6600929353384
30
0
41
1
10
85.9852828859615
20
-10.6200164392195
30
0
41
1
10
86.0993960403462
20
-10.5066669689518
30
0
41
1
10
86.1564526175385
20
-10.4333868976386
30
0
41
1
10
86.2705657719231
20
-10.2518503357733
30
0
41
1
10
86.3276223491156
20
-10.1435876647132
30
0
41
1
10
86.4417355035001
20
-9.89122594419123
30
0
41
1
10
86.4987920806925
20
-9.7471225170321
30
0
41
1
10
86.6129052350772
20
-9.4233011326597
30
0
41
1
10
86.6699618122694
20
-9.24358139081099
30
0
41
1
10
86.7840749666541
20
-8.84992637174059
30
0
41
1
10
86.8411315438465
20
-8.63599242110445
30
0
41
1
10
86.9552446982311
20
-8.17649367088612
30
0
41
1
10
87.0123012754235
20
-7.93093341084031
30
0
41
1
10
87.1264144298081
20
-7.41186436919486
30
0
41
1
10
87.1834710070003
20
-7.13836296207848
30
0
41
1
10
87.297584161385
20
-6.56801094434476
30
0
41
1
10
87.3546407385774
20
-6.27116973202226
30
0
41
1
10
87.468753892962
20
-5.65939929211763
30
0
41
1
10
87.5258104701544
20
-5.34448039261434
30
0
41
1
10
87.639923624539
20
-4.70217729378996
30
0
41
1
10
87.6969802017313
20
-4.37480318772538
30
0
41
1
10
87.811093356116
20
-3.71326309052128
30
0
41
1
10
87.8681499333084
20
-3.37910593603439
30
0
41
1
10
87.982263087693
20
-2.70943614103902
30
0
41
1
10
88.0393196648852
20
-2.37393035969043
30
0
41
1
10
88.1534328192699
20
-1.70652477489412
30
0
41
1
10
88.2104893964623
20
-1.37462950386038
30
0
41
1
10
88.3246025508469
20
-0.718759584721624
30
0
41
1
10
88.3816591280391
20
-0.394787147517292
30
0
41
1
10
88.4529798495296
20
0.0029986360363523
30
0
41
1
10
88.4672439938278
20
0.0822168253268103
30
0
41
1
10
88.4957722824239
20
0.241835262736231
30
0
41
1
10
88.5385647153182
20
0.482306574370597
30
0
41
1
10
88.5813571482124
20
0.725679138519979
30
0
41
1
10
88.6669420140008
20
1.21561209239323
30
0
41
1
10
88.7239985911932
20
1.54650685838064
30
0
41
1
10
88.8381117455778
20
2.21265075991974
30
0
41
1
10
88.8951683227701
20
2.54789574463069
30
0
41
1
10
89.0092814771548
20
3.21787746916317
30
0
41
1
10
89.0663380543471
20
3.55260770985862
30
0
41
1
10
89.1804512087317
20
4.21618949726548
30
0
41
1
10
89.237507785924
20
4.54503248568148
30
0
41
1
10
89.3516209403087
20
5.19118884633124
30
0
41
1
10
89.4086775175011
20
5.50849226462373
30
0
41
1
10
89.5227906718857
20
6.12591872413051
30
0
41
1
10
89.5798472490781
20
6.42603139780954
30
0
41
1
10
89.6939604034627
20
7.00373468241057
30
0
41
1
10
89.751016980655
20
7.28131566739935
30
0
41
1
10
89.8651301350396
20
7.80922745205231
30
0
41
1
10
89.9221867122319
20
8.05955048785802
30
0
41
1
10
90.0362998666167
20
8.52909689377572
30
0
41
1
10
90.0933564438089
20
8.74831523107645
30
0
41
1
10
90.2074695981936
20
9.15287640869576
30
0
41
1
10
90.2645261753859
20
9.33821740094436
30
0
41
1
10
90.3786393297705
20
9.67342624170323
30
0
41
1
10
90.4356959069628
20
9.82329540062
30
0
41
1
10
90.5498090613476
20
10.0871486210142
30
0
41
1
10
90.6068656385399
20
10.2011366919503
30
0
41
1
10
90.7209787929245
20
10.3939195251832
30
0
41
1
10
90.7780353701169
20
10.4727202377593
30
0
41
1
10
90.8921485245015
20
10.5967713265296
30
0
41
1
10
90.9492051016939
20
10.6420287113997
30
0
41
1
10
91.0633182560786
20
10.7013894356038
30
0
41
1
10
91.1203748332708
20
10.7155
30
0
41
1
10
91.1774314104631
20
10.7155
30
0
0
SPLINE
5
F6
100
AcDbEntity
8
1
62
256
6
ByLayer
370
13
48
1
60
0
100
AcDbSpline
70
4
71
3
72
77
73
73
40
0
40
0
40
0
40
0
40
0.0312500000000003
40
0.0312500000000003
40
0.0625000000000006
40
0.0625000000000006
40
0.0937500000000009
40
0.0937500000000009
40
0.125000000000001
40
0.125000000000001
40
0.156250000000001
40
0.156250000000001
40
0.187500000000002
40
0.187500000000002
40
0.218750000000002
40
0.218750000000002
40
0.250000000000002
40
0.250000000000002
40
0.281250000000003
40
0.281250000000003
40
0.312500000000003
40
0.312500000000003
40
0.343750000000003
40
0.343750000000003
40
0.375000000000003
40
0.375000000000003
40
0.406250000000004
40
0.406250000000004
40
0.437500000000004
40
0.437500000000004
40
0.453125000000004
40
0.453125000000004
40
0.460937500000004
40
0.460937500000004
40
0.468750000000004
40
0.468750000000004
40
0.500000000000004
40
0.500000000000004
40
0.531250000000003
40
0.531250000000003
40
0.562500000000003
40
0.562500000000003
40
0.593750000000003
40
0.593750000000003
40
0.625000000000003
40
0.625000000000003
40
0.656250000000003
40
0.656250000000003
40
0.687500000000002
40
0.687500000000002
40
0.718750000000002
40
0.718750000000002
40
0.750000000000002
40
0.750000000000002
40
0.781250000000002
40
0.781250000000002
40
0.812500000000001
40
0.812500000000001
40
0.843750000000001
40
0.843750000000001
40
0.875000000000001
40
0.875000000000001
40
0.906250000000001
40
0.906250000000001
40
0.914062500000001
40
0.914062500000001
40
0.921875000000001
40
0.9375
40
0.9375
40
0.96875
40
0.96875
40
1
40
1
40
1
40
1
41
1
10
90.6294969897677
20
10.7155
30
0
41
1
10
90.691688447736
20
10.7155
30
0
41
1
10
90.7538799057042
20
10.6987311106566
30
0
41
1
10
90.8782628216406
20
10.6279026337021
30
0
41
1
10
90.940454279609
20
10.5738319217294
30
0
41
1
10
91.0648371955455
20
10.4254090591654
30
0
41
1
10
91.1270286535138
20
10.33104632982
30
0
41
1
10
91.2514115694502
20
10.1001625761233
30
0
41
1
10
91.3136030274185
20
9.9636330842759
30
0
41
1
10
91.437985943355
20
9.64794480968038
30
0
41
1
10
91.5001774013233
20
9.46878124647907
30
0
41
1
10
91.6245603172599
20
9.06896439742283
30
0
41
1
10
91.6867517752281
20
8.84831123488894
30
0
41
1
10
91.8111346911645
20
8.36833937878288
30
0
41
1
10
91.8733261491328
20
8.10902621368115
30
0
41
1
10
91.9977090650693
20
7.5561595029065
30
0
41
1
10
92.0599005230375
20
7.26261646357446
30
0
41
1
10
92.1842834389741
20
6.64707298561521
30
0
41
1
10
92.2464748969425
20
6.32508670311202
30
0
41
1
10
92.370857812879
20
5.65942165818305
30
0
41
1
10
92.4330492708472
20
5.31575875399528
30
0
41
1
10
92.5574321867837
20
4.61402911372181
30
0
41
1
10
92.619623644752
20
4.25597781692642
30
0
41
1
10
92.7440065606885
20
3.53280609785804
30
0
41
1
10
92.8061980186567
20
3.16769886167441
30
0
41
1
10
92.9305809345933
20
2.4373599530054
30
0
41
1
10
92.9927723925614
20
2.07213799638885
30
0
41
1
10
93.117155308498
20
1.34777671751013
30
0
41
1
10
93.1793467664663
20
0.988643164885502
30
0
41
1
10
93.2726339534186
20
0.458431810827534
30
0
41
1
10
93.3037296824028
20
0.283101422561487
30
0
41
1
10
93.3503732758791
20
0.0226303732965221
30
0
41
1
10
93.365921140371
20
-0.0636411216013926
30
0
41
1
10
93.3970168693552
20
-0.237552055470502
30
0
41
1
10
93.4125647338471
20
-0.324922602973516
30
0
41
1
10
93.4903040563075
20
-0.763681726100231
30
0
41
1
10
93.5524955142757
20
-1.12083120666884
30
0
41
1
10
93.6768784302124
20
-1.84241138444386
30
0
41
1
10
93.7390698881807
20
-2.20683713768909
30
0
41
1
10
93.8634528041172
20
-2.93695978495302
30
0
41
1
10
93.9256442620854
20
-3.30264777898225
30
0
41
1
10
94.0500271780219
20
-4.02848748852284
30
0
41
1
10
94.1122186359901
20
-4.38862667187368
30
0
41
1
10
94.2366015519266
20
-5.09608745572862
30
0
41
1
10
94.2987930098949
20
-5.44339395589463
30
0
41
1
10
94.4231759258314
20
-6.11785355666333
30
0
41
1
10
94.4853673837997
20
-6.44499071415504
30
0
41
1
10
94.6097502997362
20
-7.07219422803411
30
0
41
1
10
94.6719417577045
20
-7.37224589496032
30
0
41
1
10
94.796324673641
20
-7.93924727109075
30
0
41
1
10
94.8585161316092
20
-8.20618556865759
30
0
41
1
10
94.9828990475457
20
-8.70221440005582
30
0
41
1
10
95.0450905055141
20
-8.93129828944063
30
0
41
1
10
95.1694734214506
20
-9.34843378953408
30
0
41
1
10
95.2316648794189
20
-9.53648415124957
30
0
41
1
10
95.3560477953553
20
-9.87004931232505
30
0
41
1
10
95.4182392533236
20
-10.0155679416163
30
0
41
1
10
95.54262216926
20
-10.2642067793733
30
0
41
1
10
95.6048136272283
20
-10.3673348038217
30
0
41
1
10
95.7291965431649
20
-10.532790454442
30
0
41
1
10
95.7913880011332
20
-10.5951283503245
30
0
41
1
10
95.9157709170697
20
-10.6817851525699
30
0
41
1
10
95.9779623750379
20
-10.7061151873166
30
0
41
1
10
96.0557016974983
20
-10.7150394259716
30
0
41
1
10
96.0712495619903
20
-10.7157528038415
30
0
41
1
10
96.1023452909744
20
-10.7150905239166
30
0
41
1
10
96.1489888844507
20
-10.7109430263476
30
0
41
1
10
96.1956324779268
20
-10.6970511690376
30
0
41
1
10
96.2889196648792
20
-10.6555743476125
30
0
41
1
10
96.3511111228474
20
-10.6096370811673
30
0
41
1
10
96.475494038784
20
-10.4780290406565
30
0
41
1
10
96.5376854967522
20
-10.3923474491966
30
0
41
1
10
96.5998769547205
20
-10.285730271574
30
0
0
SPLINE
5
F7
100
AcDbEntity
8
1
62
256
6
ByLayer
370
13
48
1
60
0
100
AcDbSpline
70
4
71
3
72
56
73
52
40
0
40
0
40
0
40
0
40
0.0624999999999996
40
0.0624999999999996
40
0.0937499999999994
40
0.0937499999999994
40
0.124999999999999
40
0.124999999999999
40
0.156249999999999
40
0.156249999999999
40
0.187499999999999
40
0.187499999999999
40
0.218749999999999
40
0.218749999999999
40
0.249999999999999
40
0.249999999999999
40
0.281249999999999
40
0.281249999999999
40
0.312499999999998
40
0.312499999999998
40
0.374999999999998
40
0.374999999999998
40
0.437499999999998
40
0.437499999999998
40
0.453124999999998
40
0.453124999999998
40
0.468749999999998
40
0.468749999999998
40
0.499999999999998
40
0.499999999999998
40
0.562499999999998
40
0.562499999999998
40
0.624999999999998
40
0.624999999999998
40
0.656249999999999
40
0.656249999999999
40
0.687499999999999
40
0.687499999999999
40
0.718749999999999
40
0.718749999999999
40
0.749999999999999
40
0.749999999999999
40
0.781249999999999
40
0.781249999999999
40
0.812499999999999
40
0.812499999999999
40
0.874999999999999
40
0.874999999999999
40
0.9375
40
0.9375
40
1
40
1
40
1
40
1
41
1
10
85.6999999999999
20
-10.3745715114499
30
0
41
1
10
85.8038433701246
20
-10.2169852662108
30
0
41
1
10
85.9076867402493
20
-10.0013960995451
30
0
41
1
10
86.0634517954363
20
-9.5885634515792
30
0
41
1
10
86.1153734804987
20
-9.43613353120193
30
0
41
1
10
86.2192168506235
20
-9.10238347051981
30
0
41
1
10
86.2711385356859
20
-8.92106337578596
30
0
41
1
10
86.3749819058106
20
-8.5310961275365
30
0
41
1
10
86.4269035908729
20
-8.32245085587843
30
0
41
1
10
86.5307469609976
20
-7.88018646616737
30
0
41
1
10
86.5826686460599
20
-7.6465709906937
30
0
41
1
10
86.6865120161847
20
-7.1574260712207
30
0
41
1
10
86.738433701247
20
-6.90190173145061
30
0
41
1
10
86.8422770713717
20
-6.37257305119408
30
0
41
1
10
86.894198756434
20
-6.09877479467869
30
0
41
1
10
86.9980421265587
20
-5.53693648772736
30
0
41
1
10
87.0499638116211
20
-5.24890291302816
30
0
41
1
10
87.1538071817458
20
-4.66284566401993
30
0
41
1
10
87.2057288668082
20
-4.36482825772146
30
0
41
1
10
87.3614939219952
20
-3.46219846464618
30
0
41
1
10
87.46533729212
20
-2.84918007733455
30
0
41
1
10
87.6730240323694
20
-1.63224833702159
30
0
41
1
10
87.776867402494
20
-1.02843486388534
30
0
41
1
10
87.9066716151499
20
-0.295122824073275
30
0
41
1
10
87.9326324576811
20
-0.149513534174531
30
0
41
1
10
87.9845541427434
20
0.139288576159174
30
0
41
1
10
88.0105149852747
20
0.284788220208981
30
0
41
1
10
88.0883975128681
20
0.724626212085298
30
0
41
1
10
88.1403191979306
20
1.02209562200173
30
0
41
1
10
88.2960842531176
20
1.92292868328352
30
0
41
1
10
88.3999276232422
20
2.53492438927032
30
0
41
1
10
88.6076143634916
20
3.75313243938555
30
0
41
1
10
88.7114577336163
20
4.35920430057959
30
0
41
1
10
88.8672227888034
20
5.23864272823423
30
0
41
1
10
88.9191444738658
20
5.52681915781298
30
0
41
1
10
89.0229878439905
20
6.08899249814857
30
0
41
1
10
89.0749095290529
20
6.36298293219673
30
0
41
1
10
89.1787528991775
20
6.8927416501412
30
0
41
1
10
89.2306745842399
20
7.14850384189594
30
0
41
1
10
89.3345179543645
20
7.63816434091288
30
0
41
1
10
89.386439639427
20
7.87205752927696
30
0
41
1
10
89.4902830095517
20
8.31490959368753
30
0
41
1
10
89.542204694614
20
8.52386480774297
30
0
41
1
10
89.6460480647386
20
8.91447526240472
30
0
41
1
10
89.6979697498011
20
9.09612859947779
30
0
41
1
10
89.8537348049882
20
9.59777399772108
30
0
41
1
10
89.9575781751129
20
9.87405389538588
30
0
41
1
10
90.1652649153623
20
10.3074382568502
30
0
41
1
10
90.2691082854869
20
10.4646368623614
30
0
41
1
10
90.4767950257363
20
10.6685976858513
30
0
41
1
10
90.5806383958611
20
10.7155
30
0
41
1
10
90.6844817659858
20
10.7155
30
0
0
SPLINE
5
F8
100
AcDbEntity
8
1
62
256
6
ByLayer
370
13
48
1
60
0
100
AcDbSpline
70
4
71
3
72
76
73
72
40
0
40
0
40
0
40
0
40
0.0312499999999996
40
0.0312499999999996
40
0.0624999999999992
40
0.0624999999999992
40
0.0937499999999988
40
0.0937499999999988
40
0.124999999999998
40
0.124999999999998
40
0.156249999999998
40
0.156249999999998
40
0.187499999999998
40
0.187499999999998
40
0.218749999999997
40
0.218749999999997
40
0.249999999999997
40
0.249999999999997
40
0.281249999999996
40
0.281249999999996
40
0.312499999999996
40
0.312499999999996
40
0.343749999999996
40
0.343749999999996
40
0.374999999999995
40
0.374999999999995
40
0.406249999999995
40
0.406249999999995
40
0.421874999999995
40
0.421874999999995
40
0.437499999999995
40
0.437499999999995
40
0.468749999999995
40
0.468749999999995
40
0.499999999999995
40
0.499999999999995
40
0.531249999999996
40
0.531249999999996
40
0.562499999999996
40
0.562499999999996
40
0.593749999999996
40
0.593749999999996
40
0.624999999999997
40
0.624999999999997
40
0.656249999999997
40
0.656249999999997
40
0.687499999999997
40
0.687499999999997
40
0.718749999999998
40
0.718749999999998
40
0.749999999999998
40
0.749999999999998
40
0.781249999999998
40
0.781249999999998
40
0.812499999999998
40
0.812499999999998
40
0.828124999999998
40
0.828124999999998
40
0.835937499999998
40
0.835937499999998
40
0.843749999999998
40
0.843749999999998
40
0.874999999999999
40
0.874999999999999
40
0.906249999999999
40
0.906249999999999
40
0.937499999999999
40
0.937499999999999
40
0.96875
40
0.96875
40
1
40
1
40
1
40
1
41
1
10
90.1365473452903
20
10.7155
30
0
41
1
10
90.2038736953885
20
10.7155
30
0
41
1
10
90.2712000454868
20
10.6958421822554
30
0
41
1
10
90.4058527456832
20
10.6124840697362
30
0
41
1
10
90.4731790957814
20
10.5487672378545
30
0
41
1
10
90.6078317959779
20
10.3736463646351
30
0
41
1
10
90.6751581460761
20
10.2622269652151
30
0
41
1
10
90.8098108462726
20
9.98965721547481
30
0
41
1
10
90.8771371963709
20
9.82849544454598
30
0
41
1
10
91.0117898965674
20
9.4564108645616
30
0
41
1
10
91.0791162466655
20
9.24548321082119
30
0
41
1
10
91.213768946862
20
8.77610420406467
30
0
41
1
10
91.2810952969602
20
8.51765633868658
30
0
41
1
10
91.4157479971566
20
7.95776763221102
30
0
41
1
10
91.4830743472548
20
7.65633883530947
30
0
41
1
10
91.6177270474514
20
7.0170785549135
30
0
41
1
10
91.6850533975496
20
6.67926612113365
30
0
41
1
10
91.8197060977461
20
5.97541429988794
30
0
41
1
10
91.8870324478443
20
5.6093979618019
30
0
41
1
10
92.0216851480408
20
4.85825523165636
30
0
41
1
10
92.089011498139
20
4.47315221975938
30
0
41
1
10
92.2236641983355
20
3.69318330075421
30
0
41
1
10
92.2909905484337
20
3.29833772747767
30
0
41
1
10
92.4256432486301
20
2.50779293304802
30
0
41
1
10
92.4929695987283
20
2.11210867126351
30
0
41
1
10
92.627622298925
20
1.3278205887384
30
0
41
1
10
92.694948649023
20
0.939225403226146
30
0
41
1
10
92.7959381741704
20
0.36659491230094
30
0
41
1
10
92.8296013492196
20
0.17755433166198
30
0
41
1
10
92.8969276993179
20
-0.196999152119474
30
0
41
1
10
92.9305908743669
20
-0.3863063927773
30
0
41
1
10
93.0315803995143
20
-0.959287673444862
30
0
41
1
10
93.0989067496125
20
-1.348065838287
30
0
41
1
10
93.2335594498089
20
-2.13259334786244
30
0
41
1
10
93.3008857999071
20
-2.52833394741009
30
0
41
1
10
93.4355385001036
20
-3.31884441096634
30
0
41
1
10
93.5028648502018
20
-3.71359921046948
30
0
41
1
10
93.6375175503982
20
-4.49322689585716
30
0
41
1
10
93.7048439004965
20
-4.87807937161063
30
0
41
1
10
93.8394966006931
20
-5.62855927603061
30
0
41
1
10
93.9068229507913
20
-5.9941632994111
30
0
41
1
10
94.0414756509877
20
-6.69703888520471
30
0
41
1
10
94.108802001086
20
-7.03428743679521
30
0
41
1
10
94.2434547012824
20
-7.67229054266062
30
0
41
1
10
94.3107810513806
20
-7.97302614617689
30
0
41
1
10
94.4454337515771
20
-8.53143120784597
30
0
41
1
10
94.5127601016753
20
-8.78908876170382
30
0
41
1
10
94.6474128018718
20
-9.25682832348153
30
0
41
1
10
94.71473915197
20
-9.46690699496
30
0
41
1
10
94.8493918521665
20
-9.83727502145604
30
0
41
1
10
94.9167182022647
20
-9.99756935354122
30
0
41
1
10
95.0513709024613
20
-10.2684233001027
30
0
41
1
10
95.1186972525594
20
-10.3789944271849
30
0
41
1
10
95.2533499527559
20
-10.5524694857814
30
0
41
1
10
95.3206763028542
20
-10.6153888185606
30
0
41
1
10
95.4216658280014
20
-10.6767669017487
30
0
41
1
10
95.4553290030505
20
-10.6917370838774
30
0
41
1
10
95.5058237656242
20
-10.706382421288
30
0
41
1
10
95.5226553531488
20
-10.7099630357927
30
0
41
1
10
95.5563185281979
20
-10.7145978225231
30
0
41
1
10
95.5731501157225
20
-10.7156523666769
30
0
41
1
10
95.6573080533453
20
-10.7148022865876
30
0
41
1
10
95.7246344034435
20
-10.6944198600746
30
0
41
1
10
95.8592871036399
20
-10.6095385366817
30
0
41
1
10
95.9266134537382
20
-10.5450231017367
30
0
41
1
10
96.0612661539347
20
-10.3682546874383
30
0
41
1
10
96.1285925040329
20
-10.2559863940271
30
0
41
1
10
96.2632452042294
20
-9.98170020504756
30
0
41
1
10
96.3305715543275
20
-9.8196709816786
30
0
41
1
10
96.4652242545241
20
-9.44587050608197
30
0
41
1
10
96.5325506046223
20
-9.23409454209568
30
0
41
1
10
96.5998769547205
20
-8.99858633509203
30
0
0
SPLINE
5
F9
100
AcDbEntity
8
1
62
256
6
ByLayer
370
13
48
1
60
0
100
AcDbSpline
70
4
71
3
72
44
73
40
40
0
40
0
40
0
40
0
40
0.0625000000000041
40
0.0625000000000041
40
0.125000000000008
40
0.125000000000008
40
0.187500000000012
40
0.187500000000012
40
0.250000000000016
40
0.250000000000016
40
0.312500000000021
40
0.312500000000021
40
0.375000000000025
40
0.375000000000025
40
0.390625000000026
40
0.390625000000026
40
0.398437500000026
40
0.398437500000026
40
0.406250000000026
40
0.406250000000026
40
0.437500000000024
40
0.437500000000024
40
0.500000000000022
40
0.500000000000022
40
0.562500000000019
40
0.562500000000019
40
0.625000000000016
40
0.625000000000016
40
0.687500000000014
40
0.687500000000014
40
0.750000000000011
40
0.750000000000011
40
0.812500000000008
40
0.812500000000008
40
0.875000000000006
40
0.875000000000006
40
0.937500000000003
40
0.937500000000003
40
1
40
1
40
1
40
1
41
1
10
85.6999999999999
20
-9.18563553197154
30
0
41
1
10
85.7935735858647
20
-8.87636650415143
30
0
41
1
10
85.8871471717295
20
-8.52026943427271
30
0
41
1
10
86.074294343459
20
-7.72619470542833
30
0
41
1
10
86.1678679293237
20
-7.28828466137142
30
0
41
1
10
86.3550151010531
20
-6.34987220798899
30
0
41
1
10
86.448588686918
20
-5.84948094055969
30
0
41
1
10
86.6357358586475
20
-4.81012333169139
30
0
41
1
10
86.7293094445123
20
-4.27127802867489
30
0
41
1
10
86.9164566162419
20
-3.18013760654614
30
0
41
1
10
87.0100302021066
20
-2.62793996933249
30
0
41
1
10
87.1971773738361
20
-1.53292926609683
30
0
41
1
10
87.2907509597009
20
-0.990171103321757
30
0
41
1
10
87.4077179420318
20
-0.328964584316623
30
0
41
1
10
87.431111338498
20
-0.197572315588616
30
0
41
1
10
87.4662014331973
20
-0.0019294264892267
30
0
41
1
10
87.4778981314304
20
0.0630342367888659
30
0
41
1
10
87.5012915278966
20
0.193761232434525
30
0
41
1
10
87.5129882261297
20
0.25936117739181
30
0
41
1
10
87.5714717172951
20
0.588472131119801
30
0
41
1
10
87.6182585102275
20
0.855330381009082
30
0
41
1
10
87.7586188890246
20
1.66355933682954
30
0
41
1
10
87.8521924748894
20
2.21273084614481
30
0
41
1
10
88.0393396466189
20
3.31160848521262
30
0
41
1
10
88.1329132324836
20
3.86124099212702
30
0
41
1
10
88.3200604042132
20
4.93697377942775
30
0
41
1
10
88.4136339900779
20
5.46296347314018
30
0
41
1
10
88.6007811618075
20
6.46631711703802
30
0
41
1
10
88.6943547476722
20
6.94355965326855
30
0
41
1
10
88.8815019194017
20
7.82689578985458
30
0
41
1
10
88.9750755052665
20
8.23289280595577
30
0
41
1
10
89.1622226769961
20
8.95719469532318
30
0
41
1
10
89.2557962628607
20
9.27545638598713
30
0
41
1
10
89.4429434345902
20
9.81591615503149
30
0
41
1
10
89.536517020455
20
10.0381321259258
30
0
41
1
10
89.7236641921846
20
10.3866865983624
30
0
41
1
10
89.8172377780493
20
10.5130894429344
30
0
41
1
10
90.0043849497788
20
10.6774539500334
30
0
41
1
10
90.0979585356436
20
10.7155
30
0
41
1
10
90.1915321215083
20
10.7155
30
0
0
SPLINE
5
FA
100
AcDbEntity
8
1
62
256
6
ByLayer
370
13
48
1
60
0
100
AcDbSpline
70
4
71
3
72
79
73
75
40
0
40
0
40
0
40
0
40
0.031250000000001
40
0.031250000000001
40
0.062500000000002
40
0.062500000000002
40
0.093750000000003
40
0.093750000000003
40
0.125000000000004
40
0.125000000000004
40
0.156250000000005
40
0.156250000000005
40
0.187500000000006
40
0.187500000000006
40
0.218750000000007
40
0.218750000000007
40
0.250000000000008
40
0.250000000000008
40
0.281250000000009
40
0.281250000000009
40
0.31250000000001
40
0.31250000000001
40
0.343750000000011
40
0.343750000000011
40
0.375000000000012
40
0.375000000000012
40
0.390625000000012
40
0.390625000000012
40
0.398437500000012
40
0.398437500000012
40
0.406250000000012
40
0.406250000000012
40
0.437500000000011
40
0.437500000000011
40
0.468750000000011
40
0.468750000000011
40
0.50000000000001
40
0.50000000000001
40
0.53125000000001
40
0.53125000000001
40
0.562500000000009
40
0.562500000000009
40
0.593750000000009
40
0.593750000000009
40
0.625000000000008
40
0.625000000000008
40
0.656250000000008
40
0.656250000000008
40
0.687500000000007
40
0.687500000000007
40
0.718750000000007
40
0.718750000000007
40
0.750000000000006
40
0.750000000000006
40
0.781250000000005
40
0.781250000000005
40
0.785156250000005
40
0.785156250000005
40
0.789062500000005
40
0.796875000000004
40
0.796875000000004
40
0.812500000000004
40
0.812500000000004
40
0.843750000000003
40
0.843750000000003
40
0.875000000000003
40
0.875000000000003
40
0.906250000000002
40
0.906250000000002
40
0.937500000000001
40
0.937500000000001
40
0.968750000000001
40
0.968750000000001
40
1
40
1
40
1
40
1
41
1
10
89.6435977008128
20
10.7155
30
0
41
1
10
89.716058943041
20
10.7155
30
0
41
1
10
89.7885201852692
20
10.6927221880203
30
0
41
1
10
89.9334426697257
20
10.5957621096779
30
0
41
1
10
90.0059039119539
20
10.5215559888259
30
0
41
1
10
90.1508263964101
20
10.3173896787739
30
0
41
1
10
90.2232876386384
20
10.1874079439508
30
0
41
1
10
90.3682101230949
20
9.86958189966151
30
0
41
1
10
90.4406713653232
20
9.68172299023846
30
0
41
1
10
90.5855938497795
20
9.24883566498244
30
0
41
1
10
90.6580550920077
20
9.00380375752255
30
0
41
1
10
90.8029775764642
20
8.46035144609669
30
0
41
1
10
90.8754388186924
20
8.16194088748696
30
0
41
1
10
91.0203613031488
20
7.51851102658677
30
0
41
1
10
91.092822545377
20
7.17351414641229
30
0
41
1
10
91.2377450298334
20
6.44620000304056
30
0
41
1
10
91.3102062720616
20
6.06391392797403
30
0
41
1
10
91.4551287565179
20
5.27299677084505
30
0
41
1
10
91.5275899987462
20
4.86439985898807
30
0
41
1
10
91.6725124832026
20
4.03251944394754
30
0
41
1
10
91.7449737254308
20
3.60926710385496
30
0
41
1
10
91.8898962098872
20
2.75941467187457
30
0
41
1
10
91.9623574521154
20
2.33283821102216
30
0
41
1
10
92.1072799365719
20
1.48651925361617
30
0
41
1
10
92.1797411788001
20
1.06679071143984
30
0
41
1
10
92.2884330421423
20
0.448664486367733
30
0
41
1
10
92.3246636632565
20
0.244518775754869
30
0
41
1
10
92.3790095949277
20
-0.0582034558069324
30
0
41
1
10
92.3971249054847
20
-0.159112399007483
30
0
41
1
10
92.4333555265987
20
-0.362543322024123
30
0
41
1
10
92.4514708371559
20
-0.464803358004246
30
0
41
1
10
92.5420473899411
20
-0.978550522366817
30
0
41
1
10
92.6145086321693
20
-1.39745400222563
30
0
41
1
10
92.7594311166256
20
-2.24277977501862
30
0
41
1
10
92.8318923588539
20
-2.66918881308303
30
0
41
1
10
92.9768148433103
20
-3.51947014126091
30
0
41
1
10
93.0492760855385
20
-3.94331944284107
30
0
41
1
10
93.1941985699949
20
-4.77721492738718
30
0
41
1
10
93.2666598122231
20
-5.18723035547083
30
0
41
1
10
93.4115822966795
20
-5.98179724389368
30
0
41
1
10
93.4840435389077
20
-6.36631455874868
30
0
41
1
10
93.6289660233641
20
-7.09882257033411
30
0
41
1
10
93.7014272655923
20
-7.44678166558046
30
0
41
1
10
93.8463497500487
20
-8.09671890974136
30
0
41
1
10
93.9188109922769
20
-8.39867386114599
30
0
41
1
10
94.0637334767333
20
-8.94960060496692
30
0
41
1
10
94.1361947189615
20
-9.19856160111945
30
0
41
1
10
94.2811172034179
20
-9.63947327090739
30
0
41
1
10
94.3535784456461
20
-9.83142653699122
30
0
41
1
10
94.4985009301026
20
-10.1573944395103
30
0
41
1
10
94.5709621723307
20
-10.2914230137678
30
0
41
1
10
94.7158846567872
20
-10.5034536490651
30
0
41
1
10
94.7883458990153
20
-10.5814769200609
30
0
41
1
10
94.9332683834717
20
-10.6857051839755
30
0
41
1
10
95.0057296257
20
-10.7119340097201
30
0
41
1
10
95.0872485232068
20
-10.7155622005245
30
0
41
1
10
95.0963061784853
20
-10.7156079830175
30
0
41
1
10
95.1144214890423
20
-10.7149872385149
30
0
41
1
10
95.1415944548779
20
-10.7129825369647
30
0
41
1
10
95.1687674207135
20
-10.7077015160835
30
0
41
1
10
95.2231133523847
20
-10.6926284015054
30
0
41
1
10
95.2593439734987
20
-10.6765622548044
30
0
41
1
10
95.3680358368411
20
-10.6092545976535
30
0
41
1
10
95.4404970790692
20
-10.5388436680685
30
0
41
1
10
95.5854195635256
20
-10.3425089891734
30
0
41
1
10
95.6578808057538
20
-10.2165633822072
30
0
41
1
10
95.8028032902103
20
-9.90687184867332
30
0
41
1
10
95.8752645324385
20
-9.72311068139859
30
0
41
1
10
96.0201870168949
20
-9.29827001865834
30
0
41
1
10
96.0926482591231
20
-9.05718614396534
30
0
41
1
10
96.2375707435796
20
-8.52126126725031
30
0
41
1
10
96.3100319858077
20
-8.226429155924
30
0
41
1
10
96.4549544702641
20
-7.58958742946245
30
0
41
1
10
96.5274157124924
20
-7.24759944158774
30
0
41
1
10
96.5998769547205
20
-6.8865902231766
30
0
0
SPLINE
5
FB
100
AcDbEntity
8
1
62
256
6
ByLayer
370
13
48
1
60
0
100
AcDbSpline
70
4
71
3
72
43
73
39
40
0
40
0
40
0
40
0
40
0.0625
40
0.0625
40
0.125
40
0.125
40
0.1875
40
0.1875
40
0.25
40
0.25
40
0.3125
40
0.3125
40
0.3203125
40
0.3203125
40
0.328125
40
0.34375
40
0.34375
40
0.375
40
0.375
40
0.4375
40
0.4375
40
0.5
40
0.5
40
0.5625
40
0.5625
40
0.625
40
0.625
40
0.6875
40
0.6875
40
0.75
40
0.75
40
0.8125
40
0.8125
40
0.875
40
0.875
40
0.9375
40
0.9375
40
1
40
1
40
1
40
1
41
1
10
85.6999999999999
20
-7.15681508927847
30
0
41
1
10
85.7833038016047
20
-6.7531643164634
30
0
41
1
10
85.8666076032096
20
-6.322727676613
30
0
41
1
10
86.0332152064192
20
-5.42435608536564
30
0
41
1
10
86.1165190080241
20
-4.95648942019406
30
0
41
1
10
86.2831266112337
20
-4.00095953433899
30
0
41
1
10
86.3664304128384
20
-3.5133590217219
30
0
41
1
10
86.5330380160481
20
-2.53555007486747
30
0
41
1
10
86.6163418176529
20
-2.04538673433962
30
0
41
1
10
86.7829494208626
20
-1.07746975392897
30
0
41
1
10
86.8662532224673
20
-0.599738718343048
30
0
41
1
10
86.9599699992727
20
-0.075920079630464
30
0
41
1
10
86.9703829744733
20
-0.0180222221360111
30
0
41
1
10
86.9912089248745
20
0.0979721637054354
30
0
41
1
10
87.0224478504763
20
0.272540396167528
30
0
41
1
10
87.0536867760782
20
0.448752136165979
30
0
41
1
10
87.1161646272818
20
0.8031169766532
30
0
41
1
10
87.1578165280842
20
1.04195536443501
30
0
41
1
10
87.2827722304914
20
1.76401010138005
30
0
41
1
10
87.3660760320962
20
2.25285676584795
30
0
41
1
10
87.5326836353058
20
3.2311253058258
30
0
41
1
10
87.6159874369106
20
3.72050627314755
30
0
41
1
10
87.7825950401202
20
4.68299937257189
30
0
41
1
10
87.8658988417251
20
5.15605145119343
30
0
41
1
10
88.0325064449347
20
6.06814904133978
30
0
41
1
10
88.1158102465395
20
6.50712614826682
30
0
41
1
10
88.2824178497492
20
7.33441789877557
30
0
41
1
10
88.365721651354
20
7.72267139768286
30
0
41
1
10
88.5323292545636
20
8.4349480156238
30
0
41
1
10
88.6156330561683
20
8.75893206486694
30
0
41
1
10
88.782240659378
20
9.33374659772099
30
0
41
1
10
88.8655444609828
20
9.58456822743446
30
0
41
1
10
89.0321520641924
20
10.0095213772134
30
0
41
1
10
89.1154558657972
20
10.1836729596295
30
0
41
1
10
89.2820634690069
20
10.4569540713994
30
0
41
1
10
89.3653672706117
20
10.5561235360782
30
0
41
1
10
89.5319748738213
20
10.6853726819665
30
0
41
1
10
89.6152786754261
20
10.7155
30
0
41
1
10
89.698582477031
20
10.7155
30
0
0
SPLINE
5
FC
100
AcDbEntity
8
1
62
256
6
ByLayer
370
13
48
1
60
0
100
AcDbSpline
70
4
71
3
72
8
73
4
40
0
40
0
40
0
40
0
40
1
40
1
40
1
40
1
41
1
10
96.5998769547205
20
-6.59645299092128
30
0
41
1
10
97.8999179698137
20
-4.38665719497752
30
0
41
1
10
99.1999589849069
20
-2.18782283612606
30
0
41
1
10
100.5
20
2.84E-14
30
0
0
SPLINE
5
FD
100
AcDbEntity
8
1
62
256
6
ByLayer
370
13
48
1
60
0
100
AcDbSpline
70
4
71
3
72
8
73
4
40
0
40
0
40
0
40
0
40
1
40
1
40
1
40
1
41
1
10
96.5998769547205
20
8.38822577215998
30
0
41
1
10
97.8999179698137
20
5.58348209624256
30
0
41
1
10
99.1999589849069
20
2.78738559536453
30
0
41
1
10
100.5
20
-5.68E-14
30
0
0
SPLINE
5
FE
100
AcDbEntity
8
1
62
256
6
ByLayer
370
13
48
1
60
0
100
AcDbSpline
70
4
71
3
72
8
73
4
40
0
40
0
40
0
40
0
40
1
40
1
40
1
40
1
41
1
10
96.5998769547205
20
3.53543257348218
30
0
41
1
10
97.8999179698137
20
2.34380452802043
30
0
41
1
10
99.1999589849069
20
1.16531807398928
30
0
41
1
10
100.5
20
-2.84E-14
30
0
0
SPLINE
5
FF
100
AcDbEntity
8
1
62
256
6
ByLayer
370
13
48
1
60
0
100
AcDbSpline
70
4
71
3
72
8
73
4
40
0
40
0
40
0
40
0
40
1
40
1
40
1
40
1
41
1
10
96.5998769547205
20
2.52161939118102
30
0
41
1
10
97.8999179698137
20
1.69461896899173
30
0
41
1
10
99.1999589849069
20
0.854072744906517
30
0
41
1
10
100.5
20
-2.84E-14
30
0
0
SPLINE
5
100
100
AcDbEntity
8
1
62
256
6
ByLayer
370
13
48
1
60
0
100
AcDbSpline
70
4
71
3
72
8
73
4
40
0
40
0
40
0
40
0
40
1
40
1
40
1
40
1
41
1
10
96.5998769547205
20
6.68770173371291
30
0
41
1
10
97.8999179698137
20
4.44758339758843
30
0
41
1
10
99.1999589849069
20
2.21833255957233
30
0
41
1
10
100.5
20
-2.84E-14
30
0
0
SPLINE
5
101
100
AcDbEntity
8
1
62
256
6
ByLayer
370
13
48
1
60
0
100
AcDbSpline
70
4
71
3
72
8
73
4
40
0
40
0
40
0
40
0
40
1
40
1
40
1
40
1
41
1
10
96.5998769547205
20
-10.7152410742323
30
0
41
1
10
97.8999179698137
20
-7.14339720759187
30
0
41
1
10
99.1999589849069
20
-3.57162301827753
30
0
41
1
10
100.5
20
5.68E-14
30
0
0
SPLINE
5
102
100
AcDbEntity
8
1
62
256
6
ByLayer
370
13
48
1
60
0
100
AcDbSpline
70
4
71
3
72
8
73
4
40
0
40
0
40
0
40
0
40
1
40
1
40
1
40
1
41
1
10
96.5998769547205
20
7.58599263605768
30
0
41
1
10
97.8999179698137
20
5.04748971088981
30
0
41
1
10
99.1999589849069
20
2.51880629213284
30
0
41
1
10
100.5
20
-5.68E-14
30
0
0
SPLINE
5
103
100
AcDbEntity
8
1
62
256
6
ByLayer
370
13
48
1
60
0
100
AcDbSpline
70
4
71
3
72
8
73
4
40
0
40
0
40
0
40
0
40
1
40
1
40
1
40
1
41
1
10
96.5998769547205
20
4.78329210656577
30
0
41
1
10
97.8999179698137
20
3.20132703235581
30
0
41
1
10
99.1999589849069
20
1.6068841721696
30
0
41
1
10
100.5
20
-2.84E-14
30
0
0
SPLINE
5
104
100
AcDbEntity
8
1
62
256
6
ByLayer
370
13
48
1
60
0
100
AcDbSpline
70
4
71
3
72
8
73
4
40
0
40
0
40
0
40
0
40
1
40
1
40
1
40
1
41
1
10
96.5998769547205
20
9.66523054311583
30
0
41
1
10
97.8999179698137
20
6.43747228269388
30
0
41
1
10
99.1999589849069
20
3.2157042806958
30
0
41
1
10
100.5
20
-5.68E-14
30
0
0
SPLINE
5
105
100
AcDbEntity
8
1
62
256
6
ByLayer
370
13
48
1
60
0
100
AcDbSpline
70
4
71
3
72
8
73
4
40
0
40
0
40
0
40
0
40
1
40
1
40
1
40
1
41
1
10
96.5998769547205
20
-4.5444783950114
30
0
41
1
10
97.8999179698137
20
-3.0170365286576
30
0
41
1
10
99.1999589849069
20
-1.50219890800494
30
0
41
1
10
100.5
20
2.84E-14
30
0
0
SPLINE
5
106
100
AcDbEntity
8
1
62
256
6
ByLayer
370
13
48
1
60
0
100
AcDbSpline
70
4
71
3
72
8
73
4
40
0
40
0
40
0
40
0
40
1
40
1
40
1
40
1
41
1
10
96.5998769547205
20
-9.10154345579696
30
0
41
1
10
97.8999179698137
20
-6.07504792338457
30
0
41
1
10
99.1999589849069
20
-3.04117701230706
30
0
41
1
10
100.5
20
5.68E-14
30
0
0
SPLINE
5
107
100
AcDbEntity
8
1
62
256
6
ByLayer
370
13
48
1
60
0
100
AcDbSpline
70
4
71
3
72
8
73
4
40
0
40
0
40
0
40
0
40
1
40
1
40
1
40
1
41
1
10
96.5998769547205
20
-10.6390310282966
30
0
41
1
10
97.8999179698137
20
-7.09102606507648
30
0
41
1
10
99.1999589849069
20
-3.54465542157791
30
0
41
1
10
100.5
20
5.68E-14
30
0
0
SPLINE
5
108
100
AcDbEntity
8
1
62
256
6
ByLayer
370
13
48
1
60
0
100
AcDbSpline
70
4
71
3
72
8
73
4
40
0
40
0
40
0
40
0
40
1
40
1
40
1
40
1
41
1
10
96.5998769547205
20
1.33558099945324
30
0
41
1
10
97.8999179698137
20
0.904209291985268
30
0
41
1
10
99.1999589849069
20
0.459012204552835
30
0
41
1
10
100.5
20
0
30
0
0
SPLINE
5
109
100
AcDbEntity
8
1
62
256
6
ByLayer
370
13
48
1
60
0
100
AcDbSpline
70
4
71
3
72
8
73
4
40
0
40
0
40
0
40
0
40
1
40
1
40
1
40
1
41
1
10
96.5998769547205
20
-1.07199885989439
30
0
41
1
10
97.8999179698137
20
-0.700805203715049
30
0
41
1
10
99.1999589849069
20
-0.343469567870841
30
0
41
1
10
100.5
20
0
30
0
0
SPLINE
5
10A
100
AcDbEntity
8
1
62
256
6
ByLayer
370
13
48
1
60
0
100
AcDbSpline
70
4
71
3
72
8
73
4
40
0
40
0
40
0
40
0
40
1
40
1
40
1
40
1
41
1
10
96.5998769547205
20
7.69047851209359
30
0
41
1
10
97.8999179698137
20
5.13668632262792
30
0
41
1
10
99.1999589849069
20
2.57317396410221
30
0
41
1
10
100.5
20
-5.68E-14
30
0
0
SPLINE
5
10B
100
AcDbEntity
8
1
62
256
6
ByLayer
370
13
48
1
60
0
100
AcDbSpline
70
4
71
3
72
8
73
4
40
0
40
0
40
0
40
0
40
1
40
1
40
1
40
1
41
1
10
96.5998769547205
20
-10.6557691901003
30
0
41
1
10
97.8999179698137
20
-7.10531495632432
30
0
41
1
10
99.1999589849069
20
-3.55336487518866
30
0
41
1
10
100.5
20
5.68E-14
30
0
0
SPLINE
5
10C
100
AcDbEntity
8
1
62
256
6
ByLayer
370
13
48
1
60
0
100
AcDbSpline
70
4
71
3
72
8
73
4
40
0
40
0
40
0
40
0
40
1
40
1
40
1
40
1
41
1
10
96.5998769547205
20
0.132630789642008
30
0
41
1
10
97.8999179698137
20
0.102350048788764
30
0
41
1
10
99.1999589849069
20
0.0581394140213831
30
0
41
1
10
100.5
20
0
30
0
0
SPLINE
5
10D
100
AcDbEntity
8
1
62
256
6
ByLayer
370
13
48
1
60
0
100
AcDbSpline
70
4
71
3
72
8
73
4
40
0
40
0
40
0
40
0
40
1
40
1
40
1
40
1
41
1
10
96.5998769547205
20
2.37658023933946
30
0
41
1
10
97.8999179698137
20
1.57080318254808
30
0
41
1
10
99.1999589849069
20
0.778603778868188
30
0
41
1
10
100.5
20
-2.84E-14
30
0
0
SPLINE
5
10E
100
AcDbEntity
8
1
62
256
6
ByLayer
370
13
48
1
60
0
100
AcDbSpline
70
4
71
3
72
8
73
4
40
0
40
0
40
0
40
0
40
1
40
1
40
1
40
1
41
1
10
96.5998769547205
20
9.16237886918458
30
0
41
1
10
97.8999179698137
20
6.11547603057508
30
0
41
1
10
99.1999589849069
20
3.06132649446766
30
0
41
1
10
100.5
20
-5.68E-14
30
0
0
SPLINE
5
10F
100
AcDbEntity
8
1
62
256
6
ByLayer
370
13
48
1
60
0
100
AcDbSpline
70
4
71
3
72
8
73
4
40
0
40
0
40
0
40
0
40
1
40
1
40
1
40
1
41
1
10
96.5998769547205
20
-9.67930412088515
30
0
41
1
10
97.8999179698137
20
-6.45884578773195
30
0
41
1
10
99.1999589849069
20
-3.23238652706598
30
0
41
1
10
100.5
20
5.68E-14
30
0
0
SPLINE
5
110
100
AcDbEntity
8
1
62
256
6
ByLayer
370
13
48
1
60
0
100
AcDbSpline
70
4
71
3
72
8
73
4
40
0
40
0
40
0
40
0
40
1
40
1
40
1
40
1
41
1
10
96.5998769547205
20
-0.0163498496185639
30
0
41
1
10
97.8999179698137
20
-0.0248304730270092
30
0
41
1
10
99.1999589849069
20
-0.0193804463885101
30
0
41
1
10
100.5
20
0
30
0
0
SPLINE
5
111
100
AcDbEntity
8
1
62
256
6
ByLayer
370
13
48
1
60
0
100
AcDbSpline
70
4
71
3
72
8
73
4
40
0
40
0
40
0
40
0
40
1
40
1
40
1
40
1
41
1
10
96.5998769547205
20
-2.40845443905832
30
0
41
1
10
97.8999179698137
20
-1.61921044468446
30
0
41
1
10
99.1999589849069
20
-0.816386158109538
30
0
41
1
10
100.5
20
2.84E-14
30
0
0
SPLINE
5
112
100
AcDbEntity
8
1
62
256
6
ByLayer
370
13
48
1
60
0
100
AcDbSpline
70
4
71
3
72
8
73
4
40
0
40
0
40
0
40
0
40
1
40
1
40
1
40
1
41
1
10
96.5998769547205
20
-5.73238155090968
30
0
41
1
10
97.8999179698137
20
-3.83335732610874
30
0
41
1
10
99.1999589849069
20
-1.92254891348185
30
0
41
1
10
100.5
20
2.84E-14
30
0
0
SPLINE
5
113
100
AcDbEntity
8
1
62
256
6
ByLayer
370
13
48
1
60
0
100
AcDbSpline
70
4
71
3
72
8
73
4
40
0
40
0
40
0
40
0
40
1
40
1
40
1
40
1
41
1
10
96.5998769547205
20
-8.31537444607915
30
0
41
1
10
97.8999179698137
20
-5.53479671708243
30
0
41
1
10
99.1999589849069
20
-2.76298417655289
30
0
41
1
10
100.5
20
5.68E-14
30
0
0
SPLINE
5
114
100
AcDbEntity
8
1
62
256
6
ByLayer
370
13
48
1
60
0
100
AcDbSpline
70
4
71
3
72
8
73
4
40
0
40
0
40
0
40
0
40
1
40
1
40
1
40
1
41
1
10
96.5998769547205
20
-9.61445487764337
30
0
41
1
10
97.8999179698137
20
-6.40348583870914
30
0
41
1
10
99.1999589849069
20
-3.19864318760429
30
0
41
1
10
100.5
20
5.68E-14
30
0
0
SPLINE
5
115
100
AcDbEntity
8
1
62
256
6
ByLayer
370
13
48
1
60
0
100
AcDbSpline
70
4
71
3
72
8
73
4
40
0
40
0
40
0
40
0
40
1
40
1
40
1
40
1
41
1
10
96.5998769547205
20
10.1716731767301
30
0
41
1
10
97.8999179698137
20
6.78549699538405
30
0
41
1
10
99.1999589849069
20
3.39491347191355
30
0
41
1
10
100.5
20
0
30
0
0
SPLINE
5
116
100
AcDbEntity
8
1
62
256
6
ByLayer
370
13
48
1
60
0
100
AcDbSpline
70
4
71
3
72
8
73
4
40
0
40
0
40
0
40
0
40
1
40
1
40
1
40
1
41
1
10
96.5998769547205
20
10.6674024360785
30
0
41
1
10
97.8999179698137
20
7.11292003840288
30
0
41
1
10
99.1999589849069
20
3.55709217949706
30
0
41
1
10
100.5
20
0
30
0
0
SPLINE
5
117
100
AcDbEntity
8
1
62
256
6
ByLayer
370
13
48
1
60
0
100
AcDbSpline
70
4
71
3
72
8
73
4
40
0
40
0
40
0
40
0
40
1
40
1
40
1
40
1
41
1
10
96.5998769547205
20
8.48011851616448
30
0
41
1
10
97.8999179698137
20
5.66192831040556
30
0
41
1
10
99.1999589849069
20
2.8352006183317
30
0
41
1
10
100.5
20
-5.68E-14
30
0
0
SPLINE
5
118
100
AcDbEntity
8
1
62
256
6
ByLayer
370
13
48
1
60
0
100
AcDbSpline
70
4
71
3
72
8
73
4
40
0
40
0
40
0
40
0
40
1
40
1
40
1
40
1
41
1
10
96.5998769547205
20
-7.50341981169527
30
0
41
1
10
97.8999179698137
20
-4.99233471947599
30
0
41
1
10
99.1999589849069
20
-2.49117578511138
30
0
41
1
10
100.5
20
5.68E-14
30
0
0
SPLINE
5
119
100
AcDbEntity
8
1
62
256
6
ByLayer
370
13
48
1
60
0
100
AcDbSpline
70
4
71
3
72
8
73
4
40
0
40
0
40
0
40
0
40
1
40
1
40
1
40
1
41
1
10
96.5998769547205
20
-3.42545378457461
30
0
41
1
10
97.8999179698137
20
-2.27043623280477
30
0
41
1
10
99.1999589849069
20
-1.12860965401407
30
0
41
1
10
100.5
20
2.84E-14
30
0
0
SPLINE
5
11A
100
AcDbEntity
8
1
62
256
6
ByLayer
370
13
48
1
60
0
100
AcDbSpline
70
4
71
3
72
8
73
4
40
0
40
0
40
0
40
0
40
1
40
1
40
1
40
1
41
1
10
96.5998769547205
20
9.72862043733818
30
0
41
1
10
97.8999179698137
20
6.49158642708915
30
0
41
1
10
99.1999589849069
20
3.24868826959471
30
0
41
1
10
100.5
20
0
30
0
0
SPLINE
5
11B
100
AcDbEntity
8
1
62
256
6
ByLayer
370
13
48
1
60
0
100
AcDbSpline
70
4
71
3
72
8
73
4
40
0
40
0
40
0
40
0
40
1
40
1
40
1
40
1
41
1
10
96.5998769547205
20
5.70472768960204
30
0
41
1
10
97.8999179698137
20
3.79135948066605
30
0
41
1
10
99.1999589849069
20
1.88976915164849
30
0
41
1
10
100.5
20
-2.84E-14
30
0
0
SPLINE
5
11C
100
AcDbEntity
8
1
62
256
6
ByLayer
370
13
48
1
60
0
100
AcDbSpline
70
4
71
3
72
8
73
4
40
0
40
0
40
0
40
0
40
1
40
1
40
1
40
1
41
1
10
96.5998769547205
20
3.6757277326634
30
0
41
1
10
97.8999179698137
20
2.46357050326026
30
0
41
1
10
99.1999589849069
20
1.23831857398639
30
0
41
1
10
100.5
20
-2.84E-14
30
0
0
SPLINE
5
11D
100
AcDbEntity
8
1
62
256
6
ByLayer
370
13
48
1
60
0
100
AcDbSpline
70
4
71
3
72
8
73
4
40
0
40
0
40
0
40
0
40
1
40
1
40
1
40
1
41
1
10
96.5998769547205
20
-7.60905199979678
30
0
41
1
10
97.8999179698137
20
-5.08250990512406
30
0
41
1
10
99.1999589849069
20
-2.54613992351932
30
0
41
1
10
100.5
20
5.68E-14
30
0
0
SPLINE
5
11E
100
AcDbEntity
8
1
62
256
6
ByLayer
370
13
48
1
60
0
100
AcDbSpline
70
4
71
3
72
8
73
4
40
0
40
0
40
0
40
0
40
1
40
1
40
1
40
1
41
1
10
96.5998769547205
20
-10.4281040633509
30
0
41
1
10
97.8999179698137
20
-6.94886467929871
30
0
41
1
10
99.1999589849069
20
-3.4728035627611
30
0
41
1
10
100.5
20
5.68E-14
30
0
0
SPLINE
5
11F
100
AcDbEntity
8
1
62
256
6
ByLayer
370
13
48
1
60
0
100
AcDbSpline
70
4
71
3
72
8
73
4
40
0
40
0
40
0
40
0
40
1
40
1
40
1
40
1
41
1
10
96.5998769547205
20
-9.02203550412037
30
0
41
1
10
97.8999179698137
20
-6.00717425313508
30
0
41
1
10
99.1999589849069
20
-2.99980623187523
30
0
41
1
10
100.5
20
5.68E-14
30
0
0
SPLINE
5
120
100
AcDbEntity
8
1
62
256
6
ByLayer
370
13
48
1
60
0
100
AcDbSpline
70
4
71
3
72
8
73
4
40
0
40
0
40
0
40
0
40
1
40
1
40
1
40
1
41
1
10
96.5998769547205
20
-6.71321990840605
30
0
41
1
10
97.8999179698136
20
-4.48633778146348
30
0
41
1
10
99.1999589849067
20
-2.2485807654038
30
0
41
1
10
100.5
20
-3.411E-13
30
0
0
SPLINE
5
121
100
AcDbEntity
8
1
62
256
6
ByLayer
370
13
48
1
60
0
100
AcDbSpline
70
4
71
3
72
8
73
4
40
0
40
0
40
0
40
0
40
1
40
1
40
1
40
1
41
1
10
96.5998769547205
20
-10.4613684396877
30
0
41
1
10
97.8999179698137
20
-6.97726152845564
30
0
41
1
10
99.1999589849069
20
-3.49011218637182
30
0
41
1
10
100.5
20
5.68E-14
30
0
0
SPLINE
5
122
100
AcDbEntity
8
1
62
256
6
ByLayer
370
13
48
1
60
0
100
AcDbSpline
70
4
71
3
72
8
73
4
40
0
40
0
40
0
40
0
40
1
40
1
40
1
40
1
41
1
10
96.5998769547205
20
9.08424285071155
30
0
41
1
10
97.8999179698137
20
6.04877354056481
30
0
41
1
10
99.1999589849069
20
3.02066957907868
30
0
41
1
10
100.5
20
-5.68E-14
30
0
0
SPLINE
5
123
100
AcDbEntity
8
1
62
256
6
ByLayer
370
13
48
1
60
0
100
AcDbSpline
70
4
71
3
72
8
73
4
40
0
40
0
40
0
40
0
40
1
40
1
40
1
40
1
41
1
10
96.5998769547205
20
-3.5662846963244
30
0
41
1
10
97.8999179698137
20
-2.39065956472913
30
0
41
1
10
99.1999589849069
20
-1.20188892489401
30
0
41
1
10
100.5
20
2.84E-14
30
0
0
SPLINE
5
124
100
AcDbEntity
8
1
62
256
6
ByLayer
370
13
48
1
60
0
100
AcDbSpline
70
4
71
3
72
8
73
4
40
0
40
0
40
0
40
0
40
1
40
1
40
1
40
1
41
1
10
96.5998769547205
20
-1.22012708475936
30
0
41
1
10
97.8999179698137
20
-0.827258043677801
30
0
41
1
10
99.1999589849069
20
-0.420545887124717
30
0
41
1
10
100.5
20
0
30
0
0
SPLINE
5
125
100
AcDbEntity
8
1
62
256
6
ByLayer
370
13
48
1
60
0
100
AcDbSpline
70
4
71
3
72
8
73
4
40
0
40
0
40
0
40
0
40
1
40
1
40
1
40
1
41
1
10
96.5998769547205
20
10.485926924193
30
0
41
1
10
97.8999179698137
20
6.99348608767812
30
0
41
1
10
99.1999589849069
20
3.49815052220751
30
0
41
1
10
100.5
20
-2.84E-14
30
0
0
SPLINE
5
126
100
AcDbEntity
8
1
62
256
6
ByLayer
370
13
48
1
60
0
100
AcDbSpline
70
4
71
3
72
8
73
4
40
0
40
0
40
0
40
0
40
1
40
1
40
1
40
1
41
1
10
96.5998769547205
20
-8.40853433534292
30
0
41
1
10
97.8999179698137
20
-5.6143246570058
30
0
41
1
10
99.1999589849069
20
-2.81145853971424
30
0
41
1
10
100.5
20
5.68E-14
30
0
0
SPLINE
5
127
100
AcDbEntity
8
1
62
256
6
ByLayer
370
13
48
1
60
0
100
AcDbSpline
70
4
71
3
72
8
73
4
40
0
40
0
40
0
40
0
40
1
40
1
40
1
40
1
41
1
10
96.5998769547205
20
6.80345768752255
30
0
41
1
10
97.8999179698137
20
4.54640095322424
30
0
41
1
10
99.1999589849069
20
2.27856444893374
30
0
41
1
10
100.5
20
-5.68E-14
30
0
0
SPLINE
5
128
100
AcDbEntity
8
1
62
256
6
ByLayer
370
13
48
1
60
0
100
AcDbSpline
70
4
71
3
72
8
73
4
40
0
40
0
40
0
40
0
40
1
40
1
40
1
40
1
41
1
10
96.5998769547205
20
-10.1345004259429
30
0
41
1
10
97.8999179698137
20
-6.76085840278643
30
0
41
1
10
99.1999589849069
20
-3.38266589012056
30
0
41
1
10
100.5
20
5.68E-14
30
0
0
SPLINE
5
129
100
AcDbEntity
8
1
62
256
6
ByLayer
370
13
48
1
60
0
100
AcDbSpline
70
4
71
3
72
8
73
4
40
0
40
0
40
0
40
0
40
1
40
1
40
1
40
1
41
1
10
96.5998769547205
20
-10.0851310458282
30
0
41
1
10
97.8999179698137
20
-6.7187131713263
30
0
41
1
10
99.1999589849069
20
-3.35697726726318
30
0
41
1
10
100.5
20
5.68E-14
30
0
0
SPLINE
5
12A
100
AcDbEntity
8
1
62
256
6
ByLayer
370
13
48
1
60
0
100
AcDbSpline
70
4
71
3
72
8
73
4
40
0
40
0
40
0
40
0
40
1
40
1
40
1
40
1
41
1
10
96.5998769547205
20
-5.60595846720449
30
0
41
1
10
97.8999179698137
20
-3.72543354597872
30
0
41
1
10
99.1999589849069
20
-1.85676654169143
30
0
41
1
10
100.5
20
2.84E-14
30
0
0
SPLINE
5
12B
100
AcDbEntity
8
1
62
256
6
ByLayer
370
13
48
1
60
0
100
AcDbSpline
70
4
71
3
72
8
73
4
40
0
40
0
40
0
40
0
40
1
40
1
40
1
40
1
41
1
10
96.5998769547205
20
10.4542404184956
30
0
41
1
10
97.8999179698137
20
6.9664362216746
30
0
41
1
10
99.1999589849069
20
3.4816629201222
30
0
41
1
10
100.5
20
-5.68E-14
30
0
0
SPLINE
5
12C
100
AcDbEntity
8
1
62
256
6
ByLayer
370
13
48
1
60
0
100
AcDbSpline
70
4
71
3
72
8
73
4
40
0
40
0
40
0
40
0
40
1
40
1
40
1
40
1
41
1
10
96.5998769547205
20
10.6522717499361
30
0
41
1
10
97.8999179698137
20
7.10000340327116
30
0
41
1
10
99.1999589849069
20
3.5492191519447
30
0
41
1
10
100.5
20
-5.68E-14
30
0
0
SPLINE
5
12D
100
AcDbEntity
8
1
62
256
6
ByLayer
370
13
48
1
60
0
100
AcDbSpline
70
4
71
3
72
8
73
4
40
0
40
0
40
0
40
0
40
1
40
1
40
1
40
1
41
1
10
96.5998769547205
20
5.83028795936809
30
0
41
1
10
97.8999179698137
20
3.8985467011494
30
0
41
1
10
99.1999589849069
20
1.95510257103507
30
0
41
1
10
100.5
20
-2.84E-14
30
0
0
SPLINE
5
12E
100
AcDbEntity
8
1
62
256
6
ByLayer
370
13
48
1
60
0
100
AcDbSpline
70
4
71
3
72
8
73
4
40
0
40
0
40
0
40
0
40
1
40
1
40
1
40
1
41
1
10
96.5998769547205
20
-2.26305430486246
30
0
41
1
10
97.8999179698137
20
-1.49508649790258
30
0
41
1
10
99.1999589849069
20
-0.740729360270677
30
0
41
1
10
100.5
20
0
30
0
0
SPLINE
5
12F
100
AcDbEntity
8
1
62
256
6
ByLayer
370
13
48
1
60
0
100
AcDbSpline
70
4
71
3
72
8
73
4
40
0
40
0
40
0
40
0
40
1
40
1
40
1
40
1
41
1
10
96.5998769547205
20
-4.67895681039835
30
0
41
1
10
97.8999179698137
20
-3.13183691565257
30
0
41
1
10
99.1999589849069
20
-1.57217275185928
30
0
41
1
10
100.5
20
2.84E-14
30
0
0
SPLINE
5
130
100
AcDbEntity
8
1
62
256
6
ByLayer
370
13
48
1
60
0
100
AcDbSpline
70
4
71
3
72
8
73
4
40
0
40
0
40
0
40
0
40
1
40
1
40
1
40
1
41
1
10
96.5998769547205
20
4.64951742998522
30
0
41
1
10
97.8999179698137
20
3.08712740710456
30
0
41
1
10
99.1999589849069
20
1.53727650833912
30
0
41
1
10
100.5
20
-2.84E-14
30
0
0
SPLINE
5
131
100
AcDbEntity
8
1
62
256
6
ByLayer
370
13
48
1
60
0
100
AcDbSpline
70
4
71
3
72
8
73
4
40
0
40
0
40
0
40
0
40
1
40
1
40
1
40
1
41
1
10
96.5998769547205
20
10.1238320824178
30
0
41
1
10
97.8999179698137
20
6.74465641791653
30
0
41
1
10
99.1999589849069
20
3.37002006984895
30
0
41
1
10
100.5
20
-5.68E-14
30
0
0
SPLINE
5
132
100
AcDbEntity
8
1
62
256
6
ByLayer
370
13
48
1
60
0
100
AcDbSpline
70
4
71
3
72
8
73
4
40
0
40
0
40
0
40
0
40
1
40
1
40
1
40
1
41
1
10
96.5998769547205
20
1.18763441578287
30
0
41
1
10
97.8999179698137
20
0.7779115139287
30
0
41
1
10
99.1999589849069
20
0.382030399593674
30
0
41
1
10
100.5
20
0
30
0
0
LINE
5
7D
100
AcDbEntity
8
4
62
256
6
ByLayer
370
18
48
0.05
60
0
100
AcDbLine
10
-5
20
0
30
0
11
105.5
21
0
31
0
39
0
210
0
220
0
230
1
0
LINE
5
7F
100
AcDbEntity
8
81
62
256
6
ByLayer
370
18
48
1
60
0
100
AcDbLine
10
100.5
20
0
30
0
11
105.5
21
0
31
0
39
0
210
0
220
0
230
1
0
LINE
5
80
100
AcDbEntity
8
SK4
62
256
6
ByLayer
370
18
48
0.05
60
0
100
AcDbLine
10
-61
20
0
30
0
11
105.5
21
0
31
0
39
0
210
0
220
0
230
1
0
LINE
5
82
100
AcDbEntity
8
80
62
256
6
ByLayer
370
18
48
1
60
0
100
AcDbLine
10
0
20
0
30
0
11
-5
21
0
31
0
39
0
210
0
220
0
230
1
0
LINE
5
83
100
AcDbEntity
8
1
62
256
6
ByLayer
370
18
48
1
60
0
100
AcDbLine
10
10
20
-10.2
30
0
11
45.615311
21
-10.2
31
0
39
0
210
0
220
0
230
1
0
LINE
5
84
100
AcDbEntity
8
1
62
256
6
ByLayer
370
18
48
1
60
0
100
AcDbLine
10
45.615311
20
10.2
30
0
11
10
21
10.2
31
0
39
0
210
0
220
0
230
1
0
LINE
5
85
100
AcDbEntity
8
1
62
256
6
ByLayer
370
18
48
1
60
0
100
AcDbLine
10
100.5
20
0
30
0
11
96.599877
21
10.7155
31
0
39
0
210
0
220
0
230
1
0
LINE
5
86
100
AcDbEntity
8
1
62
256
6
ByLayer
370
18
48
1
60
0
100
AcDbLine
10
96.599877
20
-10.7155
30
0
11
100.5
21
0
31
0
39
0
210
0
220
0
230
1
0
LINE
5
87
100
AcDbEntity
8
1
62
256
6
ByLayer
370
18
48
1
60
0
100
AcDbLine
10
10
20
10.2
30
0
11
0
21
12.7
31
0
39
0
210
0
220
0
230
1
0
LINE
5
88
100
AcDbEntity
8
1
62
256
6
ByLayer
370
18
48
1
60
0
100
AcDbLine
10
0
20
-12.7
30
0
11
10
21
-10.2
31
0
39
0
210
0
220
0
230
1
0
LINE
5
89
100
AcDbEntity
8
1
62
256
6
ByLayer
370
18
48
1
60
0
100
AcDbLine
10
85.7
20
-10.7155
30
0
11
96.599877
21
-10.7155
31
0
39
0
210
0
220
0
230
1
0
LINE
5
8A
100
AcDbEntity
8
1
62
256
6
ByLayer
370
18
48
1
60
0
100
AcDbLine
10
100.5
20
0
30
0
11
96.599877
21
10.7155
31
0
39
0
210
0
220
0
230
1
0
LINE
5
8B
100
AcDbEntity
8
1
62
256
6
ByLayer
370
18
48
1
60
0
100
AcDbLine
10
96.599877
20
-10.7155
30
0
11
100.5
21
0
31
0
39
0
210
0
220
0
230
1
0
LINE
5
8C
100
AcDbEntity
8
SK1
62
256
6
ByLayer
370
18
48
1
60
0
100
AcDbLine
10
-55
20
-12.7
30
0
11
0
21
-12.7
31
0
39
0
210
0
220
0
230
1
0
LINE
5
8E
100
AcDbEntity
8
SK1
62
256
6
ByLayer
370
18
48
1
60
0
100
AcDbLine
10
0
20
12.7
30
0
11
-55
21
12.7
31
0
39
0
210
0
220
0
230
1
0
LINE
5
8F
100
AcDbEntity
8
SK1
62
256
6
ByLayer
370
18
48
1
60
0
100
AcDbLine
10
-56
20
-11.7
30
0
11
-55
21
-12.7
31
0
39
0
210
0
220
0
230
1
0
LINE
5
90
100
AcDbEntity
8
SK1
62
256
6
ByLayer
370
18
48
1
60
0
100
AcDbLine
10
-55
20
12.7
30
0
11
-56
21
11.7
31
0
39
0
210
0
220
0
230
1
0
LINE
5
91
100
AcDbEntity
8
1
62
256
6
ByLayer
370
18
48
1
60
0
100
AcDbLine
10
0
20
12.7
30
0
11
0
21
-12.7
31
0
39
0
210
0
220
0
230
1
0
LINE
5
92
100
AcDbEntity
8
1
62
256
6
ByLayer
370
18
48
1
60
0
100
AcDbLine
10
96.599877
20
10.7155
30
0
11
96.599877
21
10.375273
31
0
39
0
210
0
220
0
230
1
0
LINE
5
93
100
AcDbEntity
8
1
62
256
6
ByLayer
370
18
48
1
60
0
100
AcDbLine
10
96.599877
20
-10.7155
30
0
11
96.599877
21
-1.529048
31
0
39
0
210
0
220
0
230
1
0
LINE
5
94
100
AcDbEntity
8
1
62
256
6
ByLayer
370
18
48
1
60
0
100
AcDbLine
10
10
20
-10.2
30
0
11
10
21
-3.303374
31
0
39
0
210
0
220
0
230
1
0
LINE
5
95
100
AcDbEntity
8
1
62
256
6
ByLayer
370
18
48
1
60
0
100
AcDbLine
10
10
20
10.2
30
0
11
10
21
8.163693
31
0
39
0
210
0
220
0
230
1
0
LINE
5
96
100
AcDbEntity
8
SK1
62
256
6
ByLayer
370
18
48
1
60
0
100
AcDbLine
10
-9.573685
20
-7.42967
30
0
11
-9.573685
21
7.42967
31
0
39
0
210
0
220
0
230
1
0
LINE
5
97
100
AcDbEntity
8
SK1
62
256
6
ByLayer
370
18
48
1
60
0
100
AcDbLine
10
0
20
12.7
30
0
11
0
21
-12.7
31
0
39
0
210
0
220
0
230
1
0
LINE
5
98
100
AcDbEntity
8
SK1
62
256
6
ByLayer
370
18
48
1
60
0
100
AcDbLine
10
-9.573685
20
-7.42967
30
0
11
-46.761964
21
-7.42967
31
0
39
0
210
0
220
0
230
1
0
LINE
5
99
100
AcDbEntity
8
SK1
62
256
6
ByLayer
370
18
48
1
60
0
100
AcDbLine
10
-46.761964
20
7.42967
30
0
11
-9.573685
21
7.42967
31
0
39
0
210
0
220
0
230
1
0
LINE
5
9A
100
AcDbEntity
8
SK1
62
256
6
ByLayer
370
18
48
1
60
0
100
AcDbLine
10
-56
20
-11.7
30
0
11
-56
21
11.7
31
0
39
0
210
0
220
0
230
1
0
LINE
5
9B
100
AcDbEntity
8
SK1
62
256
6
ByLayer
370
18
48
1
60
0
100
AcDbLine
10
-55
20
-12.7
30
0
11
-55
21
12.7
31
0
39
0
210
0
220
0
230
1
0
LINE
5
9C
100
AcDbEntity
8
SK1
62
256
6
ByLayer
370
18
48
1
60
0
100
AcDbLine
10
-46.761964
20
-7.42967
30
0
11
-46.761964
21
7.42967
31
0
39
0
210
0
220
0
230
1
0
LINE
5
9D
100
AcDbEntity
8
1
62
256
6
ByLayer
370
18
48
1
60
0
100
AcDbLine
10
96.599877
20
10.7155
30
0
11
96.599877
21
-10.7155
31
0
39
0
210
0
220
0
230
1
0
LINE
5
9E
100
AcDbEntity
8
1
62
256
6
ByLayer
370
18
48
1
60
0
100
AcDbLine
10
96.599877
20
10.7155
30
0
11
96.599877
21
-10.7155
31
0
39
0
210
0
220
0
230
1
0
LINE
5
9F
100
AcDbEntity
8
1
62
256
6
ByLayer
370
18
48
1
60
0
100
AcDbLine
10
96.599877
20
10.7155
30
0
11
96.599877
21
-10.7155
31
0
39
0
210
0
220
0
230
1
0
LINE
5
A0
100
AcDbEntity
8
1
62
256
6
ByLayer
370
18
48
1
60
0
100
AcDbLine
10
85.7
20
10.7155
30
0
11
85.7
21
-10.7155
31
0
39
0
210
0
220
0
230
1
0
LINE
5
A1
100
AcDbEntity
8
1
62
256
6
ByLayer
370
18
48
1
60
0
100
AcDbLine
10
85.7
20
10.7155
30
0
11
85.7
21
-10.7155
31
0
39
0
210
0
220
0
230
1
0
LINE
5
A2
100
AcDbEntity
8
1
62
256
6
ByLayer
370
18
48
1
60
0
100
AcDbLine
10
96.599877
20
10.7155
30
0
11
96.599877
21
-10.7155
31
0
39
0
210
0
220
0
230
1
0
LINE
5
A3
100
AcDbEntity
8
1
62
256
6
ByLayer
370
18
48
1
60
0
100
AcDbLine
10
85.7
20
10.7155
30
0
11
85.7
21
-10.7155
31
0
39
0
210
0
220
0
230
1
0
LINE
5
A4
100
AcDbEntity
8
1
62
256
6
ByLayer
370
18
48
1
60
0
100
AcDbLine
10
96.599877
20
10.7155
30
0
11
96.599877
21
-10.7155
31
0
39
0
210
0
220
0
230
1
0
LINE
5
A5
100
AcDbEntity
8
SK2
62
256
6
ByLayer
370
13
48
1
60
0
100
AcDbLine
10
-62.5
20
-12.7
30
0
11
-62.5
21
42.040455
31
0
39
0
210
0
220
0
230
1
0
LINE
5
A7
100
AcDbEntity
8
SK2
62
256
6
ByLayer
370
13
48
1
60
0
100
AcDbLine
10
-57.5875
20
12.7
30
0
11
-64.5
21
12.7
31
0
39
0
210
0
220
0
230
1
0
LINE
5
A8
100
AcDbEntity
8
SK2
62
256
6
ByLayer
370
13
48
1
60
0
100
AcDbLine
10
-57.5875
20
-12.7
30
0
11
-64.5
21
-12.7
31
0
39
0
210
0
220
0
230
1
0
LINE
5
A9
100
AcDbEntity
8
1
62
256
6
ByLayer
370
18
48
1
60
1
100
AcDbLine
10
-62.5
20
12.7
30
0
11
-62.039216
21
9.200002
31
0
39
0
210
0
220
0
230
1
0
LINE
5
AA
100
AcDbEntity
8
1
62
256
6
ByLayer
370
18
48
1
60
1
100
AcDbLine
10
-62.039216
20
9.200002
30
0
11
-62.960784
21
9.199998
31
0
39
0
210
0
220
0
230
1
0
LINE
5
AB
100
AcDbEntity
8
1
62
256
6
ByLayer
370
18
48
1
60
1
100
AcDbLine
10
-62.960784
20
9.199998
30
0
11
-62.5
21
12.7
31
0
39
0
210
0
220
0
230
1
0
LINE
5
AC
100
AcDbEntity
8
1
62
256
6
ByLayer
370
18
48
1
60
1
100
AcDbLine
10
-62.5
20
-12.7
30
0
11
-62.960784
21
-9.200002
31
0
39
0
210
0
220
0
230
1
0
LINE
5
AD
100
AcDbEntity
8
1
62
256
6
ByLayer
370
18
48
1
60
1
100
AcDbLine
10
-62.960784
20
-9.200002
30
0
11
-62.039216
21
-9.199998
31
0
39
0
210
0
220
0
230
1
0
LINE
5
AE
100
AcDbEntity
8
1
62
256
6
ByLayer
370
18
48
1
60
1
100
AcDbLine
10
-62.039216
20
-9.199998
30
0
11
-62.5
21
-12.7
31
0
39
0
210
0
220
0
230
1
0
LINE
5
AF
100
AcDbEntity
8
2
62
256
6
ByLayer
370
13
48
1
60
0
100
AcDbLine
10
108
20
-10.7155
30
0
11
108
21
38.556184
31
0
39
0
210
0
220
0
230
1
0
LINE
5
B1
100
AcDbEntity
8
2
62
256
6
ByLayer
370
13
48
1
60
0
100
AcDbLine
10
98.187377
20
10.7155
30
0
11
110
21
10.7155
31
0
39
0
210
0
220
0
230
1
0
LINE
5
B2
100
AcDbEntity
8
2
62
256
6
ByLayer
370
13
48
1
60
0
100
AcDbLine
10
98.187377
20
-10.7155
30
0
11
110
21
-10.7155
31
0
39
0
210
0
220
0
230
1
0
LINE
5
B3
100
AcDbEntity
8
1
62
256
6
ByLayer
370
18
48
1
60
1
100
AcDbLine
10
108
20
10.7155
30
0
11
108.460784
21
7.215502
31
0
39
0
210
0
220
0
230
1
0
LINE
5
B4
100
AcDbEntity
8
1
62
256
6
ByLayer
370
18
48
1
60
1
100
AcDbLine
10
108.460784
20
7.215502
30
0
11
107.539216
21
7.215498
31
0
39
0
210
0
220
0
230
1
0
LINE
5
B5
100
AcDbEntity
8
1
62
256
6
ByLayer
370
18
48
1
60
1
100
AcDbLine
10
107.539216
20
7.215498
30
0
11
108
21
10.7155
31
0
39
0
210
0
220
0
230
1
0
LINE
5
B6
100
AcDbEntity
8
1
62
256
6
ByLayer
370
18
48
1
60
1
100
AcDbLine
10
108
20
-10.7155
30
0
11
107.539216
21
-7.215502
31
0
39
0
210
0
220
0
230
1
0
LINE
5
B7
100
AcDbEntity
8
1
62
256
6
ByLayer
370
18
48
1
60
1
100
AcDbLine
10
107.539216
20
-7.215502
30
0
11
108.460784
21
-7.215498
31
0
39
0
210
0
220
0
230
1
0
LINE
5
B8
100
AcDbEntity
8
1
62
256
6
ByLayer
370
18
48
1
60
1
100
AcDbLine
10
108.460784
20
-7.215498
30
0
11
108
21
-10.7155
31
0
39
0
210
0
220
0
230
1
0
LINE
5
B9
100
AcDbEntity
8
SK2
62
256
6
ByLayer
370
13
48
1
60
0
100
AcDbLine
10
101.042957
20
-1.491762
30
0
11
107.682423
21
-19.733545
31
0
39
0
210
0
220
0
230
1
0
LINE
5
BA
100
AcDbEntity
8
SK2
62
256
6
ByLayer
370
13
48
1
60
0
100
AcDbLine
10
101.042957
20
1.491762
30
0
11
107.682423
21
19.733545
31
0
39
0
210
0
220
0
230
1
0
LINE
5
BB
100
AcDbEntity
8
1
62
256
6
ByLayer
370
18
48
1
60
1
100
AcDbLine
10
106.998383
20
-17.85416
30
0
11
110.051575
21
-16.082064
31
0
39
0
210
0
220
0
230
1
0
LINE
5
BC
100
AcDbEntity
8
1
62
256
6
ByLayer
370
18
48
1
60
1
100
AcDbLine
10
110.051575
20
-16.082064
30
0
11
110.406196
21
-16.93267
31
0
39
0
210
0
220
0
230
1
0
LINE
5
BD
100
AcDbEntity
8
1
62
256
6
ByLayer
370
18
48
1
60
1
100
AcDbLine
10
110.406196
20
-16.93267
30
0
11
106.998383
21
-17.85416
31
0
39
0
210
0
220
0
230
1
0
LINE
5
BE
100
AcDbEntity
8
1
62
256
6
ByLayer
370
18
48
1
60
1
100
AcDbLine
10
106.998383
20
17.85416
30
0
11
110.406193
21
16.932671
31
0
39
0
210
0
220
0
230
1
0
LINE
5
BF
100
AcDbEntity
8
1
62
256
6
ByLayer
370
18
48
1
60
1
100
AcDbLine
10
110.406193
20
16.932671
30
0
11
110.051579
21
16.082063
31
0
39
0
210
0
220
0
230
1
0
LINE
5
C0
100
AcDbEntity
8
1
62
256
6
ByLayer
370
18
48
1
60
1
100
AcDbLine
10
110.051579
20
16.082063
30
0
11
106.998383
21
17.85416
31
0
39
0
210
0
220
0
230
1
0
LINE
5
137
100
AcDbEntity
8
1
62
256
6
ByLayer
370
18
48
1
60
1
100
AcDbLine
10
-62.5
20
12.7
30
0
11
-62.039216
21
9.200002
31
0
39
0
210
0
220
0
230
1
0
LINE
5
138
100
AcDbEntity
8
1
62
256
6
ByLayer
370
18
48
1
60
1
100
AcDbLine
10
-62.039216
20
9.200002
30
0
11
-62.960784
21
9.199998
31
0
39
0
210
0
220
0
230
1
0
LINE
5
139
100
AcDbEntity
8
1
62
256
6
ByLayer
370
18
48
1
60
1
100
AcDbLine
10
-62.960784
20
9.199998
30
0
11
-62.5
21
12.7
31
0
39
0
210
0
220
0
230
1
0
LINE
5
13B
100
AcDbEntity
8
1
62
256
6
ByLayer
370
18
48
1
60
1
100
AcDbLine
10
-62.5
20
-12.7
30
0
11
-62.960784
21
-9.200002
31
0
39
0
210
0
220
0
230
1
0
LINE
5
13C
100
AcDbEntity
8
1
62
256
6
ByLayer
370
18
48
1
60
1
100
AcDbLine
10
-62.960784
20
-9.200002
30
0
11
-62.039216
21
-9.199998
31
0
39
0
210
0
220
0
230
1
0
LINE
5
13D
100
AcDbEntity
8
1
62
256
6
ByLayer
370
18
48
1
60
1
100
AcDbLine
10
-62.039216
20
-9.199998
30
0
11
-62.5
21
-12.7
31
0
39
0
210
0
220
0
230
1
0
LINE
5
141
100
AcDbEntity
8
1
62
256
6
ByLayer
370
18
48
1
60
1
100
AcDbLine
10
108
20
10.7155
30
0
11
108.460784
21
7.215502
31
0
39
0
210
0
220
0
230
1
0
LINE
5
142
100
AcDbEntity
8
1
62
256
6
ByLayer
370
18
48
1
60
1
100
AcDbLine
10
108.460784
20
7.215502
30
0
11
107.539216
21
7.215498
31
0
39
0
210
0
220
0
230
1
0
LINE
5
143
100
AcDbEntity
8
1
62
256
6
ByLayer
370
18
48
1
60
1
100
AcDbLine
10
107.539216
20
7.215498
30
0
11
108
21
10.7155
31
0
39
0
210
0
220
0
230
1
0
LINE
5
145
100
AcDbEntity
8
1
62
256
6
ByLayer
370
18
48
1
60
1
100
AcDbLine
10
108
20
-10.7155
30
0
11
107.539216
21
-7.215502
31
0
39
0
210
0
220
0
230
1
0
LINE
5
146
100
AcDbEntity
8
1
62
256
6
ByLayer
370
18
48
1
60
1
100
AcDbLine
10
107.539216
20
-7.215502
30
0
11
108.460784
21
-7.215498
31
0
39
0
210
0
220
0
230
1
0
LINE
5
147
100
AcDbEntity
8
1
62
256
6
ByLayer
370
18
48
1
60
1
100
AcDbLine
10
108.460784
20
-7.215498
30
0
11
108
21
-10.7155
31
0
39
0
210
0
220
0
230
1
0
LINE
5
14A
100
AcDbEntity
8
1
62
256
6
ByLayer
370
18
48
1
60
1
100
AcDbLine
10
106.998383
20
-17.85416
30
0
11
110.051575
21
-16.082064
31
0
39
0
210
0
220
0
230
1
0
LINE
5
14B
100
AcDbEntity
8
1
62
256
6
ByLayer
370
18
48
1
60
1
100
AcDbLine
10
110.051575
20
-16.082064
30
0
11
110.406196
21
-16.93267
31
0
39
0
210
0
220
0
230
1
0
LINE
5
14C
100
AcDbEntity
8
1
62
256
6
ByLayer
370
18
48
1
60
1
100
AcDbLine
10
110.406196
20
-16.93267
30
0
11
106.998383
21
-17.85416
31
0
39
0
210
0
220
0
230
1
0
LINE
5
14E
100
AcDbEntity
8
1
62
256
6
ByLayer
370
18
48
1
60
1
100
AcDbLine
10
106.998383
20
17.85416
30
0
11
110.406193
21
16.932671
31
0
39
0
210
0
220
0
230
1
0
LINE
5
14F
100
AcDbEntity
8
1
62
256
6
ByLayer
370
18
48
1
60
1
100
AcDbLine
10
110.406193
20
16.932671
30
0
11
110.051579
21
16.082063
31
0
39
0
210
0
220
0
230
1
0
LINE
5
150
100
AcDbEntity
8
1
62
256
6
ByLayer
370
18
48
1
60
1
100
AcDbLine
10
110.051579
20
16.082063
30
0
11
106.998383
21
17.85416
31
0
39
0
210
0
220
0
230
1
0
MTEXT
5
133
100
AcDbEntity
8
SK2
62
256
6
ByLayer
370
18
48
1
60
0
100
AcDbMText
10
-63.841114
20
24.358437
30
0
210
0
220
0
230
1
1
%%c
40
3
41
0
44
1.084337
50
90
71
7
72
5
7
iso_b_vert
0
MTEXT
5
136
100
AcDbEntity
8
SK2
62
256
6
ByLayer
370
18
48
1
60
0
100
AcDbMText
10
-63.841114
20
30.335
30
0
210
0
220
0
230
1
1
\W0.7728;25.400
40
3
41
0
44
1.084337
50
90
71
7
72
5
7
iso_b_vert
0
MTEXT
5
13F
100
AcDbEntity
8
2
62
256
6
ByLayer
370
18
48
1
60
0
100
AcDbMText
10
106.658886
20
22.373937
30
0
210
0
220
0
230
1
1
%%c
40
3
41
0
44
1.084337
50
90
71
7
72
5
7
iso_b_vert
0
MTEXT
5
140
100
AcDbEntity
8
2
62
256
6
ByLayer
370
18
48
1
60
0
100
AcDbMText
10
106.658886
20
28.3505
30
0
210
0
220
0
230
1
1
\W0.7147;21.431
40
3
41
0
44
1.084337
50
90
71
7
72
5
7
iso_b_vert
0
MTEXT
5
149
100
AcDbEntity
8
SK2
62
256
6
ByLayer
370
18
48
1
60
0
100
AcDbMText
10
120.409114
20
3.734657
30
0
210
0
220
0
230
1
1
\W0.7071;140%%d
40
3
41
0
44
1.084337
50
270
71
7
72
5
7
iso_b_vert
0
MTEXT
5
152
100
AcDbEntity
8
SK6
62
256
6
ByLayer
370
18
48
1
60
0
100
AcDbMText
10
-5.976511
20
-67.114886
30
0
210
0
220
0
230
1
1
\W0.7833;H85327/32
40
3
41
0
44
1.084337
50
0
71
7
72
5
7
iso_b_vert
0
HATCH
5
13A
100
AcDbEntity
8
SK2
62
256
6
ByLayer
370
13
48
1
60
0
100
AcDbHatch
10
0
20
0
30
0
210
0
220
0
230
1
2
ANSI31
70
0
71
0
91
1
92
5
93
3
72
1
10
-62.5
20
12.7
11
-62.0392162584472
21
9.20000169255317
72
1
10
-62.0392162584472
20
9.20000169255317
11
-62.9607837415528
21
9.1999983074468
72
1
10
-62.9607837415528
20
9.1999983074468
11
-62.5
21
12.7
97
0
75
0
76
1
52
0
41
0.0062
77
0
78
1
53
45
43
0
44
0
45
-0.0139193969876572
46
0.0139193969876572
79
0
47
0
98
1
10
0
20
0
0
HATCH
5
13E
100
AcDbEntity
8
SK2
62
256
6
ByLayer
370
13
48
1
60
0
100
AcDbHatch
10
0
20
0
30
0
210
0
220
0
230
1
2
ANSI31
70
0
71
0
91
1
92
5
93
3
72
1
10
-62.5
20
-12.7
11
-62.9607837415528
21
-9.20000169255317
72
1
10
-62.9607837415528
20
-9.20000169255317
11
-62.0392162584472
21
-9.1999983074468
72
1
10
-62.0392162584472
20
-9.1999983074468
11
-62.5
21
-12.7
97
0
75
0
76
1
52
0
41
0.0062
77
0
78
1
53
45
43
0
44
0
45
-0.0139193969876572
46
0.0139193969876572
79
0
47
0
98
1
10
0
20
0
0
HATCH
5
144
100
AcDbEntity
8
2
62
256
6
ByLayer
370
13
48
1
60
0
100
AcDbHatch
10
0
20
0
30
0
210
0
220
0
230
1
2
ANSI31
70
0
71
0
91
1
92
5
93
3
72
1
10
108
20
10.7155
11
108.460783741553
21
7.21550169255318
72
1
10
108.460783741553
20
7.21550169255318
11
107.539216258447
21
7.21549830744681
72
1
10
107.539216258447
20
7.21549830744681
11
108
21
10.7155
97
0
75
0
76
1
52
0
41
0.0062
77
0
78
1
53
45
43
0
44
0
45
-0.0139193969876572
46
0.0139193969876572
79
0
47
0
98
1
10
0
20
0
0
HATCH
5
148
100
AcDbEntity
8
2
62
256
6
ByLayer
370
13
48
1
60
0
100
AcDbHatch
10
0
20
0
30
0
210
0
220
0
230
1
2
ANSI31
70
0
71
0
91
1
92
5
93
3
72
1
10
108
20
-10.7155
11
107.539216258447
21
-7.21550169255318
72
1
10
107.539216258447
20
-7.21550169255318
11
108.460783741553
21
-7.21549830744681
72
1
10
108.460783741553
20
-7.21549830744681
11
108
21
-10.7155
97
0
75
0
76
1
52
0
41
0.0062
77
0
78
1
53
45
43
0
44
0
45
-0.0139193969876572
46
0.0139193969876572
79
0
47
0
98
1
10
0
20
0
0
HATCH
5
14D
100
AcDbEntity
8
SK2
62
256
6
ByLayer
370
13
48
1
60
0
100
AcDbHatch
10
0
20
0
30
0
210
0
220
0
230
1
2
ANSI31
70
0
71
0
91
1
92
5
93
3
72
1
10
106.998382723188
20
-17.8541597949323
11
110.051575425693
21
-16.0820638240608
72
1
10
110.051575425693
20
-16.0820638240608
11
110.406195833975
21
-16.9326700737196
72
1
10
110.406195833975
20
-16.9326700737196
11
106.998382723188
21
-17.8541597949323
97
0
75
0
76
1
52
0
41
0.0062
77
0
78
1
53
45
43
0
44
0
45
-0.0139193969876572
46
0.0139193969876572
79
0
47
0
98
1
10
0
20
0
0
HATCH
5
151
100
AcDbEntity
8
SK2
62
256
6
ByLayer
370
13
48
1
60
0
100
AcDbHatch
10
0
20
0
30
0
210
0
220
0
230
1
2
ANSI31
70
0
71
0
91
1
92
5
93
3
72
1
10
106.998382723188
20
17.8541597949323
11
110.406192709519
21
16.9326713763016
72
1
10
110.406192709519
20
16.9326713763016
11
110.051578550149
21
16.0820625214788
72
1
10
110.051578550149
20
16.0820625214788
11
106.998382723188
21
17.8541597949323
97
0
75
0
76
1
52
0
41
0.0062
77
0
78
1
53
45
43
0
44
0
45
-0.0139193969876572
46
0.0139193969876572
79
0
47
0
98
1
10
0
20
0
0
DIMENSION
5
155
100
AcDbEntity
8
SK2
62
256
6
ByLayer
370
18
48
1
60
0
100
AcDbDimension
2
_U0
10
100.5
20
-45.952229
30
0
11
22.25
21
-45.952229
31
0
70
32
71
1
72
1
41
1
210
0
220
0
230
1
3
Standard
100
AcDbAlignedDimension
13
-56
23
-12.7
33
0
14
100.5
24
0
34
0
50
0
100
AcDbRotatedDimension
1001
ACAD
1000
DSTYLE
1002
{
1070
   371
1070
    13
1070
   372
1070
    13
1070
     3
1000

1070
   170
1070
     0
1070
   144
1040
1.0
1070
   277
1070
     2
1070
   284
1070
     8
1070
   278
1070
    46
1070
   146
1040
1.166667
1070
   345
1005
16
1070
   347
1005
16
1070
   346
1005
16
1070
   344
1005
0
1070
   343
1005
0
1070
   172
1070
     1
1070
    76
1070
     0
1070
    75
1070
     0
1070
   282
1070
     0
1070
   281
1070
     0
1070
    71
1070
     0
1070
    74
1070
     0
1070
   279
1070
     0
1070
   173
1070
     1
1070
   340
1005
134
1070
   271
1070
     2
1070
   272
1070
     3
1070
    77
1070
     1
1070
    73
1070
     1
1070
   171
1070
     3
1070
   274
1070
     4
1070
   177
1070
     2
1070
   176
1070
     2
1070
   178
1070
     2
1070
    78
1070
     8
1070
    48
1040
-0.1
1070
    41
1040
3.5
1070
   147
1040
1.5
1070
    42
1040
1.5875
1070
    44
1040
2.0
1070
   140
1040
3.0
1002
}
1001
ACAD_DSTYLE_DIM_LINETYPE
1070
   380
1005
16
1001
ACAD_DSTYLE_DIM_EXT1_LINETYPE
1070
   381
1005
16
1001
ACAD_DSTYLE_DIM_EXT2_LINETYPE
1070
   382
1005
16
0
DIMENSION
5
16E
100
AcDbEntity
8
SK2
62
256
6
ByLayer
370
18
48
1
60
0
100
AcDbDimension
2
_U1
10
3
20
-35.952229
30
0
11
51.75
21
-35.952229
31
0
70
32
71
1
72
1
41
1
210
0
220
0
230
1
3
Standard
100
AcDbAlignedDimension
13
100.5
23
0
33
0
14
3
24
-10.7155
34
0
50
0
100
AcDbRotatedDimension
1001
ACAD
1000
DSTYLE
1002
{
1070
   371
1070
    13
1070
   372
1070
    13
1070
     3
1000

1070
   170
1070
     0
1070
   144
1040
1.0
1070
   277
1070
     2
1070
   284
1070
     8
1070
   278
1070
    46
1070
   146
1040
1.166667
1070
   345
1005
16
1070
   347
1005
16
1070
   346
1005
16
1070
   344
1005
0
1070
   343
1005
0
1070
   172
1070
     1
1070
    76
1070
     0
1070
    75
1070
     0
1070
   282
1070
     0
1070
   281
1070
     0
1070
    71
1070
     0
1070
    74
1070
     0
1070
   279
1070
     0
1070
   173
1070
     1
1070
   340
1005
134
1070
   271
1070
     2
1070
   272
1070
     3
1070
    77
1070
     1
1070
    73
1070
     1
1070
   171
1070
     3
1070
   274
1070
     4
1070
   177
1070
     2
1070
   176
1070
     2
1070
   178
1070
     2
1070
    78
1070
     8
1070
    48
1040
-0.1
1070
    41
1040
3.5
1070
   147
1040
1.5
1070
    42
1040
1.5875
1070
    44
1040
2.0
1070
   140
1040
3.0
1002
}
1001
ACAD_DSTYLE_DIM_LINETYPE
1070
   380
1005
16
1001
ACAD_DSTYLE_DIM_EXT1_LINETYPE
1070
   381
1005
16
1001
ACAD_DSTYLE_DIM_EXT2_LINETYPE
1070
   382
1005
16
0
DIMENSION
5
186
100
AcDbEntity
8
SK2
62
256
6
ByLayer
370
18
48
1
60
0
100
AcDbDimension
2
_U2
10
0
20
-35.952229
30
0
11
-28
21
-35.952229
31
0
70
32
71
1
72
1
41
1
210
0
220
0
230
1
3
Standard
100
AcDbAlignedDimension
13
-56
23
-12.7
33
0
14
0
24
-12.7
34
0
50
0
100
AcDbRotatedDimension
1001
ACAD
1000
DSTYLE
1002
{
1070
   371
1070
    13
1070
   372
1070
    13
1070
     3
1000

1070
   170
1070
     0
1070
   144
1040
1.0
1070
   277
1070
     2
1070
   284
1070
     8
1070
   278
1070
    46
1070
   146
1040
1.166667
1070
   345
1005
16
1070
   347
1005
16
1070
   346
1005
16
1070
   344
1005
0
1070
   343
1005
0
1070
   172
1070
     1
1070
    76
1070
     0
1070
    75
1070
     0
1070
   282
1070
     0
1070
   281
1070
     0
1070
    71
1070
     0
1070
    74
1070
     0
1070
   279
1070
     0
1070
   173
1070
     1
1070
   340
1005
134
1070
   271
1070
     2
1070
   272
1070
     3
1070
    77
1070
     1
1070
    73
1070
     1
1070
   171
1070
     3
1070
   274
1070
     4
1070
   177
1070
     2
1070
   176
1070
     2
1070
   178
1070
     2
1070
    78
1070
     8
1070
    48
1040
-0.1
1070
    41
1040
3.5
1070
   147
1040
1.5
1070
    42
1040
1.5875
1070
    44
1040
2.0
1070
   140
1040
3.0
1002
}
1001
ACAD_DSTYLE_DIM_LINETYPE
1070
   380
1005
16
1001
ACAD_DSTYLE_DIM_EXT1_LINETYPE
1070
   381
1005
16
1001
ACAD_DSTYLE_DIM_EXT2_LINETYPE
1070
   382
1005
16
0
DIMENSION
5
19E
100
AcDbEntity
8
SK2
62
256
6
ByLayer
370
18
48
1
60
0
100
AcDbDimension
2
_U3
10
24
20
32.952229
30
0
11
62.25
21
32.952229
31
0
70
32
71
1
72
1
41
1
210
0
220
0
230
1
3
Standard
100
AcDbAlignedDimension
13
100.5
23
0
33
0
14
24
24
10.7155
34
0
50
0
100
AcDbRotatedDimension
1001
ACAD
1000
DSTYLE
1002
{
1070
   371
1070
    13
1070
   372
1070
    13
1070
     3
1000

1070
   170
1070
     0
1070
   144
1040
1.0
1070
   277
1070
     2
1070
   284
1070
     8
1070
   278
1070
    46
1070
   146
1040
1.166667
1070
   345
1005
16
1070
   347
1005
16
1070
   346
1005
16
1070
   344
1005
0
1070
   343
1005
0
1070
   172
1070
     1
1070
    76
1070
     0
1070
    75
1070
     0
1070
   282
1070
     0
1070
   281
1070
     0
1070
    71
1070
     0
1070
    74
1070
     0
1070
   279
1070
     0
1070
   173
1070
     1
1070
   340
1005
134
1070
   271
1070
     2
1070
   272
1070
     3
1070
    77
1070
     1
1070
    73
1070
     1
1070
   171
1070
     3
1070
   274
1070
     4
1070
   177
1070
     2
1070
   176
1070
     2
1070
   178
1070
     2
1070
    78
1070
     8
1070
    48
1040
-0.1
1070
    41
1040
3.5
1070
   147
1040
1.5
1070
    42
1040
1.5875
1070
    44
1040
2.0
1070
   140
1040
3.0
1002
}
1001
ACAD_DSTYLE_DIM_LINETYPE
1070
   380
1005
16
1001
ACAD_DSTYLE_DIM_EXT1_LINETYPE
1070
   381
1005
16
1001
ACAD_DSTYLE_DIM_EXT2_LINETYPE
1070
   382
1005
16
0
ENDSEC
0
SECTION
2
OBJECTS
0
DICTIONARY
5
226
330
0
100
AcDbDictionary
280
0
281
1
3
ACAD_GROUP
350
227
3
ACAD_MLINESTYLE
350
228
0
DICTIONARY
5
227
330
0
100
AcDbDictionary
280
0
281
1
0
DICTIONARY
5
228
330
0
100
AcDbDictionary
280
0
281
1
3
Standard
350
18
0
MLINESTYLE
5
18
330
228
100
AcDbMlineStyle
2
Standard
70
0
3

62
256
51
90
52
90
71
2
49
-0.5
62
256
6
ByLayer
49
0.5
62
256
6
ByLayer
0
RASTERVARIABLES
5
214
330

100
AcDbRasterVariables
90
0
70
1
71
1
72
1
0
ENDSEC
0
EOF
