0
SECTION
2
HEADER
9
$ACADVER
1
AC1015
9
$DWGCODEPAGE
3
ANSI_1252
9
$HANDSEED
5
246
9
$ANGBASE
50
0
9
$ANGDIR
70
0
9
$ATTMODE
70
1
9
$AUNITS
70
0
9
$AUPREC
70
0
9
$CECOLOR
62
256
9
$CELTSCALE
40
1
9
$CELTYPE
6
ByLayer
9
$CELWEIGHT
370
18
9
$CLAYER
8
0
9
$CMLJUST
70
0
9
$CMLSCALE
40
1
9
$CMLSTYLE
2
Standard
9
$DIMSTYLE
2
Standard
9
$TEXTSIZE
40
0.2
9
$TEXTSTYLE
7
Standard
9
$LUNITS
70
2
9
$LUPREC
70
4
9
$EXTNAMES
290
1
9
$INSUNITS
70
4
9
$LTSCALE
40
1
9
$LWDISPLAY
290
1
9
$PDMODE
70
0
9
$PDSIZE
40
0
9
$PLINEGEN
70
0
0
ENDSEC
0
SECTION
2
CLASSES
0
CLASS
1
RASTERVARIABLES
2
AcDbRasterVariables
3
ISM
90
0
280
0
281
0
0
ENDSEC
0
SECTION
2
TABLES
0
TABLE
2
VPORT
5
23c
100
AcDbSymbolTable
0
VPORT
5
1
100
AcDbSymbolTableRecord
100
AcDbViewportTableRecord
2
*Active
70
0
10
0
20
0
11
1
21
1
12
-1
22
1
13
0
23
0
14
0.5
24
0.5
15
10
25
10
16
0
26
0
36
1
17
0
27
0
37
0
0
ENDTAB
0
TABLE
2
LTYPE
5
23d
100
AcDbSymbolTable
0
LTYPE
5
14
100
AcDbSymbolTableRecord
100
AcDbLinetypeTableRecord
70
0
2
ByBlock
3

72
65
73
0
40
0
0
LTYPE
5
15
100
AcDbSymbolTableRecord
100
AcDbLinetypeTableRecord
70
0
2
ByLayer
3

72
65
73
0
40
0
0
LTYPE
5
16
100
AcDbSymbolTableRecord
100
AcDbLinetypeTableRecord
70
0
2
Continuous
3
Solid line
72
65
73
0
40
0
0
LTYPE
5
6E
100
AcDbSymbolTableRecord
100
AcDbLinetypeTableRecord
70
0
2
CENTER
3
____ _ ____ _ ____ _ ____
72
65
73
4
40
47.5
49
22
74
0
49
-8.5
74
0
49
8.5
74
0
49
-8.5
74
0
0
LTYPE
5
6F
100
AcDbSymbolTableRecord
100
AcDbLinetypeTableRecord
70
0
2
DASHED
3
__ __ __ __ __ __ __ __ __
72
65
73
2
40
25.72
49
12.86
74
0
49
-12.86
74
0
0
ENDTAB
0
TABLE
2
LAYER
5
23e
100
AcDbSymbolTable
0
LAYER
5
10
100
AcDbSymbolTableRecord
100
AcDbLayerTableRecord
2
0
70
0
62
7
6
Continuous
290
1
370
-3
390
0
0
LAYER
5
71
100
AcDbSymbolTableRecord
100
AcDbLayerTableRecord
2
80
70
0
62
-6
6
Continuous
290
1
370
-3
390
0
0
LAYER
5
73
100
AcDbSymbolTableRecord
100
AcDbLayerTableRecord
2
81
70
0
62
-3
6
Continuous
290
1
370
-3
390
0
0
LAYER
5
75
100
AcDbSymbolTableRecord
100
AcDbLayerTableRecord
2
1
70
0
62
4
6
Continuous
290
1
370
-3
390
0
0
LAYER
5
7F
100
AcDbSymbolTableRecord
100
AcDbLayerTableRecord
2
4
70
0
62
-2
6
CENTER
290
1
370
-3
390
0
0
LAYER
5
B1
100
AcDbSymbolTableRecord
100
AcDbLayerTableRecord
2
2
70
0
62
7
6
Continuous
290
1
370
-3
390
0
0
LAYER
5
16B
100
AcDbSymbolTableRecord
100
AcDbLayerTableRecord
2
Defpoints
70
0
62
7
6
Continuous
290
0
370
-3
390
0
0
LAYER
5
228
100
AcDbSymbolTableRecord
100
AcDbLayerTableRecord
2
SK4
70
0
62
2
6
CENTER
290
1
370
-3
390
0
0
LAYER
5
229
100
AcDbSymbolTableRecord
100
AcDbLayerTableRecord
2
SK1
70
0
62
4
6
Continuous
290
1
370
-3
390
0
0
LAYER
5
22a
100
AcDbSymbolTableRecord
100
AcDbLayerTableRecord
2
SK2
70
0
62
7
6
Continuous
290
1
370
-3
390
0
0
LAYER
5
22b
100
AcDbSymbolTableRecord
100
AcDbLayerTableRecord
2
SK6
70
0
62
5
6
Continuous
290
1
370
-3
390
0
0
ENDTAB
0
TABLE
2
STYLE
5
23f
100
AcDbSymbolTable
0
STYLE
5
11
100
AcDbSymbolTableRecord
100
AcDbTextStyleTableRecord
2
Standard
3
txt
70
0
71
0
40
0
41
1
42
0
50
0
0
STYLE
5
147
100
AcDbSymbolTableRecord
100
AcDbTextStyleTableRecord
2
iso_b_vert
3
simplex.shx
70
0
71
0
40
0
41
1
42
0
50
0
0
STYLE
5
148
100
AcDbSymbolTableRecord
100
AcDbTextStyleTableRecord
2
DWGDirectTextStyle
3
simplex
70
0
71
0
40
0
41
1
42
0
50
0
0
ENDTAB
0
TABLE
2
DIMSTYLE
5
240
100
AcDbSymbolTable
100
AcDbDimStyleTable
0
DIMSTYLE
105
27
100
AcDbSymbolTableRecord
100
AcDbDimStyleTableRecord
2
Standard
70
0
3
<>
41
0.18
42
0.0625
44
0.18
140
0.18
147
0.09
73
0
74
0
77
1
271
2
275
0
278
52
280
0
340
11
0
ENDTAB
0
TABLE
2
VIEW
5
241
100
AcDbSymbolTable
0
ENDTAB
0
TABLE
2
UCS
5
242
100
AcDbSymbolTable
0
ENDTAB
0
TABLE
2
APPID
5
243
100
AcDbSymbolTable
0
APPID
5
12
100
AcDbSymbolTableRecord
100
AcDbRegAppTableRecord
2
ACAD
70
0
0
APPID
5
167
100
AcDbSymbolTableRecord
100
AcDbRegAppTableRecord
2
ACAD_DSTYLE_DIMBREAK
70
0
0
APPID
5
1E7
100
AcDbSymbolTableRecord
100
AcDbRegAppTableRecord
2
ACAD_DSTYLE_DIM_LINETYPE
70
0
0
APPID
5
1E8
100
AcDbSymbolTableRecord
100
AcDbRegAppTableRecord
2
ACAD_DSTYLE_DIM_EXT1_LINETYPE
70
0
0
APPID
5
1E9
100
AcDbSymbolTableRecord
100
AcDbRegAppTableRecord
2
ACAD_DSTYLE_DIM_EXT2_LINETYPE
70
0
0
APPID
5
224
100
AcDbSymbolTableRecord
100
AcDbRegAppTableRecord
2
ACAD_MLEADERVER
70
0
0
ENDTAB
0
TABLE
2
BLOCK_RECORD
5
244
100
AcDbSymbolTable
0
BLOCK_RECORD
5
1F
100
AcDbSymbolTableRecord
100
AcDbBlockTableRecord
2
*Model_Space
340
0
70
0
0
BLOCK_RECORD
5
1B
100
AcDbSymbolTableRecord
100
AcDbBlockTableRecord
2
*Paper_Space
340
0
70
0
0
BLOCK_RECORD
5
23
100
AcDbSymbolTableRecord
100
AcDbBlockTableRecord
2
*Paper_Space0
340
0
70
0
0
BLOCK_RECORD
5
16C
100
AcDbSymbolTableRecord
100
AcDbBlockTableRecord
2
*D1
340
0
70
0
0
BLOCK_RECORD
5
178
100
AcDbSymbolTableRecord
100
AcDbBlockTableRecord
2
_U0
340
0
70
0
0
BLOCK_RECORD
5
184
100
AcDbSymbolTableRecord
100
AcDbBlockTableRecord
2
*D3
340
0
70
0
0
BLOCK_RECORD
5
190
100
AcDbSymbolTableRecord
100
AcDbBlockTableRecord
2
_U1
340
0
70
0
0
BLOCK_RECORD
5
19C
100
AcDbSymbolTableRecord
100
AcDbBlockTableRecord
2
*D5
340
0
70
0
0
BLOCK_RECORD
5
1A8
100
AcDbSymbolTableRecord
100
AcDbBlockTableRecord
2
_U2
340
0
70
0
0
BLOCK_RECORD
5
1B4
100
AcDbSymbolTableRecord
100
AcDbBlockTableRecord
2
*D7
340
0
70
0
0
BLOCK_RECORD
5
1C0
100
AcDbSymbolTableRecord
100
AcDbBlockTableRecord
2
_U3
340
0
70
0
0
ENDTAB
0
ENDSEC
0
SECTION
2
BLOCKS
0
BLOCK
5
20
100
AcDbEntity
8
0
100
AcDbBlockBegin
2
*Model_Space
70
0
10
0
20
0
30
0
3
*Model_Space
0
ENDBLK
5
21
100
AcDbEntity
8
0
100
AcDbBlockEnd
0
BLOCK
5
1C
100
AcDbEntity
8
0
100
AcDbBlockBegin
2
*Paper_Space
70
0
10
0
20
0
30
0
3
*Paper_Space
0
ENDBLK
5
1D
100
AcDbEntity
8
0
100
AcDbBlockEnd
0
BLOCK
5
24
100
AcDbEntity
8
0
100
AcDbBlockBegin
2
*Paper_Space0
70
0
10
0
20
0
30
0
3
*Paper_Space0
0
ENDBLK
5
25
100
AcDbEntity
8
0
100
AcDbBlockEnd
0
BLOCK
5
16D
100
AcDbEntity
8
0
100
AcDbBlockBegin
2
*D1
70
1
10
0
20
0
30
0
3
*D1
0
LINE
5
16F
100
AcDbEntity
8
0
62
256
6
ByLayer
370
-2
48
1
60
0
100
AcDbLine
10
-60
20
-17.5875
30
0
11
-60
21
-47.952229
31
0
39
0
210
0
220
0
230
1
0
LINE
5
170
100
AcDbEntity
8
0
62
256
6
ByLayer
370
-2
48
1
60
0
100
AcDbLine
10
110
20
-1.5875
30
0
11
110
21
-47.952229
31
0
39
0
210
0
220
0
230
1
0
LINE
5
171
100
AcDbEntity
8
0
62
256
6
ByLayer
370
-2
48
1
60
0
100
AcDbLine
10
-56.5
20
-45.952229
30
0
11
106.5
21
-45.952229
31
0
39
0
210
0
220
0
230
1
0
SOLID
5
172
100
AcDbEntity
8
0
62
256
6
ByLayer
370
-1
48
1
60
0
100
AcDbTrace
10
-56.5
20
-45.368896
30
0
11
-56.5
21
-46.535563
31
0
12
-60
22
-45.952229
32
0
13
-60
23
-45.952229
33
0
39
0
210
0
220
0
230
1
0
SOLID
5
173
100
AcDbEntity
8
0
62
256
6
ByLayer
370
-1
48
1
60
0
100
AcDbTrace
10
106.5
20
-46.535563
30
0
11
106.5
21
-45.368896
31
0
12
110
22
-45.952229
32
0
13
110
23
-45.952229
33
0
39
0
210
0
220
0
230
1
0
MTEXT
5
174
100
AcDbEntity
8
0
62
256
6
ByLayer
370
18
48
1
60
0
100
AcDbMText
10
25
20
-39.952229
30
0
210
0
220
0
230
1
1
\A1;170
40
3
41
0
44
1
50
0
71
5
72
5
7
iso_b_vert
0
POINT
5
175
100
AcDbEntity
8
Defpoints
62
0
6
ByLayer
370
-1
48
1
60
0
100
AcDbPoint
10
-60
20
-16
30
0
39
0
210
0
220
0
230
1
50
360
0
POINT
5
176
100
AcDbEntity
8
Defpoints
62
0
6
ByLayer
370
-1
48
1
60
0
100
AcDbPoint
10
110
20
0
30
0
39
0
210
0
220
0
230
1
50
360
0
POINT
5
177
100
AcDbEntity
8
Defpoints
62
0
6
ByLayer
370
-1
48
1
60
0
100
AcDbPoint
10
110
20
-45.952229
30
0
39
0
210
0
220
0
230
1
50
360
0
ENDBLK
5
16E
100
AcDbEntity
8
0
100
AcDbBlockEnd
0
BLOCK
5
17F
100
AcDbEntity
8
0
100
AcDbBlockBegin
2
_U0
70
0
10
0
20
0
30
0
3
_U0
0
MTEXT
5
179
100
AcDbEntity
8
SK2
62
256
6
ByLayer
370
18
48
1
60
0
100
AcDbMText
10
19.771658
20
-45.067115
30
0
210
0
220
0
230
1
1
\W0.7022;170.00
40
3
41
0
44
1.084337
50
0
71
7
72
5
7
iso_b_vert
0
LINE
5
17A
100
AcDbEntity
8
SK2
62
256
6
ByLayer
370
13
48
1
60
0
100
AcDbLine
10
-60
20
-17.5875
30
0
11
-60
21
-47.952229
31
0
39
0
210
0
220
0
230
1
0
LINE
5
17B
100
AcDbEntity
8
SK2
62
256
6
ByLayer
370
13
48
1
60
0
100
AcDbLine
10
110
20
-1.5875
30
0
11
110
21
-47.952229
31
0
39
0
210
0
220
0
230
1
0
LINE
5
17C
100
AcDbEntity
8
SK2
62
256
6
ByLayer
370
13
48
1
60
0
100
AcDbLine
10
-60
20
-45.952229
30
0
11
110
21
-45.952229
31
0
39
0
210
0
220
0
230
1
0
SOLID
5
17D
100
AcDbEntity
8
SK2
62
256
6
ByLayer
370
18
48
1
60
0
100
AcDbTrace
10
-60
20
-45.952229
30
0
11
-56.500002
21
-45.491446
31
0
12
-56.499998
22
-46.413013
32
0
13
-56.499998
23
-46.413013
33
0
39
0
210
0
220
0
230
1
0
SOLID
5
17E
100
AcDbEntity
8
SK2
62
256
6
ByLayer
370
18
48
1
60
0
100
AcDbTrace
10
110
20
-45.952229
30
0
11
106.500002
21
-46.413013
31
0
12
106.499998
22
-45.491446
32
0
13
106.499998
23
-45.491446
33
0
39
0
210
0
220
0
230
1
0
ENDBLK
5
180
100
AcDbEntity
8
0
100
AcDbBlockEnd
0
BLOCK
5
185
100
AcDbEntity
8
0
100
AcDbBlockBegin
2
*D3
70
1
10
0
20
0
30
0
3
*D3
0
LINE
5
187
100
AcDbEntity
8
0
62
256
6
ByLayer
370
-2
48
1
60
0
100
AcDbLine
10
110
20
-1.5875
30
0
11
110
21
-37.952229
31
0
39
0
210
0
220
0
230
1
0
LINE
5
188
100
AcDbEntity
8
0
62
256
6
ByLayer
370
-2
48
1
60
0
100
AcDbLine
10
3
20
-14.0875
30
0
11
3
21
-37.952229
31
0
39
0
210
0
220
0
230
1
0
LINE
5
189
100
AcDbEntity
8
0
62
256
6
ByLayer
370
-2
48
1
60
0
100
AcDbLine
10
106.5
20
-35.952229
30
0
11
6.5
21
-35.952229
31
0
39
0
210
0
220
0
230
1
0
SOLID
5
18A
100
AcDbEntity
8
0
62
256
6
ByLayer
370
-1
48
1
60
0
100
AcDbTrace
10
106.5
20
-36.535563
30
0
11
106.5
21
-35.368896
31
0
12
110
22
-35.952229
32
0
13
110
23
-35.952229
33
0
39
0
210
0
220
0
230
1
0
SOLID
5
18B
100
AcDbEntity
8
0
62
256
6
ByLayer
370
-1
48
1
60
0
100
AcDbTrace
10
6.5
20
-35.368896
30
0
11
6.5
21
-36.535563
31
0
12
3
22
-35.952229
32
0
13
3
23
-35.952229
33
0
39
0
210
0
220
0
230
1
0
MTEXT
5
18C
100
AcDbEntity
8
0
62
256
6
ByLayer
370
18
48
1
60
0
100
AcDbMText
10
56.5
20
-29.952229
30
0
210
0
220
0
230
1
1
\A1;107
40
3
41
0
44
1
50
0
71
5
72
5
7
iso_b_vert
0
POINT
5
18D
100
AcDbEntity
8
Defpoints
62
0
6
ByLayer
370
-1
48
1
60
0
100
AcDbPoint
10
110
20
0
30
0
39
0
210
0
220
0
230
1
50
360
0
POINT
5
18E
100
AcDbEntity
8
Defpoints
62
0
6
ByLayer
370
-1
48
1
60
0
100
AcDbPoint
10
3
20
-12.5
30
0
39
0
210
0
220
0
230
1
50
360
0
POINT
5
18F
100
AcDbEntity
8
Defpoints
62
0
6
ByLayer
370
-1
48
1
60
0
100
AcDbPoint
10
3
20
-35.952229
30
0
39
0
210
0
220
0
230
1
50
360
0
ENDBLK
5
186
100
AcDbEntity
8
0
100
AcDbBlockEnd
0
BLOCK
5
197
100
AcDbEntity
8
0
100
AcDbBlockBegin
2
_U1
70
0
10
0
20
0
30
0
3
_U1
0
MTEXT
5
191
100
AcDbEntity
8
SK2
62
256
6
ByLayer
370
18
48
1
60
0
100
AcDbMText
10
51.271658
20
-35.067115
30
0
210
0
220
0
230
1
1
\W0.7022;107.00
40
3
41
0
44
1.084337
50
0
71
7
72
5
7
iso_b_vert
0
LINE
5
192
100
AcDbEntity
8
SK2
62
256
6
ByLayer
370
13
48
1
60
0
100
AcDbLine
10
110
20
-1.5875
30
0
11
110
21
-37.952229
31
0
39
0
210
0
220
0
230
1
0
LINE
5
193
100
AcDbEntity
8
SK2
62
256
6
ByLayer
370
13
48
1
60
0
100
AcDbLine
10
3
20
-14.0875
30
0
11
3
21
-37.952229
31
0
39
0
210
0
220
0
230
1
0
LINE
5
194
100
AcDbEntity
8
SK2
62
256
6
ByLayer
370
13
48
1
60
0
100
AcDbLine
10
110
20
-35.952229
30
0
11
3
21
-35.952229
31
0
39
0
210
0
220
0
230
1
0
SOLID
5
195
100
AcDbEntity
8
SK2
62
256
6
ByLayer
370
18
48
1
60
0
100
AcDbTrace
10
110
20
-35.952229
30
0
11
106.500002
21
-36.413013
31
0
12
106.499998
22
-35.491446
32
0
13
106.499998
23
-35.491446
33
0
39
0
210
0
220
0
230
1
0
SOLID
5
196
100
AcDbEntity
8
SK2
62
256
6
ByLayer
370
18
48
1
60
0
100
AcDbTrace
10
3
20
-35.952229
30
0
11
6.499998
21
-35.491446
31
0
12
6.500002
22
-36.413013
32
0
13
6.500002
23
-36.413013
33
0
39
0
210
0
220
0
230
1
0
ENDBLK
5
198
100
AcDbEntity
8
0
100
AcDbBlockEnd
0
BLOCK
5
19D
100
AcDbEntity
8
0
100
AcDbBlockBegin
2
*D5
70
1
10
0
20
0
30
0
3
*D5
0
LINE
5
19F
100
AcDbEntity
8
0
62
256
6
ByLayer
370
-2
48
1
60
0
100
AcDbLine
10
-60
20
-17.5875
30
0
11
-60
21
-37.952229
31
0
39
0
210
0
220
0
230
1
0
LINE
5
1A0
100
AcDbEntity
8
0
62
256
6
ByLayer
370
-2
48
1
60
0
100
AcDbLine
10
0
20
-17.5875
30
0
11
0
21
-37.952229
31
0
39
0
210
0
220
0
230
1
0
LINE
5
1A1
100
AcDbEntity
8
0
62
256
6
ByLayer
370
-2
48
1
60
0
100
AcDbLine
10
-56.5
20
-35.952229
30
0
11
-3.5
21
-35.952229
31
0
39
0
210
0
220
0
230
1
0
SOLID
5
1A2
100
AcDbEntity
8
0
62
256
6
ByLayer
370
-1
48
1
60
0
100
AcDbTrace
10
-56.5
20
-35.368896
30
0
11
-56.5
21
-36.535563
31
0
12
-60
22
-35.952229
32
0
13
-60
23
-35.952229
33
0
39
0
210
0
220
0
230
1
0
SOLID
5
1A3
100
AcDbEntity
8
0
62
256
6
ByLayer
370
-1
48
1
60
0
100
AcDbTrace
10
-3.5
20
-36.535563
30
0
11
-3.5
21
-35.368896
31
0
12
0
22
-35.952229
32
0
13
0
23
-35.952229
33
0
39
0
210
0
220
0
230
1
0
MTEXT
5
1A4
100
AcDbEntity
8
0
62
256
6
ByLayer
370
18
48
1
60
0
100
AcDbMText
10
-30
20
-29.952229
30
0
210
0
220
0
230
1
1
\A1;60
40
3
41
0
44
1
50
0
71
5
72
5
7
iso_b_vert
0
POINT
5
1A5
100
AcDbEntity
8
Defpoints
62
0
6
ByLayer
370
-1
48
1
60
0
100
AcDbPoint
10
-60
20
-16
30
0
39
0
210
0
220
0
230
1
50
360
0
POINT
5
1A6
100
AcDbEntity
8
Defpoints
62
0
6
ByLayer
370
-1
48
1
60
0
100
AcDbPoint
10
0
20
-16
30
0
39
0
210
0
220
0
230
1
50
360
0
POINT
5
1A7
100
AcDbEntity
8
Defpoints
62
0
6
ByLayer
370
-1
48
1
60
0
100
AcDbPoint
10
0
20
-35.952229
30
0
39
0
210
0
220
0
230
1
50
360
0
ENDBLK
5
19E
100
AcDbEntity
8
0
100
AcDbBlockEnd
0
BLOCK
5
1AF
100
AcDbEntity
8
0
100
AcDbBlockBegin
2
_U2
70
0
10
0
20
0
30
0
3
_U2
0
MTEXT
5
1A9
100
AcDbEntity
8
SK2
62
256
6
ByLayer
370
18
48
1
60
0
100
AcDbMText
10
-34.48237
20
-35.067115
30
0
210
0
220
0
230
1
1
\W0.7468;60.00
40
3
41
0
44
1.084337
50
0
71
7
72
5
7
iso_b_vert
0
LINE
5
1AA
100
AcDbEntity
8
SK2
62
256
6
ByLayer
370
13
48
1
60
0
100
AcDbLine
10
-60
20
-17.5875
30
0
11
-60
21
-37.952229
31
0
39
0
210
0
220
0
230
1
0
LINE
5
1AB
100
AcDbEntity
8
SK2
62
256
6
ByLayer
370
13
48
1
60
0
100
AcDbLine
10
0
20
-17.5875
30
0
11
0
21
-37.952229
31
0
39
0
210
0
220
0
230
1
0
LINE
5
1AC
100
AcDbEntity
8
SK2
62
256
6
ByLayer
370
13
48
1
60
0
100
AcDbLine
10
-60
20
-35.952229
30
0
11
0
21
-35.952229
31
0
39
0
210
0
220
0
230
1
0
SOLID
5
1AD
100
AcDbEntity
8
SK2
62
256
6
ByLayer
370
18
48
1
60
0
100
AcDbTrace
10
-60
20
-35.952229
30
0
11
-56.500002
21
-35.491446
31
0
12
-56.499998
22
-36.413013
32
0
13
-56.499998
23
-36.413013
33
0
39
0
210
0
220
0
230
1
0
SOLID
5
1AE
100
AcDbEntity
8
SK2
62
256
6
ByLayer
370
18
48
1
60
0
100
AcDbTrace
10
0
20
-35.952229
30
0
11
-3.499998
21
-36.413013
31
0
12
-3.500002
22
-35.491446
32
0
13
-3.500002
23
-35.491446
33
0
39
0
210
0
220
0
230
1
0
ENDBLK
5
1B0
100
AcDbEntity
8
0
100
AcDbBlockEnd
0
BLOCK
5
1B5
100
AcDbEntity
8
0
100
AcDbBlockBegin
2
*D7
70
1
10
0
20
0
30
0
3
*D7
0
LINE
5
1B7
100
AcDbEntity
8
0
62
256
6
ByLayer
370
-2
48
1
60
0
100
AcDbLine
10
110
20
1.5875
30
0
11
110
21
34.952229
31
0
39
0
210
0
220
0
230
1
0
LINE
5
1B8
100
AcDbEntity
8
0
62
256
6
ByLayer
370
-2
48
1
60
0
100
AcDbLine
10
22
20
14.0875
30
0
11
22
21
34.952229
31
0
39
0
210
0
220
0
230
1
0
LINE
5
1B9
100
AcDbEntity
8
0
62
256
6
ByLayer
370
-2
48
1
60
0
100
AcDbLine
10
106.5
20
32.952229
30
0
11
25.5
21
32.952229
31
0
39
0
210
0
220
0
230
1
0
SOLID
5
1BA
100
AcDbEntity
8
0
62
256
6
ByLayer
370
-1
48
1
60
0
100
AcDbTrace
10
106.5
20
32.368896
30
0
11
106.5
21
33.535563
31
0
12
110
22
32.952229
32
0
13
110
23
32.952229
33
0
39
0
210
0
220
0
230
1
0
SOLID
5
1BB
100
AcDbEntity
8
0
62
256
6
ByLayer
370
-1
48
1
60
0
100
AcDbTrace
10
25.5
20
33.535563
30
0
11
25.5
21
32.368896
31
0
12
22
22
32.952229
32
0
13
22
23
32.952229
33
0
39
0
210
0
220
0
230
1
0
MTEXT
5
1BC
100
AcDbEntity
8
0
62
256
6
ByLayer
370
18
48
1
60
0
100
AcDbMText
10
66
20
38.952229
30
0
210
0
220
0
230
1
1
\A1;88
40
3
41
0
44
1
50
0
71
5
72
5
7
iso_b_vert
0
POINT
5
1BD
100
AcDbEntity
8
Defpoints
62
0
6
ByLayer
370
-1
48
1
60
0
100
AcDbPoint
10
110
20
0
30
0
39
0
210
0
220
0
230
1
50
360
0
POINT
5
1BE
100
AcDbEntity
8
Defpoints
62
0
6
ByLayer
370
-1
48
1
60
0
100
AcDbPoint
10
22
20
12.5
30
0
39
0
210
0
220
0
230
1
50
360
0
POINT
5
1BF
100
AcDbEntity
8
Defpoints
62
0
6
ByLayer
370
-1
48
1
60
0
100
AcDbPoint
10
22
20
32.952229
30
0
39
0
210
0
220
0
230
1
50
360
0
ENDBLK
5
1B6
100
AcDbEntity
8
0
100
AcDbBlockEnd
0
BLOCK
5
1C7
100
AcDbEntity
8
0
100
AcDbBlockBegin
2
_U3
70
0
10
0
20
0
30
0
3
_U3
0
MTEXT
5
1C1
100
AcDbEntity
8
SK2
62
256
6
ByLayer
370
18
48
1
60
0
100
AcDbMText
10
61.51763
20
33.837344
30
0
210
0
220
0
230
1
1
\W0.7468;88.00
40
3
41
0
44
1.084337
50
0
71
7
72
5
7
iso_b_vert
0
LINE
5
1C2
100
AcDbEntity
8
SK2
62
256
6
ByLayer
370
13
48
1
60
0
100
AcDbLine
10
110
20
1.5875
30
0
11
110
21
34.952229
31
0
39
0
210
0
220
0
230
1
0
LINE
5
1C3
100
AcDbEntity
8
SK2
62
256
6
ByLayer
370
13
48
1
60
0
100
AcDbLine
10
22
20
14.0875
30
0
11
22
21
34.952229
31
0
39
0
210
0
220
0
230
1
0
LINE
5
1C4
100
AcDbEntity
8
SK2
62
256
6
ByLayer
370
13
48
1
60
0
100
AcDbLine
10
110
20
32.952229
30
0
11
22
21
32.952229
31
0
39
0
210
0
220
0
230
1
0
SOLID
5
1C5
100
AcDbEntity
8
SK2
62
256
6
ByLayer
370
18
48
1
60
0
100
AcDbTrace
10
110
20
32.952229
30
0
11
106.500002
21
32.491446
31
0
12
106.499998
22
33.413013
32
0
13
106.499998
23
33.413013
33
0
39
0
210
0
220
0
230
1
0
SOLID
5
1C6
100
AcDbEntity
8
SK2
62
256
6
ByLayer
370
18
48
1
60
0
100
AcDbTrace
10
22
20
32.952229
30
0
11
25.499998
21
33.413013
31
0
12
25.500002
22
32.491446
32
0
13
25.500002
23
32.491446
33
0
39
0
210
0
220
0
230
1
0
ENDBLK
5
1C8
100
AcDbEntity
8
0
100
AcDbBlockEnd
0
ENDSEC
0
SECTION
2
ENTITIES
0
ARC
5
C2
100
AcDbEntity
8
SK2
62
256
6
ByLayer
370
13
48
1
60
0
100
AcDbCircle
39
0
10
110
20
0
30
0
40
19
210
0
220
0
230
1
100
AcDbArc
50
290
51
70
0
ELLIPSE
5
C3
100
AcDbEntity
8
SK1
62
256
6
ByLayer
370
18
48
1
60
0
100
AcDbEllipse
10
375.907546
20
0
30
0
11
458.180052524353
21
-5.19163675692399E-13
31
0
210
0
220
0
230
1
40
0.034921
41
2.59367031451701
42
2.79796683129766
0
ELLIPSE
5
C4
100
AcDbEntity
8
SK1
62
256
6
ByLayer
370
18
48
1
60
0
100
AcDbEllipse
10
-29.157899
20
0
30
0
11
17.1578993603954
21
-1.94416104542868E-14
31
0
210
0
220
0
230
1
40
0.932515
41
-0.494065251162693
42
0.494065251162695
0
ELLIPSE
5
C5
100
AcDbEntity
8
SK1
62
256
6
ByLayer
370
18
48
1
60
0
100
AcDbEllipse
10
375.907546
20
0
30
0
11
458.180052528051
21
-5.19163675696589E-13
31
0
210
0
220
0
230
1
40
0.034921
41
-2.79796683129846
42
-2.59367031451889
0
ELLIPSE
5
C6
100
AcDbEntity
8
SK1
62
256
6
ByLayer
370
18
48
1
60
0
100
AcDbEllipse
10
-42.079759
20
0
30
0
11
-2.93905524917505E-15
21
-16.0000000000073
31
0
210
0
220
0
230
1
40
0.932515
41
-1.80249142112189
42
-1.3391012324679
0
POINT
5
70
100
AcDbEntity
8
80
62
256
6
ByLayer
370
18
48
1
60
0
100
AcDbPoint
10
0
20
0
30
0
39
0
210
0
220
0
230
1
50
360
0
POINT
5
72
100
AcDbEntity
8
81
62
256
6
ByLayer
370
18
48
1
60
0
100
AcDbPoint
10
110
20
0
30
0
39
0
210
0
220
0
230
1
50
360
0
POINT
5
74
100
AcDbEntity
8
1
62
256
6
ByLayer
370
18
48
1
60
1
100
AcDbPoint
10
-60
20
-16
30
0
39
0
210
0
220
0
230
1
50
360
0
POINT
5
76
100
AcDbEntity
8
1
62
256
6
ByLayer
370
18
48
1
60
1
100
AcDbPoint
10
110
20
0
30
0
39
0
210
0
220
0
230
1
50
360
0
POINT
5
77
100
AcDbEntity
8
1
62
256
6
ByLayer
370
18
48
1
60
1
100
AcDbPoint
10
110
20
0
30
0
39
0
210
0
220
0
230
1
50
360
0
POINT
5
78
100
AcDbEntity
8
1
62
256
6
ByLayer
370
18
48
1
60
1
100
AcDbPoint
10
3
20
-12.5
30
0
39
0
210
0
220
0
230
1
50
360
0
POINT
5
79
100
AcDbEntity
8
1
62
256
6
ByLayer
370
18
48
1
60
1
100
AcDbPoint
10
-60
20
-16
30
0
39
0
210
0
220
0
230
1
50
360
0
POINT
5
7A
100
AcDbEntity
8
1
62
256
6
ByLayer
370
18
48
1
60
1
100
AcDbPoint
10
0
20
-16
30
0
39
0
210
0
220
0
230
1
50
360
0
POINT
5
7B
100
AcDbEntity
8
1
62
256
6
ByLayer
370
18
48
1
60
1
100
AcDbPoint
10
110
20
0
30
0
39
0
210
0
220
0
230
1
50
360
0
POINT
5
7C
100
AcDbEntity
8
1
62
256
6
ByLayer
370
18
48
1
60
1
100
AcDbPoint
10
22
20
12.5
30
0
39
0
210
0
220
0
230
1
50
360
0
SPLINE
5
C7
100
AcDbEntity
8
1
62
256
6
ByLayer
370
18
48
1
60
0
100
AcDbSpline
70
4
71
3
72
8
73
4
40
0
40
0
40
0
40
0
40
1
40
1
40
1
40
1
41
1
10
94.2
20
-12.4628344183683
30
0
41
1
10
95.0596356169176
20
-12.4863802330476
30
0
41
1
10
95.918667400026
20
-12.4982863216032
30
0
41
1
10
96.7768495535394
20
-12.4984396113936
30
0
0
SPLINE
5
C8
100
AcDbEntity
8
1
62
256
6
ByLayer
370
18
48
1
60
0
100
AcDbSpline
70
4
71
3
72
126
73
122
40
0
40
0
40
0
40
0
40
0.0312500000000036
40
0.0312500000000036
40
0.0625000000000073
40
0.0625000000000073
40
0.0781250000000089
40
0.0781250000000089
40
0.0859375000000094
40
0.0859375000000094
40
0.09375000000001
40
0.09375000000001
40
0.109375000000011
40
0.109375000000011
40
0.125000000000012
40
0.125000000000012
40
0.156250000000015
40
0.156250000000015
40
0.164062500000015
40
0.164062500000015
40
0.171875000000016
40
0.171875000000016
40
0.187500000000017
40
0.187500000000017
40
0.203125000000019
40
0.203125000000019
40
0.21875000000002
40
0.21875000000002
40
0.234375000000021
40
0.234375000000021
40
0.250000000000022
40
0.250000000000022
40
0.281250000000024
40
0.281250000000024
40
0.312500000000026
40
0.312500000000026
40
0.328125000000027
40
0.328125000000027
40
0.343750000000028
40
0.343750000000028
40
0.37500000000003
40
0.37500000000003
40
0.390625000000031
40
0.390625000000031
40
0.398437500000031
40
0.398437500000031
40
0.406250000000031
40
0.406250000000031
40
0.421875000000032
40
0.421875000000032
40
0.437500000000033
40
0.437500000000033
40
0.468750000000035
40
0.468750000000035
40
0.476562500000036
40
0.476562500000036
40
0.484375000000037
40
0.484375000000037
40
0.500000000000037
40
0.500000000000037
40
0.515625000000038
40
0.515625000000038
40
0.531250000000039
40
0.531250000000039
40
0.54687500000004
40
0.54687500000004
40
0.55468750000004
40
0.55468750000004
40
0.56250000000004
40
0.56250000000004
40
0.59375000000004
40
0.59375000000004
40
0.625000000000039
40
0.625000000000039
40
0.632812500000039
40
0.632812500000039
40
0.640625000000039
40
0.640625000000039
40
0.648437500000038
40
0.648437500000038
40
0.656250000000038
40
0.656250000000038
40
0.687500000000033
40
0.687500000000033
40
0.703125000000031
40
0.703125000000031
40
0.718750000000028
40
0.718750000000028
40
0.726562500000026
40
0.726562500000026
40
0.734375000000025
40
0.734375000000025
40
0.750000000000022
40
0.750000000000022
40
0.781250000000017
40
0.781250000000017
40
0.796875000000015
40
0.796875000000015
40
0.804687500000014
40
0.804687500000014
40
0.812500000000013
40
0.812500000000013
40
0.843750000000008
40
0.843750000000008
40
0.859375000000006
40
0.859375000000006
40
0.875000000000005
40
0.875000000000005
40
0.882812500000004
40
0.882812500000004
40
0.890625000000004
40
0.890625000000004
40
0.906250000000003
40
0.906250000000003
40
0.937500000000002
40
0.937500000000002
40
0.953125000000001
40
0.953125000000001
40
0.96875
40
0.96875
40
1
40
1
40
1
40
1
41
1
10
19.7856178428604
20
7.67214514609114
30
0
41
1
10
20.5607804090104
20
7.45697104384132
30
0
41
1
10
21.3361175817109
20
7.23711565438748
30
0
41
1
10
22.8867230760292
20
6.78730626987775
30
0
41
1
10
23.6619960856999
20
6.55736230480184
30
0
41
1
10
24.8245689173938
20
6.20415876828156
30
0
41
1
10
25.2120196122962
20
6.08499759898319
30
0
41
1
10
25.7931318875372
20
5.90420884396951
30
0
41
1
10
25.9868347650954
20
5.84362763536728
30
0
41
1
10
26.3743269839579
20
5.7220500324255
30
0
41
1
10
26.5681191741725
20
5.66106117666726
30
0
41
1
10
27.1496117733902
20
5.47744483151396
30
0
41
1
10
27.5374733874458
20
5.35413591536144
30
0
41
1
10
28.313161551444
20
5.1056799067124
30
0
41
1
10
28.7009571492347
20
4.98055546801842
30
0
41
1
10
29.8641398697808
20
4.60234591960204
30
0
41
1
10
30.6393122108436
20
4.34640235848701
30
0
41
1
10
31.6076993592201
20
4.02106919366096
30
0
41
1
10
31.8013519860937
20
3.95574260044742
30
0
41
1
10
32.1887080087662
20
3.82483720502549
30
0
41
1
10
32.3824200414192
20
3.75928179393608
30
0
41
1
10
32.9636479502332
20
3.56228389861178
30
0
41
1
10
33.3512477663655
20
3.43048905544552
30
0
41
1
10
34.126601514423
20
3.16578155062317
30
0
41
1
10
34.5143595612974
20
3.03287990567696
30
0
41
1
10
35.2899989135563
20
2.76587486450191
30
0
41
1
10
35.6779241195667
20
2.63175272320529
30
0
41
1
10
36.4534357538753
20
2.36230339498775
30
0
41
1
10
36.8410607004087
20
2.22696364466782
30
0
41
1
10
37.6160009824371
20
1.95491620374932
30
0
41
1
10
38.003314949872
20
1.81820357294507
30
0
41
1
10
39.1657013145449
20
1.40854948421918
30
0
41
1
10
39.9409228611809
20
1.13527294601306
30
0
41
1
10
41.4915166207019
20
0.587148349621799
30
0
41
1
10
42.2669040400031
20
0.312342913661638
30
0
41
1
10
43.429837982807
20
-0.101801912458541
30
0
41
1
10
43.8173942401586
20
-0.240291487947872
30
0
41
1
10
44.5925728057992
20
-0.516164886987553
30
0
41
1
10
44.9802103463312
20
-0.653681509067894
30
0
41
1
10
46.1431258446717
20
-1.06538075844949
30
0
41
1
10
46.9184281081614
20
-1.33865393692409
30
0
41
1
10
48.0811565598119
20
-1.74751316217862
30
0
41
1
10
48.4686939510652
20
-1.88362754257059
30
0
41
1
10
49.0499066633095
20
-2.08763552844656
30
0
41
1
10
49.2436243842883
20
-2.15562279872481
30
0
41
1
10
49.63104620565
20
-2.29149317834958
30
0
41
1
10
49.8247552419685
20
-2.35936249708414
30
0
41
1
10
50.4060363069232
20
-2.56233049863675
30
0
41
1
10
50.7937404583263
20
-2.69685042694613
30
0
41
1
10
51.5694121871899
20
-2.96459779913838
30
0
41
1
10
51.9572400162876
20
-3.09776912200937
30
0
41
1
10
53.1205285726018
20
-3.49530802104695
30
0
41
1
10
53.8958464057577
20
-3.75771553534165
30
0
41
1
10
54.864491277575
20
-4.08307038799757
30
0
41
1
10
55.0581942864198
20
-4.14801040467736
30
0
41
1
10
55.4455483818751
20
-4.27762606796253
30
0
41
1
10
55.6392023076024
20
-4.34229391790245
30
0
41
1
10
56.2202457463853
20
-4.53547865199528
30
0
41
1
10
56.6077538714823
20
-4.66308123232875
30
0
41
1
10
57.3829685160432
20
-4.91617408271458
30
0
41
1
10
57.7706724643415
20
-5.04167074578197
30
0
41
1
10
58.5462332154029
20
-5.29067453325749
30
0
41
1
10
58.934138265319
20
-5.41419339788951
30
0
41
1
10
59.7098274307992
20
-5.65928017950887
30
0
41
1
10
60.0975583370949
20
-5.78083267133258
30
0
41
1
10
60.6789483154511
20
-5.96175276009177
30
0
41
1
10
60.8727105439719
20
-6.02182461925116
30
0
41
1
10
61.2601603161984
20
-6.14150947844095
30
0
41
1
10
61.4538435989641
20
-6.20113251071598
30
0
41
1
10
62.4222693193398
20
-6.49761728519255
30
0
41
1
10
63.1973751958737
20
-6.72879391711305
30
0
41
1
10
64.7478875011229
20
-7.18031858711271
30
0
41
1
10
65.5233024616654
20
-7.40064594432542
30
0
41
1
10
66.4925334523383
20
-7.66974226153661
30
0
41
1
10
66.6863777705611
20
-7.7232451332699
30
0
41
1
10
67.0740570678569
20
-7.82962643978956
30
0
41
1
10
67.2678612331594
20
-7.88251223774935
30
0
41
1
10
67.6554057004313
20
-7.98752791703075
30
0
41
1
10
67.8491635383143
20
-8.03963965425143
30
0
41
1
10
68.2367256816778
20
-8.14291513798389
30
0
41
1
10
68.4305204705125
20
-8.19409954772283
30
0
41
1
10
69.3995305158539
20
-8.44783658595625
30
0
41
1
10
70.174830079536
20
-8.64389824917259
30
0
41
1
10
71.3376545937501
20
-8.92819416725527
30
0
41
1
10
71.7252412106363
20
-9.02132526395144
30
0
41
1
10
72.5003239548309
20
-9.20438927575768
30
0
41
1
10
72.8878080094197
20
-9.29434393687936
30
0
41
1
10
73.4689723690286
20
-9.42683624124436
30
0
41
1
10
73.6626937733258
20
-9.4705746145533
30
0
41
1
10
74.0502424583646
20
-9.55701242600827
30
0
41
1
10
74.2440640940593
20
-9.59972255850323
30
0
41
1
10
74.8256507268736
20
-9.72636958983901
30
0
41
1
10
75.2135276512274
20
-9.80882968944408
30
0
41
1
10
76.3768684893673
20
-10.0503550077144
30
0
41
1
10
77.1522844564685
20
-10.2035977764453
30
0
41
1
10
78.3149130961779
20
-10.4222042519031
30
0
41
1
10
78.7023706298693
20
-10.4931971852248
30
0
41
1
10
79.283403925148
20
-10.5968764351003
30
0
41
1
10
79.4770602186088
20
-10.6309612157426
30
0
41
1
10
79.8644309293414
20
-10.6980401364991
30
0
41
1
10
80.0581533591181
20
-10.7310240406982
30
0
41
1
10
81.026930324446
20
-10.8932106446028
30
0
41
1
10
81.8024293021417
20
-11.0142998641976
30
0
41
1
10
82.9660903024694
20
-11.1834112153363
30
0
41
1
10
83.3539029709087
20
-11.2376667094119
30
0
41
1
10
84.1291541468004
20
-11.341965105716
30
0
41
1
10
84.5166210506017
20
-11.3920119158357
30
0
41
1
10
85.0975474567917
20
-11.4639352026662
30
0
41
1
10
85.2911398980178
20
-11.4873881452237
30
0
41
1
10
85.6783123094173
20
-11.5331648626236
30
0
41
1
10
85.8719044359743
20
-11.555477674503
30
0
41
1
10
86.4527384531071
20
-11.6206648926603
30
0
41
1
10
86.8400132009214
20
-11.6618128644733
30
0
41
1
10
88.0018672860629
20
-11.7784950256399
30
0
41
1
10
88.776500033372
20
-11.8472619579696
30
0
41
1
10
89.9382769858102
20
-11.9370521499151
30
0
41
1
10
90.325506316717
20
-11.9647521736303
30
0
41
1
10
91.0998593082688
20
-12.0156729036704
30
0
41
1
10
91.4869395363331
20
-12.0389055075755
30
0
41
1
10
92.6488640071768
20
-12.1014539680612
30
0
41
1
10
93.4241963997853
20
-12.1337679582988
30
0
41
1
10
94.2
20
-12.1568660772182
30
0
0
SPLINE
5
C9
100
AcDbEntity
8
1
62
256
6
ByLayer
370
18
48
1
60
0
100
AcDbSpline
70
4
71
3
72
87
73
83
40
0
40
0
40
0
40
0
40
0.0206746465015357
40
0.0206746465015357
40
0.0424374321348347
40
0.0424374321348347
40
0.0642002177681337
40
0.0642002177681337
40
0.0750816105847825
40
0.0750816105847825
40
0.0859630034014314
40
0.0859630034014314
40
0.129488574668027
40
0.129488574668027
40
0.151251360301324
40
0.151251360301324
40
0.162132753117973
40
0.162132753117973
40
0.173014145934622
40
0.173014145934622
40
0.216539717201219
40
0.216539717201219
40
0.260065288467816
40
0.260065288467816
40
0.281828074101114
40
0.281828074101114
40
0.303590859734412
40
0.303590859734412
40
0.347116431001009
40
0.347116431001009
40
0.368879216634307
40
0.368879216634307
40
0.390642002267605
40
0.390642002267605
40
0.412404787900904
40
0.412404787900904
40
0.434167573534202
40
0.434167573534202
40
0.477693144800799
40
0.477693144800799
40
0.488574537617448
40
0.488574537617448
40
0.499455930434098
40
0.521218716067397
40
0.521218716067397
40
0.564744287333995
40
0.564744287333995
40
0.575625680150645
40
0.575625680150645
40
0.586507072967295
40
0.586507072967295
40
0.608269858600594
40
0.608269858600594
40
0.651795429867193
40
0.651795429867193
40
0.673558215500492
40
0.673558215500492
40
0.684439608317142
40
0.684439608317142
40
0.695321001133792
40
0.695321001133792
40
0.717083786767093
40
0.717083786767093
40
0.738846572400393
40
0.738846572400393
40
0.782372143666994
40
0.782372143666994
40
0.804134929300295
40
0.804134929300295
40
0.825897714933595
40
0.825897714933595
40
0.847660500566896
40
0.847660500566896
40
0.869423286200197
40
0.869423286200197
40
0.891186071833497
40
0.891186071833497
40
0.912948857466798
40
0.912948857466798
40
0.956474428733399
40
0.956474428733399
40
1
40
1
40
1
40
1
41
1
10
71.6763090705435
20
-9.01203923260042
30
0
41
1
10
71.2810249164691
20
-9.10655798566569
30
0
41
1
10
70.8856262797623
20
-9.19926393127369
30
0
41
1
10
70.0739925866884
20
-9.38583058967575
30
0
41
1
10
69.6578759444854
20
-9.47946877973305
30
0
41
1
10
68.8258884196139
20
-9.66271902499466
30
0
41
1
10
68.4100317778443
20
-9.75235451048067
30
0
41
1
10
67.7863960314595
20
-9.88370176599614
30
0
41
1
10
67.5785289686079
20
-9.92694385173985
30
0
41
1
10
67.1627450990669
20
-10.0122308839542
30
0
41
1
10
66.9548360594331
20
-10.0542890055182
30
0
41
1
10
65.9152139145407
20
-10.2616783948079
30
0
41
1
10
65.0832709799634
20
-10.4183235333611
30
0
41
1
10
63.8351311236977
20
-10.6396557147906
30
0
41
1
10
63.4190485303882
20
-10.7111597053383
30
0
41
1
10
62.7948935935249
20
-10.8150153366583
30
0
41
1
10
62.5868312701941
20
-10.8490673517073
30
0
41
1
10
62.1708270741236
20
-10.9160143830202
30
0
41
1
10
61.9628715349231
20
-10.9489138845518
30
0
41
1
10
60.9231292492617
20
-11.1102900508201
30
0
41
1
10
60.0912542917341
20
-11.2291904840163
30
0
41
1
10
58.4274868701687
20
-11.4470209426203
30
0
41
1
10
57.5955978704168
20
-11.5459575463415
30
0
41
1
10
56.3479389418026
20
-11.6794414915019
30
0
41
1
10
55.9321300486974
20
-11.7214778872114
30
0
41
1
10
55.1001653396083
20
-11.8002165248669
30
0
41
1
10
54.68396672041
20
-11.8369339538164
30
0
41
1
10
53.4356340734716
20
-11.9391411833462
30
0
41
1
10
52.6035581101922
20
-11.9967181675357
30
0
41
1
10
51.3558226368696
20
-12.0673555505681
30
0
41
1
10
50.9399763421295
20
-12.0882770929852
30
0
41
1
10
50.1084395593494
20
-12.1248409290396
30
0
41
1
10
49.6927499957199
20
-12.1404746906865
30
0
41
1
10
48.8610315745514
20
-12.166307609976
30
0
41
1
10
48.4450535611741
20
-12.1765281860854
30
0
41
1
10
47.6128861129238
20
-12.1916121964337
30
0
41
1
10
47.1966411257356
20
-12.196475667268
30
0
41
1
10
45.9480241125224
20
-12.2030338549532
30
0
41
1
10
45.1160245487287
20
-12.1967128793249
30
0
41
1
10
44.0766278300085
20
-12.1753025737707
30
0
41
1
10
43.8687699161125
20
-12.1703445853051
30
0
41
1
10
43.4530063524613
20
-12.1590960872015
30
0
41
1
10
42.8293037484861
20
-12.140223434624
30
0
41
1
10
42.2054469084105
20
-12.1153773876629
30
0
41
1
10
40.9575626750994
20
-12.0577498622163
30
0
41
1
10
40.1254062870467
20
-12.0087704013688
30
0
41
1
10
39.0850674453344
20
-11.9341906167448
30
0
41
1
10
38.8770096753762
20
-11.9186067514661
30
0
41
1
10
38.4610056119924
20
-11.8861028145313
30
0
41
1
10
38.2530513933593
20
-11.8691781135195
30
0
41
1
10
37.6292383927918
20
-11.8164418041252
30
0
41
1
10
37.2133608894102
20
-11.7787155988385
30
0
41
1
10
35.9656297452274
20
-11.6579658599317
30
0
41
1
10
35.133730636097
20
-11.5673505409203
30
0
41
1
10
33.8859095423462
20
-11.4161841416541
30
0
41
1
10
33.4699759775486
20
-11.3632490553452
30
0
41
1
10
32.8461075412097
20
-11.279979860432
30
0
41
1
10
32.6381581022297
20
-11.2515772245934
30
0
41
1
10
32.2222651452822
20
-11.1934810816933
30
0
41
1
10
32.0143193488571
20
-11.1637894125994
30
0
41
1
10
31.3903466036389
20
-11.0729396599129
30
0
41
1
10
30.9741667152342
20
-11.0100021218228
30
0
41
1
10
30.142013651726
20
-10.8794786641917
30
0
41
1
10
29.725975002541
20
-10.8118839898072
30
0
41
1
10
28.4780048810454
20
-10.6020872105656
30
0
41
1
10
27.6462190813987
20
-10.4528872781746
30
0
41
1
10
26.3990143896797
20
-10.2147083744611
30
0
41
1
10
25.9833876276285
20
-10.1328630428315
30
0
41
1
10
25.1518191279813
20
-9.96509562320321
30
0
41
1
10
24.7359156711203
20
-9.87912030528554
30
0
41
1
10
23.903897530767
20
-9.70296952932114
30
0
41
1
10
23.4877820155796
20
-9.61279541504595
30
0
41
1
10
22.6553607182456
20
-9.42821435178388
30
0
41
1
10
22.2391374892474
20
-9.33382516514251
30
0
41
1
10
21.4070587165926
20
-9.14085768737772
30
0
41
1
10
20.9911546819545
20
-9.04225817968504
30
0
41
1
10
20.1596150090422
20
-8.84080512938243
30
0
41
1
10
19.7439353301863
20
-8.73803182818298
30
0
41
1
10
18.4965990819827
20
-8.42471054799537
30
0
41
1
10
17.6648368982803
20
-8.20880814651272
30
0
41
1
10
16.0010644407329
20
-7.76271850111914
30
0
41
1
10
15.1690511023662
20
-7.53254063580147
30
0
41
1
10
14.3370434115909
20
-7.29481943297236
30
0
0
SPLINE
5
CA
100
AcDbEntity
8
1
62
256
6
ByLayer
370
18
48
1
60
0
100
AcDbSpline
70
4
71
3
72
20
73
16
40
0
40
0
40
0
40
0
40
0.124999999999991
40
0.124999999999991
40
0.18749999999999
40
0.18749999999999
40
0.249999999999989
40
0.249999999999989
40
0.499999999999997
40
0.499999999999997
40
0.624999999999998
40
0.624999999999998
40
0.749999999999998
40
0.749999999999998
40
1
40
1
40
1
40
1
41
1
10
105.450372071675
20
-1.78405528167201
30
0
41
1
10
104.981064176503
20
-1.61518210890969
30
0
41
1
10
104.511995265388
20
-1.44572157944705
30
0
41
1
10
103.808783345216
20
-1.19055923791365
30
0
41
1
10
103.574446981371
20
-1.10533668197564
30
0
41
1
10
103.105781748422
20
-0.934908012034128
30
0
41
1
10
102.871446223144
20
-0.849720280498445
30
0
41
1
10
101.699764650751
20
-0.423884776923245
30
0
41
1
10
100.762411102507
20
-0.083533782977014
30
0
41
1
10
99.3565995045765
20
0.427158034726318
30
0
41
1
10
98.8880354290757
20
0.597425268199316
30
0
41
1
10
97.95103365853
20
0.938160986213859
30
0
41
1
10
97.4826525432237
20
1.10878517118243
30
0
41
1
10
96.0767663164505
20
1.61838856841663
30
0
41
1
10
95.1387067288285
20
1.95561946150443
30
0
41
1
10
94.2
20
2.29077371276281
30
0
0
SPLINE
5
CB
100
AcDbEntity
8
1
62
256
6
ByLayer
370
18
48
1
60
0
100
AcDbSpline
70
4
71
3
72
94
73
90
40
0
40
0
40
0
40
0
40
0.0312499999999984
40
0.0312499999999984
40
0.0624999999999968
40
0.0624999999999968
40
0.0937499999999951
40
0.0937499999999951
40
0.124999999999994
40
0.124999999999994
40
0.140624999999993
40
0.140624999999993
40
0.148437499999993
40
0.148437499999993
40
0.156249999999993
40
0.187499999999991
40
0.187499999999991
40
0.218749999999989
40
0.218749999999989
40
0.249999999999988
40
0.249999999999988
40
0.281249999999986
40
0.281249999999986
40
0.296874999999985
40
0.296874999999985
40
0.304687499999985
40
0.304687499999985
40
0.312499999999984
40
0.312499999999984
40
0.343749999999984
40
0.343749999999984
40
0.374999999999983
40
0.374999999999983
40
0.406249999999983
40
0.406249999999983
40
0.437499999999982
40
0.437499999999982
40
0.445312499999982
40
0.445312499999982
40
0.453124999999983
40
0.468749999999982
40
0.468749999999982
40
0.499999999999982
40
0.499999999999982
40
0.531249999999981
40
0.531249999999981
40
0.539062499999981
40
0.539062499999981
40
0.546874999999981
40
0.562499999999981
40
0.562499999999981
40
0.59374999999998
40
0.59374999999998
40
0.62499999999998
40
0.62499999999998
40
0.63281249999998
40
0.63281249999998
40
0.64062499999998
40
0.656249999999979
40
0.656249999999979
40
0.687499999999979
40
0.687499999999979
40
0.718749999999979
40
0.718749999999979
40
0.726562499999979
40
0.726562499999979
40
0.734374999999978
40
0.734374999999978
40
0.749999999999979
40
0.749999999999979
40
0.78124999999998
40
0.78124999999998
40
0.812499999999982
40
0.812499999999982
40
0.843749999999983
40
0.843749999999983
40
0.851562499999983
40
0.851562499999983
40
0.859374999999983
40
0.874999999999984
40
0.874999999999984
40
0.906249999999988
40
0.937499999999992
40
0.968749999999997
40
0.968749999999997
40
0.976562499999997
40
0.976562499999997
40
0.984374999999998
40
1
40
1
40
1
40
1
41
1
10
105.450372071672
20
12.1030603756126
30
0
41
1
10
105.528439733806
20
11.9094941282009
30
0
41
1
10
105.606630086549
20
11.7130221111885
30
0
41
1
10
105.763388937508
20
11.3147246285243
30
0
41
1
10
105.841957298154
20
11.1128981427747
30
0
41
1
10
105.999565306417
20
10.7042219981219
30
0
41
1
10
106.078605010807
20
10.4973717761703
30
0
41
1
10
106.237211081686
20
10.0788770659773
30
0
41
1
10
106.316777724178
20
9.86723232098797
30
0
41
1
10
106.436532228894
20
9.5462742839544
30
0
41
1
10
106.47651746184
20
9.43870577666289
30
0
41
1
10
106.536593337828
20
9.27648632931621
30
0
41
1
10
106.556648802574
20
9.22223109014854
30
0
41
1
10
106.596720658506
20
9.11362453723424
30
0
41
1
10
106.696752809638
20
8.84200072208057
30
0
41
1
10
106.796057434717
20
8.56984824985992
30
0
41
1
10
106.953948539403
20
8.13372287655892
30
0
41
1
10
107.032396926995
20
7.91531980448002
30
0
41
1
10
107.188118687426
20
7.47778162795751
30
0
41
1
10
107.265393842868
20
7.25864714586956
30
0
41
1
10
107.41843592096
20
6.81953580514354
30
0
41
1
10
107.494205926023
20
6.59956005148396
30
0
41
1
10
107.606310909431
20
6.26881825350037
30
0
41
1
10
107.64341877928
20
6.15844048145942
30
0
41
1
10
107.698614722517
20
5.99265144519012
30
0
41
1
10
107.716945150942
20
5.93732212787592
30
0
41
1
10
107.753388272529
20
5.8267272090946
30
0
41
1
10
107.771491146512
20
5.771491743816
30
0
41
1
10
107.861375441094
20
5.49561113704434
30
0
41
1
10
107.931288622828
20
5.27585862779228
30
0
41
1
10
108.065863778848
20
4.83788293410856
30
0
41
1
10
108.130534081021
20
4.61966191854373
30
0
41
1
10
108.25265776982
20
4.18430235312329
30
0
41
1
10
108.310121465337
20
3.96716471928065
30
0
41
1
10
108.414874221779
20
3.53339000194691
30
0
41
1
10
108.462167982154
20
3.31675114369742
30
0
41
1
10
108.512292834169
20
3.04581950991113
30
0
41
1
10
108.521869559232
20
2.9915993758876
30
0
41
1
10
108.540020551339
20
2.88324859835652
30
0
41
1
10
108.565672083424
20
2.72129340283323
30
0
41
1
10
108.586322986167
20
2.56107346608164
30
0
41
1
10
108.620285748182
20
2.24303715852781
30
0
41
1
10
108.633069890564
20
2.03420688728906
30
0
41
1
10
108.636538858427
20
1.6236785960067
30
0
41
1
10
108.627203716032
20
1.42198401597236
30
0
41
1
10
108.601811342417
20
1.17497948300431
30
0
41
1
10
108.596047973148
20
1.12579479163946
30
0
41
1
10
108.58321257156
20
1.02812901455002
30
0
41
1
10
108.562067003704
20
0.883191052033595
30
0
41
1
10
108.535572554577
20
0.742876873993566
30
0
41
1
10
108.476343149509
20
0.468262417635799
30
0
41
1
10
108.428570512623
20
0.293193429812646
30
0
41
1
10
108.320766664377
20
-0.0415642563347944
30
0
41
1
10
108.260744484758
20
-0.201257468101573
30
0
41
1
10
108.180050975783
20
-0.391412240589744
30
0
41
1
10
108.16361414344
20
-0.428995229165054
30
0
41
1
10
108.130258797002
20
-0.503094821023382
30
0
41
1
10
108.079601452738
20
-0.612428633487468
30
0
41
1
10
108.027265291901
20
-0.716423160468878
30
0
41
1
10
107.920761384919
20
-0.917508174225247
30
0
41
1
10
107.847340928728
20
-1.042378673255
30
0
41
1
10
107.697089930131
20
-1.27436674202141
30
0
41
1
10
107.620249213033
20
-1.38148095128176
30
0
41
1
10
107.522529761748
20
-1.50429875774191
30
0
41
1
10
107.502901200669
20
-1.52830727123521
30
0
41
1
10
107.463482049683
20
-1.57520969287549
30
0
41
1
10
107.443675110241
20
-1.59812088047462
30
0
41
1
10
107.384269035472
20
-1.66489929962708
30
0
41
1
10
107.344618567486
20
-1.7068961662369
30
0
41
1
10
107.225589927173
20
-1.82549155989452
30
0
41
1
10
107.146140423684
20
-1.89471014384279
30
0
41
1
10
106.987191520462
20
-2.01396041718348
30
0
41
1
10
106.907689638967
20
-2.06399010702606
30
0
41
1
10
106.748611478949
20
-2.14489270369478
30
0
41
1
10
106.66903406499
20
-2.17576560995383
30
0
41
1
10
106.56943277917
20
-2.20213017014956
30
0
41
1
10
106.549489936875
20
-2.20679272825882
30
0
41
1
10
106.50976336909
20
-2.21485127839438
30
0
41
1
10
106.450356157055
20
-2.22505662057674
30
0
41
1
10
106.391477346392
20
-2.22967767065831
30
0
41
1
10
106.274372536592
20
-2.23160140568569
30
0
41
1
10
106.119973129918
20
-2.21467644078555
30
0
41
1
10
105.892780319771
20
-2.13188564136556
30
0
41
1
10
105.743722026992
20
-2.03835882954678
30
0
41
1
10
105.651144035683
20
-1.96766442410919
30
0
41
1
10
105.632667237779
20
-1.95291898484564
30
0
41
1
10
105.595868047163
20
-1.92228159806086
30
0
41
1
10
105.540865885423
20
-1.87457907409049
30
0
41
1
10
105.486430299912
20
-1.82165451244955
30
0
41
1
10
105.450372071672
20
-1.78405528167121
30
0
0
SPLINE
5
CC
100
AcDbEntity
8
1
62
256
6
ByLayer
370
18
48
1
60
0
100
AcDbSpline
70
4
71
3
72
22
73
18
40
0
40
0
40
0
40
0
40
0.0273359648649571
40
0.0273359648649571
40
0.108391301126209
40
0.108391301126209
40
0.18944663738746
40
0.18944663738746
40
0.351557309909963
40
0.351557309909963
40
0.675778654954977
40
0.675778654954977
40
0.756833991216233
40
0.756833991216233
40
0.837889327477489
40
0.837889327477489
40
1
40
1
40
1
40
1
41
1
10
96.7768489641331
20
12.4984396112884
30
0
41
1
10
96.8558667716854
20
12.4984537260638
30
0
41
1
10
96.9348773761185
20
12.4983682011666
30
0
41
1
10
97.2481372411683
20
12.4976336452061
30
0
41
1
10
97.4823372126129
20
12.4962030494152
30
0
41
1
10
97.9508104489263
20
12.49159253028
30
0
41
1
10
98.1850768414018
20
12.4884140753631
30
0
41
1
10
98.8879294745308
20
12.4762757210068
30
0
41
1
10
99.3565612705274
20
12.4647136114826
30
0
41
1
10
100.762515512217
20
12.4196609952534
30
0
41
1
10
101.69991522426
20
12.3758450267832
30
0
41
1
10
102.871364608133
20
12.3034630483409
30
0
41
1
10
103.105627279444
20
12.2880962447281
30
0
41
1
10
103.574214057726
20
12.255630195991
30
0
41
1
10
103.808564510555
20
12.2385454519848
30
0
41
1
10
104.511863327414
20
12.1847959461406
30
0
41
1
10
104.981009413037
20
12.1456122906672
30
0
41
1
10
105.450372071675
20
12.1030603756126
30
0
0
SPLINE
5
CD
100
AcDbEntity
8
1
62
256
6
ByLayer
370
18
48
1
60
0
100
AcDbSpline
70
4
71
3
72
44
73
40
40
0
40
0
40
0
40
0
40
0.0193548183002466
40
0.0193548183002466
40
0.0709677226002277
40
0.0709677226002277
40
0.0967741747502203
40
0.0967741747502203
40
0.122580626900213
40
0.122580626900213
40
0.174193531200197
40
0.174193531200197
40
0.277419339800166
40
0.277419339800166
40
0.329032244100152
40
0.329032244100152
40
0.354838696250145
40
0.354838696250145
40
0.380645148400138
40
0.380645148400138
40
0.483870957000113
40
0.483870957000113
40
0.535483861300103
40
0.535483861300103
40
0.587096765600092
40
0.587096765600092
40
0.612903217750088
40
0.612903217750088
40
0.638709669900084
40
0.638709669900084
40
0.690322574200074
40
0.690322574200074
40
0.793548382800052
40
0.793548382800052
40
0.84516128710004
40
0.84516128710004
40
0.896774191400028
40
0.896774191400028
40
1
40
1
40
1
40
1
41
1
10
71.6767811696208
20
9.0092074070152
30
0
41
1
10
71.8221205036681
20
9.04398346758626
30
0
41
1
10
71.9674547244683
20
9.07853280454998
30
0
41
1
10
72.500323954831
20
9.20438927575765
30
0
41
1
10
72.8878080094197
20
9.29434393687939
30
0
41
1
10
73.4689723690286
20
9.4268362412443
30
0
41
1
10
73.6626937733258
20
9.47057461455327
30
0
41
1
10
74.0502424583647
20
9.55701242600827
30
0
41
1
10
74.2440640940594
20
9.59972255850323
30
0
41
1
10
74.8256507268736
20
9.72636958983898
30
0
41
1
10
75.2135276512275
20
9.80882968944408
30
0
41
1
10
76.3768684893672
20
10.0503550077144
30
0
41
1
10
77.1522844564684
20
10.2035977764452
30
0
41
1
10
78.3149130961779
20
10.4222042519031
30
0
41
1
10
78.7023706298692
20
10.4931971852247
30
0
41
1
10
79.283403925148
20
10.5968764351003
30
0
41
1
10
79.4770602186088
20
10.6309612157426
30
0
41
1
10
79.8644309293413
20
10.6980401364991
30
0
41
1
10
80.0581533591181
20
10.7310240406982
30
0
41
1
10
81.026930324446
20
10.8932106446028
30
0
41
1
10
81.8024293021416
20
11.0142998641976
30
0
41
1
10
82.9660903024695
20
11.1834112153363
30
0
41
1
10
83.3539029709087
20
11.2376667094119
30
0
41
1
10
84.1291541468004
20
11.341965105716
30
0
41
1
10
84.5166210506017
20
11.3920119158357
30
0
41
1
10
85.0975474567919
20
11.4639352026662
30
0
41
1
10
85.2911398980179
20
11.4873881452237
30
0
41
1
10
85.6783123094172
20
11.5331648626236
30
0
41
1
10
85.8719044359744
20
11.555477674503
30
0
41
1
10
86.4527384531073
20
11.6206648926603
30
0
41
1
10
86.8400132009214
20
11.6618128644733
30
0
41
1
10
88.0018672860629
20
11.7784950256399
30
0
41
1
10
88.776500033372
20
11.8472619579696
30
0
41
1
10
89.9382769858103
20
11.9370521499151
30
0
41
1
10
90.325506316717
20
11.9647521736303
30
0
41
1
10
91.0998593082688
20
12.0156729036704
30
0
41
1
10
91.4869395363331
20
12.0389055075755
30
0
41
1
10
92.6488640071768
20
12.1014539680612
30
0
41
1
10
93.4241963997853
20
12.1337679582988
30
0
41
1
10
94.2
20
12.1568660772182
30
0
0
SPLINE
5
CE
100
AcDbEntity
8
1
62
256
6
ByLayer
370
18
48
1
60
0
100
AcDbSpline
70
4
71
3
72
78
73
74
40
0
40
0
40
0
40
0
40
0.026037598150769
40
0.026037598150769
40
0.052075196301538
40
0.052075196301538
40
0.078112794452307
40
0.078112794452307
40
0.104150392603076
40
0.104150392603076
40
0.156225588904614
40
0.156225588904614
40
0.169244387979999
40
0.169244387979999
40
0.182263187055384
40
0.182263187055384
40
0.208300785206156
40
0.208300785206156
40
0.260375981507699
40
0.260375981507699
40
0.28641357965847
40
0.28641357965847
40
0.312451177809241
40
0.312451177809241
40
0.338488775960013
40
0.338488775960013
40
0.364526374110784
40
0.364526374110784
40
0.416601570412326
40
0.416601570412326
40
0.429620369487711
40
0.429620369487711
40
0.442639168563096
40
0.442639168563096
40
0.468676766713866
40
0.468676766713866
40
0.494714364864636
40
0.494714364864636
40
0.520751963015405
40
0.520751963015405
40
0.546789561166175
40
0.546789561166175
40
0.559808360241561
40
0.559808360241561
40
0.572827159316946
40
0.572827159316946
40
0.624902355618489
40
0.624902355618489
40
0.65093995376926
40
0.65093995376926
40
0.663958752844645
40
0.663958752844645
40
0.676977551920031
40
0.676977551920031
40
0.72905274822157
40
0.72905274822157
40
0.78112794452311
40
0.78112794452311
40
0.807165542673879
40
0.807165542673879
40
0.833203140824649
40
0.833203140824649
40
0.885278337126189
40
0.885278337126189
40
0.91131593527696
40
0.91131593527696
40
0.93735353342773
40
0.93735353342773
40
0.9633911315785
40
0.9633911315785
40
0.98942872972927
40
0.98942872972927
40
1
40
1
40
1
40
1
41
1
10
94.2
20
2.12685174149198
30
0
41
1
10
93.7837611097716
20
2.27221274227293
30
0
41
1
10
93.3676359241864
20
2.41712179794129
30
0
41
1
10
92.5356465278769
20
2.70612394215218
30
0
41
1
10
92.119806161459
20
2.85028210007891
30
0
41
1
10
91.2882828664971
20
3.13748589754121
30
0
41
1
10
90.8724924075576
20
3.28023750859754
30
0
41
1
10
90.0407697068172
20
3.56382372704829
30
0
41
1
10
89.6248549418752
20
3.70470617671674
30
0
41
1
10
88.3769829070584
20
4.12471853603427
30
0
41
1
10
87.544894494819
20
4.40120934193249
30
0
41
1
10
86.5047174598785
20
4.74279387993926
30
0
41
1
10
86.2966640073522
20
4.81091604605609
30
0
41
1
10
85.8806572933423
20
4.94671330008305
30
0
41
1
10
85.6726964102581
20
5.01438562599344
30
0
41
1
10
85.0488064439476
20
5.21637595769164
30
0
41
1
10
84.6328622683911
20
5.34964941707275
30
0
41
1
10
83.3850174239877
20
5.74544811794073
30
0
41
1
10
82.5530992148701
20
6.00394626288639
30
0
41
1
10
81.3053432735607
20
6.38403703625659
30
0
41
1
10
80.8894474371513
20
6.50946218605836
30
0
41
1
10
80.0577270997783
20
6.75781054322419
30
0
41
1
10
79.6419382986721
20
6.88081363412877
30
0
41
1
10
78.8099728663418
20
7.12323050412553
30
0
41
1
10
78.3937672982551
20
7.24274206966842
30
0
41
1
10
77.5614952274227
20
7.47829404034877
30
0
41
1
10
77.1454040163781
20
7.59434029377783
30
0
41
1
10
75.897298422096
20
7.9373816313767
30
0
41
1
10
75.0654565335527
20
8.15930053044357
30
0
41
1
10
74.0260837335345
20
8.42843984079968
30
0
41
1
10
73.8182295650962
20
8.48185111678913
30
0
41
1
10
73.4024775047644
20
8.58766778641319
30
0
41
1
10
73.1945729341261
20
8.64006020052295
30
0
41
1
10
72.5707739995453
20
8.79569670263209
30
0
41
1
10
72.1547969809901
20
8.89740587279633
30
0
41
1
10
71.3226457845161
20
9.09679444018636
30
0
41
1
10
70.9064373971571
20
9.19448017147778
30
0
41
1
10
70.0739925866885
20
9.38583058967578
30
0
41
1
10
69.6578759444855
20
9.47946877973305
30
0
41
1
10
68.825888419614
20
9.66271902499469
30
0
41
1
10
68.4100317778444
20
9.75235451048067
30
0
41
1
10
67.7863960314596
20
9.88370176599614
30
0
41
1
10
67.5785289686081
20
9.92694385173988
30
0
41
1
10
67.162745099067
20
10.0122308839543
30
0
41
1
10
66.9548360594333
20
10.0542890055182
30
0
41
1
10
65.9152139145408
20
10.2616783948079
30
0
41
1
10
65.0832709799634
20
10.4183235333611
30
0
41
1
10
63.8351311236978
20
10.6396557147906
30
0
41
1
10
63.4190485303882
20
10.7111597053383
30
0
41
1
10
62.7948935935249
20
10.8150153366583
30
0
41
1
10
62.5868312701942
20
10.8490673517073
30
0
41
1
10
62.1708270741236
20
10.9160143830202
30
0
41
1
10
61.9628715349231
20
10.9489138845518
30
0
41
1
10
60.9231292492618
20
11.1102900508201
30
0
41
1
10
60.0912542917342
20
11.2291904840163
30
0
41
1
10
58.4274868701687
20
11.4470209426203
30
0
41
1
10
57.5955978704168
20
11.5459575463415
30
0
41
1
10
56.3479389418026
20
11.6794414915019
30
0
41
1
10
55.9321300486975
20
11.7214778872114
30
0
41
1
10
55.1001653396083
20
11.8002165248669
30
0
41
1
10
54.6839667204101
20
11.8369339538164
30
0
41
1
10
53.4356340734716
20
11.9391411833462
30
0
41
1
10
52.6035581101923
20
11.9967181675357
30
0
41
1
10
51.3558226368697
20
12.0673555505681
30
0
41
1
10
50.9399763421295
20
12.0882770929852
30
0
41
1
10
50.1084395593495
20
12.1248409290396
30
0
41
1
10
49.69274999572
20
12.1404746906865
30
0
41
1
10
48.8610315745515
20
12.166307609976
30
0
41
1
10
48.4450535611742
20
12.1765281860854
30
0
41
1
10
47.6128861129239
20
12.1916121964337
30
0
41
1
10
47.1966411257356
20
12.196475667268
30
0
41
1
10
46.6114558655479
20
12.199549271685
30
0
41
1
10
46.4424932454225
20
12.1999961610994
30
0
41
1
10
46.2735481833031
20
12.2000014430068
30
0
0
SPLINE
5
CF
100
AcDbEntity
8
1
62
256
6
ByLayer
370
18
48
1
60
0
100
AcDbSpline
70
4
71
3
72
102
73
98
40
0
40
0
40
0
40
0
40
0.0625000000000052
40
0.0625000000000052
40
0.0937500000000079
40
0.0937500000000079
40
0.12500000000001
40
0.12500000000001
40
0.156250000000013
40
0.156250000000013
40
0.171875000000015
40
0.171875000000015
40
0.179687500000015
40
0.179687500000015
40
0.187500000000016
40
0.187500000000016
40
0.218750000000014
40
0.218750000000014
40
0.250000000000012
40
0.250000000000012
40
0.281250000000011
40
0.281250000000011
40
0.28906250000001
40
0.28906250000001
40
0.296875000000009
40
0.296875000000009
40
0.312500000000006
40
0.312500000000006
40
0.343750000000001
40
0.343750000000001
40
0.374999999999996
40
0.374999999999996
40
0.378906249999995
40
0.378906249999995
40
0.382812499999995
40
0.382812499999995
40
0.390624999999994
40
0.406249999999992
40
0.406249999999992
40
0.437499999999988
40
0.437499999999988
40
0.453124999999986
40
0.453124999999986
40
0.457031249999986
40
0.457031249999986
40
0.460937499999985
40
0.468749999999985
40
0.468749999999985
40
0.499999999999982
40
0.499999999999982
40
0.515624999999981
40
0.515624999999981
40
0.52343749999998
40
0.52734374999998
40
0.52734374999998
40
0.531249999999979
40
0.531249999999979
40
0.562499999999978
40
0.562499999999978
40
0.593749999999976
40
0.593749999999976
40
0.597656249999976
40
0.597656249999976
40
0.601562499999975
40
0.601562499999975
40
0.609374999999975
40
0.624999999999976
40
0.624999999999976
40
0.656249999999977
40
0.656249999999977
40
0.671874999999977
40
0.671874999999977
40
0.679687499999977
40
0.679687499999977
40
0.687499999999977
40
0.687499999999977
40
0.718749999999978
40
0.718749999999978
40
0.74999999999998
40
0.74999999999998
40
0.781249999999982
40
0.781249999999982
40
0.796874999999982
40
0.796874999999982
40
0.812499999999983
40
0.812499999999983
40
0.843749999999986
40
0.843749999999986
40
0.874999999999989
40
0.874999999999989
40
0.906249999999992
40
0.906249999999992
40
0.937499999999994
40
0.937499999999994
40
0.968749999999997
40
0.968749999999997
40
1
40
1
40
1
40
1
41
1
10
10
20
8.1056409870159
30
0
41
1
10
9.55823217765158
20
8.09746338264981
30
0
41
1
10
9.12722569618603
20
8.06699221497729
30
0
41
1
10
8.4964913722182
20
7.98394537446336
30
0
41
1
10
8.28888066002759
20
7.95001978582769
30
0
41
1
10
7.87893459087991
20
7.86872987569589
30
0
41
1
10
7.67659874682312
20
7.82136833415026
30
0
41
1
10
7.27726802697487
20
7.71197789600149
30
0
41
1
10
7.08027235278826
20
7.64995344989961
30
0
41
1
10
6.78889204856694
20
7.54470570852502
30
0
41
1
10
6.69245149402653
20
7.50758453582861
30
0
41
1
10
6.54884084318184
20
7.4486556065286
30
0
41
1
10
6.50111953401358
20
7.42845967047887
30
0
41
1
10
6.40614574291368
20
7.38699952348111
30
0
41
1
10
6.35898476218142
20
7.3657759411509
30
0
41
1
10
6.12481263482692
20
7.25715284689426
30
0
41
1
10
5.94269152157102
20
7.16225326689801
30
0
41
1
10
5.58909085100203
20
6.95525592748982
30
0
41
1
10
5.41760877071022
20
6.84316396956285
30
0
41
1
10
5.08574035207863
20
6.60011188561387
30
0
41
1
10
4.92534944686844
20
6.46916189618332
30
0
41
1
10
4.73229862271049
20
6.2921939628487
30
0
41
1
10
4.69406142651118
20
6.25613412856814
30
0
41
1
10
4.61835044467267
20
6.18263458192973
30
0
41
1
10
4.58090963834621
20
6.14522362786713
30
0
41
1
10
4.47034254095115
20
6.03147095830661
30
0
41
1
10
4.39878168194218
20
5.95342925328126
30
0
41
1
10
4.1906389856035
20
5.712471878424
30
0
41
1
10
4.06057495783588
20
5.54274763047655
30
0
41
1
10
3.818777991535
20
5.18350635806428
30
0
41
1
10
3.70703357959937
20
4.99400302101199
30
0
41
1
10
3.59262197941001
20
4.76826168853873
30
0
41
1
10
3.58006723091995
20
4.74300423819579
30
0
41
1
10
3.55527779888053
20
4.69213277466429
30
0
41
1
10
3.54303806478163
20
4.66650703249184
30
0
41
1
10
3.50693354579442
20
4.58936163291369
30
0
41
1
10
3.43705823434692
20
4.43374593821318
30
0
41
1
10
3.37418912007783
20
4.27413008479721
30
0
41
1
10
3.25789739737101
20
3.94945095222064
30
0
41
1
10
3.19292443458582
20
3.72575625104258
30
0
41
1
10
3.11537546596082
20
3.37855590703447
30
0
41
1
10
3.09285369935714
20
3.26087446905566
30
0
41
1
10
3.06905791767028
20
3.11121014032025
30
0
41
1
10
3.06451318741426
20
3.0811210200329
30
0
41
1
10
3.05589961730425
20
3.0209282014693
30
0
41
1
10
3.04368153418841
20
2.93055225442666
30
0
41
1
10
3.03355792959755
20
2.83991727051477
30
0
41
1
10
3.00442534580475
20
2.53722882494907
30
0
41
1
10
2.99582790783262
20
2.29325289778117
30
0
41
1
10
3.00483744023381
20
1.92456675953713
30
0
41
1
10
3.01150191293104
20
1.8012167419615
30
0
41
1
10
3.02706405484599
20
1.61550329520682
30
0
41
1
10
3.03623745690916
20
1.52247437877296
30
0
41
1
10
3.04752213475768
20
1.42918514694435
30
0
41
1
10
3.05551759855086
20
1.36693419471084
30
0
41
1
10
3.05975629883636
20
1.33574679715332
30
0
41
1
10
3.09992928268224
20
1.05559135353781
30
0
41
1
10
3.14981206235123
20
0.811208162323254
30
0
41
1
10
3.27591381283523
20
0.331037248662284
30
0
41
1
10
3.35214665092224
20
0.095254011657687
30
0
41
1
10
3.45224784467192
20
-0.165347400789614
30
0
41
1
10
3.46356994707696
20
-0.194238276543501
30
0
41
1
10
3.48661291505161
20
-0.251890689857078
30
0
41
1
10
3.49834146768757
20
-0.280670069579287
30
0
41
1
10
3.53401279320997
20
-0.36654975342438
30
0
41
1
10
3.60738105910002
20
-0.536689803537485
30
0
41
1
10
3.68664064383296
20
-0.702135715690076
30
0
41
1
10
3.8526105494241
20
-1.02713116976255
30
0
41
1
10
3.97317322378143
20
-1.2359482509498
30
0
41
1
10
4.16771107848587
20
-1.538491724691
30
0
41
1
10
4.23484447988639
20
-1.63755490889807
30
0
41
1
10
4.33886514308858
20
-1.78357755888919
30
0
41
1
10
4.3740462655918
20
-1.83175547542191
30
0
41
1
10
4.44513679457646
20
-1.92680757509356
30
0
41
1
10
4.48108387504976
20
-1.97373496366484
30
0
41
1
10
4.66275921171999
20
-2.20549652958473
30
0
41
1
10
4.8142909830475
20
-2.38173365191364
30
0
41
1
10
5.12826475053697
20
-2.7183585570034
30
0
41
1
10
5.29071281417239
20
-2.8787367065782
30
0
41
1
10
5.62536064290828
20
-3.18555772120055
30
0
41
1
10
5.79756381675088
20
-3.33199519204666
30
0
41
1
10
6.0624315657702
20
-3.54238607595877
30
0
41
1
10
6.15185648375436
20
-3.61100030858512
30
0
41
1
10
6.33260782231491
20
-3.74518679313522
30
0
41
1
10
6.42361173660277
20
-3.81052271462553
30
0
41
1
10
6.69836310585646
20
-4.00168526220844
30
0
41
1
10
6.88384711098502
20
-4.12267935355516
30
0
41
1
10
7.25875761572789
20
-4.3536954552691
30
0
41
1
10
7.44818421084227
20
-4.46371502956473
30
0
41
1
10
7.83038874706517
20
-4.67431860806914
30
0
41
1
10
8.02316603686609
20
-4.77490194615311
30
0
41
1
10
8.4115872396851
20
-4.96783601091053
30
0
41
1
10
8.60723005298405
20
-5.06018698274562
30
0
41
1
10
9.00103147358095
20
-5.23752882479434
30
0
41
1
10
9.19918887205716
20
-5.32252012264092
30
0
41
1
10
9.59783853072619
20
-5.4856718126124
30
0
41
1
10
9.79832982986619
20
-5.56383221026093
30
0
41
1
10
10
20
-5.63866575124729
30
0
0
SPLINE
5
D0
100
AcDbEntity
8
1
62
256
6
ByLayer
370
18
48
1
60
0
100
AcDbSpline
70
4
71
3
72
14
73
10
40
0
40
0
40
0
40
0
40
0.25
40
0.25
40
0.5
40
0.5
40
0.75
40
0.75
40
1
40
1
40
1
40
1
41
1
10
14.3370434115907
20
-7.2948194329723
30
0
41
1
10
13.9637908513855
20
-7.18487607045537
30
0
41
1
10
13.5940181451375
20
-7.06748707554996
30
0
41
1
10
12.8601417318683
20
-6.81936926636033
30
0
41
1
10
12.4960304908166
20
-6.68865999142179
30
0
41
1
10
11.7730631897614
20
-6.41394195355889
30
0
41
1
10
11.4142083574223
20
-6.26993920446981
30
0
41
1
10
10.7023469008391
20
-5.96670379290489
30
0
41
1
10
10.3493474109278
20
-5.80746673029438
30
0
41
1
10
10
20
-5.63866575124732
30
0
0
SPLINE
5
D1
100
AcDbEntity
8
1
62
256
6
ByLayer
370
18
48
1
60
0
100
AcDbSpline
70
4
71
4
72
16
73
11
40
0
40
0
40
0
40
0
40
0
40
0.293574203318628
40
0.293574203318628
40
0.293574203318628
40
0.706425796681367
40
0.706425796681367
40
0.706425796681367
40
1
40
1
40
1
40
1
40
1
41
0.996969731705432
10
19.7856178428599
20
7.67214514608988
30
0
41
0.994755707291775
10
19.6276748541846
20
7.20887351045318
30
0
41
0.993949357320638
10
19.3369774925067
20
6.38249379236328
30
0
41
1
10
18.9252129270133
20
5.2297967089406
30
0
41
1
10
17.86933511457
20
2.29444847239844
30
0
41
0.988033871712585
10
17.0613306272256
20
0.0640830892484278
30
0
41
1
10
16.2533261398812
20
-2.14464828377467
30
0
41
1
10
15.1974483274379
20
-5.01018834122817
30
0
41
0.993949357320638
10
14.7856837619445
20
-6.11968506442173
30
0
41
0.994755707291775
10
14.4949864002666
20
-6.89036790658285
30
0
41
0.996969731705432
10
14.3370434115913
20
-7.29481943297127
30
0
0
SPLINE
5
D2
100
AcDbEntity
8
1
62
256
6
ByLayer
370
18
48
1
60
0
100
AcDbSpline
70
4
71
3
72
27
73
23
40
0
40
0
40
0
40
0
40
0.124999999999966
40
0.124999999999966
40
0.249999999999933
40
0.249999999999933
40
0.374999999999899
40
0.374999999999899
40
0.406249999999894
40
0.421874999999893
40
0.421874999999893
40
0.437499999999893
40
0.437499999999893
40
0.499999999999903
40
0.499999999999903
40
0.624999999999927
40
0.624999999999927
40
0.749999999999951
40
0.749999999999951
40
0.874999999999976
40
0.874999999999976
40
1
40
1
40
1
40
1
41
1
10
10
20
8.1056409870159
30
0
41
1
10
10.3999244572435
20
8.2066127794676
30
0
41
1
10
10.8033203721557
20
8.28844882083578
30
0
41
1
10
11.6165314049914
20
8.4190488179388
30
0
41
1
10
12.026350788579
20
8.46778057805642
30
0
41
1
10
12.8521253868778
20
8.53500950181765
30
0
41
1
10
13.2680838224196
20
8.55348627567997
30
0
41
1
10
13.791765089206
20
8.55851417406552
30
0
41
1
10
13.9491497119997
20
8.55866303027017
30
0
41
1
10
14.106952253569
20
8.556784657268
30
0
41
1
10
14.2122465497066
20
8.55508286026881
30
0
41
1
10
14.2649016004822
20
8.55400753519598
30
0
41
1
10
14.5276972731851
20
8.54753292833317
30
0
41
1
10
14.7368919884505
20
8.53883500587398
30
0
41
1
10
15.361539258627
20
8.50273854223602
30
0
41
1
10
15.7740548242872
20
8.46534979273699
30
0
41
1
10
16.592212006217
20
8.36630581330613
30
0
41
1
10
16.9978508670461
20
8.30463270051982
30
0
41
1
10
17.8032412623177
20
8.1591712718465
30
0
41
1
10
18.2029939205839
20
8.07537898082575
30
0
41
1
10
18.9976682354605
20
7.88800521663279
30
0
41
1
10
19.3925961374541
20
7.7844411420825
30
0
41
1
10
19.7856178428602
20
7.67214514609122
30
0
0
SPLINE
5
D3
100
AcDbEntity
8
SK1
62
256
6
ByLayer
370
18
48
1
60
0
100
AcDbSpline
70
4
71
3
72
37
73
33
40
0
40
0
40
0
40
0
40
0.124999999999999
40
0.124999999999999
40
0.249999999999997
40
0.249999999999997
40
0.374999999999996
40
0.374999999999996
40
0.437499999999996
40
0.437499999999996
40
0.499999999999995
40
0.499999999999995
40
0.624999999999995
40
0.624999999999995
40
0.656249999999996
40
0.656249999999996
40
0.687499999999996
40
0.687499999999996
40
0.749999999999997
40
0.749999999999997
40
0.812499999999999
40
0.812499999999999
40
0.843749999999999
40
0.843749999999999
40
0.874999999999999
40
0.874999999999999
40
0.9375
40
0.9375
40
0.953125
40
0.953125
40
0.96875
40
1
40
1
40
1
40
1
41
1
10
-56.6013095599541
20
-3.67404242557649
30
0
41
1
10
-56.5818983671532
20
-3.76227101295461
30
0
41
1
10
-56.5608730792548
20
-3.84980231602845
30
0
41
1
10
-56.5149011456991
20
-4.02327304907473
30
0
41
1
10
-56.4899592553202
20
-4.1092138747162
30
0
41
1
10
-56.4351919062966
20
-4.27922783366643
30
0
41
1
10
-56.4053764863432
20
-4.36330392303796
30
0
41
1
10
-56.3559085219568
20
-4.48770487574166
30
0
41
1
10
-56.3386238532612
20
-4.52888499906533
30
0
41
1
10
-56.3022004610974
20
-4.6105950760475
30
0
41
1
10
-56.2830277903437
20
-4.65119311461675
30
0
41
1
10
-56.2224911706718
20
-4.77130399167868
30
0
41
1
10
-56.1782467144578
20
-4.84907413383172
30
0
41
1
10
-56.115968443464
20
-4.94231131697211
30
0
41
1
10
-56.10315836213
20
-4.96075692759766
30
0
41
1
10
-56.0767470461803
20
-4.99720157474036
30
0
41
1
10
-56.0631669720757
20
-5.01516889117784
30
0
41
1
10
-56.0213776959376
20
-5.06798704911631
30
0
41
1
10
-55.992061754375
20
-5.10185542724588
30
0
41
1
10
-55.9298321318183
20
-5.16631273888052
30
0
41
1
10
-55.8969272538349
20
-5.19690945406094
30
0
41
1
10
-55.8440712942131
20
-5.23964848292457
30
0
41
1
10
-55.8258658181591
20
-5.25336554431573
30
0
41
1
10
-55.7880772055068
20
-5.27956269503571
30
0
41
1
10
-55.7687283546429
20
-5.29187752331967
30
0
41
1
10
-55.7092375195426
20
-5.32619065397267
30
0
41
1
10
-55.6676447686972
20
-5.34560920419477
30
0
41
1
10
-55.6125612417126
20
-5.36437634382568
30
0
41
1
10
-55.6013755519815
20
-5.36785346658095
30
0
41
1
10
-55.5789098857052
20
-5.37414928699397
30
0
41
1
10
-55.5449888078968
20
-5.38263478003245
30
0
41
1
10
-55.5103812675636
20
-5.38816693911767
30
0
41
1
10
-55.4869828320874
20
-5.39045045482675
30
0
0
SPLINE
5
D4
100
AcDbEntity
8
SK1
62
256
6
ByLayer
370
18
48
1
60
0
100
AcDbSpline
70
4
71
3
72
38
73
34
40
0
40
0
40
0
40
0
40
0.0624999999999988
40
0.0624999999999988
40
0.0937499999999982
40
0.0937499999999982
40
0.109374999999998
40
0.109374999999998
40
0.124999999999999
40
0.124999999999999
40
0.187499999999997
40
0.187499999999997
40
0.218749999999997
40
0.218749999999997
40
0.249999999999996
40
0.249999999999996
40
0.312499999999996
40
0.312499999999996
40
0.374999999999996
40
0.374999999999996
40
0.437499999999996
40
0.437499999999996
40
0.468749999999996
40
0.468749999999996
40
0.499999999999996
40
0.499999999999996
40
0.624999999999997
40
0.624999999999997
40
0.749999999999998
40
0.749999999999998
40
0.874999999999999
40
0.874999999999999
40
1
40
1
40
1
40
1
41
1
10
-55.4869828320874
20
5.39045045482675
30
0
41
1
10
-55.5340112854939
20
5.38586082265942
30
0
41
1
10
-55.5792475407432
20
5.37567921640115
30
0
41
1
10
-55.6448597758275
20
5.35339526064908
30
0
41
1
10
-55.6663543340588
20
5.34479075805541
30
0
41
1
10
-55.6980700363939
20
5.33023526841174
30
0
41
1
10
-55.7085426555182
20
5.32511155488996
30
0
41
1
10
-55.7290868425515
20
5.31446061507978
30
0
41
1
10
-55.7391894091154
20
5.30891956332113
30
0
41
1
10
-55.7889172059676
20
5.28021446580462
30
0
41
1
10
-55.8262117488448
20
5.25408170222258
30
0
41
1
10
-55.87927436858
20
5.21118741343659
30
0
41
1
10
-55.8964771995976
20
5.19626735233749
30
0
41
1
10
-55.9300114215657
20
5.16530406746776
30
0
41
1
10
-55.9462917892921
20
5.14930296213541
30
0
41
1
10
-55.9934356942821
20
5.10035000843709
30
0
41
1
10
-56.0228020768564
20
5.06628595710666
30
0
41
1
10
-56.078326436026
20
4.99590453061043
30
0
41
1
10
-56.1044778219573
20
4.95958275029739
30
0
41
1
10
-56.1541566098393
20
4.88506830814691
30
0
41
1
10
-56.1776808746374
20
4.84687355258669
30
0
41
1
10
-56.2113079014024
20
4.78837896752557
30
0
41
1
10
-56.2222393682362
20
4.76867706562567
30
0
41
1
10
-56.2434756231488
20
4.72911675343036
30
0
41
1
10
-56.2537968848612
20
4.7092302403565
30
0
41
1
10
-56.3040524668077
20
4.60930752204828
30
0
41
1
10
-56.339989360063
20
4.52781806830399
30
0
41
1
10
-56.4056776145828
20
4.36246555081721
30
0
41
1
10
-56.4354058590262
20
4.27859519764016
30
0
41
1
10
-56.4900491389977
20
4.10890313734902
30
0
41
1
10
-56.5149546873468
20
4.02307844746088
30
0
41
1
10
-56.56088189532
20
3.84976160662609
30
0
41
1
10
-56.5818990222464
20
3.76226803539686
30
0
41
1
10
-56.6013095599541
20
3.67404242557649
30
0
0
SPLINE
5
D5
100
AcDbEntity
8
SK1
62
256
6
ByLayer
370
18
48
1
60
0
100
AcDbSpline
70
4
71
3
72
33
73
29
40
0
40
0
40
0
40
0
40
0.125000000000006
40
0.125000000000006
40
0.250000000000012
40
0.250000000000012
40
0.375000000000017
40
0.375000000000017
40
0.40625000000002
40
0.40625000000002
40
0.437500000000023
40
0.437500000000023
40
0.500000000000019
40
0.500000000000019
40
0.625000000000009
40
0.625000000000009
40
0.656250000000005
40
0.656250000000005
40
0.687500000000001
40
0.687500000000001
40
0.749999999999993
40
0.812499999999985
40
0.812499999999985
40
0.843749999999988
40
0.843749999999988
40
0.87499999999999
40
0.87499999999999
40
1
40
1
40
1
40
1
41
1
10
-14.051872681288
20
7.58734230610622
30
0
41
1
10
-14.0806477010082
20
7.63716049470688
30
0
41
1
10
-14.1111960666033
20
7.68574713585582
30
0
41
1
10
-14.1763795738798
20
7.78016829172287
30
0
41
1
10
-14.2110110664831
20
7.82600493913273
30
0
41
1
10
-14.2851110385999
20
7.91451556477941
30
0
41
1
10
-14.3245721279275
20
7.95719387593883
30
0
41
1
10
-14.3776213268518
20
8.00817431396229
30
0
41
1
10
-14.3884185818754
20
8.01825128676794
30
0
41
1
10
-14.4104115542246
20
8.03815365023897
30
0
41
1
10
-14.4216108037395
20
8.04798083475526
30
0
41
1
10
-14.455622663142
20
8.07687937861485
30
0
41
1
10
-14.4789160665747
20
8.09543103467254
30
0
41
1
10
-14.5508106006942
20
8.14878338695524
30
0
41
1
10
-14.6014062936362
20
8.18130323174049
30
0
41
1
10
-14.6687381239779
20
8.21735588111801
30
0
41
1
10
-14.6824104044294
20
8.22433484183665
30
0
41
1
10
-14.710192970406
20
8.23780190427706
30
0
41
1
10
-14.7242927464647
20
8.24428275713819
30
0
41
1
10
-14.7668701147152
20
8.26277278740699
30
0
41
1
10
-14.8246359059293
20
8.28501525135295
30
0
41
1
10
-14.8845078995177
20
8.30218349007504
30
0
41
1
10
-14.9302595196826
20
8.31302504752674
30
0
41
1
10
-14.9456514993249
20
8.31629937780269
30
0
41
1
10
-14.976730334019
20
8.3221411784192
30
0
41
1
10
-14.9924519952567
20
8.32471328587587
30
0
41
1
10
-15.0714171524834
20
8.33566995587665
30
0
41
1
10
-15.1349687406039
20
8.33829643503807
30
0
41
1
10
-15.198909252112
20
8.33463752287949
30
0
0
SPLINE
5
D6
100
AcDbEntity
8
SK1
62
256
6
ByLayer
370
18
48
1
60
0
100
AcDbSpline
70
4
71
3
72
28
73
24
40
0
40
0
40
0
40
0
40
0.124999999999995
40
0.124999999999995
40
0.187499999999992
40
0.187499999999992
40
0.24999999999999
40
0.24999999999999
40
0.374999999999983
40
0.374999999999983
40
0.437499999999979
40
0.437499999999979
40
0.499999999999976
40
0.499999999999976
40
0.624999999999981
40
0.624999999999981
40
0.687499999999984
40
0.687499999999984
40
0.749999999999987
40
0.749999999999987
40
0.874999999999994
40
0.874999999999994
40
1
40
1
40
1
40
1
41
1
10
-15.198909252112
20
-8.33463752287949
30
0
41
1
10
-15.1350143484387
20
-8.33829382518937
30
0
41
1
10
-15.0719017967204
20
-8.33565332559238
30
0
41
1
10
-14.978337274282
20
-8.32279548271791
30
0
41
1
10
-14.9473338896935
20
-8.31702027865589
30
0
41
1
10
-14.8856931933269
20
-8.30251274872501
30
0
41
1
10
-14.8554833479755
20
-8.29387762923409
30
0
41
1
10
-14.7669559756536
20
-8.26429996307647
30
0
41
1
10
-14.7105270717761
20
-8.23965842490713
30
0
41
1
10
-14.6292411643099
20
-8.19624288886422
30
0
41
1
10
-14.6029581616285
20
-8.18081975592636
30
0
41
1
10
-14.5521237698499
20
-8.14844888077508
30
0
41
1
10
-14.5275204196119
20
-8.13147265143903
30
0
41
1
10
-14.4558957807576
20
-8.07840113768455
30
0
41
1
10
-14.411048006958
20
-8.04017416621042
30
0
41
1
10
-14.347408645875
20
-7.9791980354984
30
0
41
1
10
-14.3267704985616
20
-7.9582267315275
30
0
41
1
10
-14.2867812208927
20
-7.91531082173958
30
0
41
1
10
-14.267487937703
20
-7.89343345035931
30
0
41
1
10
-14.2115013365259
20
-7.82665213506647
30
0
41
1
10
-14.1766922853205
20
-7.78060380498701
30
0
41
1
10
-14.1112733091055
20
-7.68587638410847
30
0
41
1
10
-14.080667629502
20
-7.63719499690606
30
0
41
1
10
-14.051872681288
20
-7.58734230610622
30
0
0
SPLINE
5
D7
100
AcDbEntity
8
1
62
256
6
ByLayer
370
13
48
1
60
0
100
AcDbSpline
70
4
71
3
72
78
73
74
40
0
40
0
40
0
40
0
40
0.0312499999999992
40
0.0312499999999992
40
0.0468749999999988
40
0.0468749999999988
40
0.0546874999999988
40
0.0546874999999988
40
0.0624999999999988
40
0.0624999999999988
40
0.093749999999998
40
0.093749999999998
40
0.124999999999997
40
0.124999999999997
40
0.156249999999996
40
0.156249999999996
40
0.187499999999996
40
0.187499999999996
40
0.218749999999995
40
0.218749999999995
40
0.249999999999994
40
0.249999999999994
40
0.281249999999993
40
0.281249999999993
40
0.312499999999993
40
0.312499999999993
40
0.343749999999992
40
0.343749999999992
40
0.374999999999991
40
0.374999999999991
40
0.40624999999999
40
0.40624999999999
40
0.43749999999999
40
0.43749999999999
40
0.468749999999989
40
0.468749999999989
40
0.499999999999988
40
0.499999999999988
40
0.515624999999988
40
0.515624999999988
40
0.523437499999988
40
0.523437499999988
40
0.531249999999988
40
0.531249999999988
40
0.562499999999989
40
0.562499999999989
40
0.593749999999989
40
0.593749999999989
40
0.62499999999999
40
0.62499999999999
40
0.656249999999991
40
0.656249999999991
40
0.687499999999992
40
0.687499999999992
40
0.718749999999993
40
0.718749999999993
40
0.749999999999994
40
0.749999999999994
40
0.781249999999995
40
0.781249999999995
40
0.812499999999995
40
0.812499999999995
40
0.843749999999996
40
0.843749999999996
40
0.874999999999997
40
0.874999999999997
40
0.906249999999998
40
0.906249999999998
40
0.937499999999999
40
0.937499999999999
40
0.968749999999999
40
0.968749999999999
40
1
40
1
40
1
40
1
41
1
10
94.2
20
-12.3597224589417
30
0
41
1
10
94.2616141760241
20
-12.42088724513
30
0
41
1
10
94.3232283520482
20
-12.4611405039862
30
0
41
1
10
94.4156496160843
20
-12.4927709325674
30
0
41
1
10
94.4464567040964
20
-12.4985292054298
30
0
41
1
10
94.4926673361144
20
-12.5003634302146
30
0
41
1
10
94.5080708801203
20
-12.4998505977281
30
0
41
1
10
94.5388779681323
20
-12.4965353296525
30
0
41
1
10
94.5542815121383
20
-12.4937294123633
30
0
41
1
10
94.6312992321685
20
-12.4738020398998
30
0
41
1
10
94.6929134081926
20
-12.4389590859946
30
0
41
1
10
94.8161417602408
20
-12.3278773071282
30
0
41
1
10
94.8777559362647
20
-12.2516279372136
30
0
41
1
10
95.0009842883129
20
-12.0550188138911
30
0
41
1
10
95.062598464337
20
-11.9346494990822
30
0
41
1
10
95.1858268163852
20
-11.6482924997606
30
0
41
1
10
95.2474409924091
20
-11.4822976466698
30
0
41
1
10
95.3706693444574
20
-11.104644623297
30
0
41
1
10
95.4322835204813
20
-10.892983003212
30
0
41
1
10
95.5555118725296
20
-10.4255787568831
30
0
41
1
10
95.6171260485536
20
-10.1698373354008
30
0
41
1
10
95.7403544006016
20
-9.6175198511358
30
0
41
1
10
95.8019685766258
20
-9.32094992354672
30
0
41
1
10
95.9251969286739
20
-8.69177607862292
30
0
41
1
10
95.9868111046979
20
-8.35918270641449
30
0
41
1
10
96.1100394567461
20
-7.66406389134792
30
0
41
1
10
96.1716536327701
20
-7.3015521464632
30
0
41
1
10
96.2948819848184
20
-6.55363060072898
30
0
41
1
10
96.3564961608423
20
-6.1682359088914
30
0
41
1
10
96.4797245128905
20
-5.38207537805843
30
0
41
1
10
96.5413386889146
20
-4.98132420133174
30
0
41
1
10
96.6645670409628
20
-4.17201676031934
30
0
41
1
10
96.7261812169868
20
-3.76347310809757
30
0
41
1
10
96.8494095690349
20
-2.9457709451728
30
0
41
1
10
96.911023745059
20
-2.53662191282245
30
0
41
1
10
97.0342520971071
20
-1.72418837040468
30
0
41
1
10
97.0958662731312
20
-1.32090974579754
30
0
41
1
10
97.1882875371673
20
-0.724542850075437
30
0
41
1
10
97.2190946251793
20
-0.527171167597118
30
0
41
1
10
97.2653052571973
20
-0.233683730348417
30
0
41
1
10
97.2807088012034
20
-0.136282405417347
30
0
41
1
10
97.3115158892155
20
0.0575969411300434
30
0
41
1
10
97.3269194332213
20
0.154553749895228
30
0
41
1
10
97.4039371532515
20
0.642528958010587
30
0
41
1
10
97.4655513292756
20
1.03994609218913
30
0
41
1
10
97.5887796813237
20
1.84392180438039
30
0
41
1
10
97.6503938573478
20
2.25047651707453
30
0
41
1
10
97.7736222093959
20
3.06676883965733
30
0
41
1
10
97.83523638542
20
3.4764989939419
30
0
41
1
10
97.9584647374681
20
4.29232765726664
30
0
41
1
10
98.0200789134922
20
4.69841523988913
30
0
41
1
10
98.1433072655403
20
5.49956498758857
30
0
41
1
10
98.2049214415644
20
5.89461348653586
30
0
41
1
10
98.3281497936125
20
6.6660844367704
30
0
41
1
10
98.3897639696365
20
7.04249181331082
30
0
41
1
10
98.5129923216847
20
7.76930987479128
30
0
41
1
10
98.5746064977088
20
8.11970583049219
30
0
41
1
10
98.6978348497569
20
8.78781457653034
30
0
41
1
10
98.7594490257809
20
9.1055148389122
30
0
41
1
10
98.8826773778291
20
9.70264590833696
30
0
41
1
10
98.9442915538532
20
9.98206796178482
30
0
41
1
10
99.0675199059013
20
10.4984814155619
30
0
41
1
10
99.1291340819254
20
10.7354687959629
30
0
41
1
10
99.2523624339734
20
11.16447143655
30
0
41
1
10
99.3139766099976
20
11.3564875817727
30
0
41
1
10
99.4372049620456
20
11.6946729332773
30
0
41
1
10
99.4988191380697
20
11.8408473418214
30
0
41
1
10
99.6220474901179
20
12.0880467987842
30
0
41
1
10
99.6836616661419
20
12.1890802246537
30
0
41
1
10
99.80689001819
20
12.3480591498341
30
0
41
1
10
99.8685041942141
20
12.406014803437
30
0
41
1
10
99.9917325462624
20
12.4819799432812
30
0
41
1
10
100.053346722286
20
12.5
30
0
41
1
10
100.11496089831
20
12.5
30
0
0
SPLINE
5
D8
100
AcDbEntity
8
1
62
256
6
ByLayer
370
13
48
1
60
0
100
AcDbSpline
70
4
71
3
72
77
73
73
40
0
40
0
40
0
40
0
40
0.0312500000000004
40
0.0312500000000004
40
0.0625000000000007
40
0.0625000000000007
40
0.0937500000000011
40
0.0937500000000011
40
0.125000000000001
40
0.125000000000001
40
0.156250000000002
40
0.156250000000002
40
0.187500000000002
40
0.187500000000002
40
0.218750000000003
40
0.218750000000003
40
0.250000000000003
40
0.250000000000003
40
0.281250000000003
40
0.281250000000003
40
0.312500000000004
40
0.312500000000004
40
0.343750000000004
40
0.343750000000004
40
0.375000000000004
40
0.375000000000004
40
0.406250000000005
40
0.406250000000005
40
0.437500000000005
40
0.437500000000005
40
0.441406250000005
40
0.441406250000005
40
0.445312500000005
40
0.453125000000005
40
0.468750000000005
40
0.468750000000005
40
0.500000000000004
40
0.500000000000004
40
0.531250000000004
40
0.531250000000004
40
0.562500000000003
40
0.562500000000003
40
0.593750000000002
40
0.593750000000002
40
0.625000000000002
40
0.625000000000002
40
0.656250000000001
40
0.656250000000001
40
0.687500000000001
40
0.687500000000001
40
0.71875
40
0.71875
40
0.749999999999999
40
0.749999999999999
40
0.781249999999999
40
0.781249999999999
40
0.812499999999998
40
0.812499999999998
40
0.843749999999998
40
0.843749999999998
40
0.874999999999997
40
0.874999999999997
40
0.882812499999997
40
0.882812499999997
40
0.890624999999997
40
0.906249999999997
40
0.906249999999997
40
0.937499999999998
40
0.937499999999998
40
0.968749999999999
40
0.968749999999999
40
1
40
1
40
1
40
1
41
1
10
99.0503748678647
20
12.5
30
0
41
1
10
99.1170415054044
20
12.5
30
0
41
1
10
99.1837081429441
20
12.4788980556378
30
0
41
1
10
99.3170414180233
20
12.389602622282
30
0
41
1
10
99.383708055563
20
12.3213934533488
30
0
41
1
10
99.5170413306423
20
12.1340465944726
30
0
41
1
10
99.583707968182
20
12.0148941503296
30
0
41
1
10
99.7170412432613
20
11.7233684986817
30
0
41
1
10
99.783707880801
20
11.5509838570574
30
0
41
1
10
99.9170411558803
20
11.1526487021124
30
0
41
1
10
99.98370779342
20
10.9266924312695
30
0
41
1
10
100.117041068499
20
10.4230827785813
30
0
41
1
10
100.183707706039
20
10.1454310244329
30
0
41
1
10
100.317040981118
20
9.54258069841308
30
0
41
1
10
100.383707618658
20
9.21739164200906
30
0
41
1
10
100.517040893737
20
8.52573196087218
30
0
41
1
10
100.583707531277
20
8.1592777556634
30
0
41
1
10
100.717040806356
20
7.3930736662553
30
0
41
1
10
100.783707443896
20
6.99334478162527
30
0
41
1
10
100.917040718975
20
6.16972642944023
30
0
41
1
10
100.983707356515
20
5.74585942850197
30
0
41
1
10
101.117040631594
20
4.88358461493246
30
0
41
1
10
101.183707269134
20
4.445197596459
30
0
41
1
10
101.317040544213
20
3.56332638533991
30
0
41
1
10
101.383707181753
20
3.11985884822195
30
0
41
1
10
101.517040456832
20
2.23652363631763
30
0
41
1
10
101.583707094372
20
1.79666710264297
30
0
41
1
10
101.717040369451
20
0.928083126648119
30
0
41
1
10
101.783707006991
20
0.499361082998178
30
0
41
1
10
101.858706974223
20
0.0267477035040713
30
0
41
1
10
101.867040303916
20
-0.0255619493401298
30
0
41
1
10
101.8837069633
20
-0.130583110614481
30
0
41
1
10
101.908706952378
20
-0.288516156979881
30
0
41
1
10
101.967040260225
20
-0.659723978652352
30
0
41
1
10
102.01704023838
20
-0.982131280176901
30
0
41
1
10
102.117040194689
20
-1.63140729513972
30
0
41
1
10
102.183706832229
20
-2.07024805985259
30
0
41
1
10
102.317040107308
20
-2.95256961749797
30
0
41
1
10
102.383706744848
20
-3.39604000204011
30
0
41
1
10
102.517040019927
20
-4.27906235522019
30
0
41
1
10
102.583706657467
20
-4.71859831169979
30
0
41
1
10
102.717039932546
20
-5.58438220691406
30
0
41
1
10
102.783706570086
20
-6.01060975694264
30
0
41
1
10
102.917039845165
20
-6.84014805900551
30
0
41
1
10
102.983706482705
20
-7.24343639022624
30
0
41
1
10
103.117039757784
20
-8.01786056572439
30
0
41
1
10
103.183706395324
20
-8.38897504611052
30
0
41
1
10
103.317039670403
20
-9.09087817606098
30
0
41
1
10
103.383706307943
20
-9.4216496783524
30
0
41
1
10
103.517039583022
20
-10.0363455249098
30
0
41
1
10
103.583706220562
20
-10.3202593990692
30
0
41
1
10
103.717039495641
20
-10.8367935147841
30
0
41
1
10
103.783706133181
20
-11.069411133324
30
0
41
1
10
103.91703940826
20
-11.4811806600415
30
0
41
1
10
103.9837060458
20
-11.6603374694441
30
0
41
1
10
104.117039320879
20
-11.9652508864889
30
0
41
1
10
104.183705958419
20
-12.0910183357873
30
0
41
1
10
104.317039233498
20
-12.2912128377725
30
0
41
1
10
104.383705871038
20
-12.3656543629295
30
0
41
1
10
104.517039146117
20
-12.4668620149134
30
0
41
1
10
104.583705783657
20
-12.4936438253401
30
0
41
1
10
104.667039080581
20
-12.500329323526
30
0
41
1
10
104.683705739966
20
-12.5003391753841
30
0
41
1
10
104.717039058736
20
-12.4977053045816
30
0
41
1
10
104.767039036891
20
-12.4897439196038
30
0
41
1
10
104.817039015046
20
-12.4693861048925
30
0
41
1
10
104.917038971355
20
-12.4112436119762
30
0
41
1
10
104.983705608895
20
-12.3492053367503
30
0
41
1
10
105.117038883974
20
-12.1746077775327
30
0
41
1
10
105.183705521514
20
-12.0620334962155
30
0
41
1
10
105.317038796593
20
-11.7838529879068
30
0
41
1
10
105.383705434133
20
-11.6182347725394
30
0
41
1
10
105.450372071673
20
-11.4257963290662
30
0
0
SPLINE
5
D9
100
AcDbEntity
8
1
62
256
6
ByLayer
370
13
48
1
60
0
100
AcDbSpline
70
4
71
3
72
74
73
70
40
0
40
0
40
0
40
0
40
0.0312499999999999
40
0.0312499999999999
40
0.0624999999999997
40
0.0624999999999997
40
0.0937499999999996
40
0.0937499999999996
40
0.124999999999999
40
0.124999999999999
40
0.156249999999999
40
0.156249999999999
40
0.187499999999999
40
0.187499999999999
40
0.218749999999999
40
0.218749999999999
40
0.249999999999999
40
0.249999999999999
40
0.281249999999999
40
0.281249999999999
40
0.312499999999998
40
0.312499999999998
40
0.343749999999998
40
0.343749999999998
40
0.374999999999998
40
0.374999999999998
40
0.406249999999998
40
0.406249999999998
40
0.437499999999998
40
0.437499999999998
40
0.468749999999997
40
0.468749999999997
40
0.476562499999997
40
0.476562499999997
40
0.484374999999997
40
0.484374999999997
40
0.499999999999997
40
0.499999999999997
40
0.531249999999997
40
0.531249999999997
40
0.562499999999997
40
0.562499999999997
40
0.593749999999997
40
0.593749999999997
40
0.624999999999998
40
0.624999999999998
40
0.656249999999998
40
0.656249999999998
40
0.687499999999998
40
0.687499999999998
40
0.718749999999998
40
0.718749999999998
40
0.749999999999998
40
0.749999999999998
40
0.781249999999999
40
0.781249999999999
40
0.812499999999999
40
0.812499999999999
40
0.843749999999999
40
0.843749999999999
40
0.874999999999999
40
0.874999999999999
40
0.906249999999999
40
0.906249999999999
40
0.9375
40
0.9375
40
0.96875
40
0.96875
40
1
40
1
40
1
40
1
41
1
10
94.2
20
-12.4373834748403
30
0
41
1
10
94.2565617027894
20
-12.4004470167559
30
0
41
1
10
94.3131234055787
20
-12.3465996955935
30
0
41
1
10
94.4262468111574
20
-12.2026785548475
30
0
41
1
10
94.4828085139467
20
-12.1125980909672
30
0
41
1
10
94.5959319195254
20
-11.8945519970902
30
0
41
1
10
94.6524936223147
20
-11.766580728956
30
0
41
1
10
94.7656170278934
20
-11.4720415143394
30
0
41
1
10
94.8221787306827
20
-11.3054697125252
30
0
41
1
10
94.9353021362613
20
-10.9341104774331
30
0
41
1
10
94.9918638390507
20
-10.7293216425594
30
0
41
1
10
95.1049872446294
20
-10.2830832465749
30
0
41
1
10
95.1615489474186
20
-10.0416351603169
30
0
41
1
10
95.2746723529973
20
-9.52480727000471
30
0
41
1
10
95.3312340557866
20
-9.24943187929003
30
0
41
1
10
95.4443574613653
20
-8.66856402193002
30
0
41
1
10
95.5009191641547
20
-8.36307856233702
30
0
41
1
10
95.6140425697333
20
-7.72671779831478
30
0
41
1
10
95.6706042725226
20
-7.39585138358447
30
0
41
1
10
95.7837276781013
20
-6.71412699309093
30
0
41
1
10
95.8402893808906
20
-6.36327883398096
30
0
41
1
10
95.9534127864692
20
-5.64737580495998
30
0
41
1
10
96.0099744892585
20
-5.28233065000882
30
0
41
1
10
96.1230978948373
20
-4.54390807091926
30
0
41
1
10
96.1796595976266
20
-4.17053933436475
30
0
41
1
10
96.2927830032053
20
-3.421154142891
30
0
41
1
10
96.3493447059946
20
-3.04514466200612
30
0
41
1
10
96.4624681115732
20
-2.2957353085531
30
0
41
1
10
96.5190298143626
20
-1.92234031997148
30
0
41
1
10
96.6321532199414
20
-1.18281101426223
30
0
41
1
10
96.6887149227306
20
-0.816679423832539
30
0
41
1
10
96.7594170512173
20
-0.366009509900465
30
0
41
1
10
96.7735574769146
20
-0.276223410589949
30
0
41
1
10
96.8018383283093
20
-0.0974008552240377
30
0
41
1
10
96.8159787540066
20
-0.0086237295799947
30
0
41
1
10
96.8584000310985
20
0.258705153752828
30
0
41
1
10
96.8866808824933
20
0.438466312724358
30
0
41
1
10
96.9715234366772
20
0.981725266793291
30
0
41
1
10
97.0280851394666
20
1.34922172240371
30
0
41
1
10
97.1412085450453
20
2.09082436824232
30
0
41
1
10
97.1977702478346
20
2.46492751318257
30
0
41
1
10
97.3108936534132
20
3.21499650553008
30
0
41
1
10
97.3674553562026
20
3.59095714242741
30
0
41
1
10
97.4805787617813
20
4.33941049000273
30
0
41
1
10
97.5371404645706
20
4.71189593633224
30
0
41
1
10
97.6502638701492
20
5.44767253157843
30
0
41
1
10
97.7068255729386
20
5.81095478709523
30
0
41
1
10
97.8199489785172
20
6.52244723097005
30
0
41
1
10
97.8765106813067
20
6.87064762543389
30
0
41
1
10
97.9896340868853
20
7.54623060736824
30
0
41
1
10
98.0461957896746
20
7.87360345177231
30
0
41
1
10
98.1593191952531
20
8.50221455177109
30
0
41
1
10
98.2158808980425
20
8.80344414447919
30
0
41
1
10
98.3290043036213
20
9.37516101948665
30
0
41
1
10
98.3855660064106
20
9.645641648143
30
0
41
1
10
98.4986894119892
20
10.1521951267711
30
0
41
1
10
98.5552511147785
20
10.3882639942357
30
0
41
1
10
98.6683745203572
20
10.8234325395025
30
0
41
1
10
98.7249362231465
20
11.0225311897769
30
0
41
1
10
98.8380596287251
20
11.3823778154069
30
0
41
1
10
98.8946213315146
20
11.5431275968889
30
0
41
1
10
99.0077447370932
20
11.8260624005545
30
0
41
1
10
99.0643064398826
20
11.9482515940015
30
0
41
1
10
99.1774298454612
20
12.1549267667646
30
0
41
1
10
99.2339915482506
20
12.2394185862854
30
0
41
1
10
99.3471149538292
20
12.3724831459569
30
0
41
1
10
99.4036766566185
20
12.4210626149804
30
0
41
1
10
99.5168000621971
20
12.4848176000224
30
0
41
1
10
99.5733617649865
20
12.5
30
0
41
1
10
99.6299234677758
20
12.5
30
0
0
SPLINE
5
DA
100
AcDbEntity
8
1
62
256
6
ByLayer
370
13
48
1
60
0
100
AcDbSpline
70
4
71
3
72
79
73
75
40
0
40
0
40
0
40
0
40
0.03125
40
0.03125
40
0.0625
40
0.0625
40
0.0937499999999999
40
0.0937499999999999
40
0.125
40
0.125
40
0.15625
40
0.15625
40
0.1875
40
0.1875
40
0.21875
40
0.21875
40
0.25
40
0.25
40
0.28125
40
0.28125
40
0.3125
40
0.3125
40
0.34375
40
0.34375
40
0.375
40
0.375
40
0.40625
40
0.40625
40
0.41015625
40
0.41015625
40
0.4140625
40
0.421875
40
0.421875
40
0.4375
40
0.4375
40
0.46875
40
0.46875
40
0.5
40
0.5
40
0.531250000000001
40
0.531250000000001
40
0.562500000000001
40
0.562500000000001
40
0.593750000000001
40
0.593750000000001
40
0.625000000000001
40
0.625000000000001
40
0.656250000000001
40
0.656250000000001
40
0.687500000000001
40
0.687500000000001
40
0.718750000000001
40
0.718750000000001
40
0.750000000000001
40
0.750000000000001
40
0.781250000000001
40
0.781250000000001
40
0.812500000000001
40
0.812500000000001
40
0.820312500000001
40
0.820312500000001
40
0.828125000000001
40
0.828125000000001
40
0.843750000000001
40
0.843750000000001
40
0.875000000000001
40
0.875000000000001
40
0.906250000000001
40
0.906250000000001
40
0.937500000000001
40
0.937500000000001
40
0.96875
40
0.96875
40
1
40
1
40
1
40
1
41
1
10
98.5653374373301
20
12.5
30
0
41
1
10
98.6370565481045
20
12.5
30
0
41
1
10
98.7087756588788
20
12.4755714769868
30
0
41
1
10
98.8522138804276
20
12.3718147989716
30
0
41
1
10
98.9239329912022
20
12.2924640640385
30
0
41
1
10
99.0673712127509
20
12.0742721274516
30
0
41
1
10
99.1390903235252
20
11.9354101886484
30
0
41
1
10
99.2825285450741
20
11.595762730514
30
0
41
1
10
99.3542476558485
20
11.3949623413144
30
0
41
1
10
99.4976858773973
20
10.9317126570222
30
0
41
1
10
99.5694049881716
20
10.6692581137628
30
0
41
1
10
99.7128432097204
20
10.0859981284377
30
0
41
1
10
99.7845623204949
20
9.76519936573291
30
0
41
1
10
99.9280005420437
20
9.07155780732921
30
0
41
1
10
99.9997196528182
20
8.69873353215309
30
0
41
1
10
100.143157874367
20
7.90997572077251
30
0
41
1
10
100.214876985141
20
7.49406982636441
30
0
41
1
10
100.35831520669
20
6.63000603926866
30
0
41
1
10
100.430034317465
20
6.18188021385251
30
0
41
1
10
100.573472539013
20
5.2652410619925
30
0
41
1
10
100.645191649788
20
4.7967588819659
30
0
41
1
10
100.788629871336
20
3.85130983351627
30
0
41
1
10
100.860348982111
20
3.37436863656379
30
0
41
1
10
101.00378720366
20
2.42307401508373
30
0
41
1
10
101.075506314434
20
1.9487380261576
30
0
41
1
10
101.218944535983
20
1.01224050835631
30
0
41
1
10
101.290663646757
20
0.550087490097695
30
0
41
1
10
101.371347646378
20
0.0413508474880473
30
0
41
1
10
101.380312535225
20
-0.0149235890406487
30
0
41
1
10
101.398242312919
20
-0.127879601588916
30
0
41
1
10
101.425136979459
20
-0.297778817955134
30
0
41
1
10
101.452031646
20
-0.469014828708623
30
0
41
1
10
101.50582097908
20
-0.81310146354744
30
0
41
1
10
101.541680534468
20
-1.04464918123372
30
0
41
1
10
101.649259200629
20
-1.74428037333749
30
0
41
1
10
101.720978311404
20
-2.21740646758556
30
0
41
1
10
101.864416532953
20
-3.16776825588877
30
0
41
1
10
101.936135643727
20
-3.64498780824624
30
0
41
1
10
102.079573865276
20
-4.59266117589991
30
0
41
1
10
102.15129297605
20
-5.06309038866755
30
0
41
1
10
102.294731197599
20
-5.98536262707347
30
0
41
1
10
102.366450308373
20
-6.43717505050995
30
0
41
1
10
102.509888529922
20
-7.31028789611577
30
0
41
1
10
102.581607640697
20
-7.73155605749702
30
0
41
1
10
102.725045862245
20
-8.532510587422
30
0
41
1
10
102.79676497302
20
-8.91216835249179
30
0
41
1
10
102.940203194568
20
-9.62062229843875
30
0
41
1
10
103.011922305343
20
-9.94939841453049
30
0
41
1
10
103.155360526892
20
-10.5493471471346
30
0
41
1
10
103.227079637666
20
-10.8205113039614
30
0
41
1
10
103.370517859215
20
-11.30146961677
30
0
41
1
10
103.442236969989
20
-11.5112673911616
30
0
41
1
10
103.585675191538
20
-11.8687737360757
30
0
41
1
10
103.657394302312
20
-12.0164959967838
30
0
41
1
10
103.800832523861
20
-12.2519099377574
30
0
41
1
10
103.872551634636
20
-12.3396217619463
30
0
41
1
10
104.015989856185
20
-12.4593287104807
30
0
41
1
10
104.087708966959
20
-12.4913463787392
30
0
41
1
10
104.177357855427
20
-12.5002412481865
30
0
41
1
10
104.195287633121
20
-12.5004773565079
30
0
41
1
10
104.231147188508
20
-12.4978873832976
30
0
41
1
10
104.249076966201
20
-12.4950468414648
30
0
41
1
10
104.302866299282
20
-12.4817398102039
30
0
41
1
10
104.338725854669
20
-12.4664854504424
30
0
41
1
10
104.446304520831
20
-12.4004616255166
30
0
41
1
10
104.518023631605
20
-12.3293749698403
30
0
41
1
10
104.661461853154
20
-12.1282562779229
30
0
41
1
10
104.733180963929
20
-11.9982029970531
30
0
41
1
10
104.876619185477
20
-11.6763680611802
30
0
41
1
10
104.948338296252
20
-11.4845704371645
30
0
41
1
10
105.0917765178
20
-11.0391038665869
30
0
41
1
10
105.163495628575
20
-10.7854280919888
30
0
41
1
10
105.306933850124
20
-10.2190586540189
30
0
41
1
10
105.378652960898
20
-9.90636988834189
30
0
41
1
10
105.450372071673
20
-9.56711567651985
30
0
0
SPLINE
5
DB
100
AcDbEntity
8
1
62
256
6
ByLayer
370
13
48
1
60
0
100
AcDbSpline
70
4
71
3
72
56
73
52
40
0
40
0
40
0
40
0
40
0.0624999999999999
40
0.0624999999999999
40
0.0937499999999998
40
0.0937499999999998
40
0.125
40
0.125
40
0.15625
40
0.15625
40
0.1875
40
0.1875
40
0.21875
40
0.21875
40
0.249999999999999
40
0.249999999999999
40
0.3125
40
0.3125
40
0.375
40
0.375
40
0.40625
40
0.40625
40
0.421875
40
0.421875
40
0.4296875
40
0.4296875
40
0.4375
40
0.4375
40
0.5
40
0.5
40
0.5625
40
0.5625
40
0.625
40
0.625
40
0.656250000000001
40
0.656250000000001
40
0.687500000000001
40
0.687500000000001
40
0.718750000000001
40
0.718750000000001
40
0.75
40
0.75
40
0.78125
40
0.78125
40
0.8125
40
0.8125
40
0.875
40
0.875
40
0.9375
40
0.9375
40
1
40
1
40
1
40
1
41
1
10
94.2
20
-11.680689469978
30
0
41
1
10
94.3030184591092
20
-11.4223842792978
30
0
41
1
10
94.4060369182184
20
-11.099738233744
30
0
41
1
10
94.5605646068822
20
-10.5224395183701
30
0
41
1
10
94.6120738364368
20
-10.3145518790112
30
0
41
1
10
94.715092295546
20
-9.86960842923352
30
0
41
1
10
94.7666015251006
20
-9.63255464185298
30
0
41
1
10
94.8696199842097
20
-9.13179984107256
30
0
41
1
10
94.9211292137643
20
-8.86810245146452
30
0
41
1
10
95.0241476728736
20
-8.31727512477065
30
0
41
1
10
95.0756569024283
20
-8.03015013128558
30
0
41
1
10
95.1786753615373
20
-7.43624622868631
30
0
41
1
10
95.230184591092
20
-7.12947314991197
30
0
41
1
10
95.3332030502012
20
-6.50045223978537
30
0
41
1
10
95.3847122797557
20
-6.17821060437609
30
0
41
1
10
95.5392399684195
20
-5.19486939034365
30
0
41
1
10
95.6422584275286
20
-4.51724185052296
30
0
41
1
10
95.8482953457471
20
-3.15270320339417
30
0
41
1
10
95.9513138048563
20
-2.46593237918162
30
0
41
1
10
96.1058414935201
20
-1.45179734883612
30
0
41
1
10
96.1573507230747
20
-1.11637350328988
30
0
41
1
10
96.2346145674065
20
-0.619501869020212
30
0
41
1
10
96.2603691821839
20
-0.454918066112043
30
0
41
1
10
96.2990011043498
20
-0.209857542302075
30
0
41
1
10
96.3118784117385
20
-0.128472972884992
30
0
41
1
10
96.3376330265157
20
0.0336522247319238
30
0
41
1
10
96.3505103339044
20
0.114610355509086
30
0
41
1
10
96.4664061004023
20
0.847641917422777
30
0
41
1
10
96.5694245595115
20
1.51940913381313
30
0
41
1
10
96.7754614777298
20
2.87885208448026
30
0
41
1
10
96.878479936839
20
3.56644814043207
30
0
41
1
10
97.0845168550574
20
4.9258011543472
30
0
41
1
10
97.1875353141666
20
5.59740439787382
30
0
41
1
10
97.3420630028303
20
6.56630764681915
30
0
41
1
10
97.3935722323849
20
6.88284469181599
30
0
41
1
10
97.4965906914942
20
7.49873764674103
30
0
41
1
10
97.5480999210488
20
7.79808744274905
30
0
41
1
10
97.651118380158
20
8.37556554055166
30
0
41
1
10
97.7026276097125
20
8.65368830948572
30
0
41
1
10
97.8056460688217
20
9.18514047555288
30
0
41
1
10
97.8571552983764
20
9.43846541552432
30
0
41
1
10
97.9601737574856
20
9.9173702331918
30
0
41
1
10
98.0116829870401
20
10.1429471076733
30
0
41
1
10
98.1147014461493
20
10.5641375324882
30
0
41
1
10
98.166210675704
20
10.759749741133
30
0
41
1
10
98.3207383643677
20
11.2995128374645
30
0
41
1
10
98.4237568234769
20
11.5962008191493
30
0
41
1
10
98.6297937416953
20
12.0615578604195
30
0
41
1
10
98.7328122008045
20
12.2303225721592
30
0
41
1
10
98.938849119023
20
12.4494762158269
30
0
41
1
10
99.0418675781321
20
12.5
30
0
41
1
10
99.1448860372412
20
12.5
30
0
0
SPLINE
5
DC
100
AcDbEntity
8
1
62
256
6
ByLayer
370
13
48
1
60
0
100
AcDbSpline
70
4
71
3
72
81
73
77
40
0
40
0
40
0
40
0
40
0.0312499999999994
40
0.0312499999999994
40
0.0624999999999989
40
0.0624999999999989
40
0.0937499999999983
40
0.0937499999999983
40
0.124999999999998
40
0.124999999999998
40
0.156249999999997
40
0.156249999999997
40
0.187499999999997
40
0.187499999999997
40
0.218749999999996
40
0.218749999999996
40
0.249999999999996
40
0.249999999999996
40
0.281249999999995
40
0.281249999999995
40
0.312499999999995
40
0.312499999999995
40
0.343749999999994
40
0.343749999999994
40
0.374999999999993
40
0.374999999999993
40
0.378906249999994
40
0.378906249999994
40
0.382812499999994
40
0.382812499999994
40
0.390624999999994
40
0.390624999999994
40
0.406249999999994
40
0.406249999999994
40
0.437499999999995
40
0.437499999999995
40
0.468749999999996
40
0.468749999999996
40
0.499999999999996
40
0.499999999999996
40
0.531249999999997
40
0.531249999999997
40
0.562499999999997
40
0.562499999999997
40
0.593749999999998
40
0.593749999999998
40
0.624999999999999
40
0.624999999999999
40
0.656249999999999
40
0.656249999999999
40
0.6875
40
0.6875
40
0.718750000000001
40
0.718750000000001
40
0.750000000000001
40
0.750000000000001
40
0.757812500000001
40
0.761718750000002
40
0.761718750000002
40
0.765625000000002
40
0.765625000000002
40
0.781250000000002
40
0.781250000000002
40
0.812500000000001
40
0.812500000000001
40
0.843750000000001
40
0.843750000000001
40
0.875000000000001
40
0.875000000000001
40
0.906250000000001
40
0.906250000000001
40
0.9375
40
0.9375
40
0.96875
40
0.96875
40
1
40
1
40
1
40
1
41
1
10
98.0803000067955
20
12.5
30
0
41
1
10
98.1570715908045
20
12.5
30
0
41
1
10
98.2338431748137
20
12.4719997170873
30
0
41
1
10
98.387386342832
20
12.3526404389662
30
0
41
1
10
98.4641579268411
20
12.2612497535978
30
0
41
1
10
98.6177010948594
20
12.0097159502115
30
0
41
1
10
98.6944726788686
20
11.8495445381301
30
0
41
1
10
98.8480158468868
20
11.4580019928352
30
0
41
1
10
98.924787430896
20
11.2266124576289
30
0
41
1
10
99.0783305989142
20
10.6938587581438
30
0
41
1
10
99.1551021829234
20
10.392491757941
30
0
41
1
10
99.3086453509416
20
9.72501933212789
30
0
41
1
10
99.3854169349508
20
9.35892935595888
30
0
41
1
10
99.5389601029691
20
8.57107582523872
30
0
41
1
10
99.6157316869782
20
8.14934434459764
30
0
41
1
10
99.7692748549964
20
7.26237745121685
30
0
41
1
10
99.8460464390056
20
6.79718483557682
30
0
41
1
10
99.9995896070238
20
5.8374206298428
30
0
41
1
10
100.076361191033
20
5.34289422526686
30
0
41
1
10
100.229904359051
20
4.33918946642217
30
0
41
1
10
100.30667594306
20
3.83005057743009
30
0
41
1
10
100.460219111079
20
2.81115010888522
30
0
41
1
10
100.536990695088
20
2.30141667178623
30
0
41
1
10
100.690533863106
20
1.29362577399326
30
0
41
1
10
100.767305447115
20
0.795583052294774
30
0
41
1
10
100.853673479125
20
0.247432764544811
30
0
41
1
10
100.863269927127
20
0.18669425317151
30
0
41
1
10
100.882462823129
20
0.0655678567724465
30
0
41
1
10
100.89205927113
20
0.0052996083497021
30
0
41
1
10
100.920848615133
20
-0.1759748070954
30
0
41
1
10
100.940041511136
20
-0.297538532498635
30
0
41
1
10
100.997620199143
20
-0.664173529128163
30
0
41
1
10
101.036005991147
20
-0.911193663040592
30
0
41
1
10
101.151163367161
20
-1.65827280964035
30
0
41
1
10
101.22793495117
20
-2.1644229473288
30
0
41
1
10
101.381478119188
20
-3.1816173044773
30
0
41
1
10
101.458249703197
20
-3.69263901366409
30
0
41
1
10
101.611792871216
20
-4.70620086755582
30
0
41
1
10
101.688564455225
20
-5.2087058601746
30
0
41
1
10
101.842107623243
20
-6.19067282045219
30
0
41
1
10
101.918879207252
20
-6.67009114196784
30
0
41
1
10
102.072422375271
20
-7.59133916756233
30
0
41
1
10
102.14919395928
20
-8.03312399513425
30
0
41
1
10
102.302737127298
20
-8.86593381785187
30
0
41
1
10
102.379508711307
20
-9.25692127549587
30
0
41
1
10
102.533051879325
20
-9.97760909373201
30
0
41
1
10
102.609823463335
20
-10.3072864856124
30
0
41
1
10
102.763366631353
20
-10.8984039710763
30
0
41
1
10
102.840138215362
20
-11.159839245546
30
0
41
1
10
102.99368138338
20
-11.6115258605392
30
0
41
1
10
103.070452967389
20
-11.8017895720909
30
0
41
1
10
103.223996135408
20
-12.1120687946986
30
0
41
1
10
103.300767719417
20
-12.2321092014862
30
0
41
1
10
103.454310887435
20
-12.4061801032945
30
0
41
1
10
103.531082471444
20
-12.4602416096236
30
0
41
1
10
103.627046951455
20
-12.4907352437043
30
0
41
1
10
103.655836295459
20
-12.4971090174145
30
0
41
1
10
103.684625639462
20
-12.4994562401116
30
0
41
1
10
103.703818535465
20
-12.5001418543439
30
0
41
1
10
103.713414983466
20
-12.5000473106412
30
0
41
1
10
103.761397223472
20
-12.4973753044999
30
0
41
1
10
103.799783015476
20
-12.4881732478935
30
0
41
1
10
103.91494039149
20
-12.4379428183122
30
0
41
1
10
103.991711975499
20
-12.374221580887
30
0
41
1
10
104.145255143517
20
-12.1800045173093
30
0
41
1
10
104.222026727526
20
-12.0494781896795
30
0
41
1
10
104.375569895545
20
-11.7178500453587
30
0
41
1
10
104.452341479554
20
-11.5167248432154
30
0
41
1
10
104.605884647572
20
-11.0434994915739
30
0
41
1
10
104.682656231581
20
-10.7713893587973
30
0
41
1
10
104.836199399599
20
-10.1597201494096
30
0
41
1
10
104.912970983609
20
-9.82016870300379
30
0
41
1
10
105.066514151627
20
-9.08111688971982
30
0
41
1
10
105.143285735636
20
-8.68164204910505
30
0
41
1
10
105.296828903654
20
-7.83371679776295
30
0
41
1
10
105.373600487663
20
-7.38530557217621
30
0
41
1
10
105.450372071673
20
-6.91913425968241
30
0
0
SPLINE
5
DD
100
AcDbEntity
8
1
62
256
6
ByLayer
370
13
48
1
60
0
100
AcDbSpline
70
4
71
3
72
43
73
39
40
0
40
0
40
0
40
0
40
0.0624999999999978
40
0.0624999999999978
40
0.124999999999996
40
0.124999999999996
40
0.187499999999993
40
0.187499999999993
40
0.249999999999991
40
0.249999999999991
40
0.312499999999989
40
0.312499999999989
40
0.343749999999988
40
0.343749999999988
40
0.359374999999987
40
0.367187499999987
40
0.367187499999987
40
0.374999999999987
40
0.374999999999987
40
0.437499999999988
40
0.437499999999988
40
0.49999999999999
40
0.49999999999999
40
0.562499999999991
40
0.562499999999991
40
0.624999999999992
40
0.624999999999992
40
0.687499999999993
40
0.687499999999993
40
0.749999999999995
40
0.749999999999995
40
0.812499999999996
40
0.812499999999996
40
0.874999999999997
40
0.874999999999997
40
0.937499999999999
40
0.937499999999999
40
1
40
1
40
1
40
1
41
1
10
94.2
20
-9.99857880176063
30
0
41
1
10
94.2929135126398
20
-9.59002886416022
30
0
41
1
10
94.3858270252795
20
-9.13431778326503
30
0
41
1
10
94.5716540505589
20
-8.14558030912303
30
0
41
1
10
94.6645675631986
20
-7.61264620173162
30
0
41
1
10
94.8503945884781
20
-6.49263174704234
30
0
41
1
10
94.9433081011177
20
-5.90566782733222
30
0
41
1
10
95.1291351263972
20
-4.70359740615095
30
0
41
1
10
95.222048639037
20
-4.08859953490466
30
0
41
1
10
95.4078756643164
20
-2.85580075994562
30
0
41
1
10
95.5007891769561
20
-2.23807610101812
30
0
41
1
10
95.6401594459157
20
-1.32575129488942
30
0
41
1
10
95.6866162022354
20
-1.02398547715018
30
0
41
1
10
95.7563013367152
20
-0.576531186114465
30
0
41
1
10
95.7911439039551
20
-0.35409869499739
30
0
41
1
10
95.8259864711952
20
-0.133886783386032
30
0
41
1
10
95.849214849355
20
0.0123993148175714
30
0
41
1
10
95.8608290384351
20
0.0853460075806538
30
0
41
1
10
95.9653567401547
20
0.745702203545079
30
0
41
1
10
96.0582702527944
20
1.34921036996343
30
0
41
1
10
96.2440972780738
20
2.57173710003701
30
0
41
1
10
96.3370107907136
20
3.19071360641621
30
0
41
1
10
96.5228378159931
20
4.42164184446804
30
0
41
1
10
96.6157513286328
20
5.03351030910812
30
0
41
1
10
96.8015783539122
20
6.22458083723728
30
0
41
1
10
96.894491866552
20
6.80367066953929
30
0
41
1
10
97.0803188918314
20
7.9034322423613
30
0
41
1
10
97.1732324044712
20
8.42398954919614
30
0
41
1
10
97.3590594297506
20
9.3843391624425
30
0
41
1
10
97.4519729423903
20
9.82404666617219
30
0
41
1
10
97.6377999676697
20
10.6068643954822
30
0
41
1
10
97.7307134803094
20
10.9499421314563
30
0
41
1
10
97.9165405055889
20
11.5320146141331
30
0
41
1
10
98.0094540182286
20
11.7710327481795
30
0
41
1
10
98.1952810435081
20
12.1459773278476
30
0
41
1
10
98.2881945561478
20
12.2819681202158
30
0
41
1
10
98.4740215814272
20
12.4589387487626
30
0
41
1
10
98.5669350940669
20
12.5
30
0
41
1
10
98.6598486067066
20
12.5
30
0
0
SPLINE
5
DE
100
AcDbEntity
8
1
62
256
6
ByLayer
370
13
48
1
60
0
100
AcDbSpline
70
4
71
3
72
80
73
76
40
0
40
0
40
0
40
0
40
0.0312500000000007
40
0.0312500000000007
40
0.0625000000000014
40
0.0625000000000014
40
0.0937500000000021
40
0.0937500000000021
40
0.125000000000003
40
0.125000000000003
40
0.156250000000003
40
0.156250000000003
40
0.187500000000004
40
0.187500000000004
40
0.218750000000005
40
0.218750000000005
40
0.250000000000006
40
0.250000000000006
40
0.281250000000006
40
0.281250000000006
40
0.312500000000007
40
0.312500000000007
40
0.343750000000007
40
0.343750000000007
40
0.351562500000008
40
0.355468750000008
40
0.355468750000008
40
0.359375000000008
40
0.359375000000008
40
0.375000000000007
40
0.375000000000007
40
0.406250000000006
40
0.406250000000006
40
0.437500000000005
40
0.437500000000005
40
0.468750000000004
40
0.468750000000004
40
0.500000000000003
40
0.500000000000003
40
0.531250000000001
40
0.531250000000001
40
0.5625
40
0.5625
40
0.593749999999999
40
0.593749999999999
40
0.624999999999998
40
0.624999999999998
40
0.656249999999997
40
0.656249999999997
40
0.687499999999996
40
0.687499999999996
40
0.703124999999995
40
0.703124999999995
40
0.710937499999995
40
0.714843749999995
40
0.714843749999995
40
0.718749999999995
40
0.718749999999995
40
0.749999999999995
40
0.749999999999995
40
0.781249999999996
40
0.781249999999996
40
0.812499999999996
40
0.812499999999996
40
0.843749999999997
40
0.843749999999997
40
0.874999999999998
40
0.874999999999998
40
0.906249999999998
40
0.906249999999998
40
0.937499999999999
40
0.937499999999999
40
0.968749999999999
40
0.968749999999999
40
1
40
1
40
1
40
1
41
1
10
97.5952625762609
20
12.5
30
0
41
1
10
97.6770866335047
20
12.5
30
0
41
1
10
97.7589106907486
20
12.4681822251624
30
0
41
1
10
97.9225588052363
20
12.3320688861298
30
0
41
1
10
98.0043828624802
20
12.2277298390256
30
0
41
1
10
98.1680309769679
20
11.9403415730373
30
0
41
1
10
98.2498550342119
20
11.757254775237
30
0
41
1
10
98.4135031486996
20
11.3100823071365
30
0
41
1
10
98.4953272059433
20
11.0459750736911
30
0
41
1
10
98.6589753204312
20
10.4393430778149
30
0
41
1
10
98.7407993776751
20
10.0968209136146
30
0
41
1
10
98.9044474921628
20
9.34112266256801
30
0
41
1
10
98.9862715494067
20
8.9279758837165
30
0
41
1
10
99.1499196638944
20
8.04349864565501
30
0
41
1
10
99.2317437211383
20
7.57221928717897
30
0
41
1
10
99.395391835626
20
6.58742129383739
30
0
41
1
10
99.4772158928699
20
6.07396444582156
30
0
41
1
10
99.6408640073576
20
5.02248923014091
30
0
41
1
10
99.7226880646016
20
4.48453002882732
30
0
41
1
10
99.8863361790893
20
3.40159546722978
30
0
41
1
10
99.9681602363331
20
2.85666575628235
30
0
41
1
10
100.131808350821
20
1.77559267373837
30
0
41
1
10
100.213632408065
20
1.23947590072487
30
0
41
1
10
100.31591247962
20
0.582921394857266
30
0
41
1
10
100.346596501086
20
0.386962708566841
30
0
41
1
10
100.377280522553
20
0.192706385398026
30
0
41
1
10
100.397736536863
20
0.0636001324724305
30
0
41
1
10
100.407964544019
20
-0.0006170268554513
30
0
41
1
10
100.459104579796
20
-0.322728226082973
30
0
41
1
10
100.500016608418
20
-0.583660947971453
30
0
41
1
10
100.622752694284
20
-1.37417933957826
30
0
41
1
10
100.704576751528
20
-1.91158200605261
30
0
41
1
10
100.868224866016
20
-2.99399756373816
30
0
41
1
10
100.95004892326
20
-3.53898218585621
30
0
41
1
10
101.113697037747
20
-4.62059945071661
30
0
41
1
10
101.195521094991
20
-5.15718500813787
30
0
41
1
10
101.359169209479
20
-6.20440536071496
30
0
41
1
10
101.440993266723
20
-6.7149802883165
30
0
41
1
10
101.604641381211
20
-7.69257772638417
30
0
41
1
10
101.686465438454
20
-8.15953883494498
30
0
41
1
10
101.850113552942
20
-9.03417087662604
30
0
41
1
10
101.931937610186
20
-9.44179218113351
30
0
41
1
10
102.095585724674
20
-10.1855877056161
30
0
41
1
10
102.177409781918
20
-10.5217347824625
30
0
41
1
10
102.341057896405
20
-11.1151942258081
30
0
41
1
10
102.422881953649
20
-11.372506225333
30
0
41
1
10
102.586530068137
20
-11.8060992682513
30
0
41
1
10
102.668354125381
20
-11.9824035913493
30
0
41
1
10
102.832002239869
20
-12.2566140948782
30
0
41
1
10
102.913826297112
20
-12.3545587409691
30
0
41
1
10
103.036562382978
20
-12.4475517108783
30
0
41
1
10
103.0774744116
20
-12.4695883712003
30
0
41
1
10
103.138842454533
20
-12.4899996835548
30
0
41
1
10
103.169526476
20
-12.497046121697
30
0
41
1
10
103.200210497466
20
-12.4995167658544
30
0
41
1
10
103.220666511777
20
-12.5001659072755
30
0
41
1
10
103.230894518933
20
-12.4999942808857
30
0
41
1
10
103.322946583332
20
-12.4939413334599
30
0
41
1
10
103.404770640576
20
-12.45633121789
30
0
41
1
10
103.568418755063
20
-12.3079860869086
30
0
41
1
10
103.650242812307
20
-12.1972077134579
30
0
41
1
10
103.813890926795
20
-11.8965799987023
30
0
41
1
10
103.895714984039
20
-11.7066940390454
30
0
41
1
10
104.059363098527
20
-11.2459436851726
30
0
41
1
10
104.141187155771
20
-10.9750595044562
30
0
41
1
10
104.304835270258
20
-10.3553287675127
30
0
41
1
10
104.386659327502
20
-10.0064870600714
30
0
41
1
10
104.55030744199
20
-9.23903101823464
30
0
41
1
10
104.632131499234
20
-8.82044812103845
30
0
41
1
10
104.795779613722
20
-7.92632935110353
30
0
41
1
10
104.877603670965
20
-7.45084596991126
30
0
41
1
10
105.041251785453
20
-6.45908824349482
30
0
41
1
10
105.123075842697
20
-5.94287597277292
30
0
41
1
10
105.286723957185
20
-4.88739778971967
30
0
41
1
10
105.368548014429
20
-4.34819026343294
30
0
41
1
10
105.450372071673
20
-3.8061833146723
30
0
0
SPLINE
5
DF
100
AcDbEntity
8
1
62
256
6
ByLayer
370
13
48
1
60
0
100
AcDbSpline
70
4
71
3
72
44
73
40
40
0
40
0
40
0
40
0
40
0.0624999999999975
40
0.0624999999999975
40
0.124999999999995
40
0.124999999999995
40
0.187499999999992
40
0.187499999999992
40
0.24999999999999
40
0.24999999999999
40
0.281249999999989
40
0.281249999999989
40
0.289062499999989
40
0.289062499999989
40
0.296874999999989
40
0.296874999999989
40
0.312499999999989
40
0.312499999999989
40
0.37499999999999
40
0.37499999999999
40
0.437499999999991
40
0.437499999999991
40
0.499999999999992
40
0.499999999999992
40
0.562499999999993
40
0.562499999999993
40
0.624999999999994
40
0.624999999999994
40
0.687499999999995
40
0.687499999999995
40
0.749999999999996
40
0.749999999999996
40
0.812499999999997
40
0.812499999999997
40
0.874999999999998
40
0.874999999999998
40
0.937499999999999
40
0.937499999999999
40
1
40
1
40
1
40
1
41
1
10
94.2
20
-7.48360278024009
30
0
41
1
10
94.2828085661703
20
-6.99770298360443
30
0
41
1
10
94.3656171323405
20
-6.48784341393826
30
0
41
1
10
94.531234264681
20
-5.43810911708391
30
0
41
1
10
94.6140428308512
20
-4.89829923152877
30
0
41
1
10
94.7796599631917
20
-3.80706487097623
30
0
41
1
10
94.862468529362
20
-3.25569328227596
30
0
41
1
10
95.0280856617025
20
-2.1582919480779
30
0
41
1
10
95.1108942278728
20
-1.61229550088137
30
0
41
1
10
95.2351070771282
20
-0.807954121854976
30
0
41
1
10
95.2765113602132
20
-0.542257965231158
30
0
41
1
10
95.3282667140696
20
-0.214066878706632
30
0
41
1
10
95.3386177848409
20
-0.14862457919304
30
0
41
1
10
95.3593199263836
20
-0.0181523316778396
30
0
41
1
10
95.3696709971549
20
0.0468101015559625
30
0
41
1
10
95.4007242094686
20
0.242699231657667
30
0
41
1
10
95.4214263510113
20
0.374111212796692
30
0
41
1
10
95.524937058724
20
1.03484570568347
30
0
41
1
10
95.6077456248944
20
1.57532504818198
30
0
41
1
10
95.7733627572348
20
2.66710615956683
30
0
41
1
10
95.8561713234051
20
3.21838221842947
30
0
41
1
10
96.0217884557455
20
4.31570720108002
30
0
41
1
10
96.1045970219158
20
4.86170968934471
30
0
41
1
10
96.2702141542562
20
5.93044551216164
30
0
41
1
10
96.3530227204266
20
6.45311700079372
30
0
41
1
10
96.518639852767
20
7.45680783776476
30
0
41
1
10
96.6014484189373
20
7.93776130300293
30
0
41
1
10
96.7670655512778
20
8.84125728355508
30
0
41
1
10
96.8498741174481
20
9.26374429246496
30
0
41
1
10
97.0154912497885
20
10.0370502093032
30
0
41
1
10
97.0982998159587
20
10.3878363910582
30
0
41
1
10
97.2639169482991
20
11.0093522838889
30
0
41
1
10
97.3467255144695
20
11.28007787058
30
0
41
1
10
97.5123426468101
20
11.7385205929526
30
0
41
1
10
97.5951512129803
20
11.9262598096879
30
0
41
1
10
97.7607683453207
20
12.2209281332948
30
0
41
1
10
97.843576911491
20
12.3278968387591
30
0
41
1
10
98.0091940438315
20
12.4674097036813
30
0
41
1
10
98.0920026100018
20
12.5
30
0
41
1
10
98.1748111761721
20
12.5
30
0
0
SPLINE
5
E0
100
AcDbEntity
8
1
62
256
6
ByLayer
370
13
48
1
60
0
100
AcDbSpline
70
4
71
3
72
81
73
77
40
0
40
0
40
0
40
0
40
0.0312500000000011
40
0.0312500000000011
40
0.0625000000000021
40
0.0625000000000021
40
0.0937500000000032
40
0.0937500000000032
40
0.125000000000004
40
0.125000000000004
40
0.156250000000005
40
0.156250000000005
40
0.187500000000006
40
0.187500000000006
40
0.218750000000008
40
0.218750000000008
40
0.250000000000009
40
0.250000000000009
40
0.28125000000001
40
0.28125000000001
40
0.312500000000011
40
0.312500000000011
40
0.328125000000011
40
0.328125000000011
40
0.335937500000011
40
0.335937500000011
40
0.339843750000011
40
0.339843750000011
40
0.343750000000011
40
0.343750000000011
40
0.375000000000011
40
0.375000000000011
40
0.406250000000011
40
0.406250000000011
40
0.437500000000011
40
0.437500000000011
40
0.468750000000011
40
0.468750000000011
40
0.500000000000011
40
0.500000000000011
40
0.531250000000011
40
0.531250000000011
40
0.562500000000011
40
0.562500000000011
40
0.593750000000011
40
0.593750000000011
40
0.625000000000011
40
0.625000000000011
40
0.656250000000011
40
0.656250000000011
40
0.671875000000011
40
0.671875000000011
40
0.675781250000011
40
0.675781250000011
40
0.679687500000011
40
0.687500000000011
40
0.687500000000011
40
0.71875000000001
40
0.71875000000001
40
0.750000000000008
40
0.750000000000008
40
0.781250000000007
40
0.781250000000007
40
0.812500000000006
40
0.812500000000006
40
0.843750000000005
40
0.843750000000005
40
0.875000000000004
40
0.875000000000004
40
0.906250000000003
40
0.906250000000003
40
0.937500000000002
40
0.937500000000002
40
0.968750000000001
40
0.968750000000001
40
1
40
1
40
1
40
1
41
1
10
97.1102251457262
20
12.5
30
0
41
1
10
97.1971016762049
20
12.5
30
0
41
1
10
97.2839782066835
20
12.4641183944014
30
0
41
1
10
97.4577312676407
20
12.3100897686759
30
0
41
1
10
97.5446077981193
20
12.1918842661329
30
0
41
1
10
97.7183608590765
20
11.8661171940822
30
0
41
1
10
97.8052373895551
20
11.6585069390557
30
0
41
1
10
97.9789904505124
20
11.1520247482151
30
0
41
1
10
98.065866980991
20
10.8531291551162
30
0
41
1
10
98.2396200419482
20
10.1684991106543
30
0
41
1
10
98.3264965724268
20
9.78277712961466
30
0
41
1
10
98.500249633384
20
8.93544903227777
30
0
41
1
10
98.5871261638625
20
8.47389265144642
30
0
41
1
10
98.7608792248198
20
7.49144194890212
30
0
41
1
10
98.8477557552984
20
6.97062386058633
30
0
41
1
10
99.0215088162556
20
5.88984542913494
30
0
41
1
10
99.1083853467342
20
5.32996896132002
30
0
41
1
10
99.2821384076914
20
4.19243980834091
30
0
41
1
10
99.36901493817
20
3.61485931582055
30
0
41
1
10
99.5427679991272
20
2.46204591886129
30
0
41
1
10
99.6296445296058
20
1.88686070672844
30
0
41
1
10
99.7599593253237
20
1.03862496031053
30
0
41
1
10
99.8033975905631
20
0.758274949055874
30
0
41
1
10
99.868554988422
20
0.342652595270692
30
0
41
1
10
99.8902741210417
20
0.204926866853697
30
0
41
1
10
99.922852819971
20
-0.0002941641587881
30
0
41
1
10
99.9337123862809
20
-0.0684744181951942
30
0
41
1
10
99.9554315189006
20
-0.205591431835813
30
0
41
1
10
99.9662910852104
20
-0.274373828160293
30
0
41
1
10
100.064027181999
20
-0.895322445716602
30
0
41
1
10
100.150903712478
20
-1.461009135512
30
0
41
1
10
100.324656773435
20
-2.60518850208328
30
0
41
1
10
100.411533303913
20
-3.18364994411431
30
0
41
1
10
100.58528636487
20
-4.33493423772831
30
0
41
1
10
100.672162895349
20
-4.90769821806677
30
0
41
1
10
100.845915956306
20
-6.02672091861521
30
0
41
1
10
100.932792486785
20
-6.57290052420444
30
0
41
1
10
101.106545547742
20
-7.61757387380428
30
0
41
1
10
101.193422078221
20
-8.11598441869418
30
0
41
1
10
101.367175139178
20
-9.04612964838378
30
0
41
1
10
101.454051669657
20
-9.47779717019617
30
0
41
1
10
101.627804730614
20
-10.2599906700966
30
0
41
1
10
101.714681261092
20
-10.6104818010896
30
0
41
1
10
101.88843432205
20
-11.2219668923086
30
0
41
1
10
101.975310852528
20
-11.4829642585107
30
0
41
1
10
102.149063913485
20
-11.9136992535409
30
0
41
1
10
102.235940443964
20
-12.0834727128938
30
0
41
1
10
102.409693504921
20
-12.3359692692177
30
0
41
1
10
102.4965700354
20
-12.418746997469
30
0
41
1
10
102.626884831118
20
-12.484201204518
30
0
41
1
10
102.670323096357
20
-12.4962639921656
30
0
41
1
10
102.724620927906
20
-12.5000040460343
30
0
41
1
10
102.735480494216
20
-12.5001871878169
30
0
41
1
10
102.757199626836
20
-12.49943448873
30
0
41
1
10
102.789778325765
20
-12.4966169895185
30
0
41
1
10
102.822357024695
20
-12.4886324555558
30
0
41
1
10
102.930952687793
20
-12.4501030057621
30
0
41
1
10
103.017829218272
20
-12.3810259765394
30
0
41
1
10
103.191582279229
20
-12.157120374883
30
0
41
1
10
103.278458809707
20
-12.0022355580919
30
0
41
1
10
103.452211870664
20
-11.6016024736556
30
0
41
1
10
103.539088401143
20
-11.3558141896784
30
0
41
1
10
103.7128414621
20
-10.7740140186768
30
0
41
1
10
103.799717992579
20
-10.4379926534027
30
0
41
1
10
103.973471053536
20
-9.68291228416732
30
0
41
1
10
104.060347584015
20
-9.2638818512761
30
0
41
1
10
104.234100644972
20
-8.35624845572877
30
0
41
1
10
104.320977175451
20
-7.86770819618138
30
0
41
1
10
104.494730236408
20
-6.83940303846248
30
0
41
1
10
104.581606766886
20
-6.29972006729622
30
0
41
1
10
104.755359827844
20
-5.19012435275135
30
0
41
1
10
104.842236358322
20
-4.62029271223352
30
0
41
1
10
105.01598941928
20
-3.47151726036276
30
0
41
1
10
105.102865949758
20
-2.89263645724194
30
0
41
1
10
105.276619010715
20
-1.74478031401153
30
0
41
1
10
105.363495541194
20
-1.17584090829919
30
0
41
1
10
105.450372071673
20
-0.619558033577647
30
0
0
SPLINE
5
E1
100
AcDbEntity
8
1
62
256
6
ByLayer
370
13
48
1
60
0
100
AcDbSpline
70
4
71
3
72
42
73
38
40
0
40
0
40
0
40
0
40
0.0625000000000011
40
0.0625000000000011
40
0.125000000000002
40
0.125000000000002
40
0.187500000000003
40
0.187500000000003
40
0.203125000000003
40
0.203125000000003
40
0.218750000000003
40
0.218750000000003
40
0.250000000000003
40
0.250000000000003
40
0.312500000000003
40
0.312500000000003
40
0.375000000000002
40
0.375000000000002
40
0.437500000000002
40
0.437500000000002
40
0.500000000000002
40
0.500000000000002
40
0.562500000000002
40
0.562500000000002
40
0.625000000000002
40
0.625000000000002
40
0.687500000000001
40
0.687500000000001
40
0.750000000000001
40
0.750000000000001
40
0.812500000000001
40
0.812500000000001
40
0.875000000000001
40
0.875000000000001
40
0.9375
40
0.9375
40
1
40
1
40
1
40
1
41
1
10
94.2
20
-4.43048249408017
30
0
41
1
10
94.2727036197008
20
-3.95195107620799
30
0
41
1
10
94.3454072394017
20
-3.46863882745134
30
0
41
1
10
94.4908144788032
20
-2.50401613095934
30
0
41
1
10
94.5635180985039
20
-2.02272493204668
30
0
41
1
10
94.7089253379054
20
-1.07222956970475
30
0
41
1
10
94.7816289576062
20
-0.603034961200876
30
0
41
1
10
94.8725084822322
20
-0.0291695025993874
30
0
41
1
10
94.8906843871574
20
0.0847838286559011
30
0
41
1
10
94.9270361970078
20
0.314732640095684
30
0
41
1
10
94.945212101933
20
0.430324377679852
30
0
41
1
10
94.9997398167086
20
0.778778120891729
30
0
41
1
10
95.036091626559
20
1.01332268841503
30
0
41
1
10
95.1451470561101
20
1.72214793000384
30
0
41
1
10
95.217850675811
20
2.20167794288633
30
0
41
1
10
95.3632579152126
20
3.16503312009249
30
0
41
1
10
95.4359615349133
20
3.64884106677945
30
0
41
1
10
95.5813687743149
20
4.60942185698991
30
0
41
1
10
95.6540723940157
20
5.08616830707203
30
0
41
1
10
95.7994796334172
20
6.02030336912239
30
0
41
1
10
95.8721832531179
20
6.47765913546178
30
0
41
1
10
96.0175904925194
20
7.36059913674956
30
0
41
1
10
96.0902941122204
20
7.78614888132142
30
0
41
1
10
96.2357013516219
20
8.59400263404032
30
0
41
1
10
96.3084049713226
20
8.97627636055739
30
0
41
1
10
96.4538122107242
20
9.68803802124162
30
0
41
1
10
96.526515830425
20
10.0175051822459
30
0
41
1
10
96.6719230698265
20
10.6168328960985
30
0
41
1
10
96.7446266895273
20
10.8866853928615
30
0
41
1
10
96.8900339289288
20
11.3631245539033
30
0
41
1
10
96.9627375486297
20
11.5697161764279
30
0
41
1
10
97.1081447880313
20
11.9191807261545
30
0
41
1
10
97.180848407732
20
12.0620692156512
30
0
41
1
10
97.3262556471336
20
12.2865616352254
30
0
41
1
10
97.3989592668343
20
12.3681876460367
30
0
41
1
10
97.5443665062359
20
12.4748947445606
30
0
41
1
10
97.6170701259366
20
12.5
30
0
41
1
10
97.6897737456374
20
12.5
30
0
0
SPLINE
5
E2
100
AcDbEntity
8
1
62
256
6
ByLayer
370
13
48
1
60
0
100
AcDbSpline
70
4
71
3
72
86
73
82
40
0
40
0
40
0
40
0
40
0.0312499999999999
40
0.0312499999999999
40
0.0624999999999998
40
0.0624999999999998
40
0.0937499999999996
40
0.0937499999999996
40
0.125
40
0.125
40
0.156249999999999
40
0.156249999999999
40
0.187499999999999
40
0.187499999999999
40
0.218749999999999
40
0.218749999999999
40
0.249999999999999
40
0.249999999999999
40
0.281249999999999
40
0.281249999999999
40
0.312499999999999
40
0.312499999999999
40
0.316406249999999
40
0.316406249999999
40
0.320312499999999
40
0.320312499999999
40
0.328124999999999
40
0.328124999999999
40
0.343749999999999
40
0.343749999999999
40
0.374999999999999
40
0.374999999999999
40
0.406249999999999
40
0.406249999999999
40
0.437499999999999
40
0.437499999999999
40
0.468749999999999
40
0.468749999999999
40
0.499999999999999
40
0.499999999999999
40
0.531249999999999
40
0.531249999999999
40
0.562499999999999
40
0.562499999999999
40
0.593749999999999
40
0.593749999999999
40
0.624999999999999
40
0.624999999999999
40
0.632812499999999
40
0.636718749999999
40
0.636718749999999
40
0.640624999999999
40
0.640624999999999
40
0.656249999999999
40
0.656249999999999
40
0.687499999999999
40
0.687499999999999
40
0.71875
40
0.71875
40
0.75
40
0.75
40
0.78125
40
0.78125
40
0.8125
40
0.8125
40
0.84375
40
0.84375
40
0.875
40
0.875
40
0.90625
40
0.90625
40
0.9375
40
0.9375
40
0.953125
40
0.953125
40
0.95703125
40
0.95703125
40
0.9609375
40
0.96875
40
0.96875
40
1
40
1
40
1
40
1
41
1
10
96.6251877151917
20
12.5
30
0
41
1
10
96.717116718905
20
12.5
30
0
41
1
10
96.8090457226183
20
12.4598075596121
30
0
41
1
10
96.992903730045
20
12.2866930086118
30
0
41
1
10
97.0848327337584
20
12.1536936348599
30
0
41
1
10
97.2686907411851
20
11.787015874164
30
0
41
1
10
97.3606197448984
20
11.5532758667075
30
0
41
1
10
97.5444777523251
20
10.9838760435814
30
0
41
1
10
97.6364067560384
20
10.6481925117712
30
0
41
1
10
97.820264763465
20
9.88173715847535
30
0
41
1
10
97.9121937671785
20
9.45099382584618
30
0
41
1
10
98.0960517746051
20
8.50929328442308
30
0
41
1
10
98.1879807783184
20
7.99841427899
30
0
41
1
10
98.3718387857451
20
6.91773083809278
30
0
41
1
10
98.4637677894585
20
6.34803402293977
30
0
41
1
10
98.6476257968853
20
5.17453700806749
30
0
41
1
10
98.7395548005986
20
4.57084440323058
30
0
41
1
10
98.9234128080252
20
3.35436672447995
30
0
41
1
10
99.0153418117386
20
2.7416636096826
30
0
41
1
10
99.1991998191653
20
1.52943137426868
30
0
41
1
10
99.2911288228786
20
0.92994593437578
30
0
41
1
10
99.3945489520561
20
0.272836505760353
30
0
41
1
10
99.4060400775203
20
0.200061445844739
30
0
41
1
10
99.4290223284486
20
0.0550139259870548
30
0
41
1
10
99.4405134539127
20
-0.0170954783063735
30
0
41
1
10
99.4749868303052
20
-0.234401995983347
30
0
41
1
10
99.4979690812336
20
-0.380288524917688
30
0
41
1
10
99.5669158340186
20
-0.820648691760596
30
0
41
1
10
99.6128803358753
20
-1.11783316632636
30
0
41
1
10
99.7507738414453
20
-2.01707665567494
30
0
41
1
10
99.8427028451586
20
-2.62696453736186
30
0
41
1
10
100.026560852585
20
-3.84708103795626
30
0
41
1
10
100.118489856298
20
-4.45724222057208
30
0
41
1
10
100.302347863725
20
-5.65374492843671
30
0
41
1
10
100.394276867439
20
-6.23998656744291
30
0
41
1
10
100.578134874865
20
-7.36338044472916
30
0
41
1
10
100.670063878579
20
-7.90042147927821
30
0
41
1
10
100.853921886005
20
-8.90229611696392
30
0
41
1
10
100.945850889719
20
-9.36703662543579
30
0
41
1
10
101.129708897145
20
-10.2065250069211
30
0
41
1
10
101.221637900859
20
-10.581223282003
30
0
41
1
10
101.405495908286
20
-11.230403089088
30
0
41
1
10
101.497424911999
20
-11.5048885350279
30
0
41
1
10
101.681282919425
20
-11.95168571245
30
0
41
1
10
101.773211923139
20
-12.1240464875855
30
0
41
1
10
101.957069930565
20
-12.3720620377842
30
0
41
1
10
102.048998934279
20
-12.4477905901229
30
0
41
1
10
102.163910188921
20
-12.4888629774832
30
0
41
1
10
102.198383565313
20
-12.497180796789
30
0
41
1
10
102.232856941706
20
-12.4997233193528
30
0
41
1
10
102.255839192634
20
-12.5001617904139
30
0
41
1
10
102.267330318098
20
-12.4997559053488
30
0
41
1
10
102.324785945419
20
-12.494544839204
30
0
41
1
10
102.370750447276
20
-12.48017662085
30
0
41
1
10
102.508643952846
20
-12.4040625878395
30
0
41
1
10
102.600572956559
20
-12.3091501447042
30
0
41
1
10
102.784430963986
20
-12.0211083597257
30
0
41
1
10
102.876359967699
20
-11.827908445977
30
0
41
1
10
103.060217975126
20
-11.3391651985937
30
0
41
1
10
103.152146978839
20
-11.0435807074328
30
0
41
1
10
103.336004986266
20
-10.3536121894706
30
0
41
1
10
103.427933989979
20
-9.95923516485664
30
0
41
1
10
103.611791997406
20
-9.08347164728153
30
0
41
1
10
103.703721001119
20
-8.60214516512011
30
0
41
1
10
103.887579008546
20
-7.57151491297481
30
0
41
1
10
103.979508012259
20
-7.02231038611609
30
0
41
1
10
104.163366019686
20
-5.87973874894723
30
0
41
1
10
104.255295023399
20
-5.28648280135684
30
0
41
1
10
104.439153030826
20
-4.08113599525348
30
0
41
1
10
104.531082034539
20
-3.46913961915371
30
0
41
1
10
104.714940041966
20
-2.24996228335152
30
0
41
1
10
104.806869045679
20
-1.6428407412391
30
0
41
1
10
104.944762551249
20
-0.75047472119752
30
0
41
1
10
104.990727053106
20
-0.456035109636019
30
0
41
1
10
105.048182680427
20
-0.0929792777363048
30
0
41
1
10
105.059673805891
20
-0.0207756297594983
30
0
41
1
10
105.082656056819
20
0.123917192896784
30
0
41
1
10
105.117129433212
20
0.341724425103507
30
0
41
1
10
105.151602809604
20
0.561712214891855
30
0
41
1
10
105.266514064246
20
1.29925256408734
30
0
41
1
10
105.358443067959
20
1.90307465734909
30
0
41
1
10
105.450372071673
20
2.51140697746595
30
0
0
SPLINE
5
E3
100
AcDbEntity
8
1
62
256
6
ByLayer
370
13
48
1
60
0
100
AcDbSpline
70
4
71
3
72
41
73
37
40
0
40
0
40
0
40
0
40
0.0625
40
0.0625
40
0.0781250000000002
40
0.0781250000000002
40
0.0937500000000003
40
0.125000000000001
40
0.125000000000001
40
0.187500000000001
40
0.187500000000001
40
0.250000000000001
40
0.250000000000001
40
0.312500000000001
40
0.312500000000001
40
0.375000000000001
40
0.375000000000001
40
0.437500000000001
40
0.437500000000001
40
0.500000000000001
40
0.500000000000001
40
0.562500000000001
40
0.562500000000001
40
0.625000000000001
40
0.625000000000001
40
0.687500000000001
40
0.687500000000001
40
0.75
40
0.75
40
0.8125
40
0.8125
40
0.875
40
0.875
40
0.9375
40
0.9375
40
1
40
1
40
1
40
1
41
1
10
94.2
20
-1.229326843921
30
0
41
1
10
94.2625986732313
20
-0.822626302313097
30
0
41
1
10
94.3251973464627
20
-0.421135139015433
30
0
41
1
10
94.4034456880019
20
0.0711140485002488
30
0
41
1
10
94.4190953563096
20
0.16971662565598
30
0
41
1
10
94.4503946929253
20
0.368127025310258
30
0
41
1
10
94.4973436978487
20
0.667089253787111
30
0
41
1
10
94.5442927027723
20
0.969763870798175
30
0
41
1
10
94.6381907126192
20
1.57908888400652
30
0
41
1
10
94.7007893858505
20
1.99063918696086
30
0
41
1
10
94.8259867323131
20
2.81838571098123
30
0
41
1
10
94.8885854055445
20
3.23457467836857
30
0
41
1
10
95.013782752007
20
4.06461156482612
30
0
41
1
10
95.0763814252384
20
4.4784483375125
30
0
41
1
10
95.201578771701
20
5.2961115861788
30
0
41
1
10
95.2641774449323
20
5.69992370470891
30
0
41
1
10
95.3893747913949
20
6.48957204648832
30
0
41
1
10
95.4519734646262
20
6.87539207897362
30
0
41
1
10
95.5771708110889
20
7.62125853983662
30
0
41
1
10
95.6397694843201
20
7.98128884781943
30
0
41
1
10
95.7649668307827
20
8.66843850891757
30
0
41
1
10
95.827565504014
20
8.9955438935053
30
0
41
1
10
95.9527628504766
20
9.61082613496001
30
0
41
1
10
96.015361523708
20
9.89899299473461
30
0
41
1
10
96.1405588701706
20
10.4318665091519
30
0
41
1
10
96.2031575434019
20
10.676568299429
30
0
41
1
10
96.3283548898646
20
11.1196925653433
30
0
41
1
10
96.3909535630958
20
11.3181155874242
30
0
41
1
10
96.5161509095584
20
11.6676407484241
30
0
41
1
10
96.5787495827897
20
11.8187482503045
30
0
41
1
10
96.7039469292524
20
12.0742866308618
30
0
41
1
10
96.7665456024836
20
12.1787264445483
30
0
41
1
10
96.8917429489462
20
12.3430397482669
30
0
41
1
10
96.9543416221775
20
12.4029241901452
30
0
41
1
10
97.0795389686402
20
12.4813985941595
30
0
41
1
10
97.1421376418715
20
12.5
30
0
41
1
10
97.2047363151028
20
12.5
30
0
0
SPLINE
5
E4
100
AcDbEntity
8
1
62
256
6
ByLayer
370
13
48
1
60
0
100
AcDbSpline
70
4
71
3
72
82
73
78
40
0
40
0
40
0
40
0
40
0.0312500000000004
40
0.0312500000000004
40
0.0625000000000007
40
0.0625000000000007
40
0.093750000000001
40
0.093750000000001
40
0.125000000000001
40
0.125000000000001
40
0.156250000000002
40
0.156250000000002
40
0.187500000000002
40
0.187500000000002
40
0.218750000000002
40
0.218750000000002
40
0.250000000000003
40
0.250000000000003
40
0.281250000000003
40
0.281250000000003
40
0.296875000000003
40
0.296875000000003
40
0.300781250000003
40
0.300781250000003
40
0.304687500000003
40
0.304687500000003
40
0.312500000000003
40
0.312500000000003
40
0.343750000000002
40
0.343750000000002
40
0.375000000000002
40
0.375000000000002
40
0.406250000000001
40
0.406250000000001
40
0.4375
40
0.4375
40
0.46875
40
0.46875
40
0.499999999999999
40
0.499999999999999
40
0.531249999999998
40
0.531249999999998
40
0.562499999999997
40
0.562499999999997
40
0.593749999999997
40
0.593749999999997
40
0.601562499999997
40
0.601562499999997
40
0.605468749999997
40
0.605468749999997
40
0.609374999999997
40
0.609374999999997
40
0.624999999999997
40
0.624999999999997
40
0.656249999999997
40
0.656249999999997
40
0.687499999999998
40
0.687499999999998
40
0.718749999999998
40
0.718749999999998
40
0.749999999999998
40
0.749999999999998
40
0.781249999999998
40
0.781249999999998
40
0.812499999999999
40
0.812499999999999
40
0.843749999999999
40
0.843749999999999
40
0.874999999999999
40
0.874999999999999
40
0.906249999999999
40
0.906249999999999
40
0.9375
40
0.9375
40
0.96875
40
0.96875
40
1
40
1
40
1
40
1
41
1
10
96.140150284657
20
12.5
30
0
41
1
10
96.2371317616052
20
12.5
30
0
41
1
10
96.3341132385532
20
12.4552489948938
30
0
41
1
10
96.5280761924492
20
12.2618688311541
30
0
41
1
10
96.6250576693976
20
12.1131392257183
30
0
41
1
10
96.8190206232936
20
11.7030157034353
30
0
41
1
10
96.9160021002416
20
11.4415455138616
30
0
41
1
10
97.1099650541378
20
10.8057090357604
30
0
41
1
10
97.2069465310859
20
10.4313222884054
30
0
41
1
10
97.4009094849821
20
9.57954287354679
30
0
41
1
10
97.4978909619301
20
9.10220283062225
30
0
41
1
10
97.6918539158263
20
8.06409081423271
30
0
41
1
10
97.7888353927744
20
7.5034348610121
30
0
41
1
10
97.9827983466705
20
6.3253530776619
30
0
41
1
10
98.0797798236185
20
5.70807199650864
30
0
41
1
10
98.2737427775147
20
4.44642675515792
30
0
41
1
10
98.3707242544629
20
3.80219334348524
30
0
41
1
10
98.5646872083589
20
2.51506004801806
30
0
41
1
10
98.6616686853071
20
1.87224609150004
30
0
41
1
10
98.8071409007292
20
0.926871773800741
30
0
41
1
10
98.8556316392031
20
0.614844110605162
30
0
41
1
10
98.9162450622957
20
0.230164392925928
30
0
41
1
10
98.9283677469143
20
0.153495184602434
30
0
41
1
10
98.9526131161513
20
0.0007232688575698
30
0
41
1
10
98.9647358007699
20
-0.0753754088312917
30
0
41
1
10
99.0011038546253
20
-0.305082313573365
30
0
41
1
10
99.0253492238623
20
-0.459332879322005
30
0
41
1
10
99.1465760700474
20
-1.23546126744512
30
0
41
1
10
99.2435575469956
20
-1.8722110927682
30
0
41
1
10
99.4375205008918
20
-3.15577003784239
30
0
41
1
10
99.5345019778397
20
-3.80251130231176
30
0
41
1
10
99.7284649317359
20
-5.07898030135675
30
0
41
1
10
99.825446408684
20
-5.70858985412539
30
0
41
1
10
100.01940936258
20
-6.92113451866337
30
0
41
1
10
100.116390839528
20
-7.50392503906144
30
0
41
1
10
100.310353793424
20
-8.59463889001867
30
0
41
1
10
100.407335270372
20
-9.10243189706978
30
0
41
1
10
100.601298224269
20
-10.0207165917817
30
0
41
1
10
100.698279701217
20
-10.4311319391514
30
0
41
1
10
100.892242655113
20
-11.1412276978391
30
0
41
1
10
100.989224132061
20
-11.4409048821643
30
0
41
1
10
101.183187085957
20
-11.9263322432594
30
0
41
1
10
101.280168562905
20
-12.1121432036275
30
0
41
1
10
101.474131516801
20
-12.3759640803495
30
0
41
1
10
101.571112993749
20
-12.4540700565808
30
0
41
1
10
101.692339839934
20
-12.4924327759711
30
0
41
1
10
101.716585209172
20
-12.4971542593164
30
0
41
1
10
101.752953263027
20
-12.4999922445491
30
0
41
1
10
101.765075947645
20
-12.5002332416285
30
0
41
1
10
101.789321316883
20
-12.4993209639334
30
0
41
1
10
101.801444001501
20
-12.4981629982906
30
0
41
1
10
101.862057424594
20
-12.4887863664908
30
0
41
1
10
101.910548163068
20
-12.4697977412943
30
0
41
1
10
102.05602037849
20
-12.3755982541182
30
0
41
1
10
102.153001855438
20
-12.2629471352294
30
0
41
1
10
102.346964809334
20
-11.9270874533908
30
0
41
1
10
102.443946286282
20
-11.7037908103876
30
0
41
1
10
102.637909240178
20
-11.1432947585922
30
0
41
1
10
102.734890717126
20
-10.8060532524061
30
0
41
1
10
102.928853671023
20
-10.0241130057007
30
0
41
1
10
103.025835147971
20
-9.57944207637462
30
0
41
1
10
103.219798101867
20
-8.59916877344048
30
0
41
1
10
103.316779578815
20
-8.06366408917248
30
0
41
1
10
103.510742532711
20
-6.92641830529146
30
0
41
1
10
103.607724009659
20
-6.32481715754045
30
0
41
1
10
103.801686963555
20
-5.08454822938853
30
0
41
1
10
103.898668440503
20
-4.44602023593458
30
0
41
1
10
104.092631394399
20
-3.16117776829739
30
0
41
1
10
104.189612871348
20
-2.51496632678462
30
0
41
1
10
104.383575825244
20
-1.24037805190917
30
0
41
1
10
104.480557302192
20
-0.612051001023644
30
0
41
1
10
104.674520256088
20
0.607141326258386
30
0
41
1
10
104.771501733036
20
1.23529207006302
30
0
41
1
10
104.965464686932
20
2.50978676062277
30
0
41
1
10
105.06244616388
20
3.15598210500016
30
0
41
1
10
105.256409117776
20
4.44086721216959
30
0
41
1
10
105.353390594725
20
5.0794540735404
30
0
41
1
10
105.450372071673
20
5.6996875415532
30
0
0
SPLINE
5
E5
100
AcDbEntity
8
1
62
256
6
ByLayer
370
13
48
1
60
0
100
AcDbSpline
70
4
71
3
72
32
73
28
40
0
40
0
40
0
40
0
40
0.125000000000001
40
0.125000000000001
40
0.1875
40
0.1875
40
0.25
40
0.25
40
0.3125
40
0.3125
40
0.375
40
0.375
40
0.4375
40
0.4375
40
0.5
40
0.5
40
0.5625
40
0.5625
40
0.625
40
0.625
40
0.6875
40
0.6875
40
0.749999999999999
40
0.749999999999999
40
0.875
40
0.875
40
1
40
1
40
1
40
1
41
1
10
94.2
20
1.88791853110538
30
0
41
1
10
94.3049874535238
20
2.57792290200754
30
0
41
1
10
94.4099749070474
20
3.27834514435116
30
0
41
1
10
94.5674560873328
20
4.32021316051481
30
0
41
1
10
94.6199498140948
20
4.66598490800428
30
0
41
1
10
94.7249372676183
20
5.34993313984808
30
0
41
1
10
94.7774309943802
20
5.68810355730403
30
0
41
1
10
94.8824184479039
20
6.35215394254919
30
0
41
1
10
94.9349121746658
20
6.67802721140353
30
0
41
1
10
95.0398996281895
20
7.31285632391482
30
0
41
1
10
95.0923933549513
20
7.62180538856134
30
0
41
1
10
95.197380808475
20
8.21843175292068
30
0
41
1
10
95.2498745352368
20
8.50610280471375
30
0
41
1
10
95.3548619887604
20
9.05628924874017
30
0
41
1
10
95.4073557155223
20
9.31879950458728
30
0
41
1
10
95.5123431690458
20
9.81542386577425
30
0
41
1
10
95.5648368958078
20
10.0495344058827
30
0
41
1
10
95.6698243493314
20
10.4868944140397
30
0
41
1
10
95.7223180760933
20
10.6901421573097
30
0
41
1
10
95.8273055296169
20
11.064167416593
30
0
41
1
10
95.8797992563788
20
11.2349450941156
30
0
41
1
10
95.9847867099025
20
11.5433002447369
30
0
41
1
10
96.0372804366643
20
11.6808795970302
30
0
41
1
10
96.1947616169498
20
12.0439939624583
30
0
41
1
10
96.2997490704735
20
12.2195873175257
30
0
41
1
10
96.5097239775208
20
12.4475164169563
30
0
41
1
10
96.6147114310445
20
12.5
30
0
41
1
10
96.7196988845682
20
12.5
30
0
0
SPLINE
5
E6
100
AcDbEntity
8
1
62
256
6
ByLayer
370
13
48
1
60
0
100
AcDbSpline
70
4
71
3
72
101
73
97
40
0
40
0
40
0
40
0
40
0.0312499999999991
40
0.0312499999999991
40
0.0624999999999981
40
0.0624999999999981
40
0.0937499999999972
40
0.0937499999999972
40
0.109374999999997
40
0.109374999999997
40
0.124999999999996
40
0.124999999999996
40
0.140624999999996
40
0.140624999999996
40
0.156249999999995
40
0.156249999999995
40
0.171874999999995
40
0.171874999999995
40
0.187499999999994
40
0.187499999999994
40
0.218749999999993
40
0.218749999999993
40
0.249999999999993
40
0.249999999999993
40
0.281249999999992
40
0.281249999999992
40
0.285156249999992
40
0.285156249999992
40
0.289062499999992
40
0.289062499999992
40
0.296874999999992
40
0.296874999999992
40
0.312499999999993
40
0.312499999999993
40
0.343749999999993
40
0.343749999999993
40
0.374999999999994
40
0.374999999999994
40
0.406249999999995
40
0.406249999999995
40
0.421874999999996
40
0.421874999999996
40
0.437499999999996
40
0.437499999999996
40
0.453124999999996
40
0.453124999999996
40
0.468749999999997
40
0.468749999999997
40
0.499999999999998
40
0.499999999999998
40
0.531249999999998
40
0.531249999999998
40
0.562499999999999
40
0.562499999999999
40
0.570312499999999
40
0.570312499999999
40
0.578125
40
0.578125
40
0.59375
40
0.59375
40
0.625000000000001
40
0.625000000000001
40
0.656250000000001
40
0.656250000000001
40
0.687500000000002
40
0.687500000000002
40
0.703125000000002
40
0.703125000000002
40
0.718750000000003
40
0.718750000000003
40
0.734375000000003
40
0.734375000000003
40
0.750000000000003
40
0.750000000000003
40
0.781250000000004
40
0.781250000000004
40
0.812500000000004
40
0.812500000000004
40
0.843750000000005
40
0.843750000000005
40
0.859375000000005
40
0.859375000000005
40
0.863281250000005
40
0.863281250000005
40
0.867187500000005
40
0.875000000000005
40
0.875000000000005
40
0.906250000000004
40
0.906250000000004
40
0.937500000000002
40
0.937500000000002
40
0.968750000000001
40
0.968750000000001
40
0.984375000000001
40
0.984375000000001
40
1
40
1
40
1
40
1
41
1
10
95.6551128541224
20
12.5
30
0
41
1
10
95.7571468043053
20
12.5
30
0
41
1
10
95.8591807544882
20
12.4504419113332
30
0
41
1
10
96.0632486548537
20
12.2356077741048
30
0
41
1
10
96.1652826050365
20
12.0702030274256
30
0
41
1
10
96.3693505054022
20
11.6140999590274
30
0
41
1
10
96.4713844555849
20
11.3233092581018
30
0
41
1
10
96.6244353808592
20
10.7940445635039
30
0
41
1
10
96.6754523559506
20
10.6022031773298
30
0
41
1
10
96.7774863061334
20
10.189007873662
30
0
41
1
10
96.8285032812248
20
9.96765512648724
30
0
41
1
10
96.9305372314076
20
9.49753501444377
30
0
41
1
10
96.981554206499
20
9.24877039579468
30
0
41
1
10
97.0835881566819
20
8.72663714370384
30
0
41
1
10
97.1346051317732
20
8.4532726517408
30
0
41
1
10
97.236639081956
20
7.8853587523964
30
0
41
1
10
97.2876560570475
20
7.59081454006528
30
0
41
1
10
97.3896900072303
20
6.98442727461932
30
0
41
1
10
97.4407069823217
20
6.67259001505741
30
0
41
1
10
97.5937579075959
20
5.71740951850887
30
0
41
1
10
97.6957918577788
20
5.0544401241896
30
0
41
1
10
97.8998597581444
20
3.7103876899879
30
0
41
1
10
98.0018937083272
20
3.02945517399436
30
0
41
1
10
98.2059616086929
20
1.68086107922366
30
0
41
1
10
98.3079955588756
20
1.01328115326913
30
0
41
1
10
98.4227837528313
20
0.283536801288221
30
0
41
1
10
98.4355379966042
20
0.202744662567454
30
0
41
1
10
98.4610464841498
20
0.0417804102699506
30
0
41
1
10
98.4738007279227
20
-0.0382274392688657
30
0
41
1
10
98.5120634592412
20
-0.279646369005292
30
0
41
1
10
98.5375719467869
20
-0.441834489630253
30
0
41
1
10
98.6140974094239
20
-0.931647019292399
30
0
41
1
10
98.6651143845154
20
-1.26253502285002
30
0
41
1
10
98.8181653097897
20
-2.26384430363376
30
0
41
1
10
98.9201992599724
20
-2.9431093076748
30
0
41
1
10
99.1242671603382
20
-4.29622615589864
30
0
41
1
10
99.226301110521
20
-4.96995137684294
30
0
41
1
10
99.4303690108866
20
-6.27813925923476
30
0
41
1
10
99.5324029610694
20
-6.91242318790142
30
0
41
1
10
99.6854538863436
20
-7.80887768766198
30
0
41
1
10
99.7364708614351
20
-8.09855054410963
30
0
41
1
10
99.8385048116178
20
-8.65582979496094
30
0
41
1
10
99.8895217867092
20
-8.92343121492121
30
0
41
1
10
99.991555736892
20
-9.43328419663823
30
0
41
1
10
100.042572711983
20
-9.67553193447159
30
0
41
1
10
100.144606662166
20
-10.1320315584117
30
0
41
1
10
100.195623637258
20
-10.346281076548
30
0
41
1
10
100.348674562532
20
-10.9441638551944
30
0
41
1
10
100.450708512715
20
-11.2825397651551
30
0
41
1
10
100.65477641308
20
-11.8329030416625
30
0
41
1
10
100.756810363263
20
-12.0449569819262
30
0
41
1
10
100.960878263629
20
-12.348432777261
30
0
41
1
10
101.062912213812
20
-12.43997523096
30
0
41
1
10
101.19045465154
20
-12.4881041682503
30
0
41
1
10
101.215963139086
20
-12.494431003831
30
0
41
1
10
101.266980114177
20
-12.5007663877642
30
0
41
1
10
101.292488601723
20
-12.5008113660742
30
0
41
1
10
101.36901406436
20
-12.491587796634
30
0
41
1
10
101.420031039451
20
-12.4728013725193
30
0
41
1
10
101.573081964726
20
-12.3752824795721
30
0
41
1
10
101.675115914909
20
-12.2551347883839
30
0
41
1
10
101.879183815274
20
-11.8920546558596
30
0
41
1
10
101.981217765457
20
-11.6490105385568
30
0
41
1
10
102.185285665823
20
-11.0369417916268
30
0
41
1
10
102.287319616005
20
-10.6678705701002
30
0
41
1
10
102.44037054128
20
-10.0264798419791
30
0
41
1
10
102.491387516371
20
-9.79815152282697
30
0
41
1
10
102.593421466554
20
-9.31470969352532
30
0
41
1
10
102.644438441645
20
-9.05959929679636
30
0
41
1
10
102.746472391828
20
-8.5255650768724
30
0
41
1
10
102.797489366919
20
-8.24664569174854
30
0
41
1
10
102.899523317102
20
-7.66854195376652
30
0
41
1
10
102.950540292194
20
-7.36936298862915
30
0
41
1
10
103.103591217468
20
-6.44739290406164
30
0
41
1
10
103.205625167651
20
-5.80014642659197
30
0
41
1
10
103.409693068016
20
-4.47461409274746
30
0
41
1
10
103.511727018199
20
-3.7964978886771
30
0
41
1
10
103.715794918565
20
-2.44236449703655
30
0
41
1
10
103.817828868747
20
-1.7664566325368
30
0
41
1
10
103.970879794022
20
-0.774730807054993
30
0
41
1
10
104.021896769113
20
-0.447790131671638
30
0
41
1
10
104.085667987977
20
-0.0453337943172301
30
0
41
1
10
104.09842223175
20
0.0346748816724585
30
0
41
1
10
104.123930719296
20
0.195602519207483
30
0
41
1
10
104.162193450614
20
0.437925193130752
30
0
41
1
10
104.200456181933
20
0.682870247254442
30
0
41
1
10
104.327998619662
20
1.50434534584559
30
0
41
1
10
104.430032569844
20
2.17779035056665
30
0
41
1
10
104.63410047021
20
3.53095234123339
30
0
41
1
10
104.736134420393
20
4.21056949226346
30
0
41
1
10
104.940202320759
20
5.54360722770997
30
0
41
1
10
105.042236270941
20
6.19686413159911
30
0
41
1
10
105.195287196215
20
7.13114689150689
30
0
41
1
10
105.246304171307
20
7.43497385660154
30
0
41
1
10
105.34833812149
20
8.02337737977513
30
0
41
1
10
105.399355096581
20
8.30794837765023
30
0
41
1
10
105.450372071673
20
8.58105552788487
30
0
0
SPLINE
5
E7
100
AcDbEntity
8
1
62
256
6
ByLayer
370
13
48
1
60
0
100
AcDbSpline
70
4
71
3
72
22
73
18
40
0
40
0
40
0
40
0
40
0.125
40
0.125
40
0.25
40
0.25
40
0.375
40
0.375
40
0.5
40
0.5
40
0.625
40
0.625
40
0.75
40
0.75
40
0.875
40
0.875
40
1
40
1
40
1
40
1
41
1
10
94.2
20
5.08992860733352
30
0
41
1
10
94.2847775605848
20
5.64121098062299
30
0
41
1
10
94.3695551211696
20
6.18207754142659
30
0
41
1
10
94.5391102423389
20
7.22329954706848
30
0
41
1
10
94.6238878029237
20
7.72358059211905
30
0
41
1
10
94.7934429240931
20
8.66523546566148
30
0
41
1
10
94.8782204846779
20
9.10654426583568
30
0
41
1
10
95.0477756058473
20
9.91543421497482
30
0
41
1
10
95.132553166432
20
10.2829750086081
30
0
41
1
10
95.3021082876015
20
10.9347196799502
30
0
41
1
10
95.3868858481863
20
11.2189158305734
30
0
41
1
10
95.5564409693558
20
11.7003161462659
30
0
41
1
10
95.6412185299405
20
11.8975432836303
30
0
41
1
10
95.8107736511099
20
12.2070593918513
30
0
41
1
10
95.8955512116947
20
12.3193922102128
30
0
41
1
10
96.0651063328642
20
12.4658366012878
30
0
41
1
10
96.1498838934489
20
12.5
30
0
41
1
10
96.2346614540336
20
12.5
30
0
0
SPLINE
5
E8
100
AcDbEntity
8
1
62
256
6
ByLayer
370
13
48
1
60
0
100
AcDbSpline
70
4
71
3
72
132
73
128
40
0
40
0
40
0
40
0
40
0.0312500000000011
40
0.0312500000000011
40
0.0468750000000017
40
0.0468750000000017
40
0.0625000000000022
40
0.0625000000000022
40
0.0781250000000028
40
0.0781250000000028
40
0.0937500000000033
40
0.0937500000000033
40
0.109375000000004
40
0.109375000000004
40
0.125000000000004
40
0.125000000000004
40
0.140625000000005
40
0.140625000000005
40
0.156250000000006
40
0.156250000000006
40
0.171875000000006
40
0.171875000000006
40
0.187500000000007
40
0.187500000000007
40
0.203125000000007
40
0.203125000000007
40
0.218750000000008
40
0.218750000000008
40
0.234375000000008
40
0.234375000000008
40
0.250000000000009
40
0.250000000000009
40
0.265625000000009
40
0.265625000000009
40
0.27343750000001
40
0.27343750000001
40
0.28125000000001
40
0.28125000000001
40
0.31250000000001
40
0.31250000000001
40
0.32812500000001
40
0.32812500000001
40
0.34375000000001
40
0.34375000000001
40
0.359375000000011
40
0.359375000000011
40
0.375000000000011
40
0.375000000000011
40
0.390625000000011
40
0.390625000000011
40
0.406250000000011
40
0.406250000000011
40
0.421875000000011
40
0.421875000000011
40
0.437500000000011
40
0.437500000000011
40
0.453125000000011
40
0.453125000000011
40
0.468750000000012
40
0.468750000000012
40
0.484375000000012
40
0.484375000000012
40
0.500000000000012
40
0.500000000000012
40
0.531250000000012
40
0.531250000000012
40
0.546875000000012
40
0.546875000000012
40
0.554687500000012
40
0.554687500000012
40
0.562500000000012
40
0.562500000000012
40
0.593750000000012
40
0.593750000000012
40
0.609375000000011
40
0.609375000000011
40
0.625000000000011
40
0.625000000000011
40
0.640625000000011
40
0.640625000000011
40
0.656250000000011
40
0.656250000000011
40
0.67187500000001
40
0.67187500000001
40
0.68750000000001
40
0.68750000000001
40
0.70312500000001
40
0.70312500000001
40
0.718750000000009
40
0.718750000000009
40
0.734375000000009
40
0.734375000000009
40
0.750000000000009
40
0.750000000000009
40
0.765625000000009
40
0.765625000000009
40
0.781250000000008
40
0.781250000000008
40
0.812500000000008
40
0.812500000000008
40
0.820312500000008
40
0.820312500000008
40
0.824218750000007
40
0.824218750000007
40
0.828125000000007
40
0.828125000000007
40
0.843750000000007
40
0.843750000000007
40
0.859375000000006
40
0.859375000000006
40
0.875000000000005
40
0.875000000000005
40
0.890625000000005
40
0.890625000000005
40
0.906250000000004
40
0.906250000000004
40
0.921875000000003
40
0.921875000000003
40
0.937500000000003
40
0.937500000000003
40
0.953125000000002
40
0.953125000000002
40
0.968750000000001
40
0.968750000000001
40
0.984375000000001
40
0.984375000000001
40
1
40
1
40
1
40
1
41
1
10
95.1700754235878
20
12.5
30
0
41
1
10
95.2771618470054
20
12.5
30
0
41
1
10
95.384248270423
20
12.4453854547286
30
0
41
1
10
95.5448779055494
20
12.2672718865663
30
0
41
1
10
95.598421117258
20
12.1919163517521
30
0
41
1
10
95.7055075406755
20
12.0076402725882
30
0
41
1
10
95.7590507523843
20
11.8987151375376
30
0
41
1
10
95.8661371758019
20
11.6464098810311
30
0
41
1
10
95.9196803875107
20
11.5030262668452
30
0
41
1
10
96.0267668109282
20
11.1817540692406
30
0
41
1
10
96.0803100226369
20
11.0038635871633
30
0
41
1
10
96.1873964460545
20
10.6144503959132
30
0
41
1
10
96.2409396577634
20
10.4029277530628
30
0
41
1
10
96.3480260811809
20
9.94807447676152
30
0
41
1
10
96.4015692928897
20
9.70474604052936
30
0
41
1
10
96.5086557163073
20
9.18902337169166
30
0
41
1
10
96.562198928016
20
8.91663337813719
30
0
41
1
10
96.6692853514335
20
8.34635059515981
30
0
41
1
10
96.7228285631422
20
8.048463738788
30
0
41
1
10
96.8299149865599
20
7.43141685928316
30
0
41
1
10
96.8834581982686
20
7.11226390389217
30
0
41
1
10
96.9905446216862
20
6.45738371915004
30
0
41
1
10
97.0440878333949
20
6.12166401040906
30
0
41
1
10
97.1511742568125
20
5.43859691866882
30
0
41
1
10
97.2047174685212
20
5.09125681425425
30
0
41
1
10
97.3118038919388
20
4.38991857378241
30
0
41
1
10
97.3653471036476
20
4.03592687026148
30
0
41
1
10
97.4724335270652
20
3.32607021774189
30
0
41
1
10
97.5259767387739
20
2.97021041819084
30
0
41
1
10
97.6330631621914
20
2.26104224706412
30
0
41
1
10
97.6866063739002
20
1.9077375077425
30
0
41
1
10
97.7936927973177
20
1.20761157210831
30
0
41
1
10
97.8472360090266
20
0.860792455155547
30
0
41
1
10
97.9275508265897
20
0.347941874049269
30
0
41
1
10
97.9543224324441
20
0.178216662299803
30
0
41
1
10
98.0078656441529
20
-0.15842258693246
30
0
41
1
10
98.0346372500073
20
-0.327937029185705
30
0
41
1
10
98.1684952792792
20
-1.18220690741344
30
0
41
1
10
98.2755817026967
20
-1.8857071854508
30
0
41
1
10
98.4362113378231
20
-2.94930916274728
30
0
41
1
10
98.4897545495319
20
-3.30515995417198
30
0
41
1
10
98.5968409729494
20
-4.0150892373205
30
0
41
1
10
98.6503841846582
20
-4.36916260776817
30
0
41
1
10
98.7574706080757
20
-5.07076034473943
30
0
41
1
10
98.8110138197845
20
-5.41827830031187
30
0
41
1
10
98.918100243202
20
-6.1017989879636
30
0
41
1
10
98.9716434549108
20
-6.43779445268515
30
0
41
1
10
99.0787298783284
20
-7.09332148289516
30
0
41
1
10
99.1322730900371
20
-7.41284552598117
30
0
41
1
10
99.2393595134547
20
-8.03072291282857
30
0
41
1
10
99.2929027251635
20
-8.32906917319397
30
0
41
1
10
99.3999891485811
20
-8.90034791352909
30
0
41
1
10
99.4535323602898
20
-9.17327443226444
30
0
41
1
10
99.5606187837074
20
-9.69013260212239
30
0
41
1
10
99.6141619954161
20
-9.93405997684485
30
0
41
1
10
99.7212484188337
20
-10.390156363794
30
0
41
1
10
99.7747916305425
20
-10.6023231370477
30
0
41
1
10
99.8818780539601
20
-10.993051293558
30
0
41
1
10
99.9354212656688
20
-11.1716125695368
30
0
41
1
10
100.042507689086
20
-11.4942344788548
30
0
41
1
10
100.096050900795
20
-11.6382969753443
30
0
41
1
10
100.203137324213
20
-11.8919506526431
30
0
41
1
10
100.256680535921
20
-12.0015452994363
30
0
41
1
10
100.417310171048
20
-12.2799308231887
30
0
41
1
10
100.524396594465
20
-12.3980507613068
30
0
41
1
10
100.685026229592
20
-12.485287325528
30
0
41
1
10
100.7385694413
20
-12.4994509836407
30
0
41
1
10
100.818884258864
20
-12.5002509921501
30
0
41
1
10
100.845655864718
20
-12.4971250286561
30
0
41
1
10
100.899199076427
20
-12.4837579495742
30
0
41
1
10
100.925970682281
20
-12.4735161706361
30
0
41
1
10
101.059828711553
20
-12.4037353737932
30
0
41
1
10
101.166915134971
20
-12.2881402962072
30
0
41
1
10
101.327544770097
20
-12.013696130801
30
0
41
1
10
101.381087981806
20
-11.9054401619043
30
0
41
1
10
101.488174405223
20
-11.6544829591101
30
0
41
1
10
101.541717616932
20
-11.5117782059303
30
0
41
1
10
101.64880404035
20
-11.1918560337719
30
0
41
1
10
101.702347252058
20
-11.0146366807716
30
0
41
1
10
101.809433675476
20
-10.6265394927922
30
0
41
1
10
101.862976887185
20
-10.4156616832456
30
0
41
1
10
101.970063310602
20
-9.96205327821136
30
0
41
1
10
102.023606522311
20
-9.71932483815394
30
0
41
1
10
102.130692945728
20
-9.2047401029771
30
0
41
1
10
102.184236157437
20
-8.9328880094244
30
0
41
1
10
102.291322580855
20
-8.36360419101953
30
0
41
1
10
102.344865792564
20
-8.06617837081728
30
0
41
1
10
102.451952215981
20
-7.44996544411603
30
0
41
1
10
102.50549542769
20
-7.13118538943954
30
0
41
1
10
102.612581851108
20
-6.47695577148542
30
0
41
1
10
102.666125062816
20
-6.14151372675516
30
0
41
1
10
102.773211486234
20
-5.45890405528701
30
0
41
1
10
102.826754697943
20
-5.11174371812618
30
0
41
1
10
102.93384112136
20
-4.41066873423984
30
0
41
1
10
102.987384333069
20
-4.05676054146676
30
0
41
1
10
103.094470756486
20
-3.34698006743898
30
0
41
1
10
103.148013968195
20
-2.99111296371365
30
0
41
1
10
103.308643603321
20
-1.92721525328659
30
0
41
1
10
103.415730026739
20
-1.2231877201441
30
0
41
1
10
103.549588056011
20
-0.367958586472071
30
0
41
1
10
103.576359661865
20
-0.198130265293997
30
0
41
1
10
103.616517070647
20
0.0545139079742682
30
0
41
1
10
103.629902873574
20
0.138781216694554
30
0
41
1
10
103.656674479429
20
0.308253775886328
30
0
41
1
10
103.670060282356
20
0.393322705670982
30
0
41
1
10
103.736989296992
20
0.820215642907186
30
0
41
1
10
103.7905325087
20
1.16670822925366
30
0
41
1
10
103.897618932118
20
1.8663237712102
30
0
41
1
10
103.951162143827
20
2.21944470665386
30
0
41
1
10
104.058248567244
20
2.92840929558966
30
0
41
1
10
104.111791778953
20
3.28424937824539
30
0
41
1
10
104.218878202371
20
3.99424774961281
30
0
41
1
10
104.27242141408
20
4.34840094530804
30
0
41
1
10
104.379507837497
20
5.05025442151384
30
0
41
1
10
104.433051049206
20
5.39794831282606
30
0
41
1
10
104.540137472623
20
6.08191877172374
30
0
41
1
10
104.593680684332
20
6.41818808341191
30
0
41
1
10
104.70076710775
20
7.07435823408207
30
0
41
1
10
104.754310319458
20
7.39425154913934
30
0
41
1
10
104.861396742876
20
8.01295599083974
30
0
41
1
10
104.914939954585
20
8.31176001869915
30
0
41
1
10
105.022026378002
20
8.88403169916793
30
0
41
1
10
105.075569589711
20
9.15749336257886
30
0
41
1
10
105.182656013129
20
9.67548458847321
30
0
41
1
10
105.236199224837
20
9.92000983734445
30
0
41
1
10
105.343285648255
20
10.3773475605025
30
0
41
1
10
105.396828859964
20
10.590157754098
30
0
41
1
10
105.450372071673
20
10.7861787888086
30
0
0
SPLINE
5
E9
100
AcDbEntity
8
1
62
256
6
ByLayer
370
13
48
1
60
0
100
AcDbSpline
70
4
71
3
72
22
73
18
40
0
40
0
40
0
40
0
40
0.125
40
0.125
40
0.25
40
0.25
40
0.375000000000001
40
0.375000000000001
40
0.500000000000001
40
0.500000000000001
40
0.625000000000001
40
0.625000000000001
40
0.75
40
0.75
40
0.875
40
0.875
40
1
40
1
40
1
40
1
41
1
10
94.2
20
8.06243316332154
30
0
41
1
10
94.2645676676458
20
8.42511759152296
30
0
41
1
10
94.3291353352915
20
8.7711841284524
30
0
41
1
10
94.4582706705832
20
9.42317994093401
30
0
41
1
10
94.5228383382291
20
9.72909637993706
30
0
41
1
10
94.6519736735206
20
10.2954587240558
30
0
41
1
10
94.7165413411664
20
10.5558977631522
30
0
41
1
10
94.845676676458
20
11.0278756045913
30
0
41
1
10
94.9102443441037
20
11.239414071632
30
0
41
1
10
95.0393796793953
20
11.6121737152364
30
0
41
1
10
95.1039473470411
20
11.7734005089368
30
0
41
1
10
95.2330826823327
20
12.0460499137131
30
0
41
1
10
95.2976503499785
20
12.1574826322064
30
0
41
1
10
95.42678568527
20
12.3327449389896
30
0
41
1
10
95.4913533529159
20
12.3965872143186
30
0
41
1
10
95.6204886882074
20
12.4802080637696
30
0
41
1
10
95.6850563558532
20
12.5
30
0
41
1
10
95.749624023499
20
12.5
30
0
0
SPLINE
5
EA
100
AcDbEntity
8
1
62
256
6
ByLayer
370
13
48
1
60
0
100
AcDbSpline
70
4
71
3
72
145
73
141
40
0
40
0
40
0
40
0
40
0.0156249999999999
40
0.0156249999999999
40
0.0312499999999998
40
0.0312499999999998
40
0.0468749999999998
40
0.0468749999999998
40
0.0624999999999997
40
0.0624999999999997
40
0.0781249999999996
40
0.0781249999999996
40
0.0937499999999996
40
0.0937499999999996
40
0.109375
40
0.109375
40
0.125
40
0.125
40
0.140624999999999
40
0.140624999999999
40
0.156249999999999
40
0.156249999999999
40
0.171874999999999
40
0.171874999999999
40
0.187499999999999
40
0.187499999999999
40
0.203124999999999
40
0.203124999999999
40
0.218749999999999
40
0.218749999999999
40
0.234374999999999
40
0.234374999999999
40
0.249999999999999
40
0.249999999999999
40
0.257812499999999
40
0.257812499999999
40
0.261718749999999
40
0.261718749999999
40
0.265624999999999
40
0.265624999999999
40
0.281249999999999
40
0.281249999999999
40
0.296874999999999
40
0.296874999999999
40
0.312499999999999
40
0.312499999999999
40
0.328124999999999
40
0.328124999999999
40
0.343749999999999
40
0.343749999999999
40
0.359374999999999
40
0.359374999999999
40
0.374999999999999
40
0.374999999999999
40
0.390624999999999
40
0.390624999999999
40
0.406249999999999
40
0.406249999999999
40
0.421874999999999
40
0.421874999999999
40
0.437499999999999
40
0.437499999999999
40
0.453124999999999
40
0.453124999999999
40
0.468749999999999
40
0.468749999999999
40
0.484374999999999
40
0.484374999999999
40
0.499999999999999
40
0.499999999999999
40
0.515624999999999
40
0.515624999999999
40
0.519531249999999
40
0.519531249999999
40
0.523437499999999
40
0.523437499999999
40
0.531249999999999
40
0.531249999999999
40
0.546874999999999
40
0.546874999999999
40
0.562499999999999
40
0.562499999999999
40
0.578124999999999
40
0.578124999999999
40
0.593749999999999
40
0.593749999999999
40
0.609374999999999
40
0.609374999999999
40
0.624999999999999
40
0.624999999999999
40
0.640624999999999
40
0.640624999999999
40
0.656249999999999
40
0.656249999999999
40
0.671874999999999
40
0.671874999999999
40
0.687499999999999
40
0.687499999999999
40
0.703124999999999
40
0.703124999999999
40
0.718749999999999
40
0.718749999999999
40
0.734374999999999
40
0.734374999999999
40
0.749999999999999
40
0.749999999999999
40
0.765625
40
0.765625
40
0.78125
40
0.78125
40
0.78515625
40
0.78515625
40
0.7890625
40
0.796875
40
0.796875
40
0.8125
40
0.8125
40
0.828125
40
0.828125
40
0.84375
40
0.84375
40
0.859375
40
0.859375
40
0.875
40
0.875
40
0.890625
40
0.890625
40
0.90625
40
0.90625
40
0.921875
40
0.921875
40
0.9375
40
0.9375
40
0.953125
40
0.953125
40
0.96875
40
0.96875
40
0.984375
40
0.984375
40
1
40
1
40
1
40
1
41
1
10
94.6850379930532
20
12.5
30
0
41
1
10
94.7411074413794
20
12.5
30
0
41
1
10
94.7971768897055
20
12.4850810265897
30
0
41
1
10
94.9093157863578
20
12.4224561835545
30
0
41
1
10
94.9653852346839
20
12.3747437253275
30
0
41
1
10
95.0775241313362
20
12.2440737692911
30
0
41
1
10
95.1335935796624
20
12.1611098214735
30
0
41
1
10
95.2457324763147
20
11.9581798069815
30
0
41
1
10
95.3018019246408
20
11.8382081174707
30
0
41
1
10
95.4139408212931
20
11.5603904846041
30
0
41
1
10
95.4700102696193
20
11.4025404801276
30
0
41
1
10
95.5821491662715
20
11.0491271477939
30
0
41
1
10
95.6382186145976
20
10.8535619807642
30
0
41
1
10
95.7503575112499
20
10.4260032643687
30
0
41
1
10
95.8064269595761
20
10.1940105507118
30
0
41
1
10
95.9185658562284
20
9.6960222486515
30
0
41
1
10
95.9746353045545
20
9.4300303041334
30
0
41
1
10
96.0867742012068
20
8.86754258838064
30
0
41
1
10
96.1428436495329
20
8.57105302551037
30
0
41
1
10
96.2549825461853
20
7.95199355408386
30
0
41
1
10
96.3110519945114
20
7.62943181773008
30
0
41
1
10
96.4231908911636
20
6.96335754782854
30
0
41
1
10
96.4792603394898
20
6.61985429050441
30
0
41
1
10
96.5913992361421
20
5.91746732634672
30
0
41
1
10
96.6474686844682
20
5.55859303249625
30
0
41
1
10
96.7596075811206
20
4.83119100285361
30
0
41
1
10
96.8156770294466
20
4.46267190792597
30
0
41
1
10
96.9278159260989
20
3.72158971392807
30
0
41
1
10
96.9838853744251
20
3.34903377148427
30
0
41
1
10
97.0960242710775
20
2.60513024161003
30
0
41
1
10
97.1520937194035
20
2.23378789297203
30
0
41
1
10
97.2642326160558
20
1.49701948616425
30
0
41
1
10
97.3203020643818
20
1.13159660990982
30
0
41
1
10
97.4044062368712
20
0.590927205541391
30
0
41
1
10
97.4324409610342
20
0.411942696493298
30
0
41
1
10
97.4744930472788
20
0.145650539510541
30
0
41
1
10
97.4885104093603
20
0.0573985386905349
30
0
41
1
10
97.5165451335234
20
-0.118983947772676
30
0
41
1
10
97.530562495605
20
-0.207558263984794
30
0
41
1
10
97.6006493060127
20
-0.652218334140969
30
0
41
1
10
97.6567187543387
20
-1.01369830808699
30
0
41
1
10
97.768857650991
20
-1.74445055354278
30
0
41
1
10
97.8249270993172
20
-2.11372052760805
30
0
41
1
10
97.9370659959695
20
-2.85563342535741
30
0
41
1
10
97.9931354442957
20
-3.22827201830685
30
0
41
1
10
98.105274340948
20
-3.97189473992862
30
0
41
1
10
98.161343789274
20
-4.34287252356512
30
0
41
1
10
98.2734826859264
20
-5.07769861651551
30
0
41
1
10
98.3295521342525
20
-5.44153886822502
30
0
41
1
10
98.4416910309047
20
-6.15638480592526
30
0
41
1
10
98.4977604792309
20
-6.50738131697554
30
0
41
1
10
98.6098993758832
20
-7.19086569055054
30
0
41
1
10
98.6659688242094
20
-7.52334409692423
30
0
41
1
10
98.7781077208616
20
-8.16443211028815
30
0
41
1
10
98.8341771691877
20
-8.47303294108335
30
0
41
1
10
98.94631606584
20
-9.06159687454701
30
0
41
1
10
99.0023855141661
20
-9.34155280882035
30
0
41
1
10
99.1145244108183
20
-9.86889192196921
30
0
41
1
10
99.1705938591446
20
-10.1162702714314
30
0
41
1
10
99.2827327557969
20
-10.5755356522653
30
0
41
1
10
99.338802204123
20
-10.7874206019491
30
0
41
1
10
99.4509411007753
20
-11.1739019980724
30
0
41
1
10
99.5070105491014
20
-11.3484991410134
30
0
41
1
10
99.6191494457537
20
-11.6597496498184
30
0
41
1
10
99.6752188940798
20
-11.7964061673352
30
0
41
1
10
99.7873577907321
20
-12.032202776816
30
0
41
1
10
99.8434272390583
20
-12.1313478909162
30
0
41
1
10
99.9555661357105
20
-12.2935065892598
30
0
41
1
10
100.011635584037
20
-12.3565263481479
30
0
41
1
10
100.123774480689
20
-12.4486059565444
30
0
41
1
10
100.179843929015
20
-12.477672411398
30
0
41
1
10
100.249930739423
20
-12.49450795843
30
0
41
1
10
100.263948101504
20
-12.4969013611222
30
0
41
1
10
100.291982825667
20
-12.499788011411
30
0
41
1
10
100.306000187749
20
-12.5002833016117
30
0
41
1
10
100.348052273994
20
-12.4989778018846
30
0
41
1
10
100.376086998157
20
-12.4943580833313
30
0
41
1
10
100.460191170646
20
-12.4686832469525
30
0
41
1
10
100.516260618972
20
-12.435795742854
30
0
41
1
10
100.628399515624
20
-12.3357868395846
30
0
41
1
10
100.68446896395
20
-12.2686588505557
30
0
41
1
10
100.796607860603
20
-12.0980781966127
30
0
41
1
10
100.852677308929
20
-11.9946194531337
30
0
41
1
10
100.964816205581
20
-11.7500933082673
30
0
41
1
10
101.020885653907
20
-11.6090210669457
30
0
41
1
10
101.133024550559
20
-11.2889574052525
30
0
41
1
10
101.189093998886
20
-11.1099630929666
30
0
41
1
10
101.301232895538
20
-10.7148368988672
30
0
41
1
10
101.357302343864
20
-10.4987046335894
30
0
41
1
10
101.469441240516
20
-10.0312273816479
30
0
41
1
10
101.525510688843
20
-9.77988480551824
30
0
41
1
10
101.637649585495
20
-9.24502540680638
30
0
41
1
10
101.693719033821
20
-8.96151371401086
30
0
41
1
10
101.805857930473
20
-8.3663544137666
30
0
41
1
10
101.861927378799
20
-8.05471420466324
30
0
41
1
10
101.974066275452
20
-7.4081460306835
30
0
41
1
10
102.030135723778
20
-7.07322697108197
30
0
41
1
10
102.14227462043
20
-6.38551130667108
30
0
41
1
10
102.198344068756
20
-6.03272417364244
30
0
41
1
10
102.310482965408
20
-5.31496520020914
30
0
41
1
10
102.366552413735
20
-4.95000244386162
30
0
41
1
10
102.478691310387
20
-4.21358568913206
30
0
41
1
10
102.534760758713
20
-3.84213957415213
30
0
41
1
10
102.646899655365
20
-3.09819270269543
30
0
41
1
10
102.702969103692
20
-2.72569806649142
30
0
41
1
10
102.815108000344
20
-1.98462190416208
30
0
41
1
10
102.87117744867
20
-1.61604446802025
30
0
41
1
10
102.983316345322
20
-0.887147689062772
30
0
41
1
10
103.039385793648
20
-0.526830416784406
30
0
41
1
10
103.109472604056
20
-0.08386393845052
30
0
41
1
10
103.123489966138
20
0.0041030743780937
30
0
41
1
10
103.151524690301
20
0.18083961757614
30
0
41
1
10
103.193576776545
20
0.44707559152647
30
0
41
1
10
103.23562886279
20
0.716478661220663
30
0
41
1
10
103.319733035279
20
1.25883853708871
30
0
41
1
10
103.375802483605
20
1.62517193699074
30
0
41
1
10
103.487941380257
20
2.36324630853818
30
0
41
1
10
103.544010828584
20
2.73498386041291
30
0
41
1
10
103.656149725236
20
3.47909160850881
30
0
41
1
10
103.712219173562
20
3.8514563300028
30
0
41
1
10
103.824358070214
20
4.59151749553868
30
0
41
1
10
103.880427518541
20
4.95920658209369
30
0
41
1
10
103.992566415193
20
5.68428300340918
30
0
41
1
10
104.048635863519
20
6.04166156600809
30
0
41
1
10
104.160774760171
20
6.74039497916323
30
0
41
1
10
104.216844208497
20
7.08174038336796
30
0
41
1
10
104.32898310515
20
7.74287344045831
30
0
41
1
10
104.385052553476
20
8.06265189645421
30
0
41
1
10
104.497191450128
20
8.67558831308278
30
0
41
1
10
104.553260898454
20
8.96873828969584
30
0
41
1
10
104.665399795106
20
9.52408773476191
30
0
41
1
10
104.721469243433
20
9.78628126879627
30
0
41
1
10
104.833608140085
20
10.2763323917107
30
0
41
1
10
104.889677588411
20
10.5041866585208
30
0
41
1
10
105.001816485063
20
10.9232591121021
30
0
41
1
10
105.05788593339
20
11.1144767884006
30
0
41
1
10
105.170024830042
20
11.4591191274056
30
0
41
1
10
105.226094278368
20
11.6125459164472
30
0
41
1
10
105.33823317502
20
11.8815674912133
30
0
41
1
10
105.394302623346
20
11.9971665565054
30
0
41
1
10
105.450372071673
20
12.0943399865728
30
0
0
SPLINE
5
EB
100
AcDbEntity
8
1
62
256
6
ByLayer
370
13
48
1
60
0
100
AcDbSpline
70
4
71
3
72
10
73
6
40
0
40
0
40
0
40
0
40
0.5
40
0.5
40
1
40
1
40
1
40
1
41
1
10
104.87082403428
20
12.5
30
0
41
1
10
104.967415373845
20
12.5
30
0
41
1
10
105.064006713411
20
12.4556098376589
30
0
41
1
10
105.257189392542
20
12.2638367554694
30
0
41
1
10
105.353780732107
20
12.1163553507919
30
0
41
1
10
105.450372071673
20
11.9130161259325
30
0
0
SPLINE
5
EC
100
AcDbEntity
8
1
62
256
6
ByLayer
370
13
48
1
60
0
100
AcDbSpline
70
4
71
3
72
14
73
10
40
0
40
0
40
0
40
0
40
0.25
40
0.25
40
0.5
40
0.5
40
0.75
40
0.75
40
1
40
1
40
1
40
1
41
1
10
94.2
20
10.4229342589735
30
0
41
1
10
94.2887155494137
20
10.779927594702
30
0
41
1
10
94.3774310988275
20
11.0919861069079
30
0
41
1
10
94.5548621976548
20
11.6209559996402
30
0
41
1
10
94.6435777470685
20
11.8378913547555
30
0
41
1
10
94.8210088458959
20
12.1782559311874
30
0
41
1
10
94.9097243953096
20
12.3017383374996
30
0
41
1
10
95.0871554941371
20
12.4625779474646
30
0
41
1
10
95.1758710435507
20
12.5
30
0
41
1
10
95.2645865929644
20
12.5
30
0
0
SPLINE
5
ED
100
AcDbEntity
8
1
62
256
6
ByLayer
370
13
48
1
60
0
100
AcDbSpline
70
4
71
3
72
134
73
130
40
0
40
0
40
0
40
0
40
0.0156249999999999
40
0.0156249999999999
40
0.0312499999999998
40
0.0312499999999998
40
0.0468749999999998
40
0.0468749999999998
40
0.0624999999999997
40
0.0624999999999997
40
0.0781249999999996
40
0.0781249999999996
40
0.0937499999999995
40
0.0937499999999995
40
0.109374999999999
40
0.109374999999999
40
0.124999999999999
40
0.124999999999999
40
0.140624999999999
40
0.140624999999999
40
0.156249999999999
40
0.156249999999999
40
0.171874999999999
40
0.171874999999999
40
0.187499999999999
40
0.187499999999999
40
0.203124999999999
40
0.203124999999999
40
0.218749999999999
40
0.218749999999999
40
0.234374999999999
40
0.234374999999999
40
0.249999999999999
40
0.249999999999999
40
0.265624999999999
40
0.265624999999999
40
0.281249999999999
40
0.281249999999999
40
0.296874999999999
40
0.296874999999999
40
0.3125
40
0.3125
40
0.328125
40
0.328125
40
0.34375
40
0.34375
40
0.359375
40
0.359375
40
0.375
40
0.375
40
0.390625
40
0.390625
40
0.40625
40
0.40625
40
0.421875
40
0.421875
40
0.4375
40
0.4375
40
0.453125
40
0.453125
40
0.46875
40
0.46875
40
0.484375
40
0.484375
40
0.5
40
0.5
40
0.515625
40
0.515625
40
0.53125
40
0.53125
40
0.546875
40
0.546875
40
0.5625
40
0.5625
40
0.578125
40
0.578125
40
0.59375
40
0.59375
40
0.609375
40
0.609375
40
0.625
40
0.625
40
0.640625
40
0.640625
40
0.65625
40
0.65625
40
0.671875
40
0.671875
40
0.6875
40
0.6875
40
0.703125
40
0.703125
40
0.71875
40
0.71875
40
0.734375
40
0.734375
40
0.75
40
0.75
40
0.765625
40
0.765625
40
0.78125
40
0.78125
40
0.796875
40
0.796875
40
0.8125
40
0.8125
40
0.828125
40
0.828125
40
0.84375
40
0.84375
40
0.859375
40
0.859375
40
0.875
40
0.875
40
0.890625
40
0.890625
40
0.90625
40
0.90625
40
0.921875
40
0.921875
40
0.9375
40
0.9375
40
0.953125
40
0.953125
40
0.96875
40
0.96875
40
0.984375
40
0.984375
40
1
40
1
40
1
40
1
41
1
10
94.2000005625187
20
12.5
30
0
41
1
10
94.2585962474621
20
12.5
30
0
41
1
10
94.3171919324058
20
12.4837045841686
30
0
41
1
10
94.4343833022927
20
12.4151681414339
30
0
41
1
10
94.4929789872362
20
12.362918896199
30
0
41
1
10
94.6101703571233
20
12.2197153571764
30
0
41
1
10
94.6687660420667
20
12.1287530831853
30
0
41
1
10
94.7859574119538
20
11.90622097163
30
0
41
1
10
94.8445530968972
20
11.7746443391623
30
0
41
1
10
94.9617444667842
20
11.4700633701471
30
0
41
1
10
95.0203401517277
20
11.2970544185921
30
0
41
1
10
95.1375315216148
20
10.910046042408
30
0
41
1
10
95.1961272065583
20
10.6960450416159
30
0
41
1
10
95.3133185764453
20
10.2288431593321
30
0
41
1
10
95.3719142613888
20
9.97564426872339
30
0
41
1
10
95.4891056312759
20
9.43318599022891
30
0
41
1
10
95.5477013162194
20
9.14393220598663
30
0
41
1
10
95.6648926861064
20
8.53373805591005
30
0
41
1
10
95.7234883710499
20
8.21280641395816
30
0
41
1
10
95.8406797409369
20
7.54464764803697
30
0
41
1
10
95.8992754258804
20
7.19743140518534
30
0
41
1
10
96.0164667957675
20
6.48281350137012
30
0
41
1
10
96.0750624807109
20
6.11542362432903
30
0
41
1
10
96.192253850598
20
5.36694243706506
30
0
41
1
10
96.2508495355415
20
4.98586250833296
30
0
41
1
10
96.3680409054285
20
4.21650661555452
30
0
41
1
10
96.426636590372
20
3.82824050851085
30
0
41
1
10
96.543827960259
20
3.05071637879547
30
0
41
1
10
96.6024236452025
20
2.66146591687593
30
0
41
1
10
96.7196150150895
20
1.88761201852091
30
0
41
1
10
96.7782107000331
20
1.50301349361482
30
0
41
1
10
96.8954020699201
20
0.743349163072565
30
0
41
1
10
96.9539977548637
20
0.368285658124023
30
0
41
1
10
97.0711891247507
20
-0.368283890357105
30
0
41
1
10
97.1297848096941
20
-0.743347355020433
30
0
41
1
10
97.2469761795812
20
-1.50301165527816
30
0
41
1
10
97.3055718645246
20
-1.88761016861525
30
0
41
1
10
97.4227632344118
20
-2.66146405228281
30
0
41
1
10
97.4813589193552
20
-3.05071451108816
30
0
41
1
10
97.5985502892422
20
-3.82823864410227
30
0
41
1
10
97.6571459741857
20
-4.21650475756294
30
0
41
1
10
97.7743373440728
20
-4.98586067341611
30
0
41
1
10
97.8329330290163
20
-5.36694061880914
30
0
41
1
10
97.9501243989032
20
-6.11542184987508
30
0
41
1
10
98.0087200838467
20
-6.48281175405879
30
0
41
1
10
98.1259114537338
20
-7.1974297223305
30
0
41
1
10
98.1845071386774
20
-7.54464600249554
30
0
41
1
10
98.3016985085643
20
-8.21280485233729
30
0
41
1
10
98.3602941935077
20
-8.53373654089381
30
0
41
1
10
98.4774855633948
20
-9.14393079207068
30
0
41
1
10
98.5360812483383
20
-9.43318463080422
30
0
41
1
10
98.6532726182253
20
-9.97564302434799
30
0
41
1
10
98.7118683031689
20
-10.2288419755091
30
0
41
1
10
98.829059673056
20
-10.6960439828695
30
0
41
1
10
98.8876553579994
20
-10.9100450481796
30
0
41
1
10
99.0048467278864
20
-11.2970535551799
30
0
41
1
10
99.0634424128299
20
-11.4700625730276
30
0
41
1
10
99.180633782717
20
-11.7746436742928
30
0
41
1
10
99.2392294676605
20
-11.9062203727136
30
0
41
1
10
99.3564208375475
20
-12.1287526139472
30
0
41
1
10
99.415016522491
20
-12.219714951661
30
0
41
1
10
99.5322078923781
20
-12.3629186143371
30
0
41
1
10
99.5908035773216
20
-12.4151679195017
30
0
41
1
10
99.7079949472085
20
-12.4837044771255
30
0
41
1
10
99.7665906321521
20
-12.4999999479165
30
0
41
1
10
99.8837820020391
20
-12.5000000520832
30
0
41
1
10
99.9423776869827
20
-12.4837046912114
30
0
41
1
10
100.05956905687
20
-12.4151683633657
30
0
41
1
10
100.118164741813
20
-12.3629191780606
30
0
41
1
10
100.2353561117
20
-12.2197157626915
30
0
41
1
10
100.293951796644
20
-12.128753552423
30
0
41
1
10
100.411143166531
20
-11.9062215705461
30
0
41
1
10
100.469738851474
20
-11.7746450040314
30
0
41
1
10
100.586930221361
20
-11.4700641672663
30
0
41
1
10
100.645525906305
20
-11.297055282004
30
0
41
1
10
100.762717276192
20
-10.9100470366361
30
0
41
1
10
100.821312961135
20
-10.6960461003621
30
0
41
1
10
100.938504331022
20
-10.2288443431547
30
0
41
1
10
100.997100015966
20
-9.9756455130985
30
0
41
1
10
101.114291385853
20
-9.43318734965331
30
0
41
1
10
101.172887070796
20
-9.14393361990236
30
0
41
1
10
101.290078440683
20
-8.53373957092606
30
0
41
1
10
101.348674125627
20
-8.21280797557884
30
0
41
1
10
101.465865495514
20
-7.54464929357823
30
0
41
1
10
101.524461180457
20
-7.19743308804004
30
0
41
1
10
101.641652550344
20
-6.48281524868128
30
0
41
1
10
101.700248235288
20
-6.11542539878286
30
0
41
1
10
101.817439605175
20
-5.36694425532087
30
0
41
1
10
101.876035290118
20
-4.98586434324972
30
0
41
1
10
101.993226660005
20
-4.21650847354607
30
0
41
1
10
102.051822344949
20
-3.82824237291942
30
0
41
1
10
102.169013714836
20
-3.05071824650281
30
0
41
1
10
102.227609399779
20
-2.66146778146907
30
0
41
1
10
102.344800769666
20
-1.8876138684266
30
0
41
1
10
102.40339645461
20
-1.50301533195156
30
0
41
1
10
102.520587824497
20
-0.743350971124784
30
0
41
1
10
102.579183509441
20
-0.368287447464638
30
0
41
1
10
102.696374879327
20
0.368282144163715
30
0
41
1
10
102.754970564271
20
0.743345546968413
30
0
41
1
10
102.872161934158
20
1.50300981694156
30
0
41
1
10
102.930757619102
20
1.88760831870968
30
0
41
1
10
103.047948988989
20
2.66146218768972
30
0
41
1
10
103.106544673932
20
3.05071264338085
30
0
41
1
10
103.223736043819
20
3.82823677969364
30
0
41
1
10
103.282331728763
20
4.21650289957131
30
0
41
1
10
103.39952309865
20
4.98585883849921
30
0
41
1
10
103.458118783593
20
5.36693880055313
30
0
41
1
10
103.57531015348
20
6.11542007542099
30
0
41
1
10
103.633905838424
20
6.48281000674737
30
0
41
1
10
103.751097208311
20
7.19742803947545
30
0
41
1
10
103.809692893254
20
7.54464435695388
30
0
41
1
10
103.926884263141
20
8.21280329071615
30
0
41
1
10
103.985479948085
20
8.53373502587735
30
0
41
1
10
104.102671317972
20
9.14392937815444
30
0
41
1
10
104.161267002915
20
9.43318327137928
30
0
41
1
10
104.278458372802
20
9.97564177997231
30
0
41
1
10
104.337054057746
20
10.2288407916859
30
0
41
1
10
104.454245427633
20
10.6960429241227
30
0
41
1
10
104.512841112576
20
10.910044053951
30
0
41
1
10
104.630032482463
20
11.2970526917674
30
0
41
1
10
104.688628167407
20
11.4700617759078
30
0
41
1
10
104.805819537294
20
11.7746430094229
30
0
41
1
10
104.864415222237
20
11.9062197737968
30
0
41
1
10
104.981606592124
20
12.1287521447089
30
0
41
1
10
105.040202277068
20
12.2197145461453
30
0
41
1
10
105.157393646955
20
12.3629183324749
30
0
41
1
10
105.215989331898
20
12.4151676975693
30
0
41
1
10
105.333180701785
20
12.4837043700822
30
0
41
1
10
105.391776386729
20
12.4999998958328
30
0
41
1
10
105.450372071673
20
12.4999999999995
30
0
0
SPLINE
5
EE
100
AcDbEntity
8
1
62
256
6
ByLayer
370
13
48
1
60
0
100
AcDbSpline
70
4
71
3
72
14
73
10
40
0
40
0
40
0
40
0
40
0.25
40
0.25
40
0.5
40
0.5
40
0.75
40
0.75
40
1
40
1
40
1
40
1
41
1
10
104.385786603745
20
12.5
30
0
41
1
10
104.474502059406
20
12.5
30
0
41
1
10
104.563217515066
20
12.4625780268311
30
0
41
1
10
104.740648426388
20
12.3017387680505
30
0
41
1
10
104.829363882048
20
12.1782566338939
30
0
41
1
10
105.006794793369
20
11.8378928101971
30
0
41
1
10
105.09551024903
20
11.6209579358968
30
0
41
1
10
105.272941160351
20
11.0919892017068
30
0
41
1
10
105.361656616012
20
10.7799313672368
30
0
41
1
10
105.450372071673
20
10.4229387861456
30
0
0
SPLINE
5
EF
100
AcDbEntity
8
1
62
256
6
ByLayer
370
13
48
1
60
0
100
AcDbSpline
70
4
71
3
72
10
73
6
40
0
40
0
40
0
40
0
40
0.5
40
0.5
40
1
40
1
40
1
40
1
41
1
10
94.2
20
11.9130137575583
30
0
41
1
10
94.2965915270717
20
12.1163538084811
30
0
41
1
10
94.3931830541433
20
12.263835811711
30
0
41
1
10
94.5863661082866
20
12.455609664588
30
0
41
1
10
94.6829576353582
20
12.5
30
0
41
1
10
94.7795491624298
20
12.5
30
0
0
SPLINE
5
F0
100
AcDbEntity
8
1
62
256
6
ByLayer
370
13
48
1
60
0
100
AcDbSpline
70
4
71
3
72
146
73
142
40
0
40
0
40
0
40
0
40
0.0156249999999999
40
0.0156249999999999
40
0.0312499999999997
40
0.0312499999999997
40
0.0468749999999995
40
0.0468749999999995
40
0.0624999999999994
40
0.0624999999999994
40
0.0781249999999992
40
0.0781249999999992
40
0.0937499999999991
40
0.0937499999999991
40
0.109374999999999
40
0.109374999999999
40
0.124999999999999
40
0.124999999999999
40
0.140624999999999
40
0.140624999999999
40
0.156249999999999
40
0.156249999999999
40
0.171874999999998
40
0.171874999999998
40
0.187499999999998
40
0.187499999999998
40
0.203124999999998
40
0.203124999999998
40
0.210937499999998
40
0.210937499999998
40
0.214843749999998
40
0.214843749999998
40
0.218749999999998
40
0.218749999999998
40
0.234374999999997
40
0.234374999999997
40
0.249999999999997
40
0.249999999999997
40
0.265624999999997
40
0.265624999999997
40
0.281249999999996
40
0.281249999999996
40
0.296874999999996
40
0.296874999999996
40
0.312499999999996
40
0.312499999999996
40
0.328124999999995
40
0.328124999999995
40
0.343749999999995
40
0.343749999999995
40
0.359374999999995
40
0.359374999999995
40
0.374999999999994
40
0.374999999999994
40
0.390624999999994
40
0.390624999999994
40
0.406249999999994
40
0.406249999999994
40
0.421874999999993
40
0.421874999999993
40
0.437499999999993
40
0.437499999999993
40
0.453124999999993
40
0.453124999999993
40
0.468749999999992
40
0.468749999999992
40
0.476562499999992
40
0.476562499999992
40
0.480468749999992
40
0.480468749999992
40
0.484374999999992
40
0.484374999999992
40
0.499999999999992
40
0.499999999999992
40
0.515624999999992
40
0.515624999999992
40
0.531249999999992
40
0.531249999999992
40
0.546874999999992
40
0.546874999999992
40
0.562499999999993
40
0.562499999999993
40
0.578124999999993
40
0.578124999999993
40
0.593749999999993
40
0.593749999999993
40
0.609374999999993
40
0.609374999999993
40
0.624999999999993
40
0.624999999999993
40
0.640624999999993
40
0.640624999999993
40
0.656249999999993
40
0.656249999999993
40
0.671874999999993
40
0.671874999999993
40
0.687499999999993
40
0.687499999999993
40
0.703124999999993
40
0.703124999999993
40
0.718749999999993
40
0.718749999999993
40
0.734374999999993
40
0.734374999999993
40
0.738281249999993
40
0.738281249999993
40
0.742187499999993
40
0.742187499999993
40
0.749999999999993
40
0.749999999999993
40
0.765624999999994
40
0.765624999999994
40
0.781249999999994
40
0.781249999999994
40
0.796874999999995
40
0.796874999999995
40
0.812499999999995
40
0.812499999999995
40
0.828124999999995
40
0.828124999999995
40
0.843749999999996
40
0.843749999999996
40
0.859374999999996
40
0.859374999999996
40
0.874999999999997
40
0.874999999999997
40
0.890624999999997
40
0.890624999999997
40
0.906249999999997
40
0.906249999999997
40
0.921874999999998
40
0.921874999999998
40
0.937499999999998
40
0.937499999999998
40
0.953124999999999
40
0.953124999999999
40
0.968749999999999
40
0.968749999999999
40
0.984374999999999
40
0.984374999999999
40
1
40
1
40
1
40
1
41
1
10
94.2
20
12.0943419363616
30
0
41
1
10
94.2560694541856
20
11.9971687420943
30
0
41
1
10
94.3121389083714
20
11.8815699135685
30
0
41
1
10
94.4242778167428
20
11.61254880768
30
0
41
1
10
94.4803472709286
20
11.4591222507356
30
0
41
1
10
94.5924861793
20
11.114480364235
30
0
41
1
10
94.6485556334857
20
10.923262908327
30
0
41
1
10
94.7606945418572
20
10.5041908768494
30
0
41
1
10
94.8167639960429
20
10.2763368117352
30
0
41
1
10
94.9289029044143
20
9.78628606711931
30
0
41
1
10
94.9849723586
20
9.52409270967198
30
0
41
1
10
95.0971112669715
20
8.9687435873492
30
0
41
1
10
95.1531807211571
20
8.67559375688072
30
0
41
1
10
95.2653196295284
20
8.06265759826854
30
0
41
1
10
95.3213890837142
20
7.74287925413861
30
0
41
1
10
95.4335279920857
20
7.08174638443046
30
0
41
1
10
95.4895974462713
20
6.74040105574235
30
0
41
1
10
95.6017363546428
20
6.04166775704311
30
0
41
1
10
95.6578058088285
20
5.68428923338976
30
0
41
1
10
95.7699447171999
20
4.95921285490675
30
0
41
1
10
95.8260141713857
20
4.59152377224945
30
0
41
1
10
95.9381530797571
20
3.85146258245294
30
0
41
1
10
95.9942225339428
20
3.47909783281398
30
0
41
1
10
96.1063614423142
20
2.73499000048722
30
0
41
1
10
96.1624308964999
20
2.3632523925406
30
0
41
1
10
96.2745698048713
20
1.62517788571671
30
0
41
1
10
96.330639259057
20
1.25884440662296
30
0
41
1
10
96.4147434403355
20
0.716484398435881
30
0
41
1
10
96.4427781674284
20
0.536882305612494
30
0
41
1
10
96.4848302580677
20
0.269590801531706
30
0
41
1
10
96.4988476216142
20
0.180845211347133
30
0
41
1
10
96.526882348707
20
0.0041086179882086
30
0
41
1
10
96.5408997122533
20
-0.0838583895468048
30
0
41
1
10
96.6109865299856
20
-0.526824836927347
30
0
41
1
10
96.6670559841713
20
-0.887142094200669
30
0
41
1
10
96.7791948925427
20
-1.61603886533999
30
0
41
1
10
96.8352643467284
20
-1.98461630867757
30
0
41
1
10
96.9474032550999
20
-2.72569250966944
30
0
41
1
10
97.0034727092856
20
-3.09818717734851
30
0
41
1
10
97.115611617657
20
-3.84213413723117
30
0
41
1
10
97.1716810718427
20
-4.21358030916838
30
0
41
1
10
97.2838199802142
20
-4.94999720339442
30
0
41
1
10
97.3398894343999
20
-5.31496004228441
30
0
41
1
10
97.4520283427713
20
-6.03271920524344
30
0
41
1
10
97.5080977969569
20
-6.38550644525452
30
0
41
1
10
97.6202367053284
20
-7.07322234564327
30
0
41
1
10
97.6763061595141
20
-7.40814153423497
30
0
41
1
10
97.7884450678855
20
-8.05470998458483
30
0
41
1
10
97.8445145220713
20
-8.36635034105882
30
0
41
1
10
97.9566534304427
20
-8.96150994983802
30
0
41
1
10
98.0127228846285
20
-9.24502180378553
30
0
41
1
10
98.1248617929998
20
-9.77988153335664
30
0
41
1
10
98.1809312471854
20
-10.03122427918
30
0
41
1
10
98.2930701555568
20
-10.4987018735793
30
0
41
1
10
98.3491396097426
20
-10.7148343116082
30
0
41
1
10
98.461278518114
20
-11.1099608489567
30
0
41
1
10
98.5173479722997
20
-11.2889553317297
30
0
41
1
10
98.6294868806711
20
-11.6090193273457
30
0
41
1
10
98.6855563348569
20
-11.7500917320954
30
0
41
1
10
98.7976952432282
20
-11.9946181927721
30
0
41
1
10
98.853764697414
20
-12.0980770886296
30
0
41
1
10
98.9659036057854
20
-12.2686580332617
30
0
41
1
10
99.0219730599711
20
-12.3357861606011
30
0
41
1
10
99.1341119683426
20
-12.43579532443
30
0
41
1
10
99.1901814225283
20
-12.4686829507804
30
0
41
1
10
99.2742856038069
20
-12.4943579577338
30
0
41
1
10
99.3023203308996
20
-12.4989777310189
30
0
41
1
10
99.3443724215389
20
-12.500283309621
30
0
41
1
10
99.3583897850855
20
-12.4997880453356
30
0
41
1
10
99.3864245121783
20
-12.4969014475632
30
0
41
1
10
99.4004418757247
20
-12.4945080712641
30
0
41
1
10
99.4705286934569
20
-12.4776726567845
30
0
41
1
10
99.5265981476426
20
-12.4486063098699
30
0
41
1
10
99.638737056014
20
-12.3565269186129
30
0
41
1
10
99.6948065101997
20
-12.2935072689212
30
0
41
1
10
99.8069454185711
20
-12.1313487872767
30
0
41
1
10
99.8630148727568
20
-12.0322037806732
30
0
41
1
10
99.9751537811281
20
-11.7964073812618
30
0
41
1
10
100.031223235314
20
-11.6597509663103
30
0
41
1
10
100.143362143685
20
-11.3485006544049
30
0
41
1
10
100.199431597871
20
-11.1739036057901
30
0
41
1
10
100.311570506243
20
-10.7874223869445
30
0
41
1
10
100.367639960428
20
-10.5755375202038
30
0
41
1
10
100.4797788688
20
-10.1162722911506
30
0
41
1
10
100.535848322985
20
-9.86889401051906
30
0
41
1
10
100.647987231357
20
-9.34155501883936
30
0
41
1
10
100.704056685542
20
-9.06159913719995
30
0
41
1
10
100.816195593914
20
-8.47303529154482
30
0
41
1
10
100.8722650481
20
-8.16443449592271
30
0
41
1
10
100.984403956471
20
-7.5233465350918
30
0
41
1
10
101.040473410657
20
-7.19086814607965
30
0
41
1
10
101.152612319028
20
-6.50738378997212
30
0
41
1
10
101.208681773214
20
-6.15638727903226
30
0
41
1
10
101.320820681585
20
-5.44154132567229
30
0
41
1
10
101.376890135771
20
-5.07770105819918
30
0
41
1
10
101.489029044142
20
-4.34287491986606
30
0
41
1
10
101.545098498328
20
-3.97189710661789
30
0
41
1
10
101.657237406699
20
-3.22827431437983
30
0
41
1
10
101.713306860885
20
-2.85563568043312
30
0
41
1
10
101.825445769257
20
-2.11372269197145
30
0
41
1
10
101.881515223442
20
-1.74445266819754
30
0
41
1
10
101.993654131814
20
-1.01370031728638
30
0
41
1
10
102.049723586
20
-0.652220287598567
30
0
41
1
10
102.119810403732
20
-0.207560145562269
30
0
41
1
10
102.133827767278
20
-0.118985814863379
30
0
41
1
10
102.161862494371
20
0.0573967007582894
30
0
41
1
10
102.175879857917
20
0.145648698535638
30
0
41
1
10
102.217931948557
20
0.411940868299439
30
0
41
1
10
102.245966675649
20
0.590925386883981
30
0
41
1
10
102.330070856928
20
1.13159482294103
30
0
41
1
10
102.386140311114
20
1.4970177244397
30
0
41
1
10
102.498279219485
20
2.23378618985905
30
0
41
1
10
102.554348673671
20
2.60512857186586
30
0
41
1
10
102.666487582042
20
3.34903217606231
30
0
41
1
10
102.722557036228
20
3.72158815945971
30
0
41
1
10
102.8346959446
20
4.46267044195329
30
0
41
1
10
102.890765398785
20
4.83118958442165
30
0
41
1
10
103.002904307157
20
5.55859171429628
30
0
41
1
10
103.058973761342
20
5.91746606083498
30
0
41
1
10
103.171112669714
20
6.6198531337059
30
0
41
1
10
103.227182123899
20
6.96335644705044
30
0
41
1
10
103.339321032271
20
7.62943083025428
30
0
41
1
10
103.395390486457
20
7.95199262388439
30
0
41
1
10
103.507529394828
20
8.57105220894061
30
0
41
1
10
103.563598849014
20
8.86754182815849
30
0
41
1
10
103.675737757385
20
9.43002965356129
30
0
41
1
10
103.731807211571
20
9.69602165137667
30
0
41
1
10
103.843946119942
20
10.1940100550931
30
0
41
1
10
103.900015574128
20
10.4260028171051
30
0
41
1
10
104.012154482499
20
10.8535616237471
30
0
41
1
10
104.068223936685
20
11.049126832666
30
0
41
1
10
104.180362845057
20
11.4025402412506
30
0
41
1
10
104.236432299242
20
11.5603902800882
30
0
41
1
10
104.348571207614
20
11.8382079735846
30
0
41
1
10
104.404640661799
20
11.9581796893655
30
0
41
1
10
104.516779570171
20
12.1611097482237
30
0
41
1
10
104.572849024357
20
12.2440737141402
30
0
41
1
10
104.684987932728
20
12.374743698544
30
0
41
1
10
104.741057386914
20
12.4224561670425
30
0
41
1
10
104.853196295285
20
12.4850810234678
30
0
41
1
10
104.909265749471
20
12.5
30
0
41
1
10
104.965335203656
20
12.5
30
0
0
SPLINE
5
F1
100
AcDbEntity
8
1
62
256
6
ByLayer
370
13
48
1
60
0
100
AcDbSpline
70
4
71
3
72
22
73
18
40
0
40
0
40
0
40
0
40
0.125
40
0.125
40
0.25
40
0.25
40
0.375
40
0.375
40
0.5
40
0.5
40
0.625
40
0.625
40
0.75
40
0.75
40
0.875
40
0.875
40
1
40
1
40
1
40
1
41
1
10
103.900749173211
20
12.5
30
0
41
1
10
103.96531679398
20
12.5
30
0
41
1
10
104.029884414749
20
12.4802080925549
30
0
41
1
10
104.159019656288
20
12.3965873676611
30
0
41
1
10
104.223587277057
20
12.3327451881526
30
0
41
1
10
104.352722518595
20
12.1574831464926
30
0
41
1
10
104.417290139365
20
12.0460505973455
30
0
41
1
10
104.546425380903
20
11.773401606811
30
0
41
1
10
104.610993001672
20
11.612175058035
30
0
41
1
10
104.740128243211
20
11.2394159763434
30
0
41
1
10
104.80469586398
20
11.0278778262958
30
0
41
1
10
104.933831105518
20
10.5559006813309
30
0
41
1
10
104.998398726288
20
10.2954620216912
30
0
41
1
10
105.127533967826
20
9.72910048358901
30
0
41
1
10
105.192101588596
20
9.42318447109295
30
0
41
1
10
105.321236830134
20
8.77118953870817
30
0
41
1
10
105.385804450903
20
8.42512345529516
30
0
41
1
10
105.450372071673
20
8.06243948279035
30
0
0
SPLINE
5
F2
100
AcDbEntity
8
1
62
256
6
ByLayer
370
13
48
1
60
0
100
AcDbSpline
70
4
71
3
72
8
73
4
40
0
40
0
40
0
40
0
40
1
40
1
40
1
40
1
41
1
10
94.2
20
12.4856117246882
30
0
41
1
10
94.2315039106317
20
12.495293678469
30
0
41
1
10
94.2630078212635
20
12.5
30
0
41
1
10
94.2945117318952
20
12.5
30
0
0
SPLINE
5
F3
100
AcDbEntity
8
1
62
256
6
ByLayer
370
13
48
1
60
0
100
AcDbSpline
70
4
71
3
72
132
73
128
40
0
40
0
40
0
40
0
40
0.015625
40
0.015625
40
0.03125
40
0.03125
40
0.0468750000000001
40
0.0468750000000001
40
0.0625000000000002
40
0.0625000000000002
40
0.0781250000000002
40
0.0781250000000002
40
0.0937500000000003
40
0.0937500000000003
40
0.109375
40
0.109375
40
0.125000000000001
40
0.125000000000001
40
0.140625000000001
40
0.140625000000001
40
0.156250000000001
40
0.156250000000001
40
0.171875000000001
40
0.171875000000001
40
0.175781250000001
40
0.175781250000001
40
0.179687500000001
40
0.179687500000001
40
0.187500000000001
40
0.187500000000001
40
0.218750000000001
40
0.218750000000001
40
0.234375000000001
40
0.234375000000001
40
0.250000000000001
40
0.250000000000001
40
0.265625000000001
40
0.265625000000001
40
0.281250000000001
40
0.281250000000001
40
0.296875000000001
40
0.296875000000001
40
0.312500000000001
40
0.312500000000001
40
0.328125000000001
40
0.328125000000001
40
0.343750000000001
40
0.343750000000001
40
0.359375000000001
40
0.359375000000001
40
0.375000000000001
40
0.375000000000001
40
0.390625000000001
40
0.390625000000001
40
0.406250000000001
40
0.406250000000001
40
0.437500000000001
40
0.437500000000001
40
0.445312500000001
40
0.445312500000001
40
0.453125000000001
40
0.453125000000001
40
0.468750000000001
40
0.468750000000001
40
0.500000000000001
40
0.500000000000001
40
0.515625000000001
40
0.515625000000001
40
0.531250000000001
40
0.531250000000001
40
0.546875000000001
40
0.546875000000001
40
0.562500000000002
40
0.562500000000002
40
0.578125000000002
40
0.578125000000002
40
0.593750000000002
40
0.593750000000002
40
0.609375000000002
40
0.609375000000002
40
0.625000000000002
40
0.625000000000002
40
0.640625000000002
40
0.640625000000002
40
0.656250000000002
40
0.656250000000002
40
0.671875000000002
40
0.671875000000002
40
0.687500000000002
40
0.687500000000002
40
0.718750000000002
40
0.718750000000002
40
0.726562500000002
40
0.726562500000002
40
0.734375000000002
40
0.734375000000002
40
0.750000000000002
40
0.750000000000002
40
0.765625000000001
40
0.765625000000001
40
0.781250000000001
40
0.781250000000001
40
0.796875000000001
40
0.796875000000001
40
0.812500000000001
40
0.812500000000001
40
0.828125000000001
40
0.828125000000001
40
0.843750000000001
40
0.843750000000001
40
0.859375000000001
40
0.859375000000001
40
0.875000000000001
40
0.875000000000001
40
0.890625000000001
40
0.890625000000001
40
0.906250000000001
40
0.906250000000001
40
0.921875
40
0.921875
40
0.9375
40
0.9375
40
0.953125
40
0.953125
40
0.96875
40
0.96875
40
1
40
1
40
1
40
1
41
1
10
94.2
20
10.7861829075534
30
0
41
1
10
94.2535432175683
20
10.5901620860201
30
0
41
1
10
94.3070864351367
20
10.3773520970497
30
0
41
1
10
94.4141728702734
20
9.92001476011595
30
0
41
1
10
94.4677160878418
20
9.67548969283058
30
0
41
1
10
94.5748025229784
20
9.15749880200354
30
0
41
1
10
94.6283457405468
20
8.88403729206362
30
0
41
1
10
94.7354321756835
20
8.31176588659079
30
0
41
1
10
94.7889753932518
20
8.01296198025014
30
0
41
1
10
94.8960618283885
20
7.39425774729207
30
0
41
1
10
94.9496050459568
20
7.07436451945713
30
0
41
1
10
95.0566914810935
20
6.41819450819349
30
0
41
1
10
95.1102346986618
20
6.0819252486931
30
0
41
1
10
95.2173211337986
20
5.39795485995853
30
0
41
1
10
95.2708643513669
20
5.05026098662933
30
0
41
1
10
95.3779507865036
20
4.34840751439717
30
0
41
1
10
95.431494004072
20
3.99425430470299
30
0
41
1
10
95.5385804392085
20
3.28425587668201
30
0
41
1
10
95.592123656777
20
2.92841575138325
30
0
41
1
10
95.6992100919136
20
2.21945105262185
30
0
41
1
10
95.7527533094819
20
1.86633005000698
30
0
41
1
10
95.8598397446186
20
1.16671435371333
30
0
41
1
10
95.913382962187
20
0.820221680210977
30
0
41
1
10
95.9803119841474
20
0.393328624438624
30
0
41
1
10
95.9936977885395
20
0.308259670467038
30
0
41
1
10
96.0204693973237
20
0.138787062013193
30
0
41
1
10
96.0338552017157
20
0.0545197073052464
30
0
41
1
10
96.074012614892
20
-0.198124445444762
30
0
41
1
10
96.1007842236762
20
-0.367952755222916
30
0
41
1
10
96.234642267597
20
-1.22318184410315
30
0
41
1
10
96.3417287027337
20
-1.92720938083585
30
0
41
1
10
96.5023583554387
20
-2.99110716776533
30
0
41
1
10
96.5559015730072
20
-3.34697430877352
30
0
41
1
10
96.6629880081439
20
-4.05675488180128
30
0
41
1
10
96.7165312257122
20
-4.41066313629631
30
0
41
1
10
96.8236176608489
20
-5.1117382679538
30
0
41
1
10
96.8771608784172
20
-5.45889869116604
30
0
41
1
10
96.9842473135539
20
-6.14150855785817
30
0
41
1
10
97.0377905311222
20
-6.47695071175991
30
0
41
1
10
97.1448769662589
20
-7.13118056885486
30
0
41
1
10
97.1984201838272
20
-7.44996075349604
30
0
41
1
10
97.305506618964
20
-8.0661739575707
30
0
41
1
10
97.3590498365323
20
-8.36359992517376
30
0
41
1
10
97.466136271669
20
-8.93288405162997
30
0
41
1
10
97.5196794892372
20
-9.20473630582293
30
0
41
1
10
97.626765924374
20
-9.71932137077076
30
0
41
1
10
97.6803091419423
20
-9.96204997994761
30
0
41
1
10
97.7873955770789
20
-10.4156587267153
30
0
41
1
10
97.8409387946473
20
-10.626536708865
30
0
41
1
10
97.948025229784
20
-11.0146342406525
30
0
41
1
10
98.0015684473524
20
-11.1918537648486
30
0
41
1
10
98.1086548824891
20
-11.5117762735213
30
0
41
1
10
98.1621981000575
20
-11.6544811920127
30
0
41
1
10
98.2692845351941
20
-11.9054387157331
30
0
41
1
10
98.3228277527625
20
-12.0136948402405
30
0
41
1
10
98.4834574054674
20
-12.2881394534336
30
0
41
1
10
98.5905438406041
20
-12.4037348037091
30
0
41
1
10
98.724401884525
20
-12.4735159007826
30
0
41
1
10
98.7511734933091
20
-12.4837577377691
30
0
41
1
10
98.8047167108775
20
-12.4971249288744
30
0
41
1
10
98.8314883196617
20
-12.5002509461507
30
0
41
1
10
98.9118031460142
20
-12.4994510940233
30
0
41
1
10
98.9653463635825
20
-12.4852875424176
30
0
41
1
10
99.1259760162875
20
-12.3980513013037
30
0
41
1
10
99.2330624514242
20
-12.2799315835198
30
0
41
1
10
99.3936921041293
20
-12.0015463816124
30
0
41
1
10
99.4472353216976
20
-11.8919518406152
30
0
41
1
10
99.5543217568344
20
-11.6382983689495
30
0
41
1
10
99.6078649744026
20
-11.4942359722905
30
0
41
1
10
99.7149514095394
20
-11.1716142536882
30
0
41
1
10
99.7684946271077
20
-10.9930530685878
30
0
41
1
10
99.8755810622444
20
-10.6023250821219
30
0
41
1
10
99.9291242798128
20
-10.3901583880277
30
0
41
1
10
100.036210714949
20
-9.93406214534284
30
0
41
1
10
100.089753932518
20
-9.69013483571993
30
0
41
1
10
100.196840367654
20
-9.1732767802711
30
0
41
1
10
100.250383585223
20
-8.90035031084199
30
0
41
1
10
100.357470020359
20
-8.32907165233189
30
0
41
1
10
100.411013237928
20
-8.03072542448442
30
0
41
1
10
100.518099673064
20
-7.41284808568906
30
0
41
1
10
100.571642890633
20
-7.09332405813885
30
0
41
1
10
100.678729325769
20
-6.43779704260777
30
0
41
1
10
100.732272543338
20
-6.10180157703326
30
0
41
1
10
100.839358978474
20
-5.4182808725763
30
0
41
1
10
100.892902196043
20
-5.07076290105701
30
0
41
1
10
100.99998863118
20
-4.36916511894575
30
0
41
1
10
101.053531848748
20
-4.01509171931104
30
0
41
1
10
101.160618283885
20
-3.30516236677772
30
0
41
1
10
101.214161501453
20
-2.94931153516129
30
0
41
1
10
101.374791154158
20
-1.8857094244201
30
0
41
1
10
101.481877589295
20
-1.18220904033916
30
0
41
1
10
101.615735633215
20
-0.327939020133044
30
0
41
1
10
101.642507242
20
-0.158424528725874
30
0
41
1
10
101.696050459568
20
0.178214735836633
30
0
41
1
10
101.722822068352
20
0.347939956213764
30
0
41
1
10
101.803136894705
20
0.860790566132891
30
0
41
1
10
101.856680112273
20
1.20760970621134
30
0
41
1
10
101.96376654741
20
1.90773569591968
30
0
41
1
10
102.017309764978
20
2.26104046619127
30
0
41
1
10
102.124396200115
20
2.97020870667171
30
0
41
1
10
102.177939417683
20
3.32606854462708
30
0
41
1
10
102.28502585282
20
4.0359252806459
30
0
41
1
10
102.338569070388
20
4.38991702926111
30
0
41
1
10
102.445655505525
20
5.091255365454
30
0
41
1
10
102.499198723093
20
5.43859552049344
30
0
41
1
10
102.60628515823
20
6.12166271750135
30
0
41
1
10
102.659828375798
20
6.4573824808819
30
0
41
1
10
102.766914810935
20
7.11226277712822
30
0
41
1
10
102.820458028503
20
7.43141578937963
30
0
41
1
10
102.92754446364
20
8.04846278287238
30
0
41
1
10
102.981087681208
20
8.34634969636696
30
0
41
1
10
103.088174116345
20
8.91663259187038
30
0
41
1
10
103.141717333913
20
9.18902264082348
30
0
41
1
10
103.24880376905
20
9.70474541686724
30
0
41
1
10
103.302346986618
20
9.94807390490291
30
0
41
1
10
103.409433421755
20
10.4029272795951
30
0
41
1
10
103.462976639323
20
10.6144499690302
30
0
41
1
10
103.57006307446
20
11.0038632469597
30
0
41
1
10
103.623606292028
20
11.1817537691303
30
0
41
1
10
103.730692727165
20
11.5030260395731
30
0
41
1
10
103.784235944733
20
11.6464096865038
30
0
41
1
10
103.89132237987
20
11.8987150007287
30
0
41
1
10
103.944865597438
20
12.0076401607541
30
0
41
1
10
104.051952032575
20
12.1919162820878
30
0
41
1
10
104.105495250144
20
12.2672718340992
30
0
41
1
10
104.266124902849
20
12.4453854427103
30
0
41
1
10
104.373211337985
20
12.5
30
0
41
1
10
104.480297773122
20
12.5
30
0
0
SPLINE
5
F4
100
AcDbEntity
8
1
62
256
6
ByLayer
370
13
48
1
60
0
100
AcDbSpline
70
4
71
3
72
22
73
18
40
0
40
0
40
0
40
0
40
0.125
40
0.125
40
0.25
40
0.25
40
0.375
40
0.375
40
0.5
40
0.5
40
0.625
40
0.625
40
0.75
40
0.75
40
0.875
40
0.875
40
1
40
1
40
1
40
1
41
1
10
103.415711742676
20
12.5
30
0
41
1
10
103.500489256384
20
12.5
30
0
41
1
10
103.585266770093
20
12.4658366391851
30
0
41
1
10
103.754821797509
20
12.3193924152385
30
0
41
1
10
103.839599311217
20
12.2070597262498
30
0
41
1
10
104.009154338633
20
11.8975439760867
30
0
41
1
10
104.093931852342
20
11.7003170675116
30
0
41
1
10
104.263486879758
20
11.2189173049782
30
0
41
1
10
104.348264393466
20
10.9347214787433
30
0
41
1
10
104.517819420883
20
10.2829775342895
30
0
41
1
10
104.602596934591
20
9.91543714306101
30
0
41
1
10
104.772151962007
20
9.1065480467112
30
0
41
1
10
104.856929475715
20
8.66523969672676
30
0
41
1
10
105.026484503131
20
7.72358573319653
30
0
41
1
10
105.11126201684
20
7.22330514773034
30
0
41
1
10
105.280817044256
20
6.18208403107064
30
0
41
1
10
105.365594557964
20
5.64121789945739
30
0
41
1
10
105.450372071673
20
5.08993592310335
30
0
0
SPLINE
5
F5
100
AcDbEntity
8
1
62
256
6
ByLayer
370
13
48
1
60
0
100
AcDbSpline
70
4
71
3
72
102
73
98
40
0
40
0
40
0
40
0
40
0.0156250000000006
40
0.0156250000000006
40
0.0312500000000011
40
0.0312500000000011
40
0.0625000000000022
40
0.0625000000000022
40
0.0937500000000033
40
0.0937500000000033
40
0.125000000000004
40
0.125000000000004
40
0.132812500000004
40
0.132812500000004
40
0.136718750000005
40
0.136718750000005
40
0.140625000000005
40
0.140625000000005
40
0.156250000000005
40
0.156250000000005
40
0.187500000000005
40
0.187500000000005
40
0.218750000000005
40
0.218750000000005
40
0.250000000000005
40
0.250000000000005
40
0.265625000000005
40
0.265625000000005
40
0.281250000000005
40
0.281250000000005
40
0.296875000000005
40
0.296875000000005
40
0.312500000000005
40
0.312500000000005
40
0.343750000000005
40
0.343750000000005
40
0.375000000000005
40
0.375000000000005
40
0.406250000000005
40
0.406250000000005
40
0.421875000000005
40
0.421875000000005
40
0.429687500000005
40
0.429687500000005
40
0.437500000000006
40
0.437500000000006
40
0.468750000000006
40
0.468750000000006
40
0.500000000000006
40
0.500000000000006
40
0.531250000000006
40
0.531250000000006
40
0.546875000000006
40
0.546875000000006
40
0.562500000000006
40
0.562500000000006
40
0.578125000000006
40
0.578125000000006
40
0.593750000000006
40
0.593750000000006
40
0.625000000000007
40
0.625000000000007
40
0.656250000000007
40
0.656250000000007
40
0.687500000000007
40
0.687500000000007
40
0.703125000000007
40
0.703125000000007
40
0.710937500000007
40
0.710937500000007
40
0.714843750000007
40
0.714843750000007
40
0.718750000000007
40
0.718750000000007
40
0.750000000000006
40
0.750000000000006
40
0.781250000000005
40
0.781250000000005
40
0.812500000000004
40
0.812500000000004
40
0.828125000000004
40
0.828125000000004
40
0.843750000000004
40
0.843750000000004
40
0.859375000000003
40
0.859375000000003
40
0.875000000000003
40
0.875000000000003
40
0.890625000000003
40
0.890625000000003
40
0.906250000000002
40
0.906250000000002
40
0.937500000000002
40
0.937500000000002
40
0.968750000000001
40
0.968750000000001
40
1
40
1
40
1
40
1
41
1
10
94.2
20
8.58106155050007
30
0
41
1
10
94.251016980951
20
8.30795453713893
30
0
41
1
10
94.3020339619021
20
8.02338366088881
30
0
41
1
10
94.404067923804
20
7.4349803483409
30
0
41
1
10
94.4550849047549
20
7.13115347224576
30
0
41
1
10
94.6081358476078
20
6.19687092927651
30
0
41
1
10
94.7101698095097
20
5.54361410265957
30
0
41
1
10
94.9142377333137
20
4.21057639689044
30
0
41
1
10
95.0162716952156
20
3.53095919852646
30
0
41
1
10
95.2203396190195
20
2.17779701462186
30
0
41
1
10
95.3223735809216
20
1.50435186429814
30
0
41
1
10
95.4499160332989
20
0.682876543104868
30
0
41
1
10
95.4754245237743
20
0.519579793810806
30
0
41
1
10
95.5136872594876
20
0.276383085978438
30
0
41
1
10
95.5264415047255
20
0.195608671455204
30
0
41
1
10
95.5519499952009
20
0.0346809839123523
30
0
41
1
10
95.5647042404386
20
-0.0453276991227085
30
0
41
1
10
95.6284754666274
20
-0.447784004458555
30
0
41
1
10
95.6794924475784
20
-0.774724663043855
30
0
41
1
10
95.8325433904313
20
-1.76645046795951
30
0
41
1
10
95.9345773523331
20
-2.44235835884535
30
0
41
1
10
96.1386452761371
20
-3.7964918955779
30
0
41
1
10
96.240679238039
20
-4.47460821850658
30
0
41
1
10
96.4447471618429
20
-5.80014088250343
30
0
41
1
10
96.546781123745
20
-6.44738757129318
30
0
41
1
10
96.6998320665979
20
-7.36935803070699
30
0
41
1
10
96.7508490475489
20
-7.66853713031489
30
0
41
1
10
96.8528830094508
20
-8.2466411530431
30
0
41
1
10
96.9038999904018
20
-8.5255606884356
30
0
41
1
10
97.0059339523038
20
-9.05959522077379
30
0
41
1
10
97.0569509332547
20
-9.31470577963967
30
0
41
1
10
97.1589848951566
20
-9.79814794072146
30
0
41
1
10
97.2100018761075
20
-10.0264764295075
30
0
41
1
10
97.3630528189605
20
-10.6678676709817
30
0
41
1
10
97.4650867808624
20
-11.0369392404697
30
0
41
1
10
97.6691547046664
20
-11.6490086608542
30
0
41
1
10
97.7711886665683
20
-11.8920531034702
30
0
41
1
10
97.9752565903722
20
-12.2551338386712
30
0
41
1
10
98.0772905522741
20
-12.3752818071899
30
0
41
1
10
98.2303414951271
20
-12.4728010702773
30
0
41
1
10
98.2813584760781
20
-12.4915876102271
30
0
41
1
10
98.3578839475045
20
-12.5008113416859
30
0
41
1
10
98.38339243798
20
-12.5007664148417
30
0
41
1
10
98.434409418931
20
-12.4944311361081
30
0
41
1
10
98.4599179094064
20
-12.4881043536089
30
0
41
1
10
98.5874603617839
20
-12.4399756835402
30
0
41
1
10
98.6894943236858
20
-12.3484334496164
30
0
41
1
10
98.8935622474898
20
-12.044958087215
30
0
41
1
10
98.9955962093917
20
-11.8329043599816
30
0
41
1
10
99.1996641331957
20
-11.2825414810168
30
0
41
1
10
99.3016980950975
20
-10.9441657553899
30
0
41
1
10
99.4547490379504
20
-10.3462832165991
30
0
41
1
10
99.5057660189014
20
-10.1320337723376
30
0
41
1
10
99.6077999808034
20
-9.67553428207572
30
0
41
1
10
99.6588169617544
20
-9.433286604042
30
0
41
1
10
99.7608509236563
20
-8.92343372649827
30
0
41
1
10
99.8118679046073
20
-8.65583235090958
30
0
41
1
10
99.9139018665093
20
-8.09855317268378
30
0
41
1
10
99.9649188474602
20
-7.80888034449004
30
0
41
1
10
100.117969790313
20
-6.91242590532184
30
0
41
1
10
100.220003752215
20
-6.27814198453578
30
0
41
1
10
100.424071676019
20
-4.96995406062379
30
0
41
1
10
100.526105637921
20
-4.29622879042296
30
0
41
1
10
100.730173561725
20
-2.94311180176655
30
0
41
1
10
100.832207523627
20
-2.26384670670799
30
0
41
1
10
100.98525846648
20
-1.26253727148259
30
0
41
1
10
101.036275447431
20
-0.931649213463459
30
0
41
1
10
101.112800918857
20
-0.441836599225354
30
0
41
1
10
101.138309409333
20
-0.279648449926668
30
0
41
1
10
101.176572145046
20
-0.038229476642698
30
0
41
1
10
101.189326390284
20
0.0417783818318753
30
0
41
1
10
101.214834880759
20
0.20274264222266
30
0
41
1
10
101.227589125997
20
0.283534785220127
30
0
41
1
10
101.342377333137
20
1.01327917777681
30
0
41
1
10
101.444411295039
20
1.68085915482237
30
0
41
1
10
101.648479218842
20
3.02945338096015
30
0
41
1
10
101.750513180744
20
3.71038597725081
30
0
41
1
10
101.954581104548
20
5.05443859512485
30
0
41
1
10
102.05661506645
20
5.71740809277986
30
0
41
1
10
102.209666009303
20
6.67258875318652
30
0
41
1
10
102.260682990254
20
6.98442606880735
30
0
41
1
10
102.362716952156
20
7.59081344753352
30
0
41
1
10
102.413733933107
20
7.88535771708217
30
0
41
1
10
102.515767895009
20
8.45327173021772
30
0
41
1
10
102.56678487596
20
8.72663627875042
30
0
41
1
10
102.668818837862
20
9.24876964156454
30
0
41
1
10
102.719835818813
20
9.49753431436358
30
0
41
1
10
102.821869780715
20
9.96765453066877
30
0
41
1
10
102.872886761666
20
10.1890073279523
30
0
41
1
10
102.974920723568
20
10.6022027264286
30
0
41
1
10
103.025937704519
20
10.7940441573003
30
0
41
1
10
103.178988647372
20
11.3233089763098
30
0
41
1
10
103.281022609274
20
11.614099747078
30
0
41
1
10
103.485090533078
20
12.07020292506
30
0
41
1
10
103.58712449498
20
12.2356077115191
30
0
41
1
10
103.791192418783
20
12.4504418998944
30
0
41
1
10
103.893226380685
20
12.5
30
0
41
1
10
103.995260342587
20
12.5
30
0
0
SPLINE
5
F6
100
AcDbEntity
8
1
62
256
6
ByLayer
370
13
48
1
60
0
100
AcDbSpline
70
4
71
3
72
32
73
28
40
0
40
0
40
0
40
0
40
0.124999999999999
40
0.124999999999999
40
0.249999999999999
40
0.249999999999999
40
0.312499999999999
40
0.312499999999999
40
0.374999999999999
40
0.374999999999999
40
0.437499999999999
40
0.437499999999999
40
0.499999999999999
40
0.499999999999999
40
0.562499999999999
40
0.562499999999999
40
0.624999999999999
40
0.624999999999999
40
0.687499999999999
40
0.687499999999999
40
0.749999999999999
40
0.749999999999999
40
0.812499999999999
40
0.812499999999999
40
0.874999999999999
40
0.874999999999999
40
1
40
1
40
1
40
1
41
1
10
102.930674312142
20
12.5
30
0
41
1
10
103.035661718789
20
12.5
30
0
41
1
10
103.140649125436
20
12.4475164640655
30
0
41
1
10
103.35062393873
20
12.2195875757252
30
0
41
1
10
103.455611345377
20
12.0439943849592
30
0
41
1
10
103.613092455348
20
11.6808803585556
30
0
41
1
10
103.665586158671
20
11.5433011345356
30
0
41
1
10
103.770573565319
20
11.2349462695097
30
0
41
1
10
103.823067268642
20
11.0641687493098
30
0
41
1
10
103.928054675289
20
10.6901438306108
30
0
41
1
10
103.980548378613
20
10.4868962705977
30
0
41
1
10
104.08553578526
20
10.0495366501994
30
0
41
1
10
104.138029488583
20
9.81542631458311
30
0
41
1
10
104.24301689523
20
9.31880237756445
30
0
41
1
10
104.295510598554
20
9.05629234137939
30
0
41
1
10
104.400498005201
20
8.50610634479668
30
0
41
1
10
104.452991708525
20
8.21843552076828
30
0
41
1
10
104.557979115172
20
7.62180961246321
30
0
41
1
10
104.610472818496
20
7.3128607760886
30
0
41
1
10
104.715460225143
20
6.67803211304854
30
0
41
1
10
104.767953928466
20
6.35215906537732
30
0
41
1
10
104.872941335113
20
5.68810910834142
30
0
41
1
10
104.925435038437
20
5.34993889789868
30
0
41
1
10
105.030422445084
20
4.66599105979691
30
0
41
1
10
105.082916148408
20
4.32021949902781
30
0
41
1
10
105.240397258378
20
3.27835200533036
30
0
41
1
10
105.345384665025
20
2.57793006027575
30
0
41
1
10
105.450372071673
20
1.88792592513767
30
0
0
SPLINE
5
F7
100
AcDbEntity
8
1
62
256
6
ByLayer
370
13
48
1
60
0
100
AcDbSpline
70
4
71
3
72
82
73
78
40
0
40
0
40
0
40
0
40
0.0312500000000007
40
0.0312500000000007
40
0.0625000000000013
40
0.0625000000000013
40
0.093750000000002
40
0.093750000000002
40
0.125000000000003
40
0.125000000000003
40
0.156250000000003
40
0.156250000000003
40
0.187500000000004
40
0.187500000000004
40
0.218750000000005
40
0.218750000000005
40
0.250000000000005
40
0.250000000000005
40
0.281250000000006
40
0.281250000000006
40
0.312500000000007
40
0.312500000000007
40
0.343750000000007
40
0.343750000000007
40
0.375000000000008
40
0.375000000000008
40
0.390625000000008
40
0.390625000000008
40
0.394531250000008
40
0.394531250000008
40
0.398437500000008
40
0.398437500000008
40
0.406250000000008
40
0.406250000000008
40
0.437500000000007
40
0.437500000000007
40
0.468750000000005
40
0.468750000000005
40
0.500000000000004
40
0.500000000000004
40
0.531250000000003
40
0.531250000000003
40
0.562500000000001
40
0.562500000000001
40
0.59375
40
0.59375
40
0.624999999999999
40
0.624999999999999
40
0.656249999999997
40
0.656249999999997
40
0.687499999999996
40
0.687499999999996
40
0.695312499999996
40
0.695312499999996
40
0.699218749999996
40
0.699218749999996
40
0.703124999999996
40
0.703124999999996
40
0.718749999999996
40
0.718749999999996
40
0.749999999999996
40
0.749999999999996
40
0.781249999999997
40
0.781249999999997
40
0.812499999999997
40
0.812499999999997
40
0.843749999999998
40
0.843749999999998
40
0.874999999999998
40
0.874999999999998
40
0.906249999999999
40
0.906249999999999
40
0.937499999999999
40
0.937499999999999
40
0.96875
40
0.96875
40
1
40
1
40
1
40
1
41
1
10
94.2
20
5.69969473659359
30
0
41
1
10
94.2969814886673
20
5.07946133607356
30
0
41
1
10
94.3939629773345
20
4.44087447997569
30
0
41
1
10
94.5879259546689
20
3.15598927675842
30
0
41
1
10
94.6849074433361
20
2.50979383130542
30
0
41
1
10
94.8788704206705
20
1.23529886015234
30
0
41
1
10
94.9758519093377
20
0.607147679237329
30
0
41
1
10
95.1698148866722
20
-0.61204453665141
30
0
41
1
10
95.2667963753394
20
-1.24037156493174
30
0
41
1
10
95.4607593526738
20
-2.51495987609289
30
0
41
1
10
95.5577408413411
20
-3.16117137664915
30
0
41
1
10
95.7517038186755
20
-4.44601405160489
30
0
41
1
10
95.8486853073427
20
-5.08454219343125
30
0
41
1
10
96.0426482846772
20
-6.32481150342099
30
0
41
1
10
96.1396297733443
20
-6.92641288461951
30
0
41
1
10
96.3335927506788
20
-8.0636592030757
30
0
41
1
10
96.430574239346
20
-8.59916418832145
30
0
41
1
10
96.6245372166804
20
-9.57943813271891
30
0
41
1
10
96.7215187053476
20
-10.0241094022975
30
0
41
1
10
96.9154816826821
20
-10.8060503360782
30
0
41
1
10
97.0124631713493
20
-11.1432921888623
30
0
41
1
10
97.2064261486837
20
-11.7037889099521
30
0
41
1
10
97.3034076373509
20
-11.9270858755151
30
0
41
1
10
97.4973706146853
20
-12.2629461562529
30
0
41
1
10
97.5943521033527
20
-12.3755975514587
30
0
41
1
10
97.7398243363534
20
-12.4697974096448
30
0
41
1
10
97.7883150806871
20
-12.4887861513508
30
0
41
1
10
97.8489285111041
20
-12.4981629195064
30
0
41
1
10
97.8610511971874
20
-12.4993209119577
30
0
41
1
10
97.8852965693542
20
-12.5002332423417
30
0
41
1
10
97.8974192554376
20
-12.499992271153
30
0
41
1
10
97.9337873136877
20
-12.4971543645442
30
0
41
1
10
97.9580326858546
20
-12.4924329340925
30
0
41
1
10
98.0792595466886
20
-12.4540704810331
30
0
41
1
10
98.1762410353558
20
-12.3759647239992
30
0
41
1
10
98.3702040126902
20
-12.1121442814872
30
0
41
1
10
98.4671855013575
20
-11.9263335360335
30
0
41
1
10
98.6611484786919
20
-11.4409065809733
30
0
41
1
10
98.7581299673592
20
-11.1412295876261
30
0
41
1
10
98.9520929446936
20
-10.4311341681092
30
0
41
1
10
99.0490744333608
20
-10.0207189687932
30
0
41
1
10
99.2430374106953
20
-9.10243451346145
30
0
41
1
10
99.3400188993625
20
-8.59464159765918
30
0
41
1
10
99.5339818766969
20
-7.50392786704927
30
0
41
1
10
99.6309633653641
20
-6.92113737576688
30
0
41
1
10
99.8249263426985
20
-5.70859271140273
30
0
41
1
10
99.9219078313657
20
-5.07898312979123
30
0
41
1
10
100.1158708087
20
-3.8025140267743
30
0
41
1
10
100.212852297367
20
-3.15577268730809
30
0
41
1
10
100.406815274702
20
-1.87221356173075
30
0
41
1
10
100.503796763369
20
-1.23546363101497
30
0
41
1
10
100.625023624203
20
-0.45933510202525
30
0
41
1
10
100.64926899637
20
-0.305084507643016
30
0
41
1
10
100.68563705462
20
-0.0753775594282615
30
0
41
1
10
100.697759740703
20
0.0007211326753236
30
0
41
1
10
100.72200511287
20
0.153493056341375
30
0
41
1
10
100.734127798954
20
0.230162268843799
30
0
41
1
10
100.794741229371
20
0.614842008517229
30
0
41
1
10
100.843231973704
20
0.926869692835936
30
0
41
1
10
100.988704206705
20
1.87224408457684
30
0
41
1
10
101.085685695372
20
2.51505810483195
30
0
41
1
10
101.279648672707
20
3.80219155381207
30
0
41
1
10
101.376630161374
20
4.44642505525999
30
0
41
1
10
101.570593138708
20
5.70807049483349
30
0
41
1
10
101.667574627376
20
6.32535168438332
30
0
41
1
10
101.86153760471
20
7.50343369184412
30
0
41
1
10
101.958519093377
20
8.06408976068693
30
0
41
1
10
102.152482070712
20
9.10220200250285
30
0
41
1
10
102.249463559379
20
9.57954215513217
30
0
41
1
10
102.443426536713
20
10.4313217716827
30
0
41
1
10
102.540408025381
20
10.8057086109575
30
0
41
1
10
102.734371002715
20
11.4415452471602
30
0
41
1
10
102.831352491382
20
11.7030155029028
30
0
41
1
10
103.025315468717
20
12.1131391288975
30
0
41
1
10
103.122296957384
20
12.261868771912
30
0
41
1
10
103.316259934718
20
12.4552489840324
30
0
41
1
10
103.413241423385
20
12.5
30
0
41
1
10
103.510222912053
20
12.5
30
0
0
SPLINE
5
F8
100
AcDbEntity
8
1
62
256
6
ByLayer
370
13
48
1
60
0
100
AcDbSpline
70
4
71
3
72
42
73
38
40
0
40
0
40
0
40
0
40
0.0625000000000004
40
0.0625000000000004
40
0.125000000000001
40
0.125000000000001
40
0.187500000000001
40
0.187500000000001
40
0.250000000000001
40
0.250000000000001
40
0.312500000000002
40
0.312500000000002
40
0.375000000000002
40
0.375000000000002
40
0.437500000000002
40
0.437500000000002
40
0.500000000000003
40
0.500000000000003
40
0.562500000000003
40
0.562500000000003
40
0.625000000000003
40
0.625000000000003
40
0.687500000000003
40
0.687500000000003
40
0.750000000000004
40
0.750000000000004
40
0.812500000000004
40
0.812500000000004
40
0.875000000000004
40
0.875000000000004
40
0.906250000000004
40
0.906250000000004
40
0.921875000000004
40
0.921875000000004
40
0.937500000000003
40
0.937500000000003
40
1
40
1
40
1
40
1
41
1
10
102.445636881607
20
12.5
30
0
41
1
10
102.5082355314
20
12.5
30
0
41
1
10
102.570834181193
20
12.4813986081103
30
0
41
1
10
102.696031480779
20
12.4029242643419
30
0
41
1
10
102.758630130572
20
12.34303986878
30
0
41
1
10
102.883827430158
20
12.1787266931695
30
0
41
1
10
102.946426079951
20
12.0742869612939
30
0
41
1
10
103.071623379537
20
11.8187487809832
30
0
41
1
10
103.13422202933
20
11.667641397552
30
0
41
1
10
103.259419328916
20
11.3181165087319
30
0
41
1
10
103.322017978709
20
11.1196936403852
30
0
41
1
10
103.447215278295
20
10.6765697131139
30
0
41
1
10
103.509813928088
20
10.4318681077368
30
0
41
1
10
103.635011227675
20
9.89899498749426
30
0
41
1
10
103.697609877468
20
9.61082833697313
30
0
41
1
10
103.822807177054
20
8.99554652936135
30
0
41
1
10
103.885405826847
20
8.66844136933213
30
0
41
1
10
104.010603126433
20
7.98129216220676
30
0
41
1
10
104.073201776226
20
7.62126208360274
30
0
41
1
10
104.198399075812
20
6.87539607544986
30
0
41
1
10
104.260997725605
20
6.48957626626202
30
0
41
1
10
104.386195025191
20
5.69992835476856
30
0
41
1
10
104.448793674984
20
5.29611644320022
30
0
41
1
10
104.57399097457
20
4.47845358345751
30
0
41
1
10
104.636589624363
20
4.06461699271694
30
0
41
1
10
104.761786923949
20
3.23458043868243
30
0
41
1
10
104.824385573742
20
2.81839162176794
30
0
41
1
10
104.949582873328
20
1.99064536328481
30
0
41
1
10
105.012181523121
20
1.57909517540071
30
0
41
1
10
105.106079497811
20
0.969770307160076
30
0
41
1
10
105.137378822707
20
0.767987272887837
30
0
41
1
10
105.184327810052
20
0.467788010210796
30
0
41
1
10
105.1999774725
20
0.368133582589536
30
0
41
1
10
105.231276797397
20
0.169723217544146
30
0
41
1
10
105.246926459845
20
0.0711206252813668
30
0
41
1
10
105.325174772086
20
-0.421128270601514
30
0
41
1
10
105.38777342188
20
-0.822619207124234
30
0
41
1
10
105.450372071673
20
-1.22931953460952
30
0
0
SPLINE
5
F9
100
AcDbEntity
8
1
62
256
6
ByLayer
370
13
48
1
60
0
100
AcDbSpline
70
4
71
3
72
86
73
82
40
0
40
0
40
0
40
0
40
0.0312500000000009
40
0.0312500000000009
40
0.039062500000001
40
0.0429687500000011
40
0.0429687500000011
40
0.0468750000000011
40
0.0468750000000011
40
0.0625000000000007
40
0.0625000000000007
40
0.0937499999999997
40
0.0937499999999997
40
0.124999999999999
40
0.124999999999999
40
0.156249999999998
40
0.156249999999998
40
0.187499999999997
40
0.187499999999997
40
0.218749999999996
40
0.218749999999996
40
0.249999999999995
40
0.249999999999995
40
0.281249999999994
40
0.281249999999994
40
0.312499999999993
40
0.312499999999993
40
0.343749999999993
40
0.343749999999993
40
0.359374999999992
40
0.359374999999992
40
0.363281249999992
40
0.363281249999992
40
0.367187499999992
40
0.374999999999993
40
0.374999999999993
40
0.406249999999994
40
0.406249999999994
40
0.437499999999996
40
0.437499999999996
40
0.468749999999998
40
0.468749999999998
40
0.5
40
0.5
40
0.531250000000002
40
0.531250000000002
40
0.562500000000003
40
0.562500000000003
40
0.593750000000005
40
0.593750000000005
40
0.625000000000007
40
0.625000000000007
40
0.656250000000009
40
0.656250000000009
40
0.67187500000001
40
0.67187500000001
40
0.67968750000001
40
0.67968750000001
40
0.68359375000001
40
0.68359375000001
40
0.68750000000001
40
0.68750000000001
40
0.718750000000009
40
0.718750000000009
40
0.750000000000008
40
0.750000000000008
40
0.781250000000007
40
0.781250000000007
40
0.812500000000006
40
0.812500000000006
40
0.843750000000005
40
0.843750000000005
40
0.875000000000004
40
0.875000000000004
40
0.906250000000003
40
0.906250000000003
40
0.937500000000002
40
0.937500000000002
40
0.968750000000001
40
0.968750000000001
40
1
40
1
40
1
40
1
41
1
10
94.2
20
2.51141442230363
30
0
41
1
10
94.2919290154326
20
1.9030819894958
30
0
41
1
10
94.383858030865
20
1.29925974185554
30
0
41
1
10
94.4987693001555
20
0.56171916448443
30
0
41
1
10
94.5332426809429
20
0.341731303606735
30
0
41
1
10
94.5677160617299
20
0.12392399683057
30
0
41
1
10
94.5906983155879
20
-0.0207688762601492
30
0
41
1
10
94.6021894425171
20
-0.0929725082057473
30
0
41
1
10
94.6596450771624
20
-0.456028308994945
30
0
41
1
10
94.7056095848786
20
-0.750467903653856
30
0
41
1
10
94.8435031080273
20
-1.64283389969134
30
0
41
1
10
94.9354321234599
20
-2.24995546163322
30
0
41
1
10
95.1192901543248
20
-3.46913291923656
30
0
41
1
10
95.2112191697573
20
-4.08112939741559
30
0
41
1
10
95.3950772006223
20
-5.28647649192376
30
0
41
1
10
95.4870062160547
20
-5.87973262588048
30
0
41
1
10
95.6708642469197
20
-7.02230471109544
30
0
41
1
10
95.7627932623522
20
-7.5715094995748
30
0
41
1
10
95.9466512932171
20
-8.60214033048322
30
0
41
1
10
96.0385803086496
20
-9.08346712963495
30
0
41
1
10
96.2224383395145
20
-9.95923130930552
30
0
41
1
10
96.3143673549471
20
-10.35360867883
30
0
41
1
10
96.498225385812
20
-11.0435778851381
30
0
41
1
10
96.5901544012445
20
-11.339162719566
30
0
41
1
10
96.7740124321094
20
-11.8279066259475
30
0
41
1
10
96.8659414475419
20
-12.0211068553351
30
0
41
1
10
97.0497994784068
20
-12.3091492255952
30
0
41
1
10
97.1417284938393
20
-12.4040619383676
30
0
41
1
10
97.2796220169881
20
-12.480176334293
30
0
41
1
10
97.3255865247044
20
-12.4945446667655
30
0
41
1
10
97.3830421593497
20
-12.4997558667474
30
0
41
1
10
97.3945332862787
20
-12.5001617779961
30
0
41
1
10
97.4175155401368
20
-12.4997233591023
30
0
41
1
10
97.451988920924
20
-12.497180915146
30
0
41
1
10
97.4864623017112
20
-12.4888631754189
30
0
41
1
10
97.6013735710019
20
-12.4477910549972
30
0
41
1
10
97.6933025864343
20
-12.3720627217207
30
0
41
1
10
97.8771606172993
20
-12.1240476058219
30
0
41
1
10
97.9690896327317
20
-11.9516870458455
30
0
41
1
10
98.1529476635967
20
-11.5048902773542
30
0
41
1
10
98.2448766790292
20
-11.2304050250724
30
0
41
1
10
98.4287347098942
20
-10.5812255666568
30
0
41
1
10
98.5206637253266
20
-10.2065274464711
30
0
41
1
10
98.7045217561915
20
-9.36703932276001
30
0
41
1
10
98.7964507716239
20
-8.90229891709242
30
0
41
1
10
98.9803088024889
20
-7.90042442651674
30
0
41
1
10
99.0722378179215
20
-7.36338343627011
30
0
41
1
10
99.2560958487865
20
-6.23998959074649
30
0
41
1
10
99.3480248642189
20
-5.65374793926577
30
0
41
1
10
99.5318828950839
20
-4.45724515843352
30
0
41
1
10
99.6238119105163
20
-3.84708391542785
30
0
41
1
10
99.8076699413813
20
-2.62696725935993
30
0
41
1
10
99.8995989568137
20
-2.01707928269082
30
0
41
1
10
100.037492479962
20
-1.11783563580107
30
0
41
1
10
100.083456987679
20
-0.820651106210306
30
0
41
1
10
100.152403749253
20
-0.38029085433962
30
0
41
1
10
100.175386003111
20
-0.234404296646744
30
0
41
1
10
100.209859383898
20
-0.0170977353578508
30
0
41
1
10
100.221350510828
20
0.0550116753101406
30
0
41
1
10
100.244332764686
20
0.200059203281199
30
0
41
1
10
100.255823891615
20
0.272834267460809
30
0
41
1
10
100.359244033976
20
0.929943736330188
30
0
41
1
10
100.451173049409
20
1.52942922549855
30
0
41
1
10
100.635031080274
20
2.74166158598794
30
0
41
1
10
100.726960095706
20
3.35436477660286
30
0
41
1
10
100.910818126571
20
4.57084262926091
30
0
41
1
10
101.002747142004
20
5.17453533217071
30
0
41
1
10
101.186605172868
20
6.34803255728355
30
0
41
1
10
101.278534188301
20
6.91772948454897
30
0
41
1
10
101.462392219166
20
7.99841315274833
30
0
41
1
10
101.554321234598
20
8.50929227329141
30
0
41
1
10
101.738179265463
20
9.45099303625366
30
0
41
1
10
101.830108280896
20
9.88173647523556
30
0
41
1
10
102.013966311761
20
10.6481920225154
30
0
41
1
10
102.105895327193
20
10.9838756419111
30
0
41
1
10
102.289753358058
20
11.5532756150924
30
0
41
1
10
102.381682373491
20
11.7870156850157
30
0
41
1
10
102.565540404356
20
12.153693543543
30
0
41
1
10
102.657469419788
20
12.2866929526916
30
0
41
1
10
102.841327450653
20
12.4598075493262
30
0
41
1
10
102.933256466086
20
12.5
30
0
41
1
10
103.025185481518
20
12.5
30
0
0
SPLINE
5
FA
100
AcDbEntity
8
1
62
256
6
ByLayer
370
13
48
1
60
0
100
AcDbSpline
70
4
71
3
72
42
73
38
40
0
40
0
40
0
40
0
40
0.0624999999999996
40
0.0624999999999996
40
0.124999999999999
40
0.124999999999999
40
0.187499999999999
40
0.187499999999999
40
0.249999999999998
40
0.249999999999998
40
0.312499999999998
40
0.312499999999998
40
0.374999999999998
40
0.374999999999998
40
0.437499999999998
40
0.437499999999998
40
0.499999999999997
40
0.499999999999997
40
0.562499999999997
40
0.562499999999997
40
0.624999999999997
40
0.624999999999997
40
0.687499999999997
40
0.687499999999997
40
0.749999999999997
40
0.749999999999997
40
0.781249999999997
40
0.781249999999997
40
0.796874999999997
40
0.796874999999997
40
0.812499999999997
40
0.812499999999997
40
0.874999999999998
40
0.874999999999998
40
0.937499999999999
40
0.937499999999999
40
1
40
1
40
1
40
1
41
1
10
101.960599451072
20
12.5
30
0
41
1
10
102.033303047335
20
12.5
30
0
41
1
10
102.106006643597
20
12.4748947607824
30
0
41
1
10
102.251413836122
20
12.3681877330159
30
0
41
1
10
102.324117432385
20
12.2865617767789
30
0
41
1
10
102.46952462491
20
12.0620695083304
30
0
41
1
10
102.542228221172
20
11.9191811154177
30
0
41
1
10
102.687635413697
20
11.5697168011114
30
0
41
1
10
102.76033900996
20
11.3631253174396
30
0
41
1
10
102.905746202485
20
10.8866864724648
30
0
41
1
10
102.978449798747
20
10.6168341529082
30
0
41
1
10
103.123856991272
20
10.017506823615
30
0
41
1
10
103.196560587535
20
9.68803986992916
30
0
41
1
10
103.34196778006
20
8.97627864212274
30
0
41
1
10
103.414671376322
20
8.59400514110922
30
0
41
1
10
103.560078568847
20
7.7861518434247
30
0
41
1
10
103.63278216511
20
7.360602328319
30
0
41
1
10
103.778189357635
20
6.47766277532833
30
0
41
1
10
103.850892953897
20
6.02030722776126
30
0
41
1
10
103.996300146422
20
5.08617257941555
30
0
41
1
10
104.069003742685
20
4.60942632422552
30
0
41
1
10
104.21441093521
20
3.64884588973712
30
0
41
1
10
104.287114531472
20
3.16503810386413
30
0
41
1
10
104.432521723997
20
2.20168320784325
30
0
41
1
10
104.50522532026
20
1.72215331533889
30
0
41
1
10
104.614280714654
20
1.01332822217566
30
0
41
1
10
104.650632512785
20
0.77878369880068
30
0
41
1
10
104.705160209982
20
0.430330013844298
30
0
41
1
10
104.723336109047
20
0.314738294352424
30
0
41
1
10
104.759687907179
20
0.0847895164671399
30
0
41
1
10
104.777863806244
20
-0.029163788481867
30
0
41
1
10
104.868743301572
20
-0.603028957144318
30
0
41
1
10
104.941446897835
20
-1.07222334192571
30
0
41
1
10
105.08685409036
20
-2.02271829011229
30
0
41
1
10
105.159557686623
20
-2.50400929865012
30
0
41
1
10
105.304964879148
20
-3.46863166583387
30
0
41
1
10
105.37766847541
20
-3.95194377573469
30
0
41
1
10
105.450372071673
20
-4.43047508914393
30
0
0
SPLINE
5
FB
100
AcDbEntity
8
1
62
256
6
ByLayer
370
13
48
1
60
0
100
AcDbSpline
70
4
71
3
72
81
73
77
40
0
40
0
40
0
40
0
40
0.03125
40
0.03125
40
0.0624999999999999
40
0.0624999999999999
40
0.0937499999999999
40
0.0937499999999999
40
0.125
40
0.125
40
0.15625
40
0.15625
40
0.1875
40
0.1875
40
0.21875
40
0.21875
40
0.25
40
0.25
40
0.28125
40
0.28125
40
0.3125
40
0.3125
40
0.3203125
40
0.32421875
40
0.32421875
40
0.328125
40
0.328125
40
0.34375
40
0.34375
40
0.375
40
0.375
40
0.40625
40
0.40625
40
0.4375
40
0.4375
40
0.46875
40
0.46875
40
0.5
40
0.5
40
0.53125
40
0.53125
40
0.5625
40
0.5625
40
0.59375
40
0.59375
40
0.624999999999999
40
0.624999999999999
40
0.65625
40
0.65625
40
0.66015625
40
0.66015625
40
0.6640625
40
0.6640625
40
0.671875
40
0.671875
40
0.687499999999999
40
0.687499999999999
40
0.71875
40
0.71875
40
0.75
40
0.75
40
0.78125
40
0.78125
40
0.8125
40
0.8125
40
0.84375
40
0.84375
40
0.875
40
0.875
40
0.90625
40
0.90625
40
0.9375
40
0.9375
40
0.96875
40
0.96875
40
1
40
1
40
1
40
1
41
1
10
94.2
20
-0.619550829803984
30
0
41
1
10
94.2868765421977
20
-1.17583367176911
30
0
41
1
10
94.3737530843955
20
-1.74477307691706
30
0
41
1
10
94.547506168791
20
-2.89262929430043
30
0
41
1
10
94.6343827109887
20
-3.47151017223297
30
0
41
1
10
94.8081357953842
20
-4.62028585368284
30
0
41
1
10
94.895012337582
20
-5.19011764902362
30
0
41
1
10
95.0687654219774
20
-6.29971374903718
30
0
41
1
10
95.1556419641753
20
-6.83939695083595
30
0
41
1
10
95.3293950485707
20
-7.86770263196661
30
0
41
1
10
95.4162715907685
20
-8.35624318420287
30
0
41
1
10
95.5900246751639
20
-9.26387720560851
30
0
41
1
10
95.6769012173617
20
-9.68290797152454
30
0
41
1
10
95.8506543017571
20
-10.4379890212791
30
0
41
1
10
95.937530843955
20
-10.7740107338946
30
0
41
1
10
96.1112839283504
20
-11.3558115883487
30
0
41
1
10
96.1981604705481
20
-11.6016002083223
30
0
41
1
10
96.3719135549436
20
-12.0022339323215
30
0
41
1
10
96.4587900971413
20
-12.1571190526281
30
0
41
1
10
96.6325431815368
20
-12.3810252147461
30
0
41
1
10
96.7194197237346
20
-12.4501025009263
30
0
41
1
10
96.8280154014818
20
-12.4886322387352
30
0
41
1
10
96.860594104806
20
-12.49661685664
30
0
41
1
10
96.89317280813
20
-12.4994344360602
30
0
41
1
10
96.9148919436794
20
-12.5001871877883
30
0
41
1
10
96.9257515114543
20
-12.5000040719098
30
0
41
1
10
96.9800493503279
20
-12.4962641489869
30
0
41
1
10
97.0234876214267
20
-12.4842014678286
30
0
41
1
10
97.1538024347233
20
-12.4187475833484
30
0
41
1
10
97.2406789769211
20
-12.3359700743657
30
0
41
1
10
97.4144320613166
20
-12.0834739513627
30
0
41
1
10
97.5013086035143
20
-11.9137007059957
30
0
41
1
10
97.6750616879098
20
-11.4829661179617
30
0
41
1
10
97.7619382301077
20
-11.2219689446782
30
0
41
1
10
97.9356913145031
20
-10.6104842029502
30
0
41
1
10
98.0225678567008
20
-10.2599932284372
30
0
41
1
10
98.1963209410962
20
-9.47779999303481
30
0
41
1
10
98.283197483294
20
-9.04613257917836
30
0
41
1
10
98.4569505676895
20
-8.1159875105148
30
0
41
1
10
98.5438271098873
20
-7.6175770186851
30
0
41
1
10
98.7175801942827
20
-6.57290372073857
30
0
41
1
10
98.8044567364805
20
-6.02672411378626
30
0
41
1
10
98.9782098208759
20
-4.90770136278024
30
0
41
1
10
99.0650863630737
20
-4.3349373334257
30
0
41
1
10
99.2388394474692
20
-3.1836529051769
30
0
41
1
10
99.3257159896671
20
-2.60519137761159
30
0
41
1
10
99.4994690740624
20
-1.46101181633637
30
0
41
1
10
99.5863456162601
20
-0.895325017438012
30
0
41
1
10
99.6840817262326
20
-0.274376270852741
30
0
41
1
10
99.6949412940074
20
-0.205593860103363
30
0
41
1
10
99.7166604295568
20
-0.0684768174584178
30
0
41
1
10
99.7275199973315
20
-0.0002965488505424
30
0
41
1
10
99.7600987006557
20
0.204924493992337
30
0
41
1
10
99.7818178362051
20
0.342650231078608
30
0
41
1
10
99.8469752428534
20
0.758272613246135
30
0
41
1
10
99.8904135139522
20
1.03862264659398
30
0
41
1
10
100.020728327249
20
1.88685846883826
30
0
41
1
10
100.107604869447
20
2.46204374435598
30
0
41
1
10
100.281357953842
20
3.61485729161509
30
0
41
1
10
100.36823449604
20
4.19243787105205
30
0
41
1
10
100.541987580435
20
5.32996721590359
30
0
41
1
10
100.628864122633
20
5.88984378864694
30
0
41
1
10
100.802617207029
20
6.97062243946931
30
0
41
1
10
100.889493749226
20
7.49144064217376
30
0
41
1
10
101.063246833622
20
8.47389157269092
30
0
41
1
10
101.15012337582
20
8.93544806704085
30
0
41
1
10
101.323876460215
20
9.78277638035718
30
0
41
1
10
101.410753002413
20
10.1684984638015
30
0
41
1
10
101.584506086808
20
10.8531286937376
30
0
41
1
10
101.671382629006
20
11.1520243698767
30
0
41
1
10
101.845135713402
20
11.6585067025007
30
0
41
1
10
101.932012255599
20
11.8661170162733
30
0
41
1
10
102.105765339995
20
12.1918841802773
30
0
41
1
10
102.192641882192
20
12.3100897160554
30
0
41
1
10
102.366394966588
20
12.4641183846892
30
0
41
1
10
102.453271508786
20
12.5
30
0
41
1
10
102.540148050984
20
12.5
30
0
0
SPLINE
5
FC
100
AcDbEntity
8
1
62
256
6
ByLayer
370
13
48
1
60
0
100
AcDbSpline
70
4
71
3
72
43
73
39
40
0
40
0
40
0
40
0
40
0.0625000000000005
40
0.0625000000000005
40
0.125000000000001
40
0.125000000000001
40
0.187500000000001
40
0.187500000000001
40
0.250000000000002
40
0.250000000000002
40
0.312500000000002
40
0.312500000000002
40
0.375000000000003
40
0.375000000000003
40
0.437500000000003
40
0.437500000000003
40
0.500000000000004
40
0.500000000000004
40
0.562500000000004
40
0.562500000000004
40
0.625000000000005
40
0.625000000000005
40
0.687500000000005
40
0.687500000000005
40
0.703125000000005
40
0.703125000000005
40
0.710937500000005
40
0.710937500000005
40
0.718750000000005
40
0.750000000000004
40
0.750000000000004
40
0.812500000000003
40
0.812500000000003
40
0.875000000000002
40
0.875000000000002
40
0.937500000000001
40
0.937500000000001
40
1
40
1
40
1
40
1
41
1
10
101.475562020538
20
12.5
30
0
41
1
10
101.55837056327
20
12.5
30
0
41
1
10
101.641179106002
20
12.4674097221841
30
0
41
1
10
101.806796191466
20
12.3278969387201
30
0
41
1
10
101.889604734198
20
12.2209282962758
30
0
41
1
10
102.055221819661
20
11.9262601471273
30
0
41
1
10
102.138030362393
20
11.7385210418795
30
0
41
1
10
102.303647447857
20
11.2800785894785
30
0
41
1
10
102.386455990589
20
11.0093531612836
30
0
41
1
10
102.552073076053
20
10.3878376246421
30
0
41
1
10
102.634881618785
20
10.0370516405416
30
0
41
1
10
102.800498704249
20
9.26374614439311
30
0
41
1
10
102.883307246981
20
8.84125935843392
30
0
41
1
10
103.048924332445
20
7.93776383120976
30
0
41
1
10
103.131732875177
20
7.45681059624124
30
0
41
1
10
103.297349960641
20
6.45312020812969
30
0
41
1
10
103.380158503373
20
5.93044893798861
30
0
41
1
10
103.545775588837
20
4.86171352343988
30
0
41
1
10
103.628584131569
20
4.31571122488913
30
0
41
1
10
103.794201217033
20
3.21838658051502
30
0
41
1
10
103.877009759765
20
2.66711067019824
30
0
41
1
10
104.042626845229
20
1.5753298081373
30
0
41
1
10
104.125435387961
20
1.03485056644052
30
0
41
1
10
104.228946066376
20
0.374116169115865
30
0
41
1
10
104.249648202059
20
0.242704205579685
30
0
41
1
10
104.280701405583
20
0.0468150996417194
30
0
41
1
10
104.291052473425
20
-0.0181473199419884
30
0
41
1
10
104.311754609108
20
-0.148619509290143
30
0
41
1
10
104.363509948315
20
-0.475828711466022
30
0
41
1
10
104.415265287523
20
-0.807948766573702
30
0
41
1
10
104.539478101621
20
-1.61228981977175
30
0
41
1
10
104.622286644353
20
-2.15828606543244
30
0
41
1
10
104.787903729817
20
-3.25568705111971
30
0
41
1
10
104.870712272549
20
-3.80705849297021
30
0
41
1
10
105.036329358013
20
-4.89829263721285
30
0
41
1
10
105.119137900745
20
-5.43810245344929
30
0
41
1
10
105.284754986209
20
-6.4878367072366
30
0
41
1
10
105.36756352894
20
-6.99769630327185
30
0
41
1
10
105.450372071673
20
-7.48359617880391
30
0
0
SPLINE
5
FD
100
AcDbEntity
8
1
62
256
6
ByLayer
370
13
48
1
60
0
100
AcDbSpline
70
4
71
3
72
80
73
76
40
0
40
0
40
0
40
0
40
0.0312500000000011
40
0.0312500000000011
40
0.0625000000000022
40
0.0625000000000022
40
0.0937500000000033
40
0.0937500000000033
40
0.125000000000004
40
0.125000000000004
40
0.156250000000005
40
0.156250000000005
40
0.187500000000007
40
0.187500000000007
40
0.218750000000008
40
0.218750000000008
40
0.250000000000009
40
0.250000000000009
40
0.28125000000001
40
0.28125000000001
40
0.28515625000001
40
0.28515625000001
40
0.28906250000001
40
0.29687500000001
40
0.29687500000001
40
0.31250000000001
40
0.31250000000001
40
0.343750000000011
40
0.343750000000011
40
0.375000000000011
40
0.375000000000011
40
0.406250000000011
40
0.406250000000011
40
0.437500000000011
40
0.437500000000011
40
0.468750000000011
40
0.468750000000011
40
0.500000000000011
40
0.500000000000011
40
0.531250000000011
40
0.531250000000011
40
0.562500000000011
40
0.562500000000011
40
0.593750000000011
40
0.593750000000011
40
0.625000000000011
40
0.625000000000011
40
0.640625000000011
40
0.640625000000011
40
0.644531250000011
40
0.644531250000011
40
0.648437500000011
40
0.656250000000011
40
0.656250000000011
40
0.68750000000001
40
0.68750000000001
40
0.718750000000009
40
0.718750000000009
40
0.750000000000008
40
0.750000000000008
40
0.781250000000007
40
0.781250000000007
40
0.812500000000006
40
0.812500000000006
40
0.843750000000005
40
0.843750000000005
40
0.875000000000004
40
0.875000000000004
40
0.906250000000003
40
0.906250000000003
40
0.937500000000002
40
0.937500000000002
40
0.968750000000001
40
0.968750000000001
40
1
40
1
40
1
40
1
41
1
10
94.2
20
-3.80617586236531
30
0
41
1
10
94.281824068963
20
-4.34818291490367
30
0
41
1
10
94.363648137926
20
-4.88739058256164
30
0
41
1
10
94.5272962758521
20
-5.94286912117511
30
0
41
1
10
94.6091203448151
20
-6.45908160608747
30
0
41
1
10
94.7727684827411
20
-7.45083982343476
30
0
41
1
10
94.8545925517041
20
-7.9263234813109
30
0
41
1
10
95.0182406896301
20
-8.82044284970169
30
0
41
1
10
95.100064758593
20
-9.23902606856592
30
0
41
1
10
95.2637128965192
20
-10.0064827766391
30
0
41
1
10
95.3455369654822
20
-10.3553248285258
30
0
41
1
10
95.5091851034082
20
-10.9750562538733
30
0
41
1
10
95.5910091723712
20
-11.2459407784411
30
0
41
1
10
95.7546573102973
20
-11.7066917985275
30
0
41
1
10
95.8364813792602
20
-11.8965780804808
30
0
41
1
10
96.0001295171862
20
-12.1972064024023
30
0
41
1
10
96.0819535861492
20
-12.3079850607061
30
0
41
1
10
96.2456017240752
20
-12.45633071434
30
0
41
1
10
96.3274257930382
20
-12.4939410677336
30
0
41
1
10
96.4194778706216
20
-12.4999942542825
30
0
41
1
10
96.429705879242
20
-12.5001659066845
30
0
41
1
10
96.4501618964827
20
-12.4995168174853
30
0
41
1
10
96.4808459223439
20
-12.4970462519748
30
0
41
1
10
96.511529948205
20
-12.4899998933432
30
0
41
1
10
96.5728979999273
20
-12.4695887409335
30
0
41
1
10
96.6138100344087
20
-12.4475521884784
30
0
41
1
10
96.7365461378533
20
-12.354559543846
30
0
41
1
10
96.8183702068162
20
-12.2566151169035
30
0
41
1
10
96.9820183447423
20
-11.9824050435474
30
0
41
1
10
97.0638424137053
20
-11.806100931416
30
0
41
1
10
97.2274905516313
20
-11.3725082882122
30
0
41
1
10
97.3093146205943
20
-11.1151964773613
30
0
41
1
10
97.4729627585203
20
-10.5217373757599
30
0
41
1
10
97.5547868274833
20
-10.1855904519122
30
0
41
1
10
97.7184349654094
20
-9.4417951874066
30
0
41
1
10
97.8002590343724
20
-9.03417398983004
30
0
41
1
10
97.9639071722984
20
-8.15954211040619
30
0
41
1
10
98.0457312412615
20
-7.69258105716335
30
0
41
1
10
98.2093793791875
20
-6.71498367825859
30
0
41
1
10
98.2912034481504
20
-6.20440875453397
30
0
41
1
10
98.4548515860765
20
-5.15718836371943
30
0
41
1
10
98.5366756550395
20
-4.62060276424342
30
0
41
1
10
98.7003237929655
20
-3.53898537868111
30
0
41
1
10
98.7821478619285
20
-2.99400067798322
30
0
41
1
10
98.9457959998546
20
-1.91158493787901
30
0
41
1
10
99.0276200688175
20
-1.37418216762302
30
0
41
1
10
99.150356172262
20
-0.583663609901748
30
0
41
1
10
99.1912682067436
20
-0.322730830896035
30
0
41
1
10
99.2424082498455
20
-0.0006195588935611
30
0
41
1
10
99.2526362584658
20
0.0635976043843414
30
0
41
1
10
99.2730922757065
20
0.192703865425671
30
0
41
1
10
99.3037763015677
20
0.3869602013215
30
0
41
1
10
99.3344603274287
20
0.582918902009965
30
0
41
1
10
99.4367404136325
20
1.23947345961187
30
0
41
1
10
99.5185644825956
20
1.77559028608272
30
0
41
1
10
99.6822126205217
20
2.85666349888211
30
0
41
1
10
99.7640366894846
20
3.40159328663697
30
0
41
1
10
99.9276848274106
20
4.48452802167137
30
0
41
1
10
100.009508896374
20
5.02248731960398
30
0
41
1
10
100.1731570343
20
6.07396274205234
30
0
41
1
10
100.254981103263
20
6.58741970018471
30
0
41
1
10
100.418629241189
20
7.5722179188586
30
0
41
1
10
100.500453310152
20
8.04349739250236
30
0
41
1
10
100.664101448078
20
8.92797485666449
30
0
41
1
10
100.745925517041
20
9.34112174639785
30
0
41
1
10
100.909573654967
20
10.0968202062771
30
0
41
1
10
100.99139772393
20
10.439342468389
30
0
41
1
10
101.155045861856
20
11.0459746405086
30
0
41
1
10
101.236869930819
20
11.3100819522685
30
0
41
1
10
101.400518068745
20
11.757254553694
30
0
41
1
10
101.482342137708
20
11.9403414065111
30
0
41
1
10
101.645990275634
20
12.2277297585871
30
0
41
1
10
101.727814344597
20
12.332068836786
30
0
41
1
10
101.891462482523
20
12.4681822160224
30
0
41
1
10
101.973286551486
20
12.5
30
0
41
1
10
102.055110620449
20
12.5
30
0
0
SPLINE
5
FE
100
AcDbEntity
8
1
62
256
6
ByLayer
370
13
48
1
60
0
100
AcDbSpline
70
4
71
3
72
43
73
39
40
0
40
0
40
0
40
0
40
0.0624999999999994
40
0.0624999999999994
40
0.124999999999999
40
0.124999999999999
40
0.187499999999998
40
0.187499999999998
40
0.249999999999997
40
0.249999999999997
40
0.312499999999997
40
0.312499999999997
40
0.374999999999996
40
0.374999999999996
40
0.437499999999995
40
0.437499999999995
40
0.499999999999995
40
0.499999999999995
40
0.562499999999994
40
0.562499999999994
40
0.624999999999993
40
0.624999999999993
40
0.632812499999994
40
0.632812499999994
40
0.640624999999994
40
0.656249999999994
40
0.656249999999994
40
0.687499999999994
40
0.687499999999994
40
0.749999999999995
40
0.749999999999995
40
0.812499999999997
40
0.812499999999997
40
0.874999999999998
40
0.874999999999998
40
0.937499999999999
40
0.937499999999999
40
1
40
1
40
1
40
1
41
1
10
100.990524590003
20
12.5
30
0
41
1
10
101.083438079204
20
12.5
30
0
41
1
10
101.176351568406
20
12.4589387695585
30
0
41
1
10
101.362178546809
20
12.2819682333472
30
0
41
1
10
101.45509203601
20
12.1459775126198
30
0
41
1
10
101.640919014413
20
11.7710331309063
30
0
41
1
10
101.733832503615
20
11.5320151232396
30
0
41
1
10
101.919659482018
20
10.949942943847
30
0
41
1
10
102.012572971219
20
10.6068653847681
30
0
41
1
10
102.198399949622
20
9.82404804656039
30
0
41
1
10
102.291313438823
20
9.38434075693894
30
0
41
1
10
102.477140417226
20
8.42399158855258
30
0
41
1
10
102.570053906428
20
7.90343451230811
30
0
41
1
10
102.755880884831
20
6.80367339323877
30
0
41
1
10
102.848794374032
20
6.22458378393435
30
0
41
1
10
103.034621352435
20
5.03351367203558
30
0
41
1
10
103.127534841636
20
4.42164540051837
30
0
41
1
10
103.313361820039
20
3.19071750267284
30
0
41
1
10
103.406275309241
20
2.57174114334873
30
0
41
1
10
103.592102287644
20
1.34921465327477
30
0
41
1
10
103.685015776845
20
0.74570657984313
30
0
41
1
10
103.789543452197
20
0.0853504579686444
30
0
41
1
10
103.801157638347
20
0.0124037692932575
30
0
41
1
10
103.824386010647
20
-0.1338822706781
30
0
41
1
10
103.859228569098
20
-0.354094095411256
30
0
41
1
10
103.894071127548
20
-0.576526501284548
30
0
41
1
10
103.963756244449
20
-1.02398062463695
30
0
41
1
10
104.01021298905
20
-1.32574633431986
30
0
41
1
10
104.149583222852
20
-2.23807083277316
30
0
41
1
10
104.242496712054
20
-2.8557953085984
30
0
41
1
10
104.428323690456
20
-4.08859379080431
30
0
41
1
10
104.521237179658
20
-4.7035915526161
30
0
41
1
10
104.707064158061
20
-5.90566185477337
30
0
41
1
10
104.799977647262
20
-6.49262576510341
30
0
41
1
10
104.985804625665
20
-7.61264031724943
30
0
41
1
10
105.078718114867
20
-8.1455745315954
30
0
41
1
10
105.26454509327
20
-9.13431233698026
30
0
41
1
10
105.357458582471
20
-9.5900236421316
30
0
41
1
10
105.450372071673
20
-9.99857385485814
30
0
0
SPLINE
5
FF
100
AcDbEntity
8
1
62
256
6
ByLayer
370
13
48
1
60
0
100
AcDbSpline
70
4
71
3
72
81
73
77
40
0
40
0
40
0
40
0
40
0.0312500000000012
40
0.0312500000000012
40
0.0625000000000024
40
0.0625000000000024
40
0.0937500000000036
40
0.0937500000000036
40
0.125000000000005
40
0.125000000000005
40
0.156250000000006
40
0.156250000000006
40
0.187500000000007
40
0.187500000000007
40
0.218750000000008
40
0.218750000000008
40
0.234375000000009
40
0.234375000000009
40
0.238281250000009
40
0.238281250000009
40
0.24218750000001
40
0.25000000000001
40
0.25000000000001
40
0.281250000000011
40
0.281250000000011
40
0.312500000000012
40
0.312500000000012
40
0.343750000000013
40
0.343750000000013
40
0.375000000000013
40
0.375000000000013
40
0.406250000000014
40
0.406250000000014
40
0.437500000000015
40
0.437500000000015
40
0.468750000000016
40
0.468750000000016
40
0.500000000000017
40
0.500000000000017
40
0.531250000000018
40
0.531250000000018
40
0.562500000000019
40
0.562500000000019
40
0.593750000000019
40
0.593750000000019
40
0.60937500000002
40
0.60937500000002
40
0.61718750000002
40
0.61718750000002
40
0.62109375000002
40
0.62109375000002
40
0.62500000000002
40
0.62500000000002
40
0.656250000000018
40
0.656250000000018
40
0.687500000000016
40
0.687500000000016
40
0.718750000000015
40
0.718750000000015
40
0.750000000000013
40
0.750000000000013
40
0.781250000000011
40
0.781250000000011
40
0.81250000000001
40
0.81250000000001
40
0.843750000000008
40
0.843750000000008
40
0.875000000000006
40
0.875000000000006
40
0.906250000000005
40
0.906250000000005
40
0.937500000000003
40
0.937500000000003
40
0.968750000000002
40
0.968750000000002
40
1
40
1
40
1
40
1
41
1
10
94.2
20
-6.91912742824638
30
0
41
1
10
94.2767715957283
20
-7.38529898471182
30
0
41
1
10
94.3535431914567
20
-7.8337104836931
30
0
41
1
10
94.5070863829131
20
-8.68163632568923
30
0
41
1
10
94.5838579786414
20
-9.08111148348522
30
0
41
1
10
94.737401170098
20
-9.82016395581013
30
0
41
1
10
94.8141727658262
20
-10.1597157439806
30
0
41
1
10
94.9677159572827
20
-10.7713856409498
30
0
41
1
10
95.044487553011
20
-11.0434961194553
30
0
41
1
10
95.1980307444675
20
-11.5167221473739
30
0
41
1
10
95.2748023401958
20
-11.7178476800044
30
0
41
1
10
95.4283455316524
20
-12.04947645458
30
0
41
1
10
95.5051171273807
20
-12.1800030819521
30
0
41
1
10
95.6586603188372
20
-12.3742207037656
30
0
41
1
10
95.7354319145655
20
-12.4379421996922
30
0
41
1
10
95.850589308158
20
-12.4881729821281
30
0
41
1
10
95.8889751060221
20
-12.4973751505763
30
0
41
1
10
95.9369573533522
20
-12.5000472891622
30
0
41
1
10
95.9465538028182
20
-12.5001418588359
30
0
41
1
10
95.9657467017503
20
-12.4994562968425
30
0
41
1
10
95.9945360501485
20
-12.4971091527977
30
0
41
1
10
96.0233253985465
20
-12.4907354585515
30
0
41
1
10
96.1192898932068
20
-12.4602420908215
30
0
41
1
10
96.1960614889351
20
-12.4061808023683
30
0
41
1
10
96.3496046803917
20
-12.2321103358657
30
0
41
1
10
96.42637627612
20
-12.112070146474
30
0
41
1
10
96.5799194675765
20
-11.8017913463333
30
0
41
1
10
96.6566910633048
20
-11.611527839802
30
0
41
1
10
96.8102342547614
20
-11.159841610112
30
0
41
1
10
96.8870058504896
20
-10.8984065158666
30
0
41
1
10
97.0405490419461
20
-10.3072893548446
30
0
41
1
10
97.1173206376744
20
-9.97761210712923
30
0
41
1
10
97.270863829131
20
-9.25692453281386
30
0
41
1
10
97.3476354248593
20
-8.86593717489342
30
0
41
1
10
97.5011786163158
20
-8.03312750299997
30
0
41
1
10
97.577950212044
20
-7.59134272652588
30
0
41
1
10
97.7314934035006
20
-6.67009475503019
30
0
41
1
10
97.8082649992289
20
-6.19067643654176
30
0
41
1
10
97.9618081906855
20
-5.20870943912541
30
0
41
1
10
98.0385797864136
20
-4.70620440638675
30
0
41
1
10
98.1921229778702
20
-3.69264243721622
30
0
41
1
10
98.2688945735985
20
-3.1816206529229
30
0
41
1
10
98.4224377650551
20
-2.16442612039651
30
0
41
1
10
98.4992093607833
20
-1.65827588248277
30
0
41
1
10
98.6143667543757
20
-0.911196574226125
30
0
41
1
10
98.6527525522399
20
-0.664176384538735
30
0
41
1
10
98.7103312490361
20
-0.297541302289886
30
0
41
1
10
98.7295241479682
20
-0.175977548020143
30
0
41
1
10
98.7583134963662
20
0.0052969111111167
30
0
41
1
10
98.7679099458322
20
0.0655651624419136
30
0
41
1
10
98.7871028447644
20
0.186691566949008
30
0
41
1
10
98.7966992942304
20
0.247430082549414
30
0
41
1
10
98.8830673394247
20
0.795580409910201
30
0
41
1
10
98.959838935153
20
1.29362317803873
30
0
41
1
10
99.1133821266095
20
2.301414191064
30
0
41
1
10
99.1901537223378
20
2.81114769697635
30
0
41
1
10
99.3436969137944
20
3.83004832330209
30
0
41
1
10
99.4204685095226
20
4.33918730126007
30
0
41
1
10
99.5740117009791
20
5.34289225362534
30
0
41
1
10
99.6507832967074
20
5.83741876273834
30
0
41
1
10
99.804326488164
20
6.79718318650242
30
0
41
1
10
99.8810980838922
20
7.26237591560337
30
0
41
1
10
100.034641275349
20
8.14934303691641
30
0
41
1
10
100.111412871077
20
8.57107463198898
30
0
41
1
10
100.264956062534
20
9.35892838443161
30
0
41
1
10
100.341727658262
20
9.72501846785403
30
0
41
1
10
100.495270849718
20
10.3924910938756
30
0
41
1
10
100.572042445447
20
10.6938581870078
30
0
41
1
10
100.725585636903
20
11.2266120528704
30
0
41
1
10
100.802357232631
20
11.4580016615162
30
0
41
1
10
100.955900424088
20
11.8495443315304
30
0
41
1
10
101.032672019816
20
12.0097157948997
30
0
41
1
10
101.186215211273
20
12.2612496785306
30
0
41
1
10
101.262986807001
20
12.3526403928752
30
0
41
1
10
101.416529998458
20
12.4719997085179
30
0
41
1
10
101.493301594186
20
12.5
30
0
41
1
10
101.570073189914
20
12.5
30
0
0
SPLINE
5
100
100
AcDbEntity
8
1
62
256
6
ByLayer
370
13
48
1
60
0
100
AcDbSpline
70
4
71
3
72
55
73
51
40
0
40
0
40
0
40
0
40
0.0625000000000014
40
0.0625000000000014
40
0.125000000000003
40
0.125000000000003
40
0.187500000000004
40
0.187500000000004
40
0.218750000000005
40
0.218750000000005
40
0.250000000000006
40
0.250000000000006
40
0.281250000000007
40
0.281250000000007
40
0.312500000000007
40
0.312500000000007
40
0.343750000000008
40
0.343750000000008
40
0.375000000000009
40
0.375000000000009
40
0.43750000000001
40
0.43750000000001
40
0.500000000000011
40
0.500000000000011
40
0.562500000000013
40
0.562500000000013
40
0.570312500000013
40
0.570312500000013
40
0.578125000000012
40
0.593750000000012
40
0.593750000000012
40
0.625000000000011
40
0.625000000000011
40
0.687500000000009
40
0.687500000000009
40
0.750000000000008
40
0.750000000000008
40
0.781250000000007
40
0.781250000000007
40
0.812500000000006
40
0.812500000000006
40
0.843750000000005
40
0.843750000000005
40
0.875000000000004
40
0.875000000000004
40
0.906250000000003
40
0.906250000000003
40
0.937500000000002
40
0.937500000000002
40
1
40
1
40
1
40
1
41
1
10
100.505487159469
20
12.5
30
0
41
1
10
100.608505595139
20
12.5
30
0
41
1
10
100.71152403081
20
12.44947623893
30
0
41
1
10
100.917560902152
20
12.2303226986385
30
0
41
1
10
101.020579337823
20
12.0615580673209
30
0
41
1
10
101.226616209165
20
11.5962012475029
30
0
41
1
10
101.329634644836
20
11.2995134069264
30
0
41
1
10
101.484162298342
20
10.7597505616411
30
0
41
1
10
101.535671516178
20
10.5641384431442
30
0
41
1
10
101.638689951849
20
10.1429482093896
30
0
41
1
10
101.690199169684
20
9.91737143581634
30
0
41
1
10
101.793217605355
20
9.43846682789561
30
0
41
1
10
101.84472682319
20
9.18514199675641
30
0
41
1
10
101.947745258861
20
8.65369005294622
30
0
41
1
10
101.999254476697
20
8.37556739742914
30
0
41
1
10
102.102272912368
20
7.7980895274242
30
0
41
1
10
102.153782130203
20
7.49873984578869
30
0
41
1
10
102.256800565874
20
6.88284711689519
30
0
41
1
10
102.30830978371
20
6.56631018354966
30
0
41
1
10
102.462837437216
20
5.59740726026342
30
0
41
1
10
102.565855872887
20
4.92580422114347
30
0
41
1
10
102.771892744229
20
3.56645156838127
30
0
41
1
10
102.874911179899
20
2.87885566910293
30
0
41
1
10
103.080948051241
20
1.51941297224806
30
0
41
1
10
103.183966486912
20
0.847645853048192
30
0
41
1
10
103.299862227042
20
0.114614366505236
30
0
41
1
10
103.312739531501
20
0.0336562346093956
30
0
41
1
10
103.338494140419
20
-0.12846890473736
30
0
41
1
10
103.377126053795
20
-0.372622009621438
30
0
41
1
10
103.415757967172
20
-0.619497628918737
30
0
41
1
10
103.493021793925
20
-1.11636909626151
30
0
41
1
10
103.54453101176
20
-1.45179283478578
30
0
41
1
10
103.699058665267
20
-2.46592756340917
30
0
41
1
10
103.802077100938
20
-3.15269821233622
30
0
41
1
10
104.00811397228
20
-4.51723659661823
30
0
41
1
10
104.111132407951
20
-5.19486404921088
30
0
41
1
10
104.265660061457
20
-6.17820522083585
30
0
41
1
10
104.317169279292
20
-6.50044685676491
30
0
41
1
10
104.420187714963
20
-7.12946779954018
30
0
41
1
10
104.471696932799
20
-7.43624091044993
30
0
41
1
10
104.57471536847
20
-8.03014490998672
30
0
41
1
10
104.626224586305
20
-8.31726996827686
30
0
41
1
10
104.729243021976
20
-8.8680974569028
30
0
41
1
10
104.780752239812
20
-9.13179494363661
30
0
41
1
10
104.883770675482
20
-9.63254996921819
30
0
41
1
10
104.935279893318
20
-9.86960388426877
30
0
41
1
10
105.038298328989
20
-10.3145476168369
30
0
41
1
10
105.089807546824
20
-10.5224354113075
30
0
41
1
10
105.244335200331
20
-11.0997346268768
30
0
41
1
10
105.347353636002
20
-11.4223810525705
30
0
41
1
10
105.450372071673
20
-11.6806866490931
30
0
0
SPLINE
5
101
100
AcDbEntity
8
1
62
256
6
ByLayer
370
13
48
1
60
0
100
AcDbSpline
70
4
71
3
72
79
73
75
40
0
40
0
40
0
40
0
40
0.03125
40
0.03125
40
0.0625
40
0.0625
40
0.09375
40
0.09375
40
0.125
40
0.125
40
0.15625
40
0.15625
40
0.171875
40
0.171875
40
0.1796875
40
0.1796875
40
0.1875
40
0.1875
40
0.21875
40
0.21875
40
0.25
40
0.25
40
0.28125
40
0.28125
40
0.3125
40
0.3125
40
0.34375
40
0.34375
40
0.375
40
0.375
40
0.40625
40
0.40625
40
0.4375
40
0.4375
40
0.46875
40
0.46875
40
0.5
40
0.5
40
0.53125
40
0.53125
40
0.5625
40
0.5625
40
0.578125
40
0.578125
40
0.5859375
40
0.58984375
40
0.58984375
40
0.59375
40
0.59375
40
0.625
40
0.625
40
0.65625
40
0.65625
40
0.6875
40
0.6875
40
0.71875
40
0.71875
40
0.75
40
0.75
40
0.78125
40
0.78125
40
0.8125
40
0.8125
40
0.84375
40
0.84375
40
0.875
40
0.875
40
0.90625
40
0.90625
40
0.9375
40
0.9375
40
0.96875
40
0.96875
40
1
40
1
40
1
40
1
41
1
10
94.2
20
-9.56711035473381
30
0
41
1
10
94.2717191224936
20
-9.90636489855569
30
0
41
1
10
94.3434382449871
20
-10.2190540066605
30
0
41
1
10
94.4868764899742
20
-10.7854241325069
30
0
41
1
10
94.5585956124677
20
-11.0391002524874
30
0
41
1
10
94.7020338574547
20
-11.4845675000969
30
0
41
1
10
94.7737529799483
20
-11.6763654557151
30
0
41
1
10
94.9171912249354
20
-11.9982010272813
30
0
41
1
10
94.9889103474289
20
-12.1282546122202
30
0
41
1
10
95.132348592416
20
-12.3293738750093
30
0
41
1
10
95.2040677149095
20
-12.4004607974908
30
0
41
1
10
95.3116463986498
20
-12.4664849905837
30
0
41
1
10
95.3475059598966
20
-12.4817394677606
30
0
41
1
10
95.4012953017668
20
-12.4950466669527
30
0
41
1
10
95.4192250823903
20
-12.4978872633992
30
0
41
1
10
95.4550846436371
20
-12.5004773430924
30
0
41
1
10
95.4730144242603
20
-12.500241286379
30
0
41
1
10
95.5626633273772
20
-12.4913466794392
30
0
41
1
10
95.6343824498708
20
-12.4593292268061
30
0
41
1
10
95.7778206948578
20
-12.3396227126562
30
0
41
1
10
95.8495398173513
20
-12.2519111072061
30
0
41
1
10
95.9929780623384
20
-12.0164975969857
30
0
41
1
10
96.064697184832
20
-11.8687755482583
30
0
41
1
10
96.2081354298191
20
-11.5112696097982
30
0
41
1
10
96.2798545523126
20
-11.3014720298372
30
0
41
1
10
96.4232927972997
20
-10.8205140778426
30
0
41
1
10
96.4950119197932
20
-10.5493500873553
30
0
41
1
10
96.6384501647803
20
-9.94940165042368
30
0
41
1
10
96.7101692872739
20
-9.6206256636296
30
0
41
1
10
96.8536075322609
20
-8.91217193312093
30
0
41
1
10
96.9253266547545
20
-8.53251425417386
30
0
41
1
10
97.0687648997416
20
-7.73155985082369
30
0
41
1
10
97.1404840222351
20
-7.3102917298983
30
0
41
1
10
97.2839222672222
20
-6.43717892087949
30
0
41
1
10
97.3556413897156
20
-5.98536649359764
30
0
41
1
10
97.4990796347028
20
-5.06309420796038
30
0
41
1
10
97.5707987571964
20
-4.59266495184298
30
0
41
1
10
97.7142370021834
20
-3.64499146524366
30
0
41
1
10
97.7859561246769
20
-3.16777183733012
30
0
41
1
10
97.929394369664
20
-2.21740987429448
30
0
41
1
10
98.0011134921575
20
-1.74428368090523
30
0
41
1
10
98.1086921758979
20
-1.04465232897513
30
0
41
1
10
98.1445517371446
20
-0.813104556158976
30
0
41
1
10
98.1983410790148
20
-0.469017836618519
30
0
41
1
10
98.2252357499498
20
-0.297781783011828
30
0
41
1
10
98.2521304208849
20
-0.127882523177163
30
0
41
1
10
98.2700602015083
20
-0.0149264815280503
30
0
41
1
10
98.27902509182
20
0.0413479616746315
30
0
41
1
10
98.3597091046252
20
0.550084640285775
30
0
41
1
10
98.4314282271187
20
1.01223770094799
30
0
41
1
10
98.5748664721058
20
1.94873532460267
30
0
41
1
10
98.6465855945993
20
2.42307137698859
30
0
41
1
10
98.7900238395864
20
3.37436614498534
30
0
41
1
10
98.8617429620799
20
3.85130742499655
30
0
41
1
10
99.005181207067
20
4.79675665580146
30
0
41
1
10
99.0769003295605
20
5.26523893511538
30
0
41
1
10
99.2203385745477
20
6.18187829661986
30
0
41
1
10
99.2920576970412
20
6.63000423237276
30
0
41
1
10
99.4354959420282
20
7.49406824467968
30
0
41
1
10
99.5072150645218
20
7.90997425393383
30
0
41
1
10
99.6506533095088
20
8.69873229239383
30
0
41
1
10
99.7223724320025
20
9.07155667977281
30
0
41
1
10
99.8658106769897
20
9.76519845310975
30
0
41
1
10
99.9375297994831
20
10.0859973185192
30
0
41
1
10
100.08096804447
20
10.6692574940824
30
0
41
1
10
100.152687166964
20
10.9317121248598
30
0
41
1
10
100.296125411951
20
11.3949619651185
30
0
41
1
10
100.367844534444
20
11.5957624227634
30
0
41
1
10
100.511282779431
20
11.9354099969034
30
0
41
1
10
100.583001901925
20
12.0742719832751
30
0
41
1
10
100.726440146912
20
12.2924639942954
30
0
41
1
10
100.798159269406
20
12.3718147561091
30
0
41
1
10
100.941597514393
20
12.4755714689867
30
0
41
1
10
101.013316636886
20
12.5
30
0
41
1
10
101.08503575938
20
12.5
30
0
0
SPLINE
5
102
100
AcDbEntity
8
1
62
256
6
ByLayer
370
13
48
1
60
0
100
AcDbSpline
70
4
71
3
72
74
73
70
40
0
40
0
40
0
40
0
40
0.0312500000000007
40
0.0312500000000007
40
0.0625000000000014
40
0.0625000000000014
40
0.0937500000000021
40
0.0937500000000021
40
0.125000000000003
40
0.125000000000003
40
0.156250000000004
40
0.156250000000004
40
0.187500000000004
40
0.187500000000004
40
0.218750000000005
40
0.218750000000005
40
0.250000000000006
40
0.250000000000006
40
0.281250000000006
40
0.281250000000006
40
0.312500000000007
40
0.312500000000007
40
0.343750000000008
40
0.343750000000008
40
0.375000000000008
40
0.375000000000008
40
0.406250000000009
40
0.406250000000009
40
0.43750000000001
40
0.43750000000001
40
0.46875000000001
40
0.46875000000001
40
0.500000000000011
40
0.500000000000011
40
0.515625000000011
40
0.515625000000011
40
0.523437500000011
40
0.523437500000011
40
0.531250000000011
40
0.531250000000011
40
0.562500000000011
40
0.562500000000011
40
0.59375000000001
40
0.59375000000001
40
0.625000000000009
40
0.625000000000009
40
0.656250000000008
40
0.656250000000008
40
0.687500000000007
40
0.687500000000007
40
0.718750000000007
40
0.718750000000007
40
0.750000000000006
40
0.750000000000006
40
0.781250000000005
40
0.781250000000005
40
0.812500000000004
40
0.812500000000004
40
0.843750000000004
40
0.843750000000004
40
0.875000000000003
40
0.875000000000003
40
0.906250000000002
40
0.906250000000002
40
0.937500000000002
40
0.937500000000002
40
0.968750000000001
40
0.968750000000001
40
1
40
1
40
1
40
1
41
1
10
100.020449728934
20
12.5
30
0
41
1
10
100.077011420004
20
12.5
30
0
41
1
10
100.133573111074
20
12.4848176063214
30
0
41
1
10
100.246696493215
20
12.4210626483101
30
0
41
1
10
100.303258184285
20
12.3724832000254
30
0
41
1
10
100.416381566425
20
12.2394186976365
30
0
41
1
10
100.472943257495
20
12.1549269146662
30
0
41
1
10
100.586066639636
20
11.948251831493
30
0
41
1
10
100.642628330706
20
11.8260626910907
30
0
41
1
10
100.755751712847
20
11.5431280098149
30
0
41
1
10
100.812313403917
20
11.3823782976806
30
0
41
1
10
100.925436786057
20
11.0225318258636
30
0
41
1
10
100.981998477127
20
10.8234332600536
30
0
41
1
10
101.095121859268
20
10.3882648966269
30
0
41
1
10
101.151683550338
20
10.1521961265332
30
0
41
1
10
101.264806932478
20
9.64564285241198
30
0
41
1
10
101.321368623548
20
9.37516233088323
30
0
41
1
10
101.434492005689
20
8.80344567600753
30
0
41
1
10
101.491053696759
20
8.50221619629272
30
0
41
1
10
101.604177078899
20
7.87360532381811
30
0
41
1
10
101.66073876997
20
7.54623259393304
30
0
41
1
10
101.77386215211
20
6.87064983813232
30
0
41
1
10
101.83042384318
20
6.52244955527186
30
0
41
1
10
101.943547225321
20
5.81095732750822
30
0
41
1
10
102.000108916391
20
5.44767517649006
30
0
41
1
10
102.113232298531
20
4.71189877951571
30
0
41
1
10
102.169793989601
20
4.33941342695346
30
0
41
1
10
102.282917371742
20
3.59096025334756
30
0
41
1
10
102.339479062812
20
3.21499969665001
30
0
41
1
10
102.452602444952
20
2.46493084921391
30
0
41
1
10
102.509164136022
20
2.09082776898612
30
0
41
1
10
102.622287518163
20
1.34922523609921
30
0
41
1
10
102.678849209233
20
0.981728828731463
30
0
41
1
10
102.763691745838
20
0.438469934585527
30
0
41
1
10
102.791972591373
20
0.258708793521265
30
0
41
1
10
102.834393859676
20
-0.0086200660093141
30
0
41
1
10
102.848534282444
20
-0.0973971605653219
30
0
41
1
10
102.876815127979
20
-0.276219658074695
30
0
41
1
10
102.890955550746
20
-0.366005728665044
30
0
41
1
10
102.961657664584
20
-0.81667550022604
30
0
41
1
10
103.018219355654
20
-1.18280698067653
30
0
41
1
10
103.131342737795
20
-1.92233607942785
30
0
41
1
10
103.187904428865
20
-2.29573097104139
30
0
41
1
10
103.301027811005
20
-3.0451401490316
30
0
41
1
10
103.357589502075
20
-3.42114955143532
30
0
41
1
10
103.470712884216
20
-4.17053460981927
30
0
41
1
10
103.527274575286
20
-4.54390329178045
30
0
41
1
10
103.640397957426
20
-5.28232579044214
30
0
41
1
10
103.696959648496
20
-5.64737091957386
30
0
41
1
10
103.810083030637
20
-6.36327392962281
30
0
41
1
10
103.866644721707
20
-6.71412209559293
30
0
41
1
10
103.979768103847
20
-7.3958465349759
30
0
41
1
10
104.036329794918
20
-7.72671299174371
30
0
41
1
10
104.149453177058
20
-8.36307387578421
30
0
41
1
10
104.206014868128
20
-8.66855941336004
30
0
41
1
10
104.319138250269
20
-9.24942746151567
30
0
41
1
10
104.375699941339
20
-9.52480296503853
30
0
41
1
10
104.488823323479
20
-10.0416311128334
30
0
41
1
10
104.545385014549
20
-10.2830793437552
30
0
41
1
10
104.65850839669
20
-10.7293180563533
30
0
41
1
10
104.71507008776
20
-10.9341070631617
30
0
41
1
10
104.8281934699
20
-11.3054666636063
30
0
41
1
10
104.884755160971
20
-11.4720386588211
30
0
41
1
10
104.997878543111
20
-11.7665782751911
30
0
41
1
10
105.054440234181
20
-11.8945497516612
30
0
41
1
10
105.167563616322
20
-12.1125962704236
30
0
41
1
10
105.224125307392
20
-12.2026769508387
30
0
41
1
10
105.337248689532
20
-12.3465985264008
30
0
41
1
10
105.393810380602
20
-12.4004460658335
30
0
41
1
10
105.450372071673
20
-12.4373827401557
30
0
0
SPLINE
5
103
100
AcDbEntity
8
1
62
256
6
ByLayer
370
13
48
1
60
0
100
AcDbSpline
70
4
71
3
72
79
73
75
40
0
40
0
40
0
40
0
40
0.0312499999999991
40
0.0312499999999991
40
0.0624999999999983
40
0.0624999999999983
40
0.0937499999999974
40
0.0937499999999974
40
0.109374999999997
40
0.109374999999997
40
0.117187499999997
40
0.117187499999997
40
0.124999999999997
40
0.124999999999997
40
0.156249999999997
40
0.156249999999997
40
0.187499999999997
40
0.187499999999997
40
0.218749999999997
40
0.218749999999997
40
0.249999999999997
40
0.249999999999997
40
0.281249999999997
40
0.281249999999997
40
0.312499999999997
40
0.312499999999997
40
0.343749999999997
40
0.343749999999997
40
0.374999999999997
40
0.374999999999997
40
0.406249999999997
40
0.406249999999997
40
0.437499999999998
40
0.437499999999998
40
0.468749999999998
40
0.468749999999998
40
0.499999999999998
40
0.499999999999998
40
0.531249999999998
40
0.531249999999998
40
0.546874999999998
40
0.546874999999998
40
0.554687499999998
40
0.558593749999998
40
0.558593749999998
40
0.562499999999998
40
0.562499999999998
40
0.593749999999998
40
0.593749999999998
40
0.624999999999998
40
0.624999999999998
40
0.656249999999998
40
0.656249999999998
40
0.687499999999998
40
0.687499999999998
40
0.718749999999999
40
0.718749999999999
40
0.749999999999999
40
0.749999999999999
40
0.781249999999999
40
0.781249999999999
40
0.812499999999999
40
0.812499999999999
40
0.843749999999999
40
0.843749999999999
40
0.874999999999999
40
0.874999999999999
40
0.906249999999999
40
0.906249999999999
40
0.9375
40
0.9375
40
0.96875
40
0.96875
40
1
40
1
40
1
40
1
41
1
10
94.2
20
-11.4257930815562
30
0
41
1
10
94.2666666492588
20
-11.6182318596138
30
0
41
1
10
94.3333332985177
20
-11.7838504013798
30
0
41
1
10
94.4666665970352
20
-12.0620315349861
30
0
41
1
10
94.533333246294
20
-12.1746061151895
30
0
41
1
10
94.6666665448116
20
-12.3492042368088
30
0
41
1
10
94.7333331940705
20
-12.411242775554
30
0
41
1
10
94.8333331679587
20
-12.4693856338998
30
0
41
1
10
94.8666664925881
20
-12.4829576272354
30
0
41
1
10
94.9166664795321
20
-12.4950510211791
30
0
41
1
10
94.9333331418468
20
-12.4977051727519
30
0
41
1
10
94.9666664664762
20
-12.5003391502534
30
0
41
1
10
94.9833331287911
20
-12.5003293500747
30
0
41
1
10
95.0666664403645
20
-12.493644114013
30
0
41
1
10
95.1333330896233
20
-12.4668625185892
30
0
41
1
10
95.2666663881408
20
-12.3656553003218
30
0
41
1
10
95.3333330373996
20
-12.2912139938642
30
0
41
1
10
95.4666663359172
20
-12.0910199246387
30
0
41
1
10
95.5333329851761
20
-11.965252689377
30
0
41
1
10
95.6666662836938
20
-11.6603396865421
30
0
41
1
10
95.7333329329525
20
-11.4811830772819
30
0
41
1
10
95.86666623147
20
-11.0694139277135
30
0
41
1
10
95.9333328807289
20
-10.836796486147
30
0
41
1
10
96.0666661792466
20
-10.3202626929077
30
0
41
1
10
96.1333328285053
20
-10.0363489642208
30
0
41
1
10
96.2666661270229
20
-9.42165337071057
30
0
41
1
10
96.3333327762817
20
-9.09088197597404
30
0
41
1
10
96.4666660747994
20
-8.38897901948505
30
0
41
1
10
96.5333327240581
20
-8.01786460499977
30
0
41
1
10
96.6666660225757
20
-7.24344051897828
30
0
41
1
10
96.7333326718345
20
-6.84015221134254
30
0
41
1
10
96.8666659703521
20
-6.01061391646823
30
0
41
1
10
96.9333326196108
20
-5.58438635006465
30
0
41
1
10
97.0666659181286
20
-4.71860238700719
30
0
41
1
10
97.1333325673874
20
-4.27906637908791
30
0
41
1
10
97.2666658659049
20
-3.39604389459493
30
0
41
1
10
97.3333325151636
20
-2.9525734302091
30
0
41
1
10
97.4666658136812
20
-2.07025169197911
30
0
41
1
10
97.5333324629402
20
-1.63141082655085
30
0
41
1
10
97.6333324368284
20
-0.982134650518304
30
0
41
1
10
97.6666657614579
20
-0.767196394143781
30
0
41
1
10
97.716665748402
20
-0.447609065075397
30
0
41
1
10
97.741665741874
20
-0.288519344193844
30
0
41
1
10
97.7666657353459
20
-0.130586254362385
30
0
41
1
10
97.7833323976606
20
-0.0255650639968223
30
0
41
1
10
97.791665728818
20
0.0267445979103229
30
0
41
1
10
97.866665709234
20
0.49935801308672
30
0
41
1
10
97.9333323584929
20
0.928080098108893
30
0
41
1
10
98.0666656570105
20
1.79666417643256
30
0
41
1
10
98.1333323062694
20
2.23652077107161
30
0
41
1
10
98.266665604787
20
3.11985612342508
30
0
41
1
10
98.3333322540458
20
3.56332374003026
30
0
41
1
10
98.4666655525633
20
4.44519512605524
30
0
41
1
10
98.5333322018222
20
4.88358223994248
30
0
41
1
10
98.6666655003397
20
5.74585725618715
30
0
41
1
10
98.7333321495985
20
6.16972436437393
30
0
41
1
10
98.8666654481162
20
6.99334293759051
30
0
41
1
10
98.9333320973749
20
7.39307193598404
30
0
41
1
10
99.0666653958926
20
8.15927625340265
30
0
41
1
10
99.1333320451514
20
8.52573057283567
30
0
41
1
10
99.2666653436689
20
9.21739047676297
30
0
41
1
10
99.3333319929277
20
9.54257964171148
30
0
41
1
10
99.4666652914453
20
10.1454301736143
30
0
41
1
10
99.5333319407042
20
10.4230820250849
30
0
41
1
10
99.6666652392219
20
10.9266918568443
30
0
41
1
10
99.7333318884806
20
11.1526482094279
30
0
41
1
10
99.8666651869981
20
11.5509835094754
30
0
41
1
10
99.933331836257
20
11.7233682144618
30
0
41
1
10
100.066665134775
20
12.0148939733312
30
0
41
1
10
100.133331784033
20
12.1340464613413
30
0
41
1
10
100.266665082551
20
12.3213933888811
30
0
41
1
10
100.33333173181
20
12.389602582623
30
0
41
1
10
100.466665030328
20
12.4788980482058
30
0
41
1
10
100.533331679586
20
12.5
30
0
41
1
10
100.599998328845
20
12.5
30
0
0
SPLINE
5
104
100
AcDbEntity
8
1
62
256
6
ByLayer
370
13
48
1
60
0
100
AcDbSpline
70
4
71
3
72
77
73
73
40
0
40
0
40
0
40
0
40
0.0312499999999996
40
0.0312499999999996
40
0.0624999999999992
40
0.0624999999999992
40
0.0937499999999987
40
0.0937499999999987
40
0.124999999999998
40
0.124999999999998
40
0.156249999999998
40
0.156249999999998
40
0.187499999999997
40
0.187499999999997
40
0.218749999999997
40
0.218749999999997
40
0.249999999999997
40
0.249999999999997
40
0.281249999999996
40
0.281249999999996
40
0.312499999999996
40
0.312499999999996
40
0.343749999999995
40
0.343749999999995
40
0.374999999999995
40
0.374999999999995
40
0.406249999999995
40
0.406249999999995
40
0.437499999999994
40
0.437499999999994
40
0.468749999999994
40
0.468749999999994
40
0.476562499999994
40
0.476562499999994
40
0.484374999999994
40
0.499999999999994
40
0.499999999999994
40
0.531249999999994
40
0.531249999999994
40
0.562499999999995
40
0.562499999999995
40
0.593749999999995
40
0.593749999999995
40
0.624999999999995
40
0.624999999999995
40
0.656249999999996
40
0.656249999999996
40
0.687499999999996
40
0.687499999999996
40
0.718749999999997
40
0.718749999999997
40
0.749999999999997
40
0.749999999999997
40
0.781249999999997
40
0.781249999999997
40
0.812499999999998
40
0.812499999999998
40
0.843749999999998
40
0.843749999999998
40
0.874999999999998
40
0.874999999999998
40
0.906249999999999
40
0.906249999999999
40
0.937499999999999
40
0.937499999999999
40
0.945312499999999
40
0.945312499999999
40
0.953124999999999
40
0.953124999999999
40
0.96875
40
0.96875
40
1
40
1
40
1
40
1
41
1
10
99.5354122983993
20
12.5
30
0
41
1
10
99.5970264627042
20
12.5
30
0
41
1
10
99.6586406270092
20
12.4819799501461
30
0
41
1
10
99.781868955619
20
12.4060148399182
30
0
41
1
10
99.8434831199239
20
12.3480592090766
30
0
41
1
10
99.9667114485338
20
12.1890803468399
30
0
41
1
10
100.028325612839
20
12.0880469611622
30
0
41
1
10
100.151553941449
20
11.8408476026037
30
0
41
1
10
100.213168105753
20
11.6946732522788
30
0
41
1
10
100.336396434363
20
11.3564880346534
30
0
41
1
10
100.398010598668
20
11.1644719650928
30
0
41
1
10
100.521238927278
20
10.7354694913772
30
0
41
1
10
100.582853091583
20
10.4984822021817
30
0
41
1
10
100.706081420193
20
9.98206894317616
30
0
41
1
10
100.767695584498
20
9.70264699328456
30
0
41
1
10
100.890923913108
20
9.10551613905
30
0
41
1
10
100.952538077413
20
8.78781598828789
30
0
41
1
10
101.075766406023
20
8.1197074685488
30
0
41
1
10
101.137380570327
20
7.76931162751058
30
0
41
1
10
101.260608898937
20
7.04249379313134
30
0
41
1
10
101.322223063242
20
6.66608652901323
30
0
41
1
10
101.445451391852
20
5.89461579635159
30
0
41
1
10
101.507065556157
20
5.49956740254166
30
0
41
1
10
101.630293884767
20
4.69841785348439
30
0
41
1
10
101.691908049072
20
4.29233036435826
30
0
41
1
10
101.815136377682
20
3.47650187305001
30
0
41
1
10
101.876750541987
20
3.06677179728257
30
0
41
1
10
101.999978870596
20
2.25047961460516
30
0
41
1
10
102.061593034901
20
1.84392496330116
30
0
41
1
10
102.184821363511
20
1.03994935581451
30
0
41
1
10
102.246435527816
20
0.642532264956003
30
0
41
1
10
102.323453233197
20
0.154557099782068
30
0
41
1
10
102.338856774274
20
0.0576002861587313
30
0
41
1
10
102.369663856426
20
-0.136279002095762
30
0
41
1
10
102.415874479655
20
-0.428481836211063
30
0
41
1
10
102.462085102884
20
-0.724539275338969
30
0
41
1
10
102.554506349341
20
-1.32090600597593
30
0
41
1
10
102.616120513646
20
-1.72418452597387
30
0
41
1
10
102.739348842256
20
-2.53661787640411
30
0
41
1
10
102.80096300656
20
-2.94576682139336
30
0
41
1
10
102.92419133517
20
-3.76346883333477
30
0
41
1
10
102.985805499475
20
-4.17201242195509
30
0
41
1
10
103.109033828085
20
-4.98131976557926
30
0
41
1
10
103.17064799239
20
-5.3820709085409
30
0
41
1
10
103.293876321
20
-6.16823140665156
30
0
41
1
10
103.355490485305
20
-6.55362609955085
30
0
41
1
10
103.478718813915
20
-7.30154768550287
30
0
41
1
10
103.54033297822
20
-7.66405946955612
30
0
41
1
10
103.66356130683
20
-8.35917840214898
30
0
41
1
10
103.725175471134
20
-8.69177185271843
30
0
41
1
10
103.848403799744
20
-9.32094589221205
30
0
41
1
10
103.910017964049
20
-9.61751593600295
30
0
41
1
10
104.033246292659
20
-10.1698336867963
30
0
41
1
10
104.094860456964
20
-10.4255752585891
30
0
41
1
10
104.218088785574
20
-10.8929798339125
30
0
41
1
10
104.279702949879
20
-11.1046416326592
30
0
41
1
10
104.402931278489
20
-11.4822950345373
30
0
41
1
10
104.464545442794
20
-11.6482900874471
30
0
41
1
10
104.587773771404
20
-11.9346474996733
30
0
41
1
10
104.649387935708
20
-12.0550170275446
30
0
41
1
10
104.772616264318
20
-12.2516265823392
30
0
41
1
10
104.834230428623
20
-12.3278761706453
30
0
41
1
10
104.957458757233
20
-12.4389583843401
30
0
41
1
10
105.019072921538
20
-12.4738015546704
30
0
41
1
10
105.096090626919
20
-12.4937291925481
30
0
41
1
10
105.111494167995
20
-12.4965351626673
30
0
41
1
10
105.142301250148
20
-12.4998505358126
30
0
41
1
10
105.157704791224
20
-12.5003634200533
30
0
41
1
10
105.203915414453
20
-12.4985293534344
30
0
41
1
10
105.234722496605
20
-12.492771190738
30
0
41
1
10
105.327143743063
20
-12.4611411066465
30
0
41
1
10
105.388757907368
20
-12.4208880961855
30
0
41
1
10
105.450372071673
20
-12.359723575771
30
0
0
SPLINE
5
105
100
AcDbEntity
8
1
62
256
6
ByLayer
370
13
48
1
60
0
100
AcDbSpline
70
4
71
3
72
8
73
4
40
0
40
0
40
0
40
0
40
1
40
1
40
1
40
1
41
1
10
105.450372071672
20
1.57512653487569
30
0
41
1
10
106.966914714448
20
1.0312786789064
30
0
41
1
10
108.483457357224
20
0.506231131546627
30
0
41
1
10
110
20
8.53E-14
30
0
0
SPLINE
5
106
100
AcDbEntity
8
1
62
256
6
ByLayer
370
13
48
1
60
0
100
AcDbSpline
70
4
71
3
72
8
73
4
40
0
40
0
40
0
40
0
40
1
40
1
40
1
40
1
41
1
10
105.450372071673
20
-10.7345598284281
30
0
41
1
10
106.966914714448
20
-7.16608610633702
30
0
41
1
10
108.483457357224
20
-3.58786243076994
30
0
41
1
10
110
20
4.832E-13
30
0
0
SPLINE
5
107
100
AcDbEntity
8
1
62
256
6
ByLayer
370
13
48
1
60
0
100
AcDbSpline
70
4
71
3
72
8
73
4
40
0
40
0
40
0
40
0
40
1
40
1
40
1
40
1
41
1
10
105.450372071673
20
-9.30515162638852
30
0
41
1
10
106.966914714448
20
-6.21609224902392
30
0
41
1
10
108.483457357224
20
-3.11434289521603
30
0
41
1
10
110
20
-5.68E-14
30
0
0
SPLINE
5
108
100
AcDbEntity
8
1
62
256
6
ByLayer
370
13
48
1
60
0
100
AcDbSpline
70
4
71
3
72
8
73
4
40
0
40
0
40
0
40
0
40
1
40
1
40
1
40
1
41
1
10
105.450372071673
20
-4.51947800940567
30
0
41
1
10
106.966914714448
20
-2.99531099192785
30
0
41
1
10
108.483457357224
20
-1.48880279159474
30
0
41
1
10
110
20
-1.421E-13
30
0
0
SPLINE
5
109
100
AcDbEntity
8
1
62
256
6
ByLayer
370
13
48
1
60
0
100
AcDbSpline
70
4
71
3
72
8
73
4
40
0
40
0
40
0
40
0
40
1
40
1
40
1
40
1
41
1
10
105.450372071673
20
7.01734233958891
30
0
41
1
10
106.966914714448
20
4.69391597174027
30
0
41
1
10
108.483457357224
20
2.35477759567019
30
0
41
1
10
110
20
2.84E-14
30
0
0
SPLINE
5
10A
100
AcDbEntity
8
1
62
256
6
ByLayer
370
13
48
1
60
0
100
AcDbSpline
70
4
71
3
72
8
73
4
40
0
40
0
40
0
40
0
40
1
40
1
40
1
40
1
41
1
10
105.450372071673
20
-11.3022387038482
30
0
41
1
10
106.966914714448
20
-7.54292325987987
30
0
41
1
10
108.483457357224
20
-3.77547133967411
30
0
41
1
10
110
20
5.116E-13
30
0
0
SPLINE
5
10B
100
AcDbEntity
8
1
62
256
6
ByLayer
370
13
48
1
60
0
100
AcDbSpline
70
4
71
3
72
8
73
4
40
0
40
0
40
0
40
0
40
1
40
1
40
1
40
1
41
1
10
105.450372071673
20
-1.00066135054394
30
0
41
1
10
106.966914714448
20
-0.648211623592971
30
0
41
1
10
108.483457357224
20
-0.314654453138473
30
0
41
1
10
110
20
0
30
0
0
SPLINE
5
10C
100
AcDbEntity
8
1
62
256
6
ByLayer
370
13
48
1
60
0
100
AcDbSpline
70
4
71
3
72
8
73
4
40
0
40
0
40
0
40
0
40
1
40
1
40
1
40
1
41
1
10
105.450372071673
20
8.8729147185164
30
0
41
1
10
106.966914714448
20
5.9286290650912
30
0
41
1
10
108.483457357224
20
2.97096016932818
30
0
41
1
10
110
20
5.68E-14
30
0
0
SPLINE
5
10D
100
AcDbEntity
8
1
62
256
6
ByLayer
370
13
48
1
60
0
100
AcDbSpline
70
4
71
3
72
8
73
4
40
0
40
0
40
0
40
0
40
1
40
1
40
1
40
1
41
1
10
105.450372071673
20
7.98234343446791
30
0
41
1
10
106.966914714448
20
5.33615046767542
30
0
41
1
10
108.483457357224
20
2.6753417346668
30
0
41
1
10
110
20
5.68E-14
30
0
0
SPLINE
5
10E
100
AcDbEntity
8
1
62
256
6
ByLayer
370
13
48
1
60
0
100
AcDbSpline
70
4
71
3
72
8
73
4
40
0
40
0
40
0
40
0
40
1
40
1
40
1
40
1
41
1
10
105.450372071672
20
12.4470794970673
30
0
41
1
10
106.966914714448
20
8.29631048329259
30
0
41
1
10
108.483457357225
20
4.14724104976818
30
0
41
1
10
110.000000000001
20
-1.7906E-12
30
0
0
SPLINE
5
10F
100
AcDbEntity
8
1
62
256
6
ByLayer
370
13
48
1
60
0
100
AcDbSpline
70
4
71
3
72
8
73
4
40
0
40
0
40
0
40
0
40
1
40
1
40
1
40
1
41
1
10
105.450372071673
20
-12.3807202930996
30
0
41
1
10
106.966914714448
20
-8.25120095002808
30
0
41
1
10
108.483457357224
20
-4.12425148309089
30
0
41
1
10
110
20
-5.68E-14
30
0
0
SPLINE
5
110
100
AcDbEntity
8
1
62
256
6
ByLayer
370
13
48
1
60
0
100
AcDbSpline
70
4
71
3
72
8
73
4
40
0
40
0
40
0
40
0
40
1
40
1
40
1
40
1
41
1
10
105.450372071673
20
-11.3721716982405
30
0
41
1
10
106.966914714448
20
-7.57357875280093
30
0
41
1
10
108.483457357224
20
-3.78281564828833
30
0
41
1
10
110
20
5.116E-13
30
0
0
SPLINE
5
111
100
AcDbEntity
8
1
62
256
6
ByLayer
370
13
48
1
60
0
100
AcDbSpline
70
4
71
3
72
8
73
4
40
0
40
0
40
0
40
0
40
1
40
1
40
1
40
1
41
1
10
105.450372071673
20
2.60160836998367
30
0
41
1
10
106.966914714448
20
1.75294723706347
30
0
41
1
10
108.483457357224
20
0.885735407953632
30
0
41
1
10
110
20
2.84E-14
30
0
0
SPLINE
5
112
100
AcDbEntity
8
1
62
256
6
ByLayer
370
13
48
1
60
0
100
AcDbSpline
70
4
71
3
72
8
73
4
40
0
40
0
40
0
40
0
40
1
40
1
40
1
40
1
41
1
10
105.450372071673
20
-12.4891555599919
30
0
41
1
10
106.966914714448
20
-8.32531423965949
30
0
41
1
10
108.483457357224
20
-4.16221930338369
30
0
41
1
10
110
20
-5.68E-14
30
0
0
SPLINE
5
113
100
AcDbEntity
8
1
62
256
6
ByLayer
370
13
48
1
60
0
100
AcDbSpline
70
4
71
3
72
8
73
4
40
0
40
0
40
0
40
0
40
1
40
1
40
1
40
1
41
1
10
105.450372071672
20
-0.835052577898779
30
0
41
1
10
106.966914714448
20
-0.5756161541496
30
0
41
1
10
108.483457357224
20
-0.297262348794931
30
0
41
1
10
110
20
-5.68E-14
30
0
0
SPLINE
5
114
100
AcDbEntity
8
1
62
256
6
ByLayer
370
13
48
1
60
0
100
AcDbSpline
70
4
71
3
72
8
73
4
40
0
40
0
40
0
40
0
40
1
40
1
40
1
40
1
41
1
10
105.450372071673
20
5.98690939914266
30
0
41
1
10
106.966914714448
20
4.00791396809268
30
0
41
1
10
108.483457357224
20
2.01225679038473
30
0
41
1
10
110
20
2.84E-14
30
0
0
SPLINE
5
115
100
AcDbEntity
8
1
62
256
6
ByLayer
370
13
48
1
60
0
100
AcDbSpline
70
4
71
3
72
8
73
4
40
0
40
0
40
0
40
0
40
1
40
1
40
1
40
1
41
1
10
105.450372071672
20
11.0963683303664
30
0
41
1
10
106.966914714448
20
7.38885110693894
30
0
41
1
10
108.483457357225
20
3.69002341282581
30
0
41
1
10
110.000000000001
20
-1.5916E-12
30
0
0
SPLINE
5
116
100
AcDbEntity
8
1
62
256
6
ByLayer
370
13
48
1
60
0
100
AcDbSpline
70
4
71
3
72
8
73
4
40
0
40
0
40
0
40
0
40
1
40
1
40
1
40
1
41
1
10
105.450372071673
20
-5.62246945089655
30
0
41
1
10
106.966914714448
20
-3.73138208542702
30
0
41
1
10
108.483457357224
20
-1.85720626354765
30
0
41
1
10
110
20
-2.84E-14
30
0
0
SPLINE
5
117
100
AcDbEntity
8
1
62
256
6
ByLayer
370
13
48
1
60
0
100
AcDbSpline
70
4
71
3
72
8
73
4
40
0
40
0
40
0
40
0
40
1
40
1
40
1
40
1
41
1
10
105.450372071672
20
7.15414114619892
30
0
41
1
10
106.966914714448
20
4.75388244227511
30
0
41
1
10
108.483457357224
20
2.36914409981495
30
0
41
1
10
110
20
-3.126E-13
30
0
0
SPLINE
5
118
100
AcDbEntity
8
1
62
256
6
ByLayer
370
13
48
1
60
0
100
AcDbSpline
70
4
71
3
72
8
73
4
40
0
40
0
40
0
40
0
40
1
40
1
40
1
40
1
41
1
10
105.450372071673
20
0.205757478244948
30
0
41
1
10
106.966914714448
20
0.156125866841563
30
0
41
1
10
108.483457357224
20
0.0875392655390215
30
0
41
1
10
110
20
0
30
0
0
SPLINE
5
119
100
AcDbEntity
8
1
62
256
6
ByLayer
370
13
48
1
60
0
100
AcDbSpline
70
4
71
3
72
8
73
4
40
0
40
0
40
0
40
0
40
1
40
1
40
1
40
1
41
1
10
105.450372071673
20
-9.41520779235535
30
0
41
1
10
106.966914714448
20
-6.26433594352079
30
0
41
1
10
108.483457357224
20
-3.12590090806509
30
0
41
1
10
110
20
-5.68E-14
30
0
0
SPLINE
5
11A
100
AcDbEntity
8
1
62
256
6
ByLayer
370
13
48
1
60
0
100
AcDbSpline
70
4
71
3
72
8
73
4
40
0
40
0
40
0
40
0
40
1
40
1
40
1
40
1
41
1
10
105.450372071673
20
1.41025776139514
30
0
41
1
10
106.966914714448
20
0.959007591957288
30
0
41
1
10
108.483457357224
20
0.48891674133904
30
0
41
1
10
110
20
5.68E-14
30
0
0
SPLINE
5
11B
100
AcDbEntity
8
1
62
256
6
ByLayer
370
13
48
1
60
0
100
AcDbSpline
70
4
71
3
72
8
73
4
40
0
40
0
40
0
40
0
40
1
40
1
40
1
40
1
41
1
10
105.450372071672
20
-4.36425939926298
30
0
41
1
10
106.966914714448
20
-2.92727010442118
30
0
41
1
10
108.483457357224
20
-1.47250185402618
30
0
41
1
10
110
20
1.99E-13
30
0
0
SPLINE
5
11C
100
AcDbEntity
8
1
62
256
6
ByLayer
370
13
48
1
60
0
100
AcDbSpline
70
4
71
3
72
8
73
4
40
0
40
0
40
0
40
0
40
1
40
1
40
1
40
1
41
1
10
105.450372071672
20
8.98909478194787
30
0
41
1
10
106.966914714448
20
5.97955720198877
30
0
41
1
10
108.483457357225
20
2.98316130911951
30
0
41
1
10
110.000000000001
20
-1.279E-12
30
0
0
SPLINE
5
11D
100
AcDbEntity
8
1
62
256
6
ByLayer
370
13
48
1
60
0
100
AcDbSpline
70
4
71
3
72
8
73
4
40
0
40
0
40
0
40
0
40
1
40
1
40
1
40
1
41
1
10
105.450372071673
20
11.0189375265664
30
0
41
1
10
106.966914714448
20
7.35490891014959
30
0
41
1
10
108.483457357224
20
3.68189169010711
30
0
41
1
10
110
20
5.68E-14
30
0
0
SPLINE
5
11E
100
AcDbEntity
8
1
62
256
6
ByLayer
370
13
48
1
60
0
100
AcDbSpline
70
4
71
3
72
8
73
4
40
0
40
0
40
0
40
0
40
1
40
1
40
1
40
1
41
1
10
105.450372071672
20
10.4895616808105
30
0
41
1
10
106.966914714448
20
6.9827309618762
30
0
41
1
10
108.483457357225
20
3.4861742497971
30
0
41
1
10
110.000000000001
20
-1.5064E-12
30
0
0
SPLINE
5
11F
100
AcDbEntity
8
1
62
256
6
ByLayer
370
13
48
1
60
0
100
AcDbSpline
70
4
71
3
72
8
73
4
40
0
40
0
40
0
40
0
40
1
40
1
40
1
40
1
41
1
10
105.450372071672
20
3.92669474770815
30
0
41
1
10
106.966914714448
20
2.59979934320623
30
0
41
1
10
108.483457357224
20
1.29088760956387
30
0
41
1
10
110
20
2.274E-13
30
0
0
SPLINE
5
120
100
AcDbEntity
8
1
62
256
6
ByLayer
370
13
48
1
60
0
100
AcDbSpline
70
4
71
3
72
8
73
4
40
0
40
0
40
0
40
0
40
1
40
1
40
1
40
1
41
1
10
105.450372071673
20
-10.8186933990543
30
0
41
1
10
106.966914714448
20
-7.20296649593254
30
0
41
1
10
108.483457357224
20
-3.59669807284263
30
0
41
1
10
110
20
-5.68E-14
30
0
0
SPLINE
5
121
100
AcDbEntity
8
1
62
256
6
ByLayer
370
13
48
1
60
0
100
AcDbSpline
70
4
71
3
72
8
73
4
40
0
40
0
40
0
40
0
40
1
40
1
40
1
40
1
41
1
10
105.450372071673
20
-11.8196123914051
30
0
41
1
10
106.966914714448
20
-7.87357264571318
30
0
41
1
10
108.483457357224
20
-3.93366109401248
30
0
41
1
10
110
20
-5.68E-14
30
0
0
SPLINE
5
122
100
AcDbEntity
8
1
62
256
6
ByLayer
370
13
48
1
60
0
100
AcDbSpline
70
4
71
3
72
8
73
4
40
0
40
0
40
0
40
0
40
1
40
1
40
1
40
1
41
1
10
105.450372071673
20
12.4307174763736
30
0
41
1
10
106.966914714448
20
8.28913810616393
30
0
41
1
10
108.483457357224
20
4.14552272309712
30
0
41
1
10
110
20
0
30
0
0
SPLINE
5
123
100
AcDbEntity
8
1
62
256
6
ByLayer
370
13
48
1
60
0
100
AcDbSpline
70
4
71
3
72
8
73
4
40
0
40
0
40
0
40
0
40
1
40
1
40
1
40
1
41
1
10
105.450372071673
20
3.76870078667366
30
0
41
1
10
106.966914714448
20
2.53054186615751
30
0
41
1
10
108.483457357224
20
1.27429520680573
30
0
41
1
10
110
20
-8.53E-14
30
0
0
SPLINE
5
124
100
AcDbEntity
8
1
62
256
6
ByLayer
370
13
48
1
60
0
100
AcDbSpline
70
4
71
3
72
8
73
4
40
0
40
0
40
0
40
0
40
1
40
1
40
1
40
1
41
1
10
105.450372071672
20
-2.03408909836651
30
0
41
1
10
106.966914714448
20
-1.37476350909432
30
0
41
1
10
108.483457357224
20
-0.696726727817406
30
0
41
1
10
110
20
8.53E-14
30
0
0
SPLINE
5
125
100
AcDbEntity
8
1
62
256
6
ByLayer
370
13
48
1
60
0
100
AcDbSpline
70
4
71
3
72
8
73
4
40
0
40
0
40
0
40
0
40
1
40
1
40
1
40
1
41
1
10
105.450372071673
20
-7.52949612367595
30
0
41
1
10
106.966914714448
20
-5.03479585647233
30
0
41
1
10
108.483457357224
20
-2.52493778743926
30
0
41
1
10
110
20
3.411E-13
30
0
0
SPLINE
5
126
100
AcDbEntity
8
1
62
256
6
ByLayer
370
13
48
1
60
0
100
AcDbSpline
70
4
71
3
72
8
73
4
40
0
40
0
40
0
40
0
40
1
40
1
40
1
40
1
41
1
10
105.450372071672
20
8.10942534478258
30
0
41
1
10
106.966914714448
20
5.39185748602745
30
0
41
1
10
108.483457357225
20
2.68868777792858
30
0
41
1
10
110.000000000001
20
-1.1653E-12
30
0
0
SPLINE
5
127
100
AcDbEntity
8
1
62
256
6
ByLayer
370
13
48
1
60
0
100
AcDbSpline
70
4
71
3
72
8
73
4
40
0
40
0
40
0
40
0
40
1
40
1
40
1
40
1
41
1
10
105.450372071672
20
11.994890533447
30
0
41
1
10
106.966914714448
20
7.99125929444472
30
0
41
1
10
108.483457357225
20
3.99292108783439
30
0
41
1
10
110.000000000001
20
-1.7337E-12
30
0
0
SPLINE
5
128
100
AcDbEntity
8
1
62
256
6
ByLayer
370
13
48
1
60
0
100
AcDbSpline
70
4
71
3
72
8
73
4
40
0
40
0
40
0
40
0
40
1
40
1
40
1
40
1
41
1
10
105.450372071672
20
11.5997090488313
30
0
41
1
10
106.966914714448
20
7.72607534509675
30
0
41
1
10
108.483457357225
20
3.85946566930736
30
0
41
1
10
110.000000000001
20
-1.6769E-12
30
0
0
SPLINE
5
129
100
AcDbEntity
8
1
62
256
6
ByLayer
370
13
48
1
60
0
100
AcDbSpline
70
4
71
3
72
8
73
4
40
0
40
0
40
0
40
0
40
1
40
1
40
1
40
1
41
1
10
105.450372071672
20
0.371770228127417
30
0
41
1
10
106.966914714448
20
0.228898421814392
30
0
41
1
10
108.483457357224
20
0.104973795257479
30
0
41
1
10
110
20
0
30
0
0
SPLINE
5
12A
100
AcDbEntity
8
1
62
256
6
ByLayer
370
13
48
1
60
0
100
AcDbSpline
70
4
71
3
72
8
73
4
40
0
40
0
40
0
40
0
40
1
40
1
40
1
40
1
41
1
10
105.450372071673
20
-10.1643382947374
30
0
41
1
10
106.966914714448
20
-6.76519157710732
30
0
41
1
10
108.483457357224
20
-3.37704378485415
30
0
41
1
10
110
20
-5.68E-14
30
0
0
SPLINE
5
12B
100
AcDbEntity
8
1
62
256
6
ByLayer
370
13
48
1
60
0
100
AcDbSpline
70
4
71
3
72
8
73
4
40
0
40
0
40
0
40
0
40
1
40
1
40
1
40
1
41
1
10
105.450372071672
20
6.13214954814816
30
0
41
1
10
106.966914714448
20
4.07158074510374
30
0
41
1
10
108.483457357224
20
2.02750979773458
30
0
41
1
10
110
20
-2.842E-13
30
0
0
SPLINE
5
12C
100
AcDbEntity
8
1
62
256
6
ByLayer
370
13
48
1
60
0
100
AcDbSpline
70
4
71
3
72
8
73
4
40
0
40
0
40
0
40
0
40
1
40
1
40
1
40
1
41
1
10
105.450372071673
20
-3.37434557309862
30
0
41
1
10
106.966914714448
20
-2.2313107029062
30
0
41
1
10
108.483457357224
20
-1.10651726720275
30
0
41
1
10
110
20
5.68E-14
30
0
0
SPLINE
5
12D
100
AcDbEntity
8
1
62
256
6
ByLayer
370
13
48
1
60
0
100
AcDbSpline
70
4
71
3
72
8
73
4
40
0
40
0
40
0
40
0
40
1
40
1
40
1
40
1
41
1
10
105.450372071673
20
-10.0667886350141
30
0
41
1
10
106.966914714448
20
-6.72243017486687
30
0
41
1
10
108.483457357224
20
-3.36679919555229
30
0
41
1
10
110
20
-5.684E-13
30
0
0
SPLINE
5
12E
100
AcDbEntity
8
1
62
256
6
ByLayer
370
13
48
1
60
0
100
AcDbSpline
70
4
71
3
72
8
73
4
40
0
40
0
40
0
40
0
40
1
40
1
40
1
40
1
41
1
10
105.450372071673
20
9.68075223278456
30
0
41
1
10
106.966914714448
20
6.4658273123915
30
0
41
1
10
108.483457357224
20
3.23887646298249
30
0
41
1
10
110
20
-5.68E-14
30
0
0
SPLINE
5
12F
100
AcDbEntity
8
1
62
256
6
ByLayer
370
13
48
1
60
0
100
AcDbSpline
70
4
71
3
72
8
73
4
40
0
40
0
40
0
40
0
40
1
40
1
40
1
40
1
41
1
10
105.450372071673
20
-12.1171293019831
30
0
41
1
10
106.966914714448
20
-8.08274205577075
30
0
41
1
10
108.483457357224
20
-4.04365713681267
30
0
41
1
10
110
20
-6.821E-13
30
0
0
SPLINE
5
130
100
AcDbEntity
8
1
62
256
6
ByLayer
370
13
48
1
60
0
100
AcDbSpline
70
4
71
3
72
8
73
4
40
0
40
0
40
0
40
0
40
1
40
1
40
1
40
1
41
1
10
105.450372071673
20
-8.5782870137632
30
0
41
1
10
106.966914714448
20
-5.70506972623988
30
0
41
1
10
108.483457357224
20
-2.84561117544666
30
0
41
1
10
110
20
3.695E-13
30
0
0
SPLINE
5
131
100
AcDbEntity
8
1
62
256
6
ByLayer
370
13
48
1
60
0
100
AcDbSpline
70
4
71
3
72
8
73
4
40
0
40
0
40
0
40
0
40
1
40
1
40
1
40
1
41
1
10
105.450372071673
20
11.5368076572429
30
0
41
1
10
106.966914714448
20
7.69850219194794
30
0
41
1
10
108.483457357224
20
3.85285981414506
30
0
41
1
10
110
20
0
30
0
0
SPLINE
5
132
100
AcDbEntity
8
1
62
256
6
ByLayer
370
13
48
1
60
0
100
AcDbSpline
70
4
71
3
72
8
73
4
40
0
40
0
40
0
40
0
40
1
40
1
40
1
40
1
41
1
10
105.450372071672
20
-3.21415915014657
30
0
41
1
10
106.966914714448
20
-2.16109214873836
30
0
41
1
10
108.483457357224
20
-1.08969461380156
30
0
41
1
10
110
20
1.421E-13
30
0
0
SPLINE
5
133
100
AcDbEntity
8
1
62
256
6
ByLayer
370
13
48
1
60
0
100
AcDbSpline
70
4
71
3
72
8
73
4
40
0
40
0
40
0
40
0
40
1
40
1
40
1
40
1
41
1
10
105.450372071673
20
-12.3567427356034
30
0
41
1
10
106.966914714448
20
-8.24069026261279
30
0
41
1
10
108.483457357224
20
-4.12173337867438
30
0
41
1
10
110
20
-6.821E-13
30
0
0
SPLINE
5
134
100
AcDbEntity
8
1
62
256
6
ByLayer
370
13
48
1
60
0
100
AcDbSpline
70
4
71
3
72
8
73
4
40
0
40
0
40
0
40
0
40
1
40
1
40
1
40
1
41
1
10
105.450372071672
20
-5.47366595934315
30
0
41
1
10
106.966914714448
20
-3.66615329862066
30
0
41
1
10
108.483457357224
20
-1.84157903673795
30
0
41
1
10
110
20
2.558E-13
30
0
0
SPLINE
5
135
100
AcDbEntity
8
1
62
256
6
ByLayer
370
13
48
1
60
0
100
AcDbSpline
70
4
71
3
72
8
73
4
40
0
40
0
40
0
40
0
40
1
40
1
40
1
40
1
41
1
10
105.450372071673
20
-11.7645320498689
30
0
41
1
10
106.966914714448
20
-7.84942789065548
30
0
41
1
10
108.483457357224
20
-3.92787659943542
30
0
41
1
10
110
20
-5.68E-14
30
0
0
SPLINE
5
136
100
AcDbEntity
8
1
62
256
6
ByLayer
370
13
48
1
60
0
100
AcDbSpline
70
4
71
3
72
8
73
4
40
0
40
0
40
0
40
0
40
1
40
1
40
1
40
1
41
1
10
105.450372071672
20
5.05297991277038
30
0
41
1
10
106.966914714448
20
3.3513143841557
30
0
41
1
10
108.483457357224
20
1.66697037437734
30
0
41
1
10
110
20
-2.274E-13
30
0
0
SPLINE
5
137
100
AcDbEntity
8
1
62
256
6
ByLayer
370
13
48
1
60
0
100
AcDbSpline
70
4
71
3
72
8
73
4
40
0
40
0
40
0
40
0
40
1
40
1
40
1
40
1
41
1
10
105.450372071673
20
10.3983234532884
30
0
41
1
10
106.966914714448
20
6.9427362088671
30
0
41
1
10
108.483457357224
20
3.47659248219091
30
0
41
1
10
110
20
5.68E-14
30
0
0
SPLINE
5
138
100
AcDbEntity
8
1
62
256
6
ByLayer
370
13
48
1
60
0
100
AcDbSpline
70
4
71
3
72
8
73
4
40
0
40
0
40
0
40
0
40
1
40
1
40
1
40
1
41
1
10
105.450372071673
20
-2.19774970694237
30
0
41
1
10
106.966914714448
20
-1.44650499065469
30
0
41
1
10
108.483457357224
20
-0.713914237487558
30
0
41
1
10
110
20
-5.68E-14
30
0
0
SPLINE
5
139
100
AcDbEntity
8
1
62
256
6
ByLayer
370
13
48
1
60
0
100
AcDbSpline
70
4
71
3
72
8
73
4
40
0
40
0
40
0
40
0
40
1
40
1
40
1
40
1
41
1
10
105.450372071673
20
12.2460040139821
30
0
41
1
10
106.966914714448
20
8.16780475022782
30
0
41
1
10
108.483457357224
20
4.08576115228396
30
0
41
1
10
110
20
2.84E-14
30
0
0
SPLINE
5
13A
100
AcDbEntity
8
1
62
256
6
ByLayer
370
13
48
1
60
0
100
AcDbSpline
70
4
71
3
72
8
73
4
40
0
40
0
40
0
40
0
40
1
40
1
40
1
40
1
41
1
10
105.450372071673
20
-7.66137966419399
30
0
41
1
10
106.966914714448
20
-5.0926076944738
30
0
41
1
10
108.483457357224
20
-2.53878809416693
30
0
41
1
10
110
20
-2.84E-14
30
0
0
SPLINE
5
13B
100
AcDbEntity
8
1
62
256
6
ByLayer
370
13
48
1
60
0
100
AcDbSpline
70
4
71
3
72
8
73
4
40
0
40
0
40
0
40
0
40
1
40
1
40
1
40
1
41
1
10
105.450372071672
20
9.78494715089872
30
0
41
1
10
106.966914714448
20
6.51150169831465
30
0
41
1
10
108.483457357225
20
3.24981893214542
30
0
41
1
10
110.000000000001
20
-1.4211E-12
30
0
0
SPLINE
5
13C
100
AcDbEntity
8
1
62
256
6
ByLayer
370
13
48
1
60
0
100
AcDbSpline
70
4
71
3
72
8
73
4
40
0
40
0
40
0
40
0
40
1
40
1
40
1
40
1
41
1
10
105.450372071672
20
2.7637958802087
30
0
41
1
10
106.966914714448
20
1.82404297827688
30
0
41
1
10
108.483457357224
20
0.902768213982114
30
0
41
1
10
110
20
1.421E-13
30
0
0
SPLINE
5
13D
100
AcDbEntity
8
1
62
256
6
ByLayer
370
13
48
1
60
0
100
AcDbSpline
70
4
71
3
72
8
73
4
40
0
40
0
40
0
40
0
40
1
40
1
40
1
40
1
41
1
10
105.450372071673
20
-12.4811381218116
30
0
41
1
10
106.966914714448
20
-8.32179975380723
30
0
41
1
10
108.483457357224
20
-4.16137731826876
30
0
41
1
10
110
20
5.684E-13
30
0
0
SPLINE
5
13E
100
AcDbEntity
8
1
62
256
6
ByLayer
370
13
48
1
60
0
100
AcDbSpline
70
4
71
3
72
8
73
4
40
0
40
0
40
0
40
0
40
1
40
1
40
1
40
1
41
1
10
105.450372071673
20
-6.67303526812478
30
0
41
1
10
106.966914714448
20
-4.43266063146999
30
0
41
1
10
108.483457357224
20
-2.20829257644758
30
0
41
1
10
110
20
2.842E-13
30
0
0
SPLINE
5
13F
100
AcDbEntity
8
1
62
256
6
ByLayer
370
13
48
1
60
0
100
AcDbSpline
70
4
71
3
72
8
73
4
40
0
40
0
40
0
40
0
40
1
40
1
40
1
40
1
41
1
10
105.450372071673
20
4.90065268492671
30
0
41
1
10
106.966914714448
20
3.28454094916378
30
0
41
1
10
108.483457357224
20
1.65097308752658
30
0
41
1
10
110
20
2.84E-14
30
0
0
SPLINE
5
140
100
AcDbEntity
8
1
62
256
6
ByLayer
370
13
48
1
60
0
100
AcDbSpline
70
4
71
3
72
8
73
4
40
0
40
0
40
0
40
0
40
1
40
1
40
1
40
1
41
1
10
105.450372071672
20
-6.53203438441349
30
0
41
1
10
106.966914714448
20
-4.37085215851627
30
0
41
1
10
108.483457357224
20
-2.19348477343775
30
0
41
1
10
110
20
2.842E-13
30
0
0
SPLINE
5
141
100
AcDbEntity
8
1
62
256
6
ByLayer
370
13
48
1
60
0
100
AcDbSpline
70
4
71
3
72
8
73
4
40
0
40
0
40
0
40
0
40
1
40
1
40
1
40
1
41
1
10
105.450372071673
20
-8.45675053889468
30
0
41
1
10
106.966914714448
20
-5.65179357844528
30
0
41
1
10
108.483457357224
20
-2.83284750949704
30
0
41
1
10
110
20
-4.832E-13
30
0
0
SPLINE
5
142
100
AcDbEntity
8
1
62
256
6
ByLayer
370
13
48
1
60
0
100
AcDbSpline
70
4
71
3
72
8
73
4
40
0
40
0
40
0
40
0
40
1
40
1
40
1
40
1
41
1
10
105.450372071673
20
-12.1568434047177
30
0
41
1
10
106.966914714448
20
-8.10015093988633
30
0
41
1
10
108.483457357224
20
-4.04782788095605
30
0
41
1
10
110
20
-5.68E-14
30
0
0
SPLINE
5
143
100
AcDbEntity
8
1
62
256
6
ByLayer
370
13
48
1
60
0
100
AcDbSpline
70
4
71
3
72
8
73
4
40
0
40
0
40
0
40
0
40
1
40
1
40
1
40
1
41
1
10
105.450372071673
20
12.4995231282519
30
0
41
1
10
106.966914714448
20
8.33318100394638
30
0
41
1
10
108.483457357224
20
4.16663017252262
30
0
41
1
10
110
20
0
30
0
0
SPLINE
5
144
100
AcDbEntity
8
1
62
256
6
ByLayer
370
13
48
1
60
0
100
AcDbSpline
70
4
71
3
72
8
73
4
40
0
40
0
40
0
40
0
40
1
40
1
40
1
40
1
41
1
10
105.450372071672
20
12.2782279912218
30
0
41
1
10
106.966914714448
20
8.18193029875766
30
0
41
1
10
108.483457357225
20
4.08914528927977
30
0
41
1
10
110.000000000001
20
-1.7621E-12
30
0
0
SPLINE
5
145
100
AcDbEntity
8
1
62
256
6
ByLayer
370
13
48
1
60
0
100
AcDbSpline
70
4
71
3
72
8
73
4
40
0
40
0
40
0
40
0
40
1
40
1
40
1
40
1
41
1
10
105.450372071673
20
11.9471050658778
30
0
41
1
10
106.966914714448
20
7.97031228544711
30
0
41
1
10
108.483457357224
20
3.98790269524187
30
0
41
1
10
110
20
0
30
0
0
LINE
5
7D
100
AcDbEntity
8
80
62
256
6
ByLayer
370
18
48
1
60
0
100
AcDbLine
10
0
20
0
30
0
11
-5
21
0
31
0
39
0
210
0
220
0
230
1
0
LINE
5
7E
100
AcDbEntity
8
4
62
256
6
ByLayer
370
18
48
0.05
60
0
100
AcDbLine
10
-5
20
0
30
0
11
115
21
0
31
0
39
0
210
0
220
0
230
1
0
LINE
5
80
100
AcDbEntity
8
81
62
256
6
ByLayer
370
18
48
1
60
0
100
AcDbLine
10
110
20
0
30
0
11
115
21
0
31
0
39
0
210
0
220
0
230
1
0
LINE
5
81
100
AcDbEntity
8
SK4
62
256
6
ByLayer
370
18
48
0.05
60
0
100
AcDbLine
10
-65
20
0
30
0
11
115
21
0
31
0
39
0
210
0
220
0
230
1
0
LINE
5
83
100
AcDbEntity
8
1
62
256
6
ByLayer
370
18
48
1
60
0
100
AcDbLine
10
10
20
-12.2
30
0
11
46.272976
21
-12.2
31
0
39
0
210
0
220
0
230
1
0
LINE
5
84
100
AcDbEntity
8
1
62
256
6
ByLayer
370
18
48
1
60
0
100
AcDbLine
10
46.272976
20
12.2
30
0
11
10
21
12.2
31
0
39
0
210
0
220
0
230
1
0
LINE
5
85
100
AcDbEntity
8
1
62
256
6
ByLayer
370
18
48
1
60
0
100
AcDbLine
10
110
20
0
30
0
11
105.450372
21
12.5
31
0
39
0
210
0
220
0
230
1
0
LINE
5
86
100
AcDbEntity
8
1
62
256
6
ByLayer
370
18
48
1
60
0
100
AcDbLine
10
105.450372
20
-12.5
30
0
11
110
21
0
31
0
39
0
210
0
220
0
230
1
0
LINE
5
87
100
AcDbEntity
8
1
62
256
6
ByLayer
370
18
48
1
60
0
100
AcDbLine
10
10
20
12.2
30
0
11
0
21
16
31
0
39
0
210
0
220
0
230
1
0
LINE
5
88
100
AcDbEntity
8
1
62
256
6
ByLayer
370
18
48
1
60
0
100
AcDbLine
10
0
20
-16
30
0
11
10
21
-12.2
31
0
39
0
210
0
220
0
230
1
0
LINE
5
89
100
AcDbEntity
8
1
62
256
6
ByLayer
370
18
48
1
60
0
100
AcDbLine
10
105.450372
20
12.5
30
0
11
94.2
21
12.5
31
0
39
0
210
0
220
0
230
1
0
LINE
5
8A
100
AcDbEntity
8
1
62
256
6
ByLayer
370
18
48
1
60
0
100
AcDbLine
10
94.2
20
-12.5
30
0
11
105.450372
21
-12.5
31
0
39
0
210
0
220
0
230
1
0
LINE
5
8B
100
AcDbEntity
8
1
62
256
6
ByLayer
370
18
48
1
60
0
100
AcDbLine
10
110
20
0
30
0
11
105.450372
21
12.5
31
0
39
0
210
0
220
0
230
1
0
LINE
5
8C
100
AcDbEntity
8
1
62
256
6
ByLayer
370
18
48
1
60
0
100
AcDbLine
10
105.450372
20
-12.5
30
0
11
110
21
0
31
0
39
0
210
0
220
0
230
1
0
LINE
5
8D
100
AcDbEntity
8
SK1
62
256
6
ByLayer
370
18
48
1
60
0
100
AcDbLine
10
-60
20
-15
30
0
11
-59
21
-16
31
0
39
0
210
0
220
0
230
1
0
LINE
5
8F
100
AcDbEntity
8
SK1
62
256
6
ByLayer
370
18
48
1
60
0
100
AcDbLine
10
-59
20
16
30
0
11
-60
21
15
31
0
39
0
210
0
220
0
230
1
0
LINE
5
90
100
AcDbEntity
8
SK1
62
256
6
ByLayer
370
18
48
1
60
0
100
AcDbLine
10
-59
20
-16
30
0
11
0
21
-16
31
0
39
0
210
0
220
0
230
1
0
LINE
5
91
100
AcDbEntity
8
SK1
62
256
6
ByLayer
370
18
48
1
60
0
100
AcDbLine
10
0
20
16
30
0
11
-59
21
16
31
0
39
0
210
0
220
0
230
1
0
LINE
5
92
100
AcDbEntity
8
1
62
256
6
ByLayer
370
18
48
1
60
0
100
AcDbLine
10
0
20
16
30
0
11
0
21
-16
31
0
39
0
210
0
220
0
230
1
0
LINE
5
93
100
AcDbEntity
8
1
62
256
6
ByLayer
370
18
48
1
60
0
100
AcDbLine
10
105.450372
20
12.5
30
0
11
105.450372
21
12.10306
31
0
39
0
210
0
220
0
230
1
0
LINE
5
94
100
AcDbEntity
8
1
62
256
6
ByLayer
370
18
48
1
60
0
100
AcDbLine
10
105.450372
20
-12.5
30
0
11
105.450372
21
-1.784055
31
0
39
0
210
0
220
0
230
1
0
LINE
5
95
100
AcDbEntity
8
1
62
256
6
ByLayer
370
18
48
1
60
0
100
AcDbLine
10
10
20
-12.2
30
0
11
10
21
-5.638666
31
0
39
0
210
0
220
0
230
1
0
LINE
5
96
100
AcDbEntity
8
1
62
256
6
ByLayer
370
18
48
1
60
0
100
AcDbLine
10
10
20
12.2
30
0
11
10
21
8.105641
31
0
39
0
210
0
220
0
230
1
0
LINE
5
97
100
AcDbEntity
8
SK1
62
256
6
ByLayer
370
13
48
1
60
0
100
AcDbLine
10
-15.198909
20
-8.334638
30
0
11
-15.198909
21
8.334638
31
0
39
0
210
0
220
0
230
1
0
LINE
5
98
100
AcDbEntity
8
SK1
62
256
6
ByLayer
370
13
48
1
60
0
100
AcDbLine
10
-55.486983
20
5.39045
30
0
11
-55.486983
21
-5.39045
31
0
39
0
210
0
220
0
230
1
0
LINE
5
99
100
AcDbEntity
8
SK1
62
256
6
ByLayer
370
18
48
1
60
0
100
AcDbLine
10
-60
20
-15
30
0
11
-60
21
15
31
0
39
0
210
0
220
0
230
1
0
LINE
5
9A
100
AcDbEntity
8
SK1
62
256
6
ByLayer
370
13
48
1
60
0
100
AcDbLine
10
-14.051873
20
7.587342
30
0
11
-14.051873
21
-7.587342
31
0
39
0
210
0
220
0
230
1
0
LINE
5
9B
100
AcDbEntity
8
SK1
62
256
6
ByLayer
370
18
48
1
60
0
100
AcDbLine
10
-59
20
-16
30
0
11
-59
21
16
31
0
39
0
210
0
220
0
230
1
0
LINE
5
9C
100
AcDbEntity
8
SK1
62
256
6
ByLayer
370
18
48
1
60
0
100
AcDbLine
10
0
20
16
30
0
11
0
21
-16
31
0
39
0
210
0
220
0
230
1
0
LINE
5
9D
100
AcDbEntity
8
SK1
62
256
6
ByLayer
370
13
48
1
60
0
100
AcDbLine
10
-56.60131
20
-3.674042
30
0
11
-56.60131
21
3.674042
31
0
39
0
210
0
220
0
230
1
0
LINE
5
9E
100
AcDbEntity
8
1
62
256
6
ByLayer
370
18
48
1
60
0
100
AcDbLine
10
105.450372
20
12.5
30
0
11
105.450372
21
-12.5
31
0
39
0
210
0
220
0
230
1
0
LINE
5
9F
100
AcDbEntity
8
1
62
256
6
ByLayer
370
18
48
1
60
0
100
AcDbLine
10
105.450372
20
12.5
30
0
11
105.450372
21
-12.5
31
0
39
0
210
0
220
0
230
1
0
LINE
5
A0
100
AcDbEntity
8
1
62
256
6
ByLayer
370
18
48
1
60
0
100
AcDbLine
10
105.450372
20
12.5
30
0
11
105.450372
21
-12.5
31
0
39
0
210
0
220
0
230
1
0
LINE
5
A1
100
AcDbEntity
8
1
62
256
6
ByLayer
370
18
48
1
60
0
100
AcDbLine
10
94.2
20
12.5
30
0
11
94.2
21
-12.5
31
0
39
0
210
0
220
0
230
1
0
LINE
5
A2
100
AcDbEntity
8
1
62
256
6
ByLayer
370
18
48
1
60
0
100
AcDbLine
10
94.2
20
12.5
30
0
11
94.2
21
-12.5
31
0
39
0
210
0
220
0
230
1
0
LINE
5
A3
100
AcDbEntity
8
1
62
256
6
ByLayer
370
18
48
1
60
0
100
AcDbLine
10
105.450372
20
12.5
30
0
11
105.450372
21
-12.5
31
0
39
0
210
0
220
0
230
1
0
LINE
5
A4
100
AcDbEntity
8
1
62
256
6
ByLayer
370
18
48
1
60
0
100
AcDbLine
10
94.2
20
12.5
30
0
11
94.2
21
-12.5
31
0
39
0
210
0
220
0
230
1
0
LINE
5
A5
100
AcDbEntity
8
1
62
256
6
ByLayer
370
18
48
1
60
0
100
AcDbLine
10
105.450372
20
12.5
30
0
11
105.450372
21
-12.5
31
0
39
0
210
0
220
0
230
1
0
LINE
5
A6
100
AcDbEntity
8
SK2
62
256
6
ByLayer
370
13
48
1
60
0
100
AcDbLine
10
-66.5
20
-16
30
0
11
-66.5
21
45.024569
31
0
39
0
210
0
220
0
230
1
0
LINE
5
A8
100
AcDbEntity
8
SK2
62
256
6
ByLayer
370
13
48
1
60
0
100
AcDbLine
10
-61.5875
20
16
30
0
11
-68.5
21
16
31
0
39
0
210
0
220
0
230
1
0
LINE
5
A9
100
AcDbEntity
8
SK2
62
256
6
ByLayer
370
13
48
1
60
0
100
AcDbLine
10
-61.5875
20
-16
30
0
11
-68.5
21
-16
31
0
39
0
210
0
220
0
230
1
0
LINE
5
AA
100
AcDbEntity
8
1
62
256
6
ByLayer
370
18
48
1
60
1
100
AcDbLine
10
-66.5
20
16
30
0
11
-66.039216
21
12.500002
31
0
39
0
210
0
220
0
230
1
0
LINE
5
AB
100
AcDbEntity
8
1
62
256
6
ByLayer
370
18
48
1
60
1
100
AcDbLine
10
-66.039216
20
12.500002
30
0
11
-66.960784
21
12.499998
31
0
39
0
210
0
220
0
230
1
0
LINE
5
AC
100
AcDbEntity
8
1
62
256
6
ByLayer
370
18
48
1
60
1
100
AcDbLine
10
-66.960784
20
12.499998
30
0
11
-66.5
21
16
31
0
39
0
210
0
220
0
230
1
0
LINE
5
AD
100
AcDbEntity
8
1
62
256
6
ByLayer
370
18
48
1
60
1
100
AcDbLine
10
-66.5
20
-16
30
0
11
-66.960784
21
-12.500002
31
0
39
0
210
0
220
0
230
1
0
LINE
5
AE
100
AcDbEntity
8
1
62
256
6
ByLayer
370
18
48
1
60
1
100
AcDbLine
10
-66.960784
20
-12.500002
30
0
11
-66.039216
21
-12.499998
31
0
39
0
210
0
220
0
230
1
0
LINE
5
AF
100
AcDbEntity
8
1
62
256
6
ByLayer
370
18
48
1
60
1
100
AcDbLine
10
-66.039216
20
-12.499998
30
0
11
-66.5
21
-16
31
0
39
0
210
0
220
0
230
1
0
LINE
5
B0
100
AcDbEntity
8
2
62
256
6
ByLayer
370
13
48
1
60
0
100
AcDbLine
10
117.5
20
-12.5
30
0
11
117.5
21
41.524569
31
0
39
0
210
0
220
0
230
1
0
LINE
5
B2
100
AcDbEntity
8
2
62
256
6
ByLayer
370
13
48
1
60
0
100
AcDbLine
10
107.037872
20
12.5
30
0
11
119.5
21
12.5
31
0
39
0
210
0
220
0
230
1
0
LINE
5
B3
100
AcDbEntity
8
2
62
256
6
ByLayer
370
13
48
1
60
0
100
AcDbLine
10
107.037872
20
-12.5
30
0
11
119.5
21
-12.5
31
0
39
0
210
0
220
0
230
1
0
LINE
5
B4
100
AcDbEntity
8
1
62
256
6
ByLayer
370
18
48
1
60
1
100
AcDbLine
10
117.5
20
12.5
30
0
11
117.960784
21
9.000002
31
0
39
0
210
0
220
0
230
1
0
LINE
5
B5
100
AcDbEntity
8
1
62
256
6
ByLayer
370
18
48
1
60
1
100
AcDbLine
10
117.960784
20
9.000002
30
0
11
117.039216
21
8.999998
31
0
39
0
210
0
220
0
230
1
0
LINE
5
B6
100
AcDbEntity
8
1
62
256
6
ByLayer
370
18
48
1
60
1
100
AcDbLine
10
117.039216
20
8.999998
30
0
11
117.5
21
12.5
31
0
39
0
210
0
220
0
230
1
0
LINE
5
B7
100
AcDbEntity
8
1
62
256
6
ByLayer
370
18
48
1
60
1
100
AcDbLine
10
117.5
20
-12.5
30
0
11
117.039216
21
-9.000002
31
0
39
0
210
0
220
0
230
1
0
LINE
5
B8
100
AcDbEntity
8
1
62
256
6
ByLayer
370
18
48
1
60
1
100
AcDbLine
10
117.039216
20
-9.000002
30
0
11
117.960784
21
-8.999998
31
0
39
0
210
0
220
0
230
1
0
LINE
5
B9
100
AcDbEntity
8
1
62
256
6
ByLayer
370
18
48
1
60
1
100
AcDbLine
10
117.960784
20
-8.999998
30
0
11
117.5
21
-12.5
31
0
39
0
210
0
220
0
230
1
0
LINE
5
BA
100
AcDbEntity
8
SK2
62
256
6
ByLayer
370
13
48
1
60
0
100
AcDbLine
10
110.542957
20
-1.491762
30
0
11
117.182423
21
-19.733545
31
0
39
0
210
0
220
0
230
1
0
LINE
5
BB
100
AcDbEntity
8
SK2
62
256
6
ByLayer
370
13
48
1
60
0
100
AcDbLine
10
110.542957
20
1.491762
30
0
11
117.182423
21
19.733545
31
0
39
0
210
0
220
0
230
1
0
LINE
5
BC
100
AcDbEntity
8
1
62
256
6
ByLayer
370
18
48
1
60
1
100
AcDbLine
10
116.498383
20
-17.85416
30
0
11
119.551575
21
-16.082064
31
0
39
0
210
0
220
0
230
1
0
LINE
5
BD
100
AcDbEntity
8
1
62
256
6
ByLayer
370
18
48
1
60
1
100
AcDbLine
10
119.551575
20
-16.082064
30
0
11
119.906196
21
-16.93267
31
0
39
0
210
0
220
0
230
1
0
LINE
5
BE
100
AcDbEntity
8
1
62
256
6
ByLayer
370
18
48
1
60
1
100
AcDbLine
10
119.906196
20
-16.93267
30
0
11
116.498383
21
-17.85416
31
0
39
0
210
0
220
0
230
1
0
LINE
5
BF
100
AcDbEntity
8
1
62
256
6
ByLayer
370
18
48
1
60
1
100
AcDbLine
10
116.498383
20
17.85416
30
0
11
119.906193
21
16.932671
31
0
39
0
210
0
220
0
230
1
0
LINE
5
C0
100
AcDbEntity
8
1
62
256
6
ByLayer
370
18
48
1
60
1
100
AcDbLine
10
119.906193
20
16.932671
30
0
11
119.551579
21
16.082063
31
0
39
0
210
0
220
0
230
1
0
LINE
5
C1
100
AcDbEntity
8
1
62
256
6
ByLayer
370
18
48
1
60
1
100
AcDbLine
10
119.551579
20
16.082063
30
0
11
116.498383
21
17.85416
31
0
39
0
210
0
220
0
230
1
0
LINE
5
14A
100
AcDbEntity
8
1
62
256
6
ByLayer
370
18
48
1
60
1
100
AcDbLine
10
-66.5
20
16
30
0
11
-66.039216
21
12.500002
31
0
39
0
210
0
220
0
230
1
0
LINE
5
14B
100
AcDbEntity
8
1
62
256
6
ByLayer
370
18
48
1
60
1
100
AcDbLine
10
-66.039216
20
12.500002
30
0
11
-66.960784
21
12.499998
31
0
39
0
210
0
220
0
230
1
0
LINE
5
14C
100
AcDbEntity
8
1
62
256
6
ByLayer
370
18
48
1
60
1
100
AcDbLine
10
-66.960784
20
12.499998
30
0
11
-66.5
21
16
31
0
39
0
210
0
220
0
230
1
0
LINE
5
14E
100
AcDbEntity
8
1
62
256
6
ByLayer
370
18
48
1
60
1
100
AcDbLine
10
-66.5
20
-16
30
0
11
-66.960784
21
-12.500002
31
0
39
0
210
0
220
0
230
1
0
LINE
5
14F
100
AcDbEntity
8
1
62
256
6
ByLayer
370
18
48
1
60
1
100
AcDbLine
10
-66.960784
20
-12.500002
30
0
11
-66.039216
21
-12.499998
31
0
39
0
210
0
220
0
230
1
0
LINE
5
150
100
AcDbEntity
8
1
62
256
6
ByLayer
370
18
48
1
60
1
100
AcDbLine
10
-66.039216
20
-12.499998
30
0
11
-66.5
21
-16
31
0
39
0
210
0
220
0
230
1
0
LINE
5
154
100
AcDbEntity
8
1
62
256
6
ByLayer
370
18
48
1
60
1
100
AcDbLine
10
117.5
20
12.5
30
0
11
117.960784
21
9.000002
31
0
39
0
210
0
220
0
230
1
0
LINE
5
155
100
AcDbEntity
8
1
62
256
6
ByLayer
370
18
48
1
60
1
100
AcDbLine
10
117.960784
20
9.000002
30
0
11
117.039216
21
8.999998
31
0
39
0
210
0
220
0
230
1
0
LINE
5
156
100
AcDbEntity
8
1
62
256
6
ByLayer
370
18
48
1
60
1
100
AcDbLine
10
117.039216
20
8.999998
30
0
11
117.5
21
12.5
31
0
39
0
210
0
220
0
230
1
0
LINE
5
158
100
AcDbEntity
8
1
62
256
6
ByLayer
370
18
48
1
60
1
100
AcDbLine
10
117.5
20
-12.5
30
0
11
117.039216
21
-9.000002
31
0
39
0
210
0
220
0
230
1
0
LINE
5
159
100
AcDbEntity
8
1
62
256
6
ByLayer
370
18
48
1
60
1
100
AcDbLine
10
117.039216
20
-9.000002
30
0
11
117.960784
21
-8.999998
31
0
39
0
210
0
220
0
230
1
0
LINE
5
15A
100
AcDbEntity
8
1
62
256
6
ByLayer
370
18
48
1
60
1
100
AcDbLine
10
117.960784
20
-8.999998
30
0
11
117.5
21
-12.5
31
0
39
0
210
0
220
0
230
1
0
LINE
5
15D
100
AcDbEntity
8
1
62
256
6
ByLayer
370
18
48
1
60
1
100
AcDbLine
10
116.498383
20
-17.85416
30
0
11
119.551575
21
-16.082064
31
0
39
0
210
0
220
0
230
1
0
LINE
5
15E
100
AcDbEntity
8
1
62
256
6
ByLayer
370
18
48
1
60
1
100
AcDbLine
10
119.551575
20
-16.082064
30
0
11
119.906196
21
-16.93267
31
0
39
0
210
0
220
0
230
1
0
LINE
5
15F
100
AcDbEntity
8
1
62
256
6
ByLayer
370
18
48
1
60
1
100
AcDbLine
10
119.906196
20
-16.93267
30
0
11
116.498383
21
-17.85416
31
0
39
0
210
0
220
0
230
1
0
LINE
5
161
100
AcDbEntity
8
1
62
256
6
ByLayer
370
18
48
1
60
1
100
AcDbLine
10
116.498383
20
17.85416
30
0
11
119.906193
21
16.932671
31
0
39
0
210
0
220
0
230
1
0
LINE
5
162
100
AcDbEntity
8
1
62
256
6
ByLayer
370
18
48
1
60
1
100
AcDbLine
10
119.906193
20
16.932671
30
0
11
119.551579
21
16.082063
31
0
39
0
210
0
220
0
230
1
0
LINE
5
163
100
AcDbEntity
8
1
62
256
6
ByLayer
370
18
48
1
60
1
100
AcDbLine
10
119.551579
20
16.082063
30
0
11
116.498383
21
17.85416
31
0
39
0
210
0
220
0
230
1
0
MTEXT
5
146
100
AcDbEntity
8
SK2
62
256
6
ByLayer
370
18
48
1
60
0
100
AcDbMText
10
-67.841114
20
27.658438
30
0
210
0
220
0
230
1
1
%%c
40
3
41
0
44
1.084337
50
90
71
7
72
5
7
iso_b_vert
0
MTEXT
5
149
100
AcDbEntity
8
SK2
62
256
6
ByLayer
370
18
48
1
60
0
100
AcDbMText
10
-67.841114
20
33.635
30
0
210
0
220
0
230
1
1
\W0.7513;32.000
40
3
41
0
44
1.084337
50
90
71
7
72
5
7
iso_b_vert
0
MTEXT
5
152
100
AcDbEntity
8
2
62
256
6
ByLayer
370
18
48
1
60
0
100
AcDbMText
10
116.158886
20
24.158438
30
0
210
0
220
0
230
1
1
%%c
40
3
41
0
44
1.084337
50
90
71
7
72
5
7
iso_b_vert
0
MTEXT
5
153
100
AcDbEntity
8
2
62
256
6
ByLayer
370
18
48
1
60
0
100
AcDbMText
10
116.158886
20
30.135
30
0
210
0
220
0
230
1
1
\W0.7513;25.000
40
3
41
0
44
1.084337
50
90
71
7
72
5
7
iso_b_vert
0
MTEXT
5
15C
100
AcDbEntity
8
SK2
62
256
6
ByLayer
370
18
48
1
60
0
100
AcDbMText
10
129.909114
20
3.734657
30
0
210
0
220
0
230
1
1
\W0.7071;140%%d
40
3
41
0
44
1.084337
50
270
71
7
72
5
7
iso_b_vert
0
MTEXT
5
165
100
AcDbEntity
8
SK6
62
256
6
ByLayer
370
18
48
1
60
0
100
AcDbMText
10
0.71286
20
-67.114886
30
0
210
0
220
0
230
1
1
\W0.7680;H85325.0
40
3
41
0
44
1.084337
50
0
71
7
72
5
7
iso_b_vert
0
HATCH
5
14D
100
AcDbEntity
8
SK2
62
256
6
ByLayer
370
13
48
1
60
0
100
AcDbHatch
10
0
20
0
30
0
210
0
220
0
230
1
2
ANSI31
70
0
71
0
91
1
92
5
93
3
72
1
10
-66.5
20
16
11
-66.0392162584472
21
12.5000016925532
72
1
10
-66.0392162584472
20
12.5000016925532
11
-66.9607837415528
21
12.4999983074468
72
1
10
-66.9607837415528
20
12.4999983074468
11
-66.5
21
16
97
0
75
0
76
1
52
0
41
0.0062
77
0
78
1
53
45
43
0
44
0
45
-0.0139193969876572
46
0.0139193969876572
79
0
47
0
98
1
10
0
20
0
0
HATCH
5
151
100
AcDbEntity
8
SK2
62
256
6
ByLayer
370
13
48
1
60
0
100
AcDbHatch
10
0
20
0
30
0
210
0
220
0
230
1
2
ANSI31
70
0
71
0
91
1
92
5
93
3
72
1
10
-66.5
20
-16
11
-66.9607837415528
21
-12.5000016925532
72
1
10
-66.9607837415528
20
-12.5000016925532
11
-66.0392162584472
21
-12.4999983074468
72
1
10
-66.0392162584472
20
-12.4999983074468
11
-66.5
21
-16
97
0
75
0
76
1
52
0
41
0.0062
77
0
78
1
53
45
43
0
44
0
45
-0.0139193969876572
46
0.0139193969876572
79
0
47
0
98
1
10
0
20
0
0
HATCH
5
157
100
AcDbEntity
8
2
62
256
6
ByLayer
370
13
48
1
60
0
100
AcDbHatch
10
0
20
0
30
0
210
0
220
0
230
1
2
ANSI31
70
0
71
0
91
1
92
5
93
3
72
1
10
117.5
20
12.5
11
117.960783741553
21
9.00000169255318
72
1
10
117.960783741553
20
9.00000169255318
11
117.039216258447
21
8.99999830744682
72
1
10
117.039216258447
20
8.99999830744682
11
117.5
21
12.5
97
0
75
0
76
1
52
0
41
0.0062
77
0
78
1
53
45
43
0
44
0
45
-0.0139193969876572
46
0.0139193969876572
79
0
47
0
98
1
10
0
20
0
0
HATCH
5
15B
100
AcDbEntity
8
2
62
256
6
ByLayer
370
13
48
1
60
0
100
AcDbHatch
10
0
20
0
30
0
210
0
220
0
230
1
2
ANSI31
70
0
71
0
91
1
92
5
93
3
72
1
10
117.5
20
-12.5
11
117.039216258447
21
-9.00000169255318
72
1
10
117.039216258447
20
-9.00000169255318
11
117.960783741553
21
-8.99999830744682
72
1
10
117.960783741553
20
-8.99999830744682
11
117.5
21
-12.5
97
0
75
0
76
1
52
0
41
0.0062
77
0
78
1
53
45
43
0
44
0
45
-0.0139193969876572
46
0.0139193969876572
79
0
47
0
98
1
10
0
20
0
0
HATCH
5
160
100
AcDbEntity
8
SK2
62
256
6
ByLayer
370
13
48
1
60
0
100
AcDbHatch
10
0
20
0
30
0
210
0
220
0
230
1
2
ANSI31
70
0
71
0
91
1
92
5
93
3
72
1
10
116.498382723188
20
-17.8541597949323
11
119.551575425693
21
-16.0820638240608
72
1
10
119.551575425693
20
-16.0820638240608
11
119.906195833975
21
-16.9326700737197
72
1
10
119.906195833975
20
-16.9326700737197
11
116.498382723188
21
-17.8541597949323
97
0
75
0
76
1
52
0
41
0.0062
77
0
78
1
53
45
43
0
44
0
45
-0.0139193969876572
46
0.0139193969876572
79
0
47
0
98
1
10
0
20
0
0
HATCH
5
164
100
AcDbEntity
8
SK2
62
256
6
ByLayer
370
13
48
1
60
0
100
AcDbHatch
10
0
20
0
30
0
210
0
220
0
230
1
2
ANSI31
70
0
71
0
91
1
92
5
93
3
72
1
10
116.498382723188
20
17.8541597949323
11
119.906192709519
21
16.9326713763017
72
1
10
119.906192709519
20
16.9326713763017
11
119.551578550149
21
16.0820625214788
72
1
10
119.551578550149
20
16.0820625214788
11
116.498382723188
21
17.8541597949323
97
0
75
0
76
1
52
0
41
0.0062
77
0
78
1
53
45
43
0
44
0
45
-0.0139193969876572
46
0.0139193969876572
79
0
47
0
98
1
10
0
20
0
0
DIMENSION
5
168
100
AcDbEntity
8
SK2
62
256
6
ByLayer
370
18
48
1
60
0
100
AcDbDimension
2
_U0
10
110
20
-45.952229
30
0
11
25
21
-45.952229
31
0
70
32
71
1
72
1
41
1
210
0
220
0
230
1
3
Standard
100
AcDbAlignedDimension
13
-60
23
-16
33
0
14
110
24
0
34
0
50
0
100
AcDbRotatedDimension
1001
ACAD
1000
DSTYLE
1002
{
1070
   371
1070
    13
1070
   372
1070
    13
1070
     3
1000

1070
   170
1070
     0
1070
   144
1040
1.0
1070
   277
1070
     2
1070
   284
1070
     8
1070
   278
1070
    46
1070
   146
1040
1.166667
1070
   345
1005
16
1070
   347
1005
16
1070
   346
1005
16
1070
   344
1005
0
1070
   343
1005
0
1070
   172
1070
     1
1070
    76
1070
     0
1070
    75
1070
     0
1070
   282
1070
     0
1070
   281
1070
     0
1070
    71
1070
     0
1070
    74
1070
     0
1070
   279
1070
     0
1070
   173
1070
     1
1070
   340
1005
147
1070
   271
1070
     2
1070
   272
1070
     3
1070
    77
1070
     1
1070
    73
1070
     1
1070
   171
1070
     3
1070
   274
1070
     4
1070
   177
1070
     2
1070
   176
1070
     2
1070
   178
1070
     2
1070
    78
1070
     8
1070
    48
1040
-0.1
1070
    41
1040
3.5
1070
   147
1040
1.5
1070
    42
1040
1.5875
1070
    44
1040
2.0
1070
   140
1040
3.0
1002
}
1001
ACAD_DSTYLE_DIM_LINETYPE
1070
   380
1005
16
1001
ACAD_DSTYLE_DIM_EXT1_LINETYPE
1070
   381
1005
16
1001
ACAD_DSTYLE_DIM_EXT2_LINETYPE
1070
   382
1005
16
0
DIMENSION
5
181
100
AcDbEntity
8
SK2
62
256
6
ByLayer
370
18
48
1
60
0
100
AcDbDimension
2
_U1
10
3
20
-35.952229
30
0
11
56.5
21
-35.952229
31
0
70
32
71
1
72
1
41
1
210
0
220
0
230
1
3
Standard
100
AcDbAlignedDimension
13
110
23
0
33
0
14
3
24
-12.5
34
0
50
0
100
AcDbRotatedDimension
1001
ACAD
1000
DSTYLE
1002
{
1070
   371
1070
    13
1070
   372
1070
    13
1070
     3
1000

1070
   170
1070
     0
1070
   144
1040
1.0
1070
   277
1070
     2
1070
   284
1070
     8
1070
   278
1070
    46
1070
   146
1040
1.166667
1070
   345
1005
16
1070
   347
1005
16
1070
   346
1005
16
1070
   344
1005
0
1070
   343
1005
0
1070
   172
1070
     1
1070
    76
1070
     0
1070
    75
1070
     0
1070
   282
1070
     0
1070
   281
1070
     0
1070
    71
1070
     0
1070
    74
1070
     0
1070
   279
1070
     0
1070
   173
1070
     1
1070
   340
1005
147
1070
   271
1070
     2
1070
   272
1070
     3
1070
    77
1070
     1
1070
    73
1070
     1
1070
   171
1070
     3
1070
   274
1070
     4
1070
   177
1070
     2
1070
   176
1070
     2
1070
   178
1070
     2
1070
    78
1070
     8
1070
    48
1040
-0.1
1070
    41
1040
3.5
1070
   147
1040
1.5
1070
    42
1040
1.5875
1070
    44
1040
2.0
1070
   140
1040
3.0
1002
}
1001
ACAD_DSTYLE_DIM_LINETYPE
1070
   380
1005
16
1001
ACAD_DSTYLE_DIM_EXT1_LINETYPE
1070
   381
1005
16
1001
ACAD_DSTYLE_DIM_EXT2_LINETYPE
1070
   382
1005
16
0
DIMENSION
5
199
100
AcDbEntity
8
SK2
62
256
6
ByLayer
370
18
48
1
60
0
100
AcDbDimension
2
_U2
10
0
20
-35.952229
30
0
11
-30
21
-35.952229
31
0
70
32
71
1
72
1
41
1
210
0
220
0
230
1
3
Standard
100
AcDbAlignedDimension
13
-60
23
-16
33
0
14
0
24
-16
34
0
50
0
100
AcDbRotatedDimension
1001
ACAD
1000
DSTYLE
1002
{
1070
   371
1070
    13
1070
   372
1070
    13
1070
     3
1000

1070
   170
1070
     0
1070
   144
1040
1.0
1070
   277
1070
     2
1070
   284
1070
     8
1070
   278
1070
    46
1070
   146
1040
1.166667
1070
   345
1005
16
1070
   347
1005
16
1070
   346
1005
16
1070
   344
1005
0
1070
   343
1005
0
1070
   172
1070
     1
1070
    76
1070
     0
1070
    75
1070
     0
1070
   282
1070
     0
1070
   281
1070
     0
1070
    71
1070
     0
1070
    74
1070
     0
1070
   279
1070
     0
1070
   173
1070
     1
1070
   340
1005
147
1070
   271
1070
     2
1070
   272
1070
     3
1070
    77
1070
     1
1070
    73
1070
     1
1070
   171
1070
     3
1070
   274
1070
     4
1070
   177
1070
     2
1070
   176
1070
     2
1070
   178
1070
     2
1070
    78
1070
     8
1070
    48
1040
-0.1
1070
    41
1040
3.5
1070
   147
1040
1.5
1070
    42
1040
1.5875
1070
    44
1040
2.0
1070
   140
1040
3.0
1002
}
1001
ACAD_DSTYLE_DIM_LINETYPE
1070
   380
1005
16
1001
ACAD_DSTYLE_DIM_EXT1_LINETYPE
1070
   381
1005
16
1001
ACAD_DSTYLE_DIM_EXT2_LINETYPE
1070
   382
1005
16
0
DIMENSION
5
1B1
100
AcDbEntity
8
SK2
62
256
6
ByLayer
370
18
48
1
60
0
100
AcDbDimension
2
_U3
10
22
20
32.952229
30
0
11
66
21
32.952229
31
0
70
32
71
1
72
1
41
1
210
0
220
0
230
1
3
Standard
100
AcDbAlignedDimension
13
110
23
0
33
0
14
22
24
12.5
34
0
50
0
100
AcDbRotatedDimension
1001
ACAD
1000
DSTYLE
1002
{
1070
   371
1070
    13
1070
   372
1070
    13
1070
     3
1000

1070
   170
1070
     0
1070
   144
1040
1.0
1070
   277
1070
     2
1070
   284
1070
     8
1070
   278
1070
    46
1070
   146
1040
1.166667
1070
   345
1005
16
1070
   347
1005
16
1070
   346
1005
16
1070
   344
1005
0
1070
   343
1005
0
1070
   172
1070
     1
1070
    76
1070
     0
1070
    75
1070
     0
1070
   282
1070
     0
1070
   281
1070
     0
1070
    71
1070
     0
1070
    74
1070
     0
1070
   279
1070
     0
1070
   173
1070
     1
1070
   340
1005
147
1070
   271
1070
     2
1070
   272
1070
     3
1070
    77
1070
     1
1070
    73
1070
     1
1070
   171
1070
     3
1070
   274
1070
     4
1070
   177
1070
     2
1070
   176
1070
     2
1070
   178
1070
     2
1070
    78
1070
     8
1070
    48
1040
-0.1
1070
    41
1040
3.5
1070
   147
1040
1.5
1070
    42
1040
1.5875
1070
    44
1040
2.0
1070
   140
1040
3.0
1002
}
1001
ACAD_DSTYLE_DIM_LINETYPE
1070
   380
1005
16
1001
ACAD_DSTYLE_DIM_EXT1_LINETYPE
1070
   381
1005
16
1001
ACAD_DSTYLE_DIM_EXT2_LINETYPE
1070
   382
1005
16
0
ENDSEC
0
SECTION
2
OBJECTS
0
DICTIONARY
5
239
330
0
100
AcDbDictionary
280
0
281
1
3
ACAD_GROUP
350
23a
3
ACAD_MLINESTYLE
350
23b
0
DICTIONARY
5
23a
330
0
100
AcDbDictionary
280
0
281
1
0
DICTIONARY
5
23b
330
0
100
AcDbDictionary
280
0
281
1
3
Standard
350
18
0
MLINESTYLE
5
18
330
23b
100
AcDbMlineStyle
2
Standard
70
0
3

62
256
51
90
52
90
71
2
49
-0.5
62
256
6
ByLayer
49
0.5
62
256
6
ByLayer
0
RASTERVARIABLES
5
227
330

100
AcDbRasterVariables
90
0
70
1
71
1
72
1
0
ENDSEC
0
EOF
