0
SECTION
2
HEADER
9
$ACADVER
1
AC1015
9
$DWGCODEPAGE
3
ANSI_1252
9
$HANDSEED
5
242
9
$ANGBASE
50
0
9
$ANGDIR
70
0
9
$ATTMODE
70
1
9
$AUNITS
70
0
9
$AUPREC
70
0
9
$CECOLOR
62
256
9
$CELTSCALE
40
1
9
$CELTYPE
6
ByLayer
9
$CELWEIGHT
370
18
9
$CLAYER
8
0
9
$CMLJUST
70
0
9
$CMLSCALE
40
1
9
$CMLSTYLE
2
Standard
9
$DIMSTYLE
2
Standard
9
$TEXTSIZE
40
0.2
9
$TEXTSTYLE
7
Standard
9
$LUNITS
70
2
9
$LUPREC
70
4
9
$EXTNAMES
290
1
9
$INSUNITS
70
4
9
$LTSCALE
40
1
9
$LWDISPLAY
290
1
9
$PDMODE
70
0
9
$PDSIZE
40
0
9
$PLINEGEN
70
0
0
ENDSEC
0
SECTION
2
CLASSES
0
CLASS
1
RASTERVARIABLES
2
AcDbRasterVariables
3
ISM
90
0
280
0
281
0
0
ENDSEC
0
SECTION
2
TABLES
0
TABLE
2
VPORT
5
238
100
AcDbSymbolTable
0
VPORT
5
1
100
AcDbSymbolTableRecord
100
AcDbViewportTableRecord
2
*Active
70
0
10
0
20
0
11
1
21
1
12
-1
22
1
13
0
23
0
14
0.5
24
0.5
15
10
25
10
16
0
26
0
36
1
17
0
27
0
37
0
0
ENDTAB
0
TABLE
2
LTYPE
5
239
100
AcDbSymbolTable
0
LTYPE
5
14
100
AcDbSymbolTableRecord
100
AcDbLinetypeTableRecord
70
0
2
ByBlock
3

72
65
73
0
40
0
0
LTYPE
5
15
100
AcDbSymbolTableRecord
100
AcDbLinetypeTableRecord
70
0
2
ByLayer
3

72
65
73
0
40
0
0
LTYPE
5
16
100
AcDbSymbolTableRecord
100
AcDbLinetypeTableRecord
70
0
2
Continuous
3
Solid line
72
65
73
0
40
0
0
LTYPE
5
6E
100
AcDbSymbolTableRecord
100
AcDbLinetypeTableRecord
70
0
2
CENTER
3
____ _ ____ _ ____ _ ____
72
65
73
4
40
47.5
49
22
74
0
49
-8.5
74
0
49
8.5
74
0
49
-8.5
74
0
0
LTYPE
5
6F
100
AcDbSymbolTableRecord
100
AcDbLinetypeTableRecord
70
0
2
DASHED
3
__ __ __ __ __ __ __ __ __
72
65
73
2
40
25.72
49
12.86
74
0
49
-12.86
74
0
0
ENDTAB
0
TABLE
2
LAYER
5
23a
100
AcDbSymbolTable
0
LAYER
5
10
100
AcDbSymbolTableRecord
100
AcDbLayerTableRecord
2
0
70
0
62
7
6
Continuous
290
1
370
-3
390
0
0
LAYER
5
71
100
AcDbSymbolTableRecord
100
AcDbLayerTableRecord
2
81
70
0
62
-3
6
Continuous
290
1
370
-3
390
0
0
LAYER
5
73
100
AcDbSymbolTableRecord
100
AcDbLayerTableRecord
2
80
70
0
62
-6
6
Continuous
290
1
370
-3
390
0
0
LAYER
5
75
100
AcDbSymbolTableRecord
100
AcDbLayerTableRecord
2
1
70
0
62
4
6
Continuous
290
1
370
-3
390
0
0
LAYER
5
7F
100
AcDbSymbolTableRecord
100
AcDbLayerTableRecord
2
4
70
0
62
-2
6
CENTER
290
1
370
-3
390
0
0
LAYER
5
B1
100
AcDbSymbolTableRecord
100
AcDbLayerTableRecord
2
2
70
0
62
7
6
Continuous
290
1
370
-3
390
0
0
LAYER
5
167
100
AcDbSymbolTableRecord
100
AcDbLayerTableRecord
2
Defpoints
70
0
62
7
6
Continuous
290
0
370
-3
390
0
0
LAYER
5
224
100
AcDbSymbolTableRecord
100
AcDbLayerTableRecord
2
SK4
70
0
62
2
6
CENTER
290
1
370
-3
390
0
0
LAYER
5
225
100
AcDbSymbolTableRecord
100
AcDbLayerTableRecord
2
SK1
70
0
62
4
6
Continuous
290
1
370
-3
390
0
0
LAYER
5
226
100
AcDbSymbolTableRecord
100
AcDbLayerTableRecord
2
SK2
70
0
62
7
6
Continuous
290
1
370
-3
390
0
0
LAYER
5
227
100
AcDbSymbolTableRecord
100
AcDbLayerTableRecord
2
SK6
70
0
62
5
6
Continuous
290
1
370
-3
390
0
0
ENDTAB
0
TABLE
2
STYLE
5
23b
100
AcDbSymbolTable
0
STYLE
5
11
100
AcDbSymbolTableRecord
100
AcDbTextStyleTableRecord
2
Standard
3
txt
70
0
71
0
40
0
41
1
42
0
50
0
0
STYLE
5
143
100
AcDbSymbolTableRecord
100
AcDbTextStyleTableRecord
2
iso_b_vert
3
simplex.shx
70
0
71
0
40
0
41
1
42
0
50
0
0
STYLE
5
144
100
AcDbSymbolTableRecord
100
AcDbTextStyleTableRecord
2
DWGDirectTextStyle
3
simplex
70
0
71
0
40
0
41
1
42
0
50
0
0
ENDTAB
0
TABLE
2
DIMSTYLE
5
23c
100
AcDbSymbolTable
100
AcDbDimStyleTable
0
DIMSTYLE
105
27
100
AcDbSymbolTableRecord
100
AcDbDimStyleTableRecord
2
Standard
70
0
3
<>
41
0.18
42
0.0625
44
0.18
140
0.18
147
0.09
73
0
74
0
77
1
271
2
275
0
278
52
280
0
340
11
0
ENDTAB
0
TABLE
2
VIEW
5
23d
100
AcDbSymbolTable
0
ENDTAB
0
TABLE
2
UCS
5
23e
100
AcDbSymbolTable
0
ENDTAB
0
TABLE
2
APPID
5
23f
100
AcDbSymbolTable
0
APPID
5
12
100
AcDbSymbolTableRecord
100
AcDbRegAppTableRecord
2
ACAD
70
0
0
APPID
5
163
100
AcDbSymbolTableRecord
100
AcDbRegAppTableRecord
2
ACAD_DSTYLE_DIMBREAK
70
0
0
APPID
5
1E3
100
AcDbSymbolTableRecord
100
AcDbRegAppTableRecord
2
ACAD_DSTYLE_DIM_LINETYPE
70
0
0
APPID
5
1E4
100
AcDbSymbolTableRecord
100
AcDbRegAppTableRecord
2
ACAD_DSTYLE_DIM_EXT1_LINETYPE
70
0
0
APPID
5
1E5
100
AcDbSymbolTableRecord
100
AcDbRegAppTableRecord
2
ACAD_DSTYLE_DIM_EXT2_LINETYPE
70
0
0
APPID
5
220
100
AcDbSymbolTableRecord
100
AcDbRegAppTableRecord
2
ACAD_MLEADERVER
70
0
0
ENDTAB
0
TABLE
2
BLOCK_RECORD
5
240
100
AcDbSymbolTable
0
BLOCK_RECORD
5
1F
100
AcDbSymbolTableRecord
100
AcDbBlockTableRecord
2
*Model_Space
340
0
70
0
0
BLOCK_RECORD
5
1B
100
AcDbSymbolTableRecord
100
AcDbBlockTableRecord
2
*Paper_Space
340
0
70
0
0
BLOCK_RECORD
5
23
100
AcDbSymbolTableRecord
100
AcDbBlockTableRecord
2
*Paper_Space0
340
0
70
0
0
BLOCK_RECORD
5
168
100
AcDbSymbolTableRecord
100
AcDbBlockTableRecord
2
*D1
340
0
70
0
0
BLOCK_RECORD
5
174
100
AcDbSymbolTableRecord
100
AcDbBlockTableRecord
2
_U0
340
0
70
0
0
BLOCK_RECORD
5
180
100
AcDbSymbolTableRecord
100
AcDbBlockTableRecord
2
*D3
340
0
70
0
0
BLOCK_RECORD
5
18C
100
AcDbSymbolTableRecord
100
AcDbBlockTableRecord
2
_U1
340
0
70
0
0
BLOCK_RECORD
5
198
100
AcDbSymbolTableRecord
100
AcDbBlockTableRecord
2
*D5
340
0
70
0
0
BLOCK_RECORD
5
1A4
100
AcDbSymbolTableRecord
100
AcDbBlockTableRecord
2
_U2
340
0
70
0
0
BLOCK_RECORD
5
1B0
100
AcDbSymbolTableRecord
100
AcDbBlockTableRecord
2
*D7
340
0
70
0
0
BLOCK_RECORD
5
1BC
100
AcDbSymbolTableRecord
100
AcDbBlockTableRecord
2
_U3
340
0
70
0
0
ENDTAB
0
ENDSEC
0
SECTION
2
BLOCKS
0
BLOCK
5
20
100
AcDbEntity
8
0
100
AcDbBlockBegin
2
*Model_Space
70
0
10
0
20
0
30
0
3
*Model_Space
0
ENDBLK
5
21
100
AcDbEntity
8
0
100
AcDbBlockEnd
0
BLOCK
5
1C
100
AcDbEntity
8
0
100
AcDbBlockBegin
2
*Paper_Space
70
0
10
0
20
0
30
0
3
*Paper_Space
0
ENDBLK
5
1D
100
AcDbEntity
8
0
100
AcDbBlockEnd
0
BLOCK
5
24
100
AcDbEntity
8
0
100
AcDbBlockBegin
2
*Paper_Space0
70
0
10
0
20
0
30
0
3
*Paper_Space0
0
ENDBLK
5
25
100
AcDbEntity
8
0
100
AcDbBlockEnd
0
BLOCK
5
169
100
AcDbEntity
8
0
100
AcDbBlockBegin
2
*D1
70
1
10
0
20
0
30
0
3
*D1
0
LINE
5
16B
100
AcDbEntity
8
0
62
256
6
ByLayer
370
-2
48
1
60
0
100
AcDbLine
10
-60
20
-17.5875
30
0
11
-60
21
-47.952229
31
0
39
0
210
0
220
0
230
1
0
LINE
5
16C
100
AcDbEntity
8
0
62
256
6
ByLayer
370
-2
48
1
60
0
100
AcDbLine
10
110.2
20
-1.5875
30
0
11
110.2
21
-47.952229
31
0
39
0
210
0
220
0
230
1
0
LINE
5
16D
100
AcDbEntity
8
0
62
256
6
ByLayer
370
-2
48
1
60
0
100
AcDbLine
10
-56.5
20
-45.952229
30
0
11
106.7
21
-45.952229
31
0
39
0
210
0
220
0
230
1
0
SOLID
5
16E
100
AcDbEntity
8
0
62
256
6
ByLayer
370
-1
48
1
60
0
100
AcDbTrace
10
-56.5
20
-45.368896
30
0
11
-56.5
21
-46.535563
31
0
12
-60
22
-45.952229
32
0
13
-60
23
-45.952229
33
0
39
0
210
0
220
0
230
1
0
SOLID
5
16F
100
AcDbEntity
8
0
62
256
6
ByLayer
370
-1
48
1
60
0
100
AcDbTrace
10
106.7
20
-46.535563
30
0
11
106.7
21
-45.368896
31
0
12
110.2
22
-45.952229
32
0
13
110.2
23
-45.952229
33
0
39
0
210
0
220
0
230
1
0
MTEXT
5
170
100
AcDbEntity
8
0
62
256
6
ByLayer
370
18
48
1
60
0
100
AcDbMText
10
25.1
20
-39.952229
30
0
210
0
220
0
230
1
1
\A1;170.2
40
3
41
0
44
1
50
0
71
5
72
5
7
iso_b_vert
0
POINT
5
171
100
AcDbEntity
8
Defpoints
62
0
6
ByLayer
370
-1
48
1
60
0
100
AcDbPoint
10
-60
20
-16
30
0
39
0
210
0
220
0
230
1
50
360
0
POINT
5
172
100
AcDbEntity
8
Defpoints
62
0
6
ByLayer
370
-1
48
1
60
0
100
AcDbPoint
10
110.2
20
0
30
0
39
0
210
0
220
0
230
1
50
360
0
POINT
5
173
100
AcDbEntity
8
Defpoints
62
0
6
ByLayer
370
-1
48
1
60
0
100
AcDbPoint
10
110.2
20
-45.952229
30
0
39
0
210
0
220
0
230
1
50
360
0
ENDBLK
5
16A
100
AcDbEntity
8
0
100
AcDbBlockEnd
0
BLOCK
5
17B
100
AcDbEntity
8
0
100
AcDbBlockBegin
2
_U0
70
0
10
0
20
0
30
0
3
_U0
0
MTEXT
5
175
100
AcDbEntity
8
SK2
62
256
6
ByLayer
370
18
48
1
60
0
100
AcDbMText
10
19.871658
20
-45.067115
30
0
210
0
220
0
230
1
1
\W0.7022;170.20
40
3
41
0
44
1.084337
50
0
71
7
72
5
7
iso_b_vert
0
LINE
5
176
100
AcDbEntity
8
SK2
62
256
6
ByLayer
370
13
48
1
60
0
100
AcDbLine
10
-60
20
-17.5875
30
0
11
-60
21
-47.952229
31
0
39
0
210
0
220
0
230
1
0
LINE
5
177
100
AcDbEntity
8
SK2
62
256
6
ByLayer
370
13
48
1
60
0
100
AcDbLine
10
110.2
20
-1.5875
30
0
11
110.2
21
-47.952229
31
0
39
0
210
0
220
0
230
1
0
LINE
5
178
100
AcDbEntity
8
SK2
62
256
6
ByLayer
370
13
48
1
60
0
100
AcDbLine
10
-60
20
-45.952229
30
0
11
110.2
21
-45.952229
31
0
39
0
210
0
220
0
230
1
0
SOLID
5
179
100
AcDbEntity
8
SK2
62
256
6
ByLayer
370
18
48
1
60
0
100
AcDbTrace
10
-60
20
-45.952229
30
0
11
-56.500002
21
-45.491446
31
0
12
-56.499998
22
-46.413013
32
0
13
-56.499998
23
-46.413013
33
0
39
0
210
0
220
0
230
1
0
SOLID
5
17A
100
AcDbEntity
8
SK2
62
256
6
ByLayer
370
18
48
1
60
0
100
AcDbTrace
10
110.2
20
-45.952229
30
0
11
106.700002
21
-46.413013
31
0
12
106.699998
22
-45.491446
32
0
13
106.699998
23
-45.491446
33
0
39
0
210
0
220
0
230
1
0
ENDBLK
5
17C
100
AcDbEntity
8
0
100
AcDbBlockEnd
0
BLOCK
5
181
100
AcDbEntity
8
0
100
AcDbBlockBegin
2
*D3
70
1
10
0
20
0
30
0
3
*D3
0
LINE
5
183
100
AcDbEntity
8
0
62
256
6
ByLayer
370
-2
48
1
60
0
100
AcDbLine
10
110.2
20
-1.5875
30
0
11
110.2
21
-37.952229
31
0
39
0
210
0
220
0
230
1
0
LINE
5
184
100
AcDbEntity
8
0
62
256
6
ByLayer
370
-2
48
1
60
0
100
AcDbLine
10
3
20
-13.5875
30
0
11
3
21
-37.952229
31
0
39
0
210
0
220
0
230
1
0
LINE
5
185
100
AcDbEntity
8
0
62
256
6
ByLayer
370
-2
48
1
60
0
100
AcDbLine
10
106.7
20
-35.952229
30
0
11
6.5
21
-35.952229
31
0
39
0
210
0
220
0
230
1
0
SOLID
5
186
100
AcDbEntity
8
0
62
256
6
ByLayer
370
-1
48
1
60
0
100
AcDbTrace
10
106.7
20
-36.535563
30
0
11
106.7
21
-35.368896
31
0
12
110.2
22
-35.952229
32
0
13
110.2
23
-35.952229
33
0
39
0
210
0
220
0
230
1
0
SOLID
5
187
100
AcDbEntity
8
0
62
256
6
ByLayer
370
-1
48
1
60
0
100
AcDbTrace
10
6.5
20
-35.368896
30
0
11
6.5
21
-36.535563
31
0
12
3
22
-35.952229
32
0
13
3
23
-35.952229
33
0
39
0
210
0
220
0
230
1
0
MTEXT
5
188
100
AcDbEntity
8
0
62
256
6
ByLayer
370
18
48
1
60
0
100
AcDbMText
10
56.6
20
-29.952229
30
0
210
0
220
0
230
1
1
\A1;107.2
40
3
41
0
44
1
50
0
71
5
72
5
7
iso_b_vert
0
POINT
5
189
100
AcDbEntity
8
Defpoints
62
0
6
ByLayer
370
-1
48
1
60
0
100
AcDbPoint
10
110.2
20
0
30
0
39
0
210
0
220
0
230
1
50
360
0
POINT
5
18A
100
AcDbEntity
8
Defpoints
62
0
6
ByLayer
370
-1
48
1
60
0
100
AcDbPoint
10
3
20
-12
30
0
39
0
210
0
220
0
230
1
50
360
0
POINT
5
18B
100
AcDbEntity
8
Defpoints
62
0
6
ByLayer
370
-1
48
1
60
0
100
AcDbPoint
10
3
20
-35.952229
30
0
39
0
210
0
220
0
230
1
50
360
0
ENDBLK
5
182
100
AcDbEntity
8
0
100
AcDbBlockEnd
0
BLOCK
5
193
100
AcDbEntity
8
0
100
AcDbBlockBegin
2
_U1
70
0
10
0
20
0
30
0
3
_U1
0
MTEXT
5
18D
100
AcDbEntity
8
SK2
62
256
6
ByLayer
370
18
48
1
60
0
100
AcDbMText
10
51.371658
20
-35.067115
30
0
210
0
220
0
230
1
1
\W0.7022;107.20
40
3
41
0
44
1.084337
50
0
71
7
72
5
7
iso_b_vert
0
LINE
5
18E
100
AcDbEntity
8
SK2
62
256
6
ByLayer
370
13
48
1
60
0
100
AcDbLine
10
110.2
20
-1.5875
30
0
11
110.2
21
-37.952229
31
0
39
0
210
0
220
0
230
1
0
LINE
5
18F
100
AcDbEntity
8
SK2
62
256
6
ByLayer
370
13
48
1
60
0
100
AcDbLine
10
3
20
-13.5875
30
0
11
3
21
-37.952229
31
0
39
0
210
0
220
0
230
1
0
LINE
5
190
100
AcDbEntity
8
SK2
62
256
6
ByLayer
370
13
48
1
60
0
100
AcDbLine
10
110.2
20
-35.952229
30
0
11
3
21
-35.952229
31
0
39
0
210
0
220
0
230
1
0
SOLID
5
191
100
AcDbEntity
8
SK2
62
256
6
ByLayer
370
18
48
1
60
0
100
AcDbTrace
10
110.2
20
-35.952229
30
0
11
106.700002
21
-36.413013
31
0
12
106.699998
22
-35.491446
32
0
13
106.699998
23
-35.491446
33
0
39
0
210
0
220
0
230
1
0
SOLID
5
192
100
AcDbEntity
8
SK2
62
256
6
ByLayer
370
18
48
1
60
0
100
AcDbTrace
10
3
20
-35.952229
30
0
11
6.499998
21
-35.491446
31
0
12
6.500002
22
-36.413013
32
0
13
6.500002
23
-36.413013
33
0
39
0
210
0
220
0
230
1
0
ENDBLK
5
194
100
AcDbEntity
8
0
100
AcDbBlockEnd
0
BLOCK
5
199
100
AcDbEntity
8
0
100
AcDbBlockBegin
2
*D5
70
1
10
0
20
0
30
0
3
*D5
0
LINE
5
19B
100
AcDbEntity
8
0
62
256
6
ByLayer
370
-2
48
1
60
0
100
AcDbLine
10
-60
20
-17.5875
30
0
11
-60
21
-37.952229
31
0
39
0
210
0
220
0
230
1
0
LINE
5
19C
100
AcDbEntity
8
0
62
256
6
ByLayer
370
-2
48
1
60
0
100
AcDbLine
10
0
20
-17.5875
30
0
11
0
21
-37.952229
31
0
39
0
210
0
220
0
230
1
0
LINE
5
19D
100
AcDbEntity
8
0
62
256
6
ByLayer
370
-2
48
1
60
0
100
AcDbLine
10
-56.5
20
-35.952229
30
0
11
-3.5
21
-35.952229
31
0
39
0
210
0
220
0
230
1
0
SOLID
5
19E
100
AcDbEntity
8
0
62
256
6
ByLayer
370
-1
48
1
60
0
100
AcDbTrace
10
-56.5
20
-35.368896
30
0
11
-56.5
21
-36.535563
31
0
12
-60
22
-35.952229
32
0
13
-60
23
-35.952229
33
0
39
0
210
0
220
0
230
1
0
SOLID
5
19F
100
AcDbEntity
8
0
62
256
6
ByLayer
370
-1
48
1
60
0
100
AcDbTrace
10
-3.5
20
-36.535563
30
0
11
-3.5
21
-35.368896
31
0
12
0
22
-35.952229
32
0
13
0
23
-35.952229
33
0
39
0
210
0
220
0
230
1
0
MTEXT
5
1A0
100
AcDbEntity
8
0
62
256
6
ByLayer
370
18
48
1
60
0
100
AcDbMText
10
-30
20
-29.952229
30
0
210
0
220
0
230
1
1
\A1;60
40
3
41
0
44
1
50
0
71
5
72
5
7
iso_b_vert
0
POINT
5
1A1
100
AcDbEntity
8
Defpoints
62
0
6
ByLayer
370
-1
48
1
60
0
100
AcDbPoint
10
-60
20
-16
30
0
39
0
210
0
220
0
230
1
50
360
0
POINT
5
1A2
100
AcDbEntity
8
Defpoints
62
0
6
ByLayer
370
-1
48
1
60
0
100
AcDbPoint
10
0
20
-16
30
0
39
0
210
0
220
0
230
1
50
360
0
POINT
5
1A3
100
AcDbEntity
8
Defpoints
62
0
6
ByLayer
370
-1
48
1
60
0
100
AcDbPoint
10
0
20
-35.952229
30
0
39
0
210
0
220
0
230
1
50
360
0
ENDBLK
5
19A
100
AcDbEntity
8
0
100
AcDbBlockEnd
0
BLOCK
5
1AB
100
AcDbEntity
8
0
100
AcDbBlockBegin
2
_U2
70
0
10
0
20
0
30
0
3
_U2
0
MTEXT
5
1A5
100
AcDbEntity
8
SK2
62
256
6
ByLayer
370
18
48
1
60
0
100
AcDbMText
10
-34.48237
20
-35.067115
30
0
210
0
220
0
230
1
1
\W0.7468;60.00
40
3
41
0
44
1.084337
50
0
71
7
72
5
7
iso_b_vert
0
LINE
5
1A6
100
AcDbEntity
8
SK2
62
256
6
ByLayer
370
13
48
1
60
0
100
AcDbLine
10
-60
20
-17.5875
30
0
11
-60
21
-37.952229
31
0
39
0
210
0
220
0
230
1
0
LINE
5
1A7
100
AcDbEntity
8
SK2
62
256
6
ByLayer
370
13
48
1
60
0
100
AcDbLine
10
0
20
-17.5875
30
0
11
0
21
-37.952229
31
0
39
0
210
0
220
0
230
1
0
LINE
5
1A8
100
AcDbEntity
8
SK2
62
256
6
ByLayer
370
13
48
1
60
0
100
AcDbLine
10
-60
20
-35.952229
30
0
11
0
21
-35.952229
31
0
39
0
210
0
220
0
230
1
0
SOLID
5
1A9
100
AcDbEntity
8
SK2
62
256
6
ByLayer
370
18
48
1
60
0
100
AcDbTrace
10
-60
20
-35.952229
30
0
11
-56.500002
21
-35.491446
31
0
12
-56.499998
22
-36.413013
32
0
13
-56.499998
23
-36.413013
33
0
39
0
210
0
220
0
230
1
0
SOLID
5
1AA
100
AcDbEntity
8
SK2
62
256
6
ByLayer
370
18
48
1
60
0
100
AcDbTrace
10
0
20
-35.952229
30
0
11
-3.499998
21
-36.413013
31
0
12
-3.500002
22
-35.491446
32
0
13
-3.500002
23
-35.491446
33
0
39
0
210
0
220
0
230
1
0
ENDBLK
5
1AC
100
AcDbEntity
8
0
100
AcDbBlockEnd
0
BLOCK
5
1B1
100
AcDbEntity
8
0
100
AcDbBlockBegin
2
*D7
70
1
10
0
20
0
30
0
3
*D7
0
LINE
5
1B3
100
AcDbEntity
8
0
62
256
6
ByLayer
370
-2
48
1
60
0
100
AcDbLine
10
110.2
20
1.5875
30
0
11
110.2
21
34.952229
31
0
39
0
210
0
220
0
230
1
0
LINE
5
1B4
100
AcDbEntity
8
0
62
256
6
ByLayer
370
-2
48
1
60
0
100
AcDbLine
10
24
20
13.5875
30
0
11
24
21
34.952229
31
0
39
0
210
0
220
0
230
1
0
LINE
5
1B5
100
AcDbEntity
8
0
62
256
6
ByLayer
370
-2
48
1
60
0
100
AcDbLine
10
106.7
20
32.952229
30
0
11
27.5
21
32.952229
31
0
39
0
210
0
220
0
230
1
0
SOLID
5
1B6
100
AcDbEntity
8
0
62
256
6
ByLayer
370
-1
48
1
60
0
100
AcDbTrace
10
106.7
20
32.368896
30
0
11
106.7
21
33.535563
31
0
12
110.2
22
32.952229
32
0
13
110.2
23
32.952229
33
0
39
0
210
0
220
0
230
1
0
SOLID
5
1B7
100
AcDbEntity
8
0
62
256
6
ByLayer
370
-1
48
1
60
0
100
AcDbTrace
10
27.5
20
33.535563
30
0
11
27.5
21
32.368896
31
0
12
24
22
32.952229
32
0
13
24
23
32.952229
33
0
39
0
210
0
220
0
230
1
0
MTEXT
5
1B8
100
AcDbEntity
8
0
62
256
6
ByLayer
370
18
48
1
60
0
100
AcDbMText
10
67.1
20
38.952229
30
0
210
0
220
0
230
1
1
\A1;86.2
40
3
41
0
44
1
50
0
71
5
72
5
7
iso_b_vert
0
POINT
5
1B9
100
AcDbEntity
8
Defpoints
62
0
6
ByLayer
370
-1
48
1
60
0
100
AcDbPoint
10
110.2
20
0
30
0
39
0
210
0
220
0
230
1
50
360
0
POINT
5
1BA
100
AcDbEntity
8
Defpoints
62
0
6
ByLayer
370
-1
48
1
60
0
100
AcDbPoint
10
24
20
12
30
0
39
0
210
0
220
0
230
1
50
360
0
POINT
5
1BB
100
AcDbEntity
8
Defpoints
62
0
6
ByLayer
370
-1
48
1
60
0
100
AcDbPoint
10
24
20
32.952229
30
0
39
0
210
0
220
0
230
1
50
360
0
ENDBLK
5
1B2
100
AcDbEntity
8
0
100
AcDbBlockEnd
0
BLOCK
5
1C3
100
AcDbEntity
8
0
100
AcDbBlockBegin
2
_U3
70
0
10
0
20
0
30
0
3
_U3
0
MTEXT
5
1BD
100
AcDbEntity
8
SK2
62
256
6
ByLayer
370
18
48
1
60
0
100
AcDbMText
10
62.61763
20
33.837344
30
0
210
0
220
0
230
1
1
\W0.7468;86.20
40
3
41
0
44
1.084337
50
0
71
7
72
5
7
iso_b_vert
0
LINE
5
1BE
100
AcDbEntity
8
SK2
62
256
6
ByLayer
370
13
48
1
60
0
100
AcDbLine
10
110.2
20
1.5875
30
0
11
110.2
21
34.952229
31
0
39
0
210
0
220
0
230
1
0
LINE
5
1BF
100
AcDbEntity
8
SK2
62
256
6
ByLayer
370
13
48
1
60
0
100
AcDbLine
10
24
20
13.5875
30
0
11
24
21
34.952229
31
0
39
0
210
0
220
0
230
1
0
LINE
5
1C0
100
AcDbEntity
8
SK2
62
256
6
ByLayer
370
13
48
1
60
0
100
AcDbLine
10
110.2
20
32.952229
30
0
11
24
21
32.952229
31
0
39
0
210
0
220
0
230
1
0
SOLID
5
1C1
100
AcDbEntity
8
SK2
62
256
6
ByLayer
370
18
48
1
60
0
100
AcDbTrace
10
110.2
20
32.952229
30
0
11
106.700002
21
32.491446
31
0
12
106.699998
22
33.413013
32
0
13
106.699998
23
33.413013
33
0
39
0
210
0
220
0
230
1
0
SOLID
5
1C2
100
AcDbEntity
8
SK2
62
256
6
ByLayer
370
18
48
1
60
0
100
AcDbTrace
10
24
20
32.952229
30
0
11
27.499998
21
33.413013
31
0
12
27.500002
22
32.491446
32
0
13
27.500002
23
32.491446
33
0
39
0
210
0
220
0
230
1
0
ENDBLK
5
1C4
100
AcDbEntity
8
0
100
AcDbBlockEnd
0
ENDSEC
0
SECTION
2
ENTITIES
0
ARC
5
C2
100
AcDbEntity
8
SK2
62
256
6
ByLayer
370
13
48
1
60
0
100
AcDbCircle
39
0
10
110.2
20
0
30
0
40
19
210
0
220
0
230
1
100
AcDbArc
50
290
51
70
0
ELLIPSE
5
C3
100
AcDbEntity
8
SK1
62
256
6
ByLayer
370
18
48
1
60
0
100
AcDbEllipse
10
375.907546
20
0
30
0
11
458.180052524353
21
-5.19163675692399E-13
31
0
210
0
220
0
230
1
40
0.034921
41
2.59367031451701
42
2.79796683129766
0
ELLIPSE
5
C4
100
AcDbEntity
8
SK1
62
256
6
ByLayer
370
18
48
1
60
0
100
AcDbEllipse
10
-29.157899
20
0
30
0
11
17.1578993603954
21
-1.94416104542868E-14
31
0
210
0
220
0
230
1
40
0.932515
41
-0.494065251162693
42
0.494065251162695
0
ELLIPSE
5
C5
100
AcDbEntity
8
SK1
62
256
6
ByLayer
370
18
48
1
60
0
100
AcDbEllipse
10
375.907546
20
0
30
0
11
458.180052528051
21
-5.19163675696589E-13
31
0
210
0
220
0
230
1
40
0.034921
41
-2.79796683129846
42
-2.59367031451889
0
ELLIPSE
5
C6
100
AcDbEntity
8
SK1
62
256
6
ByLayer
370
18
48
1
60
0
100
AcDbEllipse
10
-42.079759
20
0
30
0
11
-2.93905524917505E-15
21
-16.0000000000073
31
0
210
0
220
0
230
1
40
0.932515
41
-1.80249142112189
42
-1.3391012324679
0
POINT
5
70
100
AcDbEntity
8
81
62
256
6
ByLayer
370
18
48
1
60
0
100
AcDbPoint
10
110.2
20
0
30
0
39
0
210
0
220
0
230
1
50
360
0
POINT
5
72
100
AcDbEntity
8
80
62
256
6
ByLayer
370
18
48
1
60
0
100
AcDbPoint
10
0
20
0
30
0
39
0
210
0
220
0
230
1
50
360
0
POINT
5
74
100
AcDbEntity
8
1
62
256
6
ByLayer
370
18
48
1
60
1
100
AcDbPoint
10
-60
20
-16
30
0
39
0
210
0
220
0
230
1
50
360
0
POINT
5
76
100
AcDbEntity
8
1
62
256
6
ByLayer
370
18
48
1
60
1
100
AcDbPoint
10
110.2
20
0
30
0
39
0
210
0
220
0
230
1
50
360
0
POINT
5
77
100
AcDbEntity
8
1
62
256
6
ByLayer
370
18
48
1
60
1
100
AcDbPoint
10
110.2
20
0
30
0
39
0
210
0
220
0
230
1
50
360
0
POINT
5
78
100
AcDbEntity
8
1
62
256
6
ByLayer
370
18
48
1
60
1
100
AcDbPoint
10
3
20
-12
30
0
39
0
210
0
220
0
230
1
50
360
0
POINT
5
79
100
AcDbEntity
8
1
62
256
6
ByLayer
370
18
48
1
60
1
100
AcDbPoint
10
-60
20
-16
30
0
39
0
210
0
220
0
230
1
50
360
0
POINT
5
7A
100
AcDbEntity
8
1
62
256
6
ByLayer
370
18
48
1
60
1
100
AcDbPoint
10
0
20
-16
30
0
39
0
210
0
220
0
230
1
50
360
0
POINT
5
7B
100
AcDbEntity
8
1
62
256
6
ByLayer
370
18
48
1
60
1
100
AcDbPoint
10
110.2
20
0
30
0
39
0
210
0
220
0
230
1
50
360
0
POINT
5
7C
100
AcDbEntity
8
1
62
256
6
ByLayer
370
18
48
1
60
1
100
AcDbPoint
10
24
20
12
30
0
39
0
210
0
220
0
230
1
50
360
0
SPLINE
5
C7
100
AcDbEntity
8
1
62
256
6
ByLayer
370
18
48
1
60
0
100
AcDbSpline
70
4
71
3
72
14
73
10
40
0
40
0
40
0
40
0
40
0.2555747397959
40
0.2555747397959
40
0.5111494795918
40
0.5111494795918
40
0.766724219387701
40
0.766724219387701
40
1
40
1
40
1
40
1
41
1
10
94.8
20
-11.957673682183
30
0
41
1
10
95.0301055480107
20
-11.9645745546121
30
0
41
1
10
95.26013931245
20
-11.9706066373039
30
0
41
1
10
95.7200525200319
20
-11.9809265896204
30
0
41
1
10
95.9499225247829
20
-11.985215337396
30
0
41
1
10
96.4095527716069
20
-11.9920317567264
30
0
41
1
10
96.6393334415183
20
-11.9945565212793
30
0
41
1
10
97.0789043236622
20
-11.9976973790599
30
0
41
1
10
97.2886751547599
20
-11.9984627802107
30
0
41
1
10
97.4984479325961
20
-11.9984999022342
30
0
0
SPLINE
5
C8
100
AcDbEntity
8
1
62
256
6
ByLayer
370
18
48
1
60
0
100
AcDbSpline
70
4
71
3
72
138
73
134
40
0
40
0
40
0
40
0
40
0.0312499999999998
40
0.0312499999999998
40
0.0624999999999997
40
0.0624999999999997
40
0.0781249999999996
40
0.0781249999999996
40
0.0859374999999996
40
0.0859374999999996
40
0.0937499999999995
40
0.0937499999999995
40
0.109374999999999
40
0.109374999999999
40
0.124999999999998
40
0.124999999999998
40
0.140624999999998
40
0.140624999999998
40
0.156249999999997
40
0.156249999999997
40
0.164062499999997
40
0.164062499999997
40
0.171874999999997
40
0.171874999999997
40
0.187499999999997
40
0.187499999999997
40
0.203124999999997
40
0.203124999999997
40
0.218749999999997
40
0.218749999999997
40
0.234374999999997
40
0.234374999999997
40
0.242187499999996
40
0.242187499999996
40
0.249999999999996
40
0.249999999999996
40
0.281249999999998
40
0.281249999999998
40
0.296874999999999
40
0.296874999999999
40
0.304687499999999
40
0.304687499999999
40
0.3125
40
0.3125
40
0.320312500000001
40
0.320312500000001
40
0.328125000000001
40
0.328125000000001
40
0.343750000000003
40
0.343750000000003
40
0.375000000000006
40
0.375000000000006
40
0.390625000000007
40
0.390625000000007
40
0.398437500000008
40
0.398437500000008
40
0.406250000000008
40
0.406250000000008
40
0.437500000000013
40
0.437500000000013
40
0.453125000000015
40
0.453125000000015
40
0.468750000000016
40
0.468750000000016
40
0.476562500000017
40
0.476562500000017
40
0.484375000000018
40
0.484375000000018
40
0.500000000000019
40
0.500000000000019
40
0.515625000000021
40
0.515625000000021
40
0.531250000000022
40
0.531250000000022
40
0.546875000000024
40
0.546875000000024
40
0.554687500000025
40
0.554687500000025
40
0.562500000000026
40
0.562500000000026
40
0.593750000000028
40
0.593750000000028
40
0.609375000000029
40
0.609375000000029
40
0.62500000000003
40
0.62500000000003
40
0.63281250000003
40
0.63281250000003
40
0.640625000000031
40
0.640625000000031
40
0.65625000000003
40
0.65625000000003
40
0.687500000000028
40
0.687500000000028
40
0.703125000000027
40
0.703125000000027
40
0.710937500000026
40
0.710937500000026
40
0.718750000000024
40
0.718750000000024
40
0.750000000000022
40
0.750000000000022
40
0.765625000000021
40
0.765625000000021
40
0.781250000000019
40
0.781250000000019
40
0.789062500000019
40
0.789062500000019
40
0.796875000000018
40
0.796875000000018
40
0.812500000000017
40
0.812500000000017
40
0.843750000000014
40
0.843750000000014
40
0.859375000000013
40
0.859375000000013
40
0.867187500000012
40
0.867187500000012
40
0.875000000000011
40
0.875000000000011
40
0.89062500000001
40
0.89062500000001
40
0.906250000000009
40
0.906250000000009
40
0.937500000000006
40
0.937500000000006
40
0.945312500000005
40
0.945312500000005
40
0.953125000000004
40
0.953125000000004
40
0.968750000000003
40
0.968750000000003
40
1
40
1
40
1
40
1
41
1
10
19.6514512414486
20
8.39256629613371
30
0
41
1
10
20.4341639122326
20
8.19801188615349
30
0
41
1
10
21.2170748861359
20
7.99749898465598
30
0
41
1
10
22.7828307903434
20
7.58388680404357
30
0
41
1
10
23.5656809745403
20
7.37079741288238
30
0
41
1
10
24.7395946399234
20
7.04098191575551
30
0
41
1
10
25.130814378227
20
6.92928662084799
30
0
41
1
10
25.7176082004214
20
6.7592886053236
30
0
41
1
10
25.9132196914158
20
6.70225804006998
30
0
41
1
10
26.304558724728
20
6.58767755021233
30
0
41
1
10
26.5002756305953
20
6.53010338273162
30
0
41
1
10
27.0875465049363
20
6.35648435695546
30
0
41
1
10
27.4792444335123
20
6.23952338264223
30
0
41
1
10
28.2624299976525
20
6.00320794055006
30
0
41
1
10
28.6539750172696
20
5.88384405921889
30
0
41
1
10
29.4369213847001
20
5.64258822509393
30
0
41
1
10
29.8283215350252
20
5.5206933494114
30
0
41
1
10
30.6109236311429
20
5.27422664594303
30
0
41
1
10
31.0021023293716
20
5.14959535601125
30
0
41
1
10
31.5887669788817
20
4.96073597220573
30
0
41
1
10
31.7843230245973
20
4.89751082693033
30
0
41
1
10
32.1755322715366
20
4.77076224281933
30
0
41
1
10
32.3711748304959
20
4.70721181448741
30
0
41
1
10
32.9581943394425
20
4.51598043449022
30
0
41
1
10
33.3496582694467
20
4.38770726251474
30
0
41
1
10
34.1327626797617
20
4.12944826091183
30
0
41
1
10
34.5244463485602
20
3.9994564540975
30
0
41
1
10
35.3077645633125
20
3.73770725796697
30
0
41
1
10
35.6993126102543
20
3.60597521741596
30
0
41
1
10
36.4821341671895
20
3.34064899426306
30
0
41
1
10
36.8733862867323
20
3.20699640763118
30
0
41
1
10
37.4600956842208
20
3.00521239774488
30
0
41
1
10
37.6556544854534
20
2.93778013463688
30
0
41
1
10
38.0468494592821
20
2.80284673475967
30
0
41
1
10
38.2424752207467
20
2.73531729879141
30
0
41
1
10
39.2207090225602
20
2.39726121455354
30
0
41
1
10
40.0036035813231
20
2.12543472813374
30
0
41
1
10
41.1781120557516
20
1.71482458686228
30
0
41
1
10
41.5696421232095
20
1.57747358489795
30
0
41
1
10
42.1569399077324
20
1.37061218709681
30
0
41
1
10
42.3527197585928
20
1.30151438461635
30
0
41
1
10
42.7441692684273
20
1.16305850932685
30
0
41
1
10
42.9398403630479
20
1.09367987469923
30
0
41
1
10
43.3311203538048
20
0.954748574087319
30
0
41
1
10
43.5267371407249
20
0.885218179799011
30
0
41
1
10
43.918028194044
20
0.746321131685846
30
0
41
1
10
44.1136924034631
20
0.676926092256593
30
0
41
1
10
44.7007194008295
20
0.468840226331821
30
0
41
1
10
45.0921116560997
20
0.330234816557095
30
0
41
1
10
46.2663206609279
20
-0.0854814752774189
30
0
41
1
10
47.0491854796484
20
-0.362447767531364
30
0
41
1
10
48.2232619081798
20
-0.778502313895331
30
0
41
1
10
48.6145659968495
20
-0.917338577219709
30
0
41
1
10
49.201490980876
20
-1.12567631425645
30
0
41
1
10
49.3971421661261
20
-1.19509459194865
30
0
41
1
10
49.7885709147404
20
-1.33357302130852
30
0
41
1
10
49.9843455143832
20
-1.40266234973413
30
0
41
1
10
50.9631574359221
20
-1.74734985723208
30
0
41
1
10
51.7462051677745
20
-2.02083883964519
30
0
41
1
10
52.9204791350537
20
-2.42853369363203
30
0
41
1
10
53.3118537879961
20
-2.56400888243564
30
0
41
1
10
54.0944509521894
20
-2.83425010709629
30
0
41
1
10
54.4856574144244
20
-2.96905984730773
30
0
41
1
10
55.0723702057145
20
-3.17068520371007
30
0
41
1
10
55.2679385767823
20
-3.23775821002204
30
0
41
1
10
55.6591813109015
20
-3.37133217498518
30
0
41
1
10
55.8548468353469
20
-3.43785736246886
30
0
41
1
10
56.441953730024
20
-3.63671024650276
30
0
41
1
10
56.8335004567862
20
-3.76832894546789
30
0
41
1
10
57.6168143190063
20
-4.02984476003527
30
0
41
1
10
58.0084943051448
20
-4.15970254407807
30
0
41
1
10
58.7916037593155
20
-4.41766113266522
30
0
41
1
10
59.1830702817183
20
-4.54577842399115
30
0
41
1
10
59.9657744511476
20
-4.80041447990854
30
0
41
1
10
60.3569977165676
20
-4.92696983806169
30
0
41
1
10
60.9436713186566
20
-5.11555834920742
30
0
41
1
10
61.1392147751639
20
-5.17818156881469
30
0
41
1
10
61.5303866284778
20
-5.30266209452341
30
0
41
1
10
61.7260070725788
20
-5.3645399697958
30
0
41
1
10
62.7042451804818
20
-5.67221898860723
30
0
41
1
10
63.4872380012805
20
-5.91298074368831
30
0
41
1
10
64.6620277787081
20
-6.26683491689928
30
0
41
1
10
65.053728196178
20
-6.38358485905749
30
0
41
1
10
65.8367606803939
20
-6.61463320846451
30
0
41
1
10
66.2281108484737
20
-6.72897055969489
30
0
41
1
10
66.8149101619375
20
-6.89861718621557
30
0
41
1
10
67.010483702869
20
-6.95482930924913
30
0
41
1
10
67.4016945274721
20
-7.06631809988258
30
0
41
1
10
67.5973249040667
20
-7.121611096322
30
0
41
1
10
68.1842690412033
20
-7.28619350577048
30
0
41
1
10
68.5756308948917
20
-7.39419806244535
30
0
41
1
10
69.7498148425664
20
-7.71331123042702
30
0
41
1
10
70.5327536308465
20
-7.91949149558056
30
0
41
1
10
71.7070799429296
20
-8.21950272507081
30
0
41
1
10
72.0985002530877
20
-8.31798355495204
30
0
41
1
10
72.685600176629
20
-8.46335204706079
30
0
41
1
10
72.8812622164628
20
-8.51138415712543
30
0
41
1
10
73.2726278777604
20
-8.60637434216741
30
0
41
1
10
73.4683258970445
20
-8.65334413955051
30
0
41
1
10
74.4468558400953
20
-8.88565430010871
30
0
41
1
10
75.2297738485307
20
-9.06346020222495
30
0
41
1
10
76.4039869938942
20
-9.31876091799785
30
0
41
1
10
76.7953643256959
20
-9.40195547165177
30
0
41
1
10
77.5780126839163
20
-9.56459809957252
30
0
41
1
10
77.9692740453215
20
-9.64406132982336
30
0
41
1
10
78.5560807267965
20
-9.76041857546474
30
0
41
1
10
78.7516781735672
20
-9.79871564327016
30
0
41
1
10
79.1429822001569
20
-9.87415013379169
30
0
41
1
10
79.3386846256911
20
-9.91129482329995
30
0
41
1
10
79.925920802724
20
-10.0210547418568
30
0
41
1
10
80.3176044117182
20
-10.0920079692367
30
0
41
1
10
81.4923619075335
20
-10.298264381113
30
0
41
1
10
82.2753822180457
20
-10.4269953708159
30
0
41
1
10
83.4493788366355
20
-10.6072855370207
30
0
41
1
10
83.8406132575203
20
-10.6652533919249
30
0
41
1
10
84.4273195253514
20
-10.7489708981407
30
0
41
1
10
84.6228725972552
20
-10.7763269812607
30
0
41
1
10
85.0140662994916
20
-10.8298102029376
30
0
41
1
10
85.2097044478207
20
-10.8559410594368
30
0
41
1
10
85.7967205603557
20
-10.9325366513949
30
0
41
1
10
86.1881953846508
20
-10.9812105622057
30
0
41
1
10
86.9713357829695
20
-11.0738780072036
30
0
41
1
10
87.3630627128587
20
-11.1178734177652
30
0
41
1
10
88.5379800080017
20
-11.2428338608739
30
0
41
1
10
89.3208498726771
20
-11.3168080291774
30
0
41
1
10
90.2987239554388
20
-11.397570096577
30
0
41
1
10
90.4942727013575
20
-11.4131285826097
30
0
41
1
10
90.8854368746459
20
-11.4429852703182
30
0
41
1
10
91.0810516733933
20
-11.4572849535796
30
0
41
1
10
91.6679720918201
20
-11.4983240791629
30
0
41
1
10
92.0593489939434
20
-11.5232074984914
30
0
41
1
10
93.2336617204656
20
-11.5905360296032
30
0
41
1
10
94.0168001155367
20
-11.625667839238
30
0
41
1
10
94.7999999999999
20
-11.6510555935097
30
0
0
SPLINE
5
C9
100
AcDbEntity
8
1
62
256
6
ByLayer
370
18
48
1
60
0
100
AcDbSpline
70
4
71
3
72
90
73
86
40
0
40
0
40
0
40
0
40
0.0099431453630826
40
0.0099431453630826
40
0.0205889179935868
40
0.0205889179935868
40
0.0631720085156065
40
0.0631720085156065
40
0.0844635537766162
40
0.0844635537766162
40
0.0951093264071212
40
0.0951093264071212
40
0.105755099037626
40
0.105755099037626
40
0.148338189559647
40
0.148338189559647
40
0.190921280081668
40
0.190921280081668
40
0.212212825342678
40
0.212212825342678
40
0.233504370603689
40
0.233504370603689
40
0.27608746112571
40
0.27608746112571
40
0.29737900638672
40
0.29737900638672
40
0.308024779017225
40
0.308024779017225
40
0.318670551647731
40
0.318670551647731
40
0.36125364216975
40
0.36125364216975
40
0.382545187430759
40
0.382545187430759
40
0.393190960061263
40
0.393190960061263
40
0.403836732691768
40
0.403836732691768
40
0.425128277952776
40
0.425128277952776
40
0.446419823213784
40
0.446419823213784
40
0.4890029137358
40
0.4890029137358
40
0.510294458996809
40
0.510294458996809
40
0.531586004257817
40
0.531586004257817
40
0.574169094779833
40
0.574169094779833
40
0.595460640040841
40
0.595460640040841
40
0.606106412671345
40
0.606106412671345
40
0.616752185301849
40
0.616752185301849
40
0.659335275823864
40
0.659335275823864
40
0.680626821084872
40
0.680626821084872
40
0.70191836634588
40
0.70191836634588
40
0.723209911606888
40
0.723209911606888
40
0.744501456867896
40
0.744501456867896
40
0.787084547389911
40
0.787084547389911
40
0.797730320020415
40
0.797730320020415
40
0.808376092650919
40
0.808376092650919
40
0.829667637911928
40
0.829667637911928
40
0.872250728433947
40
0.872250728433947
40
0.893542273694956
40
0.893542273694956
40
0.90418804632546
40
0.90418804632546
40
0.914833818955965
40
0.914833818955965
40
0.957416909477982
40
0.957416909477982
40
1
40
1
40
1
40
1
41
1
10
73.4059230574256
20
-8.63932247192901
30
0
41
1
10
73.2104471304347
20
-8.68623999700273
30
0
41
1
10
73.014966466828
20
-8.73272206173726
30
0
41
1
10
72.6100999321013
20
-8.82791513246792
30
0
41
1
10
72.4007137015661
20
-8.87656362929266
30
0
41
1
10
71.353568155191
20
-9.11697051772671
30
0
41
1
10
70.5159411658827
20
-9.3000641280249
30
0
41
1
10
69.2598684408418
20
-9.56118870950488
30
0
41
1
10
68.8412352993066
20
-9.64597789146615
30
0
41
1
10
68.2133973998044
20
-9.76980526810902
30
0
41
1
10
68.0041364923333
20
-9.8105210201887
30
0
41
1
10
67.5856547797941
20
-9.8908318455351
30
0
41
1
10
67.3764367490573
20
-9.93043048912111
30
0
41
1
10
66.3302489232843
20
-10.1253160021728
30
0
41
1
10
65.4927743288839
20
-10.2709938595604
30
0
41
1
10
63.8169286964433
20
-10.5423007893926
30
0
41
1
10
62.9793180151666
20
-10.6678162102964
30
0
41
1
10
61.7236840701807
20
-10.8409826379111
30
0
41
1
10
61.3053045646774
20
-10.8962190872378
30
0
41
1
10
60.4683085676712
20
-11.0011252848834
30
0
41
1
10
60.0497234576148
20
-11.0508362891678
30
0
41
1
10
58.7937476903207
20
-11.1918384947052
30
0
41
1
10
57.9561286324235
20
-11.2750091333886
30
0
41
1
10
56.699418023009
20
-11.3836055462398
30
0
41
1
10
56.2806424402743
20
-11.4170949228793
30
0
41
1
10
55.6527498396294
20
-11.4632293167914
30
0
41
1
10
55.44348980492
20
-11.4779213254427
30
0
41
1
10
55.024945356397
20
-11.5058791309271
30
0
41
1
10
54.8156620426119
20
-11.5191464302168
30
0
41
1
10
53.7691979376666
20
-11.5819471132096
30
0
41
1
10
52.9318767479015
20
-11.6208956958899
30
0
41
1
10
51.6758135861653
20
-11.6625384542639
30
0
41
1
10
51.2571134220607
20
-11.6736188592165
30
0
41
1
10
50.6290697824538
20
-11.6860193332866
30
0
41
1
10
50.4197227588128
20
-11.6894491159854
30
0
41
1
10
50.0010335323172
20
-11.6948943529624
30
0
41
1
10
49.7916963978137
20
-11.69690964257
30
0
41
1
10
49.1635970466218
20
-11.7008177678692
30
0
41
1
10
48.7448441480332
20
-11.7005709964485
30
0
41
1
10
47.9073791312261
20
-11.6944290059727
30
0
41
1
10
47.4886581037451
20
-11.6885343419375
30
0
41
1
10
46.2325616237592
20
-11.6624166655881
30
0
41
1
10
45.3952501947804
20
-11.633780064683
30
0
41
1
10
44.1396025093586
20
-11.573800313376
30
0
41
1
10
43.7211570963968
20
-11.5509352577162
30
0
41
1
10
42.8839265561587
20
-11.4996844839795
30
0
41
1
10
42.4651540504795
20
-11.4713029233548
30
0
41
1
10
41.2084073571291
20
-11.3779219416809
30
0
41
1
10
40.3707141265483
20
-11.3047607716211
30
0
41
1
10
39.1147601345687
20
-11.178580509224
30
0
41
1
10
38.6961979085611
20
-11.1337729393954
30
0
41
1
10
38.0685043578858
20
-11.0623931560987
30
0
41
1
10
37.8592975160772
20
-11.0379046554262
30
0
41
1
10
37.4408396931233
20
-10.9876224730134
30
0
41
1
10
37.2315825905107
20
-10.9618354354811
30
0
41
1
10
36.1851601811646
20
-10.8296827865558
30
0
41
1
10
35.3475915702086
20
-10.7136781888058
30
0
41
1
10
34.0907370977258
20
-10.5241683602158
30
0
41
1
10
33.6718531381465
20
-10.4584322063128
30
0
41
1
10
32.834410094315
20
-10.3217892835234
30
0
41
1
10
32.4158509407744
20
-10.2508436438828
30
0
41
1
10
31.5789024713076
20
-10.1038779078003
30
0
41
1
10
31.1603967838607
20
-10.0280210800483
30
0
41
1
10
30.3232313319936
20
-9.8717325797422
30
0
41
1
10
29.9045901060773
20
-9.79127506892436
30
0
41
1
10
28.6485240190633
20
-9.54294216274297
30
0
41
1
10
27.8109536737906
20
-9.36812808565898
30
0
41
1
10
26.7639048602625
20
-9.13766557424592
30
0
41
1
10
26.5545241619872
20
-9.09097630263742
30
0
41
1
10
26.1359081730493
20
-8.99645462283149
30
0
41
1
10
25.9266530352662
20
-8.94862560704092
30
0
41
1
10
25.2989020369444
20
-8.80370368474405
30
0
41
1
10
24.8804444143132
20
-8.70513471641999
30
0
41
1
10
23.6252387461009
20
-8.4035471364212
30
0
41
1
10
22.7886504249683
20
-8.19467411438077
30
0
41
1
10
21.5342535031962
20
-7.86934158043283
30
0
41
1
10
21.1162046945991
20
-7.75888526856721
30
0
41
1
10
20.4892763539408
20
-7.59011913004264
30
0
41
1
10
20.2803273759958
20
-7.5333430327436
30
0
41
1
10
19.862400448517
20
-7.41892768848175
30
0
41
1
10
19.6534118863416
20
-7.36131202029893
30
0
41
1
10
18.6083213787832
20
-7.07125337570398
30
0
41
1
10
17.7718162073976
20
-6.83279559446837
30
0
41
1
10
16.098096566952
20
-6.34278324913996
30
0
41
1
10
15.2608786009302
20
-6.09124032009657
30
0
41
1
10
14.4234364234702
20
-5.83270159221607
30
0
0
SPLINE
5
CA
100
AcDbEntity
8
1
62
256
6
ByLayer
370
18
48
1
60
0
100
AcDbSpline
70
4
71
3
72
20
73
16
40
0
40
0
40
0
40
0
40
0.249999999999997
40
0.249999999999997
40
0.312499999999998
40
0.312499999999998
40
0.374999999999998
40
0.374999999999998
40
0.5
40
0.5
40
0.750000000000003
40
0.750000000000003
40
0.875000000000002
40
0.875000000000002
40
1
40
1
40
1
40
1
41
1
10
105.83235718879
20
-1.71318286969705
30
0
41
1
10
104.911799153296
20
-1.38221026871793
30
0
41
1
10
103.991928224254
20
-1.0496801007927
30
0
41
1
10
102.843189373495
20
-0.631406629591822
30
0
41
1
10
102.613499288681
20
-0.547614032488127
30
0
41
1
10
102.154106967625
20
-0.380105650388202
30
0
41
1
10
101.924396612735
20
-0.296412276381062
30
0
41
1
10
101.235227669712
20
-0.0455012200676492
30
0
41
1
10
100.775733487867
20
0.121553750463193
30
0
41
1
10
99.3971594616491
20
0.622209985661385
30
0
41
1
10
98.4779793457307
20
0.955279047424085
30
0
41
1
10
97.0992942493838
20
1.45460094560457
30
0
41
1
10
96.6398124476779
20
1.62117508711231
30
0
41
1
10
95.7202772196367
20
1.95257634431601
30
0
41
1
10
95.2602553097687
20
2.11749054605593
30
0
41
1
10
94.8000000000003
20
2.28167629605991
30
0
0
SPLINE
5
CB
100
AcDbEntity
8
1
62
256
6
ByLayer
370
18
48
1
60
0
100
AcDbSpline
70
4
71
3
72
95
73
91
40
0
40
0
40
0
40
0
40
0.0312499999999977
40
0.0312499999999977
40
0.0624999999999955
40
0.0624999999999955
40
0.0937499999999932
40
0.0937499999999932
40
0.124999999999991
40
0.124999999999991
40
0.14062499999999
40
0.14062499999999
40
0.14843749999999
40
0.14843749999999
40
0.15624999999999
40
0.187499999999991
40
0.187499999999991
40
0.218749999999991
40
0.218749999999991
40
0.249999999999992
40
0.249999999999992
40
0.281249999999993
40
0.281249999999993
40
0.296874999999993
40
0.296874999999993
40
0.304687499999993
40
0.304687499999993
40
0.312499999999993
40
0.312499999999993
40
0.343749999999991
40
0.343749999999991
40
0.374999999999989
40
0.374999999999989
40
0.406249999999987
40
0.406249999999987
40
0.437499999999985
40
0.437499999999985
40
0.445312499999984
40
0.445312499999984
40
0.453124999999983
40
0.468749999999981
40
0.468749999999981
40
0.499999999999976
40
0.499999999999976
40
0.531249999999972
40
0.531249999999972
40
0.535156249999971
40
0.535156249999971
40
0.539062499999971
40
0.539062499999971
40
0.546874999999971
40
0.562499999999971
40
0.562499999999971
40
0.593749999999971
40
0.593749999999971
40
0.62499999999997
40
0.62499999999997
40
0.632812499999971
40
0.632812499999971
40
0.640624999999972
40
0.656249999999974
40
0.656249999999974
40
0.687499999999979
40
0.687499999999979
40
0.718749999999984
40
0.718749999999984
40
0.726562499999986
40
0.726562499999986
40
0.734374999999987
40
0.734374999999987
40
0.749999999999988
40
0.749999999999988
40
0.781249999999991
40
0.781249999999991
40
0.812499999999993
40
0.812499999999993
40
0.843749999999996
40
0.843749999999996
40
0.851562499999996
40
0.851562499999996
40
0.859374999999997
40
0.874999999999998
40
0.874999999999998
40
0.906249999999998
40
0.937499999999999
40
0.968749999999999
40
0.968749999999999
40
0.984375
40
0.984375
40
1
40
1
40
1
40
1
41
1
10
105.832357188806
20
11.6189263418964
30
0
41
1
10
105.907304954515
20
11.4331002674615
30
0
41
1
10
105.982370008514
20
11.2444820630958
30
0
41
1
10
106.132862723287
20
10.8620999536517
30
0
41
1
10
106.208290254541
20
10.6683350640299
30
0
41
1
10
106.35959772124
20
10.2759756334873
30
0
41
1
10
106.435477714884
20
10.07738054588
30
0
41
1
10
106.587743356874
20
9.67557982295853
30
0
41
1
10
106.664129272417
20
9.47237395529589
30
0
41
1
10
106.779096343812
20
9.16420742611638
30
0
41
1
10
106.817483053143
20
9.060924980001
30
0
41
1
10
106.875157119514
20
8.90516761851316
30
0
41
1
10
106.894410747072
20
8.85307343297461
30
0
41
1
10
106.932880601435
20
8.7487918629123
30
0
41
1
10
107.028913318527
20
8.48798435567875
30
0
41
1
10
107.124244790506
20
8.22666633766653
30
0
41
1
10
107.275817108701
20
7.80790152466955
30
0
41
1
10
107.35112538058
20
7.59819159699623
30
0
41
1
10
107.500618167318
20
7.17807163825535
30
0
41
1
10
107.574804928301
20
6.96766257614399
30
0
41
1
10
107.721738577197
20
6.54604054193902
30
0
41
1
10
107.794488127116
20
6.33482842503741
30
0
41
1
10
107.902131554848
20
6.01726676698402
30
0
41
1
10
107.937763934921
20
5.91128823832383
30
0
41
1
10
107.990766870038
20
5.75210761602315
30
0
41
1
10
108.008370127727
20
5.69898127581604
30
0
41
1
10
108.043360341668
20
5.59281333625754
30
0
41
1
10
108.060742063752
20
5.53978799347161
30
0
41
1
10
108.147047968948
20
5.27494246037324
30
0
41
1
10
108.214185127977
20
5.06396852295552
30
0
41
1
10
108.343416377859
20
4.64348109681052
30
0
41
1
10
108.405518977986
20
4.43396898526908
30
0
41
1
10
108.522793658842
20
4.01597111616769
30
0
41
1
10
108.577975681412
20
3.80748627064511
30
0
41
1
10
108.678565635353
20
3.39097901664931
30
0
41
1
10
108.723978132188
20
3.18295493459192
30
0
41
1
10
108.772101728949
20
2.92278084430049
30
0
41
1
10
108.781299703998
20
2.87068798428095
30
0
41
1
10
108.798710834419
20
2.76671595095309
30
0
41
1
10
108.823316386252
20
2.61130159267361
30
0
41
1
10
108.843123513586
20
2.45753894820015
30
0
41
1
10
108.875693854445
20
2.15230031268794
30
0
41
1
10
108.887946314302
20
1.95184613267631
30
0
41
1
10
108.891227914827
20
1.55772272019564
30
0
41
1
10
108.882237653529
20
1.36405672147092
30
0
41
1
10
108.860252984306
20
1.15056707401663
30
0
41
1
10
108.85764702198
20
1.12690704646894
30
0
41
1
10
108.85211167493
20
1.07971127328929
30
0
41
1
10
108.849179551348
20
1.05615572316083
30
0
41
1
10
108.839930845883
20
0.985881714948192
30
0
41
1
10
108.819618364219
20
0.846824665846952
30
0
41
1
10
108.794174555955
20
0.712185890240505
30
0
41
1
10
108.737297422782
20
0.448657895888886
30
0
41
1
10
108.691426020988
20
0.280627978856586
30
0
41
1
10
108.587905338728
20
-0.0407122778170219
30
0
41
1
10
108.530264831675
20
-0.194026962794936
30
0
41
1
10
108.45276462832
20
-0.376606257433735
30
0
41
1
10
108.436972260412
20
-0.412705231023011
30
0
41
1
10
108.404958544391
20
-0.483805522793858
30
0
41
1
10
108.356337998786
20
-0.588717826530313
30
0
41
1
10
108.306103370505
20
-0.688517508376805
30
0
41
1
10
108.203871504438
20
-0.881503305897382
30
0
41
1
10
108.133390019082
20
-1.00136077919851
30
0
41
1
10
107.989138448035
20
-1.22405705487361
30
0
41
1
10
107.915358648752
20
-1.32689270209218
30
0
41
1
10
107.821521457411
20
-1.4448128969095
30
0
41
1
10
107.802672204579
20
-1.46786447107351
30
0
41
1
10
107.764817057313
20
-1.51289817301924
30
0
41
1
10
107.745806612976
20
-1.53488377130074
30
0
41
1
10
107.68880215054
20
-1.59895159275618
30
0
41
1
10
107.650752424193
20
-1.63924714809147
30
0
41
1
10
107.536522504912
20
-1.75304595163468
30
0
41
1
10
107.460267243659
20
-1.81947592936444
30
0
41
1
10
107.307691300106
20
-1.93393291497281
30
0
41
1
10
107.231368248396
20
-1.98195805819964
30
0
41
1
10
107.078633068182
20
-2.05962153681764
30
0
41
1
10
107.002219857935
20
-2.08925991871396
30
0
41
1
10
106.906567555148
20
-2.11456462340215
30
0
41
1
10
106.887428596756
20
-2.11903588664032
30
0
41
1
10
106.849310750405
20
-2.12676264731209
30
0
41
1
10
106.792307372724
20
-2.13654783480433
30
0
41
1
10
106.735805606678
20
-2.14097773207419
30
0
41
1
10
106.623421620074
20
-2.142816821851
30
0
41
1
10
106.47522800353
20
-2.1265716102437
30
0
41
1
10
106.257114873496
20
-2.0470989876099
30
0
41
1
10
106.11397984995
20
-1.95729644535035
30
0
41
1
10
106.007288109385
20
-1.87582713563475
30
0
41
1
10
105.97195911415
20
-1.84640856088964
30
0
41
1
10
105.901806785431
20
-1.78313501165673
30
0
41
1
10
105.866971137623
20
-1.74927064270844
30
0
41
1
10
105.832357188806
20
-1.71318286970248
30
0
0
SPLINE
5
CC
100
AcDbEntity
8
1
62
256
6
ByLayer
370
18
48
1
60
0
100
AcDbSpline
70
4
71
3
72
18
73
14
40
0
40
0
40
0
40
0
40
0.0072183239065203
40
0.0072183239065203
40
0.338145549271031
40
0.338145549271031
40
0.503609161953287
40
0.503609161953287
40
0.58634096829441
40
0.58634096829441
40
0.669072774635533
40
0.669072774635533
40
1
40
1
40
1
40
1
41
1
10
97.498448321242
20
11.998499902303
30
0
41
1
10
97.5185004860146
20
11.9985034507086
30
0
41
1
10
97.5385526685754
20
11.9985003445115
30
0
41
1
10
98.4779064213284
20
11.9980433047857
30
0
41
1
10
99.3972161676346
20
11.9836615185018
30
0
41
1
10
100.775730476916
20
11.941198665153
30
0
41
1
10
101.235157771473
20
11.9235532673885
30
0
41
1
10
101.924120819154
20
11.8917658981106
30
0
41
1
10
102.153737713314
20
11.8802784803855
30
0
41
1
10
102.613068649833
20
11.8555818098308
30
0
41
1
10
102.842800089875
20
11.8423814390707
30
0
41
1
10
103.991756117182
20
11.7721402234716
30
0
41
1
10
104.911789669149
20
11.7023873070526
30
0
41
1
10
105.832357188791
20
11.6189263418977
30
0
0
SPLINE
5
CD
100
AcDbEntity
8
1
62
256
6
ByLayer
370
18
48
1
60
0
100
AcDbSpline
70
4
71
3
72
42
73
38
40
0
40
0
40
0
40
0
40
0.0120746436792372
40
0.0120746436792372
40
0.121844127714886
40
0.121844127714886
40
0.176728869732712
40
0.176728869732712
40
0.231613611750538
40
0.231613611750538
40
0.25905598275945
40
0.25905598275945
40
0.286498353768361
40
0.286498353768361
40
0.341383095786184
40
0.341383095786184
40
0.451152579821829
40
0.451152579821829
40
0.506037321839652
40
0.506037321839652
40
0.533479692848562
40
0.533479692848562
40
0.560922063857472
40
0.560922063857472
40
0.615806805875288
40
0.615806805875288
40
0.670691547893104
40
0.670691547893104
40
0.780461031928739
40
0.780461031928739
40
0.807903402937647
40
0.807903402937647
40
0.835345773946556
40
0.835345773946556
40
0.890230515964372
40
0.890230515964372
40
1
40
1
40
1
40
1
41
1
10
73.4057052149306
20
8.63817988370843
30
0
41
1
10
73.4918121523305
20
8.65882127856619
30
0
41
1
10
73.5779212475618
20
8.67936287679601
30
0
41
1
10
74.4468558400953
20
8.88565430010868
30
0
41
1
10
75.2297738485308
20
9.06346020222492
30
0
41
1
10
76.4039869938943
20
9.31876091799788
30
0
41
1
10
76.795364325696
20
9.40195547165175
30
0
41
1
10
77.5780126839163
20
9.56459809957252
30
0
41
1
10
77.9692740453215
20
9.64406132982336
30
0
41
1
10
78.5560807267965
20
9.76041857546471
30
0
41
1
10
78.7516781735672
20
9.79871564327016
30
0
41
1
10
79.142982200157
20
9.87415013379169
30
0
41
1
10
79.3386846256911
20
9.91129482329995
30
0
41
1
10
79.925920802724
20
10.0210547418568
30
0
41
1
10
80.3176044117182
20
10.0920079692367
30
0
41
1
10
81.4923619075335
20
10.298264381113
30
0
41
1
10
82.2753822180456
20
10.4269953708159
30
0
41
1
10
83.4493788366355
20
10.6072855370207
30
0
41
1
10
83.8406132575202
20
10.6652533919249
30
0
41
1
10
84.4273195253513
20
10.7489708981407
30
0
41
1
10
84.6228725972552
20
10.7763269812606
30
0
41
1
10
85.0140662994918
20
10.8298102029376
30
0
41
1
10
85.2097044478207
20
10.8559410594368
30
0
41
1
10
85.7967205603557
20
10.9325366513948
30
0
41
1
10
86.1881953846508
20
10.9812105622057
30
0
41
1
10
86.9713357829694
20
11.0738780072036
30
0
41
1
10
87.3630627128586
20
11.1178734177652
30
0
41
1
10
88.5379800080017
20
11.2428338608739
30
0
41
1
10
89.3208498726771
20
11.3168080291773
30
0
41
1
10
90.2987239554388
20
11.397570096577
30
0
41
1
10
90.4942727013574
20
11.4131285826097
30
0
41
1
10
90.8854368746458
20
11.4429852703182
30
0
41
1
10
91.0810516733933
20
11.4572849535796
30
0
41
1
10
91.6679720918201
20
11.4983240791629
30
0
41
1
10
92.0593489939434
20
11.5232074984914
30
0
41
1
10
93.2336617204656
20
11.5905360296033
30
0
41
1
10
94.0168001155366
20
11.625667839238
30
0
41
1
10
94.7999999999999
20
11.6510555935097
30
0
0
SPLINE
5
CE
100
AcDbEntity
8
1
62
256
6
ByLayer
370
18
48
1
60
0
100
AcDbSpline
70
4
71
3
72
72
73
68
40
0
40
0
40
0
40
0
40
0.0548576444203103
40
0.0548576444203103
40
0.0822864666304654
40
0.0822864666304654
40
0.0960008777355422
40
0.0960008777355422
40
0.109715288840619
40
0.109715288840619
40
0.164572933260921
40
0.164572933260921
40
0.192001755471072
40
0.192001755471072
40
0.205716166576148
40
0.205716166576148
40
0.219430577681223
40
0.219430577681223
40
0.274288222101522
40
0.274288222101522
40
0.329145866521821
40
0.329145866521821
40
0.356574688731972
40
0.356574688731972
40
0.384003510942122
40
0.384003510942122
40
0.438861155362422
40
0.438861155362422
40
0.466289977572573
40
0.466289977572573
40
0.480004388677647
40
0.480004388677647
40
0.493718799782721
40
0.493718799782721
40
0.548576444203018
40
0.548576444203018
40
0.576005266413165
40
0.576005266413165
40
0.589719677518238
40
0.589719677518238
40
0.603434088623312
40
0.603434088623312
40
0.658291733043608
40
0.658291733043608
40
0.713149377463904
40
0.713149377463904
40
0.740578199674052
40
0.740578199674052
40
0.7680070218842
40
0.7680070218842
40
0.822864666304497
40
0.822864666304497
40
0.850293488514645
40
0.850293488514645
40
0.86400789961972
40
0.86400789961972
40
0.877722310724794
40
0.877722310724794
40
0.93257995514509
40
0.93257995514509
40
0.960008777355238
40
0.960008777355238
40
0.973723188460312
40
0.973723188460312
40
0.987437599565386
40
0.987437599565386
40
1
40
1
40
1
40
1
41
1
10
94.8
20
2.11607446529132
30
0
41
1
10
93.962115519459
20
2.40815229213757
30
0
41
1
10
93.124487326983
20
2.69763131918566
30
0
41
1
10
91.8686084800675
20
3.12844356579078
30
0
41
1
10
91.4500898884325
20
3.27151578489492
30
0
41
1
10
90.8224297120906
20
3.48519675980543
30
0
41
1
10
90.6132171159468
20
3.55623614052681
30
0
41
1
10
90.1947212857967
20
3.69771023945609
30
0
41
1
10
89.9854463417938
20
3.76816746179199
30
0
41
1
10
88.9389451553324
20
4.11908217438398
30
0
41
1
10
88.1013406985821
20
4.39543500243883
30
0
41
1
10
86.8444747516598
20
4.80379564506532
30
0
41
1
10
86.4256407531945
20
4.93882729413511
30
0
41
1
10
85.7976118678359
20
5.13979078162618
30
0
41
1
10
85.5883052063112
20
5.2065150649369
30
0
41
1
10
85.1697657293041
20
5.33943648637037
30
0
41
1
10
84.9605326062787
20
5.40563242310128
30
0
41
1
10
83.9143178759751
20
5.73470450057545
30
0
41
1
10
83.0770873071342
20
5.99162188812227
30
0
41
1
10
81.4022996125024
20
6.49338072889594
30
0
41
1
10
80.5647409378513
20
6.73821960240065
30
0
41
1
10
79.3083403424021
20
7.09675095776782
30
0
41
1
10
78.8897471163856
20
7.21480389196043
30
0
41
1
10
78.052452298783
20
7.44672664344108
30
0
41
1
10
77.6337885677628
20
7.56070417478446
30
0
41
1
10
76.3777870941447
20
7.89681431607843
30
0
41
1
10
75.5404304489901
20
8.11311890062578
30
0
41
1
10
74.2845380782975
20
8.42626320668143
30
0
41
1
10
73.8659398742819
20
8.52877292148693
30
0
41
1
10
73.2380739910483
20
8.6796681886452
30
0
41
1
10
73.0287831359242
20
8.72947345745484
30
0
41
1
10
72.6100999321013
20
8.82791513246795
30
0
41
1
10
72.4007137015662
20
8.87656362929269
30
0
41
1
10
71.353568155191
20
9.11697051772668
30
0
41
1
10
70.5159411658828
20
9.30006412802493
30
0
41
1
10
69.2598684408418
20
9.5611887095049
30
0
41
1
10
68.8412352993066
20
9.64597789146617
30
0
41
1
10
68.2133973998044
20
9.76980526810902
30
0
41
1
10
68.0041364923333
20
9.8105210201887
30
0
41
1
10
67.5856547797941
20
9.8908318455351
30
0
41
1
10
67.3764367490573
20
9.93043048912111
30
0
41
1
10
66.3302489232844
20
10.1253160021728
30
0
41
1
10
65.4927743288839
20
10.2709938595604
30
0
41
1
10
63.8169286964433
20
10.5423007893926
30
0
41
1
10
62.9793180151666
20
10.6678162102964
30
0
41
1
10
61.7236840701807
20
10.8409826379111
30
0
41
1
10
61.3053045646774
20
10.8962190872377
30
0
41
1
10
60.4683085676712
20
11.0011252848834
30
0
41
1
10
60.0497234576148
20
11.0508362891678
30
0
41
1
10
58.7937476903207
20
11.1918384947052
30
0
41
1
10
57.9561286324236
20
11.2750091333886
30
0
41
1
10
56.699418023009
20
11.3836055462398
30
0
41
1
10
56.2806424402744
20
11.4170949228793
30
0
41
1
10
55.6527498396294
20
11.4632293167914
30
0
41
1
10
55.4434898049201
20
11.4779213254427
30
0
41
1
10
55.0249453563971
20
11.5058791309271
30
0
41
1
10
54.8156620426119
20
11.5191464302168
30
0
41
1
10
53.7691979376666
20
11.5819471132096
30
0
41
1
10
52.9318767479016
20
11.6208956958899
30
0
41
1
10
51.6758135861654
20
11.6625384542639
30
0
41
1
10
51.2571134220608
20
11.6736188592165
30
0
41
1
10
50.6290697824538
20
11.6860193332866
30
0
41
1
10
50.4197227588129
20
11.6894491159854
30
0
41
1
10
50.0010335323172
20
11.6948943529624
30
0
41
1
10
49.7916963978138
20
11.69690964257
30
0
41
1
10
49.3905502809536
20
11.6994056319147
30
0
41
1
10
49.1987664196736
20
11.7000006264156
30
0
41
1
10
49.0069822437268
20
11.7000000211058
30
0
0
SPLINE
5
CF
100
AcDbEntity
8
1
62
256
6
ByLayer
370
18
48
1
60
0
100
AcDbSpline
70
4
71
3
72
103
73
99
40
0
40
0
40
0
40
0
40
0.0624999999999914
40
0.0624999999999914
40
0.0937499999999864
40
0.0937499999999864
40
0.124999999999981
40
0.124999999999981
40
0.156249999999976
40
0.156249999999976
40
0.171874999999974
40
0.171874999999974
40
0.187499999999971
40
0.187499999999971
40
0.218749999999966
40
0.218749999999966
40
0.249999999999961
40
0.249999999999961
40
0.281249999999956
40
0.281249999999956
40
0.289062499999955
40
0.289062499999955
40
0.296874999999955
40
0.312499999999954
40
0.312499999999954
40
0.343749999999953
40
0.343749999999953
40
0.359374999999952
40
0.359374999999952
40
0.367187499999952
40
0.371093749999952
40
0.371093749999952
40
0.374999999999952
40
0.374999999999952
40
0.406249999999953
40
0.406249999999953
40
0.437499999999954
40
0.437499999999954
40
0.445312499999954
40
0.445312499999954
40
0.453124999999954
40
0.453124999999954
40
0.468749999999954
40
0.468749999999954
40
0.499999999999955
40
0.499999999999955
40
0.515624999999955
40
0.515624999999955
40
0.519531249999955
40
0.519531249999955
40
0.523437499999955
40
0.531249999999955
40
0.531249999999955
40
0.562499999999956
40
0.562499999999956
40
0.578124999999956
40
0.578124999999956
40
0.582031249999956
40
0.582031249999956
40
0.585937499999957
40
0.585937499999957
40
0.593749999999957
40
0.593749999999957
40
0.624999999999957
40
0.624999999999957
40
0.640624999999957
40
0.640624999999957
40
0.648437499999958
40
0.648437499999958
40
0.656249999999959
40
0.656249999999959
40
0.687499999999962
40
0.687499999999962
40
0.718749999999964
40
0.718749999999964
40
0.749999999999967
40
0.749999999999967
40
0.757812499999968
40
0.757812499999968
40
0.765624999999969
40
0.765624999999969
40
0.781249999999971
40
0.781249999999971
40
0.812499999999975
40
0.812499999999975
40
0.843749999999979
40
0.843749999999979
40
0.874999999999983
40
0.874999999999983
40
0.906249999999987
40
0.906249999999987
40
0.937499999999991
40
0.937499999999991
40
0.953124999999993
40
0.953124999999993
40
0.968749999999996
40
0.968749999999996
40
1
40
1
40
1
40
1
41
1
10
10
20
8.79734210810773
30
0
41
1
10
9.56613216660793
20
8.83648556933278
30
0
41
1
10
9.14190357541773
20
8.85516230924884
30
0
41
1
10
8.51963452393647
20
8.84834209242052
30
0
41
1
10
8.31456139982961
20
8.84024291538691
30
0
41
1
10
7.90910989445231
20
8.81140063956659
30
0
41
1
10
7.70873110834253
20
8.79066042819943
30
0
41
1
10
7.31271302009634
20
8.73526392511909
30
0
41
1
10
7.11707303773866
20
8.70061229010594
30
0
41
1
10
6.82725075852514
20
8.63694867364785
30
0
41
1
10
6.73125019162504
20
8.61377628149745
30
0
41
1
10
6.54048506164776
20
8.56326885992561
30
0
41
1
10
6.44626274049071
20
8.53607635932727
30
0
41
1
10
6.16715132707529
20
8.44848780588276
30
0
41
1
10
5.98578668996848
20
8.3820886650376
30
0
41
1
10
5.63271806254173
20
8.23185849353143
30
0
41
1
10
5.46101140178604
20
8.14803453298214
30
0
41
1
10
5.12773454534172
20
7.96100059679097
30
0
41
1
10
4.96615945053262
20
7.85780321575606
30
0
41
1
10
4.7710394723513
20
7.71495232600606
30
0
41
1
10
4.7323323454699
20
7.68566347826584
30
0
41
1
10
4.65601477420924
20
7.62595595139373
30
0
41
1
10
4.54304473320545
20
7.53460163877224
30
0
41
1
10
4.43462144191236
20
7.43777756219308
30
0
41
1
10
4.2239593129367
20
7.23653507288941
30
0
41
1
10
4.09173983933866
20
7.09227894795245
30
0
41
1
10
3.90660342626433
20
6.85907262347118
30
0
41
1
10
3.84709556601746
20
6.7785264088989
30
0
41
1
10
3.76130930723659
20
6.65319959580793
30
0
41
1
10
3.71928580366912
20
6.58940832642756
30
0
41
1
10
3.67860604944795
20
6.5238604473945
30
0
41
1
10
3.65178979564377
20
6.47976348833589
30
0
41
1
10
3.63852176423285
20
6.45749550077423
30
0
41
1
10
3.52084550602018
20
6.25585431001306
30
0
41
1
10
3.42833901217656
20
6.06763112710522
30
0
41
1
10
3.26834602531008
20
5.6721365026703
30
0
41
1
10
3.20084508422613
20
5.46487653614278
30
0
41
1
10
3.13343642356546
20
5.19266414489289
30
0
41
1
10
3.12080700176818
20
5.13756200446764
30
0
41
1
10
3.09730380265003
20
5.02599486612826
30
0
41
1
10
3.08650232571199
20
4.96986784303257
30
0
41
1
10
3.05697326473071
20
4.80070265347459
30
0
41
1
10
3.0410958184988
20
4.68677580517931
30
0
41
1
10
3.00479151918611
20
4.34155919331045
30
0
41
1
10
2.99564479953745
20
4.10684480416254
30
0
41
1
10
3.00497749436883
20
3.74777133643897
30
0
41
1
10
3.01194231232839
20
3.62691039497656
30
0
41
1
10
3.02560875336647
20
3.474334110472
30
0
41
1
10
3.02859443517005
20
3.44370690560672
30
0
41
1
10
3.03504167946917
20
3.38253315119195
30
0
41
1
10
3.04542558148788
20
3.29087902149661
30
0
41
1
10
3.05792327212524
20
3.19954088966526
30
0
41
1
10
3.10418365678979
20
2.8957697448129
30
0
41
1
10
3.1558611402626
20
2.65494962718623
30
0
41
1
10
3.25426409729406
20
2.29688320067001
30
0
41
1
10
3.29055726251838
20
2.1780568031092
30
0
41
1
10
3.34024518284801
20
2.03018326418615
30
0
41
1
10
3.35039900579679
20
2.00064155644753
30
0
41
1
10
3.37113868115839
20
1.94162419980452
30
0
41
1
10
3.38172891162284
20
1.91213781585134
30
0
41
1
10
3.41402725782524
20
1.82409803338081
30
0
41
1
10
3.43629865521109
20
1.76585959124065
30
0
41
1
10
3.55123715475727
20
1.47686680595922
30
0
41
1
10
3.65460724877573
20
1.25268484618644
30
0
41
1
10
3.82516213249809
20
0.9258558021167
30
0
41
1
10
3.88460536620283
20
0.818491951227401
30
0
41
1
10
3.97751365015333
20
0.659717923414405
30
0
41
1
10
4.00910731901351
20
0.607172082804652
30
0
41
1
10
4.0735227078039
20
0.502824153339873
30
0
41
1
10
4.10636281160555
20
0.450997892165361
30
0
41
1
10
4.272609282959
20
0.195158441887798
30
0
41
1
10
4.41285394719202
20
-0.0002247418819081
30
0
41
1
10
4.7059311295987
20
-0.375122805640388
30
0
41
1
10
4.85877357130684
20
-0.554624362564908
30
0
41
1
10
5.17563908995595
20
-0.899735494246187
30
0
41
1
10
5.33966763227292
20
-1.06533781406111
30
0
41
1
10
5.55096554274837
20
-1.26464792592026
30
0
41
1
10
5.59353865560556
20
-1.304124590182
30
0
41
1
10
5.67929509431016
20
-1.38232957890369
30
0
41
1
10
5.72250211815569
20
-1.42107780735694
30
0
41
1
10
5.85255810280151
20
-1.53583617613097
30
0
41
1
10
5.93997781972277
20
-1.61048840670483
30
0
41
1
10
6.20421286345007
20
-1.82935742196622
30
0
41
1
10
6.38300031987848
20
-1.96850071013151
30
0
41
1
10
6.74503351781888
20
-2.23535636774946
30
0
41
1
10
6.92828003618055
20
-2.36306494011376
30
0
41
1
10
7.29854328885335
20
-2.60873598845421
30
0
41
1
10
7.48555979802455
20
-2.72669708289138
30
0
41
1
10
7.8627790243589
20
-2.95422267023747
30
0
41
1
10
8.052980845609
20
-3.06378718476037
30
0
41
1
10
8.43610881846982
20
-3.27555053413542
30
0
41
1
10
8.62903372274124
20
-3.37775002425482
30
0
41
1
10
8.92023459544504
20
-3.52604945714745
30
0
41
1
10
9.01760514634466
20
-3.57464663345584
30
0
41
1
10
9.21293316318244
20
-3.67022342747055
30
0
41
1
10
9.31090118725552
20
-3.71720729941984
30
0
41
1
10
9.60526039002238
20
-3.85558977257307
30
0
41
1
10
9.80223685065087
20
-3.94449890758594
30
0
41
1
10
10
20
-4.03009521980951
30
0
0
SPLINE
5
D0
100
AcDbEntity
8
1
62
256
6
ByLayer
370
18
48
1
60
0
100
AcDbSpline
70
4
71
3
72
14
73
10
40
0
40
0
40
0
40
0
40
0.25
40
0.25
40
0.5
40
0.5
40
0.75
40
0.75
40
1
40
1
40
1
40
1
41
1
10
14.4234364234702
20
-5.83270159221604
30
0
41
1
10
14.0428648503982
20
-5.71158943678836
30
0
41
1
10
13.665849714078
20
-5.58252933336175
30
0
41
1
10
12.9175203064197
20
-5.31060340386139
30
0
41
1
10
12.5461975058741
20
-5.1677598035744
30
0
41
1
10
11.8088050371856
20
-4.86854494532514
30
0
41
1
10
11.4427366760443
20
-4.7121788418232
30
0
41
1
10
10.7165174986766
20
-4.38388522355967
30
0
41
1
10
10.3563743372744
20
-4.21195076749939
30
0
41
1
10
10
20
-4.03009521980951
30
0
0
SPLINE
5
D1
100
AcDbEntity
8
1
62
256
6
ByLayer
370
18
48
1
60
0
100
AcDbSpline
70
4
71
4
72
16
73
11
40
0
40
0
40
0
40
0
40
0
40
0.293312550558913
40
0.293312550558913
40
0.293312550558913
40
0.706687449441084
40
0.706687449441084
40
0.706687449441084
40
1
40
1
40
1
40
1
40
1
41
0.996950676799056
10
19.6514512414477
20
8.39256629612991
30
0
41
0.994750587143043
10
19.4993289865858
20
7.77935058303833
30
0
41
0.993975420439907
10
19.2203498053835
20
6.83165859807647
30
0
41
1
10
18.8258626024721
20
5.61195751610444
30
0
41
1
10
17.8131281403101
20
2.61943516068121
30
0
41
0.988033871712585
10
17.0374438324594
20
0.4353383466812
30
0
41
1
10
16.2617595246088
20
-1.60179123600722
30
0
41
1
10
15.2490250624467
20
-4.12050766838445
30
0
41
0.993975420439906
10
14.8545378595354
20
-5.04758173350739
30
0
41
0.994750587143043
10
14.5755586783331
20
-5.61807733065702
30
0
41
0.996950676799056
10
14.4234364234711
20
-5.83270159221479
30
0
0
SPLINE
5
D2
100
AcDbEntity
8
1
62
256
6
ByLayer
370
18
48
1
60
0
100
AcDbSpline
70
4
71
3
72
27
73
23
40
0
40
0
40
0
40
0
40
0.125000000000008
40
0.125000000000008
40
0.250000000000017
40
0.250000000000017
40
0.375000000000025
40
0.375000000000025
40
0.40625000000003
40
0.40625000000003
40
0.421875000000033
40
0.421875000000033
40
0.437500000000035
40
0.500000000000033
40
0.500000000000033
40
0.625000000000025
40
0.625000000000025
40
0.750000000000017
40
0.750000000000017
40
0.875000000000008
40
0.875000000000008
40
1
40
1
40
1
40
1
41
1
10
10
20
8.79734210810773
30
0
41
1
10
10.3951403705441
20
8.88368943421918
30
0
41
1
10
10.7936924248026
20
8.95301516378578
30
0
41
1
10
11.5970898189462
20
9.062849125322
30
0
41
1
10
12.0019395957122
20
9.10332513565305
30
0
41
1
10
12.8176451533147
20
9.15828877724445
30
0
41
1
10
13.2285042515584
20
9.17275677755629
30
0
41
1
10
13.7457265786659
20
9.17539434098185
30
0
41
1
10
13.8493536262312
20
9.17514639355412
30
0
41
1
10
14.00506634295
20
9.17361818331941
30
0
41
1
10
14.0570331685156
20
9.17291547176461
30
0
41
1
10
14.1607708176829
20
9.17113136374755
30
0
41
1
10
14.4197947633711
20
9.1657227849696
30
0
41
1
10
14.6772436355874
20
9.15564624220096
30
0
41
1
10
15.2922803935968
20
9.12294060483953
30
0
41
1
10
15.6985172164136
20
9.08978738237178
30
0
41
1
10
16.5043529763413
20
9.00256771950964
30
0
41
1
10
16.9039493092363
20
8.9484838159994
30
0
41
1
10
17.6974747580818
20
8.82093412599363
30
0
41
1
10
18.0914050262176
20
8.74746294942057
30
0
41
1
10
18.8746396869342
20
8.58283030091258
30
0
41
1
10
19.2639500664654
20
8.4916823907362
30
0
41
1
10
19.6514512414485
20
8.39256629613377
30
0
0
SPLINE
5
D3
100
AcDbEntity
8
SK1
62
256
6
ByLayer
370
18
48
1
60
0
100
AcDbSpline
70
4
71
3
72
37
73
33
40
0
40
0
40
0
40
0
40
0.124999999999999
40
0.124999999999999
40
0.249999999999997
40
0.249999999999997
40
0.374999999999996
40
0.374999999999996
40
0.437499999999996
40
0.437499999999996
40
0.499999999999995
40
0.499999999999995
40
0.624999999999995
40
0.624999999999995
40
0.656249999999996
40
0.656249999999996
40
0.687499999999996
40
0.687499999999996
40
0.749999999999997
40
0.749999999999997
40
0.812499999999999
40
0.812499999999999
40
0.843749999999999
40
0.843749999999999
40
0.874999999999999
40
0.874999999999999
40
0.9375
40
0.9375
40
0.953125
40
0.953125
40
0.96875
40
1
40
1
40
1
40
1
41
1
10
-56.6013095599541
20
-3.67404242557649
30
0
41
1
10
-56.5818983671532
20
-3.76227101295461
30
0
41
1
10
-56.5608730792548
20
-3.84980231602845
30
0
41
1
10
-56.5149011456991
20
-4.02327304907473
30
0
41
1
10
-56.4899592553202
20
-4.1092138747162
30
0
41
1
10
-56.4351919062966
20
-4.27922783366643
30
0
41
1
10
-56.4053764863432
20
-4.36330392303796
30
0
41
1
10
-56.3559085219568
20
-4.48770487574166
30
0
41
1
10
-56.3386238532612
20
-4.52888499906533
30
0
41
1
10
-56.3022004610974
20
-4.6105950760475
30
0
41
1
10
-56.2830277903437
20
-4.65119311461675
30
0
41
1
10
-56.2224911706718
20
-4.77130399167868
30
0
41
1
10
-56.1782467144578
20
-4.84907413383172
30
0
41
1
10
-56.115968443464
20
-4.94231131697211
30
0
41
1
10
-56.10315836213
20
-4.96075692759766
30
0
41
1
10
-56.0767470461803
20
-4.99720157474036
30
0
41
1
10
-56.0631669720757
20
-5.01516889117784
30
0
41
1
10
-56.0213776959376
20
-5.06798704911631
30
0
41
1
10
-55.992061754375
20
-5.10185542724588
30
0
41
1
10
-55.9298321318183
20
-5.16631273888052
30
0
41
1
10
-55.8969272538349
20
-5.19690945406094
30
0
41
1
10
-55.8440712942131
20
-5.23964848292457
30
0
41
1
10
-55.8258658181591
20
-5.25336554431573
30
0
41
1
10
-55.7880772055068
20
-5.27956269503571
30
0
41
1
10
-55.7687283546429
20
-5.29187752331967
30
0
41
1
10
-55.7092375195426
20
-5.32619065397267
30
0
41
1
10
-55.6676447686972
20
-5.34560920419477
30
0
41
1
10
-55.6125612417126
20
-5.36437634382568
30
0
41
1
10
-55.6013755519815
20
-5.36785346658095
30
0
41
1
10
-55.5789098857052
20
-5.37414928699397
30
0
41
1
10
-55.5449888078968
20
-5.38263478003245
30
0
41
1
10
-55.5103812675636
20
-5.38816693911767
30
0
41
1
10
-55.4869828320874
20
-5.39045045482675
30
0
0
SPLINE
5
D4
100
AcDbEntity
8
SK1
62
256
6
ByLayer
370
18
48
1
60
0
100
AcDbSpline
70
4
71
3
72
38
73
34
40
0
40
0
40
0
40
0
40
0.0624999999999988
40
0.0624999999999988
40
0.0937499999999982
40
0.0937499999999982
40
0.109374999999998
40
0.109374999999998
40
0.124999999999999
40
0.124999999999999
40
0.187499999999997
40
0.187499999999997
40
0.218749999999997
40
0.218749999999997
40
0.249999999999996
40
0.249999999999996
40
0.312499999999996
40
0.312499999999996
40
0.374999999999996
40
0.374999999999996
40
0.437499999999996
40
0.437499999999996
40
0.468749999999996
40
0.468749999999996
40
0.499999999999996
40
0.499999999999996
40
0.624999999999997
40
0.624999999999997
40
0.749999999999998
40
0.749999999999998
40
0.874999999999999
40
0.874999999999999
40
1
40
1
40
1
40
1
41
1
10
-55.4869828320874
20
5.39045045482675
30
0
41
1
10
-55.5340112854939
20
5.38586082265942
30
0
41
1
10
-55.5792475407432
20
5.37567921640115
30
0
41
1
10
-55.6448597758275
20
5.35339526064908
30
0
41
1
10
-55.6663543340588
20
5.34479075805541
30
0
41
1
10
-55.6980700363939
20
5.33023526841174
30
0
41
1
10
-55.7085426555182
20
5.32511155488996
30
0
41
1
10
-55.7290868425515
20
5.31446061507978
30
0
41
1
10
-55.7391894091154
20
5.30891956332113
30
0
41
1
10
-55.7889172059676
20
5.28021446580462
30
0
41
1
10
-55.8262117488448
20
5.25408170222258
30
0
41
1
10
-55.87927436858
20
5.21118741343659
30
0
41
1
10
-55.8964771995976
20
5.19626735233749
30
0
41
1
10
-55.9300114215657
20
5.16530406746776
30
0
41
1
10
-55.9462917892921
20
5.14930296213541
30
0
41
1
10
-55.9934356942821
20
5.10035000843709
30
0
41
1
10
-56.0228020768564
20
5.06628595710666
30
0
41
1
10
-56.078326436026
20
4.99590453061043
30
0
41
1
10
-56.1044778219573
20
4.95958275029739
30
0
41
1
10
-56.1541566098393
20
4.88506830814691
30
0
41
1
10
-56.1776808746374
20
4.84687355258669
30
0
41
1
10
-56.2113079014024
20
4.78837896752557
30
0
41
1
10
-56.2222393682362
20
4.76867706562567
30
0
41
1
10
-56.2434756231488
20
4.72911675343036
30
0
41
1
10
-56.2537968848612
20
4.7092302403565
30
0
41
1
10
-56.3040524668077
20
4.60930752204828
30
0
41
1
10
-56.339989360063
20
4.52781806830399
30
0
41
1
10
-56.4056776145828
20
4.36246555081721
30
0
41
1
10
-56.4354058590262
20
4.27859519764016
30
0
41
1
10
-56.4900491389977
20
4.10890313734902
30
0
41
1
10
-56.5149546873468
20
4.02307844746088
30
0
41
1
10
-56.56088189532
20
3.84976160662609
30
0
41
1
10
-56.5818990222464
20
3.76226803539686
30
0
41
1
10
-56.6013095599541
20
3.67404242557649
30
0
0
SPLINE
5
D5
100
AcDbEntity
8
SK1
62
256
6
ByLayer
370
18
48
1
60
0
100
AcDbSpline
70
4
71
3
72
33
73
29
40
0
40
0
40
0
40
0
40
0.125000000000006
40
0.125000000000006
40
0.250000000000012
40
0.250000000000012
40
0.375000000000017
40
0.375000000000017
40
0.40625000000002
40
0.40625000000002
40
0.437500000000023
40
0.437500000000023
40
0.500000000000019
40
0.500000000000019
40
0.625000000000009
40
0.625000000000009
40
0.656250000000005
40
0.656250000000005
40
0.687500000000001
40
0.687500000000001
40
0.749999999999993
40
0.812499999999985
40
0.812499999999985
40
0.843749999999988
40
0.843749999999988
40
0.87499999999999
40
0.87499999999999
40
1
40
1
40
1
40
1
41
1
10
-14.051872681288
20
7.58734230610622
30
0
41
1
10
-14.0806477010082
20
7.63716049470688
30
0
41
1
10
-14.1111960666033
20
7.68574713585582
30
0
41
1
10
-14.1763795738798
20
7.78016829172287
30
0
41
1
10
-14.2110110664831
20
7.82600493913273
30
0
41
1
10
-14.2851110385999
20
7.91451556477941
30
0
41
1
10
-14.3245721279275
20
7.95719387593883
30
0
41
1
10
-14.3776213268518
20
8.00817431396229
30
0
41
1
10
-14.3884185818754
20
8.01825128676794
30
0
41
1
10
-14.4104115542246
20
8.03815365023897
30
0
41
1
10
-14.4216108037395
20
8.04798083475526
30
0
41
1
10
-14.455622663142
20
8.07687937861485
30
0
41
1
10
-14.4789160665747
20
8.09543103467254
30
0
41
1
10
-14.5508106006942
20
8.14878338695524
30
0
41
1
10
-14.6014062936362
20
8.18130323174049
30
0
41
1
10
-14.6687381239779
20
8.21735588111801
30
0
41
1
10
-14.6824104044294
20
8.22433484183665
30
0
41
1
10
-14.710192970406
20
8.23780190427706
30
0
41
1
10
-14.7242927464647
20
8.24428275713819
30
0
41
1
10
-14.7668701147152
20
8.26277278740699
30
0
41
1
10
-14.8246359059293
20
8.28501525135295
30
0
41
1
10
-14.8845078995177
20
8.30218349007504
30
0
41
1
10
-14.9302595196826
20
8.31302504752674
30
0
41
1
10
-14.9456514993249
20
8.31629937780269
30
0
41
1
10
-14.976730334019
20
8.3221411784192
30
0
41
1
10
-14.9924519952567
20
8.32471328587587
30
0
41
1
10
-15.0714171524834
20
8.33566995587665
30
0
41
1
10
-15.1349687406039
20
8.33829643503807
30
0
41
1
10
-15.198909252112
20
8.33463752287949
30
0
0
SPLINE
5
D6
100
AcDbEntity
8
SK1
62
256
6
ByLayer
370
18
48
1
60
0
100
AcDbSpline
70
4
71
3
72
28
73
24
40
0
40
0
40
0
40
0
40
0.124999999999995
40
0.124999999999995
40
0.187499999999992
40
0.187499999999992
40
0.24999999999999
40
0.24999999999999
40
0.374999999999983
40
0.374999999999983
40
0.437499999999979
40
0.437499999999979
40
0.499999999999976
40
0.499999999999976
40
0.624999999999981
40
0.624999999999981
40
0.687499999999984
40
0.687499999999984
40
0.749999999999987
40
0.749999999999987
40
0.874999999999994
40
0.874999999999994
40
1
40
1
40
1
40
1
41
1
10
-15.198909252112
20
-8.33463752287949
30
0
41
1
10
-15.1350143484387
20
-8.33829382518937
30
0
41
1
10
-15.0719017967204
20
-8.33565332559238
30
0
41
1
10
-14.978337274282
20
-8.32279548271791
30
0
41
1
10
-14.9473338896935
20
-8.31702027865589
30
0
41
1
10
-14.8856931933269
20
-8.30251274872501
30
0
41
1
10
-14.8554833479755
20
-8.29387762923409
30
0
41
1
10
-14.7669559756536
20
-8.26429996307647
30
0
41
1
10
-14.7105270717761
20
-8.23965842490713
30
0
41
1
10
-14.6292411643099
20
-8.19624288886422
30
0
41
1
10
-14.6029581616285
20
-8.18081975592636
30
0
41
1
10
-14.5521237698499
20
-8.14844888077508
30
0
41
1
10
-14.5275204196119
20
-8.13147265143903
30
0
41
1
10
-14.4558957807576
20
-8.07840113768455
30
0
41
1
10
-14.4110480069579
20
-8.04017416621042
30
0
41
1
10
-14.347408645875
20
-7.9791980354984
30
0
41
1
10
-14.3267704985616
20
-7.9582267315275
30
0
41
1
10
-14.2867812208927
20
-7.91531082173958
30
0
41
1
10
-14.267487937703
20
-7.89343345035931
30
0
41
1
10
-14.2115013365259
20
-7.82665213506647
30
0
41
1
10
-14.1766922853205
20
-7.78060380498701
30
0
41
1
10
-14.1112733091054
20
-7.68587638410847
30
0
41
1
10
-14.080667629502
20
-7.63719499690606
30
0
41
1
10
-14.051872681288
20
-7.58734230610622
30
0
0
SPLINE
5
D7
100
AcDbEntity
8
1
62
256
6
ByLayer
370
13
48
1
60
0
100
AcDbSpline
70
4
71
3
72
79
73
75
40
0
40
0
40
0
40
0
40
0.0312500000000016
40
0.0312500000000016
40
0.0625000000000032
40
0.0625000000000032
40
0.0937500000000048
40
0.0937500000000048
40
0.125000000000006
40
0.125000000000006
40
0.156250000000008
40
0.156250000000008
40
0.18750000000001
40
0.18750000000001
40
0.218750000000011
40
0.218750000000011
40
0.226562500000011
40
0.226562500000011
40
0.230468750000012
40
0.230468750000012
40
0.234375000000012
40
0.250000000000012
40
0.250000000000012
40
0.281250000000011
40
0.281250000000011
40
0.312500000000011
40
0.312500000000011
40
0.343750000000011
40
0.343750000000011
40
0.375000000000011
40
0.375000000000011
40
0.406250000000011
40
0.406250000000011
40
0.43750000000001
40
0.43750000000001
40
0.46875000000001
40
0.46875000000001
40
0.50000000000001
40
0.50000000000001
40
0.53125000000001
40
0.53125000000001
40
0.56250000000001
40
0.56250000000001
40
0.593750000000009
40
0.593750000000009
40
0.609375000000009
40
0.609375000000009
40
0.61718750000001
40
0.61718750000001
40
0.62500000000001
40
0.62500000000001
40
0.656250000000009
40
0.656250000000009
40
0.687500000000008
40
0.687500000000008
40
0.718750000000007
40
0.718750000000007
40
0.750000000000007
40
0.750000000000007
40
0.781250000000006
40
0.781250000000006
40
0.812500000000005
40
0.812500000000005
40
0.843750000000004
40
0.843750000000004
40
0.875000000000003
40
0.875000000000003
40
0.906250000000003
40
0.906250000000003
40
0.937500000000002
40
0.937500000000002
40
0.968750000000001
40
0.968750000000001
40
1
40
1
40
1
40
1
41
1
10
94.7999999999999
20
-7.14374445696836
30
0
41
1
10
94.8743918190289
20
-7.57228629619846
30
0
41
1
10
94.9487836380579
20
-7.98169103465929
30
0
41
1
10
95.0975672761158
20
-8.75055470202167
30
0
41
1
10
95.1719590951447
20
-9.10998204303681
30
0
41
1
10
95.3207427332025
20
-9.76977663682345
30
0
41
1
10
95.3951345522314
20
-10.0701263195216
30
0
41
1
10
95.5439181902893
20
-10.6060455793367
30
0
41
1
10
95.6183100093184
20
-10.8416139654529
30
0
41
1
10
95.7670936473762
20
-11.2459316558254
30
0
41
1
10
95.8414854664051
20
-11.4146945720022
30
0
41
1
10
95.990269104463
20
-11.6868474590293
30
0
41
1
10
96.0646609234919
20
-11.7902612994197
30
0
41
1
10
96.2134445615497
20
-11.9360653666366
30
0
41
1
10
96.2878363805788
20
-11.9784839857017
30
0
41
1
10
96.3808261543649
20
-11.997396286676
30
0
41
1
10
96.3994241091221
20
-11.9994771069731
30
0
41
1
10
96.427321041258
20
-12.0001311778709
30
0
41
1
10
96.4366200186366
20
-11.9999401272567
30
0
41
1
10
96.4552179733938
20
-11.9987304608969
30
0
41
1
10
96.5017128602869
20
-11.9936344350415
30
0
41
1
10
96.54820774718
20
-11.9779921478613
30
0
41
1
10
96.6597954757235
20
-11.9189100862958
30
0
41
1
10
96.7341872947523
20
-11.8507350510366
30
0
41
1
10
96.8829709328103
20
-11.6512220949348
30
0
41
1
10
96.9573627518391
20
-11.5198570392277
30
0
41
1
10
97.106146389897
20
-11.1907694251746
30
0
41
1
10
97.180538208926
20
-10.9930267659909
30
0
41
1
10
97.3293218469838
20
-10.5311717764499
30
0
41
1
10
97.4037136660129
20
-10.2670518322117
30
0
41
1
10
97.5524973040707
20
-9.67604843933159
30
0
41
1
10
97.6268891230996
20
-9.34917331260056
30
0
41
1
10
97.7756727611574
20
-8.63988397312997
30
0
41
1
10
97.8500645801864
20
-8.2574939299374
30
0
41
1
10
97.9988482182444
20
-7.44752579250019
30
0
41
1
10
98.0732400372732
20
-7.01998370020547
30
0
41
1
10
98.2220236753311
20
-6.13226739646595
30
0
41
1
10
98.29641549436
20
-5.67213417646573
30
0
41
1
10
98.4451991324179
20
-4.73281314194705
30
0
41
1
10
98.5195909514468
20
-4.2536637881916
30
0
41
1
10
98.6683745895047
20
-3.28968906362758
30
0
41
1
10
98.7427664085336
20
-2.80489363783036
30
0
41
1
10
98.8915500465915
20
-1.84175931513985
30
0
41
1
10
98.9659418656205
20
-1.36343874662401
30
0
41
1
10
99.0775295941639
20
-0.65841526630328
30
0
41
1
10
99.1147255036783
20
-0.425466561066315
30
0
41
1
10
99.1705193679501
20
-0.0799186489316241
30
0
41
1
10
99.1891173227072
20
0.0342083225459078
30
0
41
1
10
99.2263132322218
20
0.264228993470539
30
0
41
1
10
99.2449111869789
20
0.379892065498979
30
0
41
1
10
99.3379009607652
20
0.961158202732264
30
0
41
1
10
99.4122927797941
20
1.43570393016594
30
0
41
1
10
99.561076417852
20
2.39438110778357
30
0
41
1
10
99.6354682368809
20
2.87849765138978
30
0
41
1
10
99.7842518749387
20
3.84470949194824
30
0
41
1
10
99.8586436939677
20
4.32677795768981
30
0
41
1
10
100.007427332026
20
5.27579289918086
30
0
41
1
10
100.081819151055
20
5.74270282886499
30
0
41
1
10
100.230602789112
20
6.64776859028441
30
0
41
1
10
100.304994608141
20
7.08588341395486
30
0
41
1
10
100.453778246199
20
7.92038198722099
30
0
41
1
10
100.528170065228
20
8.31672755288972
30
0
41
1
10
100.676953703286
20
9.05658311630225
30
0
41
1
10
100.751345522315
20
9.40006503045294
30
0
41
1
10
100.900129160373
20
10.0259824186983
30
0
41
1
10
100.974520979402
20
10.3084048976321
30
0
41
1
10
101.12330461746
20
10.8075186054942
30
0
41
1
10
101.197696436489
20
11.0242131530755
30
0
41
1
10
101.346480074546
20
11.3908582902552
30
0
41
1
10
101.420871893575
20
11.5408259458655
30
0
41
1
10
101.569655531633
20
11.7763577890482
30
0
41
1
10
101.644047350662
20
11.8619477139741
30
0
41
1
10
101.79283098872
20
11.9737544836285
30
0
41
1
10
101.867222807749
20
12
30
0
41
1
10
101.941614626778
20
12
30
0
0
SPLINE
5
D8
100
AcDbEntity
8
1
62
256
6
ByLayer
370
13
48
1
60
0
100
AcDbSpline
70
4
71
3
72
42
73
38
40
0
40
0
40
0
40
0
40
0.0625
40
0.0625
40
0.125
40
0.125
40
0.1875
40
0.1875
40
0.25
40
0.25
40
0.3125
40
0.3125
40
0.375
40
0.375
40
0.4375
40
0.4375
40
0.5
40
0.5
40
0.5625
40
0.5625
40
0.578125
40
0.578125
40
0.59375
40
0.59375
40
0.625
40
0.625
40
0.6875
40
0.6875
40
0.75
40
0.75
40
0.8125
40
0.8125
40
0.875
40
0.875
40
0.9375
40
0.9375
40
1
40
1
40
1
40
1
41
1
10
101.122458111292
20
12
30
0
41
1
10
101.22058100874
20
12
30
0
41
1
10
101.318703906188
20
11.9542538530204
30
0
41
1
10
101.514949701085
20
11.7561879897483
30
0
41
1
10
101.613072598533
20
11.6037559299846
30
0
41
1
10
101.809318393429
20
11.1834143542052
30
0
41
1
10
101.907441290877
20
10.9154223320159
30
0
41
1
10
102.103687085774
20
10.2645184376431
30
0
41
1
10
102.201809983222
20
9.88159104608113
30
0
41
1
10
102.398055778118
20
9.0124409239769
30
0
41
1
10
102.496178675566
20
8.52628754867837
30
0
41
1
10
102.692424470463
20
7.47260932004369
30
0
41
1
10
102.790547367911
20
6.90522280008142
30
0
41
1
10
102.986793162808
20
5.71809019177545
30
0
41
1
10
103.084916060256
20
5.0985069974974
30
0
41
1
10
103.281161855152
20
3.83837290331596
30
0
41
1
10
103.3792847526
20
3.19795967378607
30
0
41
1
10
103.575530547497
20
1.92524448414613
30
0
41
1
10
103.673653444945
20
1.2930235898634
30
0
41
1
10
103.796307066755
20
0.522434626083083
30
0
41
1
10
103.820837791117
20
0.369284704779602
30
0
41
1
10
103.869899239841
20
0.0652154834727696
30
0
41
1
10
103.894429964203
20
-0.0851700988617097
30
0
41
1
10
103.96802213729
20
-0.541566913226802
30
0
41
1
10
104.017083586014
20
-0.850282009164829
30
0
41
1
10
104.164267932186
20
-1.7860568843378
30
0
41
1
10
104.262390829634
20
-2.42293772037729
30
0
41
1
10
104.458636624531
20
-3.6978595801487
30
0
41
1
10
104.556759521979
20
-4.33580328231662
30
0
41
1
10
104.753005316875
20
-5.58287460980031
30
0
41
1
10
104.851128214324
20
-6.19185390433401
30
0
41
1
10
105.04737400922
20
-7.34977159827977
30
0
41
1
10
105.145496906668
20
-7.89854844013675
30
0
41
1
10
105.341742701565
20
-8.90840540109437
30
0
41
1
10
105.439865599013
20
-9.36936174990367
30
0
41
1
10
105.636111393909
20
-10.1839690545278
30
0
41
1
10
105.734234291357
20
-10.5375727355556
30
0
41
1
10
105.832357188806
20
-10.8330883717447
30
0
0
SPLINE
5
D9
100
AcDbEntity
8
1
62
256
6
ByLayer
370
13
48
1
60
0
100
AcDbSpline
70
4
71
3
72
78
73
74
40
0
40
0
40
0
40
0
40
0.0312499999999999
40
0.0312499999999999
40
0.0624999999999998
40
0.0624999999999998
40
0.0937499999999998
40
0.0937499999999998
40
0.125
40
0.125
40
0.15625
40
0.15625
40
0.1640625
40
0.1640625
40
0.171875
40
0.171875
40
0.1875
40
0.1875
40
0.218749999999999
40
0.218749999999999
40
0.249999999999999
40
0.249999999999999
40
0.281249999999999
40
0.281249999999999
40
0.312499999999999
40
0.312499999999999
40
0.343749999999999
40
0.343749999999999
40
0.374999999999999
40
0.374999999999999
40
0.406249999999999
40
0.406249999999999
40
0.437499999999999
40
0.437499999999999
40
0.468749999999999
40
0.468749999999999
40
0.499999999999999
40
0.499999999999999
40
0.531249999999998
40
0.531249999999998
40
0.562499999999998
40
0.562499999999998
40
0.578124999999998
40
0.578124999999998
40
0.585937499999998
40
0.585937499999998
40
0.593749999999999
40
0.593749999999999
40
0.624999999999999
40
0.624999999999999
40
0.656249999999999
40
0.656249999999999
40
0.687499999999999
40
0.687499999999999
40
0.718749999999999
40
0.718749999999999
40
0.749999999999999
40
0.749999999999999
40
0.781249999999999
40
0.781249999999999
40
0.812499999999999
40
0.812499999999999
40
0.84375
40
0.84375
40
0.875
40
0.875
40
0.90625
40
0.90625
40
0.9375
40
0.9375
40
0.96875
40
0.96875
40
1
40
1
40
1
40
1
41
1
10
94.7999999999999
20
-9.61437430020169
30
0
41
1
10
94.8693257472663
20
-9.91187839668862
30
0
41
1
10
94.9386514945328
20
-10.1831821691578
30
0
41
1
10
95.0773029890655
20
-10.6692115919577
30
0
41
1
10
95.146628736332
20
-10.883937672102
30
0
41
1
10
95.2852802308647
20
-11.2553905767946
30
0
41
1
10
95.354605978131
20
-11.4121273757372
30
0
41
1
10
95.4932574726638
20
-11.6687948577687
30
0
41
1
10
95.5625832199301
20
-11.7687422105274
30
0
41
1
10
95.7012347144629
20
-11.9152263469849
30
0
41
1
10
95.7705604617293
20
-11.961782980513
30
0
41
1
10
95.8572176458121
20
-11.9897448643964
30
0
41
1
10
95.8745490826288
20
-11.993828703175
30
0
41
1
10
95.909211956262
20
-11.9990687777848
30
0
41
1
10
95.9265433930786
20
-12.0002257559458
30
0
41
1
10
95.9785377035284
20
-11.9994401731066
30
0
41
1
10
96.0132005771617
20
-11.9932107493989
30
0
41
1
10
96.1171891980611
20
-11.9563183724406
30
0
41
1
10
96.1865149453275
20
-11.9074068962822
30
0
41
1
10
96.3251664398603
20
-11.7560161934663
30
0
41
1
10
96.3944921871266
20
-11.6535171869926
30
0
41
1
10
96.5331436816594
20
-11.391638886649
30
0
41
1
10
96.6024694289259
20
-11.2322431551588
30
0
41
1
10
96.7411209234586
20
-10.8554773105879
30
0
41
1
10
96.8104466707249
20
-10.6380976086206
30
0
41
1
10
96.9490981652577
20
-10.1468920281803
30
0
41
1
10
97.0184239125241
20
-9.87306620375963
30
0
41
1
10
97.1570754070569
20
-9.27327157760908
30
0
41
1
10
97.2264011543233
20
-8.94731359759103
30
0
41
1
10
97.365052648856
20
-8.2501720715606
30
0
41
1
10
97.4343783961224
20
-7.87900900334819
30
0
41
1
10
97.5730298906551
20
-7.10051284816112
30
0
41
1
10
97.6423556379215
20
-6.69320668057401
30
0
41
1
10
97.7810071324542
20
-5.85289280192998
30
0
41
1
10
97.8503328797206
20
-5.41991397778173
30
0
41
1
10
97.9889843742534
20
-4.53928102722162
30
0
41
1
10
98.0583101215197
20
-4.09165324754517
30
0
41
1
10
98.1969616160524
20
-3.19246089205853
30
0
41
1
10
98.2662873633189
20
-2.7409166988983
30
0
41
1
10
98.4049388578516
20
-1.84362942841693
30
0
41
1
10
98.474264605118
20
-1.39789904940602
30
0
41
1
10
98.5782532260176
20
-0.739831389069877
30
0
41
1
10
98.6129160996508
20
-0.522217279300776
30
0
41
1
10
98.6649104101005
20
-0.199056774376231
30
0
41
1
10
98.6822418469171
20
-0.0919800050772608
30
0
41
1
10
98.7169047205502
20
0.121409252483858
30
0
41
1
10
98.7342361573669
20
0.228690823312974
30
0
41
1
10
98.8208933414499
20
0.767788229286737
30
0
41
1
10
98.8902190887163
20
1.20774180688087
30
0
41
1
10
99.028870583249
20
2.09760568796079
30
0
41
1
10
99.0981963305154
20
2.54750705277493
30
0
41
1
10
99.236847825048
20
3.44821278677304
30
0
41
1
10
99.3061735723145
20
3.89900033574415
30
0
41
1
10
99.4448250668473
20
4.79115409766427
30
0
41
1
10
99.5141508141137
20
5.23249647911624
30
0
41
1
10
99.6528023086464
20
6.0947798606669
30
0
41
1
10
99.7221280559128
20
6.51569266814607
30
0
41
1
10
99.8607795504455
20
7.32627355974483
30
0
41
1
10
99.9301052977119
20
7.71591319598278
30
0
41
1
10
100.068756792245
20
8.4541077840793
30
0
41
1
10
100.138082539511
20
8.80263868070818
30
0
41
1
10
100.276734034044
20
9.45058480320819
30
0
41
1
10
100.34605978131
20
9.74998432133989
30
0
41
1
10
100.484711275843
20
10.2940562528635
30
0
41
1
10
100.554037023109
20
10.5387234849802
30
0
41
1
10
100.692688517642
20
10.9704587111247
30
0
41
1
10
100.762014264908
20
11.1575319601553
30
0
41
1
10
100.900665759441
20
11.4739427673705
30
0
41
1
10
100.969991506708
20
11.6032939139784
30
0
41
1
10
101.10864300124
20
11.8065673240217
30
0
41
1
10
101.177968748507
20
11.8805082152511
30
0
41
1
10
101.316620243039
20
11.9772144645179
30
0
41
1
10
101.385945990306
20
12
30
0
41
1
10
101.455271737572
20
12
30
0
0
SPLINE
5
DA
100
AcDbEntity
8
1
62
256
6
ByLayer
370
13
48
1
60
0
100
AcDbSpline
70
4
71
3
72
70
73
66
40
0
40
0
40
0
40
0
40
0.0624999999999996
40
0.0624999999999996
40
0.0937499999999996
40
0.0937499999999996
40
0.125
40
0.125
40
0.15625
40
0.15625
40
0.1875
40
0.1875
40
0.21875
40
0.21875
40
0.249999999999999
40
0.249999999999999
40
0.281249999999999
40
0.281249999999999
40
0.312499999999999
40
0.312499999999999
40
0.343749999999999
40
0.343749999999999
40
0.375
40
0.375
40
0.40625
40
0.40625
40
0.4375
40
0.4375
40
0.46875
40
0.46875
40
0.5
40
0.5
40
0.515625
40
0.515625
40
0.53125
40
0.53125
40
0.5625
40
0.5625
40
0.59375
40
0.59375
40
0.625
40
0.625
40
0.65625
40
0.65625
40
0.6875
40
0.6875
40
0.71875
40
0.71875
40
0.75
40
0.75
40
0.78125
40
0.78125
40
0.8125
40
0.8125
40
0.84375
40
0.84375
40
0.875
40
0.875
40
0.90625
40
0.90625
40
0.9375
40
0.9375
40
0.96875
40
0.96875
40
1
40
1
40
1
40
1
41
1
10
100.636115222086
20
12
30
0
41
1
10
100.744370263059
20
12
30
0
41
1
10
100.852625304033
20
11.9442618620354
30
0
41
1
10
101.015007865493
20
11.7621261505333
30
0
41
1
10
101.069135385979
20
11.6850450065319
30
0
41
1
10
101.177390426953
20
11.4965184005167
30
0
41
1
10
101.231517947439
20
11.3850678978082
30
0
41
1
10
101.339772988413
20
11.1269560135789
30
0
41
1
10
101.393900508899
20
10.9802909218306
30
0
41
1
10
101.502155549873
20
10.6518277865118
30
0
41
1
10
101.556283070359
20
10.4700279389275
30
0
41
1
10
101.664538111333
20
10.0723825597531
30
0
41
1
10
101.718665631819
20
9.85653753815359
30
0
41
1
10
101.826920672793
20
9.39291920603
30
0
41
1
10
101.881048193279
20
9.14514886306526
30
0
41
1
10
101.989303234253
20
8.62077551400066
30
0
41
1
10
102.043430754739
20
8.34417775911399
30
0
41
1
10
102.151685795713
20
7.76609916509045
30
0
41
1
10
102.205813316199
20
7.46462537870664
30
0
41
1
10
102.314068357172
20
6.84141153728726
30
0
41
1
10
102.368195877659
20
6.51967962049349
30
0
41
1
10
102.476450918632
20
5.86100273521708
30
0
41
1
10
102.530578439119
20
5.52406616269687
30
0
41
1
10
102.638833480092
20
4.84021829634523
30
0
41
1
10
102.692961000579
20
4.49331485576144
30
0
41
1
10
102.801216041552
20
3.79470992060374
30
0
41
1
10
102.855343562039
20
3.44301508504461
30
0
41
1
10
102.963598603013
20
2.73972232114048
30
0
41
1
10
103.017726123499
20
2.38812943313232
30
0
41
1
10
103.125981164473
20
1.68947690493306
30
0
41
1
10
103.180108684959
20
1.3424205132155
30
0
41
1
10
103.261299965689
20
0.828125568211391
30
0
41
1
10
103.288363725932
20
0.657737343267854
30
0
41
1
10
103.342491246419
20
0.319468083540414
30
0
41
1
10
103.369555006662
20
0.151750226363049
30
0
41
1
10
103.450746287392
20
-0.348076564029327
30
0
41
1
10
103.504873807879
20
-0.687044122240934
30
0
41
1
10
103.613128848852
20
-1.37326319468332
30
0
41
1
10
103.667256369339
20
-1.72051314955314
30
0
41
1
10
103.775511410313
20
-2.41942892605547
30
0
41
1
10
103.829638930799
20
-2.77109144569965
30
0
41
1
10
103.937893971772
20
-3.4743838852886
30
0
41
1
10
103.992021492259
20
-3.8260087130401
30
0
41
1
10
104.100276533233
20
-4.52432285518088
30
0
41
1
10
104.154404053719
20
-4.87100546768448
30
0
41
1
10
104.262659094692
20
-5.55425568070464
30
0
41
1
10
104.316786615179
20
-5.8908154014575
30
0
41
1
10
104.425041656152
20
-6.54858440515878
30
0
41
1
10
104.479169176639
20
-6.8697852877967
30
0
41
1
10
104.587424217612
20
-7.4917922242042
30
0
41
1
10
104.641551738099
20
-7.79259016028146
30
0
41
1
10
104.749806779072
20
-8.36918884453729
30
0
41
1
10
104.803934299559
20
-8.64498258409716
30
0
41
1
10
104.912189340532
20
-9.16764262759145
30
0
41
1
10
104.966316861019
20
-9.41450374266788
30
0
41
1
10
105.074571901992
20
-9.8762259631547
30
0
41
1
10
105.128699422479
20
-10.0910841731902
30
0
41
1
10
105.236954463452
20
-10.4867085242598
30
0
41
1
10
105.291081983939
20
-10.6674742276751
30
0
41
1
10
105.399337024912
20
-10.9938523461906
30
0
41
1
10
105.453464545399
20
-11.1394666289647
30
0
41
1
10
105.561719586372
20
-11.3954891952964
30
0
41
1
10
105.615847106859
20
-11.5059012375014
30
0
41
1
10
105.724102147832
20
-11.6923888992035
30
0
41
1
10
105.778229668319
20
-11.7684695892817
30
0
41
1
10
105.832357188806
20
-11.8282105977938
30
0
0
SPLINE
5
DB
100
AcDbEntity
8
1
62
256
6
ByLayer
370
13
48
1
60
0
100
AcDbSpline
70
4
71
3
72
78
73
74
40
0
40
0
40
0
40
0
40
0.0312499999999992
40
0.0312499999999992
40
0.0624999999999985
40
0.0624999999999985
40
0.0937499999999977
40
0.0937499999999977
40
0.101562499999998
40
0.101562499999998
40
0.109374999999997
40
0.109374999999997
40
0.124999999999997
40
0.124999999999997
40
0.156249999999997
40
0.156249999999997
40
0.187499999999996
40
0.187499999999996
40
0.218749999999996
40
0.218749999999996
40
0.249999999999996
40
0.249999999999996
40
0.281249999999995
40
0.281249999999995
40
0.312499999999995
40
0.312499999999995
40
0.343749999999994
40
0.343749999999994
40
0.374999999999994
40
0.374999999999994
40
0.406249999999994
40
0.406249999999994
40
0.437499999999993
40
0.437499999999993
40
0.468749999999993
40
0.468749999999993
40
0.499999999999993
40
0.499999999999993
40
0.531249999999992
40
0.531249999999992
40
0.546874999999992
40
0.546874999999992
40
0.554687499999992
40
0.554687499999992
40
0.562499999999992
40
0.562499999999992
40
0.593749999999993
40
0.593749999999993
40
0.624999999999993
40
0.624999999999993
40
0.656249999999994
40
0.656249999999994
40
0.687499999999994
40
0.687499999999994
40
0.718749999999995
40
0.718749999999995
40
0.749999999999995
40
0.749999999999995
40
0.781249999999996
40
0.781249999999996
40
0.812499999999997
40
0.812499999999997
40
0.843749999999997
40
0.843749999999997
40
0.874999999999998
40
0.874999999999998
40
0.906249999999998
40
0.906249999999998
40
0.937499999999999
40
0.937499999999999
40
0.968749999999999
40
0.968749999999999
40
1
40
1
40
1
40
1
41
1
10
94.8
20
-11.2483137815849
30
0
41
1
10
94.8642596755038
20
-11.4023550603033
30
0
41
1
10
94.9285193510076
20
-11.5315570772387
30
0
41
1
10
95.0570387020153
20
-11.7417856926717
30
0
41
1
10
95.1212983775191
20
-11.8228245286002
30
0
41
1
10
95.2498177285267
20
-11.9397699510919
30
0
41
1
10
95.3140774040305
20
-11.9756902836961
30
0
41
1
10
95.3944019984103
20
-11.9949881124411
30
0
41
1
10
95.4104669172862
20
-11.9975697146236
30
0
41
1
10
95.4425967550381
20
-12.0002495168966
30
0
41
1
10
95.4586616739141
20
-12.0003562136633
30
0
41
1
10
95.506856430542
20
-11.9969913598569
30
0
41
1
10
95.5389862682939
20
-11.989792975916
30
0
41
1
10
95.6353757815495
20
-11.9524755585743
30
0
41
1
10
95.6996354570534
20
-11.9066014309343
30
0
41
1
10
95.828154808061
20
-11.7689402574729
30
0
41
1
10
95.892414483565
20
-11.677139633271
30
0
41
1
10
96.0209338345726
20
-11.4448922697076
30
0
41
1
10
96.0851935100763
20
-11.3044339274957
30
0
41
1
10
96.2137128610841
20
-10.9737387890419
30
0
41
1
10
96.2779725365878
20
-10.7834944467264
30
0
41
1
10
96.4064918875954
20
-10.353991123438
30
0
41
1
10
96.4707515630992
20
-10.1147304224734
30
0
41
1
10
96.5992709141069
20
-9.5899996768994
30
0
41
1
10
96.6635305896107
20
-9.30453469303026
30
0
41
1
10
96.7920499406183
20
-8.69219474757205
30
0
41
1
10
96.8563096161222
20
-8.36533140826538
30
0
41
1
10
96.9848289671298
20
-7.67673585063758
30
0
41
1
10
97.0490886426337
20
-7.31502036633759
30
0
41
1
10
97.1776079936413
20
-6.56457124472786
30
0
41
1
10
97.2418676691451
20
-6.1758570725809
30
0
41
1
10
97.3703870201528
20
-5.38001800364498
30
0
41
1
10
97.4346466956566
20
-4.97291255725199
30
0
41
1
10
97.5631660466642
20
-4.14906059172009
30
0
41
1
10
97.627425722168
20
-3.73233102935481
30
0
41
1
10
97.7559450731757
20
-2.89760745801999
30
0
41
1
10
97.8202047486795
20
-2.47962618852063
30
0
41
1
10
97.9487240996872
20
-1.64993150051538
30
0
41
1
10
98.012983775191
20
-1.23822585056567
30
0
41
1
10
98.1093732884467
20
-0.63015200944352
30
0
41
1
10
98.1415031261986
20
-0.429031791582844
30
0
41
1
10
98.1896978828265
20
-0.130213674687866
30
0
41
1
10
98.2057628017024
20
-0.0313875917201187
30
0
41
1
10
98.2378926394543
20
0.166765211552871
30
0
41
1
10
98.2539575583303
20
0.266339115169131
30
0
41
1
10
98.3342821527101
20
0.76649907942172
30
0
41
1
10
98.3985418282138
20
1.17400752428546
30
0
41
1
10
98.5270611792216
20
1.99791473475781
30
0
41
1
10
98.5913208547254
20
2.41430765259648
30
0
41
1
10
98.7198402057329
20
3.24887859482715
30
0
41
1
10
98.7840998812368
20
3.66704576277402
30
0
41
1
10
98.9126192322444
20
4.49707750114757
30
0
41
1
10
98.9768789077483
20
4.90892658998087
30
0
41
1
10
99.1053982587559
20
5.71764947753167
30
0
41
1
10
99.1696579342597
20
6.11450452776316
30
0
41
1
10
99.2981772852673
20
6.88450137651839
30
0
41
1
10
99.3624369607711
20
7.25762339149111
30
0
41
1
10
99.4909563117787
20
7.97193834160416
30
0
41
1
10
99.5552159872826
20
8.31311317214158
30
0
41
1
10
99.6837353382903
20
8.95641916638277
30
0
41
1
10
99.7479950137941
20
9.25853650173877
30
0
41
1
10
99.8765143648017
20
9.8182028510673
30
0
41
1
10
99.9407740403055
20
10.0757441756063
30
0
41
1
10
100.069293391313
20
10.5426528476957
30
0
41
1
10
100.133553066817
20
10.7520193520412
30
0
41
1
10
100.262072417824
20
11.1210212649331
30
0
41
1
10
100.326332093328
20
11.2806621461979
30
0
41
1
10
100.454851444336
20
11.550631615728
30
0
41
1
10
100.51911111984
20
11.6609704819188
30
0
41
1
10
100.647630470848
20
11.8344877703289
30
0
41
1
10
100.711890146351
20
11.8976792539387
30
0
41
1
10
100.840409497359
20
11.9804284626409
30
0
41
1
10
100.904669172863
20
12
30
0
41
1
10
100.968928848367
20
12
30
0
0
SPLINE
5
DC
100
AcDbEntity
8
1
62
256
6
ByLayer
370
13
48
1
60
0
100
AcDbSpline
70
4
71
3
72
77
73
73
40
0
40
0
40
0
40
0
40
0.03125
40
0.03125
40
0.0624999999999999
40
0.0624999999999999
40
0.0937499999999999
40
0.0937499999999999
40
0.125
40
0.125
40
0.15625
40
0.15625
40
0.1875
40
0.1875
40
0.21875
40
0.21875
40
0.25
40
0.25
40
0.28125
40
0.28125
40
0.312499999999999
40
0.312499999999999
40
0.343749999999999
40
0.343749999999999
40
0.374999999999999
40
0.374999999999999
40
0.406249999999999
40
0.406249999999999
40
0.437499999999999
40
0.437499999999999
40
0.468749999999999
40
0.468749999999999
40
0.484374999999999
40
0.484374999999999
40
0.492187499999999
40
0.492187499999999
40
0.499999999999999
40
0.499999999999999
40
0.531249999999999
40
0.531249999999999
40
0.562499999999999
40
0.562499999999999
40
0.593749999999999
40
0.593749999999999
40
0.624999999999999
40
0.624999999999999
40
0.656249999999999
40
0.656249999999999
40
0.687499999999999
40
0.687499999999999
40
0.718749999999999
40
0.718749999999999
40
0.749999999999999
40
0.749999999999999
40
0.781249999999999
40
0.781249999999999
40
0.812499999999999
40
0.812499999999999
40
0.84375
40
0.84375
40
0.875
40
0.875
40
0.90625
40
0.90625
40
0.9375
40
0.9375
40
0.96875
40
0.96875
40
0.9765625
40
0.9765625
40
0.984375
40
1
40
1
40
1
40
1
41
1
10
100.14977233288
20
12
30
0
41
1
10
100.20896592513
20
12
30
0
41
1
10
100.268159517379
20
11.9833969831796
30
0
41
1
10
100.386546701877
20
11.9134721416733
30
0
41
1
10
100.445740294126
20
11.8601411601294
30
0
41
1
10
100.564127478625
20
11.7138988003363
30
0
41
1
10
100.623321070874
20
11.6209785851941
30
0
41
1
10
100.741708255373
20
11.3936382297811
30
0
41
1
10
100.800901847622
20
11.2592106994084
30
0
41
1
10
100.91928903212
20
10.9481261931221
30
0
41
1
10
100.978482624369
20
10.7714644427477
30
0
41
1
10
101.096869808868
20
10.3765589508891
30
0
41
1
10
101.156063401117
20
10.1583140286893
30
0
41
1
10
101.274450585615
20
9.68235945687721
30
0
41
1
10
101.333644177865
20
9.42465276655958
30
0
41
1
10
101.452031362363
20
8.87333665672963
30
0
41
1
10
101.511224954612
20
8.57973427586774
30
0
41
1
10
101.629612139111
20
7.96148267044092
30
0
41
1
10
101.68880573136
20
7.63684385353827
30
0
41
1
10
101.807192915858
20
6.96240407985752
30
0
41
1
10
101.866386508108
20
6.61261565689833
30
0
41
1
10
101.984773692606
20
5.89444080851689
30
0
41
1
10
102.043967284855
20
5.52606751709865
30
0
41
1
10
102.162354469354
20
4.7775754025653
30
0
41
1
10
102.221548061603
20
4.39746881159823
30
0
41
1
10
102.339935246102
20
3.63226471242876
30
0
41
1
10
102.399128838351
20
3.24717733040063
30
0
41
1
10
102.517516022849
20
2.47832871560314
30
0
41
1
10
102.576709615098
20
2.09457476733081
30
0
41
1
10
102.695096799597
20
1.33400898717423
30
0
41
1
10
102.754290391846
20
0.957201370956511
30
0
41
1
10
102.84308078022
20
0.4007529855771
30
0
41
1
10
102.872677576345
20
0.216723495981086
30
0
41
1
10
102.917072770531
20
-0.0567635253513856
30
0
41
1
10
102.931871168594
20
-0.147967569680475
30
0
41
1
10
102.961467964718
20
-0.331532447061392
30
0
41
1
10
102.976266362781
20
-0.423717973995707
30
0
41
1
10
103.050258353092
20
-0.88650152220842
30
0
41
1
10
103.109451945341
20
-1.26270379066688
30
0
41
1
10
103.22783912984
20
-2.02238396218411
30
0
41
1
10
103.287032722089
20
-2.40585783958571
30
0
41
1
10
103.405419906587
20
-3.17452227135809
30
0
41
1
10
103.464613498837
20
-3.55970573276085
30
0
41
1
10
103.583000683335
20
-4.32551526067198
30
0
41
1
10
103.642194275584
20
-4.70613136351139
30
0
41
1
10
103.760581460083
20
-5.45607408782695
30
0
41
1
10
103.819775052332
20
-5.82538857847234
30
0
41
1
10
103.93816223683
20
-6.54587265153495
30
0
41
1
10
103.99735582908
20
-6.89702911430015
30
0
41
1
10
104.115743013578
20
-7.57460213313081
30
0
41
1
10
104.174936605827
20
-7.90100607129369
30
0
41
1
10
104.293323790326
20
-8.52313154168888
30
0
41
1
10
104.352517382575
20
-8.8188424913929
30
0
41
1
10
104.470904567074
20
-9.37464586936508
30
0
41
1
10
104.530098159323
20
-9.63473101955444
30
0
41
1
10
104.648485343821
20
-10.1156255331368
30
0
41
1
10
104.70767893607
20
-10.3364316718485
30
0
41
1
10
104.826066120569
20
-10.7365496241214
30
0
41
1
10
104.885259712818
20
-10.915862368314
30
0
41
1
10
105.003646897316
20
-11.2322478992134
30
0
41
1
10
105.062840489566
20
-11.3693252597275
30
0
41
1
10
105.181227674064
20
-11.6018822096396
30
0
41
1
10
105.240421266313
20
-11.69736905828
30
0
41
1
10
105.358808450812
20
-11.8485934415816
30
0
41
1
10
105.418002043061
20
-11.9043397567842
30
0
41
1
10
105.536389227559
20
-11.9788925819299
30
0
41
1
10
105.595582819809
20
-11.9977082583978
30
0
41
1
10
105.66957481012
20
-12.0003261270991
30
0
41
1
10
105.684373208183
20
-11.9998141723393
30
0
41
1
10
105.713970004307
20
-11.9966795238485
30
0
41
1
10
105.758365198494
20
-11.9888036608327
30
0
41
1
10
105.802760392681
20
-11.9711479106765
30
0
41
1
10
105.832357188806
20
-11.9548173226843
30
0
0
SPLINE
5
DD
100
AcDbEntity
8
1
62
256
6
ByLayer
370
13
48
1
60
0
100
AcDbSpline
70
4
71
3
72
78
73
74
40
0
40
0
40
0
40
0
40
0.0156250000000005
40
0.0156250000000005
40
0.0234375000000006
40
0.0234375000000006
40
0.0312500000000007
40
0.0312500000000007
40
0.0625000000000006
40
0.0625000000000006
40
0.0937500000000006
40
0.0937500000000006
40
0.125000000000001
40
0.125000000000001
40
0.156250000000001
40
0.156250000000001
40
0.187500000000001
40
0.187500000000001
40
0.218750000000001
40
0.218750000000001
40
0.250000000000001
40
0.250000000000001
40
0.281250000000001
40
0.281250000000001
40
0.312500000000001
40
0.312500000000001
40
0.343750000000001
40
0.343750000000001
40
0.375000000000001
40
0.375000000000001
40
0.406250000000001
40
0.406250000000001
40
0.437500000000001
40
0.437500000000001
40
0.468750000000001
40
0.468750000000001
40
0.500000000000001
40
0.500000000000001
40
0.507812500000001
40
0.507812500000001
40
0.515625000000001
40
0.515625000000001
40
0.531250000000001
40
0.531250000000001
40
0.562500000000001
40
0.562500000000001
40
0.593750000000001
40
0.593750000000001
40
0.625000000000001
40
0.625000000000001
40
0.656250000000001
40
0.656250000000001
40
0.687500000000001
40
0.687500000000001
40
0.718750000000001
40
0.718750000000001
40
0.75
40
0.75
40
0.78125
40
0.78125
40
0.8125
40
0.8125
40
0.84375
40
0.84375
40
0.875
40
0.875
40
0.90625
40
0.90625
40
0.9375
40
0.9375
40
0.96875
40
0.96875
40
1
40
1
40
1
40
1
41
1
10
94.7999999999999
20
-11.9548167139512
30
0
41
1
10
94.8295968018706
20
-11.971147418395
30
0
41
1
10
94.8591936037412
20
-11.9829180306429
30
0
41
1
10
94.9035888065471
20
-11.994053823441
30
0
41
1
10
94.9183872074825
20
-11.9966793580804
30
0
41
1
10
94.9479840093531
20
-11.9998141098895
30
0
41
1
10
94.9627824102884
20
-12.0003261147594
30
0
41
1
10
95.036774414965
20
-11.9977084968137
30
0
41
1
10
95.0959680187063
20
-11.9788930257302
30
0
41
1
10
95.2143552261888
20
-11.9043406156339
30
0
41
1
10
95.27354882993
20
-11.8485945100881
30
0
41
1
10
95.3919360374125
20
-11.69737054402
30
0
41
1
10
95.4511296411538
20
-11.6018839029425
30
0
41
1
10
95.5695168486364
20
-11.3693273589681
30
0
41
1
10
95.6287104523776
20
-11.2322501968101
30
0
41
1
10
95.7470976598601
20
-10.9158650460681
30
0
41
1
10
95.8062912636014
20
-10.7365524836553
30
0
41
1
10
95.9246784710839
20
-10.3364348713681
30
0
41
1
10
95.9838720748252
20
-10.1156288908411
30
0
41
1
10
96.1022592823077
20
-9.63473466403039
30
0
41
1
10
96.161452886049
20
-9.37464964241065
30
0
41
1
10
96.2798400935315
20
-8.81884648754053
30
0
41
1
10
96.3390336972727
20
-8.52313563235845
30
0
41
1
10
96.4574209047553
20
-7.90101031454455
30
0
41
1
10
96.5166145084965
20
-7.57460643443909
30
0
41
1
10
96.6350017159791
20
-6.8970334950431
30
0
41
1
10
96.6941953197203
20
-6.54587705366185
30
0
41
1
10
96.8125825272028
20
-5.82539298860462
30
0
41
1
10
96.8717761309441
20
-5.45607848459451
30
0
41
1
10
96.9901633384265
20
-4.70613570252394
30
0
41
1
10
97.0493569421678
20
-4.32551955531241
30
0
41
1
10
97.1677441496504
20
-3.55970991269649
30
0
41
1
10
97.2269377533916
20
-3.1745263809803
30
0
41
1
10
97.3453249608742
20
-2.40586178843955
30
0
41
1
10
97.4045185646155
20
-2.02238782060056
30
0
41
1
10
97.522905772098
20
-1.26270745407763
30
0
41
1
10
97.5820993758391
20
-0.88650508106474
30
0
41
1
10
97.6560913805157
20
-0.423721396905108
30
0
41
1
10
97.6708897814509
20
-0.331535842517468
30
0
41
1
10
97.7004865833216
20
-0.147970909785613
30
0
41
1
10
97.715284984257
20
-0.0567668247360018
30
0
41
1
10
97.759680187063
20
0.216720218956567
30
0
41
1
10
97.7892769889337
20
0.400749725545296
30
0
41
1
10
97.8780673945455
20
0.957198168256014
30
0
41
1
10
97.9372609982867
20
1.33400583119573
30
0
41
1
10
98.0556482057693
20
2.09457172164244
30
0
41
1
10
98.1148418095105
20
2.47832573348705
30
0
41
1
10
98.233229016993
20
3.24717449111174
30
0
41
1
10
98.2924226207343
20
3.6322619523954
30
0
41
1
10
98.4108098282169
20
4.39746622349901
30
0
41
1
10
98.470003431958
20
4.77757290714086
30
0
41
1
10
98.5883906394406
20
5.52606521713724
30
0
41
1
10
98.6475842431819
20
5.89443861133526
30
0
41
1
10
98.7659714506644
20
6.61261367121509
30
0
41
1
10
98.8251650544057
20
6.96240220288055
30
0
41
1
10
98.9435522618882
20
7.63684219519033
30
0
41
1
10
99.0027458656294
20
7.96148112200115
30
0
41
1
10
99.121133073112
20
8.57973294360175
30
0
41
1
10
99.1803266768532
20
8.87333543071483
30
0
41
1
10
99.2987138843357
20
9.42465174485346
30
0
41
1
10
99.357907488077
20
9.68235853321659
30
0
41
1
10
99.4762946955595
20
10.1583132890888
30
0
41
1
10
99.5354882993008
20
10.3765582972956
30
0
41
1
10
99.6538755067834
20
10.7714639463174
30
0
41
1
10
99.7130691105246
20
10.9481257678453
30
0
41
1
10
99.8314563180071
20
11.2592103999454
30
0
41
1
10
99.8906499217483
20
11.3936379849805
30
0
41
1
10
100.009037129231
20
11.6209784327652
30
0
41
1
10
100.068230732972
20
11.7138986856229
30
0
41
1
10
100.186617940455
20
11.860141104491
30
0
41
1
10
100.245811544196
20
11.9134721074028
30
0
41
1
10
100.364198751678
20
11.9833969767238
30
0
41
1
10
100.42339235542
20
12
30
0
41
1
10
100.482585959161
20
12
30
0
0
SPLINE
5
DE
100
AcDbEntity
8
1
62
256
6
ByLayer
370
13
48
1
60
0
100
AcDbSpline
70
4
71
3
72
78
73
74
40
0
40
0
40
0
40
0
40
0.0312499999999998
40
0.0312499999999998
40
0.0624999999999995
40
0.0624999999999995
40
0.0937499999999992
40
0.0937499999999992
40
0.124999999999999
40
0.124999999999999
40
0.156249999999999
40
0.156249999999999
40
0.187499999999998
40
0.187499999999998
40
0.218749999999998
40
0.218749999999998
40
0.249999999999998
40
0.249999999999998
40
0.281249999999998
40
0.281249999999998
40
0.312499999999997
40
0.312499999999997
40
0.343749999999997
40
0.343749999999997
40
0.374999999999997
40
0.374999999999997
40
0.406249999999997
40
0.406249999999997
40
0.437499999999996
40
0.437499999999996
40
0.445312499999996
40
0.445312499999996
40
0.453124999999996
40
0.453124999999996
40
0.468749999999996
40
0.468749999999996
40
0.499999999999997
40
0.499999999999997
40
0.531249999999997
40
0.531249999999997
40
0.562499999999998
40
0.562499999999998
40
0.593749999999998
40
0.593749999999998
40
0.624999999999998
40
0.624999999999998
40
0.656249999999999
40
0.656249999999999
40
0.687499999999999
40
0.687499999999999
40
0.718749999999999
40
0.718749999999999
40
0.75
40
0.75
40
0.78125
40
0.78125
40
0.8125
40
0.8125
40
0.843750000000001
40
0.843750000000001
40
0.875000000000001
40
0.875000000000001
40
0.890625000000001
40
0.890625000000001
40
0.898437500000001
40
0.898437500000001
40
0.906250000000001
40
0.906250000000001
40
0.937500000000001
40
0.937500000000001
40
0.96875
40
0.96875
40
1
40
1
40
1
40
1
41
1
10
99.6634294436746
20
12
30
0
41
1
10
99.7276891076864
20
12
30
0
41
1
10
99.7919487716982
20
11.980428469653
30
0
41
1
10
99.9204680997217
20
11.8976792913226
30
0
41
1
10
99.9847277637335
20
11.8344878310847
30
0
41
1
10
100.113247091757
20
11.6609706073513
30
0
41
1
10
100.177506755769
20
11.5506317824764
30
0
41
1
10
100.306026083792
20
11.2806624139754
30
0
41
1
10
100.370285747804
20
11.1210215924311
30
0
41
1
10
100.498805075828
20
10.7520198164395
30
0
41
1
10
100.56306473984
20
10.5426533892749
30
0
41
1
10
100.691584067863
20
10.0757448865386
30
0
41
1
10
100.755843731875
20
9.81820365416516
30
0
41
1
10
100.884363059898
20
9.25853750024848
30
0
41
1
10
100.94862272391
20
8.95642026812473
30
0
41
1
10
101.077142051934
20
8.31311448639113
30
0
41
1
10
101.141401715946
20
7.97193976511005
30
0
41
1
10
101.269921043969
20
7.25762503389589
30
0
41
1
10
101.334180707981
20
6.88450312854522
30
0
41
1
10
101.462700036005
20
6.11450649375215
30
0
41
1
10
101.526959700016
20
5.71765154784268
30
0
41
1
10
101.65547902804
20
4.90892885856863
30
0
41
1
10
101.719738692051
20
4.49707986367736
30
0
41
1
10
101.848258020075
20
3.66704829879004
30
0
41
1
10
101.912517684087
20
3.24888121038163
30
0
41
1
10
102.04103701211
20
2.41431041013433
30
0
41
1
10
102.105296676122
20
1.99791755474158
30
0
41
1
10
102.233816004146
20
1.17401045077591
30
0
41
1
10
102.298075668158
20
0.766502049979124
30
0
41
1
10
102.378400248172
20
0.266342129318559
30
0
41
1
10
102.394465164175
20
0.166768233848956
30
0
41
1
10
102.426594996181
20
-0.0313845542635818
30
0
41
1
10
102.442659912184
20
-0.130210602866526
30
0
41
1
10
102.490854660193
20
-0.429028636687093
30
0
41
1
10
102.522984492199
20
-0.630148800121475
30
0
41
1
10
102.619373988217
20
-1.23822248203476
30
0
41
1
10
102.683633652228
20
-1.64992803125901
30
0
41
1
10
102.812152980252
20
-2.47962253551279
30
0
41
1
10
102.876412644264
20
-2.89760372200743
30
0
41
1
10
103.004931972287
20
-3.73232715209443
30
0
41
1
10
103.069191636299
20
-4.14905665624244
30
0
41
1
10
103.197710964323
20
-4.97290853660644
30
0
41
1
10
103.261970628334
20
-5.38001395607523
30
0
41
1
10
103.390489956358
20
-6.17585300757636
30
0
41
1
10
103.45474962037
20
-6.56456718923471
30
0
41
1
10
103.583268948393
20
-7.31501636932393
30
0
41
1
10
103.647528612405
20
-7.67673190260456
30
0
41
1
10
103.776047940429
20
-8.36532759805522
30
0
41
1
10
103.84030760444
20
-8.69219102620391
30
0
41
1
10
103.968826932464
20
-9.30453118678051
30
0
41
1
10
104.033086596476
20
-9.58999629691266
30
0
41
1
10
104.161605924499
20
-10.1147273273926
30
0
41
1
10
104.225865588511
20
-10.3539881869764
30
0
41
1
10
104.354384916535
20
-10.7834918527722
30
0
41
1
10
104.418644580546
20
-10.9737363789466
30
0
41
1
10
104.54716390857
20
-11.3044319020366
30
0
41
1
10
104.611423572582
20
-11.4448904449968
30
0
41
1
10
104.739942900605
20
-11.6771382182852
30
0
41
1
10
104.804202564617
20
-11.7689390514396
30
0
41
1
10
104.932721892641
20
-11.9066006428273
30
0
41
1
10
104.996981556653
20
-11.9524749794244
30
0
41
1
10
105.09337105267
20
-11.9897927048934
30
0
41
1
10
105.125500884676
20
-11.9969911906688
30
0
41
1
10
105.173695632685
20
-12.0003561953538
30
0
41
1
10
105.189760548688
20
-12.0002495482558
30
0
41
1
10
105.221890380694
20
-11.9975698486022
30
0
41
1
10
105.237955296696
20
-11.9949882989325
30
0
41
1
10
105.318279876711
20
-11.9756907387313
30
0
41
1
10
105.382539540723
20
-11.939770640208
30
0
41
1
10
105.511058868747
20
-11.8228257217604
30
0
41
1
10
105.575318532759
20
-11.7417871558045
30
0
41
1
10
105.703837860782
20
-11.5315591105998
30
0
41
1
10
105.768097524794
20
-11.4023573939168
30
0
41
1
10
105.832357188806
20
-11.2483164262245
30
0
0
SPLINE
5
DF
100
AcDbEntity
8
1
62
256
6
ByLayer
370
13
48
1
60
0
100
AcDbSpline
70
4
71
3
72
70
73
66
40
0
40
0
40
0
40
0
40
0.03125
40
0.03125
40
0.0625
40
0.0625
40
0.09375
40
0.09375
40
0.125
40
0.125
40
0.15625
40
0.15625
40
0.1875
40
0.1875
40
0.21875
40
0.21875
40
0.25
40
0.25
40
0.28125
40
0.28125
40
0.3125
40
0.3125
40
0.34375
40
0.34375
40
0.375
40
0.375
40
0.40625
40
0.40625
40
0.4375
40
0.4375
40
0.46875
40
0.46875
40
0.484375
40
0.484375
40
0.5
40
0.5
40
0.53125
40
0.53125
40
0.5625
40
0.5625
40
0.59375
40
0.59375
40
0.625
40
0.625
40
0.65625
40
0.65625
40
0.6875
40
0.6875
40
0.71875
40
0.71875
40
0.75
40
0.75
40
0.78125
40
0.78125
40
0.8125
40
0.8125
40
0.84375
40
0.84375
40
0.875
40
0.875
40
0.90625
40
0.90625
40
0.9375
40
0.9375
40
1
40
1
40
1
40
1
41
1
10
94.8
20
-11.8282118154422
30
0
41
1
10
94.8541275319787
20
-11.7684710158809
30
0
41
1
10
94.9082550639574
20
-11.6923905345878
30
0
41
1
10
95.0165101279148
20
-11.5059032843518
30
0
41
1
10
95.0706376598935
20
-11.3954914448161
30
0
41
1
10
95.1788927238509
20
-11.1394692715899
30
0
41
1
10
95.2330202558296
20
-10.9938551792378
30
0
41
1
10
95.3412753197869
20
-10.6674774232622
30
0
41
1
10
95.3954028517657
20
-10.4867118919495
30
0
41
1
10
95.5036579157231
20
-10.0910878612153
30
0
41
1
10
95.5577854477018
20
-9.8762297993986
30
0
41
1
10
95.6660405116592
20
-9.41450784686381
30
0
41
1
10
95.7201680436379
20
-9.1676468515098
30
0
41
1
10
95.8284231075953
20
-8.64498701568968
30
0
41
1
10
95.882550639574
20
-8.36919336407541
30
0
41
1
10
95.9908057035314
20
-7.79259482224566
30
0
41
1
10
96.0449332355101
20
-7.49179694064833
30
0
41
1
10
96.1531882994675
20
-6.86979007973386
30
0
41
1
10
96.2073158314462
20
-6.54858921811402
30
0
41
1
10
96.3155708954036
20
-5.89082022460411
30
0
41
1
10
96.3696984273823
20
-5.55426049303412
30
0
41
1
10
96.4779534913397
20
-4.8710102295577
30
0
41
1
10
96.5320810233185
20
-4.52432757742741
30
0
41
1
10
96.6403360872758
20
-3.82601333129756
30
0
41
1
10
96.6944636192545
20
-3.47438843919713
30
0
41
1
10
96.802718683212
20
-2.77109585092725
30
0
41
1
10
96.8568462151906
20
-2.41943324696391
30
0
41
1
10
96.9651012791479
20
-1.7205172868583
30
0
41
1
10
97.0192288111267
20
-1.37326723271511
30
0
41
1
10
97.127483875084
20
-0.68704795168648
30
0
41
1
10
97.1816114070628
20
-0.348080284169953
30
0
41
1
10
97.2628027050309
20
0.151746674297755
30
0
41
1
10
97.2898664710202
20
0.319464510115154
30
0
41
1
10
97.3439940029989
20
0.657733806577852
30
0
41
1
10
97.3710577689883
20
0.828122051821936
30
0
41
1
10
97.4522490669563
20
1.34241706355391
30
0
41
1
10
97.506376598935
20
1.68947350754939
30
0
41
1
10
97.6146316628924
20
2.38812615549435
30
0
41
1
10
97.6687591948712
20
2.73971911097254
30
0
41
1
10
97.7770142588285
20
3.44301202381433
30
0
41
1
10
97.8311417908072
20
3.79470694084091
30
0
41
1
10
97.9393968547646
20
4.49331205089939
30
0
41
1
10
97.9935243867432
20
4.84021558491352
30
0
41
1
10
98.1017794507007
20
5.52406364726761
30
0
41
1
10
98.1559069826794
20
5.86100032235396
30
0
41
1
10
98.2641620466367
20
6.51967741842446
30
0
41
1
10
98.3182895786155
20
6.84140944343764
30
0
41
1
10
98.4265446425729
20
7.46462350304247
30
0
41
1
10
98.4806721745516
20
7.76609739938223
30
0
41
1
10
98.5889272385091
20
8.34417621099678
30
0
41
1
10
98.6430547704876
20
8.62077407350822
30
0
41
1
10
98.751309834445
20
9.14514763159232
30
0
41
1
10
98.8054373664238
20
9.3929180759427
30
0
41
1
10
98.9136924303812
20
9.85653660115329
30
0
41
1
10
98.9678199623599
20
10.0723817144474
30
0
41
1
10
99.0760750263173
20
10.4700272645696
30
0
41
1
10
99.130202558296
20
10.6518271914035
30
0
41
1
10
99.2384576222534
20
10.9802904708782
30
0
41
1
10
99.2925851542321
20
11.1269556275325
30
0
41
1
10
99.4008402181896
20
11.3850676262448
30
0
41
1
10
99.4549677501683
20
11.4965181785329
30
0
41
1
10
99.5632228141257
20
11.6850448682739
30
0
41
1
10
99.6173503461044
20
11.7621260464262
30
0
41
1
10
99.7797329420405
20
11.9442618382296
30
0
41
1
10
99.8879880059978
20
12
30
0
41
1
10
99.9962430699552
20
12
30
0
0
SPLINE
5
E0
100
AcDbEntity
8
1
62
256
6
ByLayer
370
13
48
1
60
0
100
AcDbSpline
70
4
71
3
72
78
73
74
40
0
40
0
40
0
40
0
40
0.0312499999999999
40
0.0312499999999999
40
0.0624999999999999
40
0.0624999999999999
40
0.0937499999999998
40
0.0937499999999998
40
0.125
40
0.125
40
0.15625
40
0.15625
40
0.1875
40
0.1875
40
0.21875
40
0.21875
40
0.25
40
0.25
40
0.28125
40
0.28125
40
0.3125
40
0.3125
40
0.34375
40
0.34375
40
0.375
40
0.375
40
0.40625
40
0.40625
40
0.414062499999999
40
0.414062499999999
40
0.421874999999999
40
0.421874999999999
40
0.437499999999999
40
0.437499999999999
40
0.468749999999999
40
0.468749999999999
40
0.499999999999999
40
0.499999999999999
40
0.531249999999999
40
0.531249999999999
40
0.5625
40
0.5625
40
0.59375
40
0.59375
40
0.625
40
0.625
40
0.65625
40
0.65625
40
0.6875
40
0.6875
40
0.71875
40
0.71875
40
0.75
40
0.75
40
0.78125
40
0.78125
40
0.8125
40
0.8125
40
0.828125
40
0.828125
40
0.8359375
40
0.8359375
40
0.84375
40
0.84375
40
0.875
40
0.875
40
0.90625
40
0.90625
40
0.9375
40
0.9375
40
0.96875
40
0.96875
40
1
40
1
40
1
40
1
41
1
10
99.177086554469
20
12
30
0
41
1
10
99.2464122902433
20
12
30
0
41
1
10
99.3157380260177
20
11.9772144720874
30
0
41
1
10
99.4543894975663
20
11.8805082557742
30
0
41
1
10
99.5237152333407
20
11.8065673899454
30
0
41
1
10
99.6623667048893
20
11.6032940502329
30
0
41
1
10
99.7316924406638
20
11.4739429485693
30
0
41
1
10
99.8703439122124
20
11.1575322510156
30
0
41
1
10
99.9396696479867
20
10.9704590667101
30
0
41
1
10
100.078321119535
20
10.538723988213
30
0
41
1
10
100.14764685531
20
10.2940568390166
30
0
41
1
10
100.286298326858
20
9.74998508803805
30
0
41
1
10
100.355624062633
20
9.45058566751783
30
0
41
1
10
100.494275534181
20
8.80263974976364
30
0
41
1
10
100.563601269956
20
8.45410896024637
30
0
41
1
10
100.702252741504
20
7.7159145895761
30
0
41
1
10
100.771578477279
20
7.3262750636253
30
0
41
1
10
100.910229948827
20
6.51569438911986
30
0
41
1
10
100.979555684602
20
6.09478168842062
30
0
41
1
10
101.118207156151
20
5.23249851073129
30
0
41
1
10
101.187532891925
20
4.79115622634114
30
0
41
1
10
101.326184363474
20
3.89900264380208
30
0
41
1
10
101.395510099248
20
3.44821517714041
30
0
41
1
10
101.534161570796
20
2.54750958959835
30
0
41
1
10
101.603487306571
20
2.09760828893093
30
0
41
1
10
101.742138778119
20
1.20774451632744
30
0
41
1
10
101.811464513894
20
0.767790983070967
30
0
41
1
10
101.898121683612
20
0.228693620120481
30
0
41
1
10
101.915453117555
20
0.121412057279628
30
0
41
1
10
101.950115985443
20
-0.091977185524712
30
0
41
1
10
101.967447419386
20
-0.19905390916702
30
0
41
1
10
102.019441721217
20
-0.522214331396725
30
0
41
1
10
102.054104589104
20
-0.739828387121634
30
0
41
1
10
102.158093192766
20
-1.39789588999352
30
0
41
1
10
102.22741892854
20
-1.84362617023987
30
0
41
1
10
102.366070400089
20
-2.74091326367932
30
0
41
1
10
102.435396135863
20
-3.19245737859248
30
0
41
1
10
102.574047607412
20
-4.09164960622996
30
0
41
1
10
102.643373343186
20
-4.53927733634012
30
0
41
1
10
102.782024814735
20
-5.4199102236129
30
0
41
1
10
102.851350550509
20
-5.85288903407459
30
0
41
1
10
102.990002022058
20
-6.69320292635115
30
0
41
1
10
103.059327757832
20
-7.10050912128239
30
0
41
1
10
103.197979229381
20
-7.87900537435934
30
0
41
1
10
103.267304965155
20
-8.2501685131262
30
0
41
1
10
103.405956436704
20
-8.94731022216962
30
0
41
1
10
103.475282172478
20
-9.27326831463546
30
0
41
1
10
103.613933644027
20
-9.87306320281959
30
0
41
1
10
103.683259379801
20
-10.146889176798
30
0
41
1
10
103.82191085135
20
-10.6380950858512
30
0
41
1
10
103.891236587124
20
-10.8554749668351
30
0
41
1
10
104.029888058673
20
-11.2322411894464
30
0
41
1
10
104.099213794447
20
-11.3916371199201
30
0
41
1
10
104.237865265996
20
-11.6535158281107
30
0
41
1
10
104.30719100177
20
-11.7560150434138
30
0
41
1
10
104.445842473319
20
-11.907406164144
30
0
41
1
10
104.515168209093
20
-11.9563178493643
30
0
41
1
10
104.619156812755
20
-11.9932105339181
30
0
41
1
10
104.653819680642
20
-11.999440059171
30
0
41
1
10
104.705813982473
20
-12.0002257922058
30
0
41
1
10
104.723145416416
20
-11.9990688648437
30
0
41
1
10
104.757808284303
20
-11.9938288949468
30
0
41
1
10
104.775139718247
20
-11.9897451098201
30
0
41
1
10
104.861796887965
20
-11.9617835006173
30
0
41
1
10
104.931122623739
20
-11.9152271075237
30
0
41
1
10
105.069774095288
20
-11.7687434897138
30
0
41
1
10
105.139099831062
20
-11.6687964151779
30
0
41
1
10
105.277751302611
20
-11.4121295199507
30
0
41
1
10
105.347077038385
20
-11.2553930295795
30
0
41
1
10
105.485728509934
20
-10.8839407610864
30
0
41
1
10
105.555054245708
20
-10.6692150085371
30
0
41
1
10
105.693705717257
20
-10.1831862454408
30
0
41
1
10
105.763031453031
20
-9.91188280502681
30
0
41
1
10
105.832357188806
20
-9.61437903461851
30
0
0
SPLINE
5
E1
100
AcDbEntity
8
1
62
256
6
ByLayer
370
13
48
1
60
0
100
AcDbSpline
70
4
71
3
72
42
73
38
40
0
40
0
40
0
40
0
40
0.0625
40
0.0625
40
0.125
40
0.125
40
0.1875
40
0.1875
40
0.25
40
0.25
40
0.3125
40
0.3125
40
0.375
40
0.375
40
0.40625
40
0.40625
40
0.421875
40
0.421875
40
0.4375
40
0.4375
40
0.5
40
0.5
40
0.5625
40
0.5625
40
0.625
40
0.625
40
0.6875
40
0.6875
40
0.75
40
0.75
40
0.8125
40
0.8125
40
0.875
40
0.875
40
0.9375
40
0.9375
40
1
40
1
40
1
40
1
41
1
10
94.7999999999999
20
-10.8330916943449
30
0
41
1
10
94.8981229204323
20
-10.5375764208767
30
0
41
1
10
94.9962458408645
20
-10.1839730690782
30
0
41
1
10
95.192491681729
20
-9.36936632187587
30
0
41
1
10
95.2906146021614
20
-8.90841020101246
30
0
41
1
10
95.486860443026
20
-7.89855357516976
30
0
41
1
10
95.5849833634582
20
-7.3497768404246
30
0
41
1
10
95.7812292043227
20
-6.19185924007635
30
0
41
1
10
95.8793521247551
20
-5.58287993217968
30
0
41
1
10
96.0755979656197
20
-4.33580847593461
30
0
41
1
10
96.1737208860519
20
-3.69786465864249
30
0
41
1
10
96.3699667269164
20
-2.4229424968286
30
0
41
1
10
96.4680896473488
20
-1.78606147414223
30
0
41
1
10
96.6152740279972
20
-0.850286290074138
30
0
41
1
10
96.6643354882133
20
-0.541571086346806
30
0
41
1
10
96.7379276785375
20
-0.0851741059051676
30
0
41
1
10
96.7624584086456
20
0.0652115142151501
30
0
41
1
10
96.8115198688618
20
0.369280768122707
30
0
41
1
10
96.8360505989698
20
0.522430707466043
30
0
41
1
10
96.9587042495102
20
1.2930197702303
30
0
41
1
10
97.0568271699424
20
1.92524077216407
30
0
41
1
10
97.253073010807
20
3.19795623094066
30
0
41
1
10
97.3511959312393
20
3.83836962197944
30
0
41
1
10
97.547441772104
20
5.09850408024593
30
0
41
1
10
97.6455646925362
20
5.718087477014
30
0
41
1
10
97.8418105334008
20
6.90522050956181
30
0
41
1
10
97.939933453833
20
7.47260725108873
30
0
41
1
10
98.1361792946977
20
8.5262859154663
30
0
41
1
10
98.2343022151299
20
9.01243950472357
30
0
41
1
10
98.4305480559944
20
9.88159002228201
30
0
41
1
10
98.5286709764267
20
10.2645175951809
30
0
41
1
10
98.7249168172912
20
10.9154218022821
30
0
41
1
10
98.8230397377235
20
11.1834139558239
30
0
41
1
10
99.0192855785882
20
11.6037557376069
30
0
41
1
10
99.1174084990205
20
11.7561878720943
30
0
41
1
10
99.3136543398849
20
11.954253831491
30
0
41
1
10
99.4117772603173
20
12
30
0
41
1
10
99.5099001807496
20
12
30
0
0
SPLINE
5
E2
100
AcDbEntity
8
1
62
256
6
ByLayer
370
13
48
1
60
0
100
AcDbSpline
70
4
71
3
72
80
73
76
40
0
40
0
40
0
40
0
40
0.0312500000000004
40
0.0312500000000004
40
0.0625000000000007
40
0.0625000000000007
40
0.0937500000000011
40
0.0937500000000011
40
0.125000000000001
40
0.125000000000001
40
0.156250000000002
40
0.156250000000002
40
0.187500000000002
40
0.187500000000002
40
0.218750000000002
40
0.218750000000002
40
0.250000000000003
40
0.250000000000003
40
0.281250000000003
40
0.281250000000003
40
0.312500000000003
40
0.312500000000003
40
0.343750000000004
40
0.343750000000004
40
0.375000000000004
40
0.375000000000004
40
0.382812500000004
40
0.382812500000004
40
0.390625000000004
40
0.390625000000004
40
0.406250000000004
40
0.406250000000004
40
0.437500000000004
40
0.437500000000004
40
0.468750000000004
40
0.468750000000004
40
0.500000000000003
40
0.500000000000003
40
0.531250000000003
40
0.531250000000003
40
0.562500000000003
40
0.562500000000003
40
0.593750000000003
40
0.593750000000003
40
0.625000000000003
40
0.625000000000003
40
0.656250000000002
40
0.656250000000002
40
0.687500000000002
40
0.687500000000002
40
0.718750000000002
40
0.718750000000002
40
0.750000000000002
40
0.750000000000002
40
0.765625000000002
40
0.765625000000002
40
0.769531250000002
40
0.769531250000002
40
0.773437500000002
40
0.773437500000002
40
0.781250000000002
40
0.781250000000002
40
0.812500000000001
40
0.812500000000001
40
0.843750000000001
40
0.843750000000001
40
0.875000000000001
40
0.875000000000001
40
0.906250000000001
40
0.906250000000001
40
0.937500000000001
40
0.937500000000001
40
0.96875
40
0.96875
40
1
40
1
40
1
40
1
41
1
10
98.6907436652633
20
12
30
0
41
1
10
98.7651354728001
20
12
30
0
41
1
10
98.8395272803371
20
11.9737544917566
30
0
41
1
10
98.9883108954109
20
11.8619477576616
30
0
41
1
10
99.0627027029478
20
11.776357860189
30
0
41
1
10
99.2114863180217
20
11.5408260930342
30
0
41
1
10
99.2858781255585
20
11.3908584860165
30
0
41
1
10
99.4346617406322
20
11.0242134670679
30
0
41
1
10
99.5090535481691
20
10.8075189891329
30
0
41
1
10
99.6578371632429
20
10.3084054392297
30
0
41
1
10
99.7322289707799
20
10.0259830486014
30
0
41
1
10
99.8810125858537
20
9.40006585092428
30
0
41
1
10
99.9554043933905
20
9.05658403901361
30
0
41
1
10
100.104188008464
20
8.31672868744843
30
0
41
1
10
100.178579816001
20
7.92038323135327
30
0
41
1
10
100.327363431075
20
7.08588487700024
30
0
41
1
10
100.401755238612
20
6.64777016263278
30
0
41
1
10
100.550538853686
20
5.74270461206305
30
0
41
1
10
100.624930661223
20
5.27579478389532
30
0
41
1
10
100.773714276296
20
4.32678003127526
30
0
41
1
10
100.848106083833
20
3.84471165287062
30
0
41
1
10
100.996889698907
20
2.87849996827572
30
0
41
1
10
101.071281506444
20
2.39438349329299
30
0
41
1
10
101.220065121518
20
1.43570643183531
30
0
41
1
10
101.294456929055
20
0.961160751947006
30
0
41
1
10
101.387446688476
20
0.379894660776415
30
0
41
1
10
101.40604464036
20
0.264231597296629
30
0
41
1
10
101.443240544129
20
0.0342109421538339
30
0
41
1
10
101.461838496013
20
-0.0799160076684586
30
0
41
1
10
101.517632351665
20
-0.425463836563552
30
0
41
1
10
101.554828255434
20
-0.658412487388063
30
0
41
1
10
101.666415966739
20
-1.36343580932382
30
0
41
1
10
101.740807774276
20
-1.84175627870317
30
0
41
1
10
101.88959138935
20
-2.80489042530286
30
0
41
1
10
101.963983196887
20
-3.2896857741861
30
0
41
1
10
102.112766811961
20
-4.25366037647203
30
0
41
1
10
102.187158619497
20
-4.73280968491099
30
0
41
1
10
102.335942234571
20
-5.67213066840432
30
0
41
1
10
102.410334042108
20
-6.13226388273995
30
0
41
1
10
102.559117657182
20
-7.01998022008164
30
0
41
1
10
102.633509464719
20
-7.44752235167172
30
0
41
1
10
102.782293079793
20
-8.25749061408118
30
0
41
1
10
102.85668488733
20
-8.63988074295412
30
0
41
1
10
103.005468502403
20
-9.34917029723235
30
0
41
1
10
103.07986030994
20
-9.67604555306687
30
0
41
1
10
103.228643925014
20
-10.2670492405871
30
0
41
1
10
103.303035732551
20
-10.531169350317
30
0
41
1
10
103.451819347625
20
-10.9930246972419
30
0
41
1
10
103.526211155162
20
-11.190767548264
30
0
41
1
10
103.674994770235
20
-11.5198555608668
30
0
41
1
10
103.749386577772
20
-11.6512208232359
30
0
41
1
10
103.898170192846
20
-11.8507341961024
30
0
41
1
10
103.972562000383
20
-11.9189094414288
30
0
41
1
10
104.084149711688
20
-11.9779918131499
30
0
41
1
10
104.121345615457
20
-11.9905057454691
30
0
41
1
10
104.167840495167
20
-11.9977109843111
30
0
41
1
10
104.17713947111
20
-11.9987303805392
30
0
41
1
10
104.195737422994
20
-11.9999400971725
30
0
41
1
10
104.205036398936
20
-12.0001311726906
30
0
41
1
10
104.232933326762
20
-11.9994771773485
30
0
41
1
10
104.251531278646
20
-11.9973964088166
30
0
41
1
10
104.344521038068
20
-11.978484373604
30
0
41
1
10
104.418912845604
20
-11.9360659895136
30
0
41
1
10
104.567696460678
20
-11.7902624333957
30
0
41
1
10
104.642088268215
20
-11.6868488691446
30
0
41
1
10
104.790871883289
20
-11.414696567297
30
0
41
1
10
104.865263690826
20
-11.2459339601478
30
0
41
1
10
105.0140473059
20
-10.841616907678
30
0
41
1
10
105.088439113436
20
-10.6060488503916
30
0
41
1
10
105.23722272851
20
-10.0701302510829
30
0
41
1
10
105.311614536047
20
-9.76978089998784
30
0
41
1
10
105.460398151121
20
-9.10998695311702
30
0
41
1
10
105.534789958658
20
-8.75055992732754
30
0
41
1
10
105.683573573732
20
-7.98169685532812
30
0
41
1
10
105.757965381269
20
-7.57229239692487
30
0
41
1
10
105.832357188806
20
-7.14375081227132
30
0
0
SPLINE
5
E3
100
AcDbEntity
8
1
62
256
6
ByLayer
370
13
48
1
60
0
100
AcDbSpline
70
4
71
3
72
43
73
39
40
0
40
0
40
0
40
0
40
0.0625000000000002
40
0.0625000000000002
40
0.125
40
0.125
40
0.1875
40
0.1875
40
0.25
40
0.25
40
0.3125
40
0.3125
40
0.343750000000001
40
0.343750000000001
40
0.351562500000001
40
0.351562500000001
40
0.359375000000001
40
0.375000000000001
40
0.375000000000001
40
0.437500000000001
40
0.437500000000001
40
0.500000000000001
40
0.500000000000001
40
0.562500000000001
40
0.562500000000001
40
0.625000000000001
40
0.625000000000001
40
0.6875
40
0.6875
40
0.75
40
0.75
40
0.8125
40
0.8125
40
0.875
40
0.875
40
0.9375
40
0.9375
40
1
40
1
40
1
40
1
41
1
10
94.7999999999999
20
-8.91408484326465
30
0
41
1
10
94.8879907769071
20
-8.48972721433464
30
0
41
1
10
94.9759815538143
20
-8.02697193356445
30
0
41
1
10
95.1519631076286
20
-7.04242007118722
30
0
41
1
10
95.2399538845358
20
-6.52071116484689
30
0
41
1
10
95.4159354383501
20
-5.43988087865696
30
0
41
1
10
95.5039262152574
20
-4.8808535338064
30
0
41
1
10
95.6799077690716
20
-3.74795394465679
30
0
41
1
10
95.7678985459788
20
-3.17415949352497
30
0
41
1
10
95.9438800997932
20
-2.03257220584183
30
0
41
1
10
96.0318708767002
20
-1.464827198259
30
0
41
1
10
96.1638570420609
20
-0.630609826392259
30
0
41
1
10
96.2078524305146
20
-0.355404576392203
30
0
41
1
10
96.2628466660816
20
-0.0160557270018842
30
0
41
1
10
96.273845513195
20
0.0515155397723959
30
0
41
1
10
96.2958432074218
20
0.18741630384136
30
0
41
1
10
96.3288397487619
20
0.391957225692181
30
0
41
1
10
96.3618362901022
20
0.59845550981575
30
0
41
1
10
96.4718247612361
20
1.29059225267053
30
0
41
1
10
96.5598155381433
20
1.85666196195442
30
0
41
1
10
96.7357970919576
20
2.99685968614423
30
0
41
1
10
96.8237878688647
20
3.57094327244349
30
0
41
1
10
96.9997694226791
20
4.70668682049242
30
0
41
1
10
97.0877601995863
20
5.2682716436984
30
0
41
1
10
97.2637417534006
20
6.35654976447282
30
0
41
1
10
97.3517325303078
20
6.88314975594744
30
0
41
1
10
97.527714084122
20
7.8795913157318
30
0
41
1
10
97.6157048610292
20
8.34934340792111
30
0
41
1
10
97.7916864148436
20
9.2136565557756
30
0
41
1
10
97.8796771917507
20
9.60815546772125
30
0
41
1
10
98.0556587455651
20
10.3093256633531
30
0
41
1
10
98.1436495224722
20
10.6159771331337
30
0
41
1
10
98.3196310762865
20
11.135887068677
30
0
41
1
10
98.4076218531937
20
11.3491685889838
30
0
41
1
10
98.5836034070081
20
11.6837836230981
30
0
41
1
10
98.6715941839152
20
11.8051706751971
30
0
41
1
10
98.8475757377295
20
11.9632459432797
30
0
41
1
10
98.9355665146367
20
12
30
0
41
1
10
99.0235572915438
20
12
30
0
0
SPLINE
5
E4
100
AcDbEntity
8
1
62
256
6
ByLayer
370
13
48
1
60
0
100
AcDbSpline
70
4
71
3
72
79
73
75
40
0
40
0
40
0
40
0
40
0.031249999999999
40
0.031249999999999
40
0.0624999999999979
40
0.0624999999999979
40
0.0937499999999969
40
0.0937499999999969
40
0.124999999999996
40
0.124999999999996
40
0.156249999999995
40
0.156249999999995
40
0.187499999999994
40
0.187499999999994
40
0.218749999999993
40
0.218749999999993
40
0.249999999999992
40
0.249999999999992
40
0.281249999999991
40
0.281249999999991
40
0.31249999999999
40
0.31249999999999
40
0.343749999999989
40
0.343749999999989
40
0.359374999999988
40
0.359374999999988
40
0.363281249999988
40
0.363281249999988
40
0.367187499999988
40
0.374999999999988
40
0.374999999999988
40
0.406249999999989
40
0.406249999999989
40
0.43749999999999
40
0.43749999999999
40
0.468749999999991
40
0.468749999999991
40
0.499999999999992
40
0.499999999999992
40
0.531249999999993
40
0.531249999999993
40
0.562499999999994
40
0.562499999999994
40
0.593749999999995
40
0.593749999999995
40
0.624999999999996
40
0.624999999999996
40
0.656249999999997
40
0.656249999999997
40
0.687499999999998
40
0.687499999999998
40
0.718749999999999
40
0.718749999999999
40
0.726562499999999
40
0.726562499999999
40
0.734374999999999
40
0.734374999999999
40
0.749999999999999
40
0.749999999999999
40
0.781249999999999
40
0.781249999999999
40
0.812499999999999
40
0.812499999999999
40
0.84375
40
0.84375
40
0.875
40
0.875
40
0.90625
40
0.90625
40
0.9375
40
0.9375
40
0.96875
40
0.96875
40
1
40
1
40
1
40
1
41
1
10
98.2044007760576
20
12
30
0
41
1
10
98.283858655357
20
12
30
0
41
1
10
98.3633165346565
20
11.9700479741169
30
0
41
1
10
98.5222322932554
20
11.8419868060646
30
0
41
1
10
98.601690172555
20
11.7438378946724
30
0
41
1
10
98.7606059311539
20
11.4735283886042
30
0
41
1
10
98.8400638104532
20
11.3013332370146
30
0
41
1
10
98.9989795690521
20
10.8806971458431
30
0
41
1
10
99.0784374483517
20
10.6322359357442
30
0
41
1
10
99.2373532069506
20
10.0613117739639
30
0
41
1
10
99.31681108625
20
9.73885025018751
30
0
41
1
10
99.4757268448489
20
9.02695573538583
30
0
41
1
10
99.5551847241483
20
8.63754840253347
30
0
41
1
10
99.7141004827473
20
7.80317622709757
30
0
41
1
10
99.7935583620467
20
7.3582571856013
30
0
41
1
10
99.9524741206456
20
6.42756497114502
30
0
41
1
10
100.031931999945
20
5.94184801801907
30
0
41
1
10
100.190847758544
20
4.94598060529273
30
0
41
1
10
100.270305637844
20
4.43588484055306
30
0
41
1
10
100.429221396442
20
3.40768748253194
30
0
41
1
10
100.508679275742
20
2.88962899117681
30
0
41
1
10
100.667595034341
20
1.86043828277741
30
0
41
1
10
100.74705291364
20
1.34933214644209
30
0
41
1
10
100.86623973259
20
0.597154622883153
30
0
41
1
10
100.905968672239
20
0.348820139205941
30
0
41
1
10
100.955629846801
20
0.0421786055090365
30
0
41
1
10
100.965562081714
20
-0.0188447779050023
30
0
41
1
10
100.985426551539
20
-0.141405329419427
30
0
41
1
10
101.015223256276
20
-0.325814478024966
30
0
41
1
10
101.045019961013
20
-0.511846924445166
30
0
41
1
10
101.144342310137
20
-1.13517084084165
30
0
41
1
10
101.223800189437
20
-1.64423617158531
30
0
41
1
10
101.382715948036
20
-2.6712568039537
30
0
41
1
10
101.462173827335
20
-3.1891885548697
30
0
41
1
10
101.621089585934
20
-4.21935217350403
30
0
41
1
10
101.700547465234
20
-4.73154313218538
30
0
41
1
10
101.859463223833
20
-5.73395103263073
30
0
41
1
10
101.938921103132
20
-6.22411439065243
30
0
41
1
10
102.097836861731
20
-7.16594961470045
30
0
41
1
10
102.17729474103
20
-7.6175647545351
30
0
41
1
10
102.33621049963
20
-8.467238400051
30
0
41
1
10
102.415668378929
20
-8.86524895264259
30
0
41
1
10
102.574584137528
20
-9.59571758559866
30
0
41
1
10
102.654042016827
20
-9.92814676863955
30
0
41
1
10
102.812957775426
20
-10.5197152048642
30
0
41
1
10
102.892415654726
20
-10.7788496248661
30
0
41
1
10
103.051331413325
20
-11.2208686391709
30
0
41
1
10
103.130789292624
20
-11.4037708147048
30
0
41
1
10
103.289705051223
20
-11.6949392971148
30
0
41
1
10
103.369162930522
20
-11.8032386952641
30
0
41
1
10
103.528078689121
20
-11.9505989165428
30
0
41
1
10
103.607536568421
20
-11.9896992993852
30
0
41
1
10
103.706858917545
20
-12.0003352460381
30
0
41
1
10
103.72672338737
20
-12.0005704848376
30
0
41
1
10
103.76645232702
20
-11.9972836241155
30
0
41
1
10
103.786316796845
20
-11.9937418360205
30
0
41
1
10
103.845910206319
20
-11.977216580135
30
0
41
1
10
103.885639145969
20
-11.958329181623
30
0
41
1
10
104.004825964918
20
-11.8765434687725
30
0
41
1
10
104.084283844217
20
-11.7884270097119
30
0
41
1
10
104.243199602816
20
-11.5388127482089
30
0
41
1
10
104.322657482116
20
-11.3772791083953
30
0
41
1
10
104.481573240715
20
-10.978024722625
30
0
41
1
10
104.561031120014
20
-10.7402811696326
30
0
41
1
10
104.719946878613
20
-10.1901863792831
30
0
41
1
10
104.799404757912
20
-9.87783321794353
30
0
41
1
10
104.958320516511
20
-9.18488241281636
30
0
41
1
10
105.037778395811
20
-8.80430710525923
30
0
41
1
10
105.19669415441
20
-7.98576011177204
30
0
41
1
10
105.276152033709
20
-7.54783187592804
30
0
41
1
10
105.435067792308
20
-6.6289063985104
30
0
41
1
10
105.514525671608
20
-6.14796462619876
30
0
41
1
10
105.673441430207
20
-5.15929503168914
30
0
41
1
10
105.752899309506
20
-4.65162281091727
30
0
41
1
10
105.832357188806
20
-4.13882038648549
30
0
0
SPLINE
5
E5
100
AcDbEntity
8
1
62
256
6
ByLayer
370
13
48
1
60
0
100
AcDbSpline
70
4
71
3
72
44
73
40
40
0
40
0
40
0
40
0
40
0.0625
40
0.0625
40
0.125
40
0.125
40
0.1875
40
0.1875
40
0.25
40
0.25
40
0.2578125
40
0.2578125
40
0.265625
40
0.265625
40
0.28125
40
0.28125
40
0.3125
40
0.3125
40
0.375
40
0.375
40
0.4375
40
0.4375
40
0.5
40
0.5
40
0.5625
40
0.5625
40
0.625
40
0.625
40
0.6875
40
0.6875
40
0.75
40
0.75
40
0.8125
40
0.8125
40
0.875
40
0.875
40
0.9375
40
0.9375
40
1
40
1
40
1
40
1
41
1
10
94.8
20
-6.23437156585447
30
0
41
1
10
94.8778586333821
20
-5.76162344118151
30
0
41
1
10
94.9557172667641
20
-5.27291387065699
30
0
41
1
10
95.1114345335281
20
-4.27911257462634
30
0
41
1
10
95.1892931669102
20
-3.77406654276462
30
0
41
1
10
95.3450104336744
20
-2.76258870855833
30
0
41
1
10
95.4228690670563
20
-2.25618966608613
30
0
41
1
10
95.5785863338204
20
-1.25515405377973
30
0
41
1
10
95.6564449672025
20
-0.76053454167797
30
0
41
1
10
95.7440359297572
20
-0.216636241803485
30
0
41
1
10
95.7537682589301
20
-0.15637558029303
30
0
41
1
10
95.7732329172755
20
-0.0362166316719481
30
0
41
1
10
95.7829652464482
20
0.0235771616449085
30
0
41
1
10
95.8121622339666
20
0.203739064640132
30
0
41
1
10
95.8316268923121
20
0.324574495105963
30
0
41
1
10
95.8900208673486
20
0.689050735427287
30
0
41
1
10
95.9289501840396
20
0.934667014419404
30
0
41
1
10
96.0457381341127
20
1.67751077166915
30
0
41
1
10
96.1235967674948
20
2.18081148571323
30
0
41
1
10
96.2793140342588
20
3.19139717142056
30
0
41
1
10
96.3571726676408
20
3.69865532546152
30
0
41
1
10
96.512889934405
20
4.70277832445492
30
0
41
1
10
96.590748567787
20
5.19960182183152
30
0
41
1
10
96.7464658345511
20
6.16731256763404
30
0
41
1
10
96.8243244679332
20
6.63814946928525
30
0
41
1
10
96.9800417346973
20
7.53858003344058
30
0
41
1
10
97.0579003680793
20
7.96812356751508
30
0
41
1
10
97.2136176348434
20
8.77244196526391
30
0
41
1
10
97.2914762682254
20
9.14717724864349
30
0
41
1
10
97.4471935349895
20
9.83152045765101
30
0
41
1
10
97.5250521683716
20
10.1411073361625
30
0
41
1
10
97.6807694351356
20
10.6888983788635
30
0
41
1
10
97.7586280685177
20
10.9271029957852
30
0
41
1
10
97.9143453352818
20
11.3302924323963
30
0
41
1
10
97.9922039686638
20
11.4952965761153
30
0
41
1
10
98.1479212354279
20
11.7543545472659
30
0
41
1
10
98.22577986881
20
11.8484399547377
30
0
41
1
10
98.3814971355741
20
11.9712447042302
30
0
41
1
10
98.4593557689562
20
12
30
0
41
1
10
98.5372144023382
20
12
30
0
0
SPLINE
5
E6
100
AcDbEntity
8
1
62
256
6
ByLayer
370
13
48
1
60
0
100
AcDbSpline
70
4
71
3
72
78
73
74
40
0
40
0
40
0
40
0
40
0.0312499999999989
40
0.0312499999999989
40
0.0624999999999978
40
0.0624999999999978
40
0.0937499999999968
40
0.0937499999999968
40
0.124999999999996
40
0.124999999999996
40
0.156249999999995
40
0.156249999999995
40
0.187499999999994
40
0.187499999999994
40
0.218749999999992
40
0.218749999999992
40
0.249999999999991
40
0.249999999999991
40
0.28124999999999
40
0.28124999999999
40
0.312499999999989
40
0.312499999999989
40
0.328124999999988
40
0.328124999999988
40
0.335937499999988
40
0.335937499999988
40
0.343749999999988
40
0.343749999999988
40
0.374999999999988
40
0.374999999999988
40
0.406249999999988
40
0.406249999999988
40
0.437499999999988
40
0.437499999999988
40
0.468749999999988
40
0.468749999999988
40
0.499999999999987
40
0.499999999999987
40
0.531249999999987
40
0.531249999999987
40
0.562499999999987
40
0.562499999999987
40
0.593749999999987
40
0.593749999999987
40
0.624999999999987
40
0.624999999999987
40
0.656249999999986
40
0.656249999999986
40
0.671874999999986
40
0.671874999999986
40
0.679687499999987
40
0.679687499999987
40
0.687499999999987
40
0.687499999999987
40
0.718749999999988
40
0.718749999999988
40
0.749999999999989
40
0.749999999999989
40
0.781249999999991
40
0.781249999999991
40
0.812499999999992
40
0.812499999999992
40
0.843749999999994
40
0.843749999999994
40
0.874999999999995
40
0.874999999999995
40
0.906249999999996
40
0.906249999999996
40
0.937499999999997
40
0.937499999999997
40
0.968749999999999
40
0.968749999999999
40
1
40
1
40
1
40
1
41
1
10
97.7180578868519
20
12
30
0
41
1
10
97.8025818379139
20
12
30
0
41
1
10
97.8871057889759
20
11.9660943062686
30
0
41
1
10
98.0561536911
20
11.8206147066676
30
0
41
1
10
98.1406776421619
20
11.7089868014625
30
0
41
1
10
98.309725544286
20
11.4013674752546
30
0
41
1
10
98.394249495348
20
11.2053308593526
30
0
41
1
10
98.5632973974721
20
10.7270005328683
30
0
41
1
10
98.6478213485341
20
10.4446842921279
30
0
41
1
10
98.8168692506581
20
9.79777185970414
30
0
41
1
10
98.9013932017202
20
9.43318605418352
30
0
41
1
10
99.0704411038442
20
8.63179775710023
30
0
41
1
10
99.1549650549062
20
8.19503994300183
30
0
41
1
10
99.3240129570302
20
7.26462585115362
30
0
41
1
10
99.4085369080923
20
6.77103914605067
30
0
41
1
10
99.5775848102162
20
5.74578046931688
30
0
41
1
10
99.6621087612783
20
5.21418602453582
30
0
41
1
10
99.8311566634023
20
4.13294354918818
30
0
41
1
10
99.9156806144643
20
3.58336326518301
30
0
41
1
10
100.084728516588
20
2.4851540887652
30
0
41
1
10
100.16925246765
20
1.93657101788762
30
0
41
1
10
100.296038394243
20
1.12658615774654
30
0
41
1
10
100.338300369775
20
0.858713644575147
30
0
41
1
10
100.401693333071
20
0.461346250176746
30
0
41
1
10
100.422824320836
20
0.329628786930101
30
0
41
1
10
100.465086296368
20
0.067857023839565
30
0
41
1
10
100.486217284133
20
-0.061746664734244
30
0
41
1
10
100.591872222961
20
-0.716046094785071
30
0
41
1
10
100.676396174022
20
-1.25296605533416
30
0
41
1
10
100.845444076146
20
-2.34037413252705
30
0
41
1
10
100.929968027209
20
-2.89083586705803
30
0
41
1
10
101.099015929333
20
-3.98833900648268
30
0
41
1
10
101.183539880395
20
-4.53532851741454
30
0
41
1
10
101.352587782519
20
-5.60648173150958
30
0
41
1
10
101.437111733581
20
-6.13057385802534
30
0
41
1
10
101.606159635705
20
-7.13599323047262
30
0
41
1
10
101.690683586767
20
-7.61724316716038
30
0
41
1
10
101.859731488891
20
-8.51879982851995
30
0
41
1
10
101.944255439953
20
-8.93904172705564
30
0
41
1
10
102.113303342077
20
-9.70436849582416
30
0
41
1
10
102.197827293139
20
-10.049416655374
30
0
41
1
10
102.366875195263
20
-10.6556843039188
30
0
41
1
10
102.451399146325
20
-10.9169020451663
30
0
41
1
10
102.620447048449
20
-11.3529725214156
30
0
41
1
10
102.704970999511
20
-11.5278545552799
30
0
41
1
10
102.874018901635
20
-11.7944146392778
30
0
41
1
10
102.958542852697
20
-11.8861413482874
30
0
41
1
10
103.08532877929
20
-11.9670575948283
30
0
41
1
10
103.127590754821
20
-11.9846141079151
30
0
41
1
10
103.190983718117
20
-11.9977515458069
30
0
41
1
10
103.212114705883
20
-11.99993237691
30
0
41
1
10
103.254376681414
20
-12.0000645253348
30
0
41
1
10
103.27550766918
20
-11.9980184298994
30
0
41
1
10
103.381162608007
20
-11.9768093665379
30
0
41
1
10
103.465686559069
20
-11.9246026466417
30
0
41
1
10
103.634734461193
20
-11.7405074074727
30
0
41
1
10
103.719258412255
20
-11.6085657896101
30
0
41
1
10
103.888306314379
20
-11.259355224154
30
0
41
1
10
103.972830265441
20
-11.0420454117993
30
0
41
1
10
104.141878167565
20
-10.5215777173577
30
0
41
1
10
104.226402118627
20
-10.2184047220207
30
0
41
1
10
104.395450020751
20
-9.53170475129565
30
0
41
1
10
104.479973971813
20
-9.14819689404979
30
0
41
1
10
104.649021873937
20
-8.31230110912554
30
0
41
1
10
104.733545824999
20
-7.85996524023665
30
0
41
1
10
104.902593727123
20
-6.90278363985845
30
0
41
1
10
104.987117678185
20
-6.39801116675599
30
0
41
1
10
105.156165580309
20
-5.35528877567043
30
0
41
1
10
105.240689531371
20
-4.81741549562455
30
0
41
1
10
105.409737433495
20
-3.72846601229134
30
0
41
1
10
105.494261384558
20
-3.17745297639883
30
0
41
1
10
105.663309286681
20
-2.08068234042966
30
0
41
1
10
105.747833237744
20
-1.53496427028242
30
0
41
1
10
105.832357188806
20
-0.99955896361962
30
0
0
SPLINE
5
E7
100
AcDbEntity
8
1
62
256
6
ByLayer
370
13
48
1
60
0
100
AcDbSpline
70
4
71
3
72
43
73
39
40
0
40
0
40
0
40
0
40
0.0625000000000022
40
0.0625000000000022
40
0.125000000000004
40
0.125000000000004
40
0.140625000000005
40
0.148437500000005
40
0.148437500000005
40
0.156250000000005
40
0.156250000000005
40
0.187500000000005
40
0.187500000000005
40
0.250000000000004
40
0.250000000000004
40
0.312500000000004
40
0.312500000000004
40
0.375000000000004
40
0.375000000000004
40
0.437500000000003
40
0.437500000000003
40
0.500000000000003
40
0.500000000000003
40
0.562500000000002
40
0.562500000000002
40
0.625000000000002
40
0.625000000000002
40
0.687500000000002
40
0.687500000000002
40
0.750000000000001
40
0.750000000000001
40
0.812500000000001
40
0.812500000000001
40
0.875000000000001
40
0.875000000000001
40
0.9375
40
0.9375
40
1
40
1
40
1
40
1
41
1
10
94.7999999999999
20
-3.14365858099703
30
0
41
1
10
94.8677264898569
20
-2.7036679712902
30
0
41
1
10
94.9354529797138
20
-2.26359879035462
30
0
41
1
10
95.0709059594277
20
-1.39189158236766
30
0
41
1
10
95.1386324492846
20
-0.960262418095823
30
0
41
1
10
95.2232905616057
20
-0.430460593654146
30
0
41
1
10
95.2486879953022
20
-0.272244318070676
30
0
41
1
10
95.2740854289985
20
-0.115221925092726
30
0
41
1
10
95.2910170514627
20
-0.0108168227886267
30
0
41
1
10
95.2994828626948
20
0.0412124786500101
30
0
41
1
10
95.3418119188554
20
0.302492867012632
30
0
41
1
10
95.3756751637838
20
0.513716303588694
30
0
41
1
10
95.4772648985692
20
1.15282959638876
30
0
41
1
10
95.5449913884262
20
1.58621074543507
30
0
41
1
10
95.6804443681401
20
2.46022415441371
30
0
41
1
10
95.748170857997
20
2.90084652852028
30
0
41
1
10
95.8836238377108
20
3.78054273379044
30
0
41
1
10
95.9513503275678
20
4.21959987597921
30
0
41
1
10
96.0868033072816
20
5.08633195744542
30
0
41
1
10
96.1545297971385
20
5.51398452376969
30
0
41
1
10
96.2899827768524
20
6.34763156930691
30
0
41
1
10
96.3577092667093
20
6.75360057392336
30
0
41
1
10
96.4931622464231
20
7.53389151766535
30
0
41
1
10
96.5608887362801
20
7.90818854628981
30
0
41
1
10
96.6963417159939
20
8.6162042509587
30
0
41
1
10
96.7640682058509
20
8.94990250690427
30
0
41
1
10
96.8995211855647
20
9.56954208810225
30
0
41
1
10
96.9672476754216
20
9.85547065699555
30
0
41
1
10
97.1027006551355
20
10.3746538102185
30
0
41
1
10
97.1704271449924
20
10.607904898398
30
0
41
1
10
97.3058801247062
20
11.019325796649
30
0
41
1
10
97.3736066145633
20
11.1975010725856
30
0
41
1
10
97.5090595942772
20
11.4988403384805
30
0
41
1
10
97.576786084134
20
11.6220168383939
30
0
41
1
10
97.7122390638478
20
11.8156274725952
30
0
41
1
10
97.7799655537048
20
11.8860783198424
30
0
41
1
10
97.9154185334187
20
11.9782556040041
30
0
41
1
10
97.9831450232756
20
12
30
0
41
1
10
98.0508715131325
20
12
30
0
0
SPLINE
5
E8
100
AcDbEntity
8
1
62
256
6
ByLayer
370
13
48
1
60
0
100
AcDbSpline
70
4
71
3
72
85
73
81
40
0
40
0
40
0
40
0
40
0.0312499999999994
40
0.0312499999999994
40
0.0624999999999988
40
0.0624999999999988
40
0.0937499999999982
40
0.0937499999999982
40
0.124999999999998
40
0.124999999999998
40
0.156249999999997
40
0.156249999999997
40
0.187499999999997
40
0.187499999999997
40
0.218749999999996
40
0.218749999999996
40
0.249999999999995
40
0.249999999999995
40
0.281249999999995
40
0.281249999999995
40
0.312499999999994
40
0.312499999999994
40
0.320312499999994
40
0.320312499999994
40
0.328124999999994
40
0.328124999999994
40
0.343749999999994
40
0.343749999999994
40
0.374999999999994
40
0.374999999999994
40
0.406249999999994
40
0.406249999999994
40
0.437499999999994
40
0.437499999999994
40
0.468749999999994
40
0.468749999999994
40
0.499999999999994
40
0.499999999999994
40
0.531249999999994
40
0.531249999999994
40
0.562499999999994
40
0.562499999999994
40
0.593749999999994
40
0.593749999999994
40
0.624999999999994
40
0.624999999999994
40
0.640624999999994
40
0.640624999999994
40
0.644531249999994
40
0.644531249999994
40
0.648437499999994
40
0.656249999999994
40
0.656249999999994
40
0.687499999999995
40
0.687499999999995
40
0.718749999999995
40
0.718749999999995
40
0.749999999999996
40
0.749999999999996
40
0.781249999999996
40
0.781249999999996
40
0.812499999999997
40
0.812499999999997
40
0.843749999999998
40
0.843749999999998
40
0.874999999999998
40
0.874999999999998
40
0.906249999999999
40
0.906249999999999
40
0.9375
40
0.9375
40
0.953125
40
0.953125
40
0.9609375
40
0.9609375
40
0.96484375
40
0.96484375
40
0.96875
40
0.96875
40
1
40
1
40
1
40
1
41
1
10
97.2317149976462
20
12
30
0
41
1
10
97.3213050204708
20
12
30
0
41
1
10
97.4108950432954
20
11.961892814435
30
0
41
1
10
97.5900750889445
20
11.7978210718984
30
0
41
1
10
97.6796651117691
20
11.6717845708067
30
0
41
1
10
97.8588451574182
20
11.3243149656834
30
0
41
1
10
97.9484351802429
20
11.1028241887556
30
0
41
1
10
98.1276152258921
20
10.563167702355
30
0
41
1
10
98.2172052487166
20
10.2449790983522
30
0
41
1
10
98.3963852943658
20
9.51819531735853
30
0
41
1
10
98.4859753171903
20
9.10962540709284
30
0
41
1
10
98.6651553628394
20
8.21589840534702
30
0
41
1
10
98.754745385664
20
7.73081288663712
30
0
41
1
10
98.9339254313132
20
6.70394812066203
30
0
41
1
10
99.0235154541377
20
6.16226850755618
30
0
41
1
10
99.2026954997869
20
5.04553080539867
30
0
41
1
10
99.2922855226114
20
4.47057342734638
30
0
41
1
10
99.4714655682606
20
3.31090483200242
30
0
41
1
10
99.5610555910852
20
2.72627147278087
30
0
41
1
10
99.7402356367344
20
1.56842174131745
30
0
41
1
10
99.829825659559
20
0.995248075981181
30
0
41
1
10
99.9418131880898
20
0.296462596076509
30
0
41
1
10
99.9642106937957
20
0.157577774176048
30
0
41
1
10
100.009005705208
20
-0.118233206369609
30
0
41
1
10
100.031403210914
20
-0.256766853159689
30
0
41
1
10
100.098595728033
20
-0.675537689277064
30
0
41
1
10
100.143390739445
20
-0.958259458148945
30
0
41
1
10
100.277775773682
20
-1.81414871627612
30
0
41
1
10
100.367365796506
20
-2.39517327020494
30
0
41
1
10
100.546545842156
20
-3.55912601425197
30
0
41
1
10
100.63613586498
20
-4.14199410118172
30
0
41
1
10
100.815315910629
20
-5.28706135972126
30
0
41
1
10
100.904905933454
20
-5.84916942238016
30
0
41
1
10
101.084085979103
20
-6.92888090370553
30
0
41
1
10
101.173676001928
20
-7.44638068137581
30
0
41
1
10
101.352856047577
20
-8.41478170554626
30
0
41
1
10
101.442446070401
20
-8.8655935880688
30
0
41
1
10
101.62162611605
20
-9.68326916252582
30
0
41
1
10
101.711216138875
20
-10.0500819790707
30
0
41
1
10
101.890396184524
20
-10.6893428301343
30
0
41
1
10
101.979986207349
20
-10.9617893689703
30
0
41
1
10
102.159166252998
20
-11.4096457206015
30
0
41
1
10
102.248756275822
20
-11.5850973290404
30
0
41
1
10
102.427936321472
20
-11.8433935342882
30
0
41
1
10
102.517526344296
20
-11.9263052192496
30
0
41
1
10
102.651911378533
20
-11.9885836207243
30
0
41
1
10
102.696706389945
20
-11.9990302318703
30
0
41
1
10
102.752700154211
20
-12.0001617626249
30
0
41
1
10
102.763898907064
20
-11.9997952979946
30
0
41
1
10
102.78629641277
20
-11.9978563999447
30
0
41
1
10
102.819892671329
20
-11.993137035329
30
0
41
1
10
102.853488929888
20
-11.9828723123867
30
0
41
1
10
102.965476458419
20
-11.9358591324355
30
0
41
1
10
103.055066481244
20
-11.8571383564843
30
0
41
1
10
103.234246526893
20
-11.6075867237987
30
0
41
1
10
103.323836549717
20
-11.4366881050143
30
0
41
1
10
103.503016595367
20
-10.9980012123383
30
0
41
1
10
103.592606618191
20
-10.7301694742762
30
0
41
1
10
103.77178666384
20
-10.0998401217738
30
0
41
1
10
103.861376686665
20
-9.73734168032971
30
0
41
1
10
104.040556732314
20
-8.92763452745507
30
0
41
1
10
104.130146755139
20
-8.48047445418314
30
0
41
1
10
104.309326800788
20
-7.51842537627198
30
0
41
1
10
104.398916823612
20
-7.00362438252549
30
0
41
1
10
104.578096869262
20
-5.92819510324176
30
0
41
1
10
104.667686892086
20
-5.36767041437688
30
0
41
1
10
104.846866937735
20
-4.22464057189333
30
0
41
1
10
104.93645696056
20
-3.64222763907711
30
0
41
1
10
105.115637006209
20
-2.47817450552955
30
0
41
1
10
105.205227029033
20
-1.89659610703575
30
0
41
1
10
105.33961206327
20
-1.03927304194315
30
0
41
1
10
105.384407074683
20
-0.755973344861957
30
0
41
1
10
105.451599591801
20
-0.336207686478844
30
0
41
1
10
105.473997097507
20
-0.197147375057284
30
0
41
1
10
105.507593356066
20
0.0099887333983872
30
0
41
1
10
105.518792108919
20
0.0788424613508028
30
0
41
1
10
105.541189614626
20
0.217344213569703
30
0
41
1
10
105.552388367479
20
0.286831742515204
30
0
41
1
10
105.653177143156
20
0.914228273207897
30
0
41
1
10
105.742767165981
20
1.48639864565101
30
0
41
1
10
105.832357188806
20
2.06477350281998
30
0
0
SPLINE
5
E9
100
AcDbEntity
8
1
62
256
6
ByLayer
370
13
48
1
60
0
100
AcDbSpline
70
4
71
3
72
41
73
37
40
0
40
0
40
0
40
0
40
0.0156250000000002
40
0.0156250000000002
40
0.0312500000000003
40
0.0625000000000007
40
0.0625000000000007
40
0.125000000000001
40
0.125000000000001
40
0.187500000000001
40
0.187500000000001
40
0.250000000000001
40
0.250000000000001
40
0.312500000000001
40
0.312500000000001
40
0.375000000000001
40
0.375000000000001
40
0.437500000000001
40
0.437500000000001
40
0.500000000000001
40
0.500000000000001
40
0.562500000000001
40
0.562500000000001
40
0.625000000000001
40
0.625000000000001
40
0.687500000000001
40
0.687500000000001
40
0.750000000000001
40
0.750000000000001
40
0.812500000000001
40
0.812500000000001
40
0.875
40
0.875
40
0.9375
40
0.9375
40
1
40
1
40
1
40
1
41
1
10
94.8
20
-0.0396482732305685
30
0
41
1
10
94.8143985865829
20
0.0490669988057846
30
0
41
1
10
94.8287971731659
20
0.13776234726933
30
0
41
1
10
94.8575943463318
20
0.316295218881152
30
0
41
1
10
94.9007901060807
20
0.585242537634059
30
0
41
1
10
94.9439858658294
20
0.857376122625084
30
0
41
1
10
95.0303773853272
20
1.40512913089199
30
0
41
1
10
95.0879717316591
20
1.77497023077714
30
0
41
1
10
95.2031604243226
20
2.51931032888339
30
0
41
1
10
95.2607547706544
20
2.89380464206423
30
0
41
1
10
95.3759434633181
20
3.64202547764876
30
0
41
1
10
95.4335378096499
20
4.01574473179889
30
0
41
1
10
95.5487265023135
20
4.75643477955816
30
0
41
1
10
95.6063208486454
20
5.12339605374586
30
0
41
1
10
95.721509541309
20
5.84428801095112
30
0
41
1
10
95.7791038876407
20
6.19820766541434
30
0
41
1
10
95.8942925803044
20
6.88674430134654
30
0
41
1
10
95.9518869266362
20
7.2213498328166
30
0
41
1
10
96.0670756192999
20
7.86533789231558
30
0
41
1
10
96.1246699656316
20
8.17470982068107
30
0
41
1
10
96.2398586582952
20
8.76299788212651
30
0
41
1
10
96.297453004627
20
9.04190549335632
30
0
41
1
10
96.4126416972907
20
9.56501112071717
30
0
41
1
10
96.4702360436225
20
9.80920363959245
30
0
41
1
10
96.5854247362859
20
10.2598178857343
30
0
41
1
10
96.6430190826179
20
10.4662376292686
30
0
41
1
10
96.7582077752814
20
10.839551361801
30
0
41
1
10
96.8158021216132
20
11.0064468432644
30
0
41
1
10
96.9309908142769
20
11.3002700489539
30
0
41
1
10
96.9885851606087
20
11.4272022312973
30
0
41
1
10
97.1037738532723
20
11.6418781527881
30
0
41
1
10
97.1613681996042
20
11.7296284798176
30
0
41
1
10
97.2765568922678
20
11.8677721477488
30
0
41
1
10
97.3341512385996
20
11.9181732361471
30
0
41
1
10
97.4493399312633
20
11.9842831710841
30
0
41
1
10
97.506934277595
20
12
30
0
41
1
10
97.5645286239268
20
12
30
0
0
SPLINE
5
EA
100
AcDbEntity
8
1
62
256
6
ByLayer
370
13
48
1
60
0
100
AcDbSpline
70
4
71
3
72
85
73
81
40
0
40
0
40
0
40
0
40
0.03125
40
0.03125
40
0.0625
40
0.0625
40
0.09375
40
0.09375
40
0.125
40
0.125
40
0.15625
40
0.15625
40
0.1875
40
0.1875
40
0.21875
40
0.21875
40
0.25
40
0.25
40
0.28125
40
0.28125
40
0.296875
40
0.296875
40
0.30078125
40
0.30078125
40
0.3046875
40
0.3046875
40
0.3125
40
0.3125
40
0.34375
40
0.34375
40
0.375
40
0.375
40
0.40625
40
0.40625
40
0.4375
40
0.4375
40
0.46875
40
0.46875
40
0.5
40
0.5
40
0.53125
40
0.53125
40
0.5625
40
0.5625
40
0.593749999999999
40
0.593749999999999
40
0.601562499999999
40
0.605468749999999
40
0.605468749999999
40
0.609374999999999
40
0.609374999999999
40
0.624999999999999
40
0.624999999999999
40
0.656249999999999
40
0.656249999999999
40
0.687499999999999
40
0.687499999999999
40
0.718749999999999
40
0.718749999999999
40
0.749999999999999
40
0.749999999999999
40
0.781249999999999
40
0.781249999999999
40
0.812499999999999
40
0.812499999999999
40
0.843749999999999
40
0.843749999999999
40
0.874999999999999
40
0.874999999999999
40
0.906249999999999
40
0.906249999999999
40
0.914062499999999
40
0.914062499999999
40
0.921874999999999
40
0.921874999999999
40
0.937499999999999
40
0.937499999999999
40
0.96875
40
0.96875
40
1
40
1
40
1
40
1
41
1
10
96.7453721084406
20
12
30
0
41
1
10
96.8400282030277
20
12
30
0
41
1
10
96.9346842976148
20
11.9574427614609
30
0
41
1
10
97.1239964867891
20
11.7735958310356
30
0
41
1
10
97.2186525813762
20
11.6322119033248
30
0
41
1
10
97.4079647705505
20
11.2423477271404
30
0
41
1
10
97.5026208651377
20
10.9937955852601
30
0
41
1
10
97.6919330543119
20
10.3892700753034
30
0
41
1
10
97.786589148899
20
10.0332766165793
30
0
41
1
10
97.9759013380733
20
9.22307109098128
30
0
41
1
10
98.0705574326604
20
8.76890708529118
30
0
41
1
10
98.2598696218347
20
7.78071369274377
30
0
41
1
10
98.3545257164219
20
7.24679202216322
30
0
41
1
10
98.5438379055961
20
6.12419110353372
30
0
41
1
10
98.6384940001833
20
5.53564740688131
30
0
41
1
10
98.8278061893575
20
4.33187594888557
30
0
41
1
10
98.9224622839446
20
3.7167717943141
30
0
41
1
10
99.1117744731189
20
2.48687944667501
30
0
41
1
10
99.2064305677061
20
1.87217369206906
30
0
41
1
10
99.3484147095868
20
0.967406576748459
30
0
41
1
10
99.3957427568804
20
0.668658581249275
30
0
41
1
10
99.4549028159973
20
0.300200160634546
30
0
41
1
10
99.4667348278207
20
0.226756359147828
30
0
41
1
10
99.4903988514675
20
0.0803963418608475
30
0
41
1
10
99.5022308632909
20
0.0076610882432533
30
0
41
1
10
99.5377268987611
20
-0.211234266582437
30
0
41
1
10
99.5613909224078
20
-0.358245200078414
30
0
41
1
10
99.6797110406418
20
-1.09806395706974
30
0
41
1
10
99.7743671352289
20
-1.70539710558936
30
0
41
1
10
99.9636793244032
20
-2.93083034152676
30
0
41
1
10
100.05833541899
20
-3.54886944727926
30
0
41
1
10
100.247647608165
20
-4.77031018805079
30
0
41
1
10
100.342303702752
20
-5.3736032511911
30
0
41
1
10
100.531615891926
20
-6.53752273432667
30
0
41
1
10
100.626271986513
20
-7.09801406727701
30
0
41
1
10
100.815584175687
20
-8.14943331550842
30
0
41
1
10
100.910240270274
20
-8.64023686977919
30
0
41
1
10
101.099552459449
20
-9.53056172141035
30
0
41
1
10
101.194208554036
20
-9.93000697461204
30
0
41
1
10
101.38352074321
20
-10.6242162722249
30
0
41
1
10
101.478176837797
20
-10.9189721313787
30
0
41
1
10
101.667489026972
20
-11.4000386354797
30
0
41
1
10
101.762145121559
20
-11.5864023432416
30
0
41
1
10
101.951457310733
20
-11.8558330348928
30
0
41
1
10
102.04611340532
20
-11.9389885310251
30
0
41
1
10
102.164433523554
20
-11.9857639363107
30
0
41
1
10
102.199929559024
20
-11.9955273699761
30
0
41
1
10
102.235425594494
20
-11.9991407778487
30
0
41
1
10
102.259089618141
20
-12.0002127336804
30
0
41
1
10
102.270921629965
20
-12.0000844566024
30
0
41
1
10
102.330081689081
20
-11.9961003550901
30
0
41
1
10
102.377409736375
20
-11.9821615897628
30
0
41
1
10
102.519393878256
20
-11.9054036183703
30
0
41
1
10
102.614049972843
20
-11.8074566791214
30
0
41
1
10
102.803362162017
20
-11.5071775854956
30
0
41
1
10
102.898018256604
20
-11.304760238687
30
0
41
1
10
103.087330445779
20
-10.7915283200854
30
0
41
1
10
103.181986540366
20
-10.4806685031857
30
0
41
1
10
103.37129872954
20
-9.75562771081863
30
0
41
1
10
103.465954824127
20
-9.3414652592617
30
0
41
1
10
103.655267013301
20
-8.42446178976908
30
0
41
1
10
103.749923107889
20
-7.92170587722629
30
0
41
1
10
103.939235297063
20
-6.85015523384095
30
0
41
1
10
104.03389139165
20
-6.28148907143444
30
0
41
1
10
104.223203580824
20
-5.10543761244452
30
0
41
1
10
104.317859675411
20
-4.49818554771224
30
0
41
1
10
104.507171864586
20
-3.27287861040816
30
0
41
1
10
104.601827959173
20
-2.65492603013493
30
0
41
1
10
104.791140148347
20
-1.43307211528116
30
0
41
1
10
104.885796242934
20
-0.829224144313343
30
0
41
1
10
105.004116361168
20
-0.0953254992971893
30
0
41
1
10
105.027780384815
20
0.0497788257222567
30
0
41
1
10
105.075108432108
20
0.342907209794049
30
0
41
1
10
105.098772455755
20
0.490515193156
30
0
41
1
10
105.169764526696
20
0.936075867837303
30
0
41
1
10
105.217092573989
20
1.23677711538548
30
0
41
1
10
105.35907671587
20
2.14627104978038
30
0
41
1
10
105.453732810457
20
2.76260821515075
30
0
41
1
10
105.643044999631
20
3.99195385688449
30
0
41
1
10
105.737701094218
20
4.60487265664247
30
0
41
1
10
105.832357188806
20
5.2024684353832
30
0
0
SPLINE
5
EB
100
AcDbEntity
8
1
62
256
6
ByLayer
370
13
48
1
60
0
100
AcDbSpline
70
4
71
3
72
22
73
18
40
0
40
0
40
0
40
0
40
0.125
40
0.125
40
0.25
40
0.25
40
0.375
40
0.375
40
0.5
40
0.5
40
0.625
40
0.625
40
0.75
40
0.75
40
0.875
40
0.875
40
1
40
1
40
1
40
1
41
1
10
94.7999999999999
20
3.05999095171037
30
0
41
1
10
94.8949244056133
20
3.676672562238
30
0
41
1
10
94.9898488112268
20
4.29380145769076
30
0
41
1
10
95.1796976224535
20
5.50203452602236
30
0
41
1
10
95.2746220280669
20
6.09301393907518
30
0
41
1
10
95.4644708392937
20
7.22064413104931
30
0
41
1
10
95.559395244907
20
7.7571573129797
30
0
41
1
10
95.7492440561338
20
8.75039897906504
30
0
41
1
10
95.8441684617472
20
9.20701755299027
30
0
41
1
10
96.034017272974
20
10.0217334146224
30
0
41
1
10
96.1289416785873
20
10.3797811717785
30
0
41
1
10
96.3187904898141
20
10.9878391256129
30
0
41
1
10
96.4137148954275
20
11.2378691466463
30
0
41
1
10
96.6035637066542
20
11.6300495881084
30
0
41
1
10
96.6984881122677
20
11.7722726996691
30
0
41
1
10
96.8883369234944
20
11.957200130416
30
0
41
1
10
96.9832613291078
20
12
30
0
41
1
10
97.0781857347211
20
12
30
0
0
SPLINE
5
EC
100
AcDbEntity
8
1
62
256
6
ByLayer
370
13
48
1
60
0
100
AcDbSpline
70
4
71
3
72
88
73
84
40
0
40
0
40
0
40
0
40
0.0312499999999999
40
0.0312499999999999
40
0.0624999999999999
40
0.0624999999999999
40
0.0937499999999998
40
0.0937499999999998
40
0.125
40
0.125
40
0.15625
40
0.15625
40
0.1875
40
0.1875
40
0.21875
40
0.21875
40
0.25
40
0.25
40
0.28125
40
0.28125
40
0.28515625
40
0.28515625
40
0.2890625
40
0.2890625
40
0.296875
40
0.296875
40
0.3125
40
0.3125
40
0.343749999999999
40
0.343749999999999
40
0.374999999999999
40
0.374999999999999
40
0.406249999999999
40
0.406249999999999
40
0.437499999999999
40
0.437499999999999
40
0.468749999999999
40
0.468749999999999
40
0.499999999999999
40
0.499999999999999
40
0.531249999999999
40
0.531249999999999
40
0.562499999999999
40
0.562499999999999
40
0.570312499999999
40
0.570312499999999
40
0.574218749999999
40
0.574218749999999
40
0.578124999999999
40
0.578124999999999
40
0.593749999999999
40
0.593749999999999
40
0.624999999999999
40
0.624999999999999
40
0.656249999999999
40
0.656249999999999
40
0.687499999999999
40
0.687499999999999
40
0.71875
40
0.71875
40
0.75
40
0.75
40
0.78125
40
0.78125
40
0.8125
40
0.8125
40
0.84375
40
0.84375
40
0.859375
40
0.859375
40
0.86328125
40
0.86328125
40
0.8671875
40
0.8671875
40
0.875
40
0.875
40
0.90625
40
0.90625
40
0.9375
40
0.9375
40
0.96875
40
0.96875
40
1
40
1
40
1
40
1
41
1
10
96.2590292192349
20
12
30
0
41
1
10
96.3587513855846
20
12
30
0
41
1
10
96.4584735519343
20
11.9527433443376
30
0
41
1
10
96.6579178846336
20
11.7479292402746
30
0
41
1
10
96.7576400509833
20
11.5902502394986
30
0
41
1
10
96.9570843836827
20
11.15544805182
30
0
41
1
10
97.0568065500324
20
10.8782372611148
30
0
41
1
10
97.2562508827318
20
10.2054067787197
30
0
41
1
10
97.3559730490815
20
9.80977460181057
30
0
41
1
10
97.555417381781
20
8.91296509133787
30
0
41
1
10
97.6551395481306
20
8.41186874001841
30
0
41
1
10
97.8545838808299
20
7.32783253943126
30
0
41
1
10
97.9543060471798
20
6.74504683351773
30
0
41
1
10
98.153750379879
20
5.52852747524585
30
0
41
1
10
98.2534725462287
20
4.89496989229465
30
0
41
1
10
98.4529168789282
20
3.60982698432767
30
0
41
1
10
98.5526390452778
20
2.95838504379657
30
0
41
1
10
98.7520833779772
20
1.66742721262833
30
0
41
1
10
98.8518055443269
20
1.02799027720315
30
0
41
1
10
98.9639929814703
20
0.328583611932316
30
0
41
1
10
98.976458252264
20
0.251144235761302
30
0
41
1
10
99.0013887938515
20
0.0968478578327563
30
0
41
1
10
99.0138540646451
20
0.0201799811687806
30
0
41
1
10
99.0512498770263
20
-0.21036343275631
30
0
41
1
10
99.0761804186138
20
-0.36526130205317
30
0
41
1
10
99.150972043376
20
-0.833112796972245
30
0
41
1
10
99.2008331265508
20
-1.14923899053991
30
0
41
1
10
99.3504163760754
20
-2.10616345824624
30
0
41
1
10
99.450138542425
20
-2.75569862222298
30
0
41
1
10
99.6495828751244
20
-4.05072396831429
30
0
41
1
10
99.7493050414742
20
-4.69609698180915
30
0
41
1
10
99.9487493741736
20
-5.95073387835129
30
0
41
1
10
100.048471540523
20
-6.55983021117243
30
0
41
1
10
100.247915873223
20
-7.70947166680551
30
0
41
1
10
100.347638039572
20
-8.24984578685635
30
0
41
1
10
100.547082372272
20
-9.23450510291735
30
0
41
1
10
100.646804538621
20
-9.67867243414378
30
0
41
1
10
100.846248871321
20
-10.4528310227834
30
0
41
1
10
100.945971037671
20
-10.7827939002003
30
0
41
1
10
101.14541537037
20
-11.3222086049701
30
0
41
1
10
101.24513753672
20
-11.5317193791485
30
0
41
1
10
101.444581869419
20
-11.8351426272292
30
0
41
1
10
101.544304035769
20
-11.9291672687232
30
0
41
1
10
101.668956743706
20
-11.9828503183498
30
0
41
1
10
101.693887285293
20
-11.9904102372056
30
0
41
1
10
101.731283097674
20
-11.9971813702513
30
0
41
1
10
101.743748368468
20
-11.9986770925543
30
0
41
1
10
101.768678910055
20
-12.0001800847071
30
0
41
1
10
101.781144180849
20
-12.0001916676065
30
0
41
1
10
101.843470534818
20
-11.9965520822334
30
0
41
1
10
101.893331617993
20
-11.9817269366597
30
0
41
1
10
102.042914867517
20
-11.8983720130415
30
0
41
1
10
102.142637033867
20
-11.7907281931057
30
0
41
1
10
102.342081366566
20
-11.4589243068177
30
0
41
1
10
102.441803532916
20
-11.2346562372569
30
0
41
1
10
102.641247865615
20
-10.6658453479452
30
0
41
1
10
102.740970031965
20
-10.3212529422162
30
0
41
1
10
102.940414364664
20
-9.51942276103117
30
0
41
1
10
103.040136531014
20
-9.06222507436541
30
0
41
1
10
103.239580863714
20
-8.05443990115924
30
0
41
1
10
103.339303030063
20
-7.50397944886575
30
0
41
1
10
103.538747362763
20
-6.33799322873332
30
0
41
1
10
103.638469529112
20
-5.72264117679899
30
0
41
1
10
103.837913861812
20
-4.45956869719964
30
0
41
1
10
103.937636028161
20
-3.81201167099135
30
0
41
1
10
104.137080360861
20
-2.51632078375701
30
0
41
1
10
104.236802527211
20
-1.86829599999382
30
0
41
1
10
104.386385776735
20
-0.915815682228583
30
0
41
1
10
104.43624685991
20
-0.601531501565802
30
0
41
1
10
104.498573213878
20
-0.214335684956268
30
0
41
1
10
104.511038484672
20
-0.13717832330201
30
0
41
1
10
104.535969026259
20
0.0165363068306021
30
0
41
1
10
104.548434297053
20
0.0931900695068464
30
0
41
1
10
104.585830109434
20
0.324606947023653
30
0
41
1
10
104.610760651022
20
0.480051715245878
30
0
41
1
10
104.735413358959
20
1.26234302307648
30
0
41
1
10
104.835135525309
20
1.90467414832631
30
0
41
1
10
105.034579858008
20
3.19804776240974
30
0
41
1
10
105.134302024358
20
3.84900273266783
30
0
41
1
10
105.333746357057
20
5.12920453273003
30
0
41
1
10
105.433468523407
20
5.75830162088039
30
0
41
1
10
105.632912856106
20
6.96188130999363
30
0
41
1
10
105.732635022456
20
7.53618736059593
30
0
41
1
10
105.832357188806
20
8.0680200269116
30
0
0
SPLINE
5
ED
100
AcDbEntity
8
1
62
256
6
ByLayer
370
13
48
1
60
0
100
AcDbSpline
70
4
71
3
72
22
73
18
40
0
40
0
40
0
40
0
40
0.125
40
0.125
40
0.25
40
0.25
40
0.375
40
0.375
40
0.5
40
0.5
40
0.625
40
0.625
40
0.75
40
0.75
40
0.875
40
0.875
40
1
40
1
40
1
40
1
41
1
10
94.7999999999999
20
6.15602975317483
30
0
41
1
10
94.8746601185631
20
6.6110213263272
30
0
41
1
10
94.9493202371262
20
7.05168674842321
30
0
41
1
10
95.0986404742525
20
7.89129599584862
30
0
41
1
10
95.1733005928157
20
8.29020077747731
30
0
41
1
10
95.3226208299421
20
9.03500588527959
30
0
41
1
10
95.3972809485052
20
9.38087733128339
30
0
41
1
10
95.5466011856314
20
10.0112496197064
30
0
41
1
10
95.6212613041946
20
10.2957369308031
30
0
41
1
10
95.7705815413209
20
10.7985446509699
30
0
41
1
10
95.845241659884
20
11.0168682087763
30
0
41
1
10
95.9945618970102
20
11.3862789037942
30
0
41
1
10
96.0692220155734
20
11.5373832884139
30
0
41
1
10
96.2185422526998
20
11.774693654285
30
0
41
1
10
96.2932023712629
20
11.8609257958415
30
0
41
1
10
96.4425226083891
20
11.9735643738684
30
0
41
1
10
96.5171827269523
20
12
30
0
41
1
10
96.5918428455155
20
12
30
0
0
SPLINE
5
EE
100
AcDbEntity
8
1
62
256
6
ByLayer
370
13
48
1
60
0
100
AcDbSpline
70
4
71
3
72
129
73
125
40
0
40
0
40
0
40
0
40
0.03125
40
0.03125
40
0.0625
40
0.0625
40
0.078125
40
0.078125
40
0.0937500000000001
40
0.0937500000000001
40
0.109375
40
0.109375
40
0.125
40
0.125
40
0.140625
40
0.140625
40
0.15625
40
0.15625
40
0.171875000000001
40
0.171875000000001
40
0.187500000000001
40
0.187500000000001
40
0.203125000000001
40
0.203125000000001
40
0.218750000000001
40
0.218750000000001
40
0.250000000000001
40
0.250000000000001
40
0.265625000000001
40
0.265625000000001
40
0.273437500000001
40
0.273437500000001
40
0.277343750000001
40
0.277343750000001
40
0.281250000000001
40
0.281250000000001
40
0.312500000000001
40
0.312500000000001
40
0.328125000000001
40
0.328125000000001
40
0.343750000000001
40
0.343750000000001
40
0.359375000000001
40
0.359375000000001
40
0.375000000000001
40
0.375000000000001
40
0.390625000000001
40
0.390625000000001
40
0.406250000000001
40
0.406250000000001
40
0.421875000000001
40
0.421875000000001
40
0.437500000000001
40
0.437500000000001
40
0.453125000000001
40
0.453125000000001
40
0.468750000000001
40
0.468750000000001
40
0.484375000000001
40
0.484375000000001
40
0.500000000000001
40
0.500000000000001
40
0.531250000000001
40
0.531250000000001
40
0.546875000000001
40
0.546875000000001
40
0.550781250000001
40
0.550781250000001
40
0.554687500000001
40
0.562500000000001
40
0.562500000000001
40
0.593750000000001
40
0.593750000000001
40
0.609375
40
0.609375
40
0.625
40
0.625
40
0.640625
40
0.640625
40
0.656249999999999
40
0.656249999999999
40
0.671874999999999
40
0.671874999999999
40
0.687499999999999
40
0.687499999999999
40
0.703124999999999
40
0.703124999999999
40
0.718749999999999
40
0.718749999999999
40
0.734374999999998
40
0.734374999999998
40
0.749999999999998
40
0.749999999999998
40
0.765624999999998
40
0.765624999999998
40
0.781249999999998
40
0.781249999999998
40
0.812499999999997
40
0.812499999999997
40
0.820312499999997
40
0.820312499999997
40
0.824218749999997
40
0.824218749999997
40
0.828124999999997
40
0.828124999999997
40
0.843749999999997
40
0.843749999999997
40
0.874999999999997
40
0.874999999999997
40
0.890624999999998
40
0.890624999999998
40
0.906249999999998
40
0.906249999999998
40
0.921874999999998
40
0.921874999999998
40
0.937499999999999
40
0.937499999999999
40
0.953124999999999
40
0.953124999999999
40
0.968749999999999
40
0.968749999999999
40
0.984375
40
0.984375
40
1
40
1
40
1
40
1
41
1
10
95.7726863300291
20
12
30
0
41
1
10
95.8774745681414
20
12
30
0
41
1
10
95.9822628062537
20
11.947793691758
30
0
41
1
10
96.1918392824782
20
11.7208118927426
30
0
41
1
10
96.2966275205905
20
11.5458817905293
30
0
41
1
10
96.4538098777589
20
11.184173309997
30
0
41
1
10
96.5062039968149
20
11.0471343903826
30
0
41
1
10
96.6109922349271
20
10.7400685962477
30
0
41
1
10
96.6633863539833
20
10.5700399000025
30
0
41
1
10
96.7681745920956
20
10.1978165248502
30
0
41
1
10
96.8205687111518
20
9.99562188365249
30
0
41
1
10
96.925356949264
20
9.56079430593309
30
0
41
1
10
96.9777510683201
20
9.32816342635567
30
0
41
1
10
97.0825393064324
20
8.83506576073648
30
0
41
1
10
97.1349334254885
20
8.57460297037017
30
0
41
1
10
97.2397216636008
20
8.02922722490069
30
0
41
1
10
97.2921157826569
20
7.74431987910941
30
0
41
1
10
97.396904020769
20
7.15407854779002
30
0
41
1
10
97.4492981398252
20
6.84875125929111
30
0
41
1
10
97.5540863779376
20
6.22214454093449
30
0
41
1
10
97.6064804969936
20
5.90087225229425
30
0
41
1
10
97.7112687351058
20
5.24709085139884
30
0
41
1
10
97.763662854162
20
4.91458866635057
30
0
41
1
10
97.8684510922742
20
4.24309004621784
30
0
41
1
10
97.9208452113304
20
3.90409974976211
30
0
41
1
10
98.0780275684988
20
2.88424505852944
30
0
41
1
10
98.182815806611
20
2.20074441609381
30
0
41
1
10
98.3399981637794
20
1.19408155651101
30
0
41
1
10
98.3923922828355
20
0.861568605650234
30
0
41
1
10
98.4709834614198
20
0.369772765291828
30
0
41
1
10
98.4971805209478
20
0.206998620271491
30
0
41
1
10
98.5364761102399
20
-0.0351654403575594
30
0
41
1
10
98.5495746400039
20
-0.115792007479968
30
0
41
1
10
98.5757716995319
20
-0.27804769950933
30
0
41
1
10
98.588870229296
20
-0.359495080033525
30
0
41
1
10
98.7067569971723
20
-1.09520068760787
30
0
41
1
10
98.8115452352845
20
-1.76858093346462
30
0
41
1
10
98.9687275924529
20
-2.78714264433492
30
0
41
1
10
99.021121711509
20
-3.12800668870193
30
0
41
1
10
99.1259099496213
20
-3.80823707175119
30
0
41
1
10
99.1783040686774
20
-4.14759860713869
30
0
41
1
10
99.2830923067896
20
-4.82028001396711
30
0
41
1
10
99.3354864258458
20
-5.15359384539445
30
0
41
1
10
99.4402746639581
20
-5.80944695674779
30
0
41
1
10
99.4926687830142
20
-6.13197936119846
30
0
41
1
10
99.5974570211265
20
-6.76154328432912
30
0
41
1
10
99.6498511401826
20
-7.06856765449919
30
0
41
1
10
99.7546393782949
20
-7.66260841703121
30
0
41
1
10
99.8070334973509
20
-7.94961804210018
30
0
41
1
10
99.9118217354632
20
-8.49955280507845
30
0
41
1
10
99.9642158545193
20
-8.76247220632044
30
0
41
1
10
100.069004092632
20
-9.26077063701939
30
0
41
1
10
100.121398211688
20
-9.49614550145196
30
0
41
1
10
100.2261864498
20
-9.93667008727925
30
0
41
1
10
100.278580568856
20
-10.141817561876
30
0
41
1
10
100.383368806968
20
-10.5200710241619
30
0
41
1
10
100.435762926024
20
-10.693176787377
30
0
41
1
10
100.540551164137
20
-11.0064361457614
30
0
41
1
10
100.592945283193
20
-11.1465914001563
30
0
41
1
10
100.697733521305
20
-11.3939224424584
30
0
41
1
10
100.750127640361
20
-11.5011014359652
30
0
41
1
10
100.90730999753
20
-11.7743416711791
30
0
41
1
10
101.012098235642
20
-11.8918414024762
30
0
41
1
10
101.16928059281
20
-11.9816125773879
30
0
41
1
10
101.221674711866
20
-11.9971962549266
30
0
41
1
10
101.287167360686
20
-12.0002678959521
30
0
41
1
10
101.300265890451
20
-12.0000685609453
30
0
41
1
10
101.326462949979
20
-11.9980279322965
30
0
41
1
10
101.365758539271
20
-11.9924935953209
30
0
41
1
10
101.405054128563
20
-11.9793589957926
30
0
41
1
10
101.536039426203
20
-11.91793421232
30
0
41
1
10
101.640827664315
20
-11.8120207707253
30
0
41
1
10
101.798010021484
20
-11.5568679416642
30
0
41
1
10
101.85040414054
20
-11.4558324933703
30
0
41
1
10
101.955192378652
20
-11.2208773678897
30
0
41
1
10
102.007586497708
20
-11.0869542432974
30
0
41
1
10
102.112374735821
20
-10.7860887493656
30
0
41
1
10
102.164768854877
20
-10.6191443989834
30
0
41
1
10
102.269557092989
20
-10.252973738204
30
0
41
1
10
102.321951212045
20
-10.0537472802036
30
0
41
1
10
102.426739450157
20
-9.62465520589384
30
0
41
1
10
102.479133569213
20
-9.39479145596525
30
0
41
1
10
102.583921807326
20
-8.90694782673802
30
0
41
1
10
102.636315926382
20
-8.64897177085228
30
0
41
1
10
102.741104164494
20
-8.10822097222527
30
0
41
1
10
102.79349828355
20
-7.8254517067173
30
0
41
1
10
102.898286521662
20
-7.23908542201926
30
0
41
1
10
102.950680640719
20
-6.9354950238143
30
0
41
1
10
103.055468878831
20
-6.31192726377915
30
0
41
1
10
103.107862997887
20
-5.99195702996741
30
0
41
1
10
103.212651235999
20
-5.34033144739684
30
0
41
1
10
103.265045355055
20
-5.00868307243096
30
0
41
1
10
103.369833593168
20
-4.33845002948019
30
0
41
1
10
103.422227712224
20
-3.99987159500626
30
0
41
1
10
103.527015950336
20
-3.32037394065523
30
0
41
1
10
103.579410069392
20
-2.97945977880838
30
0
41
1
10
103.736592426561
20
-1.9596130450216
30
0
41
1
10
103.841380664673
20
-1.28385834681467
30
0
41
1
10
103.972365962313
20
-0.46205436670536
30
0
41
1
10
103.998563021841
20
-0.298816617606292
30
0
41
1
10
104.037858611133
20
-0.0559102331889392
30
0
41
1
10
104.050957140897
20
0.0245305779845637
30
0
41
1
10
104.077154200425
20
0.186299163742035
30
0
41
1
10
104.090252730189
20
0.26751091791607
30
0
41
1
10
104.15574537901
20
0.675099933564638
30
0
41
1
10
104.208139498066
20
1.00609064193674
30
0
41
1
10
104.365321855234
20
2.00916065750934
30
0
41
1
10
104.470110093346
20
2.69157485682237
30
0
41
1
10
104.627292450515
20
3.71229485310576
30
0
41
1
10
104.679686569571
20
4.05198723127893
30
0
41
1
10
104.784474807683
20
4.72576893455266
30
0
41
1
10
104.836868926739
20
5.05985232183318
30
0
41
1
10
104.941657164851
20
5.71769300766826
30
0
41
1
10
104.994051283907
20
6.04144348751464
30
0
41
1
10
105.09883952202
20
6.67388247815424
30
0
41
1
10
105.151233641076
20
6.98256383901526
30
0
41
1
10
105.256021879188
20
7.5803276819814
30
0
41
1
10
105.308415998244
20
7.86940333236248
30
0
41
1
10
105.413204236357
20
8.42383013373572
30
0
41
1
10
105.465598355413
20
8.68917542556432
30
0
41
1
10
105.570386593525
20
9.19262005325376
30
0
41
1
10
105.622780712581
20
9.43071505784854
30
0
41
1
10
105.727568950693
20
9.87689670232137
30
0
41
1
10
105.779963069749
20
10.0849809064698
30
0
41
1
10
105.832357188806
20
10.2771106120248
30
0
0
SPLINE
5
EF
100
AcDbEntity
8
1
62
256
6
ByLayer
370
13
48
1
60
0
100
AcDbSpline
70
4
71
3
72
22
73
18
40
0
40
0
40
0
40
0
40
0.125
40
0.125
40
0.25
40
0.25
40
0.375
40
0.375
40
0.5
40
0.5
40
0.625
40
0.625
40
0.75
40
0.75
40
0.875
40
0.875
40
1
40
1
40
1
40
1
41
1
10
94.8
20
8.85170253454658
30
0
41
1
10
94.854395831513
20
9.11633210474341
30
0
41
1
10
94.9087916630258
20
9.36647308552813
30
0
41
1
10
95.0175833260516
20
9.83460730285233
30
0
41
1
10
95.0719791575645
20
10.0525974114965
30
0
41
1
10
95.1807708205904
20
10.4542425809968
30
0
41
1
10
95.2351666521032
20
10.6378970446936
30
0
41
1
10
95.343958315129
20
10.9697341177832
30
0
41
1
10
95.3983541466419
20
11.1179185214696
30
0
41
1
10
95.5071458096678
20
11.3787103640209
30
0
41
1
10
95.5615416411807
20
11.4913215723143
30
0
41
1
10
95.6703333042065
20
11.6818083061346
30
0
41
1
10
95.7247291357195
20
11.7596889826851
30
0
41
1
10
95.8335207987452
20
11.8823660887089
30
0
41
1
10
95.8879166302581
20
11.9271683961629
30
0
41
1
10
95.9967082932839
20
11.985982355119
30
0
41
1
10
96.0511041247969
20
12
30
0
41
1
10
96.1054999563097
20
12
30
0
0
SPLINE
5
F0
100
AcDbEntity
8
1
62
256
6
ByLayer
370
13
48
1
60
0
100
AcDbSpline
70
4
71
3
72
145
73
141
40
0
40
0
40
0
40
0
40
0.0156250000000002
40
0.0156250000000002
40
0.0312500000000005
40
0.0312500000000005
40
0.0468750000000007
40
0.0468750000000007
40
0.0625000000000009
40
0.0625000000000009
40
0.0781250000000012
40
0.0781250000000012
40
0.0937500000000014
40
0.0937500000000014
40
0.109375000000002
40
0.109375000000002
40
0.125000000000002
40
0.125000000000002
40
0.140625000000002
40
0.140625000000002
40
0.156250000000002
40
0.156250000000002
40
0.171875000000003
40
0.171875000000003
40
0.187500000000003
40
0.187500000000003
40
0.203125000000003
40
0.203125000000003
40
0.218750000000003
40
0.218750000000003
40
0.234375000000003
40
0.234375000000003
40
0.250000000000004
40
0.250000000000004
40
0.257812500000004
40
0.257812500000004
40
0.261718750000004
40
0.261718750000004
40
0.265625000000004
40
0.265625000000004
40
0.281250000000004
40
0.281250000000004
40
0.296875000000004
40
0.296875000000004
40
0.312500000000004
40
0.312500000000004
40
0.328125000000004
40
0.328125000000004
40
0.343750000000004
40
0.343750000000004
40
0.359375000000005
40
0.359375000000005
40
0.375000000000005
40
0.375000000000005
40
0.390625000000005
40
0.390625000000005
40
0.406250000000005
40
0.406250000000005
40
0.421875000000005
40
0.421875000000005
40
0.437500000000006
40
0.437500000000006
40
0.453125000000006
40
0.453125000000006
40
0.468750000000006
40
0.468750000000006
40
0.484375000000006
40
0.484375000000006
40
0.500000000000006
40
0.500000000000006
40
0.515625000000006
40
0.515625000000006
40
0.519531250000006
40
0.519531250000006
40
0.523437500000006
40
0.523437500000006
40
0.531250000000006
40
0.531250000000006
40
0.546875000000006
40
0.546875000000006
40
0.562500000000006
40
0.562500000000006
40
0.578125000000006
40
0.578125000000006
40
0.593750000000006
40
0.593750000000006
40
0.609375000000005
40
0.609375000000005
40
0.625000000000005
40
0.625000000000005
40
0.640625000000005
40
0.640625000000005
40
0.656250000000005
40
0.656250000000005
40
0.671875000000004
40
0.671875000000004
40
0.687500000000004
40
0.687500000000004
40
0.703125000000004
40
0.703125000000004
40
0.718750000000004
40
0.718750000000004
40
0.734375000000004
40
0.734375000000004
40
0.750000000000003
40
0.750000000000003
40
0.765625000000003
40
0.765625000000003
40
0.781250000000003
40
0.781250000000003
40
0.785156250000003
40
0.785156250000003
40
0.789062500000003
40
0.796875000000003
40
0.796875000000003
40
0.812500000000002
40
0.812500000000002
40
0.828125000000002
40
0.828125000000002
40
0.843750000000002
40
0.843750000000002
40
0.859375000000002
40
0.859375000000002
40
0.875000000000002
40
0.875000000000002
40
0.890625000000001
40
0.890625000000001
40
0.906250000000001
40
0.906250000000001
40
0.921875000000001
40
0.921875000000001
40
0.937500000000001
40
0.937500000000001
40
0.953125000000001
40
0.953125000000001
40
0.96875
40
0.96875
40
0.984375
40
0.984375
40
1
40
1
40
1
40
1
41
1
10
95.2863434408235
20
12
30
0
41
1
10
95.341270595761
20
12
30
0
41
1
10
95.3961977506983
20
11.9857068512513
30
0
41
1
10
95.5060520605732
20
11.9257116619188
30
0
41
1
10
95.5609792155105
20
11.880003328391
30
0
41
1
10
95.6708335253853
20
11.7548242617625
30
0
41
1
10
95.7257606803227
20
11.6753473670177
30
0
41
1
10
95.8356149901976
20
11.4809475909869
30
0
41
1
10
95.890542145135
20
11.3660193355502
30
0
41
1
10
96.0003964550098
20
11.0998788654135
30
0
41
1
10
96.0553236099472
20
10.948662764287
30
0
41
1
10
96.165177919822
20
10.6100958814717
30
0
41
1
10
96.2201050747595
20
10.422743330998
30
0
41
1
10
96.3299593846342
20
10.0131272372504
30
0
41
1
10
96.3848865395716
20
9.7908644759045
30
0
41
1
10
96.4947408494465
20
9.31374229974455
30
0
41
1
10
96.5496680043838
20
9.05888634673082
30
0
41
1
10
96.6595223142587
20
8.51991929104344
30
0
41
1
10
96.7144494691961
20
8.23581410032028
30
0
41
1
10
96.824303779071
20
7.6425753797196
30
0
41
1
10
96.8792309340083
20
7.33344964185835
30
0
41
1
10
96.9890852438831
20
6.69507386105215
30
0
41
1
10
97.0440123988205
20
6.36583267221988
30
0
41
1
10
97.1538667086953
20
5.69255418415935
30
0
41
1
10
97.2087938636327
20
5.34852587932957
30
0
41
1
10
97.3186481735075
20
4.65115416272729
30
0
41
1
10
97.373575328445
20
4.29781901782587
30
0
41
1
10
97.4834296383198
20
3.58720524514655
30
0
41
1
10
97.5383567932572
20
3.22993347501739
30
0
41
1
10
97.648211103132
20
2.51647938895803
30
0
41
1
10
97.7031382580694
20
2.16030210441039
30
0
41
1
10
97.8129925679442
20
1.45355154147569
30
0
41
1
10
97.8679197228816
20
1.10298133185333
30
0
41
1
10
97.9503104552877
20
0.584234810637639
30
0
41
1
10
97.9777740327564
20
0.412498827367529
30
0
41
1
10
98.0189693989595
20
0.156977885597314
30
0
41
1
10
98.0327011876938
20
0.0722176239779344
30
0
41
1
10
98.0601647651625
20
-0.0968378379731973
30
0
41
1
10
98.0738965538969
20
-0.181734174165001
30
0
41
1
10
98.1425554975686
20
-0.607937929612348
30
0
41
1
10
98.1974826525061
20
-0.954439086940027
30
0
41
1
10
98.3073369623808
20
-1.65497790952486
30
0
41
1
10
98.3622641173182
20
-2.00901341457575
30
0
41
1
10
98.4721184271931
20
-2.72040325868505
30
0
41
1
10
98.5270455821305
20
-3.07775349931845
30
0
41
1
10
98.6368998920053
20
-3.7909713829807
30
0
41
1
10
98.6918270469427
20
-4.14683300269093
30
0
41
1
10
98.8016813568175
20
-4.85184057900437
30
0
41
1
10
98.8566085117548
20
-5.20097886925203
30
0
41
1
10
98.9664628216296
20
-5.88708181553531
30
0
41
1
10
99.0213899765671
20
-6.22403772390831
30
0
41
1
10
99.131244286442
20
-6.88034169878475
30
0
41
1
10
99.1861714413794
20
-7.19968072922777
30
0
41
1
10
99.2960257512542
20
-7.81561054144851
30
0
41
1
10
99.3509529061916
20
-8.1121929138406
30
0
41
1
10
99.4608072160664
20
-8.67802811179735
30
0
41
1
10
99.5157343710038
20
-8.94727404180574
30
0
41
1
10
99.6255886808786
20
-9.45464710040523
30
0
41
1
10
99.680515835816
20
-9.69276955073272
30
0
41
1
10
99.7903701456908
20
-10.1350745493981
30
0
41
1
10
99.8452973006283
20
-10.3392550355193
30
0
41
1
10
99.9551516105032
20
-10.7119254919244
30
0
41
1
10
100.01007876544
20
-10.8804160549694
30
0
41
1
10
100.119933075315
20
-11.1810483856431
30
0
41
1
10
100.174860230253
20
-11.3131931016689
30
0
41
1
10
100.284714540127
20
-11.5415132164622
30
0
41
1
10
100.339641695065
20
-11.6376933675959
30
0
41
1
10
100.44949600494
20
-11.7953837371778
30
0
41
1
10
100.504423159877
20
-11.8568998295216
30
0
41
1
10
100.614277469752
20
-11.9473192490993
30
0
41
1
10
100.669204624689
20
-11.9762288821425
30
0
41
1
10
100.737863568361
20
-11.9936264483734
30
0
41
1
10
100.751595357095
20
-11.9961701211381
30
0
41
1
10
100.779058934564
20
-11.9994308282968
30
0
41
1
10
100.792790723298
20
-12.0001482674585
30
0
41
1
10
100.833986089501
20
-11.9996276635498
30
0
41
1
10
100.86144966697
20
-11.9957011892006
30
0
41
1
10
100.943840399376
20
-11.9726381390547
30
0
41
1
10
100.998767554314
20
-11.9422021732635
30
0
41
1
10
101.108621864189
20
-11.848615428055
30
0
41
1
10
101.163549019126
20
-11.7854583489418
30
0
41
1
10
101.273403329001
20
-11.6244038999489
30
0
41
1
10
101.328330483938
20
-11.5265006943131
30
0
41
1
10
101.438184793813
20
-11.2946934921629
30
0
41
1
10
101.49311194875
20
-11.1607848156575
30
0
41
1
10
101.602966258625
20
-10.8566316324676
30
0
41
1
10
101.657893413563
20
-10.6863842806098
30
0
41
1
10
101.767747723437
20
-10.3102596277854
30
0
41
1
10
101.822674878375
20
-10.104381858533
30
0
41
1
10
101.93252918825
20
-9.65879479463024
30
0
41
1
10
101.987456343187
20
-9.41908769305928
30
0
41
1
10
102.097310653062
20
-8.90870786761423
30
0
41
1
10
102.152237807999
20
-8.63803994167517
30
0
41
1
10
102.262092117874
20
-8.06956640931142
30
0
41
1
10
102.317019272812
20
-7.771767790242
30
0
41
1
10
102.426873582686
20
-7.15364411672607
30
0
41
1
10
102.481800737624
20
-6.83332752344796
30
0
41
1
10
102.591655047499
20
-6.17532768713178
30
0
41
1
10
102.646582202436
20
-5.8376534868504
30
0
41
1
10
102.756436512311
20
-5.15038062121209
30
0
41
1
10
102.811363667248
20
-4.80079066780417
30
0
41
1
10
102.921217977123
20
-4.0951410507067
30
0
41
1
10
102.97614513206
20
-3.73908898439907
30
0
41
1
10
103.085999441935
20
-3.02573494604803
30
0
41
1
10
103.140926596873
20
-2.66843890807004
30
0
41
1
10
103.250780906747
20
-1.95737691885174
30
0
41
1
10
103.305708061685
20
-1.60361497024277
30
0
41
1
10
103.41556237156
20
-0.903811507976513
30
0
41
1
10
103.470489526497
20
-0.557772064079671
30
0
41
1
10
103.539148470169
20
-0.132241681300286
30
0
41
1
10
103.552880258903
20
-0.047653134612716
30
0
41
1
10
103.580343836372
20
0.121545018978452
30
0
41
1
10
103.621539202575
20
0.376440509112911
30
0
41
1
10
103.662734568778
20
0.634416690767864
30
0
41
1
10
103.745125301184
20
1.15384314532071
30
0
41
1
10
103.800052456122
20
1.50478056447056
30
0
41
1
10
103.909906765996
20
2.21206057008169
30
0
41
1
10
103.964833920934
20
2.56839999323381
30
0
41
1
10
104.074688230809
20
3.28194491533134
30
0
41
1
10
104.129615385746
20
3.63914528887881
30
0
41
1
10
104.239469695621
20
4.34936175708904
30
0
41
1
10
104.294396850558
20
4.70237091374653
30
0
41
1
10
104.404251160433
20
5.39882513576481
30
0
41
1
10
104.45917831537
20
5.74226188127074
30
0
41
1
10
104.569032625245
20
6.41409284197945
30
0
41
1
10
104.623959780183
20
6.74247804852411
30
0
41
1
10
104.733814090058
20
7.37889173070081
30
0
41
1
10
104.788741244995
20
7.68691138270319
30
0
41
1
10
104.89859555487
20
8.27771501109538
30
0
41
1
10
104.953522709807
20
8.56049126935179
30
0
41
1
10
105.063377019682
20
9.09661611369006
30
0
41
1
10
105.118304174619
20
9.3499588961127
30
0
41
1
10
105.228158484494
20
9.8239175446468
30
0
41
1
10
105.283085639431
20
10.0445300767245
30
0
41
1
10
105.392939949306
20
10.4507606678775
30
0
41
1
10
105.447867104244
20
10.636378074635
30
0
41
1
10
105.557721414119
20
10.9714428205498
30
0
41
1
10
105.612648569056
20
11.120892043387
30
0
41
1
10
105.722502878931
20
11.3835174247969
30
0
41
1
10
105.777430033868
20
11.4966975576517
30
0
41
1
10
105.832357188806
20
11.5921810349133
30
0
0
SPLINE
5
F1
100
AcDbEntity
8
1
62
256
6
ByLayer
370
13
48
1
60
0
100
AcDbSpline
70
4
71
3
72
10
73
6
40
0
40
0
40
0
40
0
40
0.5
40
0.5
40
1
40
1
40
1
40
1
41
1
10
105.499544114143
20
12
30
0
41
1
10
105.55501295992
20
12
30
0
41
1
10
105.610481805697
20
11.9854232007578
30
0
41
1
10
105.721419497251
20
11.9242111402451
30
0
41
1
10
105.776888343028
20
11.8775692684481
30
0
41
1
10
105.832357188806
20
11.8136905714438
30
0
0
SPLINE
5
F2
100
AcDbEntity
8
1
62
256
6
ByLayer
370
13
48
1
60
0
100
AcDbSpline
70
4
71
3
72
14
73
10
40
0
40
0
40
0
40
0
40
0.25
40
0.25
40
0.5
40
0.5
40
0.75
40
0.75
40
1
40
1
40
1
40
1
41
1
10
94.7999999999999
20
10.7939744945486
30
0
41
1
10
94.8682630889254
20
11.0030669747304
30
0
41
1
10
94.9365261778507
20
11.1842033910106
30
0
41
1
10
95.0730523557014
20
11.4905574111629
30
0
41
1
10
95.1413154446267
20
11.6157878842029
30
0
41
1
10
95.2778416224773
20
11.8126129071914
30
0
41
1
10
95.3461047114027
20
11.884224795785
30
0
41
1
10
95.4826308892536
20
11.9779090018553
30
0
41
1
10
95.5508939781788
20
12
30
0
41
1
10
95.6191570671041
20
12
30
0
0
SPLINE
5
F3
100
AcDbEntity
8
1
62
256
6
ByLayer
370
13
48
1
60
0
100
AcDbSpline
70
4
71
3
72
134
73
130
40
0
40
0
40
0
40
0
40
0.015625
40
0.015625
40
0.03125
40
0.03125
40
0.0468749999999999
40
0.0468749999999999
40
0.0624999999999999
40
0.0624999999999999
40
0.0781249999999999
40
0.0781249999999999
40
0.0937499999999999
40
0.0937499999999999
40
0.109375
40
0.109375
40
0.125
40
0.125
40
0.140625
40
0.140625
40
0.15625
40
0.15625
40
0.171875
40
0.171875
40
0.1875
40
0.1875
40
0.203125
40
0.203125
40
0.21875
40
0.21875
40
0.234375
40
0.234375
40
0.25
40
0.25
40
0.265625
40
0.265625
40
0.28125
40
0.28125
40
0.296875
40
0.296875
40
0.3125
40
0.3125
40
0.328125
40
0.328125
40
0.34375
40
0.34375
40
0.359375
40
0.359375
40
0.375
40
0.375
40
0.390625
40
0.390625
40
0.40625
40
0.40625
40
0.421875
40
0.421875
40
0.4375
40
0.4375
40
0.453125000000001
40
0.453125000000001
40
0.468750000000001
40
0.468750000000001
40
0.484375000000001
40
0.484375000000001
40
0.500000000000001
40
0.500000000000001
40
0.515625000000001
40
0.515625000000001
40
0.531250000000001
40
0.531250000000001
40
0.546875000000001
40
0.546875000000001
40
0.5625
40
0.5625
40
0.578125
40
0.578125
40
0.59375
40
0.59375
40
0.609375
40
0.609375
40
0.625
40
0.625
40
0.640625
40
0.640625
40
0.65625
40
0.65625
40
0.671875
40
0.671875
40
0.6875
40
0.6875
40
0.703125
40
0.703125
40
0.71875
40
0.71875
40
0.734375
40
0.734375
40
0.75
40
0.75
40
0.765625
40
0.765625
40
0.78125
40
0.78125
40
0.796875
40
0.796875
40
0.8125
40
0.8125
40
0.828125
40
0.828125
40
0.84375
40
0.84375
40
0.859375
40
0.859375
40
0.875
40
0.875
40
0.890625
40
0.890625
40
0.90625
40
0.90625
40
0.921875
40
0.921875
40
0.9375
40
0.9375
40
0.953125
40
0.953125
40
0.96875
40
0.96875
40
0.984375
40
0.984375
40
1
40
1
40
1
40
1
41
1
10
94.8000005516178
20
12
30
0
41
1
10
94.8574607424365
20
12
30
0
41
1
10
94.9149209332552
20
11.9843564008018
30
0
41
1
10
95.0298413148925
20
11.9185614157765
30
0
41
1
10
95.0873015057112
20
11.868402140351
30
0
41
1
10
95.2022218873486
20
11.7309267428894
30
0
41
1
10
95.2596820781672
20
11.6436029598578
30
0
41
1
10
95.3746024598047
20
11.4299721327648
30
0
41
1
10
95.4320626506235
20
11.3036585655958
30
0
41
1
10
95.5469830322608
20
11.0112608353412
30
0
41
1
10
95.6044432230795
20
10.8451722418484
30
0
41
1
10
95.7193636047168
20
10.4736442007117
30
0
41
1
10
95.7768237955355
20
10.2682032399513
30
0
41
1
10
95.8917441771729
20
9.81968943295877
30
0
41
1
10
95.9492043679917
20
9.57661849797447
30
0
41
1
10
96.064124749629
20
9.05585855061975
30
0
41
1
10
96.1215849404476
20
8.77817491774718
30
0
41
1
10
96.236505322085
20
8.19238853367364
30
0
41
1
10
96.2939655129037
20
7.88429415739984
30
0
41
1
10
96.408885894541
20
7.24286174211548
30
0
41
1
10
96.4663460853597
20
6.90953414897794
30
0
41
1
10
96.5812664669971
20
6.2235009613153
30
0
41
1
10
96.6387266578158
20
5.87080667935587
30
0
41
1
10
96.7536470394531
20
5.15226473958245
30
0
41
1
10
96.8111072302718
20
4.78642800799963
30
0
41
1
10
96.9260276119092
20
4.04784635093233
30
0
41
1
10
96.9834878027279
20
3.67511088817039
30
0
41
1
10
97.0984081843652
20
2.92868772364363
30
0
41
1
10
97.155868375184
20
2.55500728020087
30
0
41
1
10
97.2707887568213
20
1.81210753778007
30
0
41
1
10
97.32824894764
20
1.44289295387023
30
0
41
1
10
97.4431693292774
20
0.713615196549654
30
0
41
1
10
97.5006295200961
20
0.353554231799052
30
0
41
1
10
97.6155499017335
20
-0.353552534742818
30
0
41
1
10
97.6730100925521
20
-0.71361346081963
30
0
41
1
10
97.7879304741894
20
-1.44289118906704
30
0
41
1
10
97.8453906650081
20
-1.81210576187067
30
0
41
1
10
97.9603110466455
20
-2.55500549019152
30
0
41
1
10
98.0177712374641
20
-2.92868593064463
30
0
41
1
10
98.1326916191016
20
-3.67510909833817
30
0
41
1
10
98.1901518099203
20
-4.04784456726043
30
0
41
1
10
98.3050721915577
20
-4.78642624647946
30
0
41
1
10
98.3625323823763
20
-5.15226299405677
30
0
41
1
10
98.4774527640136
20
-5.87080497588008
30
0
41
1
10
98.5349129548324
20
-6.22349928389647
30
0
41
1
10
98.6498333364698
20
-6.90953253343727
30
0
41
1
10
98.7072935272885
20
-7.24286016239572
30
0
41
1
10
98.8222139089258
20
-7.88429265824379
30
0
41
1
10
98.8796740997446
20
-8.19238707925808
30
0
41
1
10
98.9945944813819
20
-8.77817356038784
30
0
41
1
10
99.0520546722006
20
-9.05585724557207
30
0
41
1
10
99.1669750538379
20
-9.57661730337409
30
0
41
1
10
99.2244352446566
20
-9.81968829648878
30
0
41
1
10
99.339355626294
20
-10.2682022235547
30
0
41
1
10
99.3968158171127
20
-10.4736432462525
30
0
41
1
10
99.5117361987501
20
-10.8451714129727
30
0
41
1
10
99.5691963895688
20
-11.0112600701065
30
0
41
1
10
99.6841167712061
20
-11.303657927321
30
0
41
1
10
99.7415769620248
20
-11.429971557805
30
0
41
1
10
99.8564973436622
20
-11.6436025093893
30
0
41
1
10
99.9139575344809
20
-11.7309263535946
30
0
41
1
10
100.028877916118
20
-11.8684018697636
30
0
41
1
10
100.086338106937
20
-11.9185612027217
30
0
41
1
10
100.201258488574
20
-11.9843562980405
30
0
41
1
10
100.258718679393
20
-11.9999999499999
30
0
41
1
10
100.37363906103
20
-12.0000000499999
30
0
41
1
10
100.431099251849
20
-11.9843565035629
30
0
41
1
10
100.546019633486
20
-11.9185616288311
30
0
41
1
10
100.603479824305
20
-11.8684024109382
30
0
41
1
10
100.718400205942
20
-11.7309271321839
30
0
41
1
10
100.775860396761
20
-11.643603410326
30
0
41
1
10
100.890780778399
20
-11.4299727077243
30
0
41
1
10
100.948240969217
20
-11.3036592038702
30
0
41
1
10
101.063161350855
20
-11.0112616005756
30
0
41
1
10
101.120621541673
20
-10.8451730707238
30
0
41
1
10
101.235541923311
20
-10.4736451551706
30
0
41
1
10
101.293002114129
20
-10.2682042563476
30
0
41
1
10
101.407922495767
20
-9.81969056942847
30
0
41
1
10
101.465382686586
20
-9.57661969257452
30
0
41
1
10
101.580303068223
20
-9.05585985566717
30
0
41
1
10
101.637763259042
20
-8.77817627510626
30
0
41
1
10
101.752683640679
20
-8.19238998808902
30
0
41
1
10
101.810143831498
20
-7.88429565655568
30
0
41
1
10
101.925064213135
20
-7.2428633218351
30
0
41
1
10
101.982524403954
20
-6.90953576451841
30
0
41
1
10
102.097444785591
20
-6.223502638734
30
0
41
1
10
102.15490497641
20
-5.87080838283154
30
0
41
1
10
102.269825358047
20
-5.15226648510802
30
0
41
1
10
102.327285548866
20
-4.78642976951969
30
0
41
1
10
102.442205930503
20
-4.04784813460421
30
0
41
1
10
102.499666121322
20
-3.67511267800262
30
0
41
1
10
102.614586502959
20
-2.92868951664266
30
0
41
1
10
102.672046693778
20
-2.55500907021028
30
0
41
1
10
102.786967075415
20
-1.81210931368949
30
0
41
1
10
102.844427266234
20
-1.44289471867347
30
0
41
1
10
102.959347647871
20
-0.713616932279763
30
0
41
1
10
103.01680783869
20
-0.353555949566044
30
0
41
1
10
103.131728220327
20
0.35355085839717
30
0
41
1
10
103.189188411146
20
0.713611725089692
30
0
41
1
10
103.304108792783
20
1.44288942426391
30
0
41
1
10
103.361568983602
20
1.81210398596133
30
0
41
1
10
103.476489365239
20
2.55500370018214
30
0
41
1
10
103.533949556058
20
2.92868413764563
30
0
41
1
10
103.648869937695
20
3.67510730850592
30
0
41
1
10
103.706330128514
20
4.04784278358849
30
0
41
1
10
103.821250510152
20
4.78642448495927
30
0
41
1
10
103.87871070097
20
5.15226124853103
30
0
41
1
10
103.993631082607
20
5.87080327240417
30
0
41
1
10
104.051091273426
20
6.22349760647748
30
0
41
1
10
104.166011655064
20
6.90953091789646
30
0
41
1
10
104.223471845882
20
7.24285858267575
30
0
41
1
10
104.33839222752
20
7.88429115908752
30
0
41
1
10
104.395852418338
20
8.19238562484227
30
0
41
1
10
104.510772799976
20
8.77817220302828
30
0
41
1
10
104.568232990794
20
9.05585594052414
30
0
41
1
10
104.683153372432
20
9.57661610877346
30
0
41
1
10
104.740613563251
20
9.81968716001853
30
0
41
1
10
104.855533944888
20
10.2682012071578
30
0
41
1
10
104.912994135707
20
10.4736422917929
30
0
41
1
10
105.027914517344
20
10.8451705840967
30
0
41
1
10
105.085374708163
20
11.0112593048715
30
0
41
1
10
105.2002950898
20
11.303657289046
30
0
41
1
10
105.257755280619
20
11.429970982845
30
0
41
1
10
105.372675662256
20
11.6436020589205
30
0
41
1
10
105.430135853075
20
11.7309259642995
30
0
41
1
10
105.545056234712
20
11.8684015991759
30
0
41
1
10
105.602516425531
20
11.9185609896665
30
0
41
1
10
105.717436807168
20
11.9843561952789
30
0
41
1
10
105.774896997987
20
11.9999998999995
30
0
41
1
10
105.832357188806
20
11.9999999999995
30
0
0
SPLINE
5
F4
100
AcDbEntity
8
1
62
256
6
ByLayer
370
13
48
1
60
0
100
AcDbSpline
70
4
71
3
72
14
73
10
40
0
40
0
40
0
40
0
40
0.25
40
0.25
40
0.5
40
0.5
40
0.75
40
0.75
40
1
40
1
40
1
40
1
41
1
10
105.013201224937
20
12
30
0
41
1
10
105.081464221926
20
12
30
0
41
1
10
105.149727218915
20
11.9779090614754
30
0
41
1
10
105.286253212893
20
11.8842251146845
30
0
41
1
10
105.354516209882
20
11.8126134258759
30
0
41
1
10
105.49104220386
20
11.6157889560136
30
0
41
1
10
105.559305200849
20
11.4905588364235
30
0
41
1
10
105.695831194828
20
11.1842056791086
30
0
41
1
10
105.764094191816
20
11.0030697722777
30
0
41
1
10
105.832357188806
20
10.7939778737998
30
0
0
SPLINE
5
F5
100
AcDbEntity
8
1
62
256
6
ByLayer
370
13
48
1
60
0
100
AcDbSpline
70
4
71
3
72
10
73
6
40
0
40
0
40
0
40
0
40
0.5
40
0.5
40
1
40
1
40
1
40
1
41
1
10
94.7999999999999
20
11.8136893009399
30
0
41
1
10
94.8554690296497
20
11.8775684379036
30
0
41
1
10
94.9109380592995
20
11.9242106282699
30
0
41
1
10
95.021876118599
20
11.9854231039998
30
0
41
1
10
95.0773451482487
20
12
30
0
41
1
10
95.1328141778984
20
12
30
0
0
SPLINE
5
F6
100
AcDbEntity
8
1
62
256
6
ByLayer
370
13
48
1
60
0
100
AcDbSpline
70
4
71
3
72
146
73
142
40
0
40
0
40
0
40
0
40
0.0156249999999999
40
0.0156249999999999
40
0.0312499999999999
40
0.0312499999999999
40
0.0468749999999998
40
0.0468749999999998
40
0.0624999999999997
40
0.0624999999999997
40
0.0781249999999997
40
0.0781249999999997
40
0.0937499999999996
40
0.0937499999999996
40
0.109375
40
0.109375
40
0.125
40
0.125
40
0.140625
40
0.140625
40
0.156249999999999
40
0.156249999999999
40
0.171874999999999
40
0.171874999999999
40
0.187499999999999
40
0.187499999999999
40
0.203124999999999
40
0.203124999999999
40
0.210937499999999
40
0.210937499999999
40
0.214843749999999
40
0.214843749999999
40
0.21875
40
0.21875
40
0.234374999999999
40
0.234374999999999
40
0.249999999999999
40
0.249999999999999
40
0.265624999999999
40
0.265624999999999
40
0.281249999999999
40
0.281249999999999
40
0.296874999999999
40
0.296874999999999
40
0.312499999999999
40
0.312499999999999
40
0.328124999999999
40
0.328124999999999
40
0.343749999999999
40
0.343749999999999
40
0.359374999999999
40
0.359374999999999
40
0.374999999999999
40
0.374999999999999
40
0.390624999999999
40
0.390624999999999
40
0.406249999999999
40
0.406249999999999
40
0.421874999999999
40
0.421874999999999
40
0.437499999999999
40
0.437499999999999
40
0.453124999999999
40
0.453124999999999
40
0.468749999999999
40
0.468749999999999
40
0.476562499999999
40
0.476562499999999
40
0.480468749999999
40
0.480468749999999
40
0.484374999999999
40
0.484374999999999
40
0.499999999999999
40
0.499999999999999
40
0.515624999999999
40
0.515624999999999
40
0.531249999999999
40
0.531249999999999
40
0.546874999999999
40
0.546874999999999
40
0.562499999999999
40
0.562499999999999
40
0.578124999999999
40
0.578124999999999
40
0.593749999999999
40
0.593749999999999
40
0.609374999999999
40
0.609374999999999
40
0.624999999999999
40
0.624999999999999
40
0.640624999999999
40
0.640624999999999
40
0.656249999999999
40
0.656249999999999
40
0.671874999999999
40
0.671874999999999
40
0.687499999999999
40
0.687499999999999
40
0.703124999999999
40
0.703124999999999
40
0.718749999999999
40
0.718749999999999
40
0.734374999999999
40
0.734374999999999
40
0.738281249999999
40
0.738281249999999
40
0.742187499999999
40
0.742187499999999
40
0.749999999999999
40
0.749999999999999
40
0.765624999999999
40
0.765624999999999
40
0.781249999999999
40
0.781249999999999
40
0.796874999999999
40
0.796874999999999
40
0.812499999999999
40
0.812499999999999
40
0.828125
40
0.828125
40
0.84375
40
0.84375
40
0.859375
40
0.859375
40
0.875
40
0.875
40
0.890625
40
0.890625
40
0.90625
40
0.90625
40
0.921875
40
0.921875
40
0.9375
40
0.9375
40
0.953125
40
0.953125
40
0.96875
40
0.96875
40
0.984375
40
0.984375
40
1
40
1
40
1
40
1
41
1
10
94.8
20
11.5921829527379
30
0
41
1
10
94.8549271606834
20
11.4966997019487
30
0
41
1
10
94.9098543213668
20
11.3835197962969
30
0
41
1
10
95.0197086427337
20
11.1208948644058
30
0
41
1
10
95.0746358034171
20
10.9714458638702
30
0
41
1
10
95.184490124784
20
10.6363815509205
30
0
41
1
10
95.2394172854674
20
10.4507643548099
30
0
41
1
10
95.3492716068342
20
10.0445341666371
30
0
41
1
10
95.4041987675176
20
9.82392182687616
30
0
41
1
10
95.5140530888844
20
9.34996353856508
30
0
41
1
10
95.5689802495679
20
9.09662092403394
30
0
41
1
10
95.6788345709348
20
8.56049638603074
30
0
41
1
10
95.7337617316182
20
8.2777202662071
30
0
41
1
10
95.8436160529851
20
7.6869168816466
30
0
41
1
10
95.8985432136685
20
7.37889733503783
30
0
41
1
10
96.0083975350353
20
6.74248382872753
30
0
41
1
10
96.0633246957188
20
6.41409869265638
30
0
41
1
10
96.1731790170856
20
5.74226783785596
30
0
41
1
10
96.228106177769
20
5.39883112779111
30
0
41
1
10
96.3379604991359
20
4.70237694315912
30
0
41
1
10
96.3928876598193
20
4.34936778845739
30
0
41
1
10
96.5027419811861
20
3.63915129360822
30
0
41
1
10
96.5576691418696
20
3.28195089147903
30
0
41
1
10
96.6675234632365
20
2.56840588565663
30
0
41
1
10
96.72245062392
20
2.21206640737481
30
0
41
1
10
96.8323049452867
20
1.50478626957332
30
0
41
1
10
96.8872321059701
20
1.15384877337513
30
0
41
1
10
96.9696228469953
20
0.634422190462573
30
0
41
1
10
96.9970864273369
20
0.462438024442321
30
0
41
1
10
97.0382817978496
20
0.206515797835408
30
0
41
1
10
97.0520135880205
20
0.121550379807644
30
0
41
1
10
97.0794771683622
20
-0.0476478222839205
30
0
41
1
10
97.0932089585329
20
-0.132236345154666
30
0
41
1
10
97.1618679093873
20
-0.557766699408319
30
0
41
1
10
97.2167950700708
20
-0.903806129912994
30
0
41
1
10
97.3266493914376
20
-1.60360958679254
30
0
41
1
10
97.381576552121
20
-1.95737154341546
30
0
41
1
10
97.4914308734879
20
-2.66843357201572
30
0
41
1
10
97.5463580341713
20
-3.02572964136954
30
0
41
1
10
97.6562123555381
20
-3.73908376693436
30
0
41
1
10
97.7111395162217
20
-4.09513588908587
30
0
41
1
10
97.8209938375885
20
-4.80078564238096
30
0
41
1
10
97.8759209982719
20
-5.15037567614559
30
0
41
1
10
97.9857753196386
20
-5.83764872585695
30
0
41
1
10
98.0407024803221
20
-6.17532302985362
30
0
41
1
10
98.1505568016889
20
-6.83332309457955
30
0
41
1
10
98.2054839623724
20
-7.15363981254683
30
0
41
1
10
98.3153382837392
20
-7.77176375290256
30
0
41
1
10
98.3702654444226
20
-8.0695625141135
30
0
41
1
10
98.4801197657895
20
-8.63803634378473
30
0
41
1
10
98.535046926473
20
-8.9087044248779
30
0
41
1
10
98.6449012478398
20
-9.41908456861907
30
0
41
1
10
98.6998284085232
20
-9.65879183331899
30
0
41
1
10
98.80968272989
20
-10.1043792262118
30
0
41
1
10
98.8646098905735
20
-10.3102571613128
30
0
41
1
10
98.9744642119403
20
-10.68638214348
30
0
41
1
10
99.0293913726237
20
-10.8566296588219
30
0
41
1
10
99.1392456939907
20
-11.160783162054
30
0
41
1
10
99.1941728546741
20
-11.2946919951107
30
0
41
1
10
99.3040271760409
20
-11.5264994996438
30
0
41
1
10
99.3589543367243
20
-11.6244028511079
30
0
41
1
10
99.4688086580912
20
-11.7854575781791
30
0
41
1
10
99.5237358187746
20
-11.8486147895423
30
0
41
1
10
99.6335901401415
20
-11.9422017837974
30
0
41
1
10
99.6885173008249
20
-11.9726378663881
30
0
41
1
10
99.77090804185
20
-11.9957010794415
30
0
41
1
10
99.7983716221918
20
-11.9996276060515
30
0
41
1
10
99.8395669927043
20
-12.0001482852601
30
0
41
1
10
99.8532987828752
20
-11.9994308711048
30
0
41
1
10
99.8807623632169
20
-11.996170214431
30
0
41
1
10
99.8944941533877
20
-11.9936265670359
30
0
41
1
10
99.9631531042421
20
-11.9762291282046
30
0
41
1
10
100.018080264925
20
-11.9473195988634
30
0
41
1
10
100.127934586292
20
-11.856900387813
30
0
41
1
10
100.182861746976
20
-11.7953844002906
30
0
41
1
10
100.292716068343
20
-11.6376942386329
30
0
41
1
10
100.347643229026
20
-11.5415141905964
30
0
41
1
10
100.457497550393
20
-11.3131942771782
30
0
41
1
10
100.512424711076
20
-11.1810496594236
30
0
41
1
10
100.622279032443
20
-10.8804175173064
30
0
41
1
10
100.677206193126
20
-10.711927044539
30
0
41
1
10
100.787060514493
20
-10.3392567576995
30
0
41
1
10
100.841987675177
20
-10.1350763508584
30
0
41
1
10
100.951841996544
20
-9.69277149716166
30
0
41
1
10
101.006769157227
20
-9.45464911251625
30
0
41
1
10
101.116623478594
20
-8.9472761697096
30
0
41
1
10
101.171550639277
20
-8.67803028980765
30
0
41
1
10
101.281404960644
20
-8.1121951753004
30
0
41
1
10
101.336332121328
20
-7.81561283624995
30
0
41
1
10
101.446186442694
20
-7.1996830736322
30
0
41
1
10
101.501113603378
20
-6.88034405945217
30
0
41
1
10
101.610967924745
20
-6.22404010057554
30
0
41
1
10
101.665895085428
20
-5.88708419194373
30
0
41
1
10
101.775749406795
20
-5.20098122995034
30
0
41
1
10
101.830676567479
20
-4.85184292425762
30
0
41
1
10
101.940530888845
20
-4.14683530381305
30
0
41
1
10
101.995458049529
20
-3.7909736554239
30
0
41
1
10
102.105312370896
20
-3.07775570352837
30
0
41
1
10
102.160239531579
20
-2.72040542334764
30
0
41
1
10
102.270093852946
20
-2.00901549183328
30
0
41
1
10
102.325021013629
20
-1.65497993893069
30
0
41
1
10
102.434875334996
20
-0.954441014897697
30
0
41
1
10
102.48980249568
20
-0.607939803978127
30
0
41
1
10
102.558461446534
20
-0.181735979452952
30
0
41
1
10
102.572193236705
20
-0.0968396293406215
30
0
41
1
10
102.599656817047
20
0.0722158606266134
30
0
41
1
10
102.613388607217
20
0.156976117264321
30
0
41
1
10
102.65458397773
20
0.412497071402157
30
0
41
1
10
102.682047558072
20
0.584233063892015
30
0
41
1
10
102.764438299097
20
1.10297961572047
30
0
41
1
10
102.81936545978
20
1.45354984970172
30
0
41
1
10
102.929219781147
20
2.16030046913966
30
0
41
1
10
102.98414694183
20
2.5164777858331
30
0
41
1
10
103.094001263197
20
3.22993194344733
30
0
41
1
10
103.148928423881
20
3.58720375298577
30
0
41
1
10
103.258782745248
20
4.2978176107865
30
0
41
1
10
103.313709905931
20
4.65115280139881
30
0
41
1
10
103.423564227298
20
5.34852461434312
30
0
41
1
10
103.478491387981
20
5.69255296980111
30
0
41
1
10
103.588345709348
20
6.36583156229699
30
0
41
1
10
103.643272870031
20
6.69507280493204
30
0
41
1
10
103.753127191398
20
7.33344869453248
30
0
41
1
10
103.808054352082
20
7.64257448737993
30
0
41
1
10
103.917908673449
20
8.23581331704878
30
0
41
1
10
103.972835834132
20
8.51991856184839
30
0
41
1
10
104.082690155499
20
9.05888572275248
30
0
41
1
10
104.137617316182
20
9.31374172690153
30
0
41
1
10
104.247471637549
20
9.79086400058438
30
0
41
1
10
104.302398798233
20
10.0131268083142
30
0
41
1
10
104.412253119599
20
10.4227429886233
30
0
41
1
10
104.467180280283
20
10.6100955792725
30
0
41
1
10
104.57703460165
20
10.9486625352157
30
0
41
1
10
104.631961762333
20
11.0998786692942
30
0
41
1
10
104.7418160837
20
11.3660191975729
30
0
41
1
10
104.796743244384
20
11.4809474782007
30
0
41
1
10
104.90659756575
20
11.6753472967756
30
0
41
1
10
104.961524726434
20
11.7548242088758
30
0
41
1
10
105.071379047801
20
11.8800033027065
30
0
41
1
10
105.126306208484
20
11.9257116460842
30
0
41
1
10
105.236160529851
20
11.9857068482573
30
0
41
1
10
105.291087690534
20
12
30
0
41
1
10
105.346014851218
20
12
30
0
0
SPLINE
5
F7
100
AcDbEntity
8
1
62
256
6
ByLayer
370
13
48
1
60
0
100
AcDbSpline
70
4
71
3
72
22
73
18
40
0
40
0
40
0
40
0
40
0.125
40
0.125
40
0.25
40
0.25
40
0.375
40
0.375
40
0.5
40
0.5
40
0.625
40
0.625
40
0.75
40
0.75
40
0.875
40
0.875
40
1
40
1
40
1
40
1
41
1
10
104.526858335732
20
12
30
0
41
1
10
104.581254121276
20
12
30
0
41
1
10
104.635649906821
20
11.9859823788381
30
0
41
1
10
104.74444147791
20
11.927168521549
30
0
41
1
10
104.798837263455
20
11.8823662920681
30
0
41
1
10
104.907628834545
20
11.7596894013481
30
0
41
1
10
104.962024620089
20
11.6818088621524
30
0
41
1
10
105.070816191179
20
11.4913224650633
30
0
41
1
10
105.125211976724
20
11.3787114561654
30
0
41
1
10
105.234003547813
20
11.1179200739646
30
0
41
1
10
105.288399333358
20
10.9697359312435
30
0
41
1
10
105.397190904447
20
10.6378994376027
30
0
41
1
10
105.451586689992
20
10.4542452923877
30
0
41
1
10
105.560378261082
20
10.0526008096145
30
0
41
1
10
105.614774046627
20
9.83461106920024
30
0
41
1
10
105.723565617716
20
9.36647762688295
30
0
41
1
10
105.777961403261
20
9.11633705284737
30
0
41
1
10
105.832357188806
20
8.85170790166151
30
0
0
SPLINE
5
F8
100
AcDbEntity
8
1
62
256
6
ByLayer
370
13
48
1
60
0
100
AcDbSpline
70
4
71
3
72
130
73
126
40
0
40
0
40
0
40
0
40
0.0156250000000002
40
0.0156250000000002
40
0.0312500000000005
40
0.0312500000000005
40
0.0468750000000007
40
0.0468750000000007
40
0.062500000000001
40
0.062500000000001
40
0.0781250000000012
40
0.0781250000000012
40
0.0937500000000015
40
0.0937500000000015
40
0.109375000000002
40
0.109375000000002
40
0.125000000000002
40
0.125000000000002
40
0.156250000000002
40
0.156250000000002
40
0.171875000000002
40
0.171875000000002
40
0.175781250000002
40
0.175781250000002
40
0.179687500000003
40
0.179687500000003
40
0.187500000000003
40
0.187500000000003
40
0.218750000000002
40
0.218750000000002
40
0.234375000000002
40
0.234375000000002
40
0.250000000000002
40
0.250000000000002
40
0.265625000000001
40
0.265625000000001
40
0.281250000000001
40
0.281250000000001
40
0.296875000000001
40
0.296875000000001
40
0.312500000000001
40
0.312500000000001
40
0.328125
40
0.328125
40
0.34375
40
0.34375
40
0.359375
40
0.359375
40
0.375
40
0.375
40
0.390624999999999
40
0.390624999999999
40
0.406249999999999
40
0.406249999999999
40
0.437499999999999
40
0.437499999999999
40
0.445312499999998
40
0.445312499999998
40
0.449218749999998
40
0.449218749999998
40
0.453124999999998
40
0.453124999999998
40
0.468749999999998
40
0.468749999999998
40
0.499999999999998
40
0.499999999999998
40
0.515624999999998
40
0.515624999999998
40
0.531249999999998
40
0.531249999999998
40
0.546874999999997
40
0.546874999999997
40
0.562499999999997
40
0.562499999999997
40
0.578124999999997
40
0.578124999999997
40
0.593749999999997
40
0.593749999999997
40
0.609374999999997
40
0.609374999999997
40
0.624999999999996
40
0.624999999999996
40
0.640624999999996
40
0.640624999999996
40
0.656249999999996
40
0.656249999999996
40
0.671874999999996
40
0.671874999999996
40
0.687499999999996
40
0.687499999999996
40
0.718749999999995
40
0.718749999999995
40
0.722656249999995
40
0.722656249999995
40
0.726562499999995
40
0.726562499999995
40
0.734374999999996
40
0.734374999999996
40
0.749999999999996
40
0.749999999999996
40
0.781249999999996
40
0.781249999999996
40
0.796874999999996
40
0.796874999999996
40
0.812499999999997
40
0.812499999999997
40
0.828124999999997
40
0.828124999999997
40
0.843749999999997
40
0.843749999999997
40
0.859374999999997
40
0.859374999999997
40
0.874999999999998
40
0.874999999999998
40
0.890624999999998
40
0.890624999999998
40
0.906249999999998
40
0.906249999999998
40
0.921874999999998
40
0.921874999999998
40
0.937499999999999
40
0.937499999999999
40
0.968749999999999
40
0.968749999999999
40
1
40
1
40
1
40
1
41
1
10
94.7999999999999
20
10.2771146575977
30
0
41
1
10
94.8523941248021
20
10.084985154413
30
0
41
1
10
94.9047882496043
20
9.87690114403756
30
0
41
1
10
95.0095764992086
20
9.43071986434555
30
0
41
1
10
95.0619706240107
20
9.19262503074597
30
0
41
1
10
95.166758873615
20
8.68918071756562
30
0
41
1
10
95.2191529984171
20
8.42383556924139
30
0
41
1
10
95.3239412480216
20
7.86940902389841
30
0
41
1
10
95.3763353728236
20
7.58033348603792
30
0
41
1
10
95.4811236224279
20
6.9825698350831
30
0
41
1
10
95.5335177472301
20
6.67388855371229
30
0
41
1
10
95.6383059968344
20
6.04144968850744
30
0
41
1
10
95.6907001216365
20
5.71769925460958
30
0
41
1
10
95.7954883712407
20
5.05985862809231
30
0
41
1
10
95.847882496043
20
4.72577525418879
30
0
41
1
10
95.9526707456472
20
4.05199354735808
30
0
41
1
10
96.0050648704493
20
3.71230115226112
30
0
41
1
10
96.1622472448558
20
2.69158106468484
30
0
41
1
10
96.26703549446
20
2.0091667503292
30
0
41
1
10
96.4242178688665
20
1.00609650600114
30
0
41
1
10
96.4766119936686
20
0.675105712065061
30
0
41
1
10
96.5421046496712
20
0.267516580583049
30
0
41
1
10
96.5552031808719
20
0.18630480279819
30
0
41
1
10
96.581400243273
20
0.0245361689985657
30
0
41
1
10
96.5944987744735
20
-0.055904645002272
30
0
41
1
10
96.6337943680751
20
-0.298811011197046
30
0
41
1
10
96.6599914304761
20
-0.462048750366478
30
0
41
1
10
96.7909767424815
20
-1.28385269268719
30
0
41
1
10
96.8957649920858
20
-1.95960739897035
30
0
41
1
10
97.0529473664922
20
-2.97945421340378
30
0
41
1
10
97.1053414912943
20
-3.32036841348446
30
0
41
1
10
97.2101297408986
20
-3.99986616774575
30
0
41
1
10
97.2625238657009
20
-4.33844466390059
30
0
41
1
10
97.3673121153051
20
-5.0086778534488
30
0
41
1
10
97.4197062401073
20
-5.34032631333304
30
0
41
1
10
97.5244944897116
20
-5.99195208771451
30
0
41
1
10
97.5768886145138
20
-6.3119224284174
30
0
41
1
10
97.681676864118
20
-6.93549042188548
30
0
41
1
10
97.7340709889201
20
-7.23908094662747
30
0
41
1
10
97.8388592385245
20
-7.82544750075709
30
0
41
1
10
97.8912533633266
20
-8.10821690915185
30
0
41
1
10
97.9960416129309
20
-8.64896800583722
30
0
41
1
10
98.048435737733
20
-8.9069442168846
30
0
41
1
10
98.1532239873373
20
-9.39478816413589
30
0
41
1
10
98.2056181121395
20
-9.62465207691614
30
0
41
1
10
98.3104063617437
20
-10.0537444798501
30
0
41
1
10
98.3628004865459
20
-10.2529711036127
30
0
41
1
10
98.4675887361503
20
-10.6191420941843
30
0
41
1
10
98.5199828609524
20
-10.7860866085876
30
0
41
1
10
98.6247711105567
20
-11.0869524245935
30
0
41
1
10
98.6771652353588
20
-11.2208757072325
30
0
41
1
10
98.7819534849632
20
-11.4558311392478
30
0
41
1
10
98.8343476097652
20
-11.5568667360264
30
0
41
1
10
98.9915299841716
20
-11.8120199920051
30
0
41
1
10
99.0963182337759
20
-11.9179336930777
30
0
41
1
10
99.2273035457813
20
-11.9793587618366
30
0
41
1
10
99.2535006081824
20
-11.9881152166583
30
0
41
1
10
99.292796201784
20
-11.996182941169
30
0
41
1
10
99.3058947329846
20
-11.9980278593515
30
0
41
1
10
99.3320917953857
20
-12.0000685392243
30
0
41
1
10
99.3451903265861
20
-12.0002678991486
30
0
41
1
10
99.4106829825888
20
-11.9971963836209
30
0
41
1
10
99.463077107391
20
-11.98161280857
30
0
41
1
10
99.6202594817974
20
-11.8918419443135
30
0
41
1
10
99.7250477314018
20
-11.7743424245124
30
0
41
1
10
99.8822301058082
20
-11.5011024976671
30
0
41
1
10
99.9346242306103
20
-11.3939236054306
30
0
41
1
10
100.039412480215
20
-11.1465927597698
30
0
41
1
10
100.091806605017
20
-11.0064376007395
30
0
41
1
10
100.196594854621
20
-10.6931784243381
30
0
41
1
10
100.248988979423
20
-10.5200727477347
30
0
41
1
10
100.353777229028
20
-10.1418194473006
30
0
41
1
10
100.40617135383
20
-9.93667204793761
30
0
41
1
10
100.510959603434
20
-9.49614759899762
30
0
41
1
10
100.563353728236
20
-9.2607727962137
30
0
41
1
10
100.66814197784
20
-8.76247447361115
30
0
41
1
10
100.720536102642
20
-8.49955511881396
30
0
41
1
10
100.825324352247
20
-7.94962043261316
30
0
41
1
10
100.877718477049
20
-7.66261083787623
30
0
41
1
10
100.982506726653
20
-7.06857011975023
30
0
41
1
10
101.034900851455
20
-6.7615457636559
30
0
41
1
10
101.13968910106
20
-6.1319818530213
30
0
41
1
10
101.192083225862
20
-5.80944944699473
30
0
41
1
10
101.296871475466
20
-5.1535963181008
30
0
41
1
10
101.349265600268
20
-4.82028247071398
30
0
41
1
10
101.454053849872
20
-4.1476010193706
30
0
41
1
10
101.506447974675
20
-3.80823945543347
30
0
41
1
10
101.611236224279
20
-3.12800900483833
30
0
41
1
10
101.663630349081
20
-2.78714492148092
30
0
41
1
10
101.820812723488
20
-1.76858308146137
30
0
41
1
10
101.925600973092
20
-1.09520273334576
30
0
41
1
10
102.043487753897
20
-0.359497002790249
30
0
41
1
10
102.056586285097
20
-0.278049608489738
30
0
41
1
10
102.082783347498
20
-0.115793888716667
30
0
41
1
10
102.095881878699
20
-0.0351673031605344
30
0
41
1
10
102.1351774723
20
0.206996768712315
30
0
41
1
10
102.161374534701
20
0.369770922151929
30
0
41
1
10
102.239965721905
20
0.86156679057666
30
0
41
1
10
102.292359846707
20
1.19407976390332
30
0
41
1
10
102.449542221113
20
2.20074270211535
30
0
41
1
10
102.554330470718
20
2.8842434121384
30
0
41
1
10
102.711512845124
20
3.90409822417877
30
0
41
1
10
102.763906969926
20
4.24308856409391
30
0
41
1
10
102.86869521953
20
4.91458727640946
30
0
41
1
10
102.921089344333
20
5.24708951017931
30
0
41
1
10
103.025877593937
20
5.90087101232595
30
0
41
1
10
103.078271718739
20
6.22214335349278
30
0
41
1
10
103.183059968343
20
6.84875017899142
30
0
41
1
10
103.235454093146
20
7.15407752210183
30
0
41
1
10
103.34024234275
20
7.74431896285935
30
0
41
1
10
103.392636467552
20
8.02922636347279
30
0
41
1
10
103.497424717156
20
8.57460221690366
30
0
41
1
10
103.549818841958
20
8.83506506040479
30
0
41
1
10
103.654607091563
20
9.3281628288247
30
0
41
1
10
103.707001216365
20
9.56079375806428
30
0
41
1
10
103.811789465969
20
9.99562143009052
30
0
41
1
10
103.864183590771
20
10.1978161159303
30
0
41
1
10
103.968971840376
20
10.5700395741366
30
0
41
1
10
104.021365965178
20
10.7400683087926
30
0
41
1
10
104.126154214782
20
11.047134172703
30
0
41
1
10
104.178548339584
20
11.1841731236822
30
0
41
1
10
104.335730713991
20
11.5458816871397
30
0
41
1
10
104.440518963595
20
11.7208118295764
30
0
41
1
10
104.650095462803
20
11.9477936802455
30
0
41
1
10
104.754883712408
20
12
30
0
41
1
10
104.859671962012
20
12
30
0
0
SPLINE
5
F9
100
AcDbEntity
8
1
62
256
6
ByLayer
370
13
48
1
60
0
100
AcDbSpline
70
4
71
3
72
22
73
18
40
0
40
0
40
0
40
0
40
0.125
40
0.125
40
0.25
40
0.25
40
0.375
40
0.375
40
0.5
40
0.5
40
0.625
40
0.625
40
0.75
40
0.75
40
0.875
40
0.875
40
1
40
1
40
1
40
1
41
1
10
104.040515446526
20
12
30
0
41
1
10
104.115175519121
20
12
30
0
41
1
10
104.189835591716
20
11.9735644064994
30
0
41
1
10
104.339155736906
20
11.8609259712647
30
0
41
1
10
104.413815809501
20
11.7746939399588
30
0
41
1
10
104.563135954691
20
11.5373838794101
30
0
41
1
10
104.637796027286
20
11.3862796899351
30
0
41
1
10
104.787116172476
20
11.0168694696467
30
0
41
1
10
104.861776245071
20
10.7985461914562
30
0
41
1
10
105.011096390261
20
10.2957391052535
30
0
41
1
10
105.085756462856
20
10.0112521484753
30
0
41
1
10
105.235076608046
20
9.38088062430577
30
0
41
1
10
105.309736680641
20
9.03500958814408
30
0
41
1
10
105.459056825831
20
8.29020532897312
30
0
41
1
10
105.533716898426
20
7.89130098599588
30
0
41
1
10
105.683037043616
20
7.05169261415011
30
0
41
1
10
105.757697116211
20
6.61102762883414
30
0
41
1
10
105.832357188806
20
6.1560364764814
30
0
0
SPLINE
5
FA
100
AcDbEntity
8
1
62
256
6
ByLayer
370
13
48
1
60
0
100
AcDbSpline
70
4
71
3
72
87
73
83
40
0
40
0
40
0
40
0
40
0.0312499999999996
40
0.0312499999999996
40
0.0624999999999991
40
0.0624999999999991
40
0.0937499999999987
40
0.0937499999999987
40
0.124999999999998
40
0.124999999999998
40
0.132812499999998
40
0.132812499999998
40
0.136718749999998
40
0.136718749999998
40
0.140624999999998
40
0.140624999999998
40
0.156249999999998
40
0.156249999999998
40
0.187499999999997
40
0.187499999999997
40
0.218749999999997
40
0.218749999999997
40
0.249999999999997
40
0.249999999999997
40
0.281249999999997
40
0.281249999999997
40
0.312499999999996
40
0.312499999999996
40
0.343749999999996
40
0.343749999999996
40
0.374999999999996
40
0.374999999999996
40
0.406249999999996
40
0.406249999999996
40
0.421874999999996
40
0.421874999999996
40
0.425781249999995
40
0.425781249999995
40
0.429687499999995
40
0.437499999999995
40
0.437499999999995
40
0.468749999999995
40
0.468749999999995
40
0.499999999999995
40
0.499999999999995
40
0.531249999999995
40
0.531249999999995
40
0.562499999999995
40
0.562499999999995
40
0.593749999999995
40
0.593749999999995
40
0.624999999999995
40
0.624999999999995
40
0.656249999999995
40
0.656249999999995
40
0.687499999999995
40
0.687499999999995
40
0.703124999999995
40
0.703124999999995
40
0.710937499999995
40
0.710937499999995
40
0.714843749999995
40
0.714843749999995
40
0.718749999999996
40
0.718749999999996
40
0.749999999999996
40
0.749999999999996
40
0.781249999999997
40
0.781249999999997
40
0.812499999999997
40
0.812499999999997
40
0.843749999999997
40
0.843749999999997
40
0.874999999999998
40
0.874999999999998
40
0.906249999999998
40
0.906249999999998
40
0.937499999999999
40
0.937499999999999
40
0.96875
40
0.96875
40
1
40
1
40
1
40
1
41
1
10
94.8
20
8.06802591062458
30
0
41
1
10
94.8997221778417
20
7.53619349450429
30
0
41
1
10
94.9994443556834
20
6.96188763399243
30
0
41
1
10
95.1988887113668
20
5.75830819609095
30
0
41
1
10
95.2986108892086
20
5.12921116916417
30
0
41
1
10
95.4980552448921
20
3.84900937403853
30
0
41
1
10
95.5977774227339
20
3.19805434775051
30
0
41
1
10
95.7972217784174
20
1.90468053025756
30
0
41
1
10
95.8969439562591
20
1.26234925791061
30
0
41
1
10
96.0215966785612
20
0.480057729279878
30
0
41
1
10
96.0465272230216
20
0.324612915054587
30
0
41
1
10
96.0839230397123
20
0.093195966139632
30
0
41
1
10
96.0963883119425
20
0.0165421726519526
30
0
41
1
10
96.121318856403
20
-0.137172444636292
30
0
41
1
10
96.1337841286332
20
-0.214329800390146
30
0
41
1
10
96.1961104897842
20
-0.601525590195365
30
0
41
1
10
96.2459715787051
20
-0.9158097580613
30
0
41
1
10
96.3955548454677
20
-1.86829006650214
30
0
41
1
10
96.4952770233095
20
-2.51631488312867
30
0
41
1
10
96.694721378993
20
-3.8120059249604
30
0
41
1
10
96.7944435568346
20
-4.45956307303996
30
0
41
1
10
96.9938879125181
20
-5.72263588416931
30
0
41
1
10
97.0936100903598
20
-6.33798814577415
30
0
41
1
10
97.2930544460433
20
-7.50397485726219
30
0
41
1
10
97.392776623885
20
-8.05443559109054
30
0
41
1
10
97.5922209795685
20
-9.06222137092894
30
0
41
1
10
97.6919431574102
20
-9.51941938242845
30
0
41
1
10
97.8913875130937
20
-10.321250222195
30
0
41
1
10
97.9911096909354
20
-10.6658429614075
30
0
41
1
10
98.1905540466189
20
-11.2346544941371
30
0
41
1
10
98.2902762244606
20
-11.4589228734714
30
0
41
1
10
98.4897205801441
20
-11.7907273322142
30
0
41
1
10
98.5894427579858
20
-11.8983714148087
30
0
41
1
10
98.7390260247484
20
-11.9817266882405
30
0
41
1
10
98.7888871136692
20
-11.9965519431486
30
0
41
1
10
98.8512134748204
20
-12.0001916558204
30
0
41
1
10
98.8636787470506
20
-12.0001800977712
30
0
41
1
10
98.8886092915111
20
-11.9986771558726
30
0
41
1
10
98.9260051082017
20
-11.9941903356982
30
0
41
1
10
98.9634009248923
20
-11.9828505341377
30
0
41
1
10
99.0880536471944
20
-11.9291677418448
30
0
41
1
10
99.1877758250363
20
-11.8351433114842
30
0
41
1
10
99.3872201807197
20
-11.5317204781921
30
0
41
1
10
99.4869423585615
20
-11.3222099075441
30
0
41
1
10
99.6863867142449
20
-10.7827955814228
30
0
41
1
10
99.7861088920867
20
-10.4528328789543
30
0
41
1
10
99.9855532477701
20
-9.67867459262308
30
0
41
1
10
100.085275425612
20
-9.23450738860879
30
0
41
1
10
100.284719781295
20
-8.24984826701726
30
0
41
1
10
100.384441959137
20
-7.70947421416707
30
0
41
1
10
100.583886314821
20
-6.55983283073815
30
0
41
1
10
100.683608492662
20
-5.95073650297985
30
0
41
1
10
100.883052848346
20
-4.69609956224255
30
0
41
1
10
100.982775026187
20
-4.05072649962821
30
0
41
1
10
101.182219381871
20
-2.75570101581079
30
0
41
1
10
101.281941559713
20
-2.10616576337679
30
0
41
1
10
101.431524826475
20
-1.14924114627007
30
0
41
1
10
101.481385915396
20
-0.83311490012008
30
0
41
1
10
101.556177548777
20
-0.365263323661083
30
0
41
1
10
101.581108093238
20
-0.210365426738662
30
0
41
1
10
101.618503909928
20
0.0201780291171474
30
0
41
1
10
101.630969182159
20
0.0968459067986203
30
0
41
1
10
101.655899726619
20
0.25114229271253
30
0
41
1
10
101.668364998849
20
0.32858167309675
30
0
41
1
10
101.780552448921
20
1.02798837828465
30
0
41
1
10
101.880274626763
20
1.66742536358618
30
0
41
1
10
102.079718982447
20
2.95838332234183
30
0
41
1
10
102.179441160288
20
3.60982534060278
30
0
41
1
10
102.378885515972
20
4.89496842590714
30
0
41
1
10
102.478607693813
20
5.52852610842697
30
0
41
1
10
102.678052049497
20
6.74504567687382
30
0
41
1
10
102.777774227339
20
7.32783149329802
30
0
41
1
10
102.977218583022
20
8.41186791227747
30
0
41
1
10
103.076940760864
20
8.91296437136111
30
0
41
1
10
103.276385116547
20
9.80977408160132
30
0
41
1
10
103.376107294389
20
10.2054063504259
30
0
41
1
10
103.575551650072
20
10.8782369915724
30
0
41
1
10
103.675273827914
20
11.1554478490894
30
0
41
1
10
103.874718183598
20
11.5902501415882
30
0
41
1
10
103.974440361439
20
11.7479291804098
30
0
41
1
10
104.173884717123
20
11.9527433333938
30
0
41
1
10
104.273606894965
20
12
30
0
41
1
10
104.373329072806
20
12
30
0
0
SPLINE
5
FB
100
AcDbEntity
8
1
62
256
6
ByLayer
370
13
48
1
60
0
100
AcDbSpline
70
4
71
3
72
22
73
18
40
0
40
0
40
0
40
0
40
0.125
40
0.125
40
0.25
40
0.25
40
0.375
40
0.375
40
0.5
40
0.5
40
0.625
40
0.625
40
0.75
40
0.75
40
0.875
40
0.875
40
1
40
1
40
1
40
1
41
1
10
103.55417255732
20
12
30
0
41
1
10
103.649096916965
20
12
30
0
41
1
10
103.74402127661
20
11.9572001720444
30
0
41
1
10
103.933869995901
20
11.7722729266998
30
0
41
1
10
104.028794355546
20
11.6300499591393
30
0
41
1
10
104.218643074837
20
11.2378699151204
30
0
41
1
10
104.313567434482
20
10.9878401476672
30
0
41
1
10
104.503416153772
20
10.3797827998504
30
0
41
1
10
104.598340513418
20
10.0217353950851
30
0
41
1
10
104.788189232708
20
9.20702030694432
30
0
41
1
10
104.883113592353
20
8.75040215386534
30
0
41
1
10
105.072962311644
20
7.75716135299572
30
0
41
1
10
105.167886671289
20
7.2206486150564
30
0
41
1
10
105.357735390579
20
6.09301928427135
30
0
41
1
10
105.452659750225
20
5.50204028806496
30
0
41
1
10
105.642508469515
20
4.29380798274147
30
0
41
1
10
105.73743282916
20
3.67667943325361
30
0
41
1
10
105.832357188806
20
3.05999811894159
30
0
0
SPLINE
5
FC
100
AcDbEntity
8
1
62
256
6
ByLayer
370
13
48
1
60
0
100
AcDbSpline
70
4
71
3
72
85
73
81
40
0
40
0
40
0
40
0
40
0.0312499999999994
40
0.0312499999999994
40
0.0624999999999989
40
0.0624999999999989
40
0.0781249999999986
40
0.0781249999999986
40
0.0859374999999985
40
0.0859374999999985
40
0.0937499999999983
40
0.0937499999999983
40
0.124999999999998
40
0.124999999999998
40
0.156249999999997
40
0.156249999999997
40
0.187499999999997
40
0.187499999999997
40
0.218749999999996
40
0.218749999999996
40
0.249999999999996
40
0.249999999999996
40
0.281249999999995
40
0.281249999999995
40
0.312499999999995
40
0.312499999999995
40
0.343749999999994
40
0.343749999999994
40
0.374999999999993
40
0.374999999999993
40
0.390624999999993
40
0.390624999999993
40
0.394531249999993
40
0.394531249999993
40
0.398437499999993
40
0.406249999999993
40
0.406249999999993
40
0.437499999999992
40
0.437499999999992
40
0.468749999999992
40
0.468749999999992
40
0.499999999999991
40
0.499999999999991
40
0.53124999999999
40
0.53124999999999
40
0.56249999999999
40
0.56249999999999
40
0.593749999999989
40
0.593749999999989
40
0.624999999999989
40
0.624999999999989
40
0.656249999999988
40
0.656249999999988
40
0.687499999999988
40
0.687499999999988
40
0.695312499999987
40
0.695312499999987
40
0.699218749999987
40
0.699218749999987
40
0.703124999999987
40
0.703124999999987
40
0.718749999999988
40
0.718749999999988
40
0.749999999999989
40
0.749999999999989
40
0.781249999999991
40
0.781249999999991
40
0.812499999999992
40
0.812499999999992
40
0.843749999999993
40
0.843749999999993
40
0.874999999999995
40
0.874999999999995
40
0.906249999999996
40
0.906249999999996
40
0.937499999999997
40
0.937499999999997
40
0.968749999999999
40
0.968749999999999
40
1
40
1
40
1
40
1
41
1
10
94.8
20
5.20247540048061
30
0
41
1
10
94.8946561060792
20
4.60487966889522
30
0
41
1
10
94.9893122121583
20
3.99196085772559
30
0
41
1
10
95.1786244243167
20
2.76261509482006
30
0
41
1
10
95.2732805303958
20
2.14627781992323
30
0
41
1
10
95.4152646895146
20
1.23678366812723
30
0
41
1
10
95.4625927425542
20
0.936082339301976
30
0
41
1
10
95.5335848221135
20
0.490521532200148
30
0
41
1
10
95.5572488486334
20
0.342913502947255
30
0
41
1
10
95.604576901673
20
0.0497850240381865
30
0
41
1
10
95.6282409281929
20
-0.0953193090215905
30
0
41
1
10
95.7465610607917
20
-0.829217898128377
30
0
41
1
10
95.8412171668709
20
-1.43306585714046
30
0
41
1
10
96.0305293790293
20
-2.65491982744368
30
0
41
1
10
96.1251854851084
20
-3.27287247526269
30
0
41
1
10
96.3144976972667
20
-4.49817963309738
30
0
41
1
10
96.4091538033458
20
-5.10543185089517
30
0
41
1
10
96.5984660155043
20
-6.28148369595201
30
0
41
1
10
96.6931221215835
20
-6.85015009132752
30
0
41
1
10
96.8824343337417
20
-7.92170126259984
30
0
41
1
10
96.977090439821
20
-8.42445746990663
30
0
41
1
10
97.1664026519794
20
-9.34146156322799
30
0
41
1
10
97.2610587580585
20
-9.75562434362649
30
0
41
1
10
97.4503709702168
20
-10.480665796582
30
0
41
1
10
97.545027076296
20
-10.7915259450231
30
0
41
1
10
97.7343392884543
20
-11.3047585012455
30
0
41
1
10
97.8289953945335
20
-11.5071761540158
30
0
41
1
10
98.0183076066919
20
-11.807455813847
30
0
41
1
10
98.1129637127711
20
-11.9054030133282
30
0
41
1
10
98.2549478718898
20
-11.9821613331391
30
0
41
1
10
98.3022759249295
20
-11.996100207696
30
0
41
1
10
98.3614359912289
20
-12.0000844368568
30
0
41
1
10
98.3732680044888
20
-12.000212738842
30
0
41
1
10
98.3969320310086
20
-11.9991408332027
30
0
41
1
10
98.4324280707883
20
-11.9955275009703
30
0
41
1
10
98.467924110568
20
-11.9857641438927
30
0
41
1
10
98.586244243167
20
-11.9389889954882
30
0
41
1
10
98.6809003492461
20
-11.8558337101016
30
0
41
1
10
98.8702125614044
20
-11.5864034344323
30
0
41
1
10
98.9648686674836
20
-11.4000399318096
30
0
41
1
10
99.1541808796419
20
-10.918973813727
30
0
41
1
10
99.2488369857212
20
-10.6242181353166
30
0
41
1
10
99.4381491978795
20
-9.93000915709322
30
0
41
1
10
99.5328053039587
20
-9.53056404240905
30
0
41
1
10
99.722117516117
20
-8.64023941295798
30
0
41
1
10
99.8167736221962
20
-8.14943594228222
30
0
41
1
10
100.006085834354
20
-7.09801680184691
30
0
41
1
10
100.100741940434
20
-6.53752549311977
30
0
41
1
10
100.290054152592
20
-5.37360600346901
30
0
41
1
10
100.384710258671
20
-4.77031290968702
30
0
41
1
10
100.57402247083
20
-3.54887206419383
30
0
41
1
10
100.668678576909
20
-2.93083288448602
30
0
41
1
10
100.857990789067
20
-1.70539947229764
30
0
41
1
10
100.952646895146
20
-1.09806622158757
30
0
41
1
10
101.070967027745
20
-0.35824732855383
30
0
41
1
10
101.094631054265
20
-0.211236367430104
30
0
41
1
10
101.130127094045
20
0.0076590293077743
30
0
41
1
10
101.141959107305
20
0.080394285550085
30
0
41
1
10
101.165623133824
20
0.226754310744582
30
0
41
1
10
101.177455147084
20
0.300198116394256
30
0
41
1
10
101.236615213384
20
0.668656558876592
30
0
41
1
10
101.283943266423
20
0.967404575247713
30
0
41
1
10
101.425927425542
20
1.87217176337239
30
0
41
1
10
101.520583531621
20
2.48687758023809
30
0
41
1
10
101.70989574378
20
3.71677007709079
30
0
41
1
10
101.804551849859
20
4.33187431861398
30
0
41
1
10
101.993864062017
20
5.53564596804733
30
0
41
1
10
102.088520168096
20
6.124189769136
30
0
41
1
10
102.277832380255
20
7.24679090328502
30
0
41
1
10
102.372488486334
20
7.7807126848615
30
0
41
1
10
102.561800698492
20
8.76890629354972
30
0
41
1
10
102.656456804571
20
9.22307040429132
30
0
41
1
10
102.84576901673
20
10.0332761228808
30
0
41
1
10
102.940425122809
20
10.3892696694826
30
0
41
1
10
103.129737334967
20
10.9937953305311
30
0
41
1
10
103.224393441046
20
11.2423475356145
30
0
41
1
10
103.413705653205
20
11.6322118108541
30
0
41
1
10
103.508361759284
20
11.773595774451
30
0
41
1
10
103.697673971442
20
11.9574427510837
30
0
41
1
10
103.792330077521
20
12
30
0
41
1
10
103.886986183601
20
12
30
0
0
SPLINE
5
FD
100
AcDbEntity
8
1
62
256
6
ByLayer
370
13
48
1
60
0
100
AcDbSpline
70
4
71
3
72
42
73
38
40
0
40
0
40
0
40
0
40
0.0624999999999999
40
0.0624999999999999
40
0.125
40
0.125
40
0.1875
40
0.1875
40
0.25
40
0.25
40
0.312499999999999
40
0.312499999999999
40
0.374999999999999
40
0.374999999999999
40
0.437499999999999
40
0.437499999999999
40
0.499999999999999
40
0.499999999999999
40
0.562499999999999
40
0.562499999999999
40
0.624999999999999
40
0.624999999999999
40
0.687499999999999
40
0.687499999999999
40
0.75
40
0.75
40
0.8125
40
0.8125
40
0.875
40
0.875
40
0.9375
40
0.9375
40
0.96875
40
0.96875
40
0.984375
40
0.984375
40
1
40
1
40
1
40
1
41
1
10
103.067829668114
20
12
30
0
41
1
10
103.125423991462
20
12
30
0
41
1
10
103.18301831481
20
11.9842831836448
30
0
41
1
10
103.298206961505
20
11.9181733027335
30
0
41
1
10
103.355801284853
20
11.8677722558161
30
0
41
1
10
103.470989931549
20
11.7296287025228
30
0
41
1
10
103.528584254896
20
11.6418784486651
30
0
41
1
10
103.643772901592
20
11.4272027064533
30
0
41
1
10
103.701367224939
20
11.3002706302281
30
0
41
1
10
103.816555871635
20
11.0064476690561
30
0
41
1
10
103.874150194983
20
10.8395523259967
30
0
41
1
10
103.989338841678
20
10.4662388997375
30
0
41
1
10
104.046933165026
20
10.2598193240688
30
0
41
1
10
104.162121811721
20
9.80920543812269
30
0
41
1
10
104.219716135069
20
9.56501311156504
30
0
41
1
10
104.334904781765
20
9.04190788635984
30
0
41
1
10
104.392499105112
20
8.76300048494772
30
0
41
1
10
104.507687751808
20
8.17471285226952
30
0
41
1
10
104.565282075155
20
7.86534114282827
30
0
41
1
10
104.680470721851
20
7.2213535211736
30
0
41
1
10
104.738065045199
20
6.88674820859717
30
0
41
1
10
104.853253691894
20
6.19821200135681
30
0
41
1
10
104.910848015242
20
5.84429255666825
30
0
41
1
10
105.026036661937
20
5.12340100163681
30
0
41
1
10
105.083630985285
20
4.75643991983074
30
0
41
1
10
105.19881963198
20
4.01575023261844
30
0
41
1
10
105.256413955328
20
3.64203114662399
30
0
41
1
10
105.371602602024
20
2.89381061814589
30
0
41
1
10
105.429196925371
20
2.51931644391425
30
0
41
1
10
105.544385572067
20
1.77497659153281
30
0
41
1
10
105.601979895415
20
1.40513559842856
30
0
41
1
10
105.688371380436
20
0.857382725445916
30
0
41
1
10
105.71716854211
20
0.675960376413514
30
0
41
1
10
105.760364284621
20
0.405951300422004
30
0
41
1
10
105.774762865458
20
0.316301935330159
30
0
41
1
10
105.803560027132
20
0.137769096468219
30
0
41
1
10
105.817958607969
20
0.0490737403117407
30
0
41
1
10
105.832357188806
20
-0.0396414757686898
30
0
0
SPLINE
5
FE
100
AcDbEntity
8
1
62
256
6
ByLayer
370
13
48
1
60
0
100
AcDbSpline
70
4
71
3
72
85
73
81
40
0
40
0
40
0
40
0
40
0.0312499999999996
40
0.0312499999999996
40
0.0351562499999997
40
0.0351562499999997
40
0.0390624999999998
40
0.0390624999999998
40
0.0468749999999998
40
0.0468749999999998
40
0.0624999999999997
40
0.0624999999999997
40
0.0937499999999998
40
0.0937499999999998
40
0.125
40
0.125
40
0.15625
40
0.15625
40
0.1875
40
0.1875
40
0.21875
40
0.21875
40
0.25
40
0.25
40
0.28125
40
0.28125
40
0.3125
40
0.3125
40
0.34375
40
0.34375
40
0.3515625
40
0.355468750000001
40
0.355468750000001
40
0.359375000000001
40
0.359375000000001
40
0.375000000000001
40
0.375000000000001
40
0.406250000000001
40
0.406250000000001
40
0.437500000000001
40
0.437500000000001
40
0.468750000000001
40
0.468750000000001
40
0.500000000000001
40
0.500000000000001
40
0.531250000000001
40
0.531250000000001
40
0.562500000000001
40
0.562500000000001
40
0.593750000000001
40
0.593750000000001
40
0.625000000000001
40
0.625000000000001
40
0.656250000000001
40
0.656250000000001
40
0.671875000000001
40
0.671875000000001
40
0.679687500000001
40
0.679687500000001
40
0.687500000000001
40
0.687500000000001
40
0.718750000000001
40
0.718750000000001
40
0.750000000000001
40
0.750000000000001
40
0.781250000000001
40
0.781250000000001
40
0.812500000000001
40
0.812500000000001
40
0.84375
40
0.84375
40
0.875
40
0.875
40
0.90625
40
0.90625
40
0.9375
40
0.9375
40
0.96875
40
0.96875
40
1
40
1
40
1
40
1
41
1
10
94.8
20
2.0647806250841
30
0
41
1
10
94.8895900343166
20
1.48640564441115
30
0
41
1
10
94.9791800686332
20
0.91423511120766
30
0
41
1
10
95.0799688572394
20
0.286838372260633
30
0
41
1
10
95.0911676115289
20
0.217350819795172
30
0
41
1
10
95.1135651201081
20
0.078849019824645
30
0
41
1
10
95.1247638743976
20
0.0099952632150462
30
0
41
1
10
95.1583601372665
20
-0.19714082595695
30
0
41
1
10
95.1807576458455
20
-0.336201126397668
30
0
41
1
10
95.2479501715831
20
-0.755966757804117
30
0
41
1
10
95.2927451887415
20
-1.03926644486447
30
0
41
1
10
95.4271302402163
20
-1.89658950624326
30
0
41
1
10
95.516720274533
20
-2.47816793762678
30
0
41
1
10
95.6959003431661
20
-3.64222121637189
30
0
41
1
10
95.7854903774828
20
-4.22463426158879
30
0
41
1
10
95.964670446116
20
-5.36766440855021
30
0
41
1
10
96.0542604804326
20
-5.92818928951573
30
0
41
1
10
96.2334405490658
20
-7.00361902236233
30
0
41
1
10
96.3230305833824
20
-7.51842027749947
30
0
41
1
10
96.5022106520156
20
-8.48046992732148
30
0
41
1
10
96.5918006863323
20
-8.92763031096061
30
0
41
1
10
96.7709807549655
20
-9.73733810701523
30
0
41
1
10
96.8605707892821
20
-10.0998368810894
30
0
41
1
10
97.0397508579153
20
-10.7301668934238
30
0
41
1
10
97.129340892232
20
-10.9979989585384
30
0
41
1
10
97.3085209608651
20
-11.4366864760462
30
0
41
1
10
97.3981109951818
20
-11.6075853925352
30
0
41
1
10
97.577291063815
20
-11.8571375750264
30
0
41
1
10
97.6668810981316
20
-11.9358586030834
30
0
41
1
10
97.7788686410274
20
-11.9828720647988
30
0
41
1
10
97.8124649038961
20
-11.9931368697975
30
0
41
1
10
97.8460611667648
20
-11.9978563127088
30
0
41
1
10
97.868458675344
20
-11.9997952621176
30
0
41
1
10
97.8796574296336
20
-12.000161751863
30
0
41
1
10
97.9356512010815
20
-11.9990303463259
30
0
41
1
10
97.9804462182398
20
-11.9885838371784
30
0
41
1
10
98.1148312697147
20
-11.9263057449802
30
0
41
1
10
98.2044213040313
20
-11.8433942706762
30
0
41
1
10
98.3836013726645
20
-11.5850984812086
30
0
41
1
10
98.4731914069812
20
-11.4096470778141
30
0
41
1
10
98.6523714756144
20
-10.9617911139571
30
0
41
1
10
98.741961509931
20
-10.6893447577423
30
0
41
1
10
98.9211415785643
20
-10.0500842334776
30
0
41
1
10
99.0107316128809
20
-9.68327156100443
30
0
41
1
10
99.189911681514
20
-8.86559622412784
30
0
41
1
10
99.2795017158307
20
-8.41478443505048
30
0
41
1
10
99.4586817844639
20
-7.44638354178551
30
0
41
1
10
99.5482718187804
20
-6.92888380157893
30
0
41
1
10
99.7274518874137
20
-5.84917234144424
30
0
41
1
10
99.8170419217305
20
-5.28706426257796
30
0
41
1
10
99.9962219903636
20
-4.14199692672076
30
0
41
1
10
100.08581202468
20
-3.55912877877873
30
0
41
1
10
100.264992093313
20
-2.39517588063862
30
0
41
1
10
100.35458212763
20
-1.81415123372267
30
0
41
1
10
100.488967179105
20
-0.958261822430785
30
0
41
1
10
100.533762196263
20
-0.675540000221929
30
0
41
1
10
100.600954722001
20
-0.256769081874722
30
0
41
1
10
100.62335223058
20
-0.118235389592456
30
0
41
1
10
100.668147247738
20
0.157575605747752
30
0
41
1
10
100.690544756317
20
0.296460435833978
30
0
41
1
10
100.802532299213
20
0.995245960660725
30
0
41
1
10
100.89212233353
20
1.56841967484175
30
0
41
1
10
101.071302402163
20
2.72626952917341
30
0
41
1
10
101.16089243648
20
3.31090296243337
30
0
41
1
10
101.340072505113
20
4.47057172679749
30
0
41
1
10
101.42966253943
20
5.04552919981381
30
0
41
1
10
101.608842608063
20
6.16226710493271
30
0
41
1
10
101.698432642379
20
6.70394682598271
30
0
41
1
10
101.877612711013
20
7.73081181036207
30
0
41
1
10
101.967202745329
20
8.21589743945694
30
0
41
1
10
102.146382813962
20
9.10962465335859
30
0
41
1
10
102.235972848279
20
9.51819466532413
30
0
41
1
10
102.415152916912
20
10.2449786316601
30
0
41
1
10
102.504742951229
20
10.5631673192635
30
0
41
1
10
102.683923019862
20
11.1028239488338
30
0
41
1
10
102.773513054179
20
11.3243147853284
30
0
41
1
10
102.952693122812
20
11.6717844837346
30
0
41
1
10
103.042283157128
20
11.7978210185726
30
0
41
1
10
103.221463225762
20
11.9618928046226
30
0
41
1
10
103.311053260078
20
12
30
0
41
1
10
103.400643294395
20
12
30
0
0
SPLINE
5
FF
100
AcDbEntity
8
1
62
256
6
ByLayer
370
13
48
1
60
0
100
AcDbSpline
70
4
71
3
72
43
73
39
40
0
40
0
40
0
40
0
40
0.0624999999999994
40
0.0624999999999994
40
0.124999999999999
40
0.124999999999999
40
0.187499999999998
40
0.187499999999998
40
0.249999999999997
40
0.249999999999997
40
0.312499999999997
40
0.312499999999997
40
0.374999999999996
40
0.374999999999996
40
0.437499999999996
40
0.437499999999996
40
0.499999999999995
40
0.499999999999995
40
0.562499999999994
40
0.562499999999994
40
0.624999999999994
40
0.624999999999994
40
0.687499999999993
40
0.687499999999993
40
0.749999999999992
40
0.749999999999992
40
0.812499999999992
40
0.812499999999992
40
0.843749999999991
40
0.843749999999991
40
0.851562499999991
40
0.851562499999991
40
0.859374999999991
40
0.874999999999992
40
0.874999999999992
40
0.937499999999996
40
0.937499999999996
40
1
40
1
40
1
40
1
41
1
10
102.581486778909
20
12
30
0
41
1
10
102.649213245782
20
12
30
0
41
1
10
102.716939712654
20
11.978255618791
30
0
41
1
10
102.8523926464
20
11.886078398901
30
0
41
1
10
102.920119113273
20
11.8156276011691
30
0
41
1
10
103.055572047019
20
11.6220171040493
30
0
41
1
10
103.123298513892
20
11.4988406917285
30
0
41
1
10
103.258751447637
20
11.1975016397165
30
0
41
1
10
103.32647791451
20
11.0193264900855
30
0
41
1
10
103.461930848256
20
10.6079058804291
30
0
41
1
10
103.529657315129
20
10.3746549545367
30
0
41
1
10
103.665110248874
20
9.85547215557457
30
0
41
1
10
103.732836715747
20
9.56954377863298
30
0
41
1
10
103.868289649493
20
8.94990460149731
30
0
41
1
10
103.936016116366
20
8.61620655762289
30
0
41
1
10
104.071469050111
20
7.90819128543251
30
0
41
1
10
104.139195516984
20
7.53389447716597
30
0
41
1
10
104.27464845073
20
6.7536039697257
30
0
41
1
10
104.342374917603
20
6.34763518100399
30
0
41
1
10
104.477827851349
20
5.51398855068447
30
0
41
1
10
104.545554318221
20
5.08633618364431
30
0
41
1
10
104.681007251967
20
4.21960447396532
30
0
41
1
10
104.74873371884
20
3.78054750425744
30
0
41
1
10
104.884186652586
20
2.90085160984341
30
0
41
1
10
104.951913119458
20
2.46022937410808
30
0
41
1
10
105.087366053204
20
1.58621620372085
30
0
41
1
10
105.155092520077
20
1.15283515490597
30
0
41
1
10
105.256682220386
20
0.513721983173525
30
0
41
1
10
105.290545453823
20
0.302498582096859
30
0
41
1
10
105.332874495618
20
0.0412182321265391
30
0
41
1
10
105.341340303977
20
-0.0108110576746014
30
0
41
1
10
105.358271920696
20
-0.1152161040892
30
0
41
1
10
105.383669345773
20
-0.272238413569568
30
0
41
1
10
105.40906677085
20
-0.430454606784082
30
0
41
1
10
105.493724854441
20
-0.960256159717034
30
0
41
1
10
105.561451321314
20
-1.39188511650085
30
0
41
1
10
105.69690425506
20
-2.26359194396645
30
0
41
1
10
105.764630721933
20
-2.70366095191847
30
0
41
1
10
105.832357188806
20
-3.14365141373727
30
0
0
SPLINE
5
100
100
AcDbEntity
8
1
62
256
6
ByLayer
370
13
48
1
60
0
100
AcDbSpline
70
4
71
3
72
78
73
74
40
0
40
0
40
0
40
0
40
0.03125
40
0.03125
40
0.0625000000000001
40
0.0625000000000001
40
0.0937500000000001
40
0.0937500000000001
40
0.125
40
0.125
40
0.15625
40
0.15625
40
0.1875
40
0.1875
40
0.21875
40
0.21875
40
0.25
40
0.25
40
0.28125
40
0.28125
40
0.3125
40
0.3125
40
0.3203125
40
0.3203125
40
0.328125
40
0.328125
40
0.34375
40
0.34375
40
0.375
40
0.375
40
0.40625
40
0.40625
40
0.4375
40
0.4375
40
0.468750000000001
40
0.468750000000001
40
0.5
40
0.5
40
0.53125
40
0.53125
40
0.5625
40
0.5625
40
0.59375
40
0.59375
40
0.625
40
0.625
40
0.65625
40
0.65625
40
0.6640625
40
0.6640625
40
0.671875
40
0.671875
40
0.6875
40
0.6875
40
0.71875
40
0.71875
40
0.75
40
0.75
40
0.78125
40
0.78125
40
0.8125
40
0.8125
40
0.84375
40
0.84375
40
0.875
40
0.875
40
0.90625
40
0.90625
40
0.9375
40
0.9375
40
0.96875
40
0.96875
40
1
40
1
40
1
40
1
41
1
10
94.8
20
-0.999551975325943
30
0
41
1
10
94.8845239625541
20
-1.53495726636899
30
0
41
1
10
94.969047925108
20
-2.08067535309348
30
0
41
1
10
95.1380958502162
20
-3.17744609566475
30
0
41
1
10
95.2226198127703
20
-3.72845922166411
30
0
41
1
10
95.3916677378784
20
-4.8174089612418
30
0
41
1
10
95.4761917004325
20
-5.3552824074639
30
0
41
1
10
95.6452396255406
20
-6.39800520092444
30
0
41
1
10
95.7297635880946
20
-6.90277791019656
30
0
41
1
10
95.8988115132027
20
-7.85996003811567
30
0
41
1
10
95.9833354757568
20
-8.31229619827775
30
0
41
1
10
96.1523834008649
20
-9.14819259924539
30
0
41
1
10
96.2369073634189
20
-9.53170078112129
30
0
41
1
10
96.405955288527
20
-10.2184014097186
30
0
41
1
10
96.4904792510811
20
-10.5215747381595
30
0
41
1
10
96.6595271761891
20
-11.0420430837106
30
0
41
1
10
96.7440511387433
20
-11.2593532139747
30
0
41
1
10
96.9130990638514
20
-11.6085643812744
30
0
41
1
10
96.9976230264054
20
-11.7405062830359
30
0
41
1
10
97.1666709515135
20
-11.9246020440102
30
0
41
1
10
97.2511949140675
20
-11.9768090018322
30
0
41
1
10
97.3568498672601
20
-11.9980183307553
30
0
41
1
10
97.3779808578987
20
-12.000064477665
30
0
41
1
10
97.4202428391757
20
-11.9999324292674
30
0
41
1
10
97.4413738298141
20
-11.9977516486125
30
0
41
1
10
97.5047668017297
20
-11.9846143631386
30
0
41
1
10
97.5470287830068
20
-11.9670579531011
30
0
41
1
10
97.6738147268379
20
-11.8861420179317
30
0
41
1
10
97.7583386893919
20
-11.7944155195425
30
0
41
1
10
97.9273866145
20
-11.5278558495346
30
0
41
1
10
98.0119105770541
20
-11.3529740189736
30
0
41
1
10
98.1809585021622
20
-10.9169039270783
30
0
41
1
10
98.2654824647162
20
-10.6556863667946
30
0
41
1
10
98.4345303898244
20
-10.0494190436796
30
0
41
1
10
98.5190543523784
20
-9.70437102851213
30
0
41
1
10
98.6881022774865
20
-8.93904450118649
30
0
41
1
10
98.7726262400407
20
-8.51880269965906
30
0
41
1
10
98.9416741651487
20
-7.61724617973428
30
0
41
1
10
99.0261981277028
20
-7.1359962874705
30
0
41
1
10
99.1952460528109
20
-6.13057695247048
30
0
41
1
10
99.279770015365
20
-5.60648481902379
30
0
41
1
10
99.4488179404732
20
-4.53533154661397
30
0
41
1
10
99.5333419030272
20
-3.98834198437316
30
0
41
1
10
99.7023898281353
20
-2.89083870869413
30
0
41
1
10
99.7869137906893
20
-2.34037688929544
30
0
41
1
10
99.9559617157974
20
-1.25296862102499
30
0
41
1
10
100.040485678351
20
-0.716048554325795
30
0
41
1
10
100.146140631544
20
-0.0617489855227404
30
0
41
1
10
100.167271622182
20
0.0678547201410709
30
0
41
1
10
100.20953360346
20
0.32962649939094
30
0
41
1
10
100.230664594098
20
0.461343971465851
30
0
41
1
10
100.294057566014
20
0.858711394616222
30
0
41
1
10
100.336319547291
20
1.12658392998375
30
0
41
1
10
100.463105491122
20
1.93656886578768
30
0
41
1
10
100.547629453676
20
2.48515199930532
30
0
41
1
10
100.716677378784
20
3.58336132314807
30
0
41
1
10
100.801201341338
20
4.13294169193785
30
0
41
1
10
100.970249266446
20
5.21418435359891
30
0
41
1
10
101.054773229
20
5.7457788998816
30
0
41
1
10
101.223821154108
20
6.77103778816701
30
0
41
1
10
101.308345116662
20
7.26462460326883
30
0
41
1
10
101.47739304177
20
8.1950389138706
30
0
41
1
10
101.561917004324
20
8.63179683666269
30
0
41
1
10
101.730964929433
20
9.43318534024667
30
0
41
1
10
101.815488891987
20
9.79777124352276
30
0
41
1
10
101.984536817095
20
10.4446838528438
30
0
41
1
10
102.069060779649
20
10.7270001726995
30
0
41
1
10
102.238108704757
20
11.2053306342089
30
0
41
1
10
102.322632667311
20
11.401367306024
30
0
41
1
10
102.491680592419
20
11.7089867197459
30
0
41
1
10
102.576204554973
20
11.820614656578
30
0
41
1
10
102.745252480081
20
11.9660942970192
30
0
41
1
10
102.829776442635
20
12
30
0
41
1
10
102.914300405189
20
12
30
0
0
SPLINE
5
101
100
AcDbEntity
8
1
62
256
6
ByLayer
370
13
48
1
60
0
100
AcDbSpline
70
4
71
3
72
44
73
40
40
0
40
0
40
0
40
0
40
0.0624999999999989
40
0.0624999999999989
40
0.124999999999998
40
0.124999999999998
40
0.187499999999997
40
0.187499999999997
40
0.249999999999995
40
0.249999999999995
40
0.312499999999994
40
0.312499999999994
40
0.374999999999993
40
0.374999999999993
40
0.437499999999992
40
0.437499999999992
40
0.499999999999991
40
0.499999999999991
40
0.56249999999999
40
0.56249999999999
40
0.624999999999989
40
0.624999999999989
40
0.687499999999987
40
0.687499999999987
40
0.718749999999987
40
0.718749999999987
40
0.734374999999987
40
0.734374999999987
40
0.742187499999987
40
0.742187499999987
40
0.749999999999987
40
0.749999999999987
40
0.81249999999999
40
0.81249999999999
40
0.874999999999993
40
0.874999999999993
40
0.937499999999997
40
0.937499999999997
40
1
40
1
40
1
40
1
41
1
10
102.095143889703
20
12
30
0
41
1
10
102.173002500101
20
12
30
0
41
1
10
102.250861110499
20
11.9712447212525
30
0
41
1
10
102.406578331295
20
11.8484400464722
30
0
41
1
10
102.484436941693
20
11.754354696743
30
0
41
1
10
102.640154162489
20
11.4952968854857
30
0
41
1
10
102.718012772887
20
11.3302928439587
30
0
41
1
10
102.873729993683
20
10.9271036554259
30
0
41
1
10
102.951588604081
20
10.6888991844045
30
0
41
1
10
103.107305824877
20
10.1411084711338
30
0
41
1
10
103.185164435275
20
9.83152177612811
30
0
41
1
10
103.34088165607
20
9.14717896046517
30
0
41
1
10
103.418740266469
20
8.7724438868625
30
0
41
1
10
103.574457487264
20
7.96812591978099
30
0
41
1
10
103.652316097663
20
7.53858260651182
30
0
41
1
10
103.808033318458
20
6.63815247821327
30
0
41
1
10
103.885891928856
20
6.16731579152844
30
0
41
1
10
104.041609149652
20
5.19960545403592
30
0
41
1
10
104.11946776005
20
4.70278214994028
30
0
41
1
10
104.275184980846
20
3.69865950331044
30
0
41
1
10
104.353043591244
20
3.19140150832447
30
0
41
1
10
104.50876081204
20
2.18081609863739
30
0
41
1
10
104.586619422438
20
1.67751550156561
30
0
41
1
10
104.703407338035
20
0.934671886023892
30
0
41
1
10
104.742336643234
20
0.689055648680579
30
0
41
1
10
104.800730601032
20
0.324579462490789
30
0
41
1
10
104.820195253632
20
0.203744048680534
30
0
41
1
10
104.849392232531
20
0.0235821686082431
30
0
41
1
10
104.859124558831
20
-0.0362116049167014
30
0
41
1
10
104.87858921143
20
-0.156370497744831
30
0
41
1
10
104.88832153773
20
-0.216631131490942
30
0
41
1
10
104.975912474428
20
-0.76052918283483
30
0
41
1
10
105.053771084826
20
-1.25514848350909
30
0
41
1
10
105.209488305622
20
-2.25618371153001
30
0
41
1
10
105.28734691602
20
-2.76258258122951
30
0
41
1
10
105.443064136816
20
-3.77406012927292
30
0
41
1
10
105.520922747214
20
-4.27910604785504
30
0
41
1
10
105.67663996801
20
-5.27290719565127
30
0
41
1
10
105.754498578408
20
-5.76161673133268
30
0
41
1
10
105.832357188806
20
-6.23436486714087
30
0
0
SPLINE
5
102
100
AcDbEntity
8
1
62
256
6
ByLayer
370
13
48
1
60
0
100
AcDbSpline
70
4
71
3
72
79
73
75
40
0
40
0
40
0
40
0
40
0.0312500000000009
40
0.0312500000000009
40
0.0625000000000017
40
0.0625000000000017
40
0.0937500000000026
40
0.0937500000000026
40
0.125000000000003
40
0.125000000000003
40
0.156250000000004
40
0.156250000000004
40
0.187500000000005
40
0.187500000000005
40
0.218750000000006
40
0.218750000000006
40
0.250000000000007
40
0.250000000000007
40
0.265625000000008
40
0.265625000000008
40
0.273437500000008
40
0.273437500000008
40
0.281250000000008
40
0.281250000000008
40
0.312500000000008
40
0.312500000000008
40
0.343750000000008
40
0.343750000000008
40
0.375000000000008
40
0.375000000000008
40
0.406250000000008
40
0.406250000000008
40
0.437500000000008
40
0.437500000000008
40
0.468750000000008
40
0.468750000000008
40
0.500000000000008
40
0.500000000000008
40
0.531250000000009
40
0.531250000000009
40
0.562500000000009
40
0.562500000000009
40
0.593750000000009
40
0.593750000000009
40
0.625000000000009
40
0.625000000000009
40
0.632812500000009
40
0.636718750000009
40
0.636718750000009
40
0.640625000000009
40
0.640625000000009
40
0.656250000000009
40
0.656250000000009
40
0.687500000000008
40
0.687500000000008
40
0.718750000000007
40
0.718750000000007
40
0.750000000000006
40
0.750000000000006
40
0.781250000000006
40
0.781250000000006
40
0.812500000000005
40
0.812500000000005
40
0.843750000000004
40
0.843750000000004
40
0.875000000000003
40
0.875000000000003
40
0.906250000000002
40
0.906250000000002
40
0.937500000000002
40
0.937500000000002
40
0.968750000000001
40
0.968750000000001
40
1
40
1
40
1
40
1
41
1
10
94.7999999999999
20
-4.13881326646205
30
0
41
1
10
94.8794578907915
20
-4.65161581282894
30
0
41
1
10
94.9589157815829
20
-5.15928819131713
30
0
41
1
10
95.117831563166
20
-6.14795816832734
30
0
41
1
10
95.1972894539575
20
-6.62890016540871
30
0
41
1
10
95.3562052355404
20
-7.54782614760285
30
0
41
1
10
95.4356631263319
20
-7.98575466338681
30
0
41
1
10
95.5945789079148
20
-8.8043022539795
30
0
41
1
10
95.6740367987064
20
-9.18487787859809
30
0
41
1
10
95.8329525802894
20
-9.87782933352133
30
0
41
1
10
95.9124104710809
20
-10.190182827483
30
0
41
1
10
96.071326252664
20
-10.7402782770269
30
0
41
1
10
96.1507841434554
20
-10.9780221565011
30
0
41
1
10
96.3096999250385
20
-11.3772771704536
30
0
41
1
10
96.3891578158299
20
-11.5388111119184
30
0
41
1
10
96.5480735974129
20
-11.7884259383606
30
0
41
1
10
96.6275314882044
20
-11.8765426607046
30
0
41
1
10
96.7467183243917
20
-11.9583287339878
30
0
41
1
10
96.7864472697874
20
-11.9772162469417
30
0
41
1
10
96.8460406878811
20
-11.9937416656174
30
0
41
1
10
96.8659051605789
20
-11.9972835064996
30
0
41
1
10
96.9056341059746
20
-12.0005704698202
30
0
41
1
10
96.9254985786725
20
-12.0003352805102
30
0
41
1
10
97.0248209421619
20
-11.9896995860581
30
0
41
1
10
97.1042788329534
20
-11.9505994110387
30
0
41
1
10
97.2631946145364
20
-11.8032396074105
30
0
41
1
10
97.3426525053279
20
-11.6949404190536
30
0
41
1
10
97.5015682869109
20
-11.4037723458113
30
0
41
1
10
97.5810261777025
20
-11.2208703695953
30
0
41
1
10
97.7399419592853
20
-10.7788517302077
30
0
41
1
10
97.8193998500768
20
-10.5197174857357
30
0
41
1
10
97.9783156316597
20
-9.92814936462258
30
0
41
1
10
98.0577735224515
20
-9.59572032109992
30
0
41
1
10
98.2166893040344
20
-8.86525192213713
30
0
41
1
10
98.2961471948258
20
-8.4672414639825
30
0
41
1
10
98.4550629764088
20
-7.61756795793065
30
0
41
1
10
98.5345208672003
20
-7.1659528631219
30
0
41
1
10
98.6934366487832
20
-6.22411768070234
30
0
41
1
10
98.7728945395747
20
-5.73395431931772
30
0
41
1
10
98.9318103211577
20
-4.73154636954527
30
0
41
1
10
99.0112682119494
20
-4.21935536495698
30
0
41
1
10
99.1701839935323
20
-3.18919162112908
30
0
41
1
10
99.2496418843237
20
-2.67125979098819
30
0
41
1
10
99.4085576659067
20
-1.64423897755552
30
0
41
1
10
99.4880155566982
20
-1.13517354502321
30
0
41
1
10
99.5873379201877
20
-0.511849493860865
30
0
41
1
10
99.6171346292345
20
-0.325817006442549
30
0
41
1
10
99.6469313382812
20
-0.141407816156942
30
0
41
1
10
99.6667958109792
20
-0.0188472367224506
30
0
41
1
10
99.6767280473281
20
0.0421761535451424
30
0
41
1
10
99.7263892290727
20
0.348817706533765
30
0
41
1
10
99.7661181744685
20
0.597152208454105
30
0
41
1
10
99.8853050106557
20
1.34932979530134
30
0
41
1
10
99.9647629014473
20
1.86043598531887
30
0
41
1
10
100.12367868303
20
2.88962682306223
30
0
41
1
10
100.203136573822
20
3.40768539008619
30
0
41
1
10
100.362052355405
20
4.43588291786193
30
0
41
1
10
100.441510246196
20
4.94597877667607
30
0
41
1
10
100.600426027779
20
5.94184638984669
30
0
41
1
10
100.679883918571
20
6.42756344931132
30
0
41
1
10
100.838799700154
20
7.35825588069741
30
0
41
1
10
100.918257590945
20
7.8031750327398
30
0
41
1
10
101.077173372528
20
8.6375474247281
30
0
41
1
10
101.15663126332
20
9.02695486353986
30
0
41
1
10
101.315547044903
20
9.73884957760771
30
0
41
1
10
101.395004935694
20
10.0613111946555
30
0
41
1
10
101.553920717277
20
10.6322355241755
30
0
41
1
10
101.633378608069
20
10.8806968087279
30
0
41
1
10
101.792294389652
20
11.3013330265982
30
0
41
1
10
101.871752280443
20
11.4735282304398
30
0
41
1
10
102.030668062026
20
11.7438378182667
30
0
41
1
10
102.110125952818
20
11.8419867591879
30
0
41
1
10
102.269041734401
20
11.9700479654288
30
0
41
1
10
102.348499625192
20
12
30
0
41
1
10
102.427957515984
20
12
30
0
0
SPLINE
5
103
100
AcDbEntity
8
1
62
256
6
ByLayer
370
13
48
1
60
0
100
AcDbSpline
70
4
71
3
72
43
73
39
40
0
40
0
40
0
40
0
40
0.0625
40
0.0625
40
0.125
40
0.125
40
0.1875
40
0.1875
40
0.25
40
0.25
40
0.3125
40
0.3125
40
0.375
40
0.375
40
0.4375
40
0.4375
40
0.5
40
0.5
40
0.5625
40
0.5625
40
0.625
40
0.625
40
0.640625
40
0.6484375
40
0.6484375
40
0.65625
40
0.65625
40
0.6875
40
0.6875
40
0.75
40
0.75
40
0.8125
40
0.8125
40
0.875
40
0.875
40
0.9375
40
0.9375
40
1
40
1
40
1
40
1
41
1
10
101.608801000497
20
12
30
0
41
1
10
101.69679175442
20
12
30
0
41
1
10
101.784782508343
20
11.9632459625487
30
0
41
1
10
101.96076401619
20
11.8051707798006
30
0
41
1
10
102.048754770113
20
11.6837837938517
30
0
41
1
10
102.224736277959
20
11.3491689426591
30
0
41
1
10
102.312727031882
20
11.1358875391819
30
0
41
1
10
102.488708539728
20
10.61597788488
30
0
41
1
10
102.576699293651
20
10.3093265795107
30
0
41
1
10
102.752680801498
20
9.6081567493959
30
0
41
1
10
102.84067155542
20
9.21365803848289
30
0
41
1
10
103.016653063267
20
8.34934531172289
30
0
41
1
10
103.10464381719
20
7.87959343946639
30
0
41
1
10
103.280625325036
20
6.8831523172627
30
0
41
1
10
103.368616078959
20
6.3565525432943
30
0
41
1
10
103.544597586805
20
5.26827483452982
30
0
41
1
10
103.632588340728
20
4.70669020572134
30
0
41
1
10
103.808569848575
20
3.57094700723803
30
0
41
1
10
103.896560602498
20
2.99686357606424
30
0
41
1
10
104.072542110344
20
1.85666611347494
30
0
41
1
10
104.160532864267
20
1.29059651068573
30
0
41
1
10
104.270521306671
20
0.598459869104886
30
0
41
1
10
104.303517839392
20
0.391961612998955
30
0
41
1
10
104.336514372113
20
0.187420715645828
30
0
41
1
10
104.358512060594
20
0.0515199671319237
30
0
41
1
10
104.369510904834
20
-0.0160512873934238
30
0
41
1
10
104.424505126036
20
-0.355399997210924
30
0
41
1
10
104.468500502998
20
-0.630605137910237
30
0
41
1
10
104.600486633882
20
-1.46482219342931
30
0
41
1
10
104.688477387805
20
-2.03256700547885
30
0
41
1
10
104.864458895651
20
-3.17415395890072
30
0
41
1
10
104.952449649575
20
-3.74794827147002
30
0
41
1
10
105.128431157421
20
-4.88084766592621
30
0
41
1
10
105.216421911344
20
-5.43987495483213
30
0
41
1
10
105.39240341919
20
-6.52070523107255
30
0
41
1
10
105.480394173113
20
-7.04241418355173
30
0
41
1
10
105.656375680959
20
-8.02696624832851
30
0
41
1
10
105.744366434882
20
-8.48972168540004
30
0
41
1
10
105.832357188806
20
-8.91407952263134
30
0
0
SPLINE
5
104
100
AcDbEntity
8
1
62
256
6
ByLayer
370
13
48
1
60
0
100
AcDbSpline
70
4
71
3
72
8
73
4
40
0
40
0
40
0
40
0
40
1
40
1
40
1
40
1
41
1
10
105.832357188806
20
-9.68953623292037
30
0
41
1
10
107.28823812587
20
-6.46999706958994
30
0
41
1
10
108.744119062935
20
-3.24012081914211
30
0
41
1
10
110.2
20
-5.4E-13
30
0
0
SPLINE
5
105
100
AcDbEntity
8
1
62
256
6
ByLayer
370
13
48
1
60
0
100
AcDbSpline
70
4
71
3
72
8
73
4
40
0
40
0
40
0
40
0
40
1
40
1
40
1
40
1
41
1
10
105.832357188806
20
-10.6680000183524
30
0
41
1
10
107.28823812587
20
-7.10400011199843
30
0
41
1
10
108.744119062935
20
-3.54796621370156
30
0
41
1
10
110.2
20
-2.84E-14
30
0
0
SPLINE
5
106
100
AcDbEntity
8
1
62
256
6
ByLayer
370
13
48
1
60
0
100
AcDbSpline
70
4
71
3
72
8
73
4
40
0
40
0
40
0
40
0
40
1
40
1
40
1
40
1
41
1
10
105.832357188806
20
-11.3557691268353
30
0
41
1
10
107.28823812587
20
-7.57616008833261
30
0
41
1
10
108.744119062935
20
-3.79086759047308
30
0
41
1
10
110.2
20
-2.84E-14
30
0
0
SPLINE
5
107
100
AcDbEntity
8
1
62
256
6
ByLayer
370
13
48
1
60
0
100
AcDbSpline
70
4
71
3
72
8
73
4
40
0
40
0
40
0
40
0
40
1
40
1
40
1
40
1
41
1
10
105.832357188806
20
-4.57287692058833
30
0
41
1
10
107.28823812587
20
-3.03243228582124
30
0
41
1
10
108.744119062935
20
-1.50812549140443
30
0
41
1
10
110.2
20
1.137E-13
30
0
0
SPLINE
5
108
100
AcDbEntity
8
1
62
256
6
ByLayer
370
13
48
1
60
0
100
AcDbSpline
70
4
71
3
72
8
73
4
40
0
40
0
40
0
40
0
40
1
40
1
40
1
40
1
41
1
10
105.832357188806
20
-11.5509264824889
30
0
41
1
10
107.28823812587
20
-7.69588299735921
30
0
41
1
10
108.744119062935
20
-3.84553746014447
30
0
41
1
10
110.2
20
-6.253E-13
30
0
0
SPLINE
5
109
100
AcDbEntity
8
1
62
256
6
ByLayer
370
13
48
1
60
0
100
AcDbSpline
70
4
71
3
72
8
73
4
40
0
40
0
40
0
40
0
40
1
40
1
40
1
40
1
41
1
10
105.832357188806
20
1.34170856866453
30
0
41
1
10
107.28823812587
20
0.91183340480967
30
0
41
1
10
108.744119062935
20
0.464592894257578
30
0
41
1
10
110.2
20
-2.84E-14
30
0
0
SPLINE
5
10A
100
AcDbEntity
8
1
62
256
6
ByLayer
370
13
48
1
60
0
100
AcDbSpline
70
4
71
3
72
8
73
4
40
0
40
0
40
0
40
0
40
1
40
1
40
1
40
1
41
1
10
105.832357188805
20
1.99190563019289
30
0
41
1
10
107.288238125871
20
1.31070888345027
30
0
41
1
10
108.744119062935
20
0.646734061804835
30
0
41
1
10
110.200000000001
20
-2.842E-13
30
0
0
SPLINE
5
10B
100
AcDbEntity
8
1
62
256
6
ByLayer
370
13
48
1
60
0
100
AcDbSpline
70
4
71
3
72
8
73
4
40
0
40
0
40
0
40
0
40
1
40
1
40
1
40
1
41
1
10
105.832357188806
20
5.90460364938551
30
0
41
1
10
107.28823812587
20
3.95161173167412
30
0
41
1
10
108.744119062935
20
1.98339169388387
30
0
41
1
10
110.2
20
2.84E-14
30
0
0
SPLINE
5
10C
100
AcDbEntity
8
1
62
256
6
ByLayer
370
13
48
1
60
0
100
AcDbSpline
70
4
71
3
72
8
73
4
40
0
40
0
40
0
40
0
40
1
40
1
40
1
40
1
41
1
10
105.832357188806
20
-10.0622098923268
30
0
41
1
10
107.28823812587
20
-6.6986206562961
30
0
41
1
10
108.744119062935
20
-3.34451873087474
30
0
41
1
10
110.2
20
-2.84E-14
30
0
0
SPLINE
5
10D
100
AcDbEntity
8
1
62
256
6
ByLayer
370
13
48
1
60
0
100
AcDbSpline
70
4
71
3
72
8
73
4
40
0
40
0
40
0
40
0
40
1
40
1
40
1
40
1
41
1
10
105.832357188806
20
-6.69782154155914
30
0
41
1
10
107.28823812587
20
-4.45071834919429
30
0
41
1
10
108.744119062935
20
-2.21808991985034
30
0
41
1
10
110.2
20
3.126E-13
30
0
0
SPLINE
5
10E
100
AcDbEntity
8
1
62
256
6
ByLayer
370
13
48
1
60
0
100
AcDbSpline
70
4
71
3
72
8
73
4
40
0
40
0
40
0
40
0
40
1
40
1
40
1
40
1
41
1
10
105.832357188806
20
-11.9018908768364
30
0
41
1
10
107.28823812587
20
-7.9368233624983
30
0
41
1
10
108.744119062935
20
-3.96948855584409
30
0
41
1
10
110.2
20
-6.537E-13
30
0
0
SPLINE
5
10F
100
AcDbEntity
8
1
62
256
6
ByLayer
370
13
48
1
60
0
100
AcDbSpline
70
4
71
3
72
8
73
4
40
0
40
0
40
0
40
0
40
1
40
1
40
1
40
1
41
1
10
105.832357188805
20
-1.61551156728541
30
0
41
1
10
107.28823812587
20
-1.09431923921252
30
0
41
1
10
108.744119062935
20
-0.555810192087364
30
0
41
1
10
110.2
20
8.53E-14
30
0
0
SPLINE
5
110
100
AcDbEntity
8
1
62
256
6
ByLayer
370
13
48
1
60
0
100
AcDbSpline
70
4
71
3
72
8
73
4
40
0
40
0
40
0
40
0
40
1
40
1
40
1
40
1
41
1
10
105.832357188806
20
2.53253308673993
30
0
41
1
10
107.28823812587
20
1.70543246348473
30
0
41
1
10
108.744119062935
20
0.861246661727961
30
0
41
1
10
110.2
20
0
30
0
0
SPLINE
5
111
100
AcDbEntity
8
1
62
256
6
ByLayer
370
13
48
1
60
0
100
AcDbSpline
70
4
71
3
72
8
73
4
40
0
40
0
40
0
40
0
40
1
40
1
40
1
40
1
41
1
10
105.832357188806
20
0.137316924667914
30
0
41
1
10
107.28823812587
20
0.109014043819258
30
0
41
1
10
108.744119062935
20
0.0632412434721346
30
0
41
1
10
110.2
20
0
30
0
0
SPLINE
5
112
100
AcDbEntity
8
1
62
256
6
ByLayer
370
13
48
1
60
0
100
AcDbSpline
70
4
71
3
72
8
73
4
40
0
40
0
40
0
40
0
40
1
40
1
40
1
40
1
41
1
10
105.832357188806
20
7.87323663258391
30
0
41
1
10
107.28823812587
20
5.26200896058816
30
0
41
1
10
108.744119062935
20
2.63757167580582
30
0
41
1
10
110.2
20
1.137E-13
30
0
0
SPLINE
5
113
100
AcDbEntity
8
1
62
256
6
ByLayer
370
13
48
1
60
0
100
AcDbSpline
70
4
71
3
72
8
73
4
40
0
40
0
40
0
40
0
40
1
40
1
40
1
40
1
41
1
10
105.832357188805
20
-0.413150098667359
30
0
41
1
10
107.28823812587
20
-0.292893612757268
30
0
41
1
10
108.744119062935
20
-0.155175544128099
30
0
41
1
10
110.2
20
2.84E-14
30
0
0
SPLINE
5
114
100
AcDbEntity
8
1
62
256
6
ByLayer
370
13
48
1
60
0
100
AcDbSpline
70
4
71
3
72
8
73
4
40
0
40
0
40
0
40
0
40
1
40
1
40
1
40
1
41
1
10
105.832357188805
20
-5.07689622958563
30
0
41
1
10
107.28823812587
20
-3.40042748037627
30
0
41
1
10
108.744119062935
20
-1.70811254547462
30
0
41
1
10
110.2
20
2.558E-13
30
0
0
SPLINE
5
115
100
AcDbEntity
8
1
62
256
6
ByLayer
370
13
48
1
60
0
100
AcDbSpline
70
4
71
3
72
8
73
4
40
0
40
0
40
0
40
0
40
1
40
1
40
1
40
1
41
1
10
105.832357188806
20
8.74293353347301
30
0
41
1
10
107.28823812587
20
5.84058905163772
30
0
41
1
10
108.744119062935
20
2.92625003866834
30
0
41
1
10
110.2
20
1.421E-13
30
0
0
SPLINE
5
116
100
AcDbEntity
8
1
62
256
6
ByLayer
370
13
48
1
60
0
100
AcDbSpline
70
4
71
3
72
8
73
4
40
0
40
0
40
0
40
0
40
1
40
1
40
1
40
1
41
1
10
105.832357188805
20
3.17028038120409
30
0
41
1
10
107.28823812587
20
2.09667040100047
30
0
41
1
10
108.744119062935
20
1.03990024798196
30
0
41
1
10
110.2
20
-1.421E-13
30
0
0
SPLINE
5
117
100
AcDbEntity
8
1
62
256
6
ByLayer
370
13
48
1
60
0
100
AcDbSpline
70
4
71
3
72
8
73
4
40
0
40
0
40
0
40
0
40
1
40
1
40
1
40
1
41
1
10
105.832357188806
20
6.92392691912383
30
0
41
1
10
107.28823812587
20
4.63022034137211
30
0
41
1
10
108.744119062935
20
2.32222264251024
30
0
41
1
10
110.2
20
2.84E-14
30
0
0
SPLINE
5
118
100
AcDbEntity
8
1
62
256
6
ByLayer
370
13
48
1
60
0
100
AcDbSpline
70
4
71
3
72
8
73
4
40
0
40
0
40
0
40
0
40
1
40
1
40
1
40
1
41
1
10
105.832357188806
20
-8.07935998889985
30
0
41
1
10
107.28823812587
20
-5.39915751657728
30
0
41
1
10
108.744119062935
20
-2.70601179186093
30
0
41
1
10
110.2
20
-2.84E-14
30
0
0
SPLINE
5
119
100
AcDbEntity
8
1
62
256
6
ByLayer
370
13
48
1
60
0
100
AcDbSpline
70
4
71
3
72
8
73
4
40
0
40
0
40
0
40
0
40
1
40
1
40
1
40
1
41
1
10
105.832357188806
20
-5.66398585571611
30
0
41
1
10
107.28823812587
20
-3.76058852920869
30
0
41
1
10
108.744119062935
20
-1.87257528498182
30
0
41
1
10
110.2
20
-2.84E-14
30
0
0
SPLINE
5
11A
100
AcDbEntity
8
1
62
256
6
ByLayer
370
13
48
1
60
0
100
AcDbSpline
70
4
71
3
72
8
73
4
40
0
40
0
40
0
40
0
40
1
40
1
40
1
40
1
41
1
10
105.832357188806
20
11.6223244212366
30
0
41
1
10
107.28823812587
20
7.75256485243304
30
0
41
1
10
108.744119062935
20
3.87841974642203
30
0
41
1
10
110.2
20
-2.84E-14
30
0
0
SPLINE
5
11B
100
AcDbEntity
8
1
62
256
6
ByLayer
370
13
48
1
60
0
100
AcDbSpline
70
4
71
3
72
8
73
4
40
0
40
0
40
0
40
0
40
1
40
1
40
1
40
1
41
1
10
105.832357188806
20
-2.26343929722873
30
0
41
1
10
107.28823812587
20
-1.49180255419128
30
0
41
1
10
108.744119062935
20
-0.737315646665792
30
0
41
1
10
110.2
20
0
30
0
0
SPLINE
5
11C
100
AcDbEntity
8
1
62
256
6
ByLayer
370
13
48
1
60
0
100
AcDbSpline
70
4
71
3
72
8
73
4
40
0
40
0
40
0
40
0
40
1
40
1
40
1
40
1
41
1
10
105.832357188805
20
11.9444789249685
30
0
41
1
10
107.28823812587
20
7.96130731028634
30
0
41
1
10
108.744119062935
20
3.97977636460942
30
0
41
1
10
110.2
20
-5.969E-13
30
0
0
SPLINE
5
11D
100
AcDbEntity
8
1
62
256
6
ByLayer
370
13
48
1
60
0
100
AcDbSpline
70
4
71
3
72
8
73
4
40
0
40
0
40
0
40
0
40
1
40
1
40
1
40
1
41
1
10
105.832357188806
20
-11.9955087488543
30
0
41
1
10
107.28823812587
20
-7.99748377381519
30
0
41
1
10
108.744119062935
20
-3.99894271774346
30
0
41
1
10
110.2
20
-2.84E-14
30
0
0
SPLINE
5
11E
100
AcDbEntity
8
1
62
256
6
ByLayer
370
13
48
1
60
0
100
AcDbSpline
70
4
71
3
72
8
73
4
40
0
40
0
40
0
40
0
40
1
40
1
40
1
40
1
41
1
10
105.832357188806
20
-10.3514981685729
30
0
41
1
10
107.28823812587
20
-6.90983616649424
30
0
41
1
10
108.744119062935
20
-3.45930383753748
30
0
41
1
10
110.2
20
5.116E-13
30
0
0
SPLINE
5
11F
100
AcDbEntity
8
1
62
256
6
ByLayer
370
13
48
1
60
0
100
AcDbSpline
70
4
71
3
72
8
73
4
40
0
40
0
40
0
40
0
40
1
40
1
40
1
40
1
41
1
10
105.832357188805
20
9.90922612353805
30
0
41
1
10
107.28823812587
20
6.59629719479935
30
0
41
1
10
108.744119062935
20
3.29319034643027
30
0
41
1
10
110.2
20
-4.832E-13
30
0
0
SPLINE
5
120
100
AcDbEntity
8
1
62
256
6
ByLayer
370
13
48
1
60
0
100
AcDbSpline
70
4
71
3
72
8
73
4
40
0
40
0
40
0
40
0
40
1
40
1
40
1
40
1
41
1
10
105.832357188805
20
6.46713657051168
30
0
41
1
10
107.28823812587
20
4.29670801315817
30
0
41
1
10
108.744119062935
20
2.14097530829886
30
0
41
1
10
110.2
20
-3.126E-13
30
0
0
SPLINE
5
121
100
AcDbEntity
8
1
62
256
6
ByLayer
370
13
48
1
60
0
100
AcDbSpline
70
4
71
3
72
8
73
4
40
0
40
0
40
0
40
0
40
1
40
1
40
1
40
1
41
1
10
105.832357188805
20
-2.80153726122592
30
0
41
1
10
107.28823812587
20
-1.88467929803022
30
0
41
1
10
108.744119062935
20
-0.950824583129076
30
0
41
1
10
110.2
20
1.421E-13
30
0
0
SPLINE
5
122
100
AcDbEntity
8
1
62
256
6
ByLayer
370
13
48
1
60
0
100
AcDbSpline
70
4
71
3
72
8
73
4
40
0
40
0
40
0
40
0
40
1
40
1
40
1
40
1
41
1
10
105.832357188806
20
4.82557404468213
30
0
41
1
10
107.28823812587
20
3.2330451048571
30
0
41
1
10
108.744119062935
20
1.62450503011152
30
0
41
1
10
110.2
20
2.84E-14
30
0
0
SPLINE
5
123
100
AcDbEntity
8
1
62
256
6
ByLayer
370
13
48
1
60
0
100
AcDbSpline
70
4
71
3
72
8
73
4
40
0
40
0
40
0
40
0
40
1
40
1
40
1
40
1
41
1
10
105.832357188805
20
7.4496120384299
30
0
41
1
10
107.28823812587
20
4.95271165359759
30
0
41
1
10
108.744119062935
20
2.46948399919415
30
0
41
1
10
110.2
20
-3.695E-13
30
0
0
SPLINE
5
124
100
AcDbEntity
8
1
62
256
6
ByLayer
370
13
48
1
60
0
100
AcDbSpline
70
4
71
3
72
8
73
4
40
0
40
0
40
0
40
0
40
1
40
1
40
1
40
1
41
1
10
105.832357188806
20
-1.06846324441648
30
0
41
1
10
107.28823812587
20
-0.69490764840333
30
0
41
1
10
108.744119062935
20
-0.338749891873334
30
0
41
1
10
110.2
20
-2.84E-14
30
0
0
SPLINE
5
125
100
AcDbEntity
8
1
62
256
6
ByLayer
370
13
48
1
60
0
100
AcDbSpline
70
4
71
3
72
8
73
4
40
0
40
0
40
0
40
0
40
1
40
1
40
1
40
1
41
1
10
105.832357188806
20
10.2092059532905
30
0
41
1
10
107.28823812587
20
6.81531883512514
30
0
41
1
10
108.744119062935
20
3.41221769590274
30
0
41
1
10
110.2
20
2.84E-14
30
0
0
SPLINE
5
126
100
AcDbEntity
8
1
62
256
6
ByLayer
370
13
48
1
60
0
100
AcDbSpline
70
4
71
3
72
8
73
4
40
0
40
0
40
0
40
0
40
1
40
1
40
1
40
1
41
1
10
105.832357188806
20
-11.6879231345127
30
0
41
1
10
107.28823812587
20
-7.79590716055091
30
0
41
1
10
108.744119062935
20
-3.89989560945872
30
0
41
1
10
110.2
20
-6.537E-13
30
0
0
SPLINE
5
127
100
AcDbEntity
8
1
62
256
6
ByLayer
370
13
48
1
60
0
100
AcDbSpline
70
4
71
3
72
8
73
4
40
0
40
0
40
0
40
0
40
1
40
1
40
1
40
1
41
1
10
105.832357188806
20
-11.9678301027714
30
0
41
1
10
107.28823812587
20
-7.97727500687222
30
0
41
1
10
108.744119062935
20
-3.98796025974642
30
0
41
1
10
110.2
20
-2.84E-14
30
0
0
SPLINE
5
128
100
AcDbEntity
8
1
62
256
6
ByLayer
370
13
48
1
60
0
100
AcDbSpline
70
4
71
3
72
8
73
4
40
0
40
0
40
0
40
0
40
1
40
1
40
1
40
1
41
1
10
105.832357188806
20
-8.5525421378895
30
0
41
1
10
107.28823812587
20
-5.68943990530221
30
0
41
1
10
108.744119062935
20
-2.83856537319639
30
0
41
1
10
110.2
20
4.263E-13
30
0
0
SPLINE
5
129
100
AcDbEntity
8
1
62
256
6
ByLayer
370
13
48
1
60
0
100
AcDbSpline
70
4
71
3
72
8
73
4
40
0
40
0
40
0
40
0
40
1
40
1
40
1
40
1
41
1
10
105.832357188806
20
3.69774906650085
30
0
41
1
10
107.28823812587
20
2.48178648286984
30
0
41
1
10
108.744119062935
20
1.24919165131482
30
0
41
1
10
110.2
20
0
30
0
0
SPLINE
5
12A
100
AcDbEntity
8
1
62
256
6
ByLayer
370
13
48
1
60
0
100
AcDbSpline
70
4
71
3
72
8
73
4
40
0
40
0
40
0
40
0
40
1
40
1
40
1
40
1
41
1
10
105.832357188806
20
11.9847906662689
30
0
41
1
10
107.28823812587
20
7.99073976816643
30
0
41
1
10
108.744119062935
20
3.99577143909053
30
0
41
1
10
110.2
20
0
30
0
0
SPLINE
5
12B
100
AcDbEntity
8
1
62
256
6
ByLayer
370
13
48
1
60
0
100
AcDbSpline
70
4
71
3
72
8
73
4
40
0
40
0
40
0
40
0
40
1
40
1
40
1
40
1
41
1
10
105.832357188805
20
11.7682917968853
30
0
41
1
10
107.28823812587
20
7.84211125347466
30
0
41
1
10
108.744119062935
20
3.91930991618346
30
0
41
1
10
110.2
20
-5.684E-13
30
0
0
SPLINE
5
12C
100
AcDbEntity
8
1
62
256
6
ByLayer
370
13
48
1
60
0
100
AcDbSpline
70
4
71
3
72
8
73
4
40
0
40
0
40
0
40
0
40
1
40
1
40
1
40
1
41
1
10
105.832357188806
20
-11.165917165881
30
0
41
1
10
107.28823812587
20
-7.43754514231591
30
0
41
1
10
108.744119062935
20
-3.71553727335436
30
0
41
1
10
110.2
20
-2.84E-14
30
0
0
SPLINE
5
12D
100
AcDbEntity
8
1
62
256
6
ByLayer
370
13
48
1
60
0
100
AcDbSpline
70
4
71
3
72
8
73
4
40
0
40
0
40
0
40
0
40
1
40
1
40
1
40
1
41
1
10
105.832357188805
20
-6.14322146607415
30
0
41
1
10
107.28823812587
20
-4.1104886193902
30
0
41
1
10
108.744119062935
20
-2.06272855135498
30
0
41
1
10
110.2
20
3.126E-13
30
0
0
SPLINE
5
12E
100
AcDbEntity
8
1
62
256
6
ByLayer
370
13
48
1
60
0
100
AcDbSpline
70
4
71
3
72
8
73
4
40
0
40
0
40
0
40
0
40
1
40
1
40
1
40
1
41
1
10
105.832357188805
20
8.35675831269893
30
0
41
1
10
107.28823812587
20
5.55863432695875
30
0
41
1
10
108.744119062935
20
2.77302169328729
30
0
41
1
10
110.2
20
-3.979E-13
30
0
0
SPLINE
5
12F
100
AcDbEntity
8
1
62
256
6
ByLayer
370
13
48
1
60
0
100
AcDbSpline
70
4
71
3
72
8
73
4
40
0
40
0
40
0
40
0
40
1
40
1
40
1
40
1
41
1
10
105.832357188805
20
-3.95923429297872
30
0
41
1
10
107.288238125871
20
-2.65598180444431
30
0
41
1
10
108.744119062935
20
-1.33622439977665
30
0
41
1
10
110.200000000001
20
6.253E-13
30
0
0
SPLINE
5
130
100
AcDbEntity
8
1
62
256
6
ByLayer
370
13
48
1
60
0
100
AcDbSpline
70
4
71
3
72
8
73
4
40
0
40
0
40
0
40
0
40
1
40
1
40
1
40
1
41
1
10
105.832357188805
20
10.5388493730358
30
0
41
1
10
107.28823812587
20
7.01754472110883
30
0
41
1
10
108.744119062935
20
3.50456144966466
30
0
41
1
10
110.2
20
-5.116E-13
30
0
0
SPLINE
5
131
100
AcDbEntity
8
1
62
256
6
ByLayer
370
13
48
1
60
0
100
AcDbSpline
70
4
71
3
72
8
73
4
40
0
40
0
40
0
40
0
40
1
40
1
40
1
40
1
41
1
10
105.832357188806
20
11.8635385729605
30
0
41
1
10
107.28823812587
20
7.91165294615783
30
0
41
1
10
108.744119062935
20
3.95710236146715
30
0
41
1
10
110.2
20
0
30
0
0
SPLINE
5
132
100
AcDbEntity
8
1
62
256
6
ByLayer
370
13
48
1
60
0
100
AcDbSpline
70
4
71
3
72
8
73
4
40
0
40
0
40
0
40
0
40
1
40
1
40
1
40
1
41
1
10
105.832357188806
20
-7.66393000975253
30
0
41
1
10
107.28823812587
20
-5.09584327192172
30
0
41
1
10
108.744119062935
20
-2.54117561154186
30
0
41
1
10
110.2
20
-2.84E-14
30
0
0
SPLINE
5
133
100
AcDbEntity
8
1
62
256
6
ByLayer
370
13
48
1
60
0
100
AcDbSpline
70
4
71
3
72
8
73
4
40
0
40
0
40
0
40
0
40
1
40
1
40
1
40
1
41
1
10
105.832357188806
20
9.52422339654487
30
0
41
1
10
107.28823812587
20
6.36011011230732
30
0
41
1
10
108.744119062935
20
3.18533866522083
30
0
41
1
10
110.2
20
2.84E-14
30
0
0
SPLINE
5
134
100
AcDbEntity
8
1
62
256
6
ByLayer
370
13
48
1
60
0
100
AcDbSpline
70
4
71
3
72
8
73
4
40
0
40
0
40
0
40
0
40
1
40
1
40
1
40
1
41
1
10
105.832357188805
20
0.793389072578435
30
0
41
1
10
107.28823812587
20
0.511493703455812
30
0
41
1
10
108.744119062935
20
0.247028212202565
30
0
41
1
10
110.2
20
-2.84E-14
30
0
0
SPLINE
5
135
100
AcDbEntity
8
1
62
256
6
ByLayer
370
13
48
1
60
0
100
AcDbSpline
70
4
71
3
72
8
73
4
40
0
40
0
40
0
40
0
40
1
40
1
40
1
40
1
41
1
10
105.832357188805
20
11.0619055931143
30
0
41
1
10
107.28823812587
20
7.36783204405316
30
0
41
1
10
108.744119062935
20
3.68049503122205
30
0
41
1
10
110.2
20
-5.4E-13
30
0
0
SPLINE
5
136
100
AcDbEntity
8
1
62
256
6
ByLayer
370
13
48
1
60
0
100
AcDbSpline
70
4
71
3
72
8
73
4
40
0
40
0
40
0
40
0
40
1
40
1
40
1
40
1
41
1
10
105.832357188805
20
9.17940248645994
30
0
41
1
10
107.28823812587
20
6.10834904754591
30
0
41
1
10
108.744119062935
20
3.04851906970353
30
0
41
1
10
110.2
20
-4.547E-13
30
0
0
SPLINE
5
137
100
AcDbEntity
8
1
62
256
6
ByLayer
370
13
48
1
60
0
100
AcDbSpline
70
4
71
3
72
8
73
4
40
0
40
0
40
0
40
0
40
1
40
1
40
1
40
1
41
1
10
105.832357188806
20
-3.43552784177149
30
0
41
1
10
107.28823812587
20
-2.2736126095318
30
0
41
1
10
108.744119062935
20
-1.12842579265046
30
0
41
1
10
110.2
20
0
30
0
0
SPLINE
5
138
100
AcDbEntity
8
1
62
256
6
ByLayer
370
13
48
1
60
0
100
AcDbSpline
70
4
71
3
72
8
73
4
40
0
40
0
40
0
40
0
40
1
40
1
40
1
40
1
41
1
10
105.832357188806
20
-9.35467243320423
30
0
41
1
10
107.28823812587
20
-6.22550590243358
30
0
41
1
10
108.744119062935
20
-3.10725205077404
30
0
41
1
10
110.2
20
-2.84E-14
30
0
0
SPLINE
5
139
100
AcDbEntity
8
1
62
256
6
ByLayer
370
13
48
1
60
0
100
AcDbSpline
70
4
71
3
72
8
73
4
40
0
40
0
40
0
40
0
40
1
40
1
40
1
40
1
41
1
10
105.832357188806
20
-8.92959537601729
30
0
41
1
10
107.28823812587
20
-5.96473447685045
30
0
41
1
10
108.744119062935
20
-2.98817425717121
30
0
41
1
10
110.2
20
4.263E-13
30
0
0
SPLINE
5
13A
100
AcDbEntity
8
1
62
256
6
ByLayer
370
13
48
1
60
0
100
AcDbSpline
70
4
71
3
72
8
73
4
40
0
40
0
40
0
40
0
40
1
40
1
40
1
40
1
41
1
10
105.832357188805
20
4.31659780311864
30
0
41
1
10
107.288238125871
20
2.86143074863171
30
0
41
1
10
108.744119062935
20
1.4225511419861
30
0
41
1
10
110.200000000001
20
-6.537E-13
30
0
0
SPLINE
5
13B
100
AcDbEntity
8
1
62
256
6
ByLayer
370
13
48
1
60
0
100
AcDbSpline
70
4
71
3
72
8
73
4
40
0
40
0
40
0
40
0
40
1
40
1
40
1
40
1
41
1
10
105.832357188806
20
-10.9087875379122
30
0
41
1
10
107.28823812587
20
-7.27980419038391
30
0
41
1
10
108.744119062935
20
-3.64350697143416
30
0
41
1
10
110.2
20
5.4E-13
30
0
0
SPLINE
5
13C
100
AcDbEntity
8
1
62
256
6
ByLayer
370
13
48
1
60
0
100
AcDbSpline
70
4
71
3
72
8
73
4
40
0
40
0
40
0
40
0
40
1
40
1
40
1
40
1
41
1
10
105.832357188806
20
-7.14742750533958
30
0
41
1
10
107.28823812587
20
-4.77898520556465
30
0
41
1
10
108.744119062935
20
-2.3964866014532
30
0
41
1
10
110.2
20
3.411E-13
30
0
0
SPLINE
5
13D
100
AcDbEntity
8
1
62
256
6
ByLayer
370
13
48
1
60
0
100
AcDbSpline
70
4
71
3
72
8
73
4
40
0
40
0
40
0
40
0
40
1
40
1
40
1
40
1
41
1
10
105.832357188806
20
-11.819134820289
30
0
41
1
10
107.28823812587
20
-7.87640140923907
30
0
41
1
10
108.744119062935
20
-3.93665223457549
30
0
41
1
10
110.2
20
5.684E-13
30
0
0
SPLINE
5
13E
100
AcDbEntity
8
1
62
256
6
ByLayer
370
13
48
1
60
0
100
AcDbSpline
70
4
71
3
72
8
73
4
40
0
40
0
40
0
40
0
40
1
40
1
40
1
40
1
41
1
10
105.832357188805
20
5.41926653163287
30
0
41
1
10
107.288238125871
20
3.59725680144803
30
0
41
1
10
108.744119062935
20
1.7908174438939
30
0
41
1
10
110.200000000001
20
-8.242E-13
30
0
0
SPLINE
5
13F
100
AcDbEntity
8
1
62
256
6
ByLayer
370
13
48
1
60
0
100
AcDbSpline
70
4
71
3
72
8
73
4
40
0
40
0
40
0
40
0
40
1
40
1
40
1
40
1
41
1
10
105.832357188805
20
11.4731057293788
30
0
41
1
10
107.28823812587
20
7.64361711856384
30
0
41
1
10
108.744119062935
20
3.81921208103233
30
0
41
1
10
110.2
20
-5.684E-13
30
0
0
SPLINE
5
140
100
AcDbEntity
8
1
62
256
6
ByLayer
370
13
48
1
60
0
100
AcDbSpline
70
4
71
3
72
8
73
4
40
0
40
0
40
0
40
0
40
1
40
1
40
1
40
1
41
1
10
105.832357188806
20
11.2635873270472
30
0
41
1
10
107.28823812587
20
7.51508415839103
30
0
41
1
10
108.744119062935
20
3.76051921900463
30
0
41
1
10
110.2
20
2.84E-14
30
0
0
SPLINE
5
141
100
AcDbEntity
8
1
62
256
6
ByLayer
370
13
48
1
60
0
100
AcDbSpline
70
4
71
3
72
8
73
4
40
0
40
0
40
0
40
0
40
1
40
1
40
1
40
1
41
1
10
105.832357188806
20
10.7909547780924
30
0
41
1
10
107.28823812587
20
7.20161222790111
30
0
41
1
10
108.744119062935
20
3.60459296903835
30
0
41
1
10
110.2
20
2.84E-14
30
0
0
LINE
5
7D
100
AcDbEntity
8
80
62
256
6
ByLayer
370
18
48
1
60
0
100
AcDbLine
10
0
20
0
30
0
11
-5
21
0
31
0
39
0
210
0
220
0
230
1
0
LINE
5
7E
100
AcDbEntity
8
4
62
256
6
ByLayer
370
18
48
0.05
60
0
100
AcDbLine
10
-5
20
0
30
0
11
115.2
21
0
31
0
39
0
210
0
220
0
230
1
0
LINE
5
80
100
AcDbEntity
8
81
62
256
6
ByLayer
370
18
48
1
60
0
100
AcDbLine
10
110.2
20
0
30
0
11
115.2
21
0
31
0
39
0
210
0
220
0
230
1
0
LINE
5
81
100
AcDbEntity
8
SK4
62
256
6
ByLayer
370
18
48
0.05
60
0
100
AcDbLine
10
-65
20
0
30
0
11
115.2
21
0
31
0
39
0
210
0
220
0
230
1
0
LINE
5
83
100
AcDbEntity
8
1
62
256
6
ByLayer
370
18
48
1
60
0
100
AcDbLine
10
10
20
-11.7
30
0
11
49.006234
21
-11.7
31
0
39
0
210
0
220
0
230
1
0
LINE
5
84
100
AcDbEntity
8
1
62
256
6
ByLayer
370
18
48
1
60
0
100
AcDbLine
10
49.006234
20
11.7
30
0
11
10
21
11.7
31
0
39
0
210
0
220
0
230
1
0
LINE
5
85
100
AcDbEntity
8
1
62
256
6
ByLayer
370
18
48
1
60
0
100
AcDbLine
10
110.2
20
0
30
0
11
105.832357
21
12
31
0
39
0
210
0
220
0
230
1
0
LINE
5
86
100
AcDbEntity
8
1
62
256
6
ByLayer
370
18
48
1
60
0
100
AcDbLine
10
105.832357
20
-12
30
0
11
110.2
21
0
31
0
39
0
210
0
220
0
230
1
0
LINE
5
87
100
AcDbEntity
8
1
62
256
6
ByLayer
370
18
48
1
60
0
100
AcDbLine
10
10
20
11.7
30
0
11
0
21
16
31
0
39
0
210
0
220
0
230
1
0
LINE
5
88
100
AcDbEntity
8
1
62
256
6
ByLayer
370
18
48
1
60
0
100
AcDbLine
10
0
20
-16
30
0
11
10
21
-11.7
31
0
39
0
210
0
220
0
230
1
0
LINE
5
89
100
AcDbEntity
8
1
62
256
6
ByLayer
370
18
48
1
60
0
100
AcDbLine
10
105.832357
20
12
30
0
11
94.8
21
12
31
0
39
0
210
0
220
0
230
1
0
LINE
5
8A
100
AcDbEntity
8
1
62
256
6
ByLayer
370
18
48
1
60
0
100
AcDbLine
10
94.8
20
-12
30
0
11
105.832357
21
-12
31
0
39
0
210
0
220
0
230
1
0
LINE
5
8B
100
AcDbEntity
8
1
62
256
6
ByLayer
370
18
48
1
60
0
100
AcDbLine
10
110.2
20
0
30
0
11
105.832357
21
12
31
0
39
0
210
0
220
0
230
1
0
LINE
5
8C
100
AcDbEntity
8
1
62
256
6
ByLayer
370
18
48
1
60
0
100
AcDbLine
10
105.832357
20
-12
30
0
11
110.2
21
0
31
0
39
0
210
0
220
0
230
1
0
LINE
5
8D
100
AcDbEntity
8
SK1
62
256
6
ByLayer
370
18
48
1
60
0
100
AcDbLine
10
-60
20
-15
30
0
11
-59
21
-16
31
0
39
0
210
0
220
0
230
1
0
LINE
5
8F
100
AcDbEntity
8
SK1
62
256
6
ByLayer
370
18
48
1
60
0
100
AcDbLine
10
-59
20
16
30
0
11
-60
21
15
31
0
39
0
210
0
220
0
230
1
0
LINE
5
90
100
AcDbEntity
8
SK1
62
256
6
ByLayer
370
18
48
1
60
0
100
AcDbLine
10
-59
20
-16
30
0
11
0
21
-16
31
0
39
0
210
0
220
0
230
1
0
LINE
5
91
100
AcDbEntity
8
SK1
62
256
6
ByLayer
370
18
48
1
60
0
100
AcDbLine
10
0
20
16
30
0
11
-59
21
16
31
0
39
0
210
0
220
0
230
1
0
LINE
5
92
100
AcDbEntity
8
1
62
256
6
ByLayer
370
18
48
1
60
0
100
AcDbLine
10
0
20
16
30
0
11
0
21
-16
31
0
39
0
210
0
220
0
230
1
0
LINE
5
93
100
AcDbEntity
8
1
62
256
6
ByLayer
370
18
48
1
60
0
100
AcDbLine
10
105.832357
20
12
30
0
11
105.832357
21
11.618926
31
0
39
0
210
0
220
0
230
1
0
LINE
5
94
100
AcDbEntity
8
1
62
256
6
ByLayer
370
18
48
1
60
0
100
AcDbLine
10
105.832357
20
-12
30
0
11
105.832357
21
-1.713183
31
0
39
0
210
0
220
0
230
1
0
LINE
5
95
100
AcDbEntity
8
1
62
256
6
ByLayer
370
18
48
1
60
0
100
AcDbLine
10
10
20
-11.7
30
0
11
10
21
-4.030095
31
0
39
0
210
0
220
0
230
1
0
LINE
5
96
100
AcDbEntity
8
1
62
256
6
ByLayer
370
18
48
1
60
0
100
AcDbLine
10
10
20
11.7
30
0
11
10
21
8.797342
31
0
39
0
210
0
220
0
230
1
0
LINE
5
97
100
AcDbEntity
8
SK1
62
256
6
ByLayer
370
13
48
1
60
0
100
AcDbLine
10
-15.198909
20
-8.334638
30
0
11
-15.198909
21
8.334638
31
0
39
0
210
0
220
0
230
1
0
LINE
5
98
100
AcDbEntity
8
SK1
62
256
6
ByLayer
370
13
48
1
60
0
100
AcDbLine
10
-55.486983
20
5.39045
30
0
11
-55.486983
21
-5.39045
31
0
39
0
210
0
220
0
230
1
0
LINE
5
99
100
AcDbEntity
8
SK1
62
256
6
ByLayer
370
18
48
1
60
0
100
AcDbLine
10
-60
20
-15
30
0
11
-60
21
15
31
0
39
0
210
0
220
0
230
1
0
LINE
5
9A
100
AcDbEntity
8
SK1
62
256
6
ByLayer
370
13
48
1
60
0
100
AcDbLine
10
-14.051873
20
7.587342
30
0
11
-14.051873
21
-7.587342
31
0
39
0
210
0
220
0
230
1
0
LINE
5
9B
100
AcDbEntity
8
SK1
62
256
6
ByLayer
370
18
48
1
60
0
100
AcDbLine
10
-59
20
-16
30
0
11
-59
21
16
31
0
39
0
210
0
220
0
230
1
0
LINE
5
9C
100
AcDbEntity
8
SK1
62
256
6
ByLayer
370
18
48
1
60
0
100
AcDbLine
10
0
20
16
30
0
11
0
21
-16
31
0
39
0
210
0
220
0
230
1
0
LINE
5
9D
100
AcDbEntity
8
SK1
62
256
6
ByLayer
370
13
48
1
60
0
100
AcDbLine
10
-56.60131
20
-3.674042
30
0
11
-56.60131
21
3.674042
31
0
39
0
210
0
220
0
230
1
0
LINE
5
9E
100
AcDbEntity
8
1
62
256
6
ByLayer
370
18
48
1
60
0
100
AcDbLine
10
105.832357
20
12
30
0
11
105.832357
21
-12
31
0
39
0
210
0
220
0
230
1
0
LINE
5
9F
100
AcDbEntity
8
1
62
256
6
ByLayer
370
18
48
1
60
0
100
AcDbLine
10
105.832357
20
12
30
0
11
105.832357
21
-12
31
0
39
0
210
0
220
0
230
1
0
LINE
5
A0
100
AcDbEntity
8
1
62
256
6
ByLayer
370
18
48
1
60
0
100
AcDbLine
10
105.832357
20
12
30
0
11
105.832357
21
-12
31
0
39
0
210
0
220
0
230
1
0
LINE
5
A1
100
AcDbEntity
8
1
62
256
6
ByLayer
370
18
48
1
60
0
100
AcDbLine
10
94.8
20
12
30
0
11
94.8
21
-12
31
0
39
0
210
0
220
0
230
1
0
LINE
5
A2
100
AcDbEntity
8
1
62
256
6
ByLayer
370
18
48
1
60
0
100
AcDbLine
10
94.8
20
12
30
0
11
94.8
21
-12
31
0
39
0
210
0
220
0
230
1
0
LINE
5
A3
100
AcDbEntity
8
1
62
256
6
ByLayer
370
18
48
1
60
0
100
AcDbLine
10
105.832357
20
12
30
0
11
105.832357
21
-12
31
0
39
0
210
0
220
0
230
1
0
LINE
5
A4
100
AcDbEntity
8
1
62
256
6
ByLayer
370
18
48
1
60
0
100
AcDbLine
10
94.8
20
12
30
0
11
94.8
21
-12
31
0
39
0
210
0
220
0
230
1
0
LINE
5
A5
100
AcDbEntity
8
1
62
256
6
ByLayer
370
18
48
1
60
0
100
AcDbLine
10
105.832357
20
12
30
0
11
105.832357
21
-12
31
0
39
0
210
0
220
0
230
1
0
LINE
5
A6
100
AcDbEntity
8
SK2
62
256
6
ByLayer
370
13
48
1
60
0
100
AcDbLine
10
-66.5
20
-16
30
0
11
-66.5
21
45.024569
31
0
39
0
210
0
220
0
230
1
0
LINE
5
A8
100
AcDbEntity
8
SK2
62
256
6
ByLayer
370
13
48
1
60
0
100
AcDbLine
10
-61.5875
20
16
30
0
11
-68.5
21
16
31
0
39
0
210
0
220
0
230
1
0
LINE
5
A9
100
AcDbEntity
8
SK2
62
256
6
ByLayer
370
13
48
1
60
0
100
AcDbLine
10
-61.5875
20
-16
30
0
11
-68.5
21
-16
31
0
39
0
210
0
220
0
230
1
0
LINE
5
AA
100
AcDbEntity
8
1
62
256
6
ByLayer
370
18
48
1
60
1
100
AcDbLine
10
-66.5
20
16
30
0
11
-66.039216
21
12.500002
31
0
39
0
210
0
220
0
230
1
0
LINE
5
AB
100
AcDbEntity
8
1
62
256
6
ByLayer
370
18
48
1
60
1
100
AcDbLine
10
-66.039216
20
12.500002
30
0
11
-66.960784
21
12.499998
31
0
39
0
210
0
220
0
230
1
0
LINE
5
AC
100
AcDbEntity
8
1
62
256
6
ByLayer
370
18
48
1
60
1
100
AcDbLine
10
-66.960784
20
12.499998
30
0
11
-66.5
21
16
31
0
39
0
210
0
220
0
230
1
0
LINE
5
AD
100
AcDbEntity
8
1
62
256
6
ByLayer
370
18
48
1
60
1
100
AcDbLine
10
-66.5
20
-16
30
0
11
-66.960784
21
-12.500002
31
0
39
0
210
0
220
0
230
1
0
LINE
5
AE
100
AcDbEntity
8
1
62
256
6
ByLayer
370
18
48
1
60
1
100
AcDbLine
10
-66.960784
20
-12.500002
30
0
11
-66.039216
21
-12.499998
31
0
39
0
210
0
220
0
230
1
0
LINE
5
AF
100
AcDbEntity
8
1
62
256
6
ByLayer
370
18
48
1
60
1
100
AcDbLine
10
-66.039216
20
-12.499998
30
0
11
-66.5
21
-16
31
0
39
0
210
0
220
0
230
1
0
LINE
5
B0
100
AcDbEntity
8
2
62
256
6
ByLayer
370
13
48
1
60
0
100
AcDbLine
10
117.7
20
-12
30
0
11
117.7
21
41.340455
31
0
39
0
210
0
220
0
230
1
0
LINE
5
B2
100
AcDbEntity
8
2
62
256
6
ByLayer
370
13
48
1
60
0
100
AcDbLine
10
107.419857
20
12
30
0
11
119.7
21
12
31
0
39
0
210
0
220
0
230
1
0
LINE
5
B3
100
AcDbEntity
8
2
62
256
6
ByLayer
370
13
48
1
60
0
100
AcDbLine
10
107.419857
20
-12
30
0
11
119.7
21
-12
31
0
39
0
210
0
220
0
230
1
0
LINE
5
B4
100
AcDbEntity
8
1
62
256
6
ByLayer
370
18
48
1
60
1
100
AcDbLine
10
117.7
20
12
30
0
11
118.160784
21
8.500002
31
0
39
0
210
0
220
0
230
1
0
LINE
5
B5
100
AcDbEntity
8
1
62
256
6
ByLayer
370
18
48
1
60
1
100
AcDbLine
10
118.160784
20
8.500002
30
0
11
117.239216
21
8.499998
31
0
39
0
210
0
220
0
230
1
0
LINE
5
B6
100
AcDbEntity
8
1
62
256
6
ByLayer
370
18
48
1
60
1
100
AcDbLine
10
117.239216
20
8.499998
30
0
11
117.7
21
12
31
0
39
0
210
0
220
0
230
1
0
LINE
5
B7
100
AcDbEntity
8
1
62
256
6
ByLayer
370
18
48
1
60
1
100
AcDbLine
10
117.7
20
-12
30
0
11
117.239216
21
-8.500002
31
0
39
0
210
0
220
0
230
1
0
LINE
5
B8
100
AcDbEntity
8
1
62
256
6
ByLayer
370
18
48
1
60
1
100
AcDbLine
10
117.239216
20
-8.500002
30
0
11
118.160784
21
-8.499998
31
0
39
0
210
0
220
0
230
1
0
LINE
5
B9
100
AcDbEntity
8
1
62
256
6
ByLayer
370
18
48
1
60
1
100
AcDbLine
10
118.160784
20
-8.499998
30
0
11
117.7
21
-12
31
0
39
0
210
0
220
0
230
1
0
LINE
5
BA
100
AcDbEntity
8
SK2
62
256
6
ByLayer
370
13
48
1
60
0
100
AcDbLine
10
110.742957
20
-1.491762
30
0
11
117.382423
21
-19.733545
31
0
39
0
210
0
220
0
230
1
0
LINE
5
BB
100
AcDbEntity
8
SK2
62
256
6
ByLayer
370
13
48
1
60
0
100
AcDbLine
10
110.742957
20
1.491762
30
0
11
117.382423
21
19.733545
31
0
39
0
210
0
220
0
230
1
0
LINE
5
BC
100
AcDbEntity
8
1
62
256
6
ByLayer
370
18
48
1
60
1
100
AcDbLine
10
116.698383
20
-17.85416
30
0
11
119.751575
21
-16.082064
31
0
39
0
210
0
220
0
230
1
0
LINE
5
BD
100
AcDbEntity
8
1
62
256
6
ByLayer
370
18
48
1
60
1
100
AcDbLine
10
119.751575
20
-16.082064
30
0
11
120.106196
21
-16.93267
31
0
39
0
210
0
220
0
230
1
0
LINE
5
BE
100
AcDbEntity
8
1
62
256
6
ByLayer
370
18
48
1
60
1
100
AcDbLine
10
120.106196
20
-16.93267
30
0
11
116.698383
21
-17.85416
31
0
39
0
210
0
220
0
230
1
0
LINE
5
BF
100
AcDbEntity
8
1
62
256
6
ByLayer
370
18
48
1
60
1
100
AcDbLine
10
116.698383
20
17.85416
30
0
11
120.106193
21
16.932671
31
0
39
0
210
0
220
0
230
1
0
LINE
5
C0
100
AcDbEntity
8
1
62
256
6
ByLayer
370
18
48
1
60
1
100
AcDbLine
10
120.106193
20
16.932671
30
0
11
119.751579
21
16.082063
31
0
39
0
210
0
220
0
230
1
0
LINE
5
C1
100
AcDbEntity
8
1
62
256
6
ByLayer
370
18
48
1
60
1
100
AcDbLine
10
119.751579
20
16.082063
30
0
11
116.698383
21
17.85416
31
0
39
0
210
0
220
0
230
1
0
LINE
5
146
100
AcDbEntity
8
1
62
256
6
ByLayer
370
18
48
1
60
1
100
AcDbLine
10
-66.5
20
16
30
0
11
-66.039216
21
12.500002
31
0
39
0
210
0
220
0
230
1
0
LINE
5
147
100
AcDbEntity
8
1
62
256
6
ByLayer
370
18
48
1
60
1
100
AcDbLine
10
-66.039216
20
12.500002
30
0
11
-66.960784
21
12.499998
31
0
39
0
210
0
220
0
230
1
0
LINE
5
148
100
AcDbEntity
8
1
62
256
6
ByLayer
370
18
48
1
60
1
100
AcDbLine
10
-66.960784
20
12.499998
30
0
11
-66.5
21
16
31
0
39
0
210
0
220
0
230
1
0
LINE
5
14A
100
AcDbEntity
8
1
62
256
6
ByLayer
370
18
48
1
60
1
100
AcDbLine
10
-66.5
20
-16
30
0
11
-66.960784
21
-12.500002
31
0
39
0
210
0
220
0
230
1
0
LINE
5
14B
100
AcDbEntity
8
1
62
256
6
ByLayer
370
18
48
1
60
1
100
AcDbLine
10
-66.960784
20
-12.500002
30
0
11
-66.039216
21
-12.499998
31
0
39
0
210
0
220
0
230
1
0
LINE
5
14C
100
AcDbEntity
8
1
62
256
6
ByLayer
370
18
48
1
60
1
100
AcDbLine
10
-66.039216
20
-12.499998
30
0
11
-66.5
21
-16
31
0
39
0
210
0
220
0
230
1
0
LINE
5
150
100
AcDbEntity
8
1
62
256
6
ByLayer
370
18
48
1
60
1
100
AcDbLine
10
117.7
20
12
30
0
11
118.160784
21
8.500002
31
0
39
0
210
0
220
0
230
1
0
LINE
5
151
100
AcDbEntity
8
1
62
256
6
ByLayer
370
18
48
1
60
1
100
AcDbLine
10
118.160784
20
8.500002
30
0
11
117.239216
21
8.499998
31
0
39
0
210
0
220
0
230
1
0
LINE
5
152
100
AcDbEntity
8
1
62
256
6
ByLayer
370
18
48
1
60
1
100
AcDbLine
10
117.239216
20
8.499998
30
0
11
117.7
21
12
31
0
39
0
210
0
220
0
230
1
0
LINE
5
154
100
AcDbEntity
8
1
62
256
6
ByLayer
370
18
48
1
60
1
100
AcDbLine
10
117.7
20
-12
30
0
11
117.239216
21
-8.500002
31
0
39
0
210
0
220
0
230
1
0
LINE
5
155
100
AcDbEntity
8
1
62
256
6
ByLayer
370
18
48
1
60
1
100
AcDbLine
10
117.239216
20
-8.500002
30
0
11
118.160784
21
-8.499998
31
0
39
0
210
0
220
0
230
1
0
LINE
5
156
100
AcDbEntity
8
1
62
256
6
ByLayer
370
18
48
1
60
1
100
AcDbLine
10
118.160784
20
-8.499998
30
0
11
117.7
21
-12
31
0
39
0
210
0
220
0
230
1
0
LINE
5
159
100
AcDbEntity
8
1
62
256
6
ByLayer
370
18
48
1
60
1
100
AcDbLine
10
116.698383
20
-17.85416
30
0
11
119.751575
21
-16.082064
31
0
39
0
210
0
220
0
230
1
0
LINE
5
15A
100
AcDbEntity
8
1
62
256
6
ByLayer
370
18
48
1
60
1
100
AcDbLine
10
119.751575
20
-16.082064
30
0
11
120.106196
21
-16.93267
31
0
39
0
210
0
220
0
230
1
0
LINE
5
15B
100
AcDbEntity
8
1
62
256
6
ByLayer
370
18
48
1
60
1
100
AcDbLine
10
120.106196
20
-16.93267
30
0
11
116.698383
21
-17.85416
31
0
39
0
210
0
220
0
230
1
0
LINE
5
15D
100
AcDbEntity
8
1
62
256
6
ByLayer
370
18
48
1
60
1
100
AcDbLine
10
116.698383
20
17.85416
30
0
11
120.106193
21
16.932671
31
0
39
0
210
0
220
0
230
1
0
LINE
5
15E
100
AcDbEntity
8
1
62
256
6
ByLayer
370
18
48
1
60
1
100
AcDbLine
10
120.106193
20
16.932671
30
0
11
119.751579
21
16.082063
31
0
39
0
210
0
220
0
230
1
0
LINE
5
15F
100
AcDbEntity
8
1
62
256
6
ByLayer
370
18
48
1
60
1
100
AcDbLine
10
119.751579
20
16.082063
30
0
11
116.698383
21
17.85416
31
0
39
0
210
0
220
0
230
1
0
MTEXT
5
142
100
AcDbEntity
8
SK2
62
256
6
ByLayer
370
18
48
1
60
0
100
AcDbMText
10
-67.841114
20
27.658438
30
0
210
0
220
0
230
1
1
%%c
40
3
41
0
44
1.084337
50
90
71
7
72
5
7
iso_b_vert
0
MTEXT
5
145
100
AcDbEntity
8
SK2
62
256
6
ByLayer
370
18
48
1
60
0
100
AcDbMText
10
-67.841114
20
33.635
30
0
210
0
220
0
230
1
1
\W0.7513;32.000
40
3
41
0
44
1.084337
50
90
71
7
72
5
7
iso_b_vert
0
MTEXT
5
14E
100
AcDbEntity
8
2
62
256
6
ByLayer
370
18
48
1
60
0
100
AcDbMText
10
116.358886
20
23.658438
30
0
210
0
220
0
230
1
1
%%c
40
3
41
0
44
1.084337
50
90
71
7
72
5
7
iso_b_vert
0
MTEXT
5
14F
100
AcDbEntity
8
2
62
256
6
ByLayer
370
18
48
1
60
0
100
AcDbMText
10
116.358886
20
29.635
30
0
210
0
220
0
230
1
1
\W0.7728;24.000
40
3
41
0
44
1.084337
50
90
71
7
72
5
7
iso_b_vert
0
MTEXT
5
158
100
AcDbEntity
8
SK2
62
256
6
ByLayer
370
18
48
1
60
0
100
AcDbMText
10
130.109114
20
3.734657
30
0
210
0
220
0
230
1
1
\W0.7071;140%%d
40
3
41
0
44
1.084337
50
270
71
7
72
5
7
iso_b_vert
0
MTEXT
5
161
100
AcDbEntity
8
SK6
62
256
6
ByLayer
370
18
48
1
60
0
100
AcDbMText
10
0.496974
20
-67.114886
30
0
210
0
220
0
230
1
1
\W0.7811;H85324.0
40
3
41
0
44
1.084337
50
0
71
7
72
5
7
iso_b_vert
0
HATCH
5
149
100
AcDbEntity
8
SK2
62
256
6
ByLayer
370
13
48
1
60
0
100
AcDbHatch
10
0
20
0
30
0
210
0
220
0
230
1
2
ANSI31
70
0
71
0
91
1
92
5
93
3
72
1
10
-66.5
20
16
11
-66.0392162584472
21
12.5000016925532
72
1
10
-66.0392162584472
20
12.5000016925532
11
-66.9607837415528
21
12.4999983074468
72
1
10
-66.9607837415528
20
12.4999983074468
11
-66.5
21
16
97
0
75
0
76
1
52
0
41
0.0062
77
0
78
1
53
45
43
0
44
0
45
-0.0139193969876572
46
0.0139193969876572
79
0
47
0
98
1
10
0
20
0
0
HATCH
5
14D
100
AcDbEntity
8
SK2
62
256
6
ByLayer
370
13
48
1
60
0
100
AcDbHatch
10
0
20
0
30
0
210
0
220
0
230
1
2
ANSI31
70
0
71
0
91
1
92
5
93
3
72
1
10
-66.5
20
-16
11
-66.9607837415528
21
-12.5000016925532
72
1
10
-66.9607837415528
20
-12.5000016925532
11
-66.0392162584472
21
-12.4999983074468
72
1
10
-66.0392162584472
20
-12.4999983074468
11
-66.5
21
-16
97
0
75
0
76
1
52
0
41
0.0062
77
0
78
1
53
45
43
0
44
0
45
-0.0139193969876572
46
0.0139193969876572
79
0
47
0
98
1
10
0
20
0
0
HATCH
5
153
100
AcDbEntity
8
2
62
256
6
ByLayer
370
13
48
1
60
0
100
AcDbHatch
10
0
20
0
30
0
210
0
220
0
230
1
2
ANSI31
70
0
71
0
91
1
92
5
93
3
72
1
10
117.7
20
12
11
118.160783741553
21
8.50000169255318
72
1
10
118.160783741553
20
8.50000169255318
11
117.239216258447
21
8.49999830744682
72
1
10
117.239216258447
20
8.49999830744682
11
117.7
21
12
97
0
75
0
76
1
52
0
41
0.0062
77
0
78
1
53
45
43
0
44
0
45
-0.0139193969876572
46
0.0139193969876572
79
0
47
0
98
1
10
0
20
0
0
HATCH
5
157
100
AcDbEntity
8
2
62
256
6
ByLayer
370
13
48
1
60
0
100
AcDbHatch
10
0
20
0
30
0
210
0
220
0
230
1
2
ANSI31
70
0
71
0
91
1
92
5
93
3
72
1
10
117.7
20
-12
11
117.239216258447
21
-8.50000169255318
72
1
10
117.239216258447
20
-8.50000169255318
11
118.160783741553
21
-8.49999830744682
72
1
10
118.160783741553
20
-8.49999830744682
11
117.7
21
-12
97
0
75
0
76
1
52
0
41
0.0062
77
0
78
1
53
45
43
0
44
0
45
-0.0139193969876572
46
0.0139193969876572
79
0
47
0
98
1
10
0
20
0
0
HATCH
5
15C
100
AcDbEntity
8
SK2
62
256
6
ByLayer
370
13
48
1
60
0
100
AcDbHatch
10
0
20
0
30
0
210
0
220
0
230
1
2
ANSI31
70
0
71
0
91
1
92
5
93
3
72
1
10
116.698382723188
20
-17.8541597949322
11
119.751575425693
21
-16.0820638240608
72
1
10
119.751575425693
20
-16.0820638240608
11
120.106195833975
21
-16.9326700737196
72
1
10
120.106195833975
20
-16.9326700737196
11
116.698382723188
21
-17.8541597949322
97
0
75
0
76
1
52
0
41
0.0062
77
0
78
1
53
45
43
0
44
0
45
-0.0139193969876572
46
0.0139193969876572
79
0
47
0
98
1
10
0
20
0
0
HATCH
5
160
100
AcDbEntity
8
SK2
62
256
6
ByLayer
370
13
48
1
60
0
100
AcDbHatch
10
0
20
0
30
0
210
0
220
0
230
1
2
ANSI31
70
0
71
0
91
1
92
5
93
3
72
1
10
116.698382723188
20
17.8541597949322
11
120.106192709519
21
16.9326713763016
72
1
10
120.106192709519
20
16.9326713763016
11
119.751578550149
21
16.0820625214787
72
1
10
119.751578550149
20
16.0820625214787
11
116.698382723188
21
17.8541597949322
97
0
75
0
76
1
52
0
41
0.0062
77
0
78
1
53
45
43
0
44
0
45
-0.0139193969876572
46
0.0139193969876572
79
0
47
0
98
1
10
0
20
0
0
DIMENSION
5
164
100
AcDbEntity
8
SK2
62
256
6
ByLayer
370
18
48
1
60
0
100
AcDbDimension
2
_U0
10
110.2
20
-45.952229
30
0
11
25.1
21
-45.952229
31
0
70
32
71
1
72
1
41
1
210
0
220
0
230
1
3
Standard
100
AcDbAlignedDimension
13
-60
23
-16
33
0
14
110.2
24
0
34
0
50
0
100
AcDbRotatedDimension
1001
ACAD
1000
DSTYLE
1002
{
1070
   371
1070
    13
1070
   372
1070
    13
1070
     3
1000

1070
   170
1070
     0
1070
   144
1040
1.0
1070
   277
1070
     2
1070
   284
1070
     8
1070
   278
1070
    46
1070
   146
1040
1.166667
1070
   345
1005
16
1070
   347
1005
16
1070
   346
1005
16
1070
   344
1005
0
1070
   343
1005
0
1070
   172
1070
     1
1070
    76
1070
     0
1070
    75
1070
     0
1070
   282
1070
     0
1070
   281
1070
     0
1070
    71
1070
     0
1070
    74
1070
     0
1070
   279
1070
     0
1070
   173
1070
     1
1070
   340
1005
143
1070
   271
1070
     2
1070
   272
1070
     3
1070
    77
1070
     1
1070
    73
1070
     1
1070
   171
1070
     3
1070
   274
1070
     4
1070
   177
1070
     2
1070
   176
1070
     2
1070
   178
1070
     2
1070
    78
1070
     8
1070
    48
1040
-0.1
1070
    41
1040
3.5
1070
   147
1040
1.5
1070
    42
1040
1.5875
1070
    44
1040
2.0
1070
   140
1040
3.0
1002
}
1001
ACAD_DSTYLE_DIM_LINETYPE
1070
   380
1005
16
1001
ACAD_DSTYLE_DIM_EXT1_LINETYPE
1070
   381
1005
16
1001
ACAD_DSTYLE_DIM_EXT2_LINETYPE
1070
   382
1005
16
0
DIMENSION
5
17D
100
AcDbEntity
8
SK2
62
256
6
ByLayer
370
18
48
1
60
0
100
AcDbDimension
2
_U1
10
3
20
-35.952229
30
0
11
56.6
21
-35.952229
31
0
70
32
71
1
72
1
41
1
210
0
220
0
230
1
3
Standard
100
AcDbAlignedDimension
13
110.2
23
0
33
0
14
3
24
-12
34
0
50
0
100
AcDbRotatedDimension
1001
ACAD
1000
DSTYLE
1002
{
1070
   371
1070
    13
1070
   372
1070
    13
1070
     3
1000

1070
   170
1070
     0
1070
   144
1040
1.0
1070
   277
1070
     2
1070
   284
1070
     8
1070
   278
1070
    46
1070
   146
1040
1.166667
1070
   345
1005
16
1070
   347
1005
16
1070
   346
1005
16
1070
   344
1005
0
1070
   343
1005
0
1070
   172
1070
     1
1070
    76
1070
     0
1070
    75
1070
     0
1070
   282
1070
     0
1070
   281
1070
     0
1070
    71
1070
     0
1070
    74
1070
     0
1070
   279
1070
     0
1070
   173
1070
     1
1070
   340
1005
143
1070
   271
1070
     2
1070
   272
1070
     3
1070
    77
1070
     1
1070
    73
1070
     1
1070
   171
1070
     3
1070
   274
1070
     4
1070
   177
1070
     2
1070
   176
1070
     2
1070
   178
1070
     2
1070
    78
1070
     8
1070
    48
1040
-0.1
1070
    41
1040
3.5
1070
   147
1040
1.5
1070
    42
1040
1.5875
1070
    44
1040
2.0
1070
   140
1040
3.0
1002
}
1001
ACAD_DSTYLE_DIM_LINETYPE
1070
   380
1005
16
1001
ACAD_DSTYLE_DIM_EXT1_LINETYPE
1070
   381
1005
16
1001
ACAD_DSTYLE_DIM_EXT2_LINETYPE
1070
   382
1005
16
0
DIMENSION
5
195
100
AcDbEntity
8
SK2
62
256
6
ByLayer
370
18
48
1
60
0
100
AcDbDimension
2
_U2
10
0
20
-35.952229
30
0
11
-30
21
-35.952229
31
0
70
32
71
1
72
1
41
1
210
0
220
0
230
1
3
Standard
100
AcDbAlignedDimension
13
-60
23
-16
33
0
14
0
24
-16
34
0
50
0
100
AcDbRotatedDimension
1001
ACAD
1000
DSTYLE
1002
{
1070
   371
1070
    13
1070
   372
1070
    13
1070
     3
1000

1070
   170
1070
     0
1070
   144
1040
1.0
1070
   277
1070
     2
1070
   284
1070
     8
1070
   278
1070
    46
1070
   146
1040
1.166667
1070
   345
1005
16
1070
   347
1005
16
1070
   346
1005
16
1070
   344
1005
0
1070
   343
1005
0
1070
   172
1070
     1
1070
    76
1070
     0
1070
    75
1070
     0
1070
   282
1070
     0
1070
   281
1070
     0
1070
    71
1070
     0
1070
    74
1070
     0
1070
   279
1070
     0
1070
   173
1070
     1
1070
   340
1005
143
1070
   271
1070
     2
1070
   272
1070
     3
1070
    77
1070
     1
1070
    73
1070
     1
1070
   171
1070
     3
1070
   274
1070
     4
1070
   177
1070
     2
1070
   176
1070
     2
1070
   178
1070
     2
1070
    78
1070
     8
1070
    48
1040
-0.1
1070
    41
1040
3.5
1070
   147
1040
1.5
1070
    42
1040
1.5875
1070
    44
1040
2.0
1070
   140
1040
3.0
1002
}
1001
ACAD_DSTYLE_DIM_LINETYPE
1070
   380
1005
16
1001
ACAD_DSTYLE_DIM_EXT1_LINETYPE
1070
   381
1005
16
1001
ACAD_DSTYLE_DIM_EXT2_LINETYPE
1070
   382
1005
16
0
DIMENSION
5
1AD
100
AcDbEntity
8
SK2
62
256
6
ByLayer
370
18
48
1
60
0
100
AcDbDimension
2
_U3
10
24
20
32.952229
30
0
11
67.1
21
32.952229
31
0
70
32
71
1
72
1
41
1
210
0
220
0
230
1
3
Standard
100
AcDbAlignedDimension
13
110.2
23
0
33
0
14
24
24
12
34
0
50
0
100
AcDbRotatedDimension
1001
ACAD
1000
DSTYLE
1002
{
1070
   371
1070
    13
1070
   372
1070
    13
1070
     3
1000

1070
   170
1070
     0
1070
   144
1040
1.0
1070
   277
1070
     2
1070
   284
1070
     8
1070
   278
1070
    46
1070
   146
1040
1.166667
1070
   345
1005
16
1070
   347
1005
16
1070
   346
1005
16
1070
   344
1005
0
1070
   343
1005
0
1070
   172
1070
     1
1070
    76
1070
     0
1070
    75
1070
     0
1070
   282
1070
     0
1070
   281
1070
     0
1070
    71
1070
     0
1070
    74
1070
     0
1070
   279
1070
     0
1070
   173
1070
     1
1070
   340
1005
143
1070
   271
1070
     2
1070
   272
1070
     3
1070
    77
1070
     1
1070
    73
1070
     1
1070
   171
1070
     3
1070
   274
1070
     4
1070
   177
1070
     2
1070
   176
1070
     2
1070
   178
1070
     2
1070
    78
1070
     8
1070
    48
1040
-0.1
1070
    41
1040
3.5
1070
   147
1040
1.5
1070
    42
1040
1.5875
1070
    44
1040
2.0
1070
   140
1040
3.0
1002
}
1001
ACAD_DSTYLE_DIM_LINETYPE
1070
   380
1005
16
1001
ACAD_DSTYLE_DIM_EXT1_LINETYPE
1070
   381
1005
16
1001
ACAD_DSTYLE_DIM_EXT2_LINETYPE
1070
   382
1005
16
0
ENDSEC
0
SECTION
2
OBJECTS
0
DICTIONARY
5
235
330
0
100
AcDbDictionary
280
0
281
1
3
ACAD_GROUP
350
236
3
ACAD_MLINESTYLE
350
237
0
DICTIONARY
5
236
330
0
100
AcDbDictionary
280
0
281
1
0
DICTIONARY
5
237
330
0
100
AcDbDictionary
280
0
281
1
3
Standard
350
18
0
MLINESTYLE
5
18
330
237
100
AcDbMlineStyle
2
Standard
70
0
3

62
256
51
90
52
90
71
2
49
-0.5
62
256
6
ByLayer
49
0.5
62
256
6
ByLayer
0
RASTERVARIABLES
5
223
330

100
AcDbRasterVariables
90
0
70
1
71
1
72
1
0
ENDSEC
0
EOF
