0
SECTION
2
HEADER
9
$ACADVER
1
AC1015
9
$DWGCODEPAGE
3
ANSI_1252
9
$HANDSEED
5
238
9
$ANGBASE
50
0
9
$ANGDIR
70
0
9
$ATTMODE
70
1
9
$AUNITS
70
0
9
$AUPREC
70
0
9
$CECOLOR
62
256
9
$CELTSCALE
40
1
9
$CELTYPE
6
ByLayer
9
$CELWEIGHT
370
18
9
$CLAYER
8
0
9
$CMLJUST
70
0
9
$CMLSCALE
40
1
9
$CMLSTYLE
2
Standard
9
$DIMSTYLE
2
Standard
9
$TEXTSIZE
40
0.2
9
$TEXTSTYLE
7
Standard
9
$LUNITS
70
2
9
$LUPREC
70
4
9
$EXTNAMES
290
1
9
$INSUNITS
70
4
9
$LTSCALE
40
1
9
$LWDISPLAY
290
1
9
$PDMODE
70
0
9
$PDSIZE
40
0
9
$PLINEGEN
70
0
0
ENDSEC
0
SECTION
2
CLASSES
0
CLASS
1
RASTERVARIABLES
2
AcDbRasterVariables
3
ISM
90
0
280
0
281
0
0
ENDSEC
0
SECTION
2
TABLES
0
TABLE
2
VPORT
5
22e
100
AcDbSymbolTable
0
VPORT
5
1
100
AcDbSymbolTableRecord
100
AcDbViewportTableRecord
2
*Active
70
0
10
0
20
0
11
1
21
1
12
-1
22
1
13
0
23
0
14
0.5
24
0.5
15
10
25
10
16
0
26
0
36
1
17
0
27
0
37
0
0
ENDTAB
0
TABLE
2
LTYPE
5
22f
100
AcDbSymbolTable
0
LTYPE
5
14
100
AcDbSymbolTableRecord
100
AcDbLinetypeTableRecord
70
0
2
ByBlock
3

72
65
73
0
40
0
0
LTYPE
5
15
100
AcDbSymbolTableRecord
100
AcDbLinetypeTableRecord
70
0
2
ByLayer
3

72
65
73
0
40
0
0
LTYPE
5
16
100
AcDbSymbolTableRecord
100
AcDbLinetypeTableRecord
70
0
2
Continuous
3
Solid line
72
65
73
0
40
0
0
LTYPE
5
6E
100
AcDbSymbolTableRecord
100
AcDbLinetypeTableRecord
70
0
2
CENTER
3
____ _ ____ _ ____ _ ____
72
65
73
4
40
47.5
49
22
74
0
49
-8.5
74
0
49
8.5
74
0
49
-8.5
74
0
0
LTYPE
5
6F
100
AcDbSymbolTableRecord
100
AcDbLinetypeTableRecord
70
0
2
DASHED
3
__ __ __ __ __ __ __ __ __
72
65
73
2
40
25.72
49
12.86
74
0
49
-12.86
74
0
0
ENDTAB
0
TABLE
2
LAYER
5
230
100
AcDbSymbolTable
0
LAYER
5
10
100
AcDbSymbolTableRecord
100
AcDbLayerTableRecord
2
0
70
0
62
7
6
Continuous
290
1
370
-3
390
0
0
LAYER
5
71
100
AcDbSymbolTableRecord
100
AcDbLayerTableRecord
2
80
70
0
62
-6
6
Continuous
290
1
370
-3
390
0
0
LAYER
5
73
100
AcDbSymbolTableRecord
100
AcDbLayerTableRecord
2
81
70
0
62
-3
6
Continuous
290
1
370
-3
390
0
0
LAYER
5
75
100
AcDbSymbolTableRecord
100
AcDbLayerTableRecord
2
1
70
0
62
4
6
Continuous
290
1
370
-3
390
0
0
LAYER
5
7F
100
AcDbSymbolTableRecord
100
AcDbLayerTableRecord
2
4
70
0
62
-2
6
CENTER
290
1
370
-3
390
0
0
LAYER
5
B0
100
AcDbSymbolTableRecord
100
AcDbLayerTableRecord
2
2
70
0
62
7
6
Continuous
290
1
370
-3
390
0
0
LAYER
5
15D
100
AcDbSymbolTableRecord
100
AcDbLayerTableRecord
2
Defpoints
70
0
62
7
6
Continuous
290
0
370
-3
390
0
0
LAYER
5
21a
100
AcDbSymbolTableRecord
100
AcDbLayerTableRecord
2
SK4
70
0
62
2
6
CENTER
290
1
370
-3
390
0
0
LAYER
5
21b
100
AcDbSymbolTableRecord
100
AcDbLayerTableRecord
2
SK1
70
0
62
4
6
Continuous
290
1
370
-3
390
0
0
LAYER
5
21c
100
AcDbSymbolTableRecord
100
AcDbLayerTableRecord
2
SK2
70
0
62
7
6
Continuous
290
1
370
-3
390
0
0
LAYER
5
21d
100
AcDbSymbolTableRecord
100
AcDbLayerTableRecord
2
SK6
70
0
62
5
6
Continuous
290
1
370
-3
390
0
0
ENDTAB
0
TABLE
2
STYLE
5
231
100
AcDbSymbolTable
0
STYLE
5
11
100
AcDbSymbolTableRecord
100
AcDbTextStyleTableRecord
2
Standard
3
txt
70
0
71
0
40
0
41
1
42
0
50
0
0
STYLE
5
139
100
AcDbSymbolTableRecord
100
AcDbTextStyleTableRecord
2
iso_b_vert
3
simplex.shx
70
0
71
0
40
0
41
1
42
0
50
0
0
STYLE
5
13A
100
AcDbSymbolTableRecord
100
AcDbTextStyleTableRecord
2
DWGDirectTextStyle
3
simplex
70
0
71
0
40
0
41
1
42
0
50
0
0
ENDTAB
0
TABLE
2
DIMSTYLE
5
232
100
AcDbSymbolTable
100
AcDbDimStyleTable
0
DIMSTYLE
105
27
100
AcDbSymbolTableRecord
100
AcDbDimStyleTableRecord
2
Standard
70
0
3
<>
41
0.18
42
0.0625
44
0.18
140
0.18
147
0.09
73
0
74
0
77
1
271
2
275
0
278
52
280
0
340
11
0
ENDTAB
0
TABLE
2
VIEW
5
233
100
AcDbSymbolTable
0
ENDTAB
0
TABLE
2
UCS
5
234
100
AcDbSymbolTable
0
ENDTAB
0
TABLE
2
APPID
5
235
100
AcDbSymbolTable
0
APPID
5
12
100
AcDbSymbolTableRecord
100
AcDbRegAppTableRecord
2
ACAD
70
0
0
APPID
5
159
100
AcDbSymbolTableRecord
100
AcDbRegAppTableRecord
2
ACAD_DSTYLE_DIMBREAK
70
0
0
APPID
5
1D9
100
AcDbSymbolTableRecord
100
AcDbRegAppTableRecord
2
ACAD_DSTYLE_DIM_LINETYPE
70
0
0
APPID
5
1DA
100
AcDbSymbolTableRecord
100
AcDbRegAppTableRecord
2
ACAD_DSTYLE_DIM_EXT1_LINETYPE
70
0
0
APPID
5
1DB
100
AcDbSymbolTableRecord
100
AcDbRegAppTableRecord
2
ACAD_DSTYLE_DIM_EXT2_LINETYPE
70
0
0
APPID
5
216
100
AcDbSymbolTableRecord
100
AcDbRegAppTableRecord
2
ACAD_MLEADERVER
70
0
0
ENDTAB
0
TABLE
2
BLOCK_RECORD
5
236
100
AcDbSymbolTable
0
BLOCK_RECORD
5
1F
100
AcDbSymbolTableRecord
100
AcDbBlockTableRecord
2
*Model_Space
340
0
70
0
0
BLOCK_RECORD
5
1B
100
AcDbSymbolTableRecord
100
AcDbBlockTableRecord
2
*Paper_Space
340
0
70
0
0
BLOCK_RECORD
5
23
100
AcDbSymbolTableRecord
100
AcDbBlockTableRecord
2
*Paper_Space0
340
0
70
0
0
BLOCK_RECORD
5
15E
100
AcDbSymbolTableRecord
100
AcDbBlockTableRecord
2
*D1
340
0
70
0
0
BLOCK_RECORD
5
16A
100
AcDbSymbolTableRecord
100
AcDbBlockTableRecord
2
_U0
340
0
70
0
0
BLOCK_RECORD
5
176
100
AcDbSymbolTableRecord
100
AcDbBlockTableRecord
2
*D3
340
0
70
0
0
BLOCK_RECORD
5
182
100
AcDbSymbolTableRecord
100
AcDbBlockTableRecord
2
_U1
340
0
70
0
0
BLOCK_RECORD
5
18E
100
AcDbSymbolTableRecord
100
AcDbBlockTableRecord
2
*D5
340
0
70
0
0
BLOCK_RECORD
5
19A
100
AcDbSymbolTableRecord
100
AcDbBlockTableRecord
2
_U2
340
0
70
0
0
BLOCK_RECORD
5
1A6
100
AcDbSymbolTableRecord
100
AcDbBlockTableRecord
2
*D7
340
0
70
0
0
BLOCK_RECORD
5
1B2
100
AcDbSymbolTableRecord
100
AcDbBlockTableRecord
2
_U3
340
0
70
0
0
ENDTAB
0
ENDSEC
0
SECTION
2
BLOCKS
0
BLOCK
5
20
100
AcDbEntity
8
0
100
AcDbBlockBegin
2
*Model_Space
70
0
10
0
20
0
30
0
3
*Model_Space
0
ENDBLK
5
21
100
AcDbEntity
8
0
100
AcDbBlockEnd
0
BLOCK
5
1C
100
AcDbEntity
8
0
100
AcDbBlockBegin
2
*Paper_Space
70
0
10
0
20
0
30
0
3
*Paper_Space
0
ENDBLK
5
1D
100
AcDbEntity
8
0
100
AcDbBlockEnd
0
BLOCK
5
24
100
AcDbEntity
8
0
100
AcDbBlockBegin
2
*Paper_Space0
70
0
10
0
20
0
30
0
3
*Paper_Space0
0
ENDBLK
5
25
100
AcDbEntity
8
0
100
AcDbBlockEnd
0
BLOCK
5
15F
100
AcDbEntity
8
0
100
AcDbBlockBegin
2
*D1
70
1
10
0
20
0
30
0
3
*D1
0
LINE
5
161
100
AcDbEntity
8
0
62
256
6
ByLayer
370
-2
48
1
60
0
100
AcDbLine
10
-56
20
-14.0875
30
0
11
-56
21
-47.952229
31
0
39
0
210
0
220
0
230
1
0
LINE
5
162
100
AcDbEntity
8
0
62
256
6
ByLayer
370
-2
48
1
60
0
100
AcDbLine
10
100.5
20
-1.5875
30
0
11
100.5
21
-47.952229
31
0
39
0
210
0
220
0
230
1
0
LINE
5
163
100
AcDbEntity
8
0
62
256
6
ByLayer
370
-2
48
1
60
0
100
AcDbLine
10
-52.5
20
-45.952229
30
0
11
97
21
-45.952229
31
0
39
0
210
0
220
0
230
1
0
SOLID
5
164
100
AcDbEntity
8
0
62
256
6
ByLayer
370
-1
48
1
60
0
100
AcDbTrace
10
-52.5
20
-45.368896
30
0
11
-52.5
21
-46.535563
31
0
12
-56
22
-45.952229
32
0
13
-56
23
-45.952229
33
0
39
0
210
0
220
0
230
1
0
SOLID
5
165
100
AcDbEntity
8
0
62
256
6
ByLayer
370
-1
48
1
60
0
100
AcDbTrace
10
97
20
-46.535563
30
0
11
97
21
-45.368896
31
0
12
100.5
22
-45.952229
32
0
13
100.5
23
-45.952229
33
0
39
0
210
0
220
0
230
1
0
MTEXT
5
166
100
AcDbEntity
8
0
62
256
6
ByLayer
370
18
48
1
60
0
100
AcDbMText
10
22.25
20
-39.952229
30
0
210
0
220
0
230
1
1
\A1;156.5
40
3
41
0
44
1
50
0
71
5
72
5
7
iso_b_vert
0
POINT
5
167
100
AcDbEntity
8
Defpoints
62
0
6
ByLayer
370
-1
48
1
60
0
100
AcDbPoint
10
-56
20
-12.5
30
0
39
0
210
0
220
0
230
1
50
360
0
POINT
5
168
100
AcDbEntity
8
Defpoints
62
0
6
ByLayer
370
-1
48
1
60
0
100
AcDbPoint
10
100.5
20
0
30
0
39
0
210
0
220
0
230
1
50
360
0
POINT
5
169
100
AcDbEntity
8
Defpoints
62
0
6
ByLayer
370
-1
48
1
60
0
100
AcDbPoint
10
100.5
20
-45.952229
30
0
39
0
210
0
220
0
230
1
50
360
0
ENDBLK
5
160
100
AcDbEntity
8
0
100
AcDbBlockEnd
0
BLOCK
5
171
100
AcDbEntity
8
0
100
AcDbBlockBegin
2
_U0
70
0
10
0
20
0
30
0
3
_U0
0
MTEXT
5
16B
100
AcDbEntity
8
SK2
62
256
6
ByLayer
370
18
48
1
60
0
100
AcDbMText
10
17.021658
20
-45.067115
30
0
210
0
220
0
230
1
1
\W0.7022;156.50
40
3
41
0
44
1.084337
50
0
71
7
72
5
7
iso_b_vert
0
LINE
5
16C
100
AcDbEntity
8
SK2
62
256
6
ByLayer
370
13
48
1
60
0
100
AcDbLine
10
-56
20
-14.0875
30
0
11
-56
21
-47.952229
31
0
39
0
210
0
220
0
230
1
0
LINE
5
16D
100
AcDbEntity
8
SK2
62
256
6
ByLayer
370
13
48
1
60
0
100
AcDbLine
10
100.5
20
-1.5875
30
0
11
100.5
21
-47.952229
31
0
39
0
210
0
220
0
230
1
0
LINE
5
16E
100
AcDbEntity
8
SK2
62
256
6
ByLayer
370
13
48
1
60
0
100
AcDbLine
10
-56
20
-45.952229
30
0
11
100.5
21
-45.952229
31
0
39
0
210
0
220
0
230
1
0
SOLID
5
16F
100
AcDbEntity
8
SK2
62
256
6
ByLayer
370
18
48
1
60
0
100
AcDbTrace
10
-56
20
-45.952229
30
0
11
-52.500002
21
-45.491446
31
0
12
-52.499998
22
-46.413013
32
0
13
-52.499998
23
-46.413013
33
0
39
0
210
0
220
0
230
1
0
SOLID
5
170
100
AcDbEntity
8
SK2
62
256
6
ByLayer
370
18
48
1
60
0
100
AcDbTrace
10
100.5
20
-45.952229
30
0
11
97.000002
21
-46.413013
31
0
12
96.999998
22
-45.491446
32
0
13
96.999998
23
-45.491446
33
0
39
0
210
0
220
0
230
1
0
ENDBLK
5
172
100
AcDbEntity
8
0
100
AcDbBlockEnd
0
BLOCK
5
177
100
AcDbEntity
8
0
100
AcDbBlockBegin
2
*D3
70
1
10
0
20
0
30
0
3
*D3
0
LINE
5
179
100
AcDbEntity
8
0
62
256
6
ByLayer
370
-2
48
1
60
0
100
AcDbLine
10
100.5
20
-1.5875
30
0
11
100.5
21
-37.952229
31
0
39
0
210
0
220
0
230
1
0
LINE
5
17A
100
AcDbEntity
8
0
62
256
6
ByLayer
370
-2
48
1
60
0
100
AcDbLine
10
3
20
-12.0875
30
0
11
3
21
-37.952229
31
0
39
0
210
0
220
0
230
1
0
LINE
5
17B
100
AcDbEntity
8
0
62
256
6
ByLayer
370
-2
48
1
60
0
100
AcDbLine
10
97
20
-35.952229
30
0
11
6.5
21
-35.952229
31
0
39
0
210
0
220
0
230
1
0
SOLID
5
17C
100
AcDbEntity
8
0
62
256
6
ByLayer
370
-1
48
1
60
0
100
AcDbTrace
10
97
20
-36.535563
30
0
11
97
21
-35.368896
31
0
12
100.5
22
-35.952229
32
0
13
100.5
23
-35.952229
33
0
39
0
210
0
220
0
230
1
0
SOLID
5
17D
100
AcDbEntity
8
0
62
256
6
ByLayer
370
-1
48
1
60
0
100
AcDbTrace
10
6.5
20
-35.368896
30
0
11
6.5
21
-36.535563
31
0
12
3
22
-35.952229
32
0
13
3
23
-35.952229
33
0
39
0
210
0
220
0
230
1
0
MTEXT
5
17E
100
AcDbEntity
8
0
62
256
6
ByLayer
370
18
48
1
60
0
100
AcDbMText
10
51.75
20
-29.952229
30
0
210
0
220
0
230
1
1
\A1;97.5
40
3
41
0
44
1
50
0
71
5
72
5
7
iso_b_vert
0
POINT
5
17F
100
AcDbEntity
8
Defpoints
62
0
6
ByLayer
370
-1
48
1
60
0
100
AcDbPoint
10
100.5
20
0
30
0
39
0
210
0
220
0
230
1
50
360
0
POINT
5
180
100
AcDbEntity
8
Defpoints
62
0
6
ByLayer
370
-1
48
1
60
0
100
AcDbPoint
10
3
20
-10.5
30
0
39
0
210
0
220
0
230
1
50
360
0
POINT
5
181
100
AcDbEntity
8
Defpoints
62
0
6
ByLayer
370
-1
48
1
60
0
100
AcDbPoint
10
3
20
-35.952229
30
0
39
0
210
0
220
0
230
1
50
360
0
ENDBLK
5
178
100
AcDbEntity
8
0
100
AcDbBlockEnd
0
BLOCK
5
189
100
AcDbEntity
8
0
100
AcDbBlockBegin
2
_U1
70
0
10
0
20
0
30
0
3
_U1
0
MTEXT
5
183
100
AcDbEntity
8
SK2
62
256
6
ByLayer
370
18
48
1
60
0
100
AcDbMText
10
47.26763
20
-35.067115
30
0
210
0
220
0
230
1
1
\W0.7468;97.50
40
3
41
0
44
1.084337
50
0
71
7
72
5
7
iso_b_vert
0
LINE
5
184
100
AcDbEntity
8
SK2
62
256
6
ByLayer
370
13
48
1
60
0
100
AcDbLine
10
100.5
20
-1.5875
30
0
11
100.5
21
-37.952229
31
0
39
0
210
0
220
0
230
1
0
LINE
5
185
100
AcDbEntity
8
SK2
62
256
6
ByLayer
370
13
48
1
60
0
100
AcDbLine
10
3
20
-12.0875
30
0
11
3
21
-37.952229
31
0
39
0
210
0
220
0
230
1
0
LINE
5
186
100
AcDbEntity
8
SK2
62
256
6
ByLayer
370
13
48
1
60
0
100
AcDbLine
10
100.5
20
-35.952229
30
0
11
3
21
-35.952229
31
0
39
0
210
0
220
0
230
1
0
SOLID
5
187
100
AcDbEntity
8
SK2
62
256
6
ByLayer
370
18
48
1
60
0
100
AcDbTrace
10
100.5
20
-35.952229
30
0
11
97.000002
21
-36.413013
31
0
12
96.999998
22
-35.491446
32
0
13
96.999998
23
-35.491446
33
0
39
0
210
0
220
0
230
1
0
SOLID
5
188
100
AcDbEntity
8
SK2
62
256
6
ByLayer
370
18
48
1
60
0
100
AcDbTrace
10
3
20
-35.952229
30
0
11
6.499998
21
-35.491446
31
0
12
6.500002
22
-36.413013
32
0
13
6.500002
23
-36.413013
33
0
39
0
210
0
220
0
230
1
0
ENDBLK
5
18A
100
AcDbEntity
8
0
100
AcDbBlockEnd
0
BLOCK
5
18F
100
AcDbEntity
8
0
100
AcDbBlockBegin
2
*D5
70
1
10
0
20
0
30
0
3
*D5
0
LINE
5
191
100
AcDbEntity
8
0
62
256
6
ByLayer
370
-2
48
1
60
0
100
AcDbLine
10
-56
20
-14.0875
30
0
11
-56
21
-37.952229
31
0
39
0
210
0
220
0
230
1
0
LINE
5
192
100
AcDbEntity
8
0
62
256
6
ByLayer
370
-2
48
1
60
0
100
AcDbLine
10
0
20
-14.0875
30
0
11
0
21
-37.952229
31
0
39
0
210
0
220
0
230
1
0
LINE
5
193
100
AcDbEntity
8
0
62
256
6
ByLayer
370
-2
48
1
60
0
100
AcDbLine
10
-52.5
20
-35.952229
30
0
11
-3.5
21
-35.952229
31
0
39
0
210
0
220
0
230
1
0
SOLID
5
194
100
AcDbEntity
8
0
62
256
6
ByLayer
370
-1
48
1
60
0
100
AcDbTrace
10
-52.5
20
-35.368896
30
0
11
-52.5
21
-36.535563
31
0
12
-56
22
-35.952229
32
0
13
-56
23
-35.952229
33
0
39
0
210
0
220
0
230
1
0
SOLID
5
195
100
AcDbEntity
8
0
62
256
6
ByLayer
370
-1
48
1
60
0
100
AcDbTrace
10
-3.5
20
-36.535563
30
0
11
-3.5
21
-35.368896
31
0
12
0
22
-35.952229
32
0
13
0
23
-35.952229
33
0
39
0
210
0
220
0
230
1
0
MTEXT
5
196
100
AcDbEntity
8
0
62
256
6
ByLayer
370
18
48
1
60
0
100
AcDbMText
10
-28
20
-29.952229
30
0
210
0
220
0
230
1
1
\A1;56
40
3
41
0
44
1
50
0
71
5
72
5
7
iso_b_vert
0
POINT
5
197
100
AcDbEntity
8
Defpoints
62
0
6
ByLayer
370
-1
48
1
60
0
100
AcDbPoint
10
-56
20
-12.5
30
0
39
0
210
0
220
0
230
1
50
360
0
POINT
5
198
100
AcDbEntity
8
Defpoints
62
0
6
ByLayer
370
-1
48
1
60
0
100
AcDbPoint
10
0
20
-12.5
30
0
39
0
210
0
220
0
230
1
50
360
0
POINT
5
199
100
AcDbEntity
8
Defpoints
62
0
6
ByLayer
370
-1
48
1
60
0
100
AcDbPoint
10
0
20
-35.952229
30
0
39
0
210
0
220
0
230
1
50
360
0
ENDBLK
5
190
100
AcDbEntity
8
0
100
AcDbBlockEnd
0
BLOCK
5
1A1
100
AcDbEntity
8
0
100
AcDbBlockBegin
2
_U2
70
0
10
0
20
0
30
0
3
_U2
0
MTEXT
5
19B
100
AcDbEntity
8
SK2
62
256
6
ByLayer
370
18
48
1
60
0
100
AcDbMText
10
-32.48237
20
-35.067115
30
0
210
0
220
0
230
1
1
\W0.7468;56.00
40
3
41
0
44
1.084337
50
0
71
7
72
5
7
iso_b_vert
0
LINE
5
19C
100
AcDbEntity
8
SK2
62
256
6
ByLayer
370
13
48
1
60
0
100
AcDbLine
10
-56
20
-14.0875
30
0
11
-56
21
-37.952229
31
0
39
0
210
0
220
0
230
1
0
LINE
5
19D
100
AcDbEntity
8
SK2
62
256
6
ByLayer
370
13
48
1
60
0
100
AcDbLine
10
0
20
-14.0875
30
0
11
0
21
-37.952229
31
0
39
0
210
0
220
0
230
1
0
LINE
5
19E
100
AcDbEntity
8
SK2
62
256
6
ByLayer
370
13
48
1
60
0
100
AcDbLine
10
-56
20
-35.952229
30
0
11
0
21
-35.952229
31
0
39
0
210
0
220
0
230
1
0
SOLID
5
19F
100
AcDbEntity
8
SK2
62
256
6
ByLayer
370
18
48
1
60
0
100
AcDbTrace
10
-56
20
-35.952229
30
0
11
-52.500002
21
-35.491446
31
0
12
-52.499998
22
-36.413013
32
0
13
-52.499998
23
-36.413013
33
0
39
0
210
0
220
0
230
1
0
SOLID
5
1A0
100
AcDbEntity
8
SK2
62
256
6
ByLayer
370
18
48
1
60
0
100
AcDbTrace
10
0
20
-35.952229
30
0
11
-3.499998
21
-36.413013
31
0
12
-3.500002
22
-35.491446
32
0
13
-3.500002
23
-35.491446
33
0
39
0
210
0
220
0
230
1
0
ENDBLK
5
1A2
100
AcDbEntity
8
0
100
AcDbBlockEnd
0
BLOCK
5
1A7
100
AcDbEntity
8
0
100
AcDbBlockBegin
2
*D7
70
1
10
0
20
0
30
0
3
*D7
0
LINE
5
1A9
100
AcDbEntity
8
0
62
256
6
ByLayer
370
-2
48
1
60
0
100
AcDbLine
10
100.5
20
1.5875
30
0
11
100.5
21
34.952229
31
0
39
0
210
0
220
0
230
1
0
LINE
5
1AA
100
AcDbEntity
8
0
62
256
6
ByLayer
370
-2
48
1
60
0
100
AcDbLine
10
24
20
12.0875
30
0
11
24
21
34.952229
31
0
39
0
210
0
220
0
230
1
0
LINE
5
1AB
100
AcDbEntity
8
0
62
256
6
ByLayer
370
-2
48
1
60
0
100
AcDbLine
10
97
20
32.952229
30
0
11
27.5
21
32.952229
31
0
39
0
210
0
220
0
230
1
0
SOLID
5
1AC
100
AcDbEntity
8
0
62
256
6
ByLayer
370
-1
48
1
60
0
100
AcDbTrace
10
97
20
32.368896
30
0
11
97
21
33.535563
31
0
12
100.5
22
32.952229
32
0
13
100.5
23
32.952229
33
0
39
0
210
0
220
0
230
1
0
SOLID
5
1AD
100
AcDbEntity
8
0
62
256
6
ByLayer
370
-1
48
1
60
0
100
AcDbTrace
10
27.5
20
33.535563
30
0
11
27.5
21
32.368896
31
0
12
24
22
32.952229
32
0
13
24
23
32.952229
33
0
39
0
210
0
220
0
230
1
0
MTEXT
5
1AE
100
AcDbEntity
8
0
62
256
6
ByLayer
370
18
48
1
60
0
100
AcDbMText
10
62.25
20
38.952229
30
0
210
0
220
0
230
1
1
\A1;76.5
40
3
41
0
44
1
50
0
71
5
72
5
7
iso_b_vert
0
POINT
5
1AF
100
AcDbEntity
8
Defpoints
62
0
6
ByLayer
370
-1
48
1
60
0
100
AcDbPoint
10
100.5
20
0
30
0
39
0
210
0
220
0
230
1
50
360
0
POINT
5
1B0
100
AcDbEntity
8
Defpoints
62
0
6
ByLayer
370
-1
48
1
60
0
100
AcDbPoint
10
24
20
10.5
30
0
39
0
210
0
220
0
230
1
50
360
0
POINT
5
1B1
100
AcDbEntity
8
Defpoints
62
0
6
ByLayer
370
-1
48
1
60
0
100
AcDbPoint
10
24
20
32.952229
30
0
39
0
210
0
220
0
230
1
50
360
0
ENDBLK
5
1A8
100
AcDbEntity
8
0
100
AcDbBlockEnd
0
BLOCK
5
1B9
100
AcDbEntity
8
0
100
AcDbBlockBegin
2
_U3
70
0
10
0
20
0
30
0
3
_U3
0
MTEXT
5
1B3
100
AcDbEntity
8
SK2
62
256
6
ByLayer
370
18
48
1
60
0
100
AcDbMText
10
57.76763
20
33.837344
30
0
210
0
220
0
230
1
1
\W0.7468;76.50
40
3
41
0
44
1.084337
50
0
71
7
72
5
7
iso_b_vert
0
LINE
5
1B4
100
AcDbEntity
8
SK2
62
256
6
ByLayer
370
13
48
1
60
0
100
AcDbLine
10
100.5
20
1.5875
30
0
11
100.5
21
34.952229
31
0
39
0
210
0
220
0
230
1
0
LINE
5
1B5
100
AcDbEntity
8
SK2
62
256
6
ByLayer
370
13
48
1
60
0
100
AcDbLine
10
24
20
12.0875
30
0
11
24
21
34.952229
31
0
39
0
210
0
220
0
230
1
0
LINE
5
1B6
100
AcDbEntity
8
SK2
62
256
6
ByLayer
370
13
48
1
60
0
100
AcDbLine
10
100.5
20
32.952229
30
0
11
24
21
32.952229
31
0
39
0
210
0
220
0
230
1
0
SOLID
5
1B7
100
AcDbEntity
8
SK2
62
256
6
ByLayer
370
18
48
1
60
0
100
AcDbTrace
10
100.5
20
32.952229
30
0
11
97.000002
21
32.491446
31
0
12
96.999998
22
33.413013
32
0
13
96.999998
23
33.413013
33
0
39
0
210
0
220
0
230
1
0
SOLID
5
1B8
100
AcDbEntity
8
SK2
62
256
6
ByLayer
370
18
48
1
60
0
100
AcDbTrace
10
24
20
32.952229
30
0
11
27.499998
21
33.413013
31
0
12
27.500002
22
32.491446
32
0
13
27.500002
23
32.491446
33
0
39
0
210
0
220
0
230
1
0
ENDBLK
5
1BA
100
AcDbEntity
8
0
100
AcDbBlockEnd
0
ENDSEC
0
SECTION
2
ENTITIES
0
ARC
5
C1
100
AcDbEntity
8
SK2
62
256
6
ByLayer
370
13
48
1
60
0
100
AcDbCircle
39
0
10
100.5
20
0
30
0
40
19
210
0
220
0
230
1
100
AcDbArc
50
290
51
70
0
ELLIPSE
5
C2
100
AcDbEntity
8
SK1
62
256
6
ByLayer
370
18
48
1
60
0
100
AcDbEllipse
10
-41.343561
20
0
30
0
11
-2.29613691341699E-15
21
-12.5000000000002
31
0
210
0
220
0
230
1
40
0.932515
41
-1.86465462472194
42
-1.27693802886786
0
ELLIPSE
5
C3
100
AcDbEntity
8
SK1
62
256
6
ByLayer
370
18
48
1
60
0
100
AcDbEllipse
10
276.680659
20
0
30
0
11
357.953166043254
21
-4.05596621644435E-13
31
0
210
0
220
0
230
1
40
0.034921
41
2.52406396812455
42
2.73005601344533
0
ELLIPSE
5
C4
100
AcDbEntity
8
SK1
62
256
6
ByLayer
370
18
48
1
60
0
100
AcDbEllipse
10
276.680659
20
0
30
0
11
357.953166032003
21
-4.05596621631686E-13
31
0
210
0
220
0
230
1
40
0.034921
41
-2.73005601344242
42
-2.52406396811705
0
ELLIPSE
5
C5
100
AcDbEntity
8
SK1
62
256
6
ByLayer
370
18
48
1
60
0
100
AcDbEllipse
10
-25.404609
20
0
30
0
11
13.4046088753088
21
-1.51887581674114E-14
31
0
210
0
220
0
230
1
40
0.932515
41
-0.555530755442636
42
0.555530755442635
0
POINT
5
70
100
AcDbEntity
8
80
62
256
6
ByLayer
370
18
48
1
60
0
100
AcDbPoint
10
0
20
0
30
0
39
0
210
0
220
0
230
1
50
360
0
POINT
5
72
100
AcDbEntity
8
81
62
256
6
ByLayer
370
18
48
1
60
0
100
AcDbPoint
10
100.5
20
0
30
0
39
0
210
0
220
0
230
1
50
360
0
POINT
5
74
100
AcDbEntity
8
1
62
256
6
ByLayer
370
18
48
1
60
1
100
AcDbPoint
10
-56
20
-12.5
30
0
39
0
210
0
220
0
230
1
50
360
0
POINT
5
76
100
AcDbEntity
8
1
62
256
6
ByLayer
370
18
48
1
60
1
100
AcDbPoint
10
100.5
20
0
30
0
39
0
210
0
220
0
230
1
50
360
0
POINT
5
77
100
AcDbEntity
8
1
62
256
6
ByLayer
370
18
48
1
60
1
100
AcDbPoint
10
100.5
20
0
30
0
39
0
210
0
220
0
230
1
50
360
0
POINT
5
78
100
AcDbEntity
8
1
62
256
6
ByLayer
370
18
48
1
60
1
100
AcDbPoint
10
3
20
-10.5
30
0
39
0
210
0
220
0
230
1
50
360
0
POINT
5
79
100
AcDbEntity
8
1
62
256
6
ByLayer
370
18
48
1
60
1
100
AcDbPoint
10
-56
20
-12.5
30
0
39
0
210
0
220
0
230
1
50
360
0
POINT
5
7A
100
AcDbEntity
8
1
62
256
6
ByLayer
370
18
48
1
60
1
100
AcDbPoint
10
0
20
-12.5
30
0
39
0
210
0
220
0
230
1
50
360
0
POINT
5
7B
100
AcDbEntity
8
1
62
256
6
ByLayer
370
18
48
1
60
1
100
AcDbPoint
10
100.5
20
0
30
0
39
0
210
0
220
0
230
1
50
360
0
POINT
5
7C
100
AcDbEntity
8
1
62
256
6
ByLayer
370
18
48
1
60
1
100
AcDbPoint
10
24
20
10.5
30
0
39
0
210
0
220
0
230
1
50
360
0
SPLINE
5
C6
100
AcDbEntity
8
1
62
256
6
ByLayer
370
18
48
1
60
0
100
AcDbSpline
70
4
71
3
72
14
73
10
40
0
40
0
40
0
40
0
40
0.185873615939645
40
0.185873615939645
40
0.37174723187929
40
0.37174723187929
40
0.743494463758581
40
0.743494463758581
40
1
40
1
40
1
40
1
41
1
10
85.7
20
-10.4121071157464
30
0
41
1
10
85.9287031930831
20
-10.422816154335
30
0
41
1
10
86.157335892085
20
-10.4325464665391
30
0
41
1
10
86.6146637366339
20
-10.4499887747588
30
0
41
1
10
86.8433641183523
20
-10.4577019263454
30
0
41
1
10
87.529518258333
20
-10.4778603058551
30
0
41
1
10
87.9870132982841
20
-10.4873293151334
30
0
41
1
10
88.7601920426374
20
-10.4966806723138
30
0
41
1
10
89.0758739311459
20
-10.4986249167424
30
0
41
1
10
89.3915413378559
20
-10.4986890257505
30
0
0
SPLINE
5
C7
100
AcDbEntity
8
1
62
256
6
ByLayer
370
18
48
1
60
0
100
AcDbSpline
70
4
71
3
72
122
73
118
40
0
40
0
40
0
40
0
40
0.0312500000000014
40
0.0312500000000014
40
0.0625000000000028
40
0.0625000000000028
40
0.0703125000000028
40
0.0703125000000028
40
0.0781250000000029
40
0.0781250000000029
40
0.085937500000003
40
0.085937500000003
40
0.093750000000003
40
0.093750000000003
40
0.109375000000004
40
0.109375000000004
40
0.125000000000004
40
0.125000000000004
40
0.140625000000005
40
0.140625000000005
40
0.148437500000005
40
0.148437500000005
40
0.156250000000006
40
0.156250000000006
40
0.171875000000007
40
0.171875000000007
40
0.187500000000008
40
0.187500000000008
40
0.203125000000009
40
0.203125000000009
40
0.218750000000011
40
0.218750000000011
40
0.226562500000011
40
0.226562500000011
40
0.234375000000012
40
0.234375000000012
40
0.250000000000014
40
0.250000000000014
40
0.281250000000015
40
0.281250000000015
40
0.296875000000017
40
0.296875000000017
40
0.304687500000017
40
0.304687500000017
40
0.312500000000018
40
0.312500000000018
40
0.34375000000002
40
0.34375000000002
40
0.375000000000023
40
0.375000000000023
40
0.382812500000023
40
0.382812500000023
40
0.390625000000023
40
0.390625000000023
40
0.406250000000023
40
0.406250000000023
40
0.437500000000022
40
0.437500000000022
40
0.453125000000022
40
0.453125000000022
40
0.468750000000021
40
0.468750000000021
40
0.484375000000021
40
0.484375000000021
40
0.500000000000021
40
0.500000000000021
40
0.53125000000002
40
0.53125000000002
40
0.54687500000002
40
0.54687500000002
40
0.56250000000002
40
0.56250000000002
40
0.578125000000019
40
0.578125000000019
40
0.593750000000019
40
0.593750000000019
40
0.609375000000018
40
0.609375000000018
40
0.625000000000018
40
0.625000000000018
40
0.640625000000017
40
0.640625000000017
40
0.656250000000017
40
0.656250000000017
40
0.687500000000016
40
0.687500000000016
40
0.703125000000015
40
0.703125000000015
40
0.718750000000014
40
0.718750000000014
40
0.750000000000013
40
0.750000000000013
40
0.765625000000012
40
0.765625000000012
40
0.781250000000011
40
0.781250000000011
40
0.796875000000009
40
0.796875000000009
40
0.812500000000008
40
0.812500000000008
40
0.843750000000007
40
0.843750000000007
40
0.859375000000006
40
0.859375000000006
40
0.875000000000005
40
0.875000000000005
40
0.890625000000005
40
0.890625000000005
40
0.906250000000004
40
0.906250000000004
40
0.921875000000004
40
0.921875000000004
40
0.937500000000003
40
0.937500000000003
40
0.968750000000002
40
0.968750000000002
40
1
40
1
40
1
40
1
41
1
10
18.3474447241729
20
8.00676451517342
30
0
41
1
10
19.0489665949838
20
7.85226295520073
30
0
41
1
10
19.7506823264965
20
7.6915964192282
30
0
41
1
10
21.1540529723101
20
7.35740101448386
30
0
41
1
10
21.8557118842298
20
7.18387841959938
30
0
41
1
10
22.7324958953971
20
6.95837206666732
30
0
41
1
10
22.9078380177285
20
6.91283915072179
30
0
41
1
10
23.2584858328121
20
6.82088991624209
30
0
41
1
10
23.4337878769712
20
6.7744654560411
30
0
41
1
10
23.7844205707035
20
6.68086646733934
30
0
41
1
10
23.9597571301485
20
6.63370459265334
30
0
41
1
10
24.3105364169761
20
6.53880233533329
30
0
41
1
10
24.4859707095355
20
6.4910441418651
30
0
41
1
10
25.0123828954771
20
6.34680157122997
30
0
41
1
10
25.3634452169776
20
6.24934347079588
30
0
41
1
10
26.0653734690721
20
6.05185062935556
30
0
41
1
10
26.4162944397171
20
5.95180715241619
30
0
41
1
10
27.1180008000372
20
5.7490128418948
30
0
41
1
10
27.4687855382701
20
5.64626053365248
30
0
41
1
10
27.9948195862473
20
5.48999062372403
30
0
41
1
10
28.1701402773136
20
5.4375432278039
30
0
41
1
10
28.5207266113085
20
5.331912620803
30
0
41
1
10
28.6959920339031
20
5.27872849033838
30
0
41
1
10
29.2218215522434
20
5.11834909908328
30
0
41
1
10
29.5724909372416
20
5.01050376157207
30
0
41
1
10
30.2740939162885
20
4.79306969337821
30
0
41
1
10
30.6249994232369
20
4.68341169542381
30
0
41
1
10
31.3269732270899
20
4.46211048893846
30
0
41
1
10
31.6780913197894
20
4.35045681646218
30
0
41
1
10
32.3800603540587
20
4.1251632928215
30
0
41
1
10
32.7309410931138
20
4.01151328433815
30
0
41
1
10
33.2570655280271
20
3.83941828169409
30
0
41
1
10
33.432406892746
20
3.78178141789144
30
0
41
1
10
33.7830189045913
20
3.6659514812421
30
0
41
1
10
33.9582925047787
20
3.60776597357491
30
0
41
1
10
34.4841371036405
20
3.43271778056297
30
0
41
1
10
34.8347986476489
20
3.31554214321486
30
0
41
1
10
35.8870400761124
20
2.96251081595247
30
0
41
1
10
36.5888066802629
20
2.72496831694733
30
0
41
1
10
37.6415973015763
20
2.36465166722175
30
0
41
1
10
37.9925903200365
20
2.24385888419115
30
0
41
1
10
38.5189291042878
20
2.06158823657424
30
0
41
1
10
38.6943315784127
20
2.00065166904989
30
0
41
1
10
39.045053361842
20
1.87843074279729
30
0
41
1
10
39.2203769768972
20
1.81715833621831
30
0
41
1
10
40.0970203764753
20
1.51057829154902
30
0
41
1
10
40.7986351358087
20
1.26523359894583
30
0
41
1
10
42.2019032880274
20
0.772840573138666
30
0
41
1
10
42.9035873190349
20
0.525878110136773
30
0
41
1
10
43.780487981375
20
0.215448990347881
30
0
41
1
10
43.9558544683146
20
0.153266955456729
30
0
41
1
10
44.3065765841358
20
0.0287563364289838
30
0
41
1
10
44.4819366057867
20
-0.0335598160593804
30
0
41
1
10
45.0081461972786
20
-0.220313131272633
30
0
41
1
10
45.3590671252422
20
-0.344406122490796
30
0
41
1
10
46.4117316336847
20
-0.715812123778591
30
0
41
1
10
47.1134950361582
20
-0.962299867821429
30
0
41
1
10
48.1658489945521
20
-1.33113044382807
30
0
41
1
10
48.5165835770308
20
-1.45392758672114
30
0
41
1
10
49.2178970260871
20
-1.69937953266739
30
0
41
1
10
49.5684217243568
20
-1.82218478652428
30
0
41
1
10
50.2697409205688
20
-2.06645902908548
30
0
41
1
10
50.6205812847766
20
-2.18780158533991
30
0
41
1
10
51.322499397504
20
-2.42924959887344
30
0
41
1
10
51.6735960350833
20
-2.54935124574601
30
0
41
1
10
52.7265480284464
20
-2.90772701510338
30
0
41
1
10
53.4282802494476
20
-3.14414070461893
30
0
41
1
10
54.4801975344103
20
-3.49583937519762
30
0
41
1
10
54.8306712781993
20
-3.6127183971376
30
0
41
1
10
55.5318756419098
20
-3.84420292378991
30
0
41
1
10
55.8826206961467
20
-3.95877461368352
30
0
41
1
10
56.5842729457515
20
-4.18591908047262
30
0
41
1
10
56.9351851294841
20
-4.29847836425458
30
0
41
1
10
57.6371412929025
20
-4.52167937430391
30
0
41
1
10
57.9882397871927
20
-4.6323365997882
30
0
41
1
10
58.6901900228624
20
-4.85175918257778
30
0
41
1
10
59.0410434612551
20
-4.96052347030678
30
0
41
1
10
59.7424494644268
20
-5.17627761782097
30
0
41
1
10
60.0929585158477
20
-5.28336823452639
30
0
41
1
10
60.794211669173
20
-5.49445871470112
30
0
41
1
10
61.144942200011
20
-5.5984983453109
30
0
41
1
10
61.8464931682734
20
-5.80387565680607
30
0
41
1
10
62.1973193544289
20
-5.90519907243123
30
0
41
1
10
63.2498901315646
20
-6.20522315065244
30
0
41
1
10
63.9517639737246
20
-6.3999993805013
30
0
41
1
10
65.0043239484551
20
-6.68485359166908
30
0
41
1
10
65.3549612291591
20
-6.77860121262643
30
0
41
1
10
66.0564347152574
20
-6.96234791744016
30
0
41
1
10
66.4072357117753
20
-7.05243032565289
30
0
41
1
10
67.4596646453782
20
-7.31770460654081
30
0
41
1
10
68.1613508067907
20
-7.48786858260695
30
0
41
1
10
69.2136946696301
20
-7.73363015889245
30
0
41
1
10
69.5644440292108
20
-7.8139686025423
30
0
41
1
10
70.265822398155
20
-7.97154550080111
30
0
41
1
10
70.616442081342
20
-8.04879218323495
30
0
41
1
10
71.3181601028193
20
-8.19912096535316
30
0
41
1
10
71.6691608158561
20
-8.27229018844923
30
0
41
1
10
72.3709929749035
20
-8.41478224327133
30
0
41
1
10
72.7218808030008
20
-8.48410463181258
30
0
41
1
10
73.7744003943018
20
-8.68641480740021
30
0
41
1
10
74.475885507515
20
-8.81376838644118
30
0
41
1
10
75.5274935970542
20
-8.9938123470946
30
0
41
1
10
75.877941379972
20
-9.05196139937678
30
0
41
1
10
76.5792403633196
20
-9.16377782601089
30
0
41
1
10
76.9300308016408
20
-9.2175331113348
30
0
41
1
10
77.6317947876663
20
-9.32089360856295
30
0
41
1
10
77.9827745720571
20
-9.37049053507528
30
0
41
1
10
78.6848894144448
20
-9.4655667243328
30
0
41
1
10
79.0359025571
20
-9.51103087373045
30
0
41
1
10
79.7376210303395
20
-9.5978291432925
30
0
41
1
10
80.0883510496533
20
-9.63916834579726
30
0
41
1
10
80.7895064658752
20
-9.71772162606962
30
0
41
1
10
81.13997077437
20
-9.75489116573993
30
0
41
1
10
82.1918216031322
20
-9.85944809949982
30
0
41
1
10
82.893370067501
20
-9.92017879894894
30
0
41
1
10
84.2966402231791
20
-10.0241863267733
30
0
41
1
10
84.9983648405808
20
-10.0674587289803
30
0
41
1
10
85.7
20
-10.1019160091188
30
0
0
SPLINE
5
C8
100
AcDbEntity
8
1
62
256
6
ByLayer
370
18
48
1
60
0
100
AcDbSpline
70
4
71
3
72
90
73
86
40
0
40
0
40
0
40
0
40
0.0107376119189719
40
0.0107376119189719
40
0.0313472450039937
40
0.0313472450039937
40
0.0416520615465046
40
0.0416520615465046
40
0.0519568780890154
40
0.0519568780890154
40
0.0931761442590583
40
0.0931761442590583
40
0.134395410429101
40
0.134395410429101
40
0.155005043514123
40
0.155005043514123
40
0.175614676599144
40
0.175614676599144
40
0.216833942769188
40
0.216833942769188
40
0.237443575854209
40
0.237443575854209
40
0.258053208939231
40
0.258053208939231
40
0.278662842024253
40
0.278662842024253
40
0.299272475109275
40
0.299272475109275
40
0.319882108194297
40
0.319882108194297
40
0.340491741279319
40
0.340491741279319
40
0.381711007449361
40
0.381711007449361
40
0.402320640534383
40
0.402320640534383
40
0.422930273619404
40
0.422930273619404
40
0.433235090161915
40
0.433235090161915
40
0.443539906704426
40
0.443539906704426
40
0.464149539789447
40
0.464149539789447
40
0.505368805959491
40
0.505368805959491
40
0.525978439044512
40
0.525978439044512
40
0.546588072129534
40
0.546588072129534
40
0.587807338299576
40
0.587807338299576
40
0.608416971384597
40
0.608416971384597
40
0.629026604469619
40
0.629026604469619
40
0.670245870639661
40
0.670245870639661
40
0.690855503724682
40
0.690855503724682
40
0.711465136809703
40
0.711465136809703
40
0.721769953352213
40
0.721769953352213
40
0.732074769894724
40
0.732074769894724
40
0.752684402979745
40
0.752684402979745
40
0.773294036064767
40
0.773294036064767
40
0.793903669149788
40
0.793903669149788
40
0.814513302234809
40
0.814513302234809
40
0.835122935319831
40
0.835122935319831
40
0.876342201489873
40
0.876342201489873
40
0.896951834574894
40
0.896951834574894
40
0.917561467659915
40
0.917561467659915
40
0.958780733829958
40
0.958780733829958
40
1
40
1
40
1
40
1
41
1
10
68.3021014333392
20
-7.52426288030208
30
0
41
1
10
68.1069008777316
20
-7.57076834747917
30
0
41
1
10
67.9116940233254
20
-7.61676128884946
30
0
41
1
10
67.3417968816415
20
-7.74954901369563
30
0
41
1
10
66.9670975434441
20
-7.83498189351386
30
0
41
1
10
66.4050527751508
20
-7.96034986284917
30
0
41
1
10
66.2177067466928
20
-8.00167804439883
30
0
41
1
10
65.8430086918187
20
-8.08338822083536
30
0
41
1
10
65.6556609868318
20
-8.12376348259008
30
0
41
1
10
64.719015327914
20
-8.32286085098463
30
0
41
1
10
63.9696453636083
20
-8.47313557607583
30
0
41
1
10
62.471020476807
20
-8.75628797020391
30
0
41
1
10
61.7217663323516
20
-8.88916786594959
30
0
41
1
10
60.5981685765219
20
-9.07556543581831
30
0
41
1
10
60.2236687071852
20
-9.13551292941366
30
0
41
1
10
59.4742670088607
20
-9.25044806815825
30
0
41
1
10
59.099363148242
20
-9.30550658255774
30
0
41
1
10
57.9749252392219
20
-9.4634406505578
30
0
41
1
10
57.2254732812742
20
-9.55910754609479
30
0
41
1
10
56.1017609316117
20
-9.68835059057574
30
0
41
1
10
55.7272910260872
20
-9.72906911842594
30
0
41
1
10
54.9784058816494
20
-9.80561167304273
30
0
41
1
10
54.6038986175979
20
-9.84136058363165
30
0
41
1
10
53.854613439795
20
-9.90774529734503
30
0
41
1
10
53.4798629982485
20
-9.93840356298787
30
0
41
1
10
52.7301709858693
20
-9.99468660725083
30
0
41
1
10
52.3552100491817
20
-10.0203112726511
30
0
41
1
10
51.6056175721247
20
-10.0665057717401
30
0
41
1
10
51.2309282439572
20
-10.0870814488457
30
0
41
1
10
50.481793709159
20
-10.1231699989123
30
0
41
1
10
50.1073906528907
20
-10.138689935238
30
0
41
1
10
48.983967112019
20
-10.1774257673101
30
0
41
1
10
48.2346976121728
20
-10.1928633064688
30
0
41
1
10
47.1104930871527
20
-10.2006333127135
30
0
41
1
10
46.7357066089383
20
-10.2006544454095
30
0
41
1
10
45.9860686301736
20
-10.1955359160931
30
0
41
1
10
45.6112497022774
20
-10.1903943698467
30
0
41
1
10
45.0493440031622
20
-10.1787800769871
30
0
41
1
10
44.8620766145146
20
-10.1742581626376
30
0
41
1
10
44.4875370431356
20
-10.1639280857973
30
0
41
1
10
44.3002581615439
20
-10.1581220654861
30
0
41
1
10
43.7383915483875
20
-10.1387928181578
30
0
41
1
10
43.3637796080684
20
-10.1233581485315
30
0
41
1
10
42.2398855571118
20
-10.0694448001578
30
0
41
1
10
41.4905344701366
20
-10.0233804175746
30
0
41
1
10
40.3665832110743
20
-9.93890582375508
30
0
41
1
10
39.9919775818126
20
-9.90815527201664
30
0
41
1
10
39.2426113439038
20
-9.84158728593269
30
0
41
1
10
38.8678535934809
20
-9.80584417424157
30
0
41
1
10
37.7437033872826
20
-9.69139938369128
30
0
41
1
10
36.9943126843871
20
-9.60545133097659
30
0
41
1
10
35.870461310382
20
-9.46194431888165
30
0
41
1
10
35.4958871931391
20
-9.41166961836348
30
0
41
1
10
34.7468510324166
20
-9.30617445206661
30
0
41
1
10
34.37241638033
20
-9.25091382905941
30
0
41
1
10
33.248594036855
20
-9.07849402395723
30
0
41
1
10
32.4986079342077
20
-8.95457508692169
30
0
41
1
10
31.3743079221569
20
-8.7554188835303
30
0
41
1
10
30.9996092239574
20
-8.68681213519642
30
0
41
1
10
30.250387988603
20
-8.54508224615361
30
0
41
1
10
29.8758771422559
20
-8.47193986332812
30
0
41
1
10
29.3142168766325
20
-8.35885016975547
30
0
41
1
10
29.12700730314
20
-8.32060188966454
30
0
41
1
10
28.752528643281
20
-8.24313533039438
30
0
41
1
10
28.5652616869699
20
-8.20391417649458
30
0
41
1
10
28.0033857271167
20
-8.08478194298584
30
0
41
1
10
27.6287032619277
20
-8.00340017228274
30
0
41
1
10
26.8791684395651
20
-7.83668911582342
30
0
41
1
10
26.5042692780924
20
-7.75135129364543
30
0
41
1
10
25.7545286241958
20
-7.576716070694
30
0
41
1
10
25.3798537717818
20
-7.48745441102801
30
0
41
1
10
24.6309292166497
20
-7.30496328919349
30
0
41
1
10
24.256719068917
20
-7.21165070379055
30
0
41
1
10
23.5084565280516
20
-7.02158282535677
30
0
41
1
10
23.1343402890913
20
-6.92496326013645
30
0
41
1
10
22.0120688281313
20
-6.63033043191356
30
0
41
1
10
21.2639928357211
20
-6.4275499243399
30
0
41
1
10
20.1422126663155
20
-6.11347754699
30
0
41
1
10
19.7683453128834
20
-6.00712528559649
30
0
41
1
10
19.0207527499716
20
-5.79101762556286
30
0
41
1
10
18.6470251312832
20
-5.68126228914278
30
0
41
1
10
17.5253306704562
20
-5.34859275158252
30
0
41
1
10
16.7770318246378
20
-5.12187827017368
30
0
41
1
10
15.2796472325639
20
-4.65811596868076
30
0
41
1
10
14.5305550315309
20
-4.42108652755306
30
0
41
1
10
13.7811994964714
20
-4.17842906917775
30
0
0
SPLINE
5
C9
100
AcDbEntity
8
1
62
256
6
ByLayer
370
18
48
1
60
0
100
AcDbSpline
70
4
71
3
72
22
73
18
40
0
40
0
40
0
40
0
40
0.25
40
0.25
40
0.375000000000003
40
0.375000000000003
40
0.437500000000005
40
0.437500000000005
40
0.500000000000007
40
0.500000000000007
40
0.750000000000007
40
0.750000000000007
40
0.875000000000003
40
0.875000000000003
40
0.937500000000002
40
0.937500000000002
40
1
40
1
40
1
40
1
41
1
10
96.6783125402105
20
-1.49779757347733
30
0
41
1
10
95.7624798408149
20
-1.16693908504428
30
0
41
1
10
94.8470067605517
20
-0.835849287213989
30
0
41
1
10
93.4746462319099
20
-0.337986348659172
30
0
41
1
10
93.0173377336156
20
-0.171818108360071
30
0
41
1
10
92.3316484133912
20
0.0779083245097354
30
0
41
1
10
92.1031368319841
20
0.161245899424415
30
0
41
1
10
91.6461736922432
20
0.327992357318436
30
0
41
1
10
91.417712086433
20
0.411373414422798
30
0
41
1
10
90.2751694698612
20
0.827394653583895
30
0
41
1
10
89.3605890836558
20
1.15795083923138
30
0
41
1
10
87.988260392253
20
1.65139820374699
30
0
41
1
10
87.5307454439699
20
1.81549416263607
30
0
41
1
10
86.8444102134966
20
2.06117944062456
30
0
41
1
10
86.6156286107541
20
2.14301794434959
30
0
41
1
10
86.157941546909
20
2.30625932684779
30
0
41
1
10
85.9290188268395
20
2.38761496900466
30
0
41
1
10
85.6999999999999
20
2.46865947210787
30
0
0
SPLINE
5
CA
100
AcDbEntity
8
1
62
256
6
ByLayer
370
18
48
1
60
0
100
AcDbSpline
70
4
71
3
72
89
73
85
40
0
40
0
40
0
40
0
40
0.0312499999999994
40
0.0312499999999994
40
0.0624999999999988
40
0.0624999999999988
40
0.124999999999998
40
0.124999999999998
40
0.140624999999998
40
0.140624999999998
40
0.148437499999999
40
0.148437499999999
40
0.156249999999999
40
0.187500000000001
40
0.187500000000001
40
0.218750000000003
40
0.218750000000003
40
0.250000000000006
40
0.250000000000006
40
0.281250000000008
40
0.281250000000008
40
0.296875000000009
40
0.296875000000009
40
0.312500000000009
40
0.312500000000009
40
0.34375000000001
40
0.34375000000001
40
0.375000000000011
40
0.375000000000011
40
0.406250000000012
40
0.406250000000012
40
0.437500000000013
40
0.437500000000013
40
0.445312500000013
40
0.445312500000013
40
0.453125000000014
40
0.468750000000014
40
0.468750000000014
40
0.500000000000015
40
0.500000000000015
40
0.531250000000016
40
0.531250000000016
40
0.539062500000016
40
0.539062500000016
40
0.546875000000017
40
0.562500000000016
40
0.562500000000016
40
0.593750000000016
40
0.593750000000016
40
0.625000000000015
40
0.625000000000015
40
0.632812500000015
40
0.632812500000015
40
0.640625000000014
40
0.656250000000013
40
0.656250000000013
40
0.687500000000009
40
0.687500000000009
40
0.718750000000005
40
0.718750000000005
40
0.726562500000004
40
0.726562500000004
40
0.734375000000004
40
0.734375000000004
40
0.750000000000002
40
0.750000000000002
40
0.78125
40
0.78125
40
0.812499999999997
40
0.812499999999997
40
0.843749999999994
40
0.843749999999994
40
0.851562499999994
40
0.851562499999994
40
0.859374999999993
40
0.874999999999993
40
0.874999999999993
40
0.906249999999994
40
0.937499999999996
40
0.968749999999997
40
0.968749999999997
40
0.984374999999999
40
0.984374999999999
40
1
40
1
40
1
40
1
41
1
10
96.6783125402048
20
10.1665734616941
30
0
41
1
10
96.7439051579282
20
10.0038948440377
30
0
41
1
10
96.8096002021745
20
9.8387810308497
30
0
41
1
10
96.9413054474884
20
9.50407423097278
30
0
41
1
10
97.0073155947027
20
9.33447960442965
30
0
41
1
10
97.2059353696756
20
8.81939103314869
30
0
41
1
10
97.3391523303172
20
8.46762819076321
30
0
41
1
10
97.506819203381
20
8.01824031638881
30
0
41
1
10
97.5404084163036
20
7.92787565862676
30
0
41
1
10
97.5908738006626
20
7.79160414458121
30
0
41
1
10
97.6077208083237
20
7.74602793932584
30
0
41
1
10
97.6413814954369
20
7.65479668027533
30
0
41
1
10
97.7254097683315
20
7.4266282940271
30
0
41
1
10
97.8088291113996
20
7.19801587751613
30
0
41
1
10
97.9414661287612
20
6.8316637731551
30
0
41
1
10
98.0073684908386
20
6.64820186959037
30
0
41
1
10
98.138189651518
20
6.28066344964455
30
0
41
1
10
98.2031099435539
20
6.0965874540826
30
0
41
1
10
98.3316880130993
20
5.72772840712727
30
0
41
1
10
98.395348378968
20
5.54294628521615
30
0
41
1
10
98.4895414568196
20
5.2651202107092
30
0
41
1
10
98.5207211964172
20
5.17240206457703
30
0
41
1
10
98.5825601171036
20
4.98671668506398
30
0
41
1
10
98.6132357478857
20
4.89369685385748
30
0
41
1
10
98.703886221942
20
4.61555672860013
30
0
41
1
10
98.7626431499206
20
4.43093356476706
30
0
41
1
10
98.8757294190252
20
4.06298960341118
30
0
41
1
10
98.9300662144767
20
3.8796699659147
30
0
41
1
10
99.0326610188807
20
3.51395041452582
30
0
41
1
10
99.0809276345641
20
3.33155129568414
30
0
41
1
10
99.1688954976103
20
2.96717767276678
30
0
41
1
10
99.2086006155904
20
2.78520166179683
30
0
41
1
10
99.2506658236766
20
2.55761824071021
30
0
41
1
10
99.2587042358899
20
2.51205768572132
30
0
41
1
10
99.2739251607171
20
2.42108802677433
30
0
41
1
10
99.2954333789438
20
2.28511122136919
30
0
41
1
10
99.3127414602927
20
2.15058454101182
30
0
41
1
10
99.3411952152676
20
1.88353701153056
30
0
41
1
10
99.3518874264695
20
1.7081702973752
30
0
41
1
10
99.3547176382414
20
1.36338563059147
30
0
41
1
10
99.3468387639546
20
1.19397066641517
30
0
41
1
10
99.3254642335104
20
0.98647353445088
30
0
41
1
10
99.3206118279724
20
0.945138101859754
30
0
41
1
10
99.3098192796994
20
0.863140687128578
30
0
41
1
10
99.2920428599421
20
0.741449994398209
30
0
41
1
10
99.2697783256137
20
0.623628096536748
30
0
41
1
10
99.2200108866662
20
0.393019406758896
30
0
41
1
10
99.1798767138208
20
0.245984507672546
30
0
41
1
10
99.0893096882568
20
-0.0351939432659947
30
0
41
1
10
99.0388845149553
20
-0.169341351683471
30
0
41
1
10
98.9710894859978
20
-0.329088595720521
30
0
41
1
10
98.9572769793176
20
-0.36066856887993
30
0
41
1
10
98.9292629103439
20
-0.422898504156478
30
0
41
1
10
98.8867171515284
20
-0.514720677121829
30
0
41
1
10
98.8427602143871
20
-0.602064074217338
30
0
41
1
10
98.7533059530687
20
-0.770957917624457
30
0
41
1
10
98.6916362807319
20
-0.875845965747459
30
0
41
1
10
98.5654257847387
20
-1.07071883516733
30
0
41
1
10
98.500876445583
20
-1.16070088775933
30
0
41
1
10
98.4187833974489
20
-1.26387706269998
30
0
41
1
10
98.4022934253329
20
-1.28404613651804
30
0
41
1
10
98.3691768830371
20
-1.32344806593957
30
0
41
1
10
98.3525402146698
20
-1.3426911356035
30
0
41
1
10
98.3026494834769
20
-1.39877062416986
30
0
41
1
10
98.26934917914
20
-1.4340396816948
30
0
41
1
10
98.169380913352
20
-1.53363726304312
30
0
41
1
10
98.1026505629771
20
-1.59176901010969
30
0
41
1
10
97.9691413877504
20
-1.69191464260572
30
0
41
1
10
97.9023604837808
20
-1.73392687318491
30
0
41
1
10
97.768729495781
20
-1.80185159628235
30
0
41
1
10
97.7018784621755
20
-1.82776411018674
30
0
41
1
10
97.6182014243957
20
-1.84987447692316
30
0
41
1
10
97.6014513868496
20
-1.853782179842
30
0
41
1
10
97.5680895943561
20
-1.86053255131338
30
0
41
1
10
97.5181997649109
20
-1.86907651631165
30
0
41
1
10
97.468752171583
20
-1.87292829451337
30
0
41
1
10
97.3704032930374
20
-1.8744814393915
30
0
41
1
10
97.2407278843567
20
-1.86017276644702
30
0
41
1
10
97.0499008025777
20
-1.79045088253949
30
0
41
1
10
96.9246909312197
20
-1.71173327352744
30
0
41
1
10
96.8313674633688
20
-1.64034167881383
30
0
41
1
10
96.8004494592749
20
-1.61455111746355
30
0
41
1
10
96.7390724127096
20
-1.55909747189247
30
0
41
1
10
96.7085951310218
20
-1.52942051845176
30
0
41
1
10
96.678312540205
20
-1.49779757347531
30
0
0
SPLINE
5
CB
100
AcDbEntity
8
1
62
256
6
ByLayer
370
18
48
1
60
0
100
AcDbSpline
70
4
71
3
72
24
73
20
40
0
40
0
40
0
40
0
40
0.0583803858638985
40
0.0583803858638985
40
0.152542347277512
40
0.152542347277512
40
0.246704308691125
40
0.246704308691125
40
0.340866270104738
40
0.340866270104738
40
0.435028231518351
40
0.435028231518351
40
0.623352154345567
40
0.623352154345567
40
0.811676077172784
40
0.811676077172784
40
0.905838038586392
40
0.905838038586392
40
1
40
1
40
1
40
1
41
1
10
89.3915417565001
20
10.4986890258355
30
0
41
1
10
89.5333633013432
20
10.4987178276777
30
0
41
1
10
89.6751819230591
20
10.4983671275184
30
0
41
1
10
90.0457280269698
20
10.4964576698028
30
0
41
1
10
90.2744481886363
20
10.4942893400062
30
0
41
1
10
90.7318484115111
20
10.4879574190606
30
0
41
1
10
90.9605173873271
20
10.4837911062178
30
0
41
1
10
91.4178820323835
20
10.4734570423814
30
0
41
1
10
91.6465425899393
20
10.4672940154613
30
0
41
1
10
92.1039526441598
20
10.4530193383425
30
0
41
1
10
92.3326829513856
20
10.4449049597107
30
0
41
1
10
93.0188950381819
20
10.4176378221994
30
0
41
1
10
93.4764018040404
20
10.395564172266
30
0
41
1
10
94.3913916338994
20
10.3436275552594
30
0
41
1
10
94.8488725773669
20
10.3137643699081
30
0
41
1
10
95.5349833296212
20
10.2630373088908
30
0
41
1
10
95.7636683220795
20
10.245138602915
30
0
41
1
10
96.2209856218377
20
10.2073354844282
30
0
41
1
10
96.4496157995565
20
10.1874275002441
30
0
41
1
10
96.6783125402104
20
10.1665734616936
30
0
0
SPLINE
5
CC
100
AcDbEntity
8
1
62
256
6
ByLayer
370
18
48
1
60
0
100
AcDbSpline
70
4
71
3
72
34
73
30
40
0
40
0
40
0
40
0
40
0.0321800178912685
40
0.0321800178912685
40
0.0926687667730656
40
0.0926687667730656
40
0.153157515654862
40
0.153157515654862
40
0.213646264536659
40
0.213646264536659
40
0.274135013418456
40
0.274135013418456
40
0.39511251118205
40
0.39511251118205
40
0.455601260063845
40
0.455601260063845
40
0.51609000894564
40
0.51609000894564
40
0.576578757827435
40
0.576578757827435
40
0.63706750670923
40
0.63706750670923
40
0.697556255591025
40
0.697556255591025
40
0.75804500447282
40
0.75804500447282
40
0.87902250223641
40
0.87902250223641
40
1
40
1
40
1
40
1
41
1
10
68.3030437375754
20
7.51961548084123
30
0
41
1
10
68.4896733070949
20
7.56409879997176
30
0
41
1
10
68.6762977167877
20
7.60812790921409
30
0
41
1
10
69.2136946696277
20
7.73363015889188
30
0
41
1
10
69.5644440292083
20
7.81396860254171
30
0
41
1
10
70.2658223981524
20
7.97154550080052
30
0
41
1
10
70.6164420813396
20
8.04879218323438
30
0
41
1
10
71.3181601028168
20
8.19912096535262
30
0
41
1
10
71.6691608158536
20
8.27229018844869
30
0
41
1
10
72.3709929749008
20
8.41478224327079
30
0
41
1
10
72.7218808029981
20
8.48410463181207
30
0
41
1
10
73.7744003942991
20
8.68641480739967
30
0
41
1
10
74.4758855075123
20
8.81376838644073
30
0
41
1
10
75.5274935970514
20
8.99381234709409
30
0
41
1
10
75.8779413799693
20
9.05196139937632
30
0
41
1
10
76.5792403633169
20
9.16377782601046
30
0
41
1
10
76.9300308016381
20
9.21753311133438
30
0
41
1
10
77.6317947876635
20
9.32089360856253
30
0
41
1
10
77.9827745720542
20
9.37049053507488
30
0
41
1
10
78.6848894144419
20
9.46556672433243
30
0
41
1
10
79.0359025570971
20
9.51103087373008
30
0
41
1
10
79.7376210303366
20
9.59782914329213
30
0
41
1
10
80.0883510496503
20
9.63916834579692
30
0
41
1
10
80.7895064658721
20
9.71772162606928
30
0
41
1
10
81.1399707743669
20
9.75489116573965
30
0
41
1
10
82.1918216031293
20
9.85944809949953
30
0
41
1
10
82.8933700674978
20
9.92017879894868
30
0
41
1
10
84.2966402231759
20
10.024186326773
30
0
41
1
10
84.9983648405802
20
10.0674587289802
30
0
41
1
10
85.6999999999994
20
10.1019160091187
30
0
0
SPLINE
5
CD
100
AcDbEntity
8
1
62
256
6
ByLayer
370
18
48
1
60
0
100
AcDbSpline
70
4
71
3
72
68
73
64
40
0
40
0
40
0
40
0
40
0.0579659737762141
40
0.0579659737762141
40
0.0869489606643211
40
0.0869489606643211
40
0.101440454108376
40
0.101440454108376
40
0.11593194755243
40
0.11593194755243
40
0.144914934440537
40
0.144914934440537
40
0.173897921328644
40
0.173897921328644
40
0.231863895104858
40
0.231863895104858
40
0.260846881992966
40
0.260846881992966
40
0.289829868881074
40
0.289829868881074
40
0.318812855769182
40
0.318812855769182
40
0.34779584265729
40
0.34779584265729
40
0.376778829545398
40
0.376778829545398
40
0.391270322989451
40
0.391270322989451
40
0.405761816433504
40
0.405761816433504
40
0.463727790209714
40
0.463727790209714
40
0.492710777097819
40
0.492710777097819
40
0.507202270541871
40
0.507202270541871
40
0.521693763985922
40
0.521693763985922
40
0.57965973776213
40
0.57965973776213
40
0.637625711538337
40
0.637625711538337
40
0.66660869842644
40
0.66660869842644
40
0.695591685314543
40
0.695591685314543
40
0.75355765909075
40
0.75355765909075
40
0.782540645978853
40
0.782540645978853
40
0.811523632866957
40
0.811523632866957
40
0.840506619755061
40
0.840506619755061
40
0.869489606643164
40
0.869489606643164
40
0.898472593531268
40
0.898472593531268
40
0.927455580419371
40
0.927455580419371
40
0.98542155419558
40
0.98542155419558
40
1
40
1
40
1
40
1
41
1
10
85.7
20
2.29166648416171
30
0
41
1
10
84.950384728712
20
2.55011561301171
30
0
41
1
10
84.2008578072711
20
2.80533503697086
30
0
41
1
10
83.0768597269916
20
3.18380235006353
30
0
41
1
10
82.7022442058583
20
3.30923456636026
30
0
41
1
10
82.1404242031155
20
3.49636420880506
30
0
41
1
10
81.9531677965549
20
3.55857010280596
30
0
41
1
10
81.5786908812501
20
3.68264377757151
30
0
41
1
10
81.3914697066667
20
3.74450958460588
30
0
41
1
10
80.829759807636
20
3.92933307479021
30
0
41
1
10
80.4551717267055
20
4.05137824081939
30
0
41
1
10
79.7057389548542
20
4.29307178992241
30
0
41
1
10
79.3308681607708
20
4.41276014903011
30
0
41
1
10
78.2061854943406
20
4.76833701518956
30
0
41
1
10
77.4567130486486
20
5.00062008297544
30
0
41
1
10
76.3331840389018
20
5.34233699048582
30
0
41
1
10
75.9588091809087
20
5.45516909965113
30
0
41
1
10
75.2098167753645
20
5.67745525626836
30
0
41
1
10
74.8352295105086
20
5.7869867227765
30
0
41
1
10
74.0859098242431
20
6.00293376363049
30
0
41
1
10
73.7111756614635
20
6.10934519290277
30
0
41
1
10
72.9615845704579
20
6.31910602872301
30
0
41
1
10
72.5866705411831
20
6.42247166568222
30
0
41
1
10
71.8370553011891
20
6.62613355091918
30
0
41
1
10
71.4624042726202
20
6.72644742829678
30
0
41
1
10
70.900611087837
20
6.87450975588817
30
0
41
1
10
70.713369479556
20
6.92344561416397
30
0
41
1
10
70.3388519939619
20
7.02031629768379
30
0
41
1
10
70.1515795810596
20
7.06825886003239
30
0
41
1
10
69.2151619058504
20
7.30554625268343
30
0
41
1
10
68.4658546083871
20
7.48764022838532
30
0
41
1
10
67.3417968816415
20
7.74954901369566
30
0
41
1
10
66.967097543444
20
7.83498189351386
30
0
41
1
10
66.4050527751508
20
7.9603498628492
30
0
41
1
10
66.2177067466928
20
8.00167804439889
30
0
41
1
10
65.8430086918188
20
8.08338822083539
30
0
41
1
10
65.6556609868318
20
8.12376348259011
30
0
41
1
10
64.719015327914
20
8.32286085098465
30
0
41
1
10
63.9696453636082
20
8.47313557607583
30
0
41
1
10
62.471020476807
20
8.75628797020394
30
0
41
1
10
61.7217663323515
20
8.88916786594959
30
0
41
1
10
60.5981685765219
20
9.07556543581833
30
0
41
1
10
60.2236687071851
20
9.13551292941369
30
0
41
1
10
59.4742670088607
20
9.25044806815828
30
0
41
1
10
59.099363148242
20
9.30550658255777
30
0
41
1
10
57.9749252392218
20
9.4634406505578
30
0
41
1
10
57.2254732812743
20
9.55910754609482
30
0
41
1
10
56.1017609316117
20
9.68835059057577
30
0
41
1
10
55.7272910260871
20
9.72906911842594
30
0
41
1
10
54.9784058816493
20
9.80561167304273
30
0
41
1
10
54.6038986175978
20
9.84136058363165
30
0
41
1
10
53.8546134397949
20
9.907745297345
30
0
41
1
10
53.4798629982485
20
9.9384035629879
30
0
41
1
10
52.7301709858693
20
9.99468660725083
30
0
41
1
10
52.3552100491817
20
10.0203112726511
30
0
41
1
10
51.6056175721247
20
10.0665057717401
30
0
41
1
10
51.2309282439571
20
10.0870814488457
30
0
41
1
10
50.4817937091589
20
10.1231699989123
30
0
41
1
10
50.1073906528906
20
10.138689935238
30
0
41
1
10
48.983967112019
20
10.1774257673101
30
0
41
1
10
48.2346976121728
20
10.1928633064688
30
0
41
1
10
47.296736259508
20
10.1993460819827
30
0
41
1
10
47.1082315256741
20
10.1999989059561
30
0
41
1
10
46.9197161612888
20
10.2000003154609
30
0
0
SPLINE
5
CE
100
AcDbEntity
8
1
62
256
6
ByLayer
370
18
48
1
60
0
100
AcDbSpline
70
4
71
3
72
95
73
91
40
0
40
0
40
0
40
0
40
0.0624999999999954
40
0.0624999999999954
40
0.0937499999999931
40
0.0937499999999931
40
0.124999999999991
40
0.124999999999991
40
0.156249999999989
40
0.156249999999989
40
0.164062499999989
40
0.164062499999989
40
0.17187499999999
40
0.17187499999999
40
0.187499999999991
40
0.187499999999991
40
0.218749999999994
40
0.218749999999994
40
0.249999999999997
40
0.249999999999997
40
0.28125
40
0.28125
40
0.312500000000002
40
0.312500000000002
40
0.343750000000005
40
0.343750000000005
40
0.359375000000006
40
0.359375000000006
40
0.367187500000007
40
0.367187500000007
40
0.371093750000007
40
0.371093750000007
40
0.375000000000007
40
0.406250000000006
40
0.406250000000006
40
0.437500000000005
40
0.437500000000005
40
0.445312500000005
40
0.445312500000005
40
0.453125000000005
40
0.468750000000004
40
0.468750000000004
40
0.500000000000003
40
0.500000000000003
40
0.507812500000003
40
0.507812500000003
40
0.515625000000003
40
0.515625000000003
40
0.531250000000002
40
0.531250000000002
40
0.562500000000001
40
0.562500000000001
40
0.56640625
40
0.56640625
40
0.5703125
40
0.5703125
40
0.578125
40
0.59375
40
0.59375
40
0.624999999999999
40
0.624999999999999
40
0.640624999999998
40
0.640624999999998
40
0.648437499999998
40
0.648437499999998
40
0.656249999999998
40
0.656249999999998
40
0.687499999999998
40
0.687499999999998
40
0.718749999999999
40
0.718749999999999
40
0.749999999999999
40
0.749999999999999
40
0.765624999999999
40
0.765624999999999
40
0.781249999999999
40
0.781249999999999
40
0.812499999999999
40
0.812499999999999
40
0.843749999999999
40
0.843749999999999
40
0.874999999999999
40
0.874999999999999
40
0.90625
40
0.90625
40
0.9375
40
0.9375
40
0.96875
40
0.96875
40
1
40
1
40
1
40
1
41
1
10
10
20
8.52926509285169
30
0
41
1
10
9.57473263987285
20
8.55496677247183
30
0
41
1
10
9.15717371992008
20
8.56645644856681
30
0
41
1
10
8.54248315276638
20
8.55863787342096
30
0
41
1
10
8.33953019691398
20
8.55183883620447
30
0
41
1
10
7.93756960006107
20
8.52896832104457
30
0
41
1
10
7.73856148332129
20
8.51289932050781
30
0
41
1
10
7.3445905422966
20
8.47035893471286
30
0
41
1
10
7.14962698150444
20
8.44389154229606
30
0
41
1
10
6.90855131114665
20
8.4033867534566
30
0
41
1
10
6.86046779915574
20
8.39491374760817
30
0
41
1
10
6.76456735104108
20
8.37719610013457
30
0
41
1
10
6.71676906294405
20
8.36795404608253
30
0
41
1
10
6.57426641513726
20
8.339131548664
30
0
41
1
10
6.48029639304505
20
8.31842689730823
30
0
41
1
10
6.2015235547081
20
8.25162070151913
30
0
41
1
10
6.01985163278903
20
8.2008405534763
30
0
41
1
10
5.66521821677273
20
8.08532221027963
30
0
41
1
10
5.49225374312431
20
8.02059109142027
30
0
41
1
10
5.15562556249694
20
7.87518928074223
30
0
41
1
10
4.99195637712796
20
7.79453142188123
30
0
41
1
10
4.67486668194181
20
7.61449238230082
30
0
41
1
10
4.52381597123963
20
7.51643875494028
30
0
41
1
10
4.23758494424607
20
7.30246842061274
30
0
41
1
10
4.10239037129753
20
7.18656202286303
30
0
41
1
10
3.91263283511893
20
6.99733397535209
30
0
41
1
10
3.8515587952312
20
6.93168898091605
30
0
41
1
10
3.76343045754572
20
6.82903010419287
30
0
41
1
10
3.73463537896362
20
6.79411117535599
30
0
41
1
10
3.69234718975778
20
6.74063391039704
30
0
41
1
10
3.67839218692944
20
6.72261160393964
30
0
41
1
10
3.65088360989051
20
6.686317318161
30
0
41
1
10
3.52882218110736
20
6.52176186651423
30
0
41
1
10
3.42225554461706
20
6.34610522886879
30
0
41
1
10
3.2588523618698
20
6.0145732879547
30
0
41
1
10
3.19015275668681
20
5.8391976922274
30
0
41
1
10
3.12249404315051
20
5.60621861363722
30
0
41
1
10
3.10995895874896
20
5.55920307580868
30
0
41
1
10
3.08693340956088
20
5.46455890675458
30
0
41
1
10
3.05543169533939
20
5.32156341183639
30
0
41
1
10
3.0329925265051
20
5.17548098688619
30
0
41
1
10
3.00021143532445
20
4.87916833218381
30
0
41
1
10
2.99443414675824
20
4.67610965780167
30
0
41
1
10
3.00812179638865
20
4.4150920711588
30
0
41
1
10
3.01191355261656
20
4.36247839679945
30
0
41
1
10
3.02161458829374
20
4.25672599278917
30
0
41
1
10
3.02749329503362
20
4.203898209095
30
0
41
1
10
3.04813509020499
20
4.04555783664929
30
0
41
1
10
3.06590046783487
20
3.94018794365704
30
0
41
1
10
3.13071421007578
20
3.62464240278814
30
0
41
1
10
3.1892412892108
20
3.41502749626275
30
0
41
1
10
3.27147269586459
20
3.18008672433498
30
0
41
1
10
3.28083795346731
20
3.15399443199621
30
0
41
1
10
3.30002374005048
20
3.10183455706249
30
0
41
1
10
3.30985449338161
20
3.07574109817563
30
0
41
1
10
3.339918344681
20
2.99777781512762
30
0
41
1
10
3.40237767546324
20
2.84298210715409
30
0
41
1
10
3.47154089010269
20
2.69144144551649
30
0
41
1
10
3.61817747077151
20
2.39240464652889
30
0
41
1
10
3.72698730920666
20
2.19842601705918
30
0
41
1
10
3.90496016446852
20
1.91467834003299
30
0
41
1
10
3.96675214015988
20
1.82130300432263
30
0
41
1
10
4.06297119651828
20
1.68297206356368
30
0
41
1
10
4.09565957467771
20
1.63711434458443
30
0
41
1
10
4.16207280109688
20
1.54612374563257
30
0
41
1
10
4.19570685310251
20
1.50111320309875
30
0
41
1
10
4.36591983912922
20
1.27837303104451
30
0
41
1
10
4.50860102183958
20
1.10755020827105
30
0
41
1
10
4.80504172907061
20
0.778358320168081
30
0
41
1
10
4.9588106179533
20
0.620000107583593
30
0
41
1
10
5.27598632702839
20
0.314054823536878
30
0
41
1
10
5.43939818058848
20
0.166473579771349
30
0
41
1
10
5.69086309659792
20
-0.0478365459289307
30
0
41
1
10
5.77576111055845
20
-0.11810779368713
30
0
41
1
10
5.94747546603696
20
-0.256387440069091
30
0
41
1
10
6.03393545791067
20
-0.324110561354075
30
0
41
1
10
6.29497006980415
20
-0.523402907723039
30
0
41
1
10
6.47119561370596
20
-0.651106016563233
30
0
41
1
10
6.82733944341194
20
-0.897869169454395
30
0
41
1
10
7.00725865715339
20
-1.01692618223862
30
0
41
1
10
7.37018921246002
20
-1.24774719902902
30
0
41
1
10
7.55320072919798
20
-1.35950991384911
30
0
41
1
10
7.92180758060925
20
-1.57684123691982
30
0
41
1
10
8.1074026032004
20
-1.68240959448917
30
0
41
1
10
8.48076347183451
20
-1.88822056615555
30
0
41
1
10
8.66852872762374
20
-1.98846347639082
30
0
41
1
10
9.04592672892051
20
-2.18425886161117
30
0
41
1
10
9.23555881195423
20
-2.27981176576742
30
0
41
1
10
9.61651639925094
20
-2.46661693662367
30
0
41
1
10
9.80784137129064
20
-2.55786941223389
30
0
41
1
10
10
20
-2.64703827305445
30
0
0
SPLINE
5
CF
100
AcDbEntity
8
1
62
256
6
ByLayer
370
18
48
1
60
0
100
AcDbSpline
70
4
71
3
72
14
73
10
40
0
40
0
40
0
40
0
40
0.25
40
0.25
40
0.5
40
0.5
40
0.75
40
0.75
40
1
40
1
40
1
40
1
41
1
10
13.7811994964713
20
-4.17842906917775
30
0
41
1
10
13.458446721132
20
-4.07073781512833
30
0
41
1
10
13.1380711636305
20
-3.95729314834225
30
0
41
1
10
12.5010885724043
20
-3.72065690970206
30
0
41
1
10
12.1844766478174
20
-3.59747798891721
30
0
41
1
10
11.5545252925762
20
-3.34214008605645
30
0
41
1
10
11.2411845278902
20
-3.20998716865643
30
0
41
1
10
10.6178821111881
20
-2.93614899295653
30
0
41
1
10
10.3079225057898
20
-2.79446290269877
30
0
41
1
10
10
20
-2.64703827305445
30
0
0
SPLINE
5
D0
100
AcDbEntity
8
1
62
256
6
ByLayer
370
18
48
1
60
0
100
AcDbSpline
70
4
71
4
72
16
73
11
40
0
40
0
40
0
40
0
40
0
40
0.292373878058336
40
0.292373878058336
40
0.292373878058336
40
0.70762612194166
40
0.70762612194166
40
0.70762612194166
40
1
40
1
40
1
40
1
40
1
41
0.996883372174069
10
18.3474447241729
20
8.00676451517337
30
0
41
0.994733870810464
10
18.2128135182196
20
7.35068118640603
30
0
41
0.994067922513312
10
17.9690113586529
20
6.41980858800121
30
0
41
1
10
17.6263540216236
20
5.28781339162373
30
0
41
1
10
16.7430458796915
20
2.57581404985027
30
0
41
0.988033871712585
10
16.0643221103222
20
0.654189699664142
30
0
41
1
10
15.3855983409529
20
-1.04658470783909
30
0
41
1
10
14.5022901990207
20
-3.04886599154784
30
0
41
0.994067922513312
10
14.1596328619914
20
-3.74565824594948
30
0
41
0.994733870810464
10
13.9158307024247
20
-4.11597573369277
30
0
41
0.996883372174069
10
13.7811994964714
20
-4.17842906917778
30
0
0
SPLINE
5
D1
100
AcDbEntity
8
1
62
256
6
ByLayer
370
18
48
1
60
0
100
AcDbSpline
70
4
71
3
72
26
73
22
40
0
40
0
40
0
40
0
40
0.125
40
0.125
40
0.25
40
0.25
40
0.375
40
0.375
40
0.406250000000001
40
0.406250000000001
40
0.437500000000002
40
0.437500000000002
40
0.5
40
0.5
40
0.625
40
0.625
40
0.75
40
0.75
40
0.875
40
0.875
40
1
40
1
40
1
40
1
41
1
10
10
20
8.52926509285169
30
0
41
1
10
10.3494594368371
20
8.57234472172144
30
0
41
1
10
10.7001158777541
20
8.60502713000832
30
0
41
1
10
11.4036442700406
20
8.65256981069587
30
0
41
1
10
11.7565175305829
20
8.66741226559367
30
0
41
1
10
12.4643616463142
20
8.68085505840543
30
0
41
1
10
12.8193335485029
20
8.67944305668004
30
0
41
1
10
13.264299964338
20
8.66794827100082
30
0
41
1
10
13.3533558385265
20
8.66516108191172
30
0
41
1
10
13.5315912445183
20
8.65861488682518
30
0
41
1
10
13.6207733874754
20
8.65485448596738
30
0
41
1
10
13.8874352788797
20
8.64217800204926
30
0
41
1
10
14.0643927003353
20
8.63185561699441
30
0
41
1
10
14.5929620190896
20
8.59546927664982
30
0
41
1
10
14.9422701721564
20
8.56399121730223
30
0
41
1
10
15.6355292756311
20
8.48738343059426
30
0
41
1
10
15.9794792008222
20
8.44224474375022
30
0
41
1
10
16.6628414081313
20
8.33902759622225
30
0
41
1
10
17.0022549817777
20
8.28094652083036
30
0
41
1
10
17.6774017393047
20
8.15268861484958
30
0
41
1
10
18.0131387171684
20
8.08251807144649
30
0
41
1
10
18.3474447241729
20
8.00676451517342
30
0
0
SPLINE
5
D2
100
AcDbEntity
8
SK1
62
256
6
ByLayer
370
18
48
1
60
0
100
AcDbSpline
70
4
71
3
72
34
73
30
40
0
40
0
40
0
40
0
40
0.125000000000001
40
0.125000000000001
40
0.250000000000002
40
0.250000000000002
40
0.375000000000003
40
0.375000000000003
40
0.437500000000004
40
0.437500000000004
40
0.500000000000005
40
0.500000000000005
40
0.625000000000005
40
0.625000000000005
40
0.656250000000005
40
0.656250000000005
40
0.687500000000005
40
0.687500000000005
40
0.750000000000005
40
0.750000000000005
40
0.812500000000005
40
0.812500000000005
40
0.843750000000004
40
0.843750000000004
40
0.875000000000004
40
0.875000000000004
40
0.937500000000002
40
0.937500000000002
40
1
40
1
40
1
40
1
41
1
10
-52.5003287739481
20
-3.62059097355461
30
0
41
1
10
-52.4791023107682
20
-3.69580949914169
30
0
41
1
10
-52.456173666836
20
-3.7701328086529
30
0
41
1
10
-52.4062202513365
20
-3.91675156331095
30
0
41
1
10
-52.3792000011184
20
-3.98904864238443
30
0
41
1
10
-52.3201140822394
20
-4.13128549106548
30
0
41
1
10
-52.2880578558644
20
-4.20122868864783
30
0
41
1
10
-52.2351342019209
20
-4.30400502578081
30
0
41
1
10
-52.2166821098451
20
-4.33790583931534
30
0
41
1
10
-52.1779019271959
20
-4.40490146665846
30
0
41
1
10
-52.1575385793023
20
-4.43805147836142
30
0
41
1
10
-52.093380094742
20
-4.53574061166557
30
0
41
1
10
-52.0468993353633
20
-4.59806703723407
30
0
41
1
10
-51.9825062567773
20
-4.67139689881651
30
0
41
1
10
-51.9693089720826
20
-4.68583123022111
30
0
41
1
10
-51.9422155209833
20
-4.71419608571787
30
0
41
1
10
-51.9282893124732
20
-4.72815494045494
30
0
41
1
10
-51.8855899983215
20
-4.7689776324583
30
0
41
1
10
-51.8559681934236
20
-4.79473829352929
30
0
41
1
10
-51.7940523105194
20
-4.84293492664423
30
0
41
1
10
-51.7617609635258
20
-4.86537421079322
30
0
41
1
10
-51.710934585781
20
-4.89608972183805
30
0
41
1
10
-51.6935927882519
20
-4.9058359097269
30
0
41
1
10
-51.6580214478988
20
-4.92423937407065
30
0
41
1
10
-51.6397301965266
20
-4.93292309713041
30
0
41
1
10
-51.583780125377
20
-4.9569645106269
30
0
41
1
10
-51.5455987975117
20
-4.97010157811332
30
0
41
1
10
-51.4673083175319
20
-4.99008231274206
30
0
41
1
10
-51.4272005227822
20
-4.99693051090844
30
0
41
1
10
-51.3860020460814
20
-5.00022676868039
30
0
0
SPLINE
5
D3
100
AcDbEntity
8
SK1
62
256
6
ByLayer
370
18
48
1
60
0
100
AcDbSpline
70
4
71
3
72
34
73
30
40
0
40
0
40
0
40
0
40
0.0625000000000001
40
0.0625000000000001
40
0.125
40
0.125
40
0.1875
40
0.1875
40
0.25
40
0.25
40
0.28125
40
0.28125
40
0.312499999999999
40
0.312499999999999
40
0.374999999999998
40
0.374999999999998
40
0.499999999999995
40
0.499999999999995
40
0.531249999999995
40
0.531249999999995
40
0.562499999999995
40
0.562499999999995
40
0.624999999999996
40
0.624999999999996
40
0.749999999999997
40
0.749999999999997
40
0.874999999999999
40
0.874999999999999
40
1
40
1
40
1
40
1
41
1
10
-51.3860020460814
20
5.00022676868039
30
0
41
1
10
-51.4271597094618
20
4.99693377635015
30
0
41
1
10
-51.4672462826171
20
4.9900941818546
30
0
41
1
10
-51.5455242136708
20
4.97012456894885
30
0
41
1
10
-51.5837142752675
20
4.95699014998107
30
0
41
1
10
-51.658355568598
20
4.92492253812571
30
0
41
1
10
-51.6938849422845
20
4.90639169663621
30
0
41
1
10
-51.7618166387264
20
4.86534206803361
30
0
41
1
10
-51.7942559781117
20
4.84279931421437
30
0
41
1
10
-51.8409760500773
20
4.80639681369991
30
0
41
1
10
-51.8562248159031
20
4.79382938651
30
0
41
1
10
-51.8861176712827
20
4.76788296468004
30
0
41
1
10
-51.9007110618413
20
4.75454548912128
30
0
41
1
10
-51.9432559764382
20
4.71379512925466
30
0
41
1
10
-51.9701014783725
20
4.68554212638855
30
0
41
1
10
-52.0468805903312
20
4.59805033156974
30
0
41
1
10
-52.0930959781036
20
4.5361050376323
30
0
41
1
10
-52.146279276313
20
4.45521167958731
30
0
41
1
10
-52.1566830990007
20
4.43885754119347
30
0
41
1
10
-52.1770537162702
20
4.4058167491863
30
0
41
1
10
-52.1870311208955
20
4.38911114781021
30
0
41
1
10
-52.2162315231511
20
4.33872068618709
30
0
41
1
10
-52.2347469485042
20
4.30473232112985
30
0
41
1
10
-52.2878314108395
20
4.20171722667834
30
0
41
1
10
-52.3199565384223
20
4.13164670884206
30
0
41
1
10
-52.3791390929746
20
3.98921323503123
30
0
41
1
10
-52.4061866509714
20
3.91684682729945
30
0
41
1
10
-52.4561716481468
20
3.77014208810513
30
0
41
1
10
-52.4791043925606
20
3.69580212206003
30
0
41
1
10
-52.5003287739482
20
3.62059097355464
30
0
0
SPLINE
5
D4
100
AcDbEntity
8
SK1
62
256
6
ByLayer
370
18
48
1
60
0
100
AcDbSpline
70
4
71
3
72
32
73
28
40
0
40
0
40
0
40
0
40
0.124999999999982
40
0.124999999999982
40
0.249999999999963
40
0.249999999999963
40
0.374999999999945
40
0.374999999999945
40
0.406249999999941
40
0.406249999999941
40
0.437499999999938
40
0.499999999999932
40
0.499999999999932
40
0.624999999999931
40
0.624999999999931
40
0.656249999999931
40
0.656249999999931
40
0.68749999999993
40
0.68749999999993
40
0.749999999999941
40
0.749999999999941
40
0.874999999999977
40
0.874999999999977
40
0.906249999999979
40
0.906249999999979
40
0.937499999999981
40
1
40
1
40
1
40
1
41
1
10
-14.0157764695459
20
6.59242894057729
30
0
41
1
10
-14.0458287908144
20
6.6375753796253
30
0
41
1
10
-14.0777095790597
20
6.68135165141678
30
0
41
1
10
-14.1456160664485
20
6.76590887596987
30
0
41
1
10
-14.1816386907667
20
6.80669170869109
30
0
41
1
10
-14.2584995514322
20
6.88489663469755
30
0
41
1
10
-14.2993317458756
20
6.92232243783545
30
0
41
1
10
-14.35399779722
20
6.96665617585003
30
0
41
1
10
-14.3651284778382
20
6.97541075031074
30
0
41
1
10
-14.3876400333972
20
6.9925614515505
30
0
41
1
10
-14.4218166346372
20
7.01777898878851
30
0
41
1
10
-14.4572545898122
20
7.04143848131534
30
0
41
1
10
-14.529923003083
20
7.08656817107874
30
0
41
1
10
-14.5807455844469
20
7.11375097789289
30
0
41
1
10
-14.6477689594914
20
7.14354340177493
30
0
41
1
10
-14.6613494138678
20
7.1492913738704
30
0
41
1
10
-14.6888796972728
20
7.1603468035685
30
0
41
1
10
-14.7028224503024
20
7.16564964334611
30
0
41
1
10
-14.7448319317882
20
7.18073146134719
30
0
41
1
10
-14.7732044950192
20
7.1897362156873
30
0
41
1
10
-14.8594560991353
20
7.21351895535656
30
0
41
1
10
-14.9184624466539
20
7.22508541231923
30
0
41
1
10
-14.9943023139084
20
7.23365556703433
30
0
41
1
10
-15.009604540326
20
7.23507501753883
30
0
41
1
10
-15.0401948935638
20
7.23728819114979
30
0
41
1
10
-15.0861089470591
20
7.23967813447453
30
0
41
1
10
-15.1321084232236
20
7.23928527151031
30
0
41
1
10
-15.1628130403699
20
7.23777548279986
30
0
0
SPLINE
5
D5
100
AcDbEntity
8
SK1
62
256
6
ByLayer
370
18
48
1
60
0
100
AcDbSpline
70
4
71
3
72
24
73
20
40
0
40
0
40
0
40
0
40
0.124999999999998
40
0.124999999999998
40
0.249999999999995
40
0.249999999999995
40
0.374999999999993
40
0.374999999999993
40
0.49999999999999
40
0.49999999999999
40
0.624999999999988
40
0.624999999999988
40
0.749999999999985
40
0.749999999999985
40
0.812499999999989
40
0.812499999999989
40
0.874999999999992
40
0.874999999999992
40
1
40
1
40
1
40
1
41
1
10
-15.1628130403699
20
-7.23777548279986
30
0
41
1
10
-15.1013368482927
20
-7.2407983526281
30
0
41
1
10
-15.0406973758297
20
-7.23880609117487
30
0
41
1
10
-14.920978556398
20
-7.22545942224767
30
0
41
1
10
-14.8618998887329
20
-7.21410077871741
30
0
41
1
10
-14.7452745335612
20
-7.18212437688828
30
0
41
1
10
-14.6895699451789
20
-7.16201960319464
30
0
41
1
10
-14.5827589175342
20
-7.11474711952985
30
0
41
1
10
-14.5316211412475
20
-7.08755690757022
30
0
41
1
10
-14.4334554488588
20
-7.02672282100497
30
0
41
1
10
-14.38751619038
20
-6.99376703919228
30
0
41
1
10
-14.3007925764322
20
-6.92357765523022
30
0
41
1
10
-14.2600161652162
20
-6.88633798514746
30
0
41
1
10
-14.2021759714483
20
-6.82763631844753
30
0
41
1
10
-14.1834523029509
20
-6.80759363972547
30
0
41
1
10
-14.1470479748901
20
-6.76660288333122
30
0
41
1
10
-14.1293429656042
20
-6.74562348347595
30
0
41
1
10
-14.0779142754528
20
-6.68164973874727
30
0
41
1
10
-14.0458764161971
20
-6.63764692539442
30
0
41
1
10
-14.0157764695459
20
-6.59242894057729
30
0
0
SPLINE
5
D6
100
AcDbEntity
8
1
62
256
6
ByLayer
370
13
48
1
60
0
100
AcDbSpline
70
4
71
3
72
42
73
38
40
0
40
0
40
0
40
0
40
0.062500000000004
40
0.062500000000004
40
0.093750000000006
40
0.093750000000006
40
0.109375000000007
40
0.109375000000007
40
0.125000000000007
40
0.125000000000007
40
0.187500000000007
40
0.187500000000007
40
0.250000000000006
40
0.250000000000006
40
0.312500000000006
40
0.312500000000006
40
0.375000000000005
40
0.375000000000005
40
0.437500000000005
40
0.437500000000005
40
0.500000000000004
40
0.500000000000004
40
0.562500000000004
40
0.562500000000004
40
0.625000000000003
40
0.625000000000003
40
0.687500000000003
40
0.687500000000003
40
0.750000000000002
40
0.750000000000002
40
0.812500000000002
40
0.812500000000002
40
0.875000000000001
40
0.875000000000001
40
0.937500000000001
40
0.937500000000001
40
1
40
1
40
1
40
1
41
1
10
85.6999999999999
20
-1.75639741360052
30
0
41
1
10
85.7637602759774
20
-1.39470949957214
30
0
41
1
10
85.8275205519549
20
-1.03589423855507
30
0
41
1
10
85.9231609659212
20
-0.506083426409617
30
0
41
1
10
85.9550411039098
20
-0.330873386342688
30
0
41
1
10
86.002861310893
20
-0.0705826574761375
30
0
41
1
10
86.0188013798873
20
0.0154770355807443
30
0
41
1
10
86.0506815178761
20
0.188643960318871
30
0
41
1
10
86.0666215868704
20
0.275654740184308
30
0
41
1
10
86.1463219318423
20
0.712672434327374
30
0
41
1
10
86.2100822078198
20
1.06861475688484
30
0
41
1
10
86.3376027597748
20
1.7880194564159
30
0
41
1
10
86.4013630357523
20
2.15147663110631
30
0
41
1
10
86.5288835877072
20
2.87971236659547
30
0
41
1
10
86.5926438636847
20
3.24448141583895
30
0
41
1
10
86.7201644156397
20
3.96830226466764
30
0
41
1
10
86.7839246916171
20
4.3273405999787
30
0
41
1
10
86.9114452435721
20
5.03216824989551
30
0
41
1
10
86.9752055195495
20
5.37794133869266
30
0
41
1
10
87.1027260715045
20
6.04866441381412
30
0
41
1
10
87.166486347482
20
6.37359734455336
30
0
41
1
10
87.2940068994369
20
6.99553106998806
30
0
41
1
10
87.3577671754144
20
7.29251631128008
30
0
41
1
10
87.4852877273695
20
7.85240906040406
30
0
41
1
10
87.5490480033469
20
8.11530473565287
30
0
41
1
10
87.6765685553019
20
8.60225525229953
30
0
41
1
10
87.7403288312794
20
8.82630356209108
30
0
41
1
10
87.8678493832343
20
9.23245953821902
30
0
41
1
10
87.9316096592117
20
9.41456656177948
30
0
41
1
10
88.0591302111667
20
9.73551231914186
30
0
41
1
10
88.1228904871442
20
9.87435582978628
30
0
41
1
10
88.2504110390992
20
10.1091542962545
30
0
41
1
10
88.3141713150767
20
10.2051181452701
30
0
41
1
10
88.4416918670316
20
10.3560336567148
30
0
41
1
10
88.5054521430091
20
10.4109965929192
30
0
41
1
10
88.632972694964
20
10.4829738084307
30
0
41
1
10
88.6967329709415
20
10.5
30
0
41
1
10
88.7604932469189
20
10.5
30
0
0
SPLINE
5
D7
100
AcDbEntity
8
1
62
256
6
ByLayer
370
13
48
1
60
0
100
AcDbSpline
70
4
71
3
72
85
73
81
40
0
40
0
40
0
40
0
40
0.0312500000000001
40
0.0312500000000001
40
0.0625000000000002
40
0.0625000000000002
40
0.0937500000000003
40
0.0937500000000003
40
0.125
40
0.125
40
0.156250000000001
40
0.156250000000001
40
0.187500000000001
40
0.187500000000001
40
0.218750000000001
40
0.218750000000001
40
0.250000000000001
40
0.250000000000001
40
0.281250000000001
40
0.281250000000001
40
0.312500000000001
40
0.312500000000001
40
0.320312500000001
40
0.320312500000001
40
0.324218750000001
40
0.324218750000001
40
0.328125000000001
40
0.343750000000001
40
0.343750000000001
40
0.375000000000001
40
0.375000000000001
40
0.40625
40
0.40625
40
0.4375
40
0.4375
40
0.468749999999999
40
0.468749999999999
40
0.499999999999999
40
0.499999999999999
40
0.531249999999998
40
0.531249999999998
40
0.562499999999998
40
0.562499999999998
40
0.593749999999998
40
0.593749999999998
40
0.624999999999997
40
0.624999999999997
40
0.640624999999997
40
0.640624999999997
40
0.644531249999997
40
0.644531249999997
40
0.648437499999997
40
0.648437499999997
40
0.656249999999997
40
0.656249999999997
40
0.687499999999997
40
0.687499999999997
40
0.718749999999997
40
0.718749999999997
40
0.749999999999997
40
0.749999999999997
40
0.781249999999998
40
0.781249999999998
40
0.812499999999998
40
0.812499999999998
40
0.843749999999998
40
0.843749999999998
40
0.874999999999998
40
0.874999999999998
40
0.906249999999998
40
0.906249999999998
40
0.937499999999998
40
0.937499999999998
40
0.953124999999998
40
0.953124999999998
40
0.960937499999998
40
0.960937499999998
40
0.968749999999999
40
0.968749999999999
40
1
40
1
40
1
40
1
41
1
10
88.1743192496035
20
10.5
30
0
41
1
10
88.2629025130474
20
10.5
30
0
41
1
10
88.351485776491
20
10.4670811941285
30
0
41
1
10
88.5286523033786
20
10.3254025593875
30
0
41
1
10
88.6172355668224
20
10.2165817276337
30
0
41
1
10
88.7944020937099
20
9.91658494234935
30
0
41
1
10
88.8829853571538
20
9.72535983378936
30
0
41
1
10
89.0601518840412
20
9.25936159488433
30
0
41
1
10
89.148735147485
20
8.984568352483
30
0
41
1
10
89.3259016743725
20
8.35666607980718
30
0
41
1
10
89.4144849378162
20
8.00357737935443
30
0
41
1
10
89.5916514647038
20
7.23077268418433
30
0
41
1
10
89.6802347281475
20
6.81111628056613
30
0
41
1
10
89.8574012550351
20
5.92210326662581
30
0
41
1
10
89.9459845184788
20
5.45283060414096
30
0
41
1
10
90.1231510453664
20
4.48452849223256
30
0
41
1
10
90.2117343088101
20
3.98558485163051
30
0
41
1
10
90.3889008356977
20
2.97826439118398
30
0
41
1
10
90.4774840991414
20
2.46995489961077
30
0
41
1
10
90.6546506260289
20
1.46223704304572
30
0
41
1
10
90.7432338894727
20
0.962866657136829
30
0
41
1
10
90.8539629687774
20
0.353425496575824
30
0
41
1
10
90.8761087846383
20
0.232265873984318
30
0
41
1
10
90.9093275084298
20
0.0517604802754192
30
0
41
1
10
90.9204004163602
20
-0.0080634803019564
30
0
41
1
10
90.9425462322212
20
-0.128199476893343
30
0
41
1
10
90.9979107718735
20
-0.42957813588967
30
0
41
1
10
91.0532753115259
20
-0.735894541419981
30
0
41
1
10
91.1861502066915
20
-1.47810138999478
30
0
41
1
10
91.2747334701353
20
-1.98241869363898
30
0
41
1
10
91.4518999970228
20
-2.9940770539792
30
0
41
1
10
91.5404832604665
20
-3.50136950559238
30
0
41
1
10
91.717649787354
20
-4.49978488882635
30
0
41
1
10
91.8062330507979
20
-4.9908323240181
30
0
41
1
10
91.9833995776854
20
-5.93629540644983
30
0
41
1
10
92.0719828411292
20
-6.39062327837362
30
0
41
1
10
92.2491493680167
20
-7.24343215299879
30
0
41
1
10
92.3377326314604
20
-7.64183525106679
30
0
41
1
10
92.5148991583479
20
-8.36740142544059
30
0
41
1
10
92.6034824217917
20
-8.69451739090357
30
0
41
1
10
92.7806489486794
20
-9.2678881649399
30
0
41
1
10
92.8692322121231
20
-9.51413718252408
30
0
41
1
10
93.0463987390106
20
-9.922746121481
30
0
41
1
10
93.1349820024543
20
-10.0851379174574
30
0
41
1
10
93.3121485293418
20
-10.3291793935279
30
0
41
1
10
93.4007317927856
20
-10.4108843038667
30
0
41
1
10
93.5336066879513
20
-10.4788500313346
30
0
41
1
10
93.5778983196732
20
-10.4924386005375
30
0
41
1
10
93.6332628593255
20
-10.4988944283831
30
0
41
1
10
93.644335767256
20
-10.499659474406
30
0
41
1
10
93.6664815831169
20
-10.5001587976748
30
0
41
1
10
93.6775544910474
20
-10.4998961124246
30
0
41
1
10
93.7107732148388
20
-10.4975481744178
30
0
41
1
10
93.7329190306998
20
-10.4938988725141
30
0
41
1
10
93.8436481100044
20
-10.4648132230221
30
0
41
1
10
93.9322313734482
20
-10.4067342809723
30
0
41
1
10
94.1093979003356
20
-10.2119895249258
30
0
41
1
10
94.1979811637794
20
-10.0752648244103
30
0
41
1
10
94.375147690667
20
-9.71837428305071
30
0
41
1
10
94.4637309541107
20
-9.49816747520276
30
0
41
1
10
94.6408974809982
20
-8.97525603699077
30
0
41
1
10
94.729480744442
20
-8.67254447672755
30
0
41
1
10
94.9066472713296
20
-7.99214080472532
30
0
41
1
10
94.9952305347733
20
-7.61448343372763
30
0
41
1
10
95.1723970616608
20
-6.79787977935925
30
0
41
1
10
95.2609803251046
20
-6.35900373870419
30
0
41
1
10
95.4381468519921
20
-5.43821591816379
30
0
41
1
10
95.5267301154359
20
-4.95639136435369
30
0
41
1
10
95.7038966423233
20
-3.97007861151528
30
0
41
1
10
95.7924799057672
20
-3.46567177051603
30
0
41
1
10
95.9696464326547
20
-2.45406893154222
30
0
41
1
10
96.0582296960985
20
-1.94693079197916
30
0
41
1
10
96.1911045912642
20
-1.19705332888643
30
0
41
1
10
96.2353962229861
20
-0.948873085271003
30
0
41
1
10
96.301833670569
20
-0.580610230021932
30
0
41
1
10
96.3239794864298
20
-0.458521862485128
30
0
41
1
10
96.3682711181517
20
-0.215875554143906
30
0
41
1
10
96.3904169340126
20
-0.0955247622582931
30
0
41
1
10
96.5011460133173
20
0.504137459826126
30
0
41
1
10
96.5897292767611
20
0.997541112444395
30
0
41
1
10
96.6783125402048
20
1.49793063978112
30
0
0
SPLINE
5
D8
100
AcDbEntity
8
1
62
256
6
ByLayer
370
13
48
1
60
0
100
AcDbSpline
70
4
71
3
72
32
73
28
40
0
40
0
40
0
40
0
40
0.125
40
0.125
40
0.1875
40
0.1875
40
0.25
40
0.25
40
0.3125
40
0.3125
40
0.375
40
0.375
40
0.4375
40
0.4375
40
0.5
40
0.5
40
0.5625
40
0.5625
40
0.625
40
0.625
40
0.6875
40
0.6875
40
0.75
40
0.75
40
0.875
40
0.875
40
1
40
1
40
1
40
1
41
1
10
85.6999999999999
20
0.984855670554253
30
0
41
1
10
85.8069012294492
20
1.58200363439028
30
0
41
1
10
85.9138024588984
20
2.19309340373073
30
0
41
1
10
86.0741543030723
20
3.10905663736906
30
0
41
1
10
86.1276049177969
20
3.4142018555566
30
0
41
1
10
86.2345061472461
20
4.01993396724623
30
0
41
1
10
86.2879567619707
20
4.32051513378792
30
0
41
1
10
86.3948579914199
20
4.9126810369803
30
0
41
1
10
86.4483086061445
20
5.20425909300189
30
0
41
1
10
86.5552098355938
20
5.77394574151597
30
0
41
1
10
86.6086604503183
20
6.05204725479294
30
0
41
1
10
86.7155616797677
20
6.59048157669713
30
0
41
1
10
86.7690122944922
20
6.85080757764763
30
0
41
1
10
86.8759135239414
20
7.34977641603049
30
0
41
1
10
86.9293641386661
20
7.58841340096839
30
0
41
1
10
87.0362653681153
20
8.04066706266357
30
0
41
1
10
87.0897159828398
20
8.25427942565906
30
0
41
1
10
87.1966172122891
20
8.6538786379293
30
0
41
1
10
87.2500678270137
20
8.83986309771097
30
0
41
1
10
87.356969056463
20
9.18243506559057
30
0
41
1
10
87.4104196711876
20
9.33902223829773
30
0
41
1
10
87.5173209006368
20
9.62190308575236
30
0
41
1
10
87.5707715153615
20
9.74819834870115
30
0
41
1
10
87.7311233595353
20
10.0815821046154
30
0
41
1
10
87.8380245889845
20
10.2428435197856
30
0
41
1
10
88.051827047883
20
10.4519761859428
30
0
41
1
10
88.1587282773322
20
10.5
30
0
41
1
10
88.2656295067814
20
10.5
30
0
0
SPLINE
5
D9
100
AcDbEntity
8
1
62
256
6
ByLayer
370
13
48
1
60
0
100
AcDbSpline
70
4
71
3
72
84
73
80
40
0
40
0
40
0
40
0
40
0.0312499999999995
40
0.0312499999999995
40
0.0624999999999991
40
0.0624999999999991
40
0.0937499999999986
40
0.0937499999999986
40
0.124999999999998
40
0.124999999999998
40
0.156249999999998
40
0.156249999999998
40
0.187499999999997
40
0.187499999999997
40
0.218749999999997
40
0.218749999999997
40
0.249999999999996
40
0.249999999999996
40
0.281249999999996
40
0.281249999999996
40
0.296874999999995
40
0.296874999999995
40
0.304687499999995
40
0.304687499999995
40
0.312499999999995
40
0.312499999999995
40
0.343749999999996
40
0.343749999999996
40
0.374999999999996
40
0.374999999999996
40
0.406249999999996
40
0.406249999999996
40
0.437499999999997
40
0.437499999999997
40
0.468749999999997
40
0.468749999999997
40
0.499999999999997
40
0.499999999999997
40
0.531249999999998
40
0.531249999999998
40
0.562499999999998
40
0.562499999999998
40
0.593749999999999
40
0.593749999999999
40
0.609374999999999
40
0.609374999999999
40
0.613281249999999
40
0.613281249999999
40
0.617187499999999
40
0.624999999999999
40
0.624999999999999
40
0.656249999999999
40
0.656249999999999
40
0.687499999999999
40
0.687499999999999
40
0.718749999999999
40
0.718749999999999
40
0.749999999999999
40
0.749999999999999
40
0.781249999999999
40
0.781249999999999
40
0.812499999999999
40
0.812499999999999
40
0.843749999999999
40
0.843749999999999
40
0.875
40
0.875
40
0.90625
40
0.90625
40
0.9140625
40
0.9140625
40
0.91796875
40
0.91796875
40
0.921875
40
0.9375
40
0.9375
40
0.96875
40
0.96875
40
1
40
1
40
1
40
1
41
1
10
87.6794555094659
20
10.5
30
0
41
1
10
87.7731936035361
20
10.5
30
0
41
1
10
87.8669316976063
20
10.4631222498746
30
0
41
1
10
88.0544078857467
20
10.3038581603469
30
0
41
1
10
88.1481459798169
20
10.1813912935168
30
0
41
1
10
88.3356221679574
20
9.84369435073381
30
0
41
1
10
88.4293602620276
20
9.62840254722093
30
0
41
1
10
88.6168364501679
20
9.10468259106034
30
0
41
1
10
88.7105745442381
20
8.79623648940353
30
0
41
1
10
88.8980507323785
20
8.09400385571104
30
0
41
1
10
88.9917888264487
20
7.70025724645316
30
0
41
1
10
89.1792650145891
20
6.84309630047656
30
0
41
1
10
89.2730031086593
20
6.37977300724859
30
0
41
1
10
89.4604792967997
20
5.4049952152796
30
0
41
1
10
89.5542173908699
20
4.89365630493364
30
0
41
1
10
89.7416935790103
20
3.84703087156308
30
0
41
1
10
89.8354316730805
20
3.31185077058373
30
0
41
1
10
90.0229078612209
20
2.2409143132875
30
0
41
1
10
90.116645955291
20
1.7052299874199
30
0
41
1
10
90.2572530963963
20
0.916120146477653
30
0
41
1
10
90.3041221434314
20
0.655451744073758
30
0
41
1
10
90.3744257139841
20
0.269498674244829
30
0
41
1
10
90.3978602375016
20
0.141686666385567
30
0
41
1
10
90.4447292845367
20
-0.112041151820193
30
0
41
1
10
90.4681638080543
20
-0.239573407241238
30
0
41
1
10
90.585336425642
20
-0.88217201996261
30
0
41
1
10
90.6790745197123
20
-1.41001881471385
30
0
41
1
10
90.8665507078528
20
-2.47609468231264
30
0
41
1
10
90.9602888019228
20
-3.01427398505783
30
0
41
1
10
91.1477649900634
20
-4.07930838929488
30
0
41
1
10
91.2415030841336
20
-4.606072785273
30
0
41
1
10
91.4289792722739
20
-5.62415791032944
30
0
41
1
10
91.5227173663441
20
-6.11536382393649
30
0
41
1
10
91.7101935544844
20
-7.03896511031405
30
0
41
1
10
91.8039316485547
20
-7.47125253136252
30
0
41
1
10
91.9914078366951
20
-8.25787299021852
30
0
41
1
10
92.0851459307652
20
-8.61213726777405
30
0
41
1
10
92.2726221189056
20
-9.23055945260089
30
0
41
1
10
92.3663602129758
20
-9.49470582029184
30
0
41
1
10
92.5538364011161
20
-9.9289866162141
30
0
41
1
10
92.6475744951864
20
-10.0991627713123
30
0
41
1
10
92.8350506833269
20
-10.3493554296175
30
0
41
1
10
92.9287887773969
20
-10.4294459676317
30
0
41
1
10
93.0693959185022
20
-10.4892986606762
30
0
41
1
10
93.1162649655373
20
-10.4992411273323
30
0
41
1
10
93.1748512743312
20
-10.5001373747273
30
0
41
1
10
93.18656853609
20
-10.4997433284439
30
0
41
1
10
93.2100030596075
20
-10.4977863686079
30
0
41
1
10
93.2451548448839
20
-10.4930962234835
30
0
41
1
10
93.2803066301602
20
-10.4830279296532
30
0
41
1
10
93.3974792477479
20
-10.4370355349663
30
0
41
1
10
93.4912173418181
20
-10.3602869779233
30
0
41
1
10
93.6786935299585
20
-10.117064670364
30
0
41
1
10
93.7724316240287
20
-9.95051615651531
30
0
41
1
10
93.9599078121691
20
-9.52350739435605
30
0
41
1
10
94.0536459062394
20
-9.26300369557464
30
0
41
1
10
94.2411220943798
20
-8.65156269283858
30
0
41
1
10
94.33486018845
20
-8.30063463786709
30
0
41
1
10
94.5223363765903
20
-7.52007268440681
30
0
41
1
10
94.6160744706605
20
-7.09050552003629
30
0
41
1
10
94.8035506588009
20
-6.17150032481902
30
0
41
1
10
94.897288752871
20
-5.68216927733388
30
0
41
1
10
95.0847649410115
20
-4.66688595085699
30
0
41
1
10
95.1785030350817
20
-4.14104885976161
30
0
41
1
10
95.3659792232221
20
-3.07695399209612
30
0
41
1
10
95.4597173172922
20
-2.53878829029222
30
0
41
1
10
95.6471935054326
20
-1.47196583170964
30
0
41
1
10
95.7409315995028
20
-0.94336053626634
30
0
41
1
10
95.8581042170907
20
-0.299455858953252
30
0
41
1
10
95.8815387406082
20
-0.17150499586981
30
0
41
1
10
95.9166905258845
20
0.0190113300120629
30
0
41
1
10
95.9284077876433
20
0.0823909085751495
30
0
41
1
10
95.9518423111609
20
0.209894383470782
30
0
41
1
10
96.0104286199547
20
0.529788685079581
30
0
41
1
10
96.0690149287486
20
0.855052765028631
30
0
41
1
10
96.2096220698539
20
1.64304228064091
30
0
41
1
10
96.303360163924
20
2.17831647580243
30
0
41
1
10
96.4908363520644
20
3.24928179108551
30
0
41
1
10
96.5845744461346
20
3.78490250474576
30
0
41
1
10
96.6783125402048
20
4.30912829274956
30
0
0
SPLINE
5
DA
100
AcDbEntity
8
1
62
256
6
ByLayer
370
13
48
1
60
0
100
AcDbSpline
70
4
71
3
72
22
73
18
40
0
40
0
40
0
40
0
40
0.125
40
0.125
40
0.25
40
0.25
40
0.375
40
0.375
40
0.5
40
0.5
40
0.625
40
0.625
40
0.75
40
0.75
40
0.875
40
0.875
40
1
40
1
40
1
40
1
41
1
10
85.6999999999999
20
3.79525670166478
30
0
41
1
10
85.7862819069434
20
4.28349100648668
30
0
41
1
10
85.8725638138869
20
4.7652913085997
30
0
41
1
10
86.0451276277739
20
5.69728271552995
30
0
41
1
10
86.1314095347175
20
6.14739734964388
30
0
41
1
10
86.3039733486044
20
6.99788460298618
30
0
41
1
10
86.3902552555479
20
7.39818568093963
30
0
41
1
10
86.5628190694349
20
8.13394211224139
30
0
41
1
10
86.6491009763784
20
8.46934915337206
30
0
41
1
10
86.8216647902653
20
9.06510811715182
30
0
41
1
10
86.9079466972088
20
9.32544607412328
30
0
41
1
10
87.0805105110959
20
9.76671916166083
30
0
41
1
10
87.1667924180393
20
9.94767440507081
30
0
41
1
10
87.3393562319263
20
10.2315917316059
30
0
41
1
10
87.4256381388699
20
10.3345978692373
30
0
41
1
10
87.5982019527569
20
10.468775211153
30
0
41
1
10
87.6844838597004
20
10.5
30
0
41
1
10
87.7707657666438
20
10.5
30
0
0
SPLINE
5
DB
100
AcDbEntity
8
1
62
256
6
ByLayer
370
13
48
1
60
0
100
AcDbSpline
70
4
71
3
72
80
73
76
40
0
40
0
40
0
40
0
40
0.0312499999999999
40
0.0312499999999999
40
0.0624999999999998
40
0.0624999999999998
40
0.0937499999999998
40
0.0937499999999998
40
0.125
40
0.125
40
0.15625
40
0.15625
40
0.1875
40
0.1875
40
0.218749999999999
40
0.218749999999999
40
0.249999999999999
40
0.249999999999999
40
0.281249999999999
40
0.281249999999999
40
0.289062499999999
40
0.289062499999999
40
0.296874999999999
40
0.296874999999999
40
0.312499999999999
40
0.312499999999999
40
0.343749999999999
40
0.343749999999999
40
0.374999999999999
40
0.374999999999999
40
0.406249999999999
40
0.406249999999999
40
0.437499999999999
40
0.437499999999999
40
0.468749999999999
40
0.468749999999999
40
0.499999999999999
40
0.499999999999999
40
0.531249999999999
40
0.531249999999999
40
0.562499999999999
40
0.562499999999999
40
0.578124999999999
40
0.578124999999999
40
0.593749999999999
40
0.593749999999999
40
0.624999999999999
40
0.624999999999999
40
0.65625
40
0.65625
40
0.6875
40
0.6875
40
0.718750000000001
40
0.718750000000001
40
0.750000000000001
40
0.750000000000001
40
0.781250000000002
40
0.781250000000002
40
0.812500000000002
40
0.812500000000002
40
0.843750000000003
40
0.843750000000003
40
0.859375000000003
40
0.859375000000003
40
0.867187500000003
40
0.867187500000003
40
0.875000000000002
40
0.875000000000002
40
0.906250000000002
40
0.906250000000002
40
0.937500000000001
40
0.937500000000001
40
0.968750000000001
40
0.968750000000001
40
1
40
1
40
1
40
1
41
1
10
87.1845917693284
20
10.5
30
0
41
1
10
87.283484694025
20
10.5
30
0
41
1
10
87.3823776187217
20
10.4589352382127
30
0
41
1
10
87.580163468115
20
10.2809959047996
30
0
41
1
10
87.6790563928115
20
10.1440167414522
30
0
41
1
10
87.8768422422048
20
9.76629249012166
30
0
41
1
10
87.9757351669014
20
9.52547171209218
30
0
41
1
10
88.1735210162947
20
8.94087716956727
30
0
41
1
10
88.2724139409913
20
8.59709186433253
30
0
41
1
10
88.4701997903845
20
7.81758603500867
30
0
41
1
10
88.5690927150812
20
7.38193410296537
30
0
41
1
10
88.7668785644745
20
6.43909482114367
30
0
41
1
10
88.865771489171
20
5.93203930566355
30
0
41
1
10
89.0635573385644
20
4.87306998382823
30
0
41
1
10
89.1624502632611
20
4.32130774906972
30
0
41
1
10
89.3602361126543
20
3.20144440750766
30
0
41
1
10
89.4591290373509
20
2.63346773523739
30
0
41
1
10
89.6569148867441
20
1.50722555103155
30
0
41
1
10
89.7558078114408
20
0.94902959363688
30
0
41
1
10
89.8794239673115
20
0.270221499545301
30
0
41
1
10
89.9041471984857
20
0.135391236657
30
0
41
1
10
89.953593660834
20
-0.132150582109915
30
0
41
1
10
89.9783168920081
20
-0.266947729533285
30
0
41
1
10
90.0524865855306
20
-0.674187486123543
30
0
41
1
10
90.101933047879
20
-0.949423152099513
30
0
41
1
10
90.2502724349239
20
-1.78282224348121
30
0
41
1
10
90.3491653596205
20
-2.34884519751222
30
0
41
1
10
90.5469512090139
20
-3.47836342276858
30
0
41
1
10
90.6458441337104
20
-4.04176002929088
30
0
41
1
10
90.8436299831037
20
-5.13835769002952
30
0
41
1
10
90.9425229078003
20
-5.67141575070127
30
0
41
1
10
91.1403087571936
20
-6.67916312704202
30
0
41
1
10
91.2392016818902
20
-7.15370441334162
30
0
41
1
10
91.4369875312834
20
-8.02027693720117
30
0
41
1
10
91.5358804559801
20
-8.41220364667009
30
0
41
1
10
91.7336663053735
20
-9.09741008097427
30
0
41
1
10
91.83255923007
20
-9.39066118136591
30
0
41
1
10
92.0303450794634
20
-9.87247942041981
30
0
41
1
10
92.12923800416
20
-10.0610937286752
30
0
41
1
10
92.3270238535532
20
-10.3373904037134
30
0
41
1
10
92.4259167782498
20
-10.4251676303155
30
0
41
1
10
92.5742561652947
20
-10.4895973445707
30
0
41
1
10
92.623702627643
20
-10.4999169195255
30
0
41
1
10
92.7225955523396
20
-10.5000820802351
30
0
41
1
10
92.7720420146879
20
-10.4899354775923
30
0
41
1
10
92.9203814017329
20
-10.4260457090136
30
0
41
1
10
93.0192743264295
20
-10.3386567629619
30
0
41
1
10
93.2170601758228
20
-10.0631692747335
30
0
41
1
10
93.3159531005194
20
-9.87497575639807
30
0
41
1
10
93.5137389499127
20
-9.39399607426478
30
0
41
1
10
93.6126318746093
20
-9.10116247849075
30
0
41
1
10
93.8104177240026
20
-8.41674642959367
30
0
41
1
10
93.9093106486992
20
-8.02519227140044
30
0
41
1
10
94.1070964980925
20
-7.15928194002623
30
0
41
1
10
94.2059894227891
20
-6.6850300347316
30
0
41
1
10
94.4037752721824
20
-5.67775293014341
30
0
41
1
10
94.502668196879
20
-5.14487567998557
30
0
41
1
10
94.7004540462723
20
-4.048523738016
30
0
41
1
10
94.7993469709689
20
-3.48519215288715
30
0
41
1
10
94.9971328203622
20
-2.35569827648578
30
0
41
1
10
95.0960257450588
20
-1.78963487621053
30
0
41
1
10
95.2443651321037
20
-0.956112620238059
30
0
41
1
10
95.2938115944521
20
-0.680825554770365
30
0
41
1
10
95.3679812879745
20
-0.273495651090542
30
0
41
1
10
95.3927045191487
20
-0.138649285540367
30
0
41
1
10
95.442150981497
20
0.128926700893231
30
0
41
1
10
95.4668742126712
20
0.263674341465702
30
0
41
1
10
95.590490368542
20
0.942332015010606
30
0
41
1
10
95.6893832932385
20
1.5004425456153
30
0
41
1
10
95.8871691426318
20
2.62660892625934
30
0
41
1
10
95.9860620673284
20
3.19459546294314
30
0
41
1
10
96.1838479167218
20
4.31459088752314
30
0
41
1
10
96.2827408414183
20
4.86647552443935
30
0
41
1
10
96.4805266908116
20
5.92580419719883
30
0
41
1
10
96.5794196155082
20
6.433096683559
30
0
41
1
10
96.6783125402048
20
6.90480238069705
30
0
0
SPLINE
5
DC
100
AcDbEntity
8
1
62
256
6
ByLayer
370
13
48
1
60
0
100
AcDbSpline
70
4
71
3
72
22
73
18
40
0
40
0
40
0
40
0
40
0.125
40
0.125
40
0.25
40
0.25
40
0.375
40
0.375
40
0.5
40
0.5
40
0.625
40
0.625
40
0.75
40
0.75
40
0.875
40
0.875
40
1
40
1
40
1
40
1
41
1
10
85.6999999999999
20
6.45956135226689
30
0
41
1
10
85.7656625844378
20
6.78645834456742
30
0
41
1
10
85.8313251688754
20
7.09938619269556
30
0
41
1
10
85.9626503377509
20
7.69034781551056
30
0
41
1
10
86.0283129221888
20
7.96836680595408
30
0
41
1
10
86.1596380910642
20
8.48398492236245
30
0
41
1
10
86.225300675502
20
8.72157529957968
30
0
41
1
10
86.3566258443776
20
9.15263815017869
30
0
41
1
10
86.4222884288153
20
9.34610886650509
30
0
41
1
10
86.5536135976909
20
9.68722213287532
30
0
41
1
10
86.6192761821285
20
9.83486952695316
30
0
41
1
10
86.7506013510041
20
10.0845646080095
30
0
41
1
10
86.816263935442
20
10.1866222419262
30
0
41
1
10
86.9475891043174
20
10.3470764432712
30
0
41
1
10
87.0132516887551
20
10.4054859578351
30
0
41
1
10
87.1445768576307
20
10.4819408372046
30
0
41
1
10
87.2102394420684
20
10.5
30
0
41
1
10
87.2759020265062
20
10.5
30
0
0
SPLINE
5
DD
100
AcDbEntity
8
1
62
256
6
ByLayer
370
13
48
1
60
0
100
AcDbSpline
70
4
71
3
72
103
73
99
40
0
40
0
40
0
40
0
40
0.0312499999999976
40
0.0312499999999976
40
0.0624999999999952
40
0.0624999999999952
40
0.0937499999999928
40
0.0937499999999928
40
0.109374999999991
40
0.109374999999991
40
0.12499999999999
40
0.12499999999999
40
0.140624999999989
40
0.140624999999989
40
0.156249999999988
40
0.156249999999988
40
0.171874999999986
40
0.171874999999986
40
0.187499999999985
40
0.187499999999985
40
0.218749999999982
40
0.218749999999982
40
0.249999999999979
40
0.249999999999979
40
0.265624999999978
40
0.265624999999978
40
0.273437499999977
40
0.273437499999977
40
0.277343749999977
40
0.277343749999977
40
0.281249999999977
40
0.281249999999977
40
0.312499999999976
40
0.312499999999976
40
0.343749999999976
40
0.343749999999976
40
0.374999999999975
40
0.374999999999975
40
0.390624999999975
40
0.390624999999975
40
0.406249999999975
40
0.406249999999975
40
0.421874999999975
40
0.421874999999975
40
0.437499999999974
40
0.437499999999974
40
0.468749999999974
40
0.468749999999974
40
0.499999999999973
40
0.499999999999973
40
0.531249999999973
40
0.531249999999973
40
0.546874999999972
40
0.546874999999972
40
0.550781249999972
40
0.550781249999972
40
0.554687499999972
40
0.562499999999973
40
0.562499999999973
40
0.593749999999974
40
0.593749999999974
40
0.624999999999975
40
0.624999999999975
40
0.656249999999976
40
0.656249999999976
40
0.671874999999977
40
0.671874999999977
40
0.687499999999978
40
0.687499999999978
40
0.703124999999978
40
0.703124999999978
40
0.718749999999979
40
0.718749999999979
40
0.749999999999981
40
0.749999999999981
40
0.781249999999982
40
0.781249999999982
40
0.812499999999984
40
0.812499999999984
40
0.820312499999984
40
0.820312499999984
40
0.828124999999985
40
0.828124999999985
40
0.843749999999986
40
0.843749999999986
40
0.874999999999989
40
0.874999999999989
40
0.906249999999991
40
0.906249999999991
40
0.937499999999994
40
0.937499999999994
40
0.953124999999996
40
0.953124999999996
40
0.968749999999997
40
0.968749999999997
40
0.984374999999999
40
0.984374999999999
40
1
40
1
40
1
40
1
41
1
10
86.6897280291907
20
10.5
30
0
41
1
10
86.7937757845139
20
10.5
30
0
41
1
10
86.8978235398369
20
10.454519349158
30
0
41
1
10
87.105919050483
20
10.2568069676459
30
0
41
1
10
87.2099668058061
20
10.1044413725794
30
0
41
1
10
87.4180623164523
20
9.68436760311704
30
0
41
1
10
87.5221100717753
20
9.41656878888898
30
0
41
1
10
87.6781817047598
20
8.93018877164553
30
0
41
1
10
87.7302055824214
20
8.75404365343556
30
0
41
1
10
87.8342533377445
20
8.37520729433649
30
0
41
1
10
87.8862772154059
20
8.17251780708756
30
0
41
1
10
87.990324970729
20
7.74284302440421
30
0
41
1
10
88.0423488483906
20
7.51586115991157
30
0
41
1
10
88.1463966037136
20
7.04053322490918
30
0
41
1
10
88.1984204813753
20
6.79219198593927
30
0
41
1
10
88.3024682366982
20
6.27763297966419
30
0
41
1
10
88.3544921143598
20
6.01142099403981
30
0
41
1
10
88.4585398696829
20
5.46500315037272
30
0
41
1
10
88.5105637473443
20
5.18480347082971
30
0
41
1
10
88.666635380329
20
4.32935763988661
30
0
41
1
10
88.7706831356521
20
3.73935454410957
30
0
41
1
10
88.9787786462983
20
2.55233038372106
30
0
41
1
10
89.0828264016213
20
1.95544613151083
30
0
41
1
10
89.2388980346058
20
1.07598951833955
30
0
41
1
10
89.2909219122673
20
0.785433512681237
30
0
41
1
10
89.3689577287596
20
0.355603571429384
30
0
41
1
10
89.3949696675904
20
0.213323742095184
30
0
41
1
10
89.4339875758366
20
0.0016274466956361
30
0
41
1
10
89.446993545252
20
-0.0686416384102415
30
0
41
1
10
89.4730054840828
20
-0.21013266180654
30
0
41
1
10
89.486011453498
20
-0.281159402979995
30
0
41
1
10
89.6030651782365
20
-0.92276161922311
30
0
41
1
10
89.7071129335596
20
-1.51018801989522
30
0
41
1
10
89.9152084442057
20
-2.69550488493886
30
0
41
1
10
90.0192561995289
20
-3.29330420340708
30
0
41
1
10
90.227351710175
20
-4.46892841135033
30
0
41
1
10
90.331399465498
20
-5.04658899018025
30
0
41
1
10
90.4874710984826
20
-5.87319618272454
30
0
41
1
10
90.5394949761441
20
-6.14207970183867
30
0
41
1
10
90.6435427314672
20
-6.66262184073679
30
0
41
1
10
90.6955666091287
20
-6.9142745703551
30
0
41
1
10
90.7996143644518
20
-7.39678610583749
30
0
41
1
10
90.8516382421133
20
-7.62763988215048
30
0
41
1
10
90.9556859974364
20
-8.06551426546778
30
0
41
1
10
91.0077098750979
20
-8.27253117730459
30
0
41
1
10
91.1637815080825
20
-8.8542668537267
30
0
41
1
10
91.2678292634056
20
-9.18927185863004
30
0
41
1
10
91.4759247740517
20
-9.7437816533627
30
0
41
1
10
91.5799725293747
20
-9.96332793147954
30
0
41
1
10
91.7880680400208
20
-10.289246781677
30
0
41
1
10
91.892115795344
20
-10.3957345266857
30
0
41
1
10
92.0481874283286
20
-10.4796875698981
30
0
41
1
10
92.10021130599
20
-10.4951066333067
30
0
41
1
10
92.1652411530669
20
-10.4999789220825
30
0
41
1
10
92.1782471224824
20
-10.5002364326155
30
0
41
1
10
92.2042590613131
20
-10.4993359399593
30
0
41
1
10
92.2432769695592
20
-10.4958465268005
30
0
41
1
10
92.2822948778054
20
-10.4857833017327
30
0
41
1
10
92.4123545719592
20
-10.4369688310734
30
0
41
1
10
92.5164023272823
20
-10.3487837812806
30
0
41
1
10
92.7244978379285
20
-10.0609632977385
30
0
41
1
10
92.8285455932515
20
-9.86120531580161
30
0
41
1
10
93.0366411038976
20
-9.34586801097919
30
0
41
1
10
93.1406888592207
20
-9.030231320642
30
0
41
1
10
93.2967604922053
20
-8.47562205428156
30
0
41
1
10
93.3487843698668
20
-8.27732583582952
30
0
41
1
10
93.4528321251899
20
-7.85600231806546
30
0
41
1
10
93.5048560028515
20
-7.63297817731282
30
0
41
1
10
93.6089037581745
20
-7.16502176520336
30
0
41
1
10
93.6609276358361
20
-6.92009411406926
30
0
41
1
10
93.7649753911592
20
-6.41173399949733
30
0
41
1
10
93.8169992688207
20
-6.14830719290822
30
0
41
1
10
93.9730709018052
20
-5.33601113316908
30
0
41
1
10
94.0771186571283
20
-4.76511496229998
30
0
41
1
10
94.2852141677745
20
-3.59738705051561
30
0
41
1
10
94.3892619230974
20
-3.00072895942651
30
0
41
1
10
94.5973574337435
20
-1.81286251612343
30
0
41
1
10
94.7014051890667
20
-1.22175905043133
30
0
41
1
10
94.8314648832205
20
-0.502070685117047
30
0
41
1
10
94.8574768220512
20
-0.359074209718841
30
0
41
1
10
94.9095006997127
20
-0.0752788701068425
30
0
41
1
10
94.9355126385436
20
0.0649071186117283
30
0
41
1
10
95.0135484550359
20
0.490438559520754
30
0
41
1
10
95.0655723326973
20
0.778551870012507
30
0
41
1
10
95.2216439656821
20
1.65220566200102
30
0
41
1
10
95.3256917210051
20
2.2472708873517
30
0
41
1
10
95.5337872316511
20
3.43588164028421
30
0
41
1
10
95.6378349869741
20
4.02930313834352
30
0
41
1
10
95.8459304976203
20
5.18244400340083
30
0
41
1
10
95.9499782529434
20
5.74197893879352
30
0
41
1
10
96.1060498859281
20
6.53143754080318
30
0
41
1
10
96.1580737635895
20
6.78629733383184
30
0
41
1
10
96.2621215189126
20
7.2757991410997
30
0
41
1
10
96.3141453965742
20
7.51043594177276
30
0
41
1
10
96.4181931518972
20
7.95635157144918
30
0
41
1
10
96.4702170295587
20
8.16762645020512
30
0
41
1
10
96.5742647848818
20
8.56432072291372
30
0
41
1
10
96.6262886625434
20
8.74973777209343
30
0
41
1
10
96.6783125402048
20
8.92134745484142
30
0
0
SPLINE
5
DE
100
AcDbEntity
8
1
62
256
6
ByLayer
370
13
48
1
60
0
100
AcDbSpline
70
4
71
3
72
14
73
10
40
0
40
0
40
0
40
0
40
0.25
40
0.25
40
0.5
40
0.5
40
0.75
40
0.75
40
1
40
1
40
1
40
1
41
1
10
85.6999999999999
20
8.6061479609144
30
0
41
1
10
85.790086523864
20
8.93077494253771
30
0
41
1
10
85.8801730477281
20
9.21520230753552
30
0
41
1
10
86.0603460954562
20
9.6977016861772
30
0
41
1
10
86.1504326193202
20
9.89579352501625
30
0
41
1
10
86.3306056670483
20
10.2065440178596
30
0
41
1
10
86.4206921909125
20
10.3192553337348
30
0
41
1
10
86.6008652386406
20
10.4659501919984
30
0
41
1
10
86.6909517625046
20
10.5
30
0
41
1
10
86.7810382863686
20
10.5
30
0
0
SPLINE
5
DF
100
AcDbEntity
8
1
62
256
6
ByLayer
370
13
48
1
60
0
100
AcDbSpline
70
4
71
3
72
132
73
128
40
0
40
0
40
0
40
0
40
0.0312500000000002
40
0.0312500000000002
40
0.0468750000000002
40
0.0468750000000002
40
0.0625000000000003
40
0.0625000000000003
40
0.0781250000000004
40
0.0781250000000004
40
0.0937500000000005
40
0.0937500000000005
40
0.109375000000001
40
0.109375000000001
40
0.125000000000001
40
0.125000000000001
40
0.140625000000001
40
0.140625000000001
40
0.156250000000001
40
0.156250000000001
40
0.171875000000001
40
0.171875000000001
40
0.187500000000001
40
0.187500000000001
40
0.203125000000001
40
0.203125000000001
40
0.218750000000001
40
0.218750000000001
40
0.250000000000001
40
0.250000000000001
40
0.257812500000001
40
0.257812500000001
40
0.265625000000001
40
0.265625000000001
40
0.281250000000001
40
0.281250000000001
40
0.296875000000001
40
0.296875000000001
40
0.312500000000001
40
0.312500000000001
40
0.328125000000001
40
0.328125000000001
40
0.343750000000001
40
0.343750000000001
40
0.359375000000001
40
0.359375000000001
40
0.375000000000001
40
0.375000000000001
40
0.390625000000001
40
0.390625000000001
40
0.406250000000001
40
0.406250000000001
40
0.421875000000001
40
0.421875000000001
40
0.437500000000001
40
0.437500000000001
40
0.453125000000001
40
0.453125000000001
40
0.468750000000001
40
0.468750000000001
40
0.484375
40
0.484375
40
0.5
40
0.5
40
0.515625
40
0.515625
40
0.5234375
40
0.5234375
40
0.531250000000001
40
0.531250000000001
40
0.5625
40
0.5625
40
0.578125
40
0.578125
40
0.59375
40
0.59375
40
0.609375
40
0.609375
40
0.625
40
0.625
40
0.640625
40
0.640625
40
0.65625
40
0.65625
40
0.671875
40
0.671875
40
0.6875
40
0.6875
40
0.703125
40
0.703125
40
0.71875
40
0.71875
40
0.734375
40
0.734375
40
0.75
40
0.75
40
0.78125
40
0.78125
40
0.7890625
40
0.7890625
40
0.796875
40
0.796875
40
0.8125
40
0.8125
40
0.828125
40
0.828125
40
0.84375
40
0.84375
40
0.859375
40
0.859375
40
0.875
40
0.875
40
0.890625
40
0.890625
40
0.90625
40
0.90625
40
0.921875
40
0.921875
40
0.9375
40
0.9375
40
0.953125
40
0.953125
40
0.96875
40
0.96875
40
0.984375
40
0.984375
40
1
40
1
40
1
40
1
41
1
10
86.1948642890532
20
10.5
30
0
41
1
10
86.3040668750027
20
10.5
30
0
41
1
10
86.4132694609522
20
10.4498737052431
30
0
41
1
10
86.5770733398764
20
10.2859305675284
30
0
41
1
10
86.6316746328512
20
10.2165390203565
30
0
41
1
10
86.7408772188006
20
10.0468087232387
30
0
41
1
10
86.7954785117754
20
9.94646529214009
30
0
41
1
10
86.9046810977249
20
9.71409736835147
30
0
41
1
10
86.9592823906996
20
9.58206948601483
30
0
41
1
10
87.0684849766492
20
9.28645863707129
30
0
41
1
10
87.1230862696239
20
9.12287412001871
30
0
41
1
10
87.2322888555733
20
8.76521194260764
30
0
41
1
10
87.2868901485481
20
8.57113494837671
30
0
41
1
10
87.3960927344976
20
8.1545002419025
30
0
41
1
10
87.4506940274723
20
7.93194552642203
30
0
41
1
10
87.5598966134219
20
7.46126349825965
30
0
41
1
10
87.6144979063966
20
7.21314131571404
30
0
41
1
10
87.7237004923461
20
6.69500518823631
30
0
41
1
10
87.7783017853208
20
6.4249980137914
30
0
41
1
10
87.8875043712703
20
5.86736475791031
30
0
41
1
10
87.9421056642451
20
5.57974637822412
30
0
41
1
10
88.0513082501946
20
4.9915355806333
30
0
41
1
10
88.1059095431693
20
4.69095099518853
30
0
41
1
10
88.2151121291188
20
4.08158850621967
30
0
41
1
10
88.2697134220937
20
3.7728178107466
30
0
41
1
10
88.3789160080431
20
3.1517712194009
30
0
41
1
10
88.4335173010178
20
2.83950131244538
30
0
41
1
10
88.5973211799421
20
1.90402693643355
30
0
41
1
10
88.7065237658916
20
1.28244930710755
30
0
41
1
10
88.8430269983285
20
0.526388771459608
30
0
41
1
10
88.8703276448159
20
0.376200195798788
30
0
41
1
10
88.9249289377906
20
0.0782363141840676
30
0
41
1
10
88.9522295842779
20
-0.0688680896424216
30
0
41
1
10
89.03413152374
20
-0.515661284855156
30
0
41
1
10
89.0887328167149
20
-0.818383720320298
30
0
41
1
10
89.1979354026644
20
-1.43047264957963
30
0
41
1
10
89.252536695639
20
-1.73983729338497
30
0
41
1
10
89.3617392815885
20
-2.3615424152436
30
0
41
1
10
89.4163405745634
20
-2.67387935966565
30
0
41
1
10
89.5255431605128
20
-3.2973500887218
30
0
41
1
10
89.5801444534876
20
-3.60847866343039
30
0
41
1
10
89.6893470394372
20
-4.22497428324806
30
0
41
1
10
89.7439483324118
20
-4.53033468185964
30
0
41
1
10
89.8531509183613
20
-5.1305352312969
30
0
41
1
10
89.907752211336
20
-5.42536778195949
30
0
41
1
10
90.0169547972855
20
-5.99976938568045
30
0
41
1
10
90.0715560902603
20
-6.27933056998788
30
0
41
1
10
90.1807586762097
20
-6.81869653144793
30
0
41
1
10
90.2353599691846
20
-7.07849396507604
30
0
41
1
10
90.3445625551341
20
-7.57432118877864
30
0
41
1
10
90.3991638481088
20
-7.8103449335278
30
0
41
1
10
90.5083664340584
20
-8.2552989809908
30
0
41
1
10
90.5629677270331
20
-8.46422515335075
30
0
41
1
10
90.6721703129826
20
-8.85249853025152
30
0
41
1
10
90.7267716059573
20
-9.03184387388009
30
0
41
1
10
90.8359741919069
20
-9.35940130691662
30
0
41
1
10
90.8905754848815
20
-9.50761384748367
30
0
41
1
10
90.999778070831
20
-9.77230363907879
30
0
41
1
10
91.0543793638059
20
-9.8887834010059
30
0
41
1
10
91.1635819497553
20
-10.0903121808527
30
0
41
1
10
91.2181832427301
20
-10.1753652953164
30
0
41
1
10
91.3273858286796
20
-10.3151507794429
30
0
41
1
10
91.3819871216542
20
-10.3698882403185
30
0
41
1
10
91.4911897076038
20
-10.4508176867747
30
0
41
1
10
91.5457910005786
20
-10.4770151578778
30
0
41
1
10
91.6276929400407
20
-10.49661194231
30
0
41
1
10
91.6549935865281
20
-10.4998643812395
30
0
41
1
10
91.7095948795028
20
-10.5001273073691
30
0
41
1
10
91.7368955259901
20
-10.4971444061666
30
0
41
1
10
91.8733987584271
20
-10.4658640320314
30
0
41
1
10
91.9826013443766
20
-10.3881679445646
30
0
41
1
10
92.1464052233007
20
-10.1804022299488
30
0
41
1
10
92.2010065162755
20
-10.096002168106
30
0
41
1
10
92.3102091022249
20
-9.89579507190905
30
0
41
1
10
92.3648103951998
20
-9.77998391373654
30
0
41
1
10
92.4740129811493
20
-9.51662874259529
30
0
41
1
10
92.528614274124
20
-9.36908217980979
30
0
41
1
10
92.6378168600735
20
-9.04283433232521
30
0
41
1
10
92.6924181530482
20
-8.86413254951049
30
0
41
1
10
92.8016207389976
20
-8.47710382821106
30
0
41
1
10
92.8562220319725
20
-8.26877870123369
30
0
41
1
10
92.965424617922
20
-7.82496533825244
30
0
41
1
10
93.0200259108967
20
-7.58948118736902
30
0
41
1
10
93.1292284968463
20
-7.09465540640505
30
0
41
1
10
93.183829789821
20
-6.83531978688029
30
0
41
1
10
93.2930323757705
20
-6.29678719504966
30
0
41
1
10
93.3476336687452
20
-6.01759754655765
30
0
41
1
10
93.4568362546947
20
-5.44384090035706
30
0
41
1
10
93.5114375476694
20
-5.14928176868651
30
0
41
1
10
93.620640133619
20
-4.54952708675248
30
0
41
1
10
93.6752414265937
20
-4.24433914995893
30
0
41
1
10
93.7844440125432
20
-3.62808946069248
30
0
41
1
10
93.839045305518
20
-3.31703438062061
30
0
41
1
10
93.9482478914675
20
-2.69361785549253
30
0
41
1
10
94.0028491844421
20
-2.38126165398319
30
0
41
1
10
94.1666530633664
20
-1.44852130993163
30
0
41
1
10
94.2758556493159
20
-0.832771217327036
30
0
41
1
10
94.4123588817528
20
-0.0876079050067062
30
0
41
1
10
94.4396595282401
20
0.0595032407485974
30
0
41
1
10
94.4942608212149
20
0.357263311987367
30
0
41
1
10
94.5215614677022
20
0.507357276157165
30
0
41
1
10
94.6034634071644
20
0.96073409085983
30
0
41
1
10
94.6580647001391
20
1.2671302589427
30
0
41
1
10
94.7672672860887
20
1.88484125828552
30
0
41
1
10
94.8218685790634
20
2.19615342756606
30
0
41
1
10
94.931071165013
20
2.81976500478564
30
0
41
1
10
94.9856724579877
20
3.13206004407076
30
0
41
1
10
95.0948750439372
20
3.75325313946777
30
0
41
1
10
95.149476336912
20
4.06214523716142
30
0
41
1
10
95.2586789228614
20
4.67185102590076
30
0
41
1
10
95.3132802158362
20
4.97265752917968
30
0
41
1
10
95.4224828017856
20
5.561412348956
30
0
41
1
10
95.4770840947604
20
5.84935283875404
30
0
41
1
10
95.5862866807098
20
6.40772522175857
30
0
41
1
10
95.6408879736846
20
6.67814940212671
30
0
41
1
10
95.7500905596341
20
7.19720427119177
30
0
41
1
10
95.8046918526089
20
7.44582816189791
30
0
41
1
10
95.9138944385583
20
7.91758384487784
30
0
41
1
10
95.9684957315331
20
8.1407104664155
30
0
41
1
10
96.0776983174826
20
8.55854145529179
30
0
41
1
10
96.1322996104574
20
8.75324277775175
30
0
41
1
10
96.2415021964069
20
9.11218639091373
30
0
41
1
10
96.2961034893817
20
9.27642796648971
30
0
41
1
10
96.4053060753312
20
9.57336558091532
30
0
41
1
10
96.4599073683058
20
9.70606312659763
30
0
41
1
10
96.5691099542553
20
9.93976386743216
30
0
41
1
10
96.6237112472302
20
10.0407704187061
30
0
41
1
10
96.6783125402048
20
10.1262869267228
30
0
0
SPLINE
5
E0
100
AcDbEntity
8
1
62
256
6
ByLayer
370
13
48
1
60
0
100
AcDbSpline
70
4
71
3
72
10
73
6
40
0
40
0
40
0
40
0
40
0.5
40
0.5
40
1
40
1
40
1
40
1
41
1
10
85.6999999999999
20
9.96878180789014
30
0
41
1
10
85.7976957577051
20
10.1528922831652
30
0
41
1
10
85.8953915154103
20
10.2864234349609
30
0
41
1
10
86.0907830308206
20
10.4599280115305
30
0
41
1
10
86.1884787885259
20
10.5
30
0
41
1
10
86.286174546231
20
10.5
30
0
0
SPLINE
5
E1
100
AcDbEntity
8
1
62
256
6
ByLayer
370
13
48
1
60
0
100
AcDbSpline
70
4
71
3
72
134
73
130
40
0
40
0
40
0
40
0
40
0.015625
40
0.015625
40
0.0312499999999999
40
0.0312499999999999
40
0.0468749999999999
40
0.0468749999999999
40
0.0624999999999999
40
0.0624999999999999
40
0.0781249999999999
40
0.0781249999999999
40
0.0937499999999998
40
0.0937499999999998
40
0.109375
40
0.109375
40
0.125
40
0.125
40
0.140625
40
0.140625
40
0.15625
40
0.15625
40
0.171875
40
0.171875
40
0.1875
40
0.1875
40
0.203125
40
0.203125
40
0.21875
40
0.21875
40
0.234375
40
0.234375
40
0.25
40
0.25
40
0.265625
40
0.265625
40
0.28125
40
0.28125
40
0.296875
40
0.296875
40
0.3125
40
0.3125
40
0.328125
40
0.328125
40
0.34375
40
0.34375
40
0.359375
40
0.359375
40
0.375
40
0.375
40
0.390625
40
0.390625
40
0.40625
40
0.40625
40
0.421875
40
0.421875
40
0.4375
40
0.4375
40
0.453125
40
0.453125
40
0.46875
40
0.46875
40
0.484375
40
0.484375
40
0.5
40
0.5
40
0.515625
40
0.515625
40
0.53125
40
0.53125
40
0.546875
40
0.546875
40
0.5625
40
0.5625
40
0.578125
40
0.578125
40
0.59375
40
0.59375
40
0.609375
40
0.609375
40
0.625
40
0.625
40
0.640625
40
0.640625
40
0.65625
40
0.65625
40
0.671875
40
0.671875
40
0.6875
40
0.6875
40
0.703125
40
0.703125
40
0.71875
40
0.71875
40
0.734375
40
0.734375
40
0.75
40
0.75
40
0.765625
40
0.765625
40
0.78125
40
0.78125
40
0.796875
40
0.796875
40
0.812499999999999
40
0.812499999999999
40
0.828124999999999
40
0.828124999999999
40
0.843749999999999
40
0.843749999999999
40
0.859374999999999
40
0.859374999999999
40
0.874999999999999
40
0.874999999999999
40
0.890624999999999
40
0.890624999999999
40
0.90625
40
0.90625
40
0.921875
40
0.921875
40
0.9375
40
0.9375
40
0.953125
40
0.953125
40
0.96875
40
0.96875
40
0.984375
40
0.984375
40
1
40
1
40
1
40
1
41
1
10
85.7000005489156
20
10.5
30
0
41
1
10
85.7571792572035
20
10.5
30
0
41
1
10
85.8143579654916
20
10.4863118507016
30
0
41
1
10
85.9287153820675
20
10.4287412388044
30
0
41
1
10
85.9858940903555
20
10.3848518728072
30
0
41
1
10
86.1002515069314
20
10.2645609000282
30
0
41
1
10
86.1574302152193
20
10.1881525898756
30
0
41
1
10
86.2717876317952
20
10.0012256161692
30
0
41
1
10
86.3289663400831
20
9.89070124489629
30
0
41
1
10
86.4433237566591
20
9.63485323092357
30
0
41
1
10
86.5005024649471
20
9.48952571161738
30
0
41
1
10
86.6148598815229
20
9.16443867562273
30
0
41
1
10
86.6720385898109
20
8.98467783495738
30
0
41
1
10
86.7863960063869
20
8.59222825383893
30
0
41
1
10
86.8435747146749
20
8.37954118572765
30
0
41
1
10
86.9579321312508
20
7.92387623179229
30
0
41
1
10
87.0151108395388
20
7.68090305302877
30
0
41
1
10
87.1294682561147
20
7.16833996696445
30
0
41
1
10
87.1866469644027
20
6.89875738772486
30
0
41
1
10
87.3010043809786
20
6.33750402435106
30
0
41
1
10
87.3581830892666
20
6.04584238035571
30
0
41
1
10
87.4725405058424
20
5.44556334115089
30
0
41
1
10
87.5297192141304
20
5.13695584443639
30
0
41
1
10
87.6440766307064
20
4.50823164713464
30
0
41
1
10
87.7012553389943
20
4.18812450699969
30
0
41
1
10
87.8156127555703
20
3.54186555706579
30
0
41
1
10
87.8727914638582
20
3.21572202714913
30
0
41
1
10
87.9871488804341
20
2.56260175818821
30
0
41
1
10
88.0443275887221
20
2.23563137017578
30
0
41
1
10
88.1586850052981
20
1.58559409555755
30
0
41
1
10
88.2158637135861
20
1.26253133463644
30
0
41
1
10
88.3302211301619
20
0.624413296980947
30
0
41
1
10
88.3873998384499
20
0.309359952824195
30
0
41
1
10
88.5017572550258
20
-0.309358467899955
30
0
41
1
10
88.5589359633138
20
-0.624411778217166
30
0
41
1
10
88.6732933798897
20
-1.26252979043363
30
0
41
1
10
88.7304720881778
20
-1.58559254163683
30
0
41
1
10
88.8448295047538
20
-2.23562980391756
30
0
41
1
10
88.9020082130417
20
-2.56260018931405
30
0
41
1
10
89.0163656296176
20
-3.21572046104589
30
0
41
1
10
89.0735443379055
20
-3.54186399635287
30
0
41
1
10
89.1879017544815
20
-4.18812296566952
30
0
41
1
10
89.2450804627694
20
-4.50823011979966
30
0
41
1
10
89.3594378793453
20
-5.13695435389505
30
0
41
1
10
89.4166165876334
20
-5.44556187340939
30
0
41
1
10
89.5309740042092
20
-6.0458409667576
30
0
41
1
10
89.5881527124972
20
-6.33750264209624
30
0
41
1
10
89.7025101290732
20
-6.89875607596329
30
0
41
1
10
89.7596888373611
20
-7.16833869435081
30
0
41
1
10
89.874046253937
20
-7.68090186533937
30
0
41
1
10
89.931224962225
20
-7.92387508987554
30
0
41
1
10
90.045582378801
20
-8.37954014045232
30
0
41
1
10
90.1027610870889
20
-8.59222725942769
30
0
41
1
10
90.2171185036648
20
-8.98467694561035
30
0
41
1
10
90.2742972119528
20
-9.1644378404709
30
0
41
1
10
90.3886546285287
20
-9.48952498635114
30
0
41
1
10
90.4458333368167
20
-9.63485256134317
30
0
41
1
10
90.5601907533926
20
-9.89070068640592
30
0
41
1
10
90.6173694616805
20
-10.0012251130794
30
0
41
1
10
90.7317268782565
20
-10.1881521957157
30
0
41
1
10
90.7889055865445
20
-10.2645605593953
30
0
41
1
10
90.9032630031204
20
-10.3848516360432
30
0
41
1
10
90.9604417114083
20
-10.4287410523814
30
0
41
1
10
91.0747991279844
20
-10.4863117607854
30
0
41
1
10
91.1319778362723
20
-10.4999999562499
30
0
41
1
10
91.2463352528482
20
-10.5000000437499
30
0
41
1
10
91.3035139611362
20
-10.4863119406176
30
0
41
1
10
91.4178713777121
20
-10.4287414252272
30
0
41
1
10
91.4750500860001
20
-10.3848521095709
30
0
41
1
10
91.589407502576
20
-10.2645612406609
30
0
41
1
10
91.646586210864
20
-10.1881529840353
30
0
41
1
10
91.7609436274399
20
-10.0012261192587
30
0
41
1
10
91.8181223357278
20
-9.89070180338641
30
0
41
1
10
91.9324797523038
20
-9.63485390050366
30
0
41
1
10
91.9896584605917
20
-9.48952643688335
30
0
41
1
10
92.1040158771677
20
-9.16443951077429
30
0
41
1
10
92.1611945854556
20
-8.98467872430416
30
0
41
1
10
92.2755520020316
20
-8.59222924824994
30
0
41
1
10
92.3327307103195
20
-8.37954223100274
30
0
41
1
10
92.4470881268954
20
-7.92387737370879
30
0
41
1
10
92.5042668351834
20
-7.68090424071798
30
0
41
1
10
92.6186242517594
20
-7.16834123957793
30
0
41
1
10
92.6758029600473
20
-6.89875869948622
30
0
41
1
10
92.7901603766234
20
-6.33750540660571
30
0
41
1
10
92.8473390849112
20
-6.04584379395365
30
0
41
1
10
92.9616965014872
20
-5.44556480889227
30
0
41
1
10
93.018875209775
20
-5.13695733497761
30
0
41
1
10
93.133232626351
20
-4.50823317446955
30
0
41
1
10
93.190411334639
20
-4.18812604832976
30
0
41
1
10
93.304768751215
20
-3.54186711777871
30
0
41
1
10
93.3619474595029
20
-3.21572359325231
30
0
41
1
10
93.4763048760789
20
-2.56260332706236
30
0
41
1
10
93.5334835843668
20
-2.23563293643403
30
0
41
1
10
93.6478410009427
20
-1.58559564947834
30
0
41
1
10
93.7050197092307
20
-1.2625328788393
30
0
41
1
10
93.8193771258067
20
-0.624414815744814
30
0
41
1
10
93.8765558340946
20
-0.309361455870317
30
0
41
1
10
93.9909132506705
20
0.30935700109751
30
0
41
1
10
94.0480919589585
20
0.624410259453441
30
0
41
1
10
94.1624493755345
20
1.26252824623089
30
0
41
1
10
94.2196280838223
20
1.58559098771613
30
0
41
1
10
94.3339855003983
20
2.23562823765934
30
0
41
1
10
94.3911642086863
20
2.5625986204399
30
0
41
1
10
94.5055216252623
20
3.21571889494265
30
0
41
1
10
94.5627003335501
20
3.5418624356399
30
0
41
1
10
94.6770577501261
20
4.18812142433933
30
0
41
1
10
94.734236458414
20
4.50822859246463
30
0
41
1
10
94.84859387499
20
5.13695286335363
30
0
41
1
10
94.9057725832779
20
5.44556040566778
30
0
41
1
10
95.0201299998539
20
6.04583955315937
30
0
41
1
10
95.0773087081419
20
6.33750125984125
30
0
41
1
10
95.1916661247178
20
6.89875476420156
30
0
41
1
10
95.2488448330057
20
7.16833742173696
30
0
41
1
10
95.3632022495817
20
7.68090067764973
30
0
41
1
10
95.4203809578696
20
7.92387394795858
30
0
41
1
10
95.5347383744456
20
8.37953909517674
30
0
41
1
10
95.5919170827336
20
8.59222626501617
30
0
41
1
10
95.7062744993094
20
8.98467605626306
30
0
41
1
10
95.7634532075973
20
9.1644370053188
30
0
41
1
10
95.8778106241734
20
9.48952426108463
30
0
41
1
10
95.9349893324613
20
9.63485189176254
30
0
41
1
10
96.0493467490373
20
9.89070012791527
30
0
41
1
10
96.1065254573253
20
10.0012246099893
30
0
41
1
10
96.2208828739012
20
10.1881518015555
30
0
41
1
10
96.278061582189
20
10.2645602187621
30
0
41
1
10
96.3924189987649
20
10.3848513992789
30
0
41
1
10
96.4495977070529
20
10.4287408659582
30
0
41
1
10
96.5639551236288
20
10.486311670869
30
0
41
1
10
96.621133831917
20
10.4999999124996
30
0
41
1
10
96.6783125402048
20
10.4999999999996
30
0
0
SPLINE
5
E2
100
AcDbEntity
8
1
62
256
6
ByLayer
370
13
48
1
60
0
100
AcDbSpline
70
4
71
3
72
10
73
6
40
0
40
0
40
0
40
0
40
0.5
40
0.5
40
1
40
1
40
1
40
1
41
1
10
96.0921390918051
20
10.5
30
0
41
1
10
96.1898346665384
20
10.5
30
0
41
1
10
96.2875302412717
20
10.4599281623205
30
0
41
1
10
96.4829213907383
20
10.2864242590268
30
0
41
1
10
96.5806169654716
20
10.1528936306174
30
0
41
1
10
96.6783125402048
20
9.96878387678268
30
0
0
SPLINE
5
E3
100
AcDbEntity
8
1
62
256
6
ByLayer
370
13
48
1
60
0
100
AcDbSpline
70
4
71
3
72
8
73
4
40
0
40
0
40
0
40
0
40
1
40
1
40
1
40
1
41
1
10
85.6999999999999
20
10.4881547885043
30
0
41
1
10
85.7304369353645
20
10.4961248050841
30
0
41
1
10
85.7608738707289
20
10.5
30
0
41
1
10
85.7913108060934
20
10.5
30
0
0
SPLINE
5
E4
100
AcDbEntity
8
1
62
256
6
ByLayer
370
13
48
1
60
0
100
AcDbSpline
70
4
71
3
72
132
73
128
40
0
40
0
40
0
40
0
40
0.0156249999999998
40
0.0156249999999998
40
0.0312499999999996
40
0.0312499999999996
40
0.0468749999999994
40
0.0468749999999994
40
0.0624999999999993
40
0.0624999999999993
40
0.0781249999999991
40
0.0781249999999991
40
0.0937499999999989
40
0.0937499999999989
40
0.109374999999999
40
0.109374999999999
40
0.124999999999999
40
0.124999999999999
40
0.140624999999998
40
0.140624999999998
40
0.156249999999998
40
0.156249999999998
40
0.171874999999998
40
0.171874999999998
40
0.187499999999998
40
0.187499999999998
40
0.203124999999998
40
0.203124999999998
40
0.210937499999998
40
0.210937499999998
40
0.218749999999997
40
0.218749999999997
40
0.249999999999997
40
0.249999999999997
40
0.265624999999997
40
0.265624999999997
40
0.281249999999997
40
0.281249999999997
40
0.296874999999998
40
0.296874999999998
40
0.312499999999998
40
0.312499999999998
40
0.328124999999998
40
0.328124999999998
40
0.343749999999998
40
0.343749999999998
40
0.359374999999998
40
0.359374999999998
40
0.374999999999998
40
0.374999999999998
40
0.390624999999998
40
0.390624999999998
40
0.406249999999998
40
0.406249999999998
40
0.421874999999998
40
0.421874999999998
40
0.437499999999998
40
0.437499999999998
40
0.468749999999998
40
0.468749999999998
40
0.476562499999998
40
0.476562499999998
40
0.484374999999998
40
0.484374999999998
40
0.499999999999999
40
0.499999999999999
40
0.515624999999999
40
0.515624999999999
40
0.531249999999999
40
0.531249999999999
40
0.546874999999999
40
0.546874999999999
40
0.562499999999999
40
0.562499999999999
40
0.578124999999999
40
0.578124999999999
40
0.593749999999999
40
0.593749999999999
40
0.609374999999999
40
0.609374999999999
40
0.624999999999999
40
0.624999999999999
40
0.640624999999999
40
0.640624999999999
40
0.656249999999999
40
0.656249999999999
40
0.671874999999999
40
0.671874999999999
40
0.687499999999999
40
0.687499999999999
40
0.703124999999999
40
0.703124999999999
40
0.718749999999999
40
0.718749999999999
40
0.734374999999999
40
0.734374999999999
40
0.742187499999999
40
0.742187499999999
40
0.749999999999999
40
0.749999999999999
40
0.781249999999999
40
0.781249999999999
40
0.796874999999999
40
0.796874999999999
40
0.812499999999999
40
0.812499999999999
40
0.828124999999999
40
0.828124999999999
40
0.843749999999999
40
0.843749999999999
40
0.859374999999999
40
0.859374999999999
40
0.874999999999999
40
0.874999999999999
40
0.890624999999999
40
0.890624999999999
40
0.906249999999999
40
0.906249999999999
40
0.921874999999999
40
0.921874999999999
40
0.9375
40
0.9375
40
0.953125
40
0.953125
40
0.96875
40
0.96875
40
1
40
1
40
1
40
1
41
1
10
85.7
20
10.1262886461432
30
0
41
1
10
85.7546012986926
20
10.0407723363603
30
0
41
1
10
85.8092025973852
20
9.93976598378197
30
0
41
1
10
85.9184051947703
20
9.70606563568654
30
0
41
1
10
85.973006493463
20
9.57336828403544
30
0
41
1
10
86.0822090908483
20
9.2764310471166
30
0
41
1
10
86.1368103895409
20
9.11218965500191
30
0
41
1
10
86.2460129869262
20
8.7532463923975
30
0
41
1
10
86.3006142856187
20
8.55854523701933
30
0
41
1
10
86.4098168830041
20
8.14071456066415
30
0
41
1
10
86.4644181816966
20
7.91758808455313
30
0
41
1
10
86.5736207790819
20
7.44583266645495
30
0
41
1
10
86.6282220777745
20
7.19720889519476
30
0
41
1
10
86.7374246751598
20
6.67815423600447
30
0
41
1
10
86.7920259738524
20
6.40773014606077
30
0
41
1
10
86.9012285712375
20
5.84935791333251
30
0
41
1
10
86.9558298699301
20
5.5614174833872
30
0
41
1
10
87.0650324673154
20
4.97266275272992
30
0
41
1
10
87.119633766008
20
4.671856278723
30
0
41
1
10
87.2288363633932
20
4.06215051936627
30
0
41
1
10
87.2834376620859
20
3.75325842179254
30
0
41
1
10
87.3926402594712
20
3.1320653001064
30
0
41
1
10
87.4472415581638
20
2.81977023442357
30
0
41
1
10
87.5564441555489
20
2.19615858140318
30
0
41
1
10
87.6110454542415
20
1.88484636273117
30
0
41
1
10
87.7202480516269
20
1.2671352456637
30
0
41
1
10
87.7748493503194
20
0.960739009258305
30
0
41
1
10
87.8567512983584
20
0.507362081064343
30
0
41
1
10
87.8840519477047
20
0.357268077230117
30
0
41
1
10
87.9386532463973
20
0.0595079235203855
30
0
41
1
10
87.9659538957437
20
-0.0876032325323024
30
0
41
1
10
88.1024571424753
20
-0.832766497079291
30
0
41
1
10
88.2116597398605
20
-1.44851658494178
30
0
41
1
10
88.3754636359384
20
-2.38125698373628
30
0
41
1
10
88.430064934631
20
-2.69361321374055
30
0
41
1
10
88.5392675320161
20
-3.31702981726531
30
0
41
1
10
88.5938688307087
20
-3.62808494724396
30
0
41
1
10
88.7030714280941
20
-4.24433475772415
30
0
41
1
10
88.7576727267866
20
-4.54952276582699
30
0
41
1
10
88.8668753241718
20
-5.14927761072437
30
0
41
1
10
88.9214766228644
20
-5.44383683404791
30
0
41
1
10
89.0306792202498
20
-6.01759368177201
30
0
41
1
10
89.0852805189424
20
-6.29678344012976
30
0
41
1
10
89.1944831163277
20
-6.83531626679678
30
0
41
1
10
89.2490844150202
20
-7.09465201128407
30
0
41
1
10
89.3582870124054
20
-7.58947805337405
30
0
41
1
10
89.4128883110981
20
-7.82496234041056
30
0
41
1
10
89.5220909084834
20
-8.26877598248583
30
0
41
1
10
89.5766922071759
20
-8.47710125239277
30
0
41
1
10
89.6858948045613
20
-8.86413026174941
30
0
41
1
10
89.7404961032538
20
-9.04283218968104
30
0
41
1
10
89.849698700639
20
-9.36908032516899
30
0
41
1
10
89.9042999993316
20
-9.51662703083218
30
0
41
1
10
90.0135025967169
20
-9.77998248153008
30
0
41
1
10
90.0681038954095
20
-9.89579377637563
30
0
41
1
10
90.1773064927947
20
-10.0960011364372
30
0
41
1
10
90.2319077914873
20
-10.1804013254688
30
0
41
1
10
90.3957116875652
20
-10.3881674037327
30
0
41
1
10
90.5049142849505
20
-10.465863709333
30
0
41
1
10
90.641417531682
20
-10.4971443197801
30
0
41
1
10
90.6687181810282
20
-10.500127266365
30
0
41
1
10
90.7233194797209
20
-10.4998644277769
30
0
41
1
10
90.7506201290673
20
-10.4966120331115
30
0
41
1
10
90.8325220771063
20
-10.4770153826058
30
0
41
1
10
90.8871233757988
20
-10.4508180023116
30
0
41
1
10
90.996325973184
20
-10.3698887383774
30
0
41
1
10
91.0509272718766
20
-10.3151513692116
30
0
41
1
10
91.1601298692618
20
-10.1753660669176
30
0
41
1
10
91.2147311679546
20
-10.0903130425718
30
0
41
1
10
91.3239337653397
20
-9.88878443866216
30
0
41
1
10
91.3785350640323
20
-9.77230476254809
30
0
41
1
10
91.4877376614176
20
-9.5076151355168
30
0
41
1
10
91.5423389601102
20
-9.35940267369361
30
0
41
1
10
91.6515415574955
20
-9.03184538846659
30
0
41
1
10
91.7061428561881
20
-8.85250011389698
30
0
41
1
10
91.8153454535734
20
-8.46422686317723
30
0
41
1
10
91.8699467522659
20
-8.25530074793369
30
0
41
1
10
91.9791493496512
20
-7.81034680105518
30
0
41
1
10
92.0337506483438
20
-7.5743230997704
30
0
41
1
10
92.142953245729
20
-7.07849594832692
30
0
41
1
10
92.1975545444216
20
-6.81869854349239
30
0
41
1
10
92.3067571418069
20
-6.27933262469287
30
0
41
1
10
92.3613584404996
20
-5.99977145425396
30
0
41
1
10
92.4705610378849
20
-5.42536986384508
30
0
41
1
10
92.5251623365774
20
-5.13053731262994
30
0
41
1
10
92.6343649339626
20
-4.53033674884168
30
0
41
1
10
92.6889662326553
20
-4.22497633643709
30
0
41
1
10
92.7981688300405
20
-3.60848067750163
30
0
41
1
10
92.8527701287331
20
-3.29735207747441
30
0
41
1
10
92.9619727261184
20
-2.6738812883205
30
0
41
1
10
93.016574024811
20
-2.36154430912538
30
0
41
1
10
93.1257766221962
20
-1.73983911050129
30
0
41
1
10
93.1803779208888
20
-1.4304744247089
30
0
41
1
10
93.2895805182742
20
-0.818385406494855
30
0
41
1
10
93.3441818169667
20
-0.515662924066135
30
0
41
1
10
93.4260837650057
20
-0.0688696562442033
30
0
41
1
10
93.4533844143519
20
0.0782347623673445
30
0
41
1
10
93.5079857130446
20
0.376198658527841
30
0
41
1
10
93.5352863623908
20
0.526387242313945
30
0
41
1
10
93.6717896091224
20
1.28244782289167
30
0
41
1
10
93.7809922065076
20
1.90402550215327
30
0
41
1
10
93.9447961025855
20
2.83949997235661
30
0
41
1
10
93.9993974012781
20
3.15176991387909
30
0
41
1
10
94.1085999986633
20
3.77281657985398
30
0
41
1
10
94.163201297356
20
4.08158731538816
30
0
41
1
10
94.2724038947412
20
4.69094988876273
30
0
41
1
10
94.3270051934339
20
4.99153451854949
30
0
41
1
10
94.436207790819
20
5.57974540758411
30
0
41
1
10
94.4908090895117
20
5.86736383436826
30
0
41
1
10
94.6000116868969
20
6.42499718546549
30
0
41
1
10
94.6546129855896
20
6.695004408024
30
0
41
1
10
94.7638155829748
20
7.21314063092143
30
0
41
1
10
94.8184168816674
20
7.46126286076833
30
0
41
1
10
94.9276194790526
20
7.93194498095267
30
0
41
1
10
94.9822207777453
20
8.15449974114952
30
0
41
1
10
95.0914233751305
20
8.57113453289614
30
0
41
1
10
95.1460246738231
20
8.76521156767981
30
0
41
1
10
95.2552272712083
20
9.12287382076482
30
0
41
1
10
95.309828569901
20
9.28645837293678
30
0
41
1
10
95.4190311672862
20
9.58206928580188
30
0
41
1
10
95.4736324659788
20
9.71409719694043
30
0
41
1
10
95.5828350633641
20
9.94646517154706
30
0
41
1
10
95.6374363620567
20
10.0468086246629
30
0
41
1
10
95.7466389594418
20
10.2165389589642
30
0
41
1
10
95.8012402581346
20
10.2859305213046
30
0
41
1
10
95.9650441542125
20
10.4498736946815
30
0
41
1
10
96.0742467515976
20
10.5
30
0
41
1
10
96.1834493489829
20
10.5
30
0
0
SPLINE
5
E5
100
AcDbEntity
8
1
62
256
6
ByLayer
370
13
48
1
60
0
100
AcDbSpline
70
4
71
3
72
14
73
10
40
0
40
0
40
0
40
0
40
0.25
40
0.25
40
0.5
40
0.5
40
0.75
40
0.75
40
1
40
1
40
1
40
1
41
1
10
95.5972753516675
20
10.5
30
0
41
1
10
95.6873617840455
20
10.5
30
0
41
1
10
95.7774482164237
20
10.4659502614179
30
0
41
1
10
95.95762108118
20
10.319255711236
30
0
41
1
10
96.0477075135581
20
10.2065446343536
30
0
41
1
10
96.2278803783142
20
9.89579480198748
30
0
41
1
10
96.3179668106924
20
9.69770338485031
30
0
41
1
10
96.4981396754487
20
9.21520501881113
30
0
41
1
10
96.5882261078268
20
8.93077824468872
30
0
41
1
10
96.6783125402049
20
8.60615191694964
30
0
0
SPLINE
5
E6
100
AcDbEntity
8
1
62
256
6
ByLayer
370
13
48
1
60
0
100
AcDbSpline
70
4
71
3
72
104
73
100
40
0
40
0
40
0
40
0
40
0.0156250000000005
40
0.0156250000000005
40
0.0312500000000009
40
0.0312500000000009
40
0.0468750000000013
40
0.0468750000000013
40
0.0625000000000017
40
0.0625000000000017
40
0.0937500000000022
40
0.0937500000000022
40
0.125000000000003
40
0.125000000000003
40
0.156250000000003
40
0.156250000000003
40
0.171875000000004
40
0.171875000000004
40
0.179687500000004
40
0.179687500000004
40
0.187500000000004
40
0.187500000000004
40
0.218750000000005
40
0.218750000000005
40
0.250000000000005
40
0.250000000000005
40
0.281250000000006
40
0.281250000000006
40
0.296875000000006
40
0.296875000000006
40
0.312500000000006
40
0.312500000000006
40
0.328125000000007
40
0.328125000000007
40
0.343750000000007
40
0.343750000000007
40
0.375000000000007
40
0.375000000000007
40
0.406250000000008
40
0.406250000000008
40
0.437500000000008
40
0.437500000000008
40
0.445312500000009
40
0.445312500000009
40
0.449218750000008
40
0.449218750000008
40
0.453125000000008
40
0.453125000000008
40
0.468750000000009
40
0.468750000000009
40
0.500000000000009
40
0.500000000000009
40
0.53125000000001
40
0.53125000000001
40
0.56250000000001
40
0.56250000000001
40
0.578125000000011
40
0.578125000000011
40
0.593750000000011
40
0.593750000000011
40
0.609375000000012
40
0.609375000000012
40
0.625000000000012
40
0.625000000000012
40
0.656250000000013
40
0.656250000000013
40
0.687500000000013
40
0.687500000000013
40
0.718750000000014
40
0.718750000000014
40
0.722656250000014
40
0.722656250000014
40
0.726562500000014
40
0.726562500000014
40
0.734375000000013
40
0.734375000000013
40
0.750000000000012
40
0.750000000000012
40
0.781250000000011
40
0.781250000000011
40
0.812500000000009
40
0.812500000000009
40
0.828125000000009
40
0.828125000000009
40
0.843750000000008
40
0.843750000000008
40
0.859375000000007
40
0.859375000000007
40
0.875000000000006
40
0.875000000000006
40
0.890625000000006
40
0.890625000000006
40
0.906250000000005
40
0.906250000000005
40
0.937500000000003
40
0.937500000000003
40
0.968750000000002
40
0.968750000000002
40
1
40
1
40
1
40
1
41
1
10
85.6999999999999
20
8.921351076224
30
0
41
1
10
85.7520238833794
20
8.74974156840929
30
0
41
1
10
85.8040477667587
20
8.56432468629936
30
0
41
1
10
85.9080955335176
20
8.16763072723617
30
0
41
1
10
85.9601194168969
20
7.95635599504533
30
0
41
1
10
86.0641671836557
20
7.51044063402554
30
0
41
1
10
86.1161910670352
20
7.27580395543623
30
0
41
1
10
86.220238833794
20
6.78630236497548
30
0
41
1
10
86.2722627171734
20
6.53144266666615
30
0
41
1
10
86.4283343673116
20
5.741984305355
30
0
41
1
10
86.5323821340704
20
5.18244947184533
30
0
41
1
10
86.7404776675879
20
4.02930869628546
30
0
41
1
10
86.8445254343468
20
3.43588718606065
30
0
41
1
10
87.0526209678644
20
2.24727631521182
30
0
41
1
10
87.1566687346233
20
1.65221098441413
30
0
41
1
10
87.3127403847615
20
0.778556986592974
30
0
41
1
10
87.3647642681408
20
0.490443599588502
30
0
41
1
10
87.4428000932099
20
0.0649120349386294
30
0
41
1
10
87.4688120348997
20
-0.0752739671737004
30
0
41
1
10
87.5208359182791
20
-0.359069287316032
30
0
41
1
10
87.5468478599687
20
-0.502065754948006
30
0
41
1
10
87.6769075684173
20
-1.22175409193025
30
0
41
1
10
87.780955335176
20
-1.81285756887695
30
0
41
1
10
87.9890508686937
20
-3.00072411491871
30
0
41
1
10
88.0930986354525
20
-3.59738229765395
30
0
41
1
10
88.3011941689701
20
-4.76511047444151
30
0
41
1
10
88.405241935729
20
-5.33600681870624
30
0
41
1
10
88.5613135858671
20
-6.14830318993512
30
0
41
1
10
88.6133374692465
20
-6.41173010880198
30
0
41
1
10
88.7173852360053
20
-6.92009046188892
30
0
41
1
10
88.7694091193847
20
-7.16501823925339
30
0
41
1
10
88.8734568861436
20
-7.63297491418061
30
0
41
1
10
88.925480769523
20
-7.85599919151198
30
0
41
1
10
89.0295285362818
20
-8.27732298876884
30
0
41
1
10
89.0815524196611
20
-8.47561935012556
30
0
41
1
10
89.2376240697993
20
-9.03022904845477
30
0
41
1
10
89.3416718365582
20
-9.34586603089249
30
0
41
1
10
89.5497673700759
20
-9.86120389748686
30
0
41
1
10
89.6538151368346
20
-10.0609621489292
30
0
41
1
10
89.8619106703522
20
-10.3487831269537
30
0
41
1
10
89.965958437111
20
-10.4369684017096
30
0
41
1
10
90.0960181455595
20
-10.4857831193559
30
0
41
1
10
90.1220300872492
20
-10.4924919837821
30
0
41
1
10
90.1610479997838
20
-10.4981726417411
30
0
41
1
10
90.1740539706285
20
-10.4993358968795
30
0
41
1
10
90.2000659123182
20
-10.5002364338291
30
0
41
1
10
90.2130718831632
20
-10.4999789450345
30
0
41
1
10
90.2781017373874
20
-10.495106766409
30
0
41
1
10
90.3301256207668
20
-10.4796877928829
30
0
41
1
10
90.486197270905
20
-10.3957350218848
30
0
41
1
10
90.5902450376639
20
-10.289247461889
30
0
41
1
10
90.7983405711815
20
-9.96332897068794
30
0
41
1
10
90.9023883379404
20
-9.74378286640751
30
0
41
1
10
91.1104838714579
20
-9.18927338812682
30
0
41
1
10
91.2145316382167
20
-8.854268525658
30
0
41
1
10
91.3706032883548
20
-8.27253302672378
30
0
41
1
10
91.4226271717342
20
-8.06551616806595
30
0
41
1
10
91.5266749384931
20
-7.62764187777032
30
0
41
1
10
91.5786988218725
20
-7.39678814129755
30
0
41
1
10
91.6827465886312
20
-6.9142766714032
30
0
41
1
10
91.7347704720106
20
-6.66262396753231
30
0
41
1
10
91.8388182387695
20
-6.14208186594669
30
0
41
1
10
91.8908421221489
20
-5.87319835839929
30
0
41
1
10
92.0469137722871
20
-5.04659118011898
30
0
41
1
10
92.1509615390459
20
-4.46893058333509
30
0
41
1
10
92.3590570725636
20
-3.29330629539177
30
0
41
1
10
92.4631048393223
20
-2.69550691503812
30
0
41
1
10
92.6712003728398
20
-1.51018989809117
30
0
41
1
10
92.7752481395987
20
-0.922763407540089
30
0
41
1
10
92.8923018772023
20
-0.281161083415469
30
0
41
1
10
92.9053078480472
20
-0.210134330159889
30
0
41
1
10
92.931319789737
20
-0.0686432824367955
30
0
41
1
10
92.9443257605817
20
0.0016258146477526
30
0
41
1
10
92.9833436731163
20
0.213322120070444
30
0
41
1
10
93.0093556148061
20
0.355601956894049
30
0
41
1
10
93.0873914398751
20
0.785431923067762
30
0
41
1
10
93.1394153232545
20
1.07598794862125
30
0
41
1
10
93.2954869733928
20
1.95544463127538
30
0
41
1
10
93.3995347401516
20
2.55232894303816
30
0
41
1
10
93.6076302736692
20
3.73935324504529
30
0
41
1
10
93.711678040428
20
4.32935642286949
30
0
41
1
10
93.8677496905662
20
5.18480238696301
30
0
41
1
10
93.9197735739456
20
5.46500211253081
30
0
41
1
10
94.0238213407044
20
6.01142005003319
30
0
41
1
10
94.0758452240838
20
6.27763208346457
30
0
41
1
10
94.1798929908426
20
6.79219118550517
30
0
41
1
10
94.231916874222
20
7.0405324724297
30
0
41
1
10
94.3359646409808
20
7.51586050184014
30
0
41
1
10
94.3879885243602
20
7.74284241278235
30
0
41
1
10
94.492036291119
20
8.17251728531056
30
0
41
1
10
94.5440601744984
20
8.37520681595157
30
0
41
1
10
94.6481079412573
20
8.75404325743565
30
0
41
1
10
94.7001318246366
20
8.93018841463626
30
0
41
1
10
94.8562034747748
20
9.41656854067529
30
0
41
1
10
94.9602512415337
20
9.6843674163479
30
0
41
1
10
95.1683467750512
20
10.1044412823302
30
0
41
1
10
95.2723945418101
20
10.2568069125059
30
0
41
1
10
95.4804900753277
20
10.454519339107
30
0
41
1
10
95.5845378420864
20
10.5
30
0
41
1
10
95.6885856088453
20
10.5
30
0
0
SPLINE
5
E7
100
AcDbEntity
8
1
62
256
6
ByLayer
370
13
48
1
60
0
100
AcDbSpline
70
4
71
3
72
22
73
18
40
0
40
0
40
0
40
0
40
0.125
40
0.125
40
0.25
40
0.25
40
0.375
40
0.375
40
0.5
40
0.5
40
0.625
40
0.625
40
0.75
40
0.75
40
0.875
40
0.875
40
1
40
1
40
1
40
1
41
1
10
95.1024116115298
20
10.5
30
0
41
1
10
95.1680741502246
20
10.5
30
0
41
1
10
95.2337366889195
20
10.4819408624113
30
0
41
1
10
95.3650617663091
20
10.4054860924122
30
0
41
1
10
95.4307243050038
20
10.3470766620598
30
0
41
1
10
95.5620493823933
20
10.1866226938071
30
0
41
1
10
95.6277119210881
20
10.0845652088132
30
0
41
1
10
95.7590369984778
20
9.83487049166976
30
0
41
1
10
95.8246995371725
20
9.68722331260793
30
0
41
1
10
95.9560246145621
20
9.34611053835579
30
0
41
1
10
96.0216871532569
20
9.1526400991315
30
0
41
1
10
96.1530122306465
20
8.72157785503853
30
0
41
1
10
96.2186747693413
20
8.48398780719461
30
0
41
1
10
96.349999846731
20
7.96837038669312
30
0
41
1
10
96.4156623854257
20
7.69035176272456
30
0
41
1
10
96.5469874628153
20
7.09939089087609
30
0
41
1
10
96.61265000151
20
6.78646342716314
30
0
41
1
10
96.6783125402048
20
6.45956681774842
30
0
0
SPLINE
5
E8
100
AcDbEntity
8
1
62
256
6
ByLayer
370
13
48
1
60
0
100
AcDbSpline
70
4
71
3
72
80
73
76
40
0
40
0
40
0
40
0
40
0.0312500000000009
40
0.0312500000000009
40
0.0625000000000018
40
0.0625000000000018
40
0.0937500000000028
40
0.0937500000000028
40
0.125000000000004
40
0.125000000000004
40
0.132812500000004
40
0.132812500000004
40
0.140625000000004
40
0.140625000000004
40
0.156250000000004
40
0.156250000000004
40
0.187500000000003
40
0.187500000000003
40
0.218750000000003
40
0.218750000000003
40
0.250000000000003
40
0.250000000000003
40
0.281250000000002
40
0.281250000000002
40
0.312500000000002
40
0.312500000000002
40
0.343750000000001
40
0.343750000000001
40
0.375000000000001
40
0.375000000000001
40
0.40625
40
0.40625
40
0.421875
40
0.421875
40
0.4375
40
0.4375
40
0.46875
40
0.46875
40
0.5
40
0.5
40
0.53125
40
0.53125
40
0.562499999999999
40
0.562499999999999
40
0.593749999999999
40
0.593749999999999
40
0.624999999999999
40
0.624999999999999
40
0.656249999999999
40
0.656249999999999
40
0.687499999999999
40
0.687499999999999
40
0.703124999999999
40
0.703124999999999
40
0.710937499999999
40
0.710937499999999
40
0.718749999999999
40
0.718749999999999
40
0.749999999999999
40
0.749999999999999
40
0.781249999999999
40
0.781249999999999
40
0.812499999999999
40
0.812499999999999
40
0.843749999999999
40
0.843749999999999
40
0.875
40
0.875
40
0.90625
40
0.90625
40
0.9375
40
0.9375
40
0.96875
40
0.96875
40
1
40
1
40
1
40
1
41
1
10
85.6999999999999
20
6.90480761720013
30
0
41
1
10
85.7988929361323
20
6.43310212749665
30
0
41
1
10
85.8977858722646
20
5.92580979529754
30
0
41
1
10
86.0955717445294
20
4.86648131867545
30
0
41
1
10
86.1944646806619
20
4.31459672384267
30
0
41
1
10
86.3922505529265
20
3.19460128284706
30
0
41
1
10
86.4911434890589
20
2.62661468789366
30
0
41
1
10
86.6889293613237
20
1.50044811374724
30
0
41
1
10
86.7878222974561
20
0.942337448150113
30
0
41
1
10
86.9114384676216
20
0.263679575363227
30
0
41
1
10
86.9361617016547
20
0.128931841039446
30
0
41
1
10
86.9856081697208
20
-0.138644122051915
30
0
41
1
10
87.0103314037539
20
-0.273490477736203
30
0
41
1
10
87.0845011058532
20
-0.680820357602954
30
0
41
1
10
87.1339475739193
20
-0.956107414918961
30
0
41
1
10
87.282286978118
20
-1.78962967223239
30
0
41
1
10
87.3811799142503
20
-2.35569310809021
30
0
41
1
10
87.578965786515
20
-3.48518713354829
30
0
41
1
10
87.6778587226474
20
-4.04851883226269
30
0
41
1
10
87.8756445949122
20
-5.14487107727376
30
0
41
1
10
87.9745375310446
20
-5.67774851688606
30
0
41
1
10
88.1723234033093
20
-6.68502606149079
30
0
41
1
10
88.2712163394416
20
-7.15927821720709
30
0
41
1
10
88.4690022117063
20
-8.02518908512323
30
0
41
1
10
88.5678951478388
20
-8.41674352920523
30
0
41
1
10
88.7656810201034
20
-9.10116015535746
30
0
41
1
10
88.8645739562359
20
-9.39399404227387
30
0
41
1
10
89.0623598285006
20
-9.87497428436851
30
0
41
1
10
89.1612527646329
20
-10.0631680713922
30
0
41
1
10
89.3590386368977
20
-10.3386560548985
30
0
41
1
10
89.4579315730301
20
-10.4260452275278
30
0
41
1
10
89.6062709772285
20
-10.4899352972147
30
0
41
1
10
89.6557174452948
20
-10.5000819937801
30
0
41
1
10
89.7546103814273
20
-10.4999170080994
30
0
41
1
10
89.8040568494934
20
-10.48959752246
30
0
41
1
10
89.952396253692
20
-10.4251680791889
30
0
41
1
10
90.0512891898244
20
-10.3373910374043
30
0
41
1
10
90.249075062089
20
-10.0610947244479
30
0
41
1
10
90.3479679982215
20
-9.87248059334559
30
0
41
1
10
90.5457538704862
20
-9.39066268282207
30
0
41
1
10
90.6446468066186
20
-9.09741173366041
30
0
41
1
10
90.8424326788834
20
-8.41220555958679
30
0
41
1
10
90.9413256150158
20
-8.02027895899346
30
0
41
1
10
91.1391114872805
20
-7.15370660030067
30
0
41
1
10
91.2380044234127
20
-6.67916537024809
30
0
41
1
10
91.4357902956775
20
-5.67141805230145
30
0
41
1
10
91.5346832318099
20
-5.13835999383204
30
0
41
1
10
91.7324691040747
20
-4.04176229057398
30
0
41
1
10
91.8313620402071
20
-3.47836563945114
30
0
41
1
10
92.0291479124718
20
-2.34884729111786
30
0
41
1
10
92.1280408486041
20
-1.78282425873874
30
0
41
1
10
92.2763802528026
20
-0.949425035639337
30
0
41
1
10
92.3258267208689
20
-0.67418932339362
30
0
41
1
10
92.3999964229682
20
-0.2669494951557
30
0
41
1
10
92.4247196570012
20
-0.132152305576398
30
0
41
1
10
92.4741661250674
20
0.135389526016922
30
0
41
1
10
92.4988893591005
20
0.270219796083325
30
0
41
1
10
92.6225055292661
20
0.949027929944094
30
0
41
1
10
92.7213984653982
20
1.50722393172222
30
0
41
1
10
92.9191843376631
20
2.63346622888369
30
0
41
1
10
93.0180772737955
20
3.20144296974124
30
0
41
1
10
93.2158631460603
20
4.32130646737124
30
0
41
1
10
93.3147560821926
20
4.87306878957557
30
0
41
1
10
93.5125419544573
20
5.93203829569578
30
0
41
1
10
93.6114348905896
20
6.43909390793166
30
0
41
1
10
93.8092207628545
20
7.38193338076201
30
0
41
1
10
93.9081136989868
20
7.81758540695688
30
0
41
1
10
94.1058995712515
20
8.59709141070189
30
0
41
1
10
94.204792507384
20
8.94087679613099
30
0
41
1
10
94.4025783796486
20
9.52547147711834
30
0
41
1
10
94.501471315781
20
9.76629231339567
30
0
41
1
10
94.6992571880458
20
10.1440166561034
30
0
41
1
10
94.7981501241782
20
10.2809958526125
30
0
41
1
10
94.995935996443
20
10.4589352286704
30
0
41
1
10
95.0948289325753
20
10.5
30
0
41
1
10
95.1937218687077
20
10.5
30
0
0
SPLINE
5
E9
100
AcDbEntity
8
1
62
256
6
ByLayer
370
13
48
1
60
0
100
AcDbSpline
70
4
71
3
72
22
73
18
40
0
40
0
40
0
40
0
40
0.125
40
0.125
40
0.25
40
0.25
40
0.375
40
0.375
40
0.5
40
0.5
40
0.625
40
0.625
40
0.75
40
0.75
40
0.875
40
0.875
40
1
40
1
40
1
40
1
41
1
10
94.6075478713923
20
10.5
30
0
41
1
10
94.6938297325928
20
10.5
30
0
41
1
10
94.7801115937933
20
10.4687752443743
30
0
41
1
10
94.9526753161944
20
10.3345980494212
30
0
41
1
10
95.0389571773949
20
10.2315920256711
30
0
41
1
10
95.2115208997959
20
9.94767501413011
30
0
41
1
10
95.2978027609964
20
9.76671997193097
30
0
41
1
10
95.4703664833975
20
9.32544736934921
30
0
41
1
10
95.556648344598
20
9.06510969612731
30
0
41
1
10
95.729212066999
20
8.46935136454593
30
0
41
1
10
95.8154939281997
20
8.13394467175033
30
0
41
1
10
95.9880576506007
20
7.39818897242711
30
0
41
1
10
96.0743395118012
20
6.99788827790877
30
0
41
1
10
96.2469032342022
20
6.14740179077364
30
0
41
1
10
96.3331850954028
20
5.69728753919637
30
0
41
1
10
96.5057488178038
20
4.76529686107165
30
0
41
1
10
96.5920306790044
20
4.28349690504331
30
0
41
1
10
96.6783125402048
20
3.79526291384599
30
0
0
SPLINE
5
EA
100
AcDbEntity
8
1
62
256
6
ByLayer
370
13
48
1
60
0
100
AcDbSpline
70
4
71
3
72
85
73
81
40
0
40
0
40
0
40
0
40
0.0312500000000006
40
0.0312500000000006
40
0.0625000000000011
40
0.0625000000000011
40
0.0781250000000014
40
0.0781250000000014
40
0.0820312500000015
40
0.0820312500000015
40
0.0859375000000015
40
0.0859375000000015
40
0.0937500000000017
40
0.0937500000000017
40
0.125000000000002
40
0.125000000000002
40
0.156250000000003
40
0.156250000000003
40
0.187500000000003
40
0.187500000000003
40
0.218750000000004
40
0.218750000000004
40
0.250000000000004
40
0.250000000000004
40
0.281250000000005
40
0.281250000000005
40
0.312500000000006
40
0.312500000000006
40
0.343750000000006
40
0.343750000000006
40
0.375000000000007
40
0.375000000000007
40
0.382812500000007
40
0.386718750000006
40
0.386718750000006
40
0.390625000000006
40
0.390625000000006
40
0.406250000000006
40
0.406250000000006
40
0.437500000000006
40
0.437500000000006
40
0.468750000000006
40
0.468750000000006
40
0.500000000000005
40
0.500000000000005
40
0.531250000000005
40
0.531250000000005
40
0.562500000000005
40
0.562500000000005
40
0.593750000000004
40
0.593750000000004
40
0.625000000000004
40
0.625000000000004
40
0.656250000000004
40
0.656250000000004
40
0.687500000000003
40
0.687500000000003
40
0.695312500000003
40
0.695312500000003
40
0.703125000000003
40
0.703125000000003
40
0.718750000000003
40
0.718750000000003
40
0.750000000000003
40
0.750000000000003
40
0.781250000000002
40
0.781250000000002
40
0.812500000000002
40
0.812500000000002
40
0.843750000000002
40
0.843750000000002
40
0.875000000000001
40
0.875000000000001
40
0.906250000000001
40
0.906250000000001
40
0.937500000000001
40
0.937500000000001
40
0.96875
40
0.96875
40
1
40
1
40
1
40
1
41
1
10
85.6999999999999
20
4.30913443231748
30
0
41
1
10
85.7937381055059
20
3.784908670031
30
0
41
1
10
85.8874762110119
20
3.24928793202966
30
0
41
1
10
86.0749524220238
20
2.17832248570619
30
0
41
1
10
86.1686905275296
20
1.64304818404642
30
0
41
1
10
86.3092976857886
20
0.855058465220253
30
0
41
1
10
86.3561667385416
20
0.594847126307712
30
0
41
1
10
86.4147530544827
20
0.273879417481084
30
0
41
1
10
86.4264703176709
20
0.209899887446227
30
0
41
1
10
86.4499048440475
20
0.082396370881753
30
0
41
1
10
86.4616221072358
20
0.0190167630693736
30
0
41
1
10
86.4967738968004
20
-0.17149954584184
30
0
41
1
10
86.5202084231769
20
-0.299450399334404
30
0
41
1
10
86.6373810550595
20
-0.94335503785743
30
0
41
1
10
86.7311191605653
20
-1.47196033180225
30
0
41
1
10
86.9185953715772
20
-2.53878285769542
30
0
41
1
10
87.0123334770831
20
-3.07694862842527
30
0
41
1
10
87.1998096880949
20
-4.14104370832743
30
0
41
1
10
87.2935477936009
20
-4.66688094279223
30
0
41
1
10
87.4810240046128
20
-5.68216462421952
30
0
41
1
10
87.5747621101187
20
-6.17149588324409
30
0
41
1
10
87.7622383211306
20
-7.09050155293667
30
0
41
1
10
87.8559764266365
20
-7.52006898010038
30
0
41
1
10
88.0434526376484
20
-8.30063148589846
30
0
41
1
10
88.1371907431544
20
-8.65155983022078
30
0
41
1
10
88.3246669541663
20
-9.26300141121749
30
0
41
1
10
88.4184050596722
20
-9.52350539873828
30
0
41
1
10
88.6058812706841
20
-9.95051471394837
30
0
41
1
10
88.69961937619
20
-10.117063492017
30
0
41
1
10
88.8870955872019
20
-10.3602862869117
30
0
41
1
10
88.9808336927078
20
-10.4370350670687
30
0
41
1
10
89.0980063245902
20
-10.4830277099713
30
0
41
1
10
89.1331581141551
20
-10.493096075996
30
0
41
1
10
89.1683099037197
20
-10.4977862898567
30
0
41
1
10
89.1917444300962
20
-10.499743294746
30
0
41
1
10
89.2034616932845
20
-10.500137363053
30
0
41
1
10
89.2620480092257
20
-10.4992412251971
30
0
41
1
10
89.3089170619786
20
-10.489298847856
30
0
41
1
10
89.4495242202374
20
-10.4294464256792
30
0
41
1
10
89.5432623257434
20
-10.3493560722378
30
0
41
1
10
89.7307385367553
20
-10.0991637769159
30
0
41
1
10
89.8244766422613
20
-9.92898780014099
30
0
41
1
10
90.0119528532732
20
-9.49470733838672
30
0
41
1
10
90.1056909587791
20
-9.23056112642257
30
0
41
1
10
90.293167169791
20
-8.61213921533493
30
0
41
1
10
90.386905275297
20
-8.25787505568394
30
0
41
1
10
90.5743814863088
20
-7.47125478432727
30
0
41
1
10
90.6681195918147
20
-7.03896743282078
30
0
41
1
10
90.8555958028267
20
-6.11536623383586
30
0
41
1
10
90.9493339083326
20
-5.62416033810357
30
0
41
1
10
91.1368101193444
20
-4.60607520141824
30
0
41
1
10
91.2305482248504
20
-4.07931077602225
30
0
41
1
10
91.4180244358622
20
-3.01427627583655
30
0
41
1
10
91.5117625413682
20
-2.47609690666763
30
0
41
1
10
91.6992387523801
20
-1.41002088226571
30
0
41
1
10
91.7929768578861
20
-0.882173997223617
30
0
41
1
10
91.9101494897684
20
-0.239575264774146
30
0
41
1
10
91.9335840161449
20
-0.112042969090709
30
0
41
1
10
91.9804530688979
20
0.141684862042069
30
0
41
1
10
92.0038875952744
20
0.269496877090234
30
0
41
1
10
92.0741911744038
20
0.655449970691222
30
0
41
1
10
92.1210602271567
20
0.916118391890052
30
0
41
1
10
92.2616673854156
20
1.70522829807848
30
0
41
1
10
92.3554054909216
20
2.24091267937933
30
0
41
1
10
92.5428817019334
20
3.31184926887371
30
0
41
1
10
92.6366198074394
20
3.84702944661467
30
0
41
1
10
92.8240960184514
20
4.89365504849928
30
0
41
1
10
92.9178341239573
20
5.4049940505538
30
0
41
1
10
93.1053103349691
20
6.37977203141946
30
0
41
1
10
93.1990484404751
20
6.84309542175993
30
0
41
1
10
93.386524651487
20
7.70025655660706
30
0
41
1
10
93.4802627569929
20
8.09400325754308
30
0
41
1
10
93.6677389680048
20
8.79623605953029
30
0
41
1
10
93.7614770735107
20
9.10468223775095
30
0
41
1
10
93.9489532845225
20
9.62840232550113
30
0
41
1
10
94.0426913900286
20
9.84369418403085
30
0
41
1
10
94.2301676010405
20
10.1813912130322
30
0
41
1
10
94.3239057065464
20
10.3038581110933
30
0
41
1
10
94.5113819175583
20
10.4631222408392
30
0
41
1
10
94.6051200230642
20
10.5
30
0
41
1
10
94.6988581285701
20
10.5
30
0
0
SPLINE
5
EB
100
AcDbEntity
8
1
62
256
6
ByLayer
370
13
48
1
60
0
100
AcDbSpline
70
4
71
3
72
32
73
28
40
0
40
0
40
0
40
0
40
0.125000000000001
40
0.125000000000001
40
0.250000000000002
40
0.250000000000002
40
0.312500000000002
40
0.312500000000002
40
0.375000000000002
40
0.375000000000002
40
0.437500000000002
40
0.437500000000002
40
0.500000000000002
40
0.500000000000002
40
0.562500000000002
40
0.562500000000002
40
0.625000000000002
40
0.625000000000002
40
0.687500000000001
40
0.687500000000001
40
0.750000000000001
40
0.750000000000001
40
0.812500000000001
40
0.812500000000001
40
0.875000000000001
40
0.875000000000001
40
1
40
1
40
1
40
1
41
1
10
94.1126841312546
20
10.5
30
0
41
1
10
94.2195853149609
20
10.5
30
0
41
1
10
94.3264864986672
20
10.4519762272764
30
0
41
1
10
94.5402888660797
20
10.2428437469151
30
0
41
1
10
94.647190049786
20
10.0815824765222
30
0
41
1
10
94.8075418253453
20
9.74819901867573
30
0
41
1
10
94.8609924171985
20
9.62190386840598
30
0
41
1
10
94.9678936009049
20
9.33902327131173
30
0
41
1
10
95.0213441927579
20
9.18243623628547
30
0
41
1
10
95.1282453764642
20
8.8398645655694
30
0
41
1
10
95.1816959683172
20
8.65388026526435
30
0
41
1
10
95.2885971520235
20
8.25428138907651
30
0
41
1
10
95.3420477438767
20
8.04066920267553
30
0
41
1
10
95.4489489275829
20
7.58841590541286
30
0
41
1
10
95.502399519436
20
7.34977910829764
30
0
41
1
10
95.6093007031424
20
6.85081065010763
30
0
41
1
10
95.6627512949954
20
6.59048484150983
30
0
41
1
10
95.7696524787017
20
6.05205090185041
30
0
41
1
10
95.8231030705548
20
5.77394957844825
30
0
41
1
10
95.9300042542611
20
5.20426330043105
30
0
41
1
10
95.9834548461142
20
4.91268542501672
30
0
41
1
10
96.0903560298204
20
4.3205198676977
30
0
41
1
10
96.1438066216736
20
4.01993886641142
30
0
41
1
10
96.2507078053799
20
3.41420706489404
30
0
41
1
10
96.304158397233
20
3.10906199161764
30
0
41
1
10
96.4645101727923
20
2.19309915671718
30
0
41
1
10
96.5714113564986
20
1.58200960451001
30
0
41
1
10
96.6783125402048
20
0.984861803016344
30
0
0
SPLINE
5
EC
100
AcDbEntity
8
1
62
256
6
ByLayer
370
13
48
1
60
0
100
AcDbSpline
70
4
71
3
72
85
73
81
40
0
40
0
40
0
40
0
40
0.0312500000000008
40
0.0312500000000008
40
0.039062500000001
40
0.039062500000001
40
0.0468750000000011
40
0.0468750000000011
40
0.0625000000000013
40
0.0625000000000013
40
0.0937500000000015
40
0.0937500000000015
40
0.125000000000002
40
0.125000000000002
40
0.156250000000002
40
0.156250000000002
40
0.187500000000002
40
0.187500000000002
40
0.218750000000002
40
0.218750000000002
40
0.250000000000003
40
0.250000000000003
40
0.281250000000003
40
0.281250000000003
40
0.312500000000003
40
0.312500000000003
40
0.343750000000004
40
0.343750000000004
40
0.351562500000004
40
0.351562500000004
40
0.355468750000004
40
0.355468750000004
40
0.359375000000004
40
0.375000000000004
40
0.375000000000004
40
0.406250000000004
40
0.406250000000004
40
0.437500000000003
40
0.437500000000003
40
0.468750000000003
40
0.468750000000003
40
0.500000000000003
40
0.500000000000003
40
0.531250000000002
40
0.531250000000002
40
0.562500000000002
40
0.562500000000002
40
0.593750000000002
40
0.593750000000002
40
0.625000000000001
40
0.625000000000001
40
0.656250000000001
40
0.656250000000001
40
0.671875000000001
40
0.671875000000001
40
0.675781250000001
40
0.675781250000001
40
0.6796875
40
0.6796875
40
0.6875
40
0.6875
40
0.71875
40
0.71875
40
0.75
40
0.75
40
0.78125
40
0.78125
40
0.8125
40
0.8125
40
0.84375
40
0.84375
40
0.875
40
0.875
40
0.90625
40
0.90625
40
0.9375
40
0.9375
40
0.96875
40
0.96875
40
1
40
1
40
1
40
1
41
1
10
85.6999999999999
20
1.49793684121536
30
0
41
1
10
85.7885832748794
20
0.997547192995
30
0
41
1
10
85.877166549759
20
0.504143389387366
30
0
41
1
10
85.9878956433583
20
-0.095519045148194
30
0
41
1
10
86.0100414620782
20
-0.215869783361654
30
0
41
1
10
86.054333099518
20
-0.45851607446906
30
0
41
1
10
86.0764789182379
20
-0.580604435097086
30
0
41
1
10
86.1429163743975
20
-0.948867275024952
30
0
41
1
10
86.1872080118372
20
-1.19704751564208
30
0
41
1
10
86.3200829241565
20
-1.94692499336071
30
0
41
1
10
86.408666199036
20
-2.45406317438596
30
0
41
1
10
86.585832748795
20
-3.46566616600751
30
0
41
1
10
86.6744160236746
20
-3.9700731182632
30
0
41
1
10
86.8515825734336
20
-4.95638616196902
30
0
41
1
10
86.940165848313
20
-5.43821089539645
30
0
41
1
10
87.1173323980721
20
-6.35899913300048
30
0
41
1
10
87.2059156729515
20
-6.79787541102692
30
0
41
1
10
87.3830822227105
20
-7.61447957927928
30
0
41
1
10
87.47166549759
20
-7.99213722665118
30
0
41
1
10
87.6488320473491
20
-8.67254146699662
30
0
41
1
10
87.7374153222286
20
-8.97525331907411
30
0
41
1
10
87.9145818719876
20
-9.49816533270251
30
0
41
1
10
88.0031651468671
20
-9.71837242403339
30
0
41
1
10
88.1803316966261
20
-10.0752635043795
30
0
41
1
10
88.2689149715056
20
-10.2119884603455
30
0
41
1
10
88.4460815212647
20
-10.4067336862604
30
0
41
1
10
88.5346647961442
20
-10.4648128427403
30
0
41
1
10
88.6453938897436
20
-10.4938987310286
30
0
41
1
10
88.6675397084634
20
-10.4975480792461
30
0
41
1
10
88.7007584365432
20
-10.4998960845352
30
0
41
1
10
88.7118313459031
20
-10.5001587917049
30
0
41
1
10
88.733977164623
20
-10.4996595122824
30
0
41
1
10
88.7893417114227
20
-10.4958358908189
30
0
41
1
10
88.8447062582225
20
-10.4788502916551
30
0
41
1
10
88.9775811705418
20
-10.4108848361157
30
0
41
1
10
89.0661644454212
20
-10.3291801102247
30
0
41
1
10
89.2433309951801
20
-10.085138996531
30
0
41
1
10
89.3319142700597
20
-9.92274737841254
30
0
41
1
10
89.5090808198187
20
-9.51413877407856
30
0
41
1
10
89.5976640946982
20
-9.26788991316536
30
0
41
1
10
89.7748306444573
20
-8.69451941768952
30
0
41
1
10
89.8634139193367
20
-8.36740357402815
30
0
41
1
10
90.0405804690957
20
-7.64183759852637
30
0
41
1
10
90.1291637439753
20
-7.24343457747986
30
0
41
1
10
90.3063302937343
20
-6.3906258081303
30
0
41
1
10
90.3949135686138
20
-5.93629796446922
30
0
41
1
10
90.5720801183728
20
-4.99083489232814
30
0
41
1
10
90.6606633932522
20
-4.49978743922412
30
0
41
1
10
90.8378299430112
20
-3.50137198195904
30
0
41
1
10
90.9264132178907
20
-2.99407947431138
30
0
41
1
10
91.1035797676498
20
-1.98242097494332
30
0
41
1
10
91.1921630425293
20
-1.47810358838427
30
0
41
1
10
91.3250379548485
20
-0.735896604150383
30
0
41
1
10
91.3693295922883
20
-0.490843432622825
30
0
41
1
10
91.4246941390879
20
-0.188477684700075
30
0
41
1
10
91.4357670484479
20
-0.128201419989438
30
0
41
1
10
91.4579128671678
20
-0.0080653989651012
30
0
41
1
10
91.4689857765278
20
0.0517585660522286
30
0
41
1
10
91.5022045046076
20
0.232263970011388
30
0
41
1
10
91.5243503233274
20
0.353423600124699
30
0
41
1
10
91.6350794169268
20
0.96286480177406
30
0
41
1
10
91.7236626918063
20
1.4622352317995
30
0
41
1
10
91.9008292415654
20
2.46995319836461
30
0
41
1
10
91.9894125164449
20
2.97826275583282
30
0
41
1
10
92.1665790662039
20
3.98558336599743
30
0
41
1
10
92.2551623410833
20
4.48452709040589
30
0
41
1
10
92.4323288908424
20
5.4528293808857
30
0
41
1
10
92.5209121657219
20
5.92210213808895
30
0
41
1
10
92.698078715481
20
6.811115343279
30
0
41
1
10
92.7866619903604
20
7.23077184336415
30
0
41
1
10
92.9638285401194
20
8.00357672368497
30
0
41
1
10
93.0524118149989
20
8.35666551276142
30
0
41
1
10
93.2295783647579
20
8.98456794681289
30
0
41
1
10
93.3181616396375
20
9.25936126193122
30
0
41
1
10
93.4953281893965
20
9.72535962531597
30
0
41
1
10
93.5839114642759
20
9.91658478563744
30
0
41
1
10
93.761078014035
20
10.2165816519754
30
0
41
1
10
93.8496612889145
20
10.3254025130474
30
0
41
1
10
94.0268278386735
20
10.4670811855982
30
0
41
1
10
94.115411113553
20
10.5
30
0
41
1
10
94.2039943884325
20
10.5
30
0
0
SPLINE
5
ED
100
AcDbEntity
8
1
62
256
6
ByLayer
370
13
48
1
60
0
100
AcDbSpline
70
4
71
3
72
42
73
38
40
0
40
0
40
0
40
0
40
0.0625000000000001
40
0.0625000000000001
40
0.125
40
0.125
40
0.1875
40
0.1875
40
0.25
40
0.25
40
0.3125
40
0.3125
40
0.375000000000001
40
0.375000000000001
40
0.437500000000001
40
0.437500000000001
40
0.500000000000001
40
0.500000000000001
40
0.562500000000001
40
0.562500000000001
40
0.625000000000001
40
0.625000000000001
40
0.687500000000001
40
0.687500000000001
40
0.750000000000001
40
0.750000000000001
40
0.812500000000001
40
0.812500000000001
40
0.875000000000001
40
0.875000000000001
40
0.890625
40
0.890625
40
0.90625
40
0.90625
40
0.9375
40
0.9375
40
1
40
1
40
1
40
1
41
1
10
93.6178203911171
20
10.5
30
0
41
1
10
93.681580644223
20
10.5
30
0
41
1
10
93.745340897329
20
10.4829738206662
30
0
41
1
10
93.872861403541
20
10.4109966581406
30
0
41
1
10
93.936621656647
20
10.3560337627079
30
0
41
1
10
94.064142162859
20
10.2051183640868
30
0
41
1
10
94.127902415965
20
10.1091545871422
30
0
41
1
10
94.255422922177
20
9.87435629692064
30
0
41
1
10
94.319183175283
20
9.73551289046418
30
0
41
1
10
94.446703681495
20
9.41456737197649
30
0
41
1
10
94.5104639346009
20
9.23246048310423
30
0
41
1
10
94.6379844408131
20
8.82630480259201
30
0
41
1
10
94.701744693919
20
8.60225665371638
30
0
41
1
10
94.829265200131
20
8.11530647837273
30
0
41
1
10
94.893025453237
20
7.85241098348689
30
0
41
1
10
95.020545959449
20
7.29251860582482
30
0
41
1
10
95.084306212555
20
6.99553355559891
30
0
41
1
10
95.211826718767
20
6.37360021320242
30
0
41
1
10
95.275586971873
20
6.04866747439982
30
0
41
1
10
95.403107478085
20
5.37794477418339
30
0
41
1
10
95.466867731191
20
5.03217186832316
30
0
41
1
10
95.594388237403
20
4.32734456642407
30
0
41
1
10
95.6581484905089
20
3.96830639617159
30
0
41
1
10
95.785668996721
20
3.24448585252665
30
0
41
1
10
95.8494292498269
20
2.87971694339805
30
0
41
1
10
95.9769497560389
20
2.15148145843423
30
0
41
1
10
96.0407100091448
20
1.7880243941556
30
0
41
1
10
96.1682305153569
20
1.06861988340998
30
0
41
1
10
96.2319907684629
20
0.712677639236574
30
0
41
1
10
96.3116910848453
20
0.275660022997727
30
0
41
1
10
96.3276311481219
20
0.188649257714303
30
0
41
1
10
96.3595112746748
20
0.0154823601598366
30
0
41
1
10
96.3754513379513
20
-0.0705772906709967
30
0
41
1
10
96.4232715277809
20
-0.330867873743017
30
0
41
1
10
96.4551516543339
20
-0.506077818226487
30
0
41
1
10
96.5507920339929
20
-1.03588835053699
30
0
41
1
10
96.6145522870989
20
-1.39470343419421
30
0
41
1
10
96.6783125402048
20
-1.75639118601973
30
0
0
SPLINE
5
EE
100
AcDbEntity
8
1
62
256
6
ByLayer
370
13
48
1
60
0
100
AcDbSpline
70
4
71
3
72
80
73
76
40
0
40
0
40
0
40
0
40
0.0312500000000011
40
0.0312500000000011
40
0.0625000000000021
40
0.0625000000000021
40
0.0937500000000032
40
0.0937500000000032
40
0.125000000000004
40
0.125000000000004
40
0.156250000000005
40
0.156250000000005
40
0.187500000000006
40
0.187500000000006
40
0.218750000000007
40
0.218750000000007
40
0.250000000000008
40
0.250000000000008
40
0.281250000000009
40
0.281250000000009
40
0.31250000000001
40
0.31250000000001
40
0.31640625000001
40
0.31640625000001
40
0.32031250000001
40
0.32812500000001
40
0.32812500000001
40
0.34375000000001
40
0.34375000000001
40
0.375000000000009
40
0.375000000000009
40
0.406250000000009
40
0.406250000000009
40
0.437500000000009
40
0.437500000000009
40
0.468750000000008
40
0.468750000000008
40
0.500000000000008
40
0.500000000000008
40
0.531250000000007
40
0.531250000000007
40
0.562500000000007
40
0.562500000000007
40
0.593750000000007
40
0.593750000000007
40
0.625000000000006
40
0.625000000000006
40
0.656250000000006
40
0.656250000000006
40
0.660156250000006
40
0.660156250000006
40
0.664062500000006
40
0.671875000000005
40
0.671875000000005
40
0.687500000000005
40
0.687500000000005
40
0.718750000000005
40
0.718750000000005
40
0.750000000000004
40
0.750000000000004
40
0.781250000000004
40
0.781250000000004
40
0.812500000000003
40
0.812500000000003
40
0.843750000000003
40
0.843750000000003
40
0.875000000000002
40
0.875000000000002
40
0.906250000000002
40
0.906250000000002
40
0.937500000000001
40
0.937500000000001
40
0.968750000000001
40
0.968750000000001
40
1
40
1
40
1
40
1
41
1
10
85.6999999999999
20
-1.24067563334336
30
0
41
1
10
85.783428444253
20
-1.70953077718849
30
0
41
1
10
85.866856888506
20
-2.18569967307374
30
0
41
1
10
86.0337137770122
20
-3.1388537582541
30
0
41
1
10
86.1171422212652
20
-3.61580034219739
30
0
41
1
10
86.2839991097714
20
-4.55431754501114
30
0
41
1
10
86.3674275540246
20
-5.01583128422266
30
0
41
1
10
86.5342844425307
20
-5.90639527740453
30
0
41
1
10
86.6177128867838
20
-6.33538040137623
30
0
41
1
10
86.7845697752899
20
-7.14477982295503
30
0
41
1
10
86.867998219543
20
-7.52513538452862
30
0
41
1
10
87.0348551080492
20
-8.22406568156691
30
0
41
1
10
87.1182835523022
20
-8.5426021602934
30
0
41
1
10
87.2851404408084
20
-9.10908767885908
30
0
41
1
10
87.3685688850615
20
-9.35702693879125
30
0
41
1
10
87.5354257735676
20
-9.77865848682828
30
0
41
1
10
87.6188542178207
20
-9.95236864446593
30
0
41
1
10
87.7857111063267
20
-10.2268965890857
30
0
41
1
10
87.8691395505799
20
-10.3277516512281
30
0
41
1
10
88.035996439086
20
-10.4620737589563
30
0
41
1
10
88.1194248833391
20
-10.4955860549443
30
0
41
1
10
88.2132818831237
20
-10.5000903921802
30
0
41
1
10
88.2237104386554
20
-10.5001331573979
30
0
41
1
10
88.2445675497186
20
-10.4993058128889
30
0
41
1
10
88.2758532163135
20
-10.4966881812603
30
0
41
1
10
88.3071388829084
20
-10.4898594834181
30
0
41
1
10
88.3697102160982
20
-10.4703802230714
30
0
41
1
10
88.4114244382248
20
-10.4496268951384
30
0
41
1
10
88.5365671046044
20
-10.3625556776635
30
0
41
1
10
88.6199955488574
20
-10.2713177085425
30
0
41
1
10
88.7868524373637
20
-10.0165614751143
30
0
41
1
10
88.8702808816166
20
-9.85300415608813
30
0
41
1
10
89.0371377701228
20
-9.45158695143954
30
0
41
1
10
89.1205662143759
20
-9.21370593266383
30
0
41
1
10
89.287423102882
20
-8.66653434333836
30
0
41
1
10
89.3708515471351
20
-8.35724952277707
30
0
41
1
10
89.5377084356413
20
-7.67533922180806
30
0
41
1
10
89.6211368798944
20
-7.3027483872045
30
0
41
1
10
89.7879937684006
20
-6.50686422894475
30
0
41
1
10
89.8714222126536
20
-6.08362758615218
30
0
41
1
10
90.0382791011598
20
-5.20225443219522
30
0
41
1
10
90.1217075454128
20
-4.74418309110638
30
0
41
1
10
90.288564433919
20
-3.81022312082334
30
0
41
1
10
90.371992878172
20
-3.3343932350792
30
0
41
1
10
90.5388497666781
20
-2.38136370254236
30
0
41
1
10
90.6222782109313
20
-1.90420550236973
30
0
41
1
10
90.7891350994374
20
-0.962792467143089
30
0
41
1
10
90.8725635436904
20
-0.498557711497682
30
0
41
1
10
90.9664205434752
20
0.0101670554370514
30
0
41
1
10
90.9768490990068
20
0.0665551939201521
30
0
41
1
10
90.9977062100701
20
0.179937946884593
30
0
41
1
10
91.028991876665
20
0.350556929207528
30
0
41
1
10
91.0602775432599
20
0.522725334292801
30
0
41
1
10
91.1228488764497
20
0.868882433622417
30
0
41
1
10
91.1645630985762
20
1.10208723759902
30
0
41
1
10
91.2897057649558
20
1.80680247417089
30
0
41
1
10
91.3731342092089
20
2.28349909278245
30
0
41
1
10
91.5399910977151
20
3.23666246941673
30
0
41
1
10
91.6234195419681
20
3.71308919324056
30
0
41
1
10
91.7902764304741
20
4.64940665909506
30
0
41
1
10
91.8737048747273
20
5.1092395646138
30
0
41
1
10
92.0405617632335
20
5.99528626385043
30
0
41
1
10
92.1239902074866
20
6.42143487181369
30
0
41
1
10
92.2908470959927
20
7.22414496016117
30
0
41
1
10
92.3742755402458
20
7.60064869859576
30
0
41
1
10
92.541132428752
20
8.29111943535997
30
0
41
1
10
92.624560873005
20
8.60504996451004
30
0
41
1
10
92.7914177615111
20
9.16190601469563
30
0
41
1
10
92.8748462057641
20
9.40482377448575
30
0
41
1
10
93.0417030942704
20
9.81635160801295
30
0
41
1
10
93.1251315385235
20
9.9849812041648
30
0
41
1
10
93.2919884270296
20
10.2496054063242
30
0
41
1
10
93.3754168712826
20
10.3456382050066
30
0
41
1
10
93.5422737597887
20
10.4708128078103
30
0
41
1
10
93.6257022040419
20
10.5
30
0
41
1
10
93.7091306482949
20
10.5
30
0
0
SPLINE
5
EF
100
AcDbEntity
8
1
62
256
6
ByLayer
370
13
48
1
60
0
100
AcDbSpline
70
4
71
3
72
42
73
38
40
0
40
0
40
0
40
0
40
0.0625000000000008
40
0.0625000000000008
40
0.125000000000002
40
0.125000000000002
40
0.187500000000002
40
0.187500000000002
40
0.250000000000003
40
0.250000000000003
40
0.312500000000004
40
0.312500000000004
40
0.375000000000004
40
0.375000000000004
40
0.437500000000005
40
0.437500000000005
40
0.500000000000006
40
0.500000000000006
40
0.562500000000006
40
0.562500000000006
40
0.625000000000007
40
0.625000000000007
40
0.687500000000008
40
0.687500000000008
40
0.750000000000008
40
0.750000000000008
40
0.765625000000008
40
0.765625000000008
40
0.781250000000008
40
0.781250000000008
40
0.812500000000007
40
0.812500000000007
40
0.875000000000005
40
0.875000000000005
40
0.937500000000002
40
0.937500000000002
40
1
40
1
40
1
40
1
41
1
10
93.1229566509795
20
10.5
30
0
41
1
10
93.1970265653383
20
10.5
30
0
41
1
10
93.2710964796971
20
10.4770087205163
30
0
41
1
10
93.4192363084148
20
10.3790620682024
30
0
41
1
10
93.4933062227738
20
10.3040815359237
30
0
41
1
10
93.6414460514916
20
10.0977437372102
30
0
41
1
10
93.7155159658503
20
9.96636389193196
30
0
41
1
10
93.8636557945681
20
9.64516461379506
30
0
41
1
10
93.937725708927
20
9.45533022285358
30
0
41
1
10
94.0858655376447
20
9.01809166920154
30
0
41
1
10
94.1599354520035
20
8.77068462588701
30
0
41
1
10
94.3080752807213
20
8.22238676648934
30
0
41
1
10
94.3821451950802
20
7.92150739509006
30
0
41
1
10
94.5302850237979
20
7.27344444803549
30
0
41
1
10
94.6043549381567
20
6.92628555564855
30
0
41
1
10
94.7524947668745
20
6.19538707133273
30
0
41
1
10
94.8265646812333
20
5.81168100950578
30
0
41
1
10
94.974704509951
20
5.01906258166312
30
0
41
1
10
95.04877442431
20
4.61018619636533
30
0
41
1
10
95.1969142530277
20
3.77918386483671
30
0
41
1
10
95.2709841673866
20
3.35708995377442
30
0
41
1
10
95.4191239961042
20
2.51114751067698
30
0
41
1
10
95.4931939104631
20
2.08732246612303
30
0
41
1
10
95.6413337391808
20
1.24810243797438
30
0
41
1
10
95.7154036535396
20
0.832720468589315
30
0
41
1
10
95.8079910464882
20
0.323963030723206
30
0
41
1
10
95.8265085250779
20
0.222730089529307
30
0
41
1
10
95.8635434822573
20
0.0214107765455083
30
0
41
1
10
95.8820609608471
20
-0.0785236169089387
30
0
41
1
10
95.9376133966164
20
-0.381148784901086
30
0
41
1
10
95.9746483537957
20
-0.585155869568837
30
0
41
1
10
96.085753225334
20
-1.20256648559166
30
0
41
1
10
96.1598231396928
20
-1.62141930638106
30
0
41
1
10
96.3079629684106
20
-2.46473416998185
30
0
41
1
10
96.3820328827694
20
-2.88918004385002
30
0
41
1
10
96.5301727114871
20
-3.73305487741098
30
0
41
1
10
96.604242625846
20
-4.15245748000709
30
0
41
1
10
96.6783125402048
20
-4.56349284849549
30
0
0
SPLINE
5
F0
100
AcDbEntity
8
1
62
256
6
ByLayer
370
13
48
1
60
0
100
AcDbSpline
70
4
71
3
72
79
73
75
40
0
40
0
40
0
40
0
40
0.0312500000000003
40
0.0312500000000003
40
0.0625000000000006
40
0.0625000000000006
40
0.0937500000000009
40
0.0937500000000009
40
0.125000000000001
40
0.125000000000001
40
0.156250000000001
40
0.156250000000001
40
0.187500000000002
40
0.187500000000002
40
0.218750000000002
40
0.218750000000002
40
0.250000000000002
40
0.250000000000002
40
0.265625000000003
40
0.265625000000003
40
0.273437500000003
40
0.273437500000003
40
0.281250000000003
40
0.281250000000003
40
0.312500000000002
40
0.312500000000002
40
0.343750000000002
40
0.343750000000002
40
0.375000000000001
40
0.375000000000001
40
0.406250000000001
40
0.406250000000001
40
0.4375
40
0.4375
40
0.46875
40
0.46875
40
0.499999999999999
40
0.499999999999999
40
0.531249999999999
40
0.531249999999999
40
0.562499999999998
40
0.562499999999998
40
0.593749999999998
40
0.593749999999998
40
0.624999999999997
40
0.624999999999997
40
0.632812499999997
40
0.632812499999997
40
0.636718749999997
40
0.636718749999997
40
0.640624999999998
40
0.656249999999997
40
0.656249999999997
40
0.687499999999998
40
0.687499999999998
40
0.718749999999998
40
0.718749999999998
40
0.749999999999998
40
0.749999999999998
40
0.781249999999998
40
0.781249999999998
40
0.812499999999998
40
0.812499999999998
40
0.843749999999999
40
0.843749999999999
40
0.874999999999999
40
0.874999999999999
40
0.906249999999999
40
0.906249999999999
40
0.9375
40
0.9375
40
0.96875
40
0.96875
40
1
40
1
40
1
40
1
41
1
10
85.6999999999999
20
-4.05294730306014
30
0
41
1
10
85.7782736136265
20
-4.49353917447297
30
0
41
1
10
85.8565472272533
20
-4.92748434673695
30
0
41
1
10
86.0130944545065
20
-5.76805981782005
30
0
41
1
10
86.0913680681332
20
-6.17464282946813
30
0
41
1
10
86.2479152953864
20
-6.94702234978908
30
0
41
1
10
86.3261889090131
20
-7.31277471883203
30
0
41
1
10
86.4827361362663
20
-7.99206264896424
30
0
41
1
10
86.561009749893
20
-8.30556658407932
30
0
41
1
10
86.7175569771463
20
-8.87213994840693
30
0
41
1
10
86.7958305907729
20
-9.12519645924226
30
0
41
1
10
86.9523778180262
20
-9.5665577370701
30
0
41
1
10
87.0306514316528
20
-9.75486930376667
30
0
41
1
10
87.1871986589061
20
-10.0664143731776
30
0
41
1
10
87.2654722725327
20
-10.1896704101551
30
0
41
1
10
87.4220194997861
20
-10.3743095646334
30
0
41
1
10
87.5002931134126
20
-10.4357240225653
30
0
41
1
10
87.6177035338526
20
-10.4858660757318
30
0
41
1
10
87.656840340666
20
-10.4956014282347
30
0
41
1
10
87.715545550886
20
-10.5004136435711
30
0
41
1
10
87.7351139542926
20
-10.5004018003268
30
0
41
1
10
87.7742507611059
20
-10.4971449524203
30
0
41
1
10
87.7938191645126
20
-10.493884985453
30
0
41
1
10
87.8916611815458
20
-10.4691384076561
30
0
41
1
10
87.9699347951725
20
-10.4222380370216
30
0
41
1
10
88.1264820224258
20
-10.2678792654945
30
0
41
1
10
88.2047556360524
20
-10.1603884986132
30
0
41
1
10
88.3613028633057
20
-9.88087334419984
30
0
41
1
10
88.4395764769323
20
-9.70882353588615
30
0
41
1
10
88.5961237041856
20
-9.29955086699266
30
0
41
1
10
88.6743973178122
20
-9.06231677200643
30
0
41
1
10
88.8309445450654
20
-8.52594931627641
30
0
41
1
10
88.9092181586921
20
-8.22682386087564
30
0
41
1
10
89.0657653859455
20
-7.57392627154741
30
0
41
1
10
89.1440389995721
20
-7.22018151695261
30
0
41
1
10
89.3005862268254
20
-6.46874346281331
30
0
41
1
10
89.378859840452
20
-6.07109199970506
30
0
41
1
10
89.5354070677053
20
-5.24492163099816
30
0
41
1
10
89.6136806813319
20
-4.81645015812504
30
0
41
1
10
89.7702279085852
20
-3.94272802237273
30
0
41
1
10
89.8485015222118
20
-3.49752077476842
30
0
41
1
10
90.0050487494651
20
-2.60402333012311
30
0
41
1
10
90.0833223630917
20
-2.15576526788158
30
0
41
1
10
90.2398695903451
20
-1.26831227472226
30
0
41
1
10
90.3181432039717
20
-0.829134988512294
30
0
41
1
10
90.415985221005
20
-0.291978306791861
30
0
41
1
10
90.4355536244116
20
-0.185131541042494
30
0
41
1
10
90.4649062295216
20
-0.0258343083880561
30
0
41
1
10
90.4746904312249
20
0.0270210559827717
30
0
41
1
10
90.4942588346316
20
0.133224048851389
30
0
41
1
10
90.5431798431483
20
0.399540015203854
30
0
41
1
10
90.5921008516649
20
0.669719731512743
30
0
41
1
10
90.709511272105
20
1.3239102168547
30
0
41
1
10
90.7877848857315
20
1.76778927421384
30
0
41
1
10
90.9443321129849
20
2.66033035794632
30
0
41
1
10
91.0226057266115
20
3.10896918684816
30
0
41
1
10
91.1791529538647
20
3.99821622739714
30
0
41
1
10
91.2574265674913
20
4.43878745351415
30
0
41
1
10
91.4139737947446
20
5.29791996643246
30
0
41
1
10
91.4922474083713
20
5.71643529296242
30
0
41
1
10
91.6487946356245
20
6.51757808408007
30
0
41
1
10
91.7270682492513
20
6.90015905695981
30
0
41
1
10
91.8836154765045
20
7.61707892895799
30
0
41
1
10
91.9618890901311
20
7.95138053682558
30
0
41
1
10
92.1184363173844
20
8.562205416214
30
0
41
1
10
92.196709931011
20
8.8387083190415
30
0
41
1
10
92.3532571582643
20
9.32810887890011
30
0
41
1
10
92.4315307718909
20
9.5410061515752
30
0
41
1
10
92.5880779991442
20
9.90139589473102
30
0
41
1
10
92.6663516127709
20
10.0489056968955
30
0
41
1
10
92.8228988400242
20
10.2804806139593
30
0
41
1
10
92.9011724536508
20
10.3645746451351
30
0
41
1
10
93.057719680904
20
10.4743177896113
30
0
41
1
10
93.1359932945306
20
10.5
30
0
41
1
10
93.2142669081574
20
10.5
30
0
0
SPLINE
5
F1
100
AcDbEntity
8
1
62
256
6
ByLayer
370
13
48
1
60
0
100
AcDbSpline
70
4
71
3
72
44
73
40
40
0
40
0
40
0
40
0
40
0.0624999999999984
40
0.0624999999999984
40
0.124999999999997
40
0.124999999999997
40
0.187499999999995
40
0.187499999999995
40
0.249999999999993
40
0.249999999999993
40
0.312499999999992
40
0.312499999999992
40
0.37499999999999
40
0.37499999999999
40
0.437499999999989
40
0.437499999999989
40
0.499999999999987
40
0.499999999999987
40
0.562499999999985
40
0.562499999999985
40
0.624999999999983
40
0.624999999999983
40
0.656249999999983
40
0.656249999999983
40
0.671874999999982
40
0.671874999999982
40
0.679687499999982
40
0.679687499999982
40
0.687499999999982
40
0.687499999999982
40
0.749999999999986
40
0.749999999999986
40
0.812499999999989
40
0.812499999999989
40
0.874999999999993
40
0.874999999999993
40
0.937499999999996
40
0.937499999999996
40
1
40
1
40
1
40
1
41
1
10
92.6280929108419
20
10.5
30
0
41
1
10
92.7124724864536
20
10.5
30
0
41
1
10
92.7968520620653
20
10.4701413468484
30
0
41
1
10
92.9656112132889
20
10.3420024970664
30
0
41
1
10
93.0499907889006
20
10.243674298068
30
0
41
1
10
93.218749940124
20
9.97269837093518
30
0
41
1
10
93.3031295157357
20
9.80001055369112
30
0
41
1
10
93.4718886669592
20
9.37868074862376
30
0
41
1
10
93.5562682425709
20
9.13001897925469
30
0
41
1
10
93.7250273937944
20
8.56031549618621
30
0
41
1
10
93.809406969406
20
8.23928342122963
30
0
41
1
10
93.9781661206295
20
7.53380400143095
30
0
41
1
10
94.0625456962413
20
7.14939682232364
30
0
41
1
10
94.2313048474647
20
6.33077005878869
30
0
41
1
10
94.3156844230765
20
5.89661261879439
30
0
41
1
10
94.4844435742999
20
4.99514985027642
30
0
41
1
10
94.5688231499116
20
4.52791341538074
30
0
41
1
10
94.7375823011351
20
3.57799046006036
30
0
41
1
10
94.8219618767469
20
3.09536377587673
30
0
41
1
10
94.9907210279703
20
2.13140170886632
30
0
41
1
10
95.075100603582
20
1.65010641780069
30
0
41
1
10
95.2016699669996
20
0.939820357544818
30
0
41
1
10
95.2438597548054
20
0.704978018311834
30
0
41
1
10
95.3071444365143
20
0.356694550605283
30
0
41
1
10
95.3282393304171
20
0.24126171644636
30
0
41
1
10
95.3598816712716
20
0.0692271045803636
30
0
41
1
10
95.3704291182231
20
0.0121905563102302
30
0
41
1
10
95.3915240121261
20
-0.102142094758278
30
0
41
1
10
95.4020714590775
20
-0.159498666002151
30
0
41
1
10
95.4969984816407
20
-0.677332206455077
30
0
41
1
10
95.5813780572523
20
-1.14932181275367
30
0
41
1
10
95.7501372084758
20
-2.10472967683927
30
0
41
1
10
95.8345167840876
20
-2.58812359931287
30
0
41
1
10
96.003275935311
20
-3.55122153653974
30
0
41
1
10
96.0876555109227
20
-4.03087852623332
30
0
41
1
10
96.2564146621462
20
-4.96929996767852
30
0
41
1
10
96.340794237758
20
-5.42800024217487
30
0
41
1
10
96.5095533889814
20
-6.30691891015368
30
0
41
1
10
96.5939329645931
20
-6.72706872730132
30
0
41
1
10
96.6783125402049
20
-7.12001298883243
30
0
0
SPLINE
5
F2
100
AcDbEntity
8
1
62
256
6
ByLayer
370
13
48
1
60
0
100
AcDbSpline
70
4
71
3
72
76
73
72
40
0
40
0
40
0
40
0
40
0.03125
40
0.03125
40
0.0625000000000001
40
0.0625000000000001
40
0.0937500000000001
40
0.0937500000000001
40
0.125
40
0.125
40
0.15625
40
0.15625
40
0.1875
40
0.1875
40
0.203125
40
0.203125
40
0.2109375
40
0.2109375
40
0.21875
40
0.21875
40
0.25
40
0.25
40
0.28125
40
0.28125
40
0.3125
40
0.3125
40
0.34375
40
0.34375
40
0.375
40
0.375
40
0.40625
40
0.40625
40
0.4375
40
0.4375
40
0.46875
40
0.46875
40
0.5
40
0.5
40
0.53125
40
0.53125
40
0.5625
40
0.5625
40
0.59375
40
0.59375
40
0.609375
40
0.609375
40
0.625
40
0.625
40
0.65625
40
0.65625
40
0.6875
40
0.6875
40
0.71875
40
0.71875
40
0.75
40
0.75
40
0.78125
40
0.78125
40
0.8125
40
0.8125
40
0.84375
40
0.84375
40
0.875
40
0.875
40
0.90625
40
0.90625
40
0.9375
40
0.9375
40
0.96875
40
0.96875
40
1
40
1
40
1
40
1
41
1
10
85.6999999999999
20
-6.68456286870546
30
0
41
1
10
85.7731187830002
20
-7.04117238976593
30
0
41
1
10
85.8462375660004
20
-7.37937322197902
30
0
41
1
10
85.9924751320008
20
-8.00987400070153
30
0
41
1
10
86.065593915001
20
-8.30215191196854
30
0
41
1
10
86.2118314810015
20
-8.83413933186083
30
0
41
1
10
86.2849502640016
20
-9.07383929854603
30
0
41
1
10
86.431187830002
20
-9.49696650365229
30
0
41
1
10
86.5043066130022
20
-9.68039740143479
30
0
41
1
10
86.6505441790026
20
-9.99033325928548
30
0
41
1
10
86.7236629620028
20
-10.1168528258239
30
0
41
1
10
86.8699005280033
20
-10.3150787474747
30
0
41
1
10
86.9430193110035
20
-10.3868065025353
30
0
41
1
10
87.0526974855038
20
-10.4565292008242
30
0
41
1
10
87.0892568770039
20
-10.473473739873
30
0
41
1
10
87.144095964254
20
-10.4899608661303
30
0
41
1
10
87.162375660004
20
-10.4939689627315
30
0
41
1
10
87.1989350515041
20
-10.4991028329743
30
0
41
1
10
87.2172147472543
20
-10.500229441416
30
0
41
1
10
87.3086132260045
20
-10.498890099455
30
0
41
1
10
87.3817320090047
20
-10.4753396857711
30
0
41
1
10
87.5279695750051
20
-10.3775471224573
30
0
41
1
10
87.6010883580053
20
-10.3032813855654
30
0
41
1
10
87.7473259240057
20
-10.0998224884859
30
0
41
1
10
87.8204447070059
20
-9.97060814668376
30
0
41
1
10
87.9666822730063
20
-9.65524658150616
30
0
41
1
10
88.0398010560066
20
-9.46908519034739
30
0
41
1
10
88.186038622007
20
-9.04060267250878
30
0
41
1
10
88.2591574050072
20
-8.79827848736807
30
0
41
1
10
88.4053949710076
20
-8.2612952189464
30
0
41
1
10
88.4785137540077
20
-7.96664631725579
30
0
41
1
10
88.6247513200082
20
-7.33178900391979
30
0
41
1
10
88.6978701030084
20
-6.99160315280997
30
0
41
1
10
88.8441076690088
20
-6.27490024900484
30
0
41
1
10
88.917226452009
20
-5.89841426028804
30
0
41
1
10
89.0634640180093
20
-5.11997030616985
30
0
41
1
10
89.1365828010096
20
-4.71804612634162
30
0
41
1
10
89.2828203670101
20
-3.90021966850955
30
0
41
1
10
89.3559391500103
20
-3.48434798152897
30
0
41
1
10
89.5021767160107
20
-2.64976712040183
30
0
41
1
10
89.5752954990109
20
-2.23108093597841
30
0
41
1
10
89.7215330650113
20
-1.40083956017085
30
0
41
1
10
89.7946518480115
20
-0.989297734409575
30
0
41
1
10
89.9043300225118
20
-0.383517354198659
30
0
41
1
10
89.9408894140118
20
-0.183711561213158
30
0
41
1
10
90.0140081970121
20
0.212110773747753
30
0
41
1
10
90.0505675885123
20
0.41233290826878
30
0
41
1
10
90.1602457630127
20
1.01865623490238
30
0
41
1
10
90.2333645460128
20
1.43047272538763
30
0
41
1
10
90.3796021120132
20
2.26104393558606
30
0
41
1
10
90.4527208950134
20
2.67978505475398
30
0
41
1
10
90.5989584610138
20
3.51422060568498
30
0
41
1
10
90.672077244014
20
3.9298918321951
30
0
41
1
10
90.8183148100144
20
4.74704309215281
30
0
41
1
10
90.8914335930146
20
5.14849239819907
30
0
41
1
10
91.037671159015
20
5.92571533065728
30
0
41
1
10
91.1107899420152
20
6.30145516441019
30
0
41
1
10
91.2570275080157
20
7.01642191226304
30
0
41
1
10
91.3301462910158
20
7.35561790264427
30
0
41
1
10
91.4763838570162
20
7.98830153377838
30
0
41
1
10
91.5495026400164
20
8.28176687552397
30
0
41
1
10
91.6957402060168
20
8.81625523455745
30
0
41
1
10
91.7688589890171
20
9.05726838985737
30
0
41
1
10
91.9150965550174
20
9.4830745271401
30
0
41
1
10
91.9882153380177
20
9.66787086868857
30
0
41
1
10
92.134452904018
20
9.98051917322314
30
0
41
1
10
92.2075716870183
20
10.1083855245532
30
0
41
1
10
92.3538092530188
20
10.3092260885662
30
0
41
1
10
92.4269280360189
20
10.3822215933781
30
0
41
1
10
92.5731656020193
20
10.4775967528344
30
0
41
1
10
92.6462843850195
20
10.5
30
0
41
1
10
92.7194031680197
20
10.5
30
0
0
SPLINE
5
F3
100
AcDbEntity
8
1
62
256
6
ByLayer
370
13
48
1
60
0
100
AcDbSpline
70
4
71
3
72
44
73
40
40
0
40
0
40
0
40
0
40
0.0625000000000005
40
0.0625000000000005
40
0.125000000000001
40
0.125000000000001
40
0.187500000000001
40
0.187500000000001
40
0.250000000000002
40
0.250000000000002
40
0.312500000000002
40
0.312500000000002
40
0.375000000000003
40
0.375000000000003
40
0.437500000000003
40
0.437500000000003
40
0.500000000000004
40
0.500000000000004
40
0.562500000000004
40
0.562500000000004
40
0.593750000000004
40
0.593750000000004
40
0.601562500000004
40
0.601562500000004
40
0.609375000000005
40
0.609375000000005
40
0.625000000000004
40
0.625000000000004
40
0.687500000000004
40
0.687500000000004
40
0.750000000000003
40
0.750000000000003
40
0.812500000000002
40
0.812500000000002
40
0.875000000000001
40
0.875000000000001
40
0.937500000000001
40
0.937500000000001
40
1
40
1
40
1
40
1
41
1
10
92.1332291707043
20
10.5
30
0
41
1
10
92.227918407569
20
10.5
30
0
41
1
10
92.3226076444334
20
10.4623668657703
30
0
41
1
10
92.5119861181627
20
10.2997391496172
30
0
41
1
10
92.6066753550273
20
10.1746599609726
30
0
41
1
10
92.7960538287564
20
9.8297523834436
30
0
41
1
10
92.890743065621
20
9.60985978601821
30
0
41
1
10
93.0801215393502
20
9.07514157210559
30
0
41
1
10
93.1748107762148
20
8.76029881944569
30
0
41
1
10
93.364189249944
20
8.04401887727002
30
0
41
1
10
93.4588784868087
20
7.64262615387861
30
0
41
1
10
93.6482569605378
20
6.76973452912236
30
0
41
1
10
93.7429461974024
20
6.29833347215319
30
0
41
1
10
93.9323246711316
20
5.30787252072378
30
0
41
1
10
94.0270139079962
20
4.78893457346541
30
0
41
1
10
94.2163923817254
20
3.72838127176783
30
0
41
1
10
94.31108161859
20
3.18687594432998
30
0
41
1
10
94.5004600923191
20
2.10508687747793
30
0
41
1
10
94.5951493291836
20
1.56487531864093
30
0
41
1
10
94.7371831844806
20
0.770473103808683
30
0
41
1
10
94.784527802913
20
0.508287789037638
30
0
41
1
10
94.8437085759533
20
0.185071396194417
30
0
41
1
10
94.8555447305615
20
0.120653031316266
30
0
41
1
10
94.8792170397776
20
-0.0077061377824634
30
0
41
1
10
94.8910531943857
20
-0.0716878493477111
30
0
41
1
10
94.9265616582098
20
-0.264810821326023
30
0
41
1
10
94.9502339674259
20
-0.394492717576497
30
0
41
1
10
95.0685955135067
20
-1.0469886829934
30
0
41
1
10
95.1632847503714
20
-1.58226852500817
30
0
41
1
10
95.3526632241005
20
-2.66115991499751
30
0
41
1
10
95.4473524609651
20
-3.20471402116084
30
0
41
1
10
95.6367309346944
20
-4.27735148975339
30
0
41
1
10
95.7314201715589
20
-4.80633506455544
30
0
41
1
10
95.9207986452881
20
-5.82487028126957
30
0
41
1
10
96.0154878821527
20
-6.31430008164506
30
0
41
1
10
96.2048663558818
20
-7.2300293947676
30
0
41
1
10
96.2995555927465
20
-7.65621937036465
30
0
41
1
10
96.4889340664757
20
-8.42664489787595
30
0
41
1
10
96.5836233033402
20
-8.77081662814587
30
0
41
1
10
96.6783125402048
20
-9.06839599877415
30
0
0
SPLINE
5
F4
100
AcDbEntity
8
1
62
256
6
ByLayer
370
13
48
1
60
0
100
AcDbSpline
70
4
71
3
72
77
73
73
40
0
40
0
40
0
40
0
40
0.0312499999999993
40
0.0312499999999993
40
0.0624999999999987
40
0.0624999999999987
40
0.093749999999998
40
0.093749999999998
40
0.124999999999997
40
0.124999999999997
40
0.156249999999997
40
0.156249999999997
40
0.164062499999996
40
0.164062499999996
40
0.171874999999996
40
0.187499999999996
40
0.187499999999996
40
0.218749999999995
40
0.218749999999995
40
0.249999999999995
40
0.249999999999995
40
0.281249999999994
40
0.281249999999994
40
0.312499999999993
40
0.312499999999993
40
0.343749999999993
40
0.343749999999993
40
0.374999999999992
40
0.374999999999992
40
0.406249999999992
40
0.406249999999992
40
0.437499999999991
40
0.437499999999991
40
0.46874999999999
40
0.46874999999999
40
0.49999999999999
40
0.49999999999999
40
0.531249999999989
40
0.531249999999989
40
0.562499999999988
40
0.562499999999988
40
0.578124999999988
40
0.578124999999988
40
0.585937499999988
40
0.585937499999988
40
0.593749999999988
40
0.593749999999988
40
0.624999999999989
40
0.624999999999989
40
0.65624999999999
40
0.65624999999999
40
0.687499999999991
40
0.687499999999991
40
0.718749999999992
40
0.718749999999992
40
0.749999999999993
40
0.749999999999993
40
0.781249999999994
40
0.781249999999994
40
0.812499999999995
40
0.812499999999995
40
0.843749999999996
40
0.843749999999996
40
0.874999999999996
40
0.874999999999996
40
0.906249999999997
40
0.906249999999997
40
0.937499999999998
40
0.937499999999998
40
0.968749999999999
40
0.968749999999999
40
1
40
1
40
1
40
1
41
1
10
85.6999999999999
20
-8.76722768772424
30
0
41
1
10
85.7679639523737
20
-9.00186636241986
30
0
41
1
10
85.8359279047475
20
-9.21326985095209
30
0
41
1
10
85.971855809495
20
-9.58718829693527
30
0
41
1
10
86.0398197618688
20
-9.74970738526622
30
0
41
1
10
86.1757476666163
20
-10.0256876094585
30
0
41
1
10
86.2437116189901
20
-10.1391596029832
30
0
41
1
10
86.3796395237376
20
-10.3189009758925
30
0
41
1
10
86.4476034761115
20
-10.3851853583042
30
0
41
1
10
86.583531380859
20
-10.4740331143901
30
0
41
1
10
86.6514953332328
20
-10.4966128744267
30
0
41
1
10
86.7364502737
20
-10.5004034633219
30
0
41
1
10
86.7534412617935
20
-10.4999536189871
30
0
41
1
10
86.7874232379804
20
-10.496596208038
30
0
41
1
10
86.8383962022607
20
-10.4878585417841
30
0
41
1
10
86.8893691665409
20
-10.4676694612716
30
0
41
1
10
86.9913150951016
20
-10.4111752586608
30
0
41
1
10
87.0592790474755
20
-10.3519818749871
30
0
41
1
10
87.1952069522229
20
-10.1868716217728
30
0
41
1
10
87.2631709045967
20
-10.0809393563456
30
0
41
1
10
87.3990988093443
20
-9.82020520131576
30
0
41
1
10
87.4670627617181
20
-9.66539162303809
30
0
41
1
10
87.6029906664656
20
-9.30671481356504
30
0
41
1
10
87.6709546188393
20
-9.10284626012901
30
0
41
1
10
87.8068825235869
20
-8.64811067490047
30
0
41
1
10
87.8748464759607
20
-8.39724652003952
30
0
41
1
10
88.0107743807082
20
-7.85284473908041
30
0
41
1
10
88.078738333082
20
-7.55931852768484
30
0
41
1
10
88.2146662378296
20
-6.93597672412596
30
0
41
1
10
88.2826301902033
20
-6.60617965143194
30
0
41
1
10
88.4185580949509
20
-5.91828301700542
30
0
41
1
10
88.4865220473247
20
-5.56020615873919
30
0
41
1
10
88.6224499520722
20
-4.82470879661471
30
0
41
1
10
88.690413904446
20
-4.4473115411312
30
0
41
1
10
88.8263418091935
20
-3.68240049738151
30
0
41
1
10
88.8943057615674
20
-3.29490710025297
30
0
41
1
10
89.0302336663148
20
-2.51863196038565
30
0
41
1
10
89.0981976186886
20
-2.12986536294906
30
0
41
1
10
89.2341255234362
20
-1.35893193275513
30
0
41
1
10
89.3020894758099
20
-0.976773980083834
30
0
41
1
10
89.4040354043706
20
-0.41342561076354
30
0
41
1
10
89.4380173805574
20
-0.227279945264172
30
0
41
1
10
89.4889903448379
20
0.0489695083381605
30
0
41
1
10
89.5059813329312
20
0.141007428021766
30
0
41
1
10
89.5399633091181
20
0.326493744075833
30
0
41
1
10
89.5569542972115
20
0.419702914094728
30
0
41
1
10
89.6419092376787
20
0.887862185032134
30
0
41
1
10
89.7098731900526
20
1.26920854117799
30
0
41
1
10
89.8458010948001
20
2.03908239406769
30
0
41
1
10
89.9137650471739
20
2.42760150358231
30
0
41
1
10
90.0496929519214
20
3.20403650900227
30
0
41
1
10
90.1176569042953
20
3.59193773033965
30
0
41
1
10
90.2535848090428
20
4.35837555292585
30
0
41
1
10
90.3215487614165
20
4.73689210349434
30
0
41
1
10
90.457476666164
20
5.47534794022846
30
0
41
1
10
90.5254406185378
20
5.83526408786969
30
0
41
1
10
90.6613685232853
20
6.52751328600684
30
0
41
1
10
90.7293324756591
20
6.85982345662512
30
0
41
1
10
90.8652603804067
20
7.48876573073355
30
0
41
1
10
90.9332243327805
20
7.78537886781396
30
0
41
1
10
91.069152237528
20
8.33638474107639
30
0
41
1
10
91.1371161899018
20
8.59076543357565
30
0
41
1
10
91.2730440946493
20
9.05279252220762
30
0
41
1
10
91.3410080470231
20
9.26043536425422
30
0
41
1
10
91.4769359517707
20
9.62673972314423
30
0
41
1
10
91.5448999041445
20
9.78540597201919
30
0
41
1
10
91.680827808892
20
10.0537568566495
30
0
41
1
10
91.7487917612657
20
10.1634527737751
30
0
41
1
10
91.8847196660133
20
10.3358612922401
30
0
41
1
10
91.952683618387
20
10.3985891015705
30
0
41
1
10
92.0886115231345
20
10.4806502614594
30
0
41
1
10
92.1565754755084
20
10.5
30
0
41
1
10
92.2245394278821
20
10.5
30
0
0
SPLINE
5
F5
100
AcDbEntity
8
1
62
256
6
ByLayer
370
13
48
1
60
0
100
AcDbSpline
70
4
71
3
72
58
73
54
40
0
40
0
40
0
40
0
40
0.0625000000000015
40
0.0625000000000015
40
0.125000000000003
40
0.125000000000003
40
0.187500000000005
40
0.187500000000005
40
0.218750000000005
40
0.218750000000005
40
0.250000000000006
40
0.250000000000006
40
0.281250000000006
40
0.281250000000006
40
0.312500000000007
40
0.312500000000007
40
0.343750000000008
40
0.343750000000008
40
0.375000000000008
40
0.375000000000008
40
0.437500000000009
40
0.437500000000009
40
0.50000000000001
40
0.50000000000001
40
0.531250000000011
40
0.531250000000011
40
0.539062500000011
40
0.539062500000011
40
0.546875000000011
40
0.546875000000011
40
0.562500000000011
40
0.562500000000011
40
0.62500000000001
40
0.62500000000001
40
0.687500000000008
40
0.687500000000008
40
0.718750000000008
40
0.718750000000008
40
0.750000000000007
40
0.750000000000007
40
0.781250000000006
40
0.781250000000006
40
0.812500000000005
40
0.812500000000005
40
0.843750000000004
40
0.843750000000004
40
0.875000000000004
40
0.875000000000004
40
0.906250000000003
40
0.906250000000003
40
0.937500000000002
40
0.937500000000002
40
1
40
1
40
1
40
1
41
1
10
91.6383654305667
20
10.5
30
0
41
1
10
91.7433643286842
20
10.5
30
0
41
1
10
91.8483632268017
20
10.453679471563
30
0
41
1
10
92.0583610230366
20
10.2521980880356
30
0
41
1
10
92.1633599211541
20
10.0968973428554
30
0
41
1
10
92.373357717389
20
9.66875637712272
30
0
41
1
10
92.4783566155064
20
9.39582269613291
30
0
41
1
10
92.6358549626826
20
8.90035684421343
30
0
41
1
10
92.6883544117413
20
8.72095640729
30
0
41
1
10
92.7933533098588
20
8.33524469606252
30
0
41
1
10
92.8458527589175
20
8.12893537376604
30
0
41
1
10
92.9508516570349
20
7.69176966308331
30
0
41
1
10
93.0033511060938
20
7.46091698462166
30
0
41
1
10
93.1083500042112
20
6.97772692970369
30
0
41
1
10
93.16084945327
20
6.72539471090229
30
0
41
1
10
93.2658483513874
20
6.20287210933486
30
0
41
1
10
93.3183478004461
20
5.93268783980074
30
0
41
1
10
93.4233466985636
20
5.37848070762328
30
0
41
1
10
93.4758461476223
20
5.09446431886855
30
0
41
1
10
93.6333444947986
20
4.22798939615021
30
0
41
1
10
93.738343392916
20
3.63120809848658
30
0
41
1
10
93.9483411891508
20
2.43252335097753
30
0
41
1
10
94.0533400872683
20
1.83075812778316
30
0
41
1
10
94.2108384344446
20
0.9456413269736
30
0
41
1
10
94.2633378835032
20
0.653471945642423
30
0
41
1
10
94.3289621948266
20
0.293605741498197
30
0
41
1
10
94.3420870570912
20
0.221898504795263
30
0
41
1
10
94.3683367816207
20
0.0790548702611318
30
0
41
1
10
94.3814616438854
20
0.0081148442575341
30
0
41
1
10
94.4208362306794
20
-0.20544168168928
30
0
41
1
10
94.4470859552088
20
-0.348985951263359
30
0
41
1
10
94.5783345778556
20
-1.07179316472917
30
0
41
1
10
94.683333475973
20
-1.66662388285479
30
0
41
1
10
94.8933312722081
20
-2.86435849701087
30
0
41
1
10
94.9983301703255
20
-3.46715929038331
30
0
41
1
10
95.1558285175016
20
-4.35359185211485
30
0
41
1
10
95.2083279665604
20
-4.64606654504303
30
0
41
1
10
95.3133268646778
20
-5.22078212091515
30
0
41
1
10
95.3658263137366
20
-5.50301669965756
30
0
41
1
10
95.4708252118542
20
-6.05304846468937
30
0
41
1
10
95.5233246609129
20
-6.32083919159427
30
0
41
1
10
95.6283235590303
20
-6.83800912573582
30
0
41
1
10
95.680823008089
20
-7.08738232497672
30
0
41
1
10
95.7858219062065
20
-7.56416194079461
30
0
41
1
10
95.8383213552652
20
-7.79156338639791
30
0
41
1
10
95.9433202533826
20
-8.22143000169086
30
0
41
1
10
95.9958197024414
20
-8.42389170697282
30
0
41
1
10
96.1008186005588
20
-8.8016233304007
30
0
41
1
10
96.1533180496176
20
-8.97689156928689
30
0
41
1
10
96.258316947735
20
-9.29877276575323
30
0
41
1
10
96.3108163967937
20
-9.44538588013492
30
0
41
1
10
96.4683147439699
20
-9.84126930735874
30
0
41
1
10
96.5733136420874
20
-10.0462351037818
30
0
41
1
10
96.6783125402049
20
-10.1942021128439
30
0
0
SPLINE
5
F6
100
AcDbEntity
8
1
62
256
6
ByLayer
370
13
48
1
60
0
100
AcDbSpline
70
4
71
3
72
78
73
74
40
0
40
0
40
0
40
0
40
0.0312500000000018
40
0.0312500000000018
40
0.0625000000000036
40
0.0625000000000036
40
0.0781250000000042
40
0.0781250000000042
40
0.0859375000000044
40
0.0859375000000044
40
0.0937500000000045
40
0.0937500000000045
40
0.125000000000004
40
0.125000000000004
40
0.156250000000004
40
0.156250000000004
40
0.187500000000003
40
0.187500000000003
40
0.218750000000003
40
0.218750000000003
40
0.250000000000002
40
0.250000000000002
40
0.281250000000002
40
0.281250000000002
40
0.312500000000002
40
0.312500000000002
40
0.343750000000001
40
0.343750000000001
40
0.375000000000001
40
0.375000000000001
40
0.406250000000001
40
0.406250000000001
40
0.4375
40
0.4375
40
0.46875
40
0.46875
40
0.5
40
0.5
40
0.531249999999999
40
0.531249999999999
40
0.539062499999999
40
0.539062499999999
40
0.546874999999999
40
0.546874999999999
40
0.562499999999999
40
0.562499999999999
40
0.593749999999999
40
0.593749999999999
40
0.624999999999999
40
0.624999999999999
40
0.656249999999999
40
0.656249999999999
40
0.6875
40
0.6875
40
0.71875
40
0.71875
40
0.75
40
0.75
40
0.78125
40
0.78125
40
0.8125
40
0.8125
40
0.84375
40
0.84375
40
0.875
40
0.875
40
0.90625
40
0.90625
40
0.9375
40
0.9375
40
0.96875
40
0.96875
40
1
40
1
40
1
40
1
41
1
10
85.6999999999999
20
-10.0511682980712
30
0
41
1
10
85.7628091217474
20
-10.1594973551393
30
0
41
1
10
85.8256182434947
20
-10.2471379539448
30
0
41
1
10
85.9512364869894
20
-10.3830296835828
30
0
41
1
10
86.0140456087366
20
-10.4312914720771
30
0
41
1
10
86.1082592913577
20
-10.4764454255836
30
0
41
1
10
86.1396638522314
20
-10.4869642482431
30
0
41
1
10
86.1867706935419
20
-10.496284782701
30
0
41
1
10
86.2024729739787
20
-10.4983156701038
30
0
41
1
10
86.2338775348524
20
-10.5002858524976
30
0
41
1
10
86.2495798152892
20
-10.500233308928
30
0
41
1
10
86.3280912174733
20
-10.4947705698395
30
0
41
1
10
86.3909003392208
20
-10.4736178692519
30
0
41
1
10
86.5165185827153
20
-10.394124201393
30
0
41
1
10
86.5793277044627
20
-10.3357721756603
30
0
41
1
10
86.7049459479574
20
-10.1790559169049
30
0
41
1
10
86.7677550697047
20
-10.0806813687584
30
0
41
1
10
86.8933733131994
20
-9.84224252892437
30
0
41
1
10
86.9561824349468
20
-9.70217024943454
30
0
41
1
10
87.0818006784414
20
-9.38008567291638
30
0
41
1
10
87.1446098001887
20
-9.19806926187084
30
0
41
1
10
87.2702280436835
20
-8.79346075393315
30
0
41
1
10
87.3330371654307
20
-8.5708695495986
30
0
41
1
10
87.4586554089254
20
-8.08814253728912
30
0
41
1
10
87.5214645306728
20
-7.82801300250367
30
0
41
1
10
87.6470827741675
20
-7.27480026147217
30
0
41
1
10
87.7098918959148
20
-6.98172814094775
30
0
41
1
10
87.8355101394096
20
-6.36851747848763
30
0
41
1
10
87.8983192611569
20
-6.04839339193714
30
0
41
1
10
88.0239375046516
20
-5.38787289040252
30
0
41
1
10
88.086746626399
20
-5.04749229796303
30
0
41
1
10
88.2123648698936
20
-4.35369741313028
30
0
41
1
10
88.2751739916409
20
-4.00029820882023
30
0
41
1
10
88.4007922351356
20
-3.2876775434155
30
0
41
1
10
88.4636013568829
20
-2.92846868512166
30
0
41
1
10
88.5892196003775
20
-2.2109912855386
30
0
41
1
10
88.6520287221249
20
-1.85273176338637
30
0
41
1
10
88.7776469656196
20
-1.14313881832706
30
0
41
1
10
88.840456087367
20
-0.791810474448823
30
0
41
1
10
88.9189674895512
20
-0.360101856262901
30
0
41
1
10
88.9346697699879
20
-0.274130147256813
30
0
41
1
10
88.9660743308616
20
-0.102994232707289
30
0
41
1
10
88.9817766112984
20
-0.018101991438499
30
0
41
1
10
89.0288834526089
20
0.237431491562319
30
0
41
1
10
89.0602880134826
20
0.409465312315632
30
0
41
1
10
89.1545016961037
20
0.929790296924068
30
0
41
1
10
89.2173108178509
20
1.28233721460086
30
0
41
1
10
89.3429290613457
20
1.99363478080758
30
0
41
1
10
89.4057381830929
20
2.35237983680287
30
0
41
1
10
89.5313564265876
20
3.06997898867559
30
0
41
1
10
89.5941655483349
20
3.42882355847348
30
0
41
1
10
89.7197837918296
20
4.13978608579239
30
0
41
1
10
89.782592913577
20
4.49189103533357
30
0
41
1
10
89.9082111570716
20
5.18213821278107
30
0
41
1
10
89.971020278819
20
5.52026514472433
30
0
41
1
10
90.0966385223137
20
6.17534965431483
30
0
41
1
10
90.1594476440611
20
6.49229146637242
30
0
41
1
10
90.2850658875557
20
7.0983020846146
30
0
41
1
10
90.347875009303
20
7.38735677169456
30
0
41
1
10
90.4734932527977
20
7.93184907250617
30
0
41
1
10
90.536302374545
20
8.18727616721119
30
0
41
1
10
90.6619206180398
20
8.66010559879885
30
0
41
1
10
90.7247297397871
20
8.87750235794846
30
0
41
1
10
90.8503479832818
20
9.27144573116854
30
0
41
1
10
90.9131571050291
20
9.4479921511001
30
0
41
1
10
91.0387753485239
20
9.75907913664025
30
0
41
1
10
91.1015844702712
20
9.89362440278373
30
0
41
1
10
91.2272027137658
20
10.1211527267819
30
0
41
1
10
91.2900118355132
20
10.2141441709837
30
0
41
1
10
91.4156300790079
20
10.3604063092993
30
0
41
1
10
91.4784392007551
20
10.4136875035163
30
0
41
1
10
91.6040574442499
20
10.4834788240817
30
0
41
1
10
91.6668665659972
20
10.5
30
0
41
1
10
91.7296756877445
20
10.5
30
0
0
SPLINE
5
F7
100
AcDbEntity
8
1
62
256
6
ByLayer
370
13
48
1
60
0
100
AcDbSpline
70
4
71
3
72
78
73
74
40
0
40
0
40
0
40
0
40
0.03125
40
0.03125
40
0.0625
40
0.0625
40
0.09375
40
0.09375
40
0.125
40
0.125
40
0.15625
40
0.15625
40
0.1875
40
0.1875
40
0.21875
40
0.21875
40
0.25
40
0.25
40
0.28125
40
0.28125
40
0.3125
40
0.3125
40
0.34375
40
0.34375
40
0.375
40
0.375
40
0.40625
40
0.40625
40
0.4375
40
0.4375
40
0.46875
40
0.46875
40
0.484375
40
0.484375
40
0.4921875
40
0.4921875
40
0.500000000000001
40
0.500000000000001
40
0.531250000000001
40
0.531250000000001
40
0.562500000000001
40
0.562500000000001
40
0.593750000000001
40
0.593750000000001
40
0.625000000000001
40
0.625000000000001
40
0.656250000000001
40
0.656250000000001
40
0.687500000000001
40
0.687500000000001
40
0.718750000000001
40
0.718750000000001
40
0.750000000000001
40
0.750000000000001
40
0.781250000000001
40
0.781250000000001
40
0.812500000000001
40
0.812500000000001
40
0.843750000000001
40
0.843750000000001
40
0.875000000000001
40
0.875000000000001
40
0.906250000000001
40
0.906250000000001
40
0.937500000000001
40
0.937500000000001
40
0.968750000000001
40
0.968750000000001
40
0.984375
40
0.984375
40
0.9921875
40
0.9921875
40
1
40
1
40
1
40
1
41
1
10
91.143501690429
20
10.5
30
0
41
1
10
91.2011559701143
20
10.5
30
0
41
1
10
91.2588102497994
20
10.4860829019268
30
0
41
1
10
91.3741188091698
20
10.4275274343655
30
0
41
1
10
91.4317730888549
20
10.3828818688037
30
0
41
1
10
91.5470816482252
20
10.2605009867621
30
0
41
1
10
91.6047359279104
20
10.1827586943111
30
0
41
1
10
91.7200444872807
20
9.99256339553054
30
0
41
1
10
91.777698766966
20
9.88010447800758
30
0
41
1
10
91.8930073263363
20
9.61979919994656
30
0
41
1
10
91.9506616060214
20
9.47194887706274
30
0
41
1
10
92.0659701653917
20
9.14127981183671
30
0
41
1
10
92.1236244450769
20
8.9584598131203
30
0
41
1
10
92.2389330044472
20
8.55944719550212
30
0
41
1
10
92.2965872841323
20
8.34325648045356
30
0
41
1
10
92.4118958435027
20
7.88026669117642
30
0
41
1
10
92.4695501231879
20
7.63347269802006
30
0
41
1
10
92.5848586825581
20
7.11310389938623
30
0
41
1
10
92.6425129622434
20
6.83953688681549
30
0
41
1
10
92.7578215216137
20
6.27031749956521
30
0
41
1
10
92.8154758012988
20
5.97467474967416
30
0
41
1
10
92.9307843606692
20
5.36660220645729
30
0
41
1
10
92.9884386403544
20
5.054182742563
30
0
41
1
10
93.1037471997247
20
4.41815410806342
30
0
41
1
10
93.1614014794098
20
4.09455481628365
30
0
41
1
10
93.2767100387802
20
3.44175532584552
30
0
41
1
10
93.3343643184654
20
3.112563580494
30
0
41
1
10
93.4496728778357
20
2.45388091025885
30
0
41
1
10
93.5073271575209
20
2.12439636228436
30
0
41
1
10
93.6226357168911
20
1.4699180926292
30
0
41
1
10
93.6802899965763
20
1.1449283973707
30
0
41
1
10
93.766771416104
20
0.663903109721304
30
0
41
1
10
93.7955985559466
20
0.504632305448638
30
0
41
1
10
93.8388392657105
20
0.267665919017929
30
0
41
1
10
93.8532528356318
20
0.18900005373041
30
0
41
1
10
93.8820799754744
20
0.0323652354532271
30
0
41
1
10
93.8964935453957
20
-0.0454456505886753
30
0
41
1
10
93.9685613950022
20
-0.437226761711173
30
0
41
1
10
94.0262156746874
20
-0.756234723898814
30
0
41
1
10
94.1415242340577
20
-1.40185073737265
30
0
41
1
10
94.1991785137428
20
-1.72845646387074
30
0
41
1
10
94.3144870731131
20
-2.38496349217047
30
0
41
1
10
94.3721413527983
20
-2.71486014110698
30
0
41
1
10
94.4874499121686
20
-3.37301042160598
30
0
41
1
10
94.5451041918537
20
-3.70125708610541
30
0
41
1
10
94.6604127512242
20
-4.35070940757439
30
0
41
1
10
94.7180670309093
20
-4.67190615677364
30
0
41
1
10
94.8333755902796
20
-5.30164121916772
30
0
41
1
10
94.8910298699648
20
-5.61016942928651
30
0
41
1
10
95.0063384293351
20
-6.20901896665168
30
0
41
1
10
95.0639927090202
20
-6.49933003536432
30
0
41
1
10
95.1793012683906
20
-7.05657553150974
30
0
41
1
10
95.2369555480758
20
-7.32350071460831
30
0
41
1
10
95.352264107446
20
-7.82948050536163
30
0
41
1
10
95.4099183871313
20
-8.06852796510449
30
0
41
1
10
95.5252269465016
20
-8.51518411443578
30
0
41
1
10
95.5828812261867
20
-8.72278853585459
30
0
41
1
10
95.6981897855571
20
-9.10409007878346
30
0
41
1
10
95.7558440652422
20
-9.2777861518108
30
0
41
1
10
95.8711526246125
20
-9.58998274708728
30
0
41
1
10
95.9288069042977
20
-9.72848529941024
30
0
41
1
10
96.044115463668
20
-9.97017116530299
30
0
41
1
10
96.1017697433533
20
-10.0733590375941
30
0
41
1
10
96.2170783027236
20
-10.2453551138828
30
0
41
1
10
96.2747325824087
20
-10.3141695970768
30
0
41
1
10
96.3900411417791
20
-10.4192558395742
30
0
41
1
10
96.4476954214642
20
-10.4555347101313
30
0
41
1
10
96.5341768409919
20
-10.4874434706102
30
0
41
1
10
96.5630039808345
20
-10.4943328623129
30
0
41
1
10
96.6062446905984
20
-10.4993182472552
30
0
41
1
10
96.6206582605197
20
-10.5000889446174
30
0
41
1
10
96.6494854003622
20
-10.4998948029105
30
0
41
1
10
96.6638989702835
20
-10.4989275688447
30
0
41
1
10
96.6783125402048
20
-10.4970664848188
30
0
0
SPLINE
5
F8
100
AcDbEntity
8
1
62
256
6
ByLayer
370
13
48
1
60
0
100
AcDbSpline
70
4
71
3
72
77
73
73
40
0
40
0
40
0
40
0
40
0.0078125000000001
40
0.0078125000000001
40
0.0156250000000002
40
0.0156250000000002
40
0.0312500000000004
40
0.0312500000000004
40
0.0625000000000004
40
0.0625000000000004
40
0.0937500000000004
40
0.0937500000000004
40
0.125
40
0.125
40
0.15625
40
0.15625
40
0.1875
40
0.1875
40
0.21875
40
0.21875
40
0.25
40
0.25
40
0.28125
40
0.28125
40
0.3125
40
0.3125
40
0.34375
40
0.34375
40
0.375
40
0.375
40
0.40625
40
0.40625
40
0.4375
40
0.4375
40
0.46875
40
0.46875
40
0.5
40
0.5
40
0.5078125
40
0.5078125
40
0.515625
40
0.53125
40
0.53125
40
0.5625
40
0.5625
40
0.59375
40
0.59375
40
0.625
40
0.625
40
0.65625
40
0.65625
40
0.6875
40
0.6875
40
0.71875
40
0.71875
40
0.75
40
0.75
40
0.78125
40
0.78125
40
0.8125
40
0.8125
40
0.84375
40
0.84375
40
0.875
40
0.875
40
0.90625
40
0.90625
40
0.9375
40
0.9375
40
0.96875
40
0.96875
40
1
40
1
40
1
40
1
41
1
10
85.6999999999999
20
-10.4970663430648
30
0
41
1
10
85.7144135727802
20
-10.4989274728446
30
0
41
1
10
85.7288271455604
20
-10.499894751717
30
0
41
1
10
85.757654291121
20
-10.5000889811361
30
0
41
1
10
85.772067863901
20
-10.4993183276334
30
0
41
1
10
85.8153085822418
20
-10.4943330753376
30
0
41
1
10
85.8441357278022
20
-10.4874437729952
30
0
41
1
10
85.9306171644836
20
-10.455535282571
30
0
41
1
10
85.9882714556045
20
-10.4192565947084
30
0
41
1
10
86.1035800378463
20
-10.3141707178887
30
0
41
1
10
86.1612343289672
20
-10.2453564176684
30
0
41
1
10
86.276542911209
20
-10.0733607018509
30
0
41
1
10
86.3341972023298
20
-9.97017300704357
30
0
41
1
10
86.4495057845717
20
-9.72848748449678
30
0
41
1
10
86.5071600756926
20
-9.58998509801947
30
0
41
1
10
86.6224686579345
20
-9.2777888167422
30
0
41
1
10
86.6801229490554
20
-9.10409289185111
30
0
41
1
10
86.7954315312973
20
-8.7227916220229
30
0
41
1
10
86.8530858224182
20
-8.51518732555292
30
0
41
1
10
86.9683944046599
20
-8.0685313985627
30
0
41
1
10
87.0260486957807
20
-7.82948403620071
30
0
41
1
10
87.1413572780226
20
-7.32350440977581
30
0
41
1
10
87.1990115691435
20
-7.05657929361959
30
0
41
1
10
87.3143201513853
20
-6.49933389980888
30
0
41
1
10
87.3719744425062
20
-6.20902286649044
30
0
41
1
10
87.4872830247481
20
-5.61017336905661
30
0
41
1
10
87.544937315869
20
-5.30164516348324
30
0
41
1
10
87.6602458981107
20
-4.67191008166907
30
0
41
1
10
87.7179001892317
20
-4.35071330851724
30
0
41
1
10
87.8332087714734
20
-3.70126091430487
30
0
41
1
10
87.8908630625944
20
-3.37301420102989
30
0
41
1
10
88.0061716448362
20
-2.71486380270736
30
0
41
1
10
88.0638259359571
20
-2.38496708473809
30
0
41
1
10
88.1791345181989
20
-1.72845990309401
30
0
41
1
10
88.2367888093198
20
-1.40185409229741
30
0
41
1
10
88.3520973915616
20
-0.756237899937986
30
0
41
1
10
88.4097516826826
20
-0.437229843173128
30
0
41
1
10
88.4818195465837
20
-0.0454486102981093
30
0
41
1
10
88.496233119364
20
0.0323622926458143
30
0
41
1
10
88.5250602649244
20
0.188997124580538
30
0
41
1
10
88.568300983265
20
0.424993995991457
30
0
41
1
10
88.6115417016057
20
0.663900228294551
30
0
41
1
10
88.6980231382871
20
1.14492557318988
30
0
41
1
10
88.755677429408
20
1.46991531391524
30
0
41
1
10
88.8709860116499
20
2.12439368872884
30
0
41
1
10
88.9286403027708
20
2.45387829639753
30
0
41
1
10
89.0439488850126
20
3.11256109900972
30
0
41
1
10
89.1016031761334
20
3.4417529170436
30
0
41
1
10
89.2169117583753
20
4.09455256369904
30
0
41
1
10
89.2745660494962
20
4.4181519390097
30
0
41
1
10
89.389874631738
20
5.0541807484536
30
0
41
1
10
89.4475289228589
20
5.36660030375373
30
0
41
1
10
89.5628375051007
20
5.97467303403693
30
0
41
1
10
89.6204917962216
20
6.27031587957802
30
0
41
1
10
89.7358003784635
20
6.83953545837232
30
0
41
1
10
89.7934546695843
20
7.11310256682523
30
0
41
1
10
89.9087632518262
20
7.63347155341384
30
0
41
1
10
89.966417542947
20
7.88026563863141
30
0
41
1
10
90.0817261251888
20
8.34325560448121
30
0
41
1
10
90.1393804163097
20
8.55944640403197
30
0
41
1
10
90.2546889985515
20
8.95845917999361
30
0
41
1
10
90.3123432896724
20
9.14127925254559
30
0
41
1
10
90.4276518719142
20
9.47194845252926
30
0
41
1
10
90.4853061630352
20
9.61979883633342
30
0
41
1
10
90.600614745277
20
9.88010422204115
30
0
41
1
10
90.6582690363979
20
9.99256318629256
30
0
41
1
10
90.7735776186397
20
10.1827585640214
30
0
41
1
10
90.8312319097607
20
10.2605008886973
30
0
41
1
10
90.9465404920024
20
10.3828818212228
30
0
41
1
10
91.0041947831234
20
10.4275274050503
30
0
41
1
10
91.1195033653651
20
10.4860828963985
30
0
41
1
10
91.1771576564861
20
10.5
30
0
41
1
10
91.234811947607
20
10.5
30
0
0
SPLINE
5
F9
100
AcDbEntity
8
1
62
256
6
ByLayer
370
13
48
1
60
0
100
AcDbSpline
70
4
71
3
72
77
73
73
40
0
40
0
40
0
40
0
40
0.0312500000000008
40
0.0312500000000008
40
0.0625000000000017
40
0.0625000000000017
40
0.0937500000000025
40
0.0937500000000025
40
0.125000000000003
40
0.125000000000003
40
0.156250000000004
40
0.156250000000004
40
0.187500000000005
40
0.187500000000005
40
0.218750000000006
40
0.218750000000006
40
0.250000000000007
40
0.250000000000007
40
0.281250000000007
40
0.281250000000007
40
0.312500000000008
40
0.312500000000008
40
0.343750000000009
40
0.343750000000009
40
0.37500000000001
40
0.37500000000001
40
0.406250000000011
40
0.406250000000011
40
0.437500000000012
40
0.437500000000012
40
0.453125000000012
40
0.453125000000012
40
0.460937500000012
40
0.460937500000012
40
0.468750000000012
40
0.468750000000012
40
0.500000000000011
40
0.500000000000011
40
0.53125000000001
40
0.53125000000001
40
0.562500000000009
40
0.562500000000009
40
0.593750000000008
40
0.593750000000008
40
0.625000000000007
40
0.625000000000007
40
0.656250000000006
40
0.656250000000006
40
0.687500000000005
40
0.687500000000005
40
0.718750000000004
40
0.718750000000004
40
0.750000000000003
40
0.750000000000003
40
0.781250000000002
40
0.781250000000002
40
0.812500000000001
40
0.812500000000001
40
0.84375
40
0.84375
40
0.874999999999999
40
0.874999999999999
40
0.906249999999998
40
0.906249999999998
40
0.914062499999998
40
0.914062499999998
40
0.921874999999998
40
0.937499999999999
40
0.937499999999999
40
0.968749999999999
40
0.968749999999999
40
1
40
1
40
1
40
1
41
1
10
90.6486379502915
20
10.5
30
0
41
1
10
90.7114470606031
20
10.5
30
0
41
1
10
90.7742561709148
20
10.4834788301076
30
0
41
1
10
90.8998743915379
20
10.4136875356115
30
0
41
1
10
90.9626835018494
20
10.360406361448
30
0
41
1
10
91.0883017224726
20
10.2141442786159
30
0
41
1
10
91.1511108327843
20
10.1211528698534
30
0
41
1
10
91.2767290534076
20
9.89362463254977
30
0
41
1
10
91.3395381637191
20
9.75907941766775
30
0
41
1
10
91.4651563843423
20
9.44799254975285
30
0
41
1
10
91.5279654946539
20
9.27144619618616
30
0
41
1
10
91.653583715277
20
8.87750296881777
30
0
41
1
10
91.7163928255887
20
8.66010628914995
30
0
41
1
10
91.842011046212
20
8.18727702645648
30
0
41
1
10
91.9048201565234
20
7.93185002115297
30
0
41
1
10
92.0304383771465
20
7.38735790491307
30
0
41
1
10
92.0932474874583
20
7.09830331298821
30
0
41
1
10
92.2188657080815
20
6.49229288609087
30
0
41
1
10
92.2816748183931
20
6.17535117020628
30
0
41
1
10
92.4072930390163
20
5.5202668491801
30
0
41
1
10
92.4701021493278
20
5.18214000961291
30
0
41
1
10
92.595720369951
20
4.49189300872879
30
0
41
1
10
92.6585294802626
20
4.13978814336375
30
0
41
1
10
92.7841477008858
20
3.42882577261716
30
0
41
1
10
92.8469568111975
20
3.06998127520961
30
0
41
1
10
92.9725750318206
20
2.3523822538219
30
0
41
1
10
93.0353841421322
20
1.99363725592093
30
0
41
1
10
93.1610023627554
20
1.28233979025723
30
0
41
1
10
93.223811473067
20
0.929792915033346
30
0
41
1
10
93.3180251385344
20
0.409467982184737
30
0
41
1
10
93.3494296936902
20
0.237434176706301
30
0
41
1
10
93.3965365264239
20
-0.0180992863067502
30
0
41
1
10
93.4122388040018
20
-0.102991499390555
30
0
41
1
10
93.4436433591576
20
-0.274127365439995
30
0
41
1
10
93.4593456367355
20
-0.360099050399953
30
0
41
1
10
93.537857024625
20
-0.791807549581989
30
0
41
1
10
93.6006661349365
20
-1.1431358021625
30
0
41
1
10
93.7262843555598
20
-1.85272857811668
30
0
41
1
10
93.7890934658714
20
-2.21098802247744
30
0
41
1
10
93.9147116864946
20
-2.92846528594657
30
0
41
1
10
93.9775207968061
20
-3.28767408593816
30
0
41
1
10
94.1031390174294
20
-4.00029465991554
30
0
41
1
10
94.165948127741
20
-4.35369383112223
30
0
41
1
10
94.2915663483642
20
-5.04748867972057
30
0
41
1
10
94.3543754586757
20
-5.38786926904857
30
0
41
1
10
94.479993679299
20
-6.04838979757844
30
0
41
1
10
94.5428027896105
20
-6.36851391424895
30
0
41
1
10
94.6684210102337
20
-6.9817246713551
30
0
41
1
10
94.7312301205453
20
-7.27479685640938
30
0
41
1
10
94.8568483411685
20
-7.82800975976804
30
0
41
1
10
94.9196574514801
20
-8.08813939234398
30
0
41
1
10
95.0452756721032
20
-8.57086663007919
30
0
41
1
10
95.1080847824149
20
-8.79345796203268
30
0
41
1
10
95.2337030030382
20
-9.19806674970036
30
0
41
1
10
95.2965121133498
20
-9.38008331283436
30
0
41
1
10
95.422130333973
20
-9.70216821133576
30
0
41
1
10
95.4849394442845
20
-9.84224066069595
30
0
41
1
10
95.6105576649077
20
-10.0806798507792
30
0
41
1
10
95.6733667752194
20
-10.1790545792824
30
0
41
1
10
95.7989849958426
20
-10.335771202063
30
0
41
1
10
95.8617941061541
20
-10.3941234114474
30
0
41
1
10
95.9874123267773
20
-10.473617443419
30
0
41
1
10
96.050221437089
20
-10.4947703244576
30
0
41
1
10
96.1287328249784
20
-10.5002332837408
30
0
41
1
10
96.1444351025562
20
-10.5002858707189
30
0
41
1
10
96.175839657712
20
-10.4983157777882
30
0
41
1
10
96.2229464904457
20
-10.4922239045527
30
0
41
1
10
96.2700533231795
20
-10.4764458171256
30
0
41
1
10
96.3642669886469
20
-10.4312921688117
30
0
41
1
10
96.4270760989585
20
-10.3830305999494
30
0
41
1
10
96.5526943195817
20
-10.2471393385796
30
0
41
1
10
96.6155034298932
20
-10.1594989884138
30
0
41
1
10
96.6783125402048
20
-10.0511701915364
30
0
0
SPLINE
5
FA
100
AcDbEntity
8
1
62
256
6
ByLayer
370
13
48
1
60
0
100
AcDbSpline
70
4
71
3
72
58
73
54
40
0
40
0
40
0
40
0
40
0.0625000000000013
40
0.0625000000000013
40
0.0937500000000018
40
0.0937500000000018
40
0.125000000000002
40
0.125000000000002
40
0.156250000000003
40
0.156250000000003
40
0.187500000000003
40
0.187500000000003
40
0.218750000000004
40
0.218750000000004
40
0.250000000000004
40
0.250000000000004
40
0.281250000000005
40
0.281250000000005
40
0.312500000000005
40
0.312500000000005
40
0.375000000000006
40
0.375000000000006
40
0.437500000000007
40
0.437500000000007
40
0.453125000000007
40
0.453125000000007
40
0.460937500000007
40
0.460937500000007
40
0.468750000000007
40
0.468750000000007
40
0.500000000000007
40
0.500000000000007
40
0.562500000000006
40
0.562500000000006
40
0.625000000000006
40
0.625000000000006
40
0.656250000000005
40
0.656250000000005
40
0.687500000000005
40
0.687500000000005
40
0.718750000000004
40
0.718750000000004
40
0.750000000000004
40
0.750000000000004
40
0.781250000000003
40
0.781250000000003
40
0.812500000000003
40
0.812500000000003
40
0.875000000000002
40
0.875000000000002
40
0.937500000000001
40
0.937500000000001
40
1
40
1
40
1
40
1
41
1
10
85.6999999999999
20
-10.1942036599325
30
0
41
1
10
85.804998920989
20
-10.0462370127597
30
0
41
1
10
85.9099978419778
20
-9.84127156973949
30
0
41
1
10
86.0674962234613
20
-9.44538862945737
30
0
41
1
10
86.1199956839557
20
-9.29877567018374
30
0
41
1
10
86.2249946049448
20
-8.97689476477746
30
0
41
1
10
86.2774940654392
20
-8.80162666183176
30
0
41
1
10
86.3824929864281
20
-8.42389528703748
30
0
41
1
10
86.4349924469226
20
-8.22143369443916
30
0
41
1
10
86.5399913679116
20
-7.79156727817121
30
0
41
1
10
86.592490828406
20
-7.56416591890317
30
0
41
1
10
86.6974897493949
20
-7.08738644755366
30
0
41
1
10
86.7499892098894
20
-6.83801330644394
30
0
41
1
10
86.8549881308783
20
-6.32084345986164
30
0
41
1
10
86.9074875913728
20
-6.05305276238718
30
0
41
1
10
87.0124865123618
20
-5.50302102836406
30
0
41
1
10
87.0649859728563
20
-5.22078645120612
30
0
41
1
10
87.1699848938453
20
-4.64607085272067
30
0
41
1
10
87.2224843543397
20
-4.35359613560368
30
0
41
1
10
87.3799827358231
20
-3.46716346721357
30
0
41
1
10
87.484981656812
20
-2.86436255712823
30
0
41
1
10
87.69497949879
20
-1.6666276496677
30
0
41
1
10
87.7999784197789
20
-1.07179675524779
30
0
41
1
10
87.9312270710151
20
-0.348989304680316
30
0
41
1
10
87.9574768012624
20
-0.205444986840575
30
0
41
1
10
87.9968513966331
20
0.0081116124269727
30
0
41
1
10
88.0099762617568
20
0.0790516428733099
30
0
41
1
10
88.036225992004
20
0.22189529136827
30
0
41
1
10
88.0493508571276
20
0.293602535460025
30
0
41
1
10
88.1149751827458
20
0.653468778604264
30
0
41
1
10
88.1674746432402
20
0.945638197736486
30
0
41
1
10
88.3249730247236
20
1.83075513179037
30
0
41
1
10
88.4299719457126
20
2.43252047061205
30
0
41
1
10
88.6399697876905
20
3.63120549565468
30
0
41
1
10
88.7449687086794
20
4.22798695519444
30
0
41
1
10
88.9024670901628
20
5.09446214201338
30
0
41
1
10
88.9549665506573
20
5.37847862226863
30
0
41
1
10
89.0599654716463
20
5.93268594137234
30
0
41
1
10
89.1124649321407
20
6.20287030632505
30
0
41
1
10
89.2174638531296
20
6.72539309934251
30
0
41
1
10
89.2699633136241
20
6.97772541416722
30
0
41
1
10
89.3749622346131
20
7.46091565837199
30
0
41
1
10
89.4274616951075
20
7.69176843008901
30
0
41
1
10
89.5324606160964
20
8.12893432133529
30
0
41
1
10
89.584960076591
20
8.33524373093297
30
0
41
1
10
89.6899589975798
20
8.72095560804101
30
0
41
1
10
89.7424584580743
20
8.90035612353881
30
0
41
1
10
89.8999568395577
20
9.39582219482625
30
0
41
1
10
90.0049557605466
20
9.66875599987577
30
0
41
1
10
90.2149536025246
20
10.0968971605411
30
0
41
1
10
90.3199525235135
20
10.252197976662
30
0
41
1
10
90.5299503654914
20
10.4536794512729
30
0
41
1
10
90.6349492864804
20
10.5
30
0
41
1
10
90.7399482074693
20
10.5
30
0
0
SPLINE
5
FB
100
AcDbEntity
8
1
62
256
6
ByLayer
370
13
48
1
60
0
100
AcDbSpline
70
4
71
3
72
78
73
74
40
0
40
0
40
0
40
0
40
0.0312499999999988
40
0.0312499999999988
40
0.0624999999999976
40
0.0624999999999976
40
0.0937499999999965
40
0.0937499999999965
40
0.124999999999995
40
0.124999999999995
40
0.156249999999994
40
0.156249999999994
40
0.187499999999993
40
0.187499999999993
40
0.218749999999992
40
0.218749999999992
40
0.249999999999991
40
0.249999999999991
40
0.281249999999989
40
0.281249999999989
40
0.312499999999988
40
0.312499999999988
40
0.343749999999987
40
0.343749999999987
40
0.374999999999986
40
0.374999999999986
40
0.406249999999985
40
0.406249999999985
40
0.414062499999985
40
0.414062499999985
40
0.421874999999985
40
0.421874999999985
40
0.437499999999985
40
0.437499999999985
40
0.468749999999986
40
0.468749999999986
40
0.499999999999988
40
0.499999999999988
40
0.531249999999989
40
0.531249999999989
40
0.56249999999999
40
0.56249999999999
40
0.593749999999991
40
0.593749999999991
40
0.624999999999993
40
0.624999999999993
40
0.656249999999994
40
0.656249999999994
40
0.687499999999995
40
0.687499999999995
40
0.718749999999996
40
0.718749999999996
40
0.749999999999998
40
0.749999999999998
40
0.781249999999999
40
0.781249999999999
40
0.8125
40
0.8125
40
0.828125000000001
40
0.828125000000001
40
0.835937500000001
40
0.835937500000001
40
0.843750000000002
40
0.843750000000002
40
0.875000000000001
40
0.875000000000001
40
0.906250000000001
40
0.906250000000001
40
0.937500000000001
40
0.937500000000001
40
0.96875
40
0.96875
40
1
40
1
40
1
40
1
41
1
10
90.1537742101539
20
10.5
30
0
41
1
10
90.2217381510919
20
10.5
30
0
41
1
10
90.28970209203
20
10.4806502679837
30
0
41
1
10
90.425629973906
20
10.3985891364694
30
0
41
1
10
90.493593914844
20
10.335861349003
30
0
41
1
10
90.6295217967201
20
10.1634528910709
30
0
41
1
10
90.6974857376581
20
10.0537570126262
30
0
41
1
10
90.8334136195342
20
9.78540622242153
30
0
41
1
10
90.9013775604723
20
9.62674002929811
30
0
41
1
10
91.0373054423484
20
9.26043579772099
30
0
41
1
10
91.1052693832863
20
9.05279302723451
30
0
41
1
10
91.2411972651624
20
8.59076609467181
30
0
41
1
10
91.3091612061004
20
8.33638548667136
30
0
41
1
10
91.4450890879764
20
7.78537979105792
30
0
41
1
10
91.5130530289146
20
7.48876674710948
30
0
41
1
10
91.6489809107906
20
6.85982466261618
30
0
41
1
10
91.7169448517286
20
6.52751458845859
30
0
41
1
10
91.8528727336047
20
5.83526558091734
30
0
41
1
10
91.9208366745428
20
5.47534952738934
30
0
41
1
10
92.0567645564188
20
4.73689387119035
30
0
41
1
10
92.1247284973568
20
4.35837740702667
30
0
41
1
10
92.2606563792328
20
3.59193974510669
30
0
41
1
10
92.3286203201709
20
3.20403859802133
30
0
41
1
10
92.4645482020469
20
2.42760372582876
30
0
41
1
10
92.532512142985
20
2.03908467528834
30
0
41
1
10
92.668440024861
20
1.26921092341246
30
0
41
1
10
92.736403965799
20
0.88786460931189
30
0
41
1
10
92.8213588919717
20
0.419705380185832
30
0
41
1
10
92.8383498772062
20
0.326496217995015
30
0
41
1
10
92.8723318476751
20
0.141009916536547
30
0
41
1
10
92.8893228329097
20
0.0489719939107829
30
0
41
1
10
92.9402957886132
20
-0.227277386285152
30
0
41
1
10
92.9742777590822
20
-0.413423003628395
30
0
41
1
10
93.0762236704892
20
-0.976771231990028
30
0
41
1
10
93.1441876114272
20
-1.35892909535335
30
0
41
1
10
93.2801154933032
20
-2.12986236300927
30
0
41
1
10
93.3480794342413
20
-2.51862888723929
30
0
41
1
10
93.4840073161174
20
-3.29490390375884
30
0
41
1
10
93.5519712570555
20
-3.68239725077504
30
0
41
1
10
93.6878991389315
20
-4.44730822376374
30
0
41
1
10
93.7558630798696
20
-4.82470545862793
30
0
41
1
10
93.8917909617456
20
-5.56020281389252
30
0
41
1
10
93.9597549026837
20
-5.91827968594157
30
0
41
1
10
94.0956827845597
20
-6.60617638492863
30
0
41
1
10
94.1636467254978
20
-6.93597350841173
30
0
41
1
10
94.2995746073738
20
-7.55931545031822
30
0
41
1
10
94.3675385483118
20
-7.85284174926821
30
0
41
1
10
94.503466430188
20
-8.39724373892008
30
0
41
1
10
94.571430371126
20
-8.64810801490023
30
0
41
1
10
94.707358253002
20
-9.10284387015963
30
0
41
1
10
94.77532219394
20
-9.30671257247764
30
0
41
1
10
94.911250075816
20
-9.66538969986067
30
0
41
1
10
94.9792140167541
20
-9.82020344713291
30
0
41
1
10
95.1151418986301
20
-10.0809379517696
30
0
41
1
10
95.1831058395682
20
-10.1868703977786
30
0
41
1
10
95.3190337214443
20
-10.3519810153468
30
0
41
1
10
95.3869976623822
20
-10.41117458277
30
0
41
1
10
95.4889435737894
20
-10.4676690577611
30
0
41
1
10
95.5229255442583
20
-10.4811285350316
30
0
41
1
10
95.5738984999619
20
-10.4936831589593
30
0
41
1
10
95.5908894851964
20
-10.4965960732135
30
0
41
1
10
95.6248714556655
20
-10.4999535724686
30
0
41
1
10
95.6418624408999
20
-10.5004034602012
30
0
41
1
10
95.7268173670724
20
-10.4966130935543
30
0
41
1
10
95.7947813080104
20
-10.4740335293422
30
0
41
1
10
95.9307091898866
20
-10.3851861991231
30
0
41
1
10
95.9986731308245
20
-10.318902046767
30
0
41
1
10
96.1346010127006
20
-10.1391611633003
30
0
41
1
10
96.2025649536387
20
-10.025689429162
30
0
41
1
10
96.3384928355147
20
-9.74970974488446
30
0
41
1
10
96.4064567764527
20
-9.58719093706304
30
0
41
1
10
96.5423846583288
20
-9.21327306202863
30
0
41
1
10
96.6103485992668
20
-9.00186986389861
30
0
41
1
10
96.6783125402048
20
-8.76723147787354
30
0
0
SPLINE
5
FC
100
AcDbEntity
8
1
62
256
6
ByLayer
370
13
48
1
60
0
100
AcDbSpline
70
4
71
3
72
44
73
40
40
0
40
0
40
0
40
0
40
0.0625
40
0.0625
40
0.125
40
0.125
40
0.1875
40
0.1875
40
0.25
40
0.25
40
0.3125
40
0.3125
40
0.375
40
0.375
40
0.390625
40
0.390625
40
0.3984375
40
0.3984375
40
0.40625
40
0.40625
40
0.4375
40
0.4375
40
0.5
40
0.5
40
0.5625
40
0.5625
40
0.625
40
0.625
40
0.6875
40
0.6875
40
0.75
40
0.75
40
0.8125
40
0.8125
40
0.875
40
0.875
40
0.9375
40
0.9375
40
1
40
1
40
1
40
1
41
1
10
85.6999999999999
20
-9.06839944892056
30
0
41
1
10
85.7946892597361
20
-8.7708203638345
30
0
41
1
10
85.8893785194722
20
-8.42664888304176
30
0
41
1
10
86.0787570389443
20
-7.6562237592718
30
0
41
1
10
86.1734462986804
20
-7.23003393780687
30
0
41
1
10
86.3628248181525
20
-6.3143048284843
30
0
41
1
10
86.4575140778886
20
-5.82487507780428
30
0
41
1
10
86.6468925973608
20
-4.80633986278548
30
0
41
1
10
86.7415818570968
20
-4.27735624014917
30
0
41
1
10
86.930960376569
20
-3.20471859791965
30
0
41
1
10
87.025649636305
20
-2.66116436617611
30
0
41
1
10
87.2150281557773
20
-1.58227267357122
30
0
41
1
10
87.3097174155133
20
-1.04699265471294
30
0
41
1
10
87.4280789901834
20
-0.394496452813968
30
0
41
1
10
87.4517513051175
20
-0.264814508489053
30
0
41
1
10
87.4872597775184
20
-0.0716914635151511
30
0
41
1
10
87.4990959349855
20
-0.0077097253902707
30
0
41
1
10
87.5227682499194
20
0.120649456952805
30
0
41
1
10
87.5346044073866
20
0.185067828820024
30
0
41
1
10
87.5937851947216
20
0.508284258456314
30
0
41
1
10
87.6411298245896
20
0.77046960859019
30
0
41
1
10
87.7831637141937
20
1.56487194745185
30
0
41
1
10
87.8778529739298
20
2.1050836131426
30
0
41
1
10
88.0672314934019
20
3.18687293751
30
0
41
1
10
88.161920753138
20
3.72837841560886
30
0
41
1
10
88.3512992726102
20
4.78893205007944
30
0
41
1
10
88.4459885323463
20
5.30787017936424
30
0
41
1
10
88.6353670518184
20
6.29833150721925
30
0
41
1
10
88.7300563115545
20
6.76973275843298
30
0
41
1
10
88.9194348310266
20
7.64262476196004
30
0
41
1
10
89.0141240907628
20
8.04401766971037
30
0
41
1
10
89.203502610235
20
8.76029795085972
30
0
41
1
10
89.2981918699709
20
9.07514085802131
30
0
41
1
10
89.4875703894431
20
9.60985933768734
30
0
41
1
10
89.5822596491792
20
9.82975204634303
30
0
41
1
10
89.7716381686514
20
10.1746597982139
30
0
41
1
10
89.8663274283875
20
10.2997390500302
30
0
41
1
10
90.0557059478596
20
10.4623668475127
30
0
41
1
10
90.1503952075957
20
10.5
30
0
41
1
10
90.2450844673318
20
10.5
30
0
0
SPLINE
5
FD
100
AcDbEntity
8
1
62
256
6
ByLayer
370
13
48
1
60
0
100
AcDbSpline
70
4
71
3
72
76
73
72
40
0
40
0
40
0
40
0
40
0.03125
40
0.03125
40
0.0625
40
0.0625
40
0.0937500000000001
40
0.0937500000000001
40
0.125
40
0.125
40
0.15625
40
0.15625
40
0.1875
40
0.1875
40
0.21875
40
0.21875
40
0.25
40
0.25
40
0.28125
40
0.28125
40
0.3125
40
0.3125
40
0.34375
40
0.34375
40
0.375
40
0.375
40
0.390625
40
0.390625
40
0.40625
40
0.40625
40
0.4375
40
0.4375
40
0.46875
40
0.46875
40
0.5
40
0.5
40
0.53125
40
0.53125
40
0.5625
40
0.5625
40
0.59375
40
0.59375
40
0.625
40
0.625
40
0.65625
40
0.65625
40
0.6875
40
0.6875
40
0.71875
40
0.71875
40
0.75
40
0.75
40
0.78125
40
0.78125
40
0.7890625
40
0.7890625
40
0.796875
40
0.796875
40
0.8125
40
0.8125
40
0.84375
40
0.84375
40
0.875
40
0.875
40
0.90625
40
0.90625
40
0.9375
40
0.9375
40
0.96875
40
0.96875
40
1
40
1
40
1
40
1
41
1
10
89.6589104700163
20
10.5
30
0
41
1
10
89.7320292415808
20
10.5
30
0
41
1
10
89.8051480131453
20
10.4775967598584
30
0
41
1
10
89.9513855562742
20
10.3822216311041
30
0
41
1
10
90.0245043278387
20
10.3092261499886
30
0
41
1
10
90.1707418709675
20
10.108385651599
30
0
41
1
10
90.243860642532
20
9.98051934221115
30
0
41
1
10
90.390098185661
20
9.6678711397829
30
0
41
1
10
90.4632169572254
20
9.48307485840542
30
0
41
1
10
90.6094545003543
20
9.05726885774246
30
0
41
1
10
90.6825732719188
20
8.8162557788861
30
0
41
1
10
90.8288108150477
20
8.28176758510102
30
0
41
1
10
90.9019295866123
20
7.9883023321421
30
0
41
1
10
91.0481671297412
20
7.35561888540585
30
0
41
1
10
91.1212859013057
20
7.01642299060813
30
0
41
1
10
91.2675234444346
20
6.30145643429444
30
0
41
1
10
91.340642215999
20
5.92571669646659
30
0
41
1
10
91.4868797591279
20
5.14849394976457
30
0
41
1
10
91.5599985306923
20
4.74704473352335
30
0
41
1
10
91.7062360738213
20
3.92989364148005
30
0
41
1
10
91.7793548453859
20
3.51422249306324
30
0
41
1
10
91.9255923885147
20
2.67978708253509
30
0
41
1
10
91.9987111600792
20
2.26104602567261
30
0
41
1
10
92.1449487032081
20
1.43047492203189
30
0
41
1
10
92.2180674747726
20
1.01865847580515
30
0
41
1
10
92.3277456321193
20
0.412335201649739
30
0
41
1
10
92.3643050179015
20
0.212113082316335
30
0
41
1
10
92.4374237894659
20
-0.183709226800033
30
0
41
1
10
92.4739831752481
20
-0.383514937912622
30
0
41
1
10
92.5836613325949
20
-0.989295176968938
30
0
41
1
10
92.6567801041593
20
-1.40083691359348
30
0
41
1
10
92.8030176472882
20
-2.23107812888333
30
0
41
1
10
92.8761364188528
20
-2.64976424195777
30
0
41
1
10
93.0223739619817
20
-3.4843449862112
30
0
41
1
10
93.0954927335462
20
-3.90021662770619
30
0
41
1
10
93.2417302766751
20
-4.71804302757704
30
0
41
1
10
93.3148490482395
20
-5.1199671949679
30
0
41
1
10
93.4610865913685
20
-5.89841116232844
30
0
41
1
10
93.534205362933
20
-6.27489717675229
30
0
41
1
10
93.6804429060618
20
-6.99160017209445
30
0
41
1
10
93.7535616776263
20
-7.33178608904217
30
0
41
1
10
93.8997992207553
20
-7.96664357252388
30
0
41
1
10
93.9729179923197
20
-8.26129257850752
30
0
41
1
10
94.1191555354486
20
-8.79827608877011
30
0
41
1
10
94.1922743070131
20
-9.04060041142495
30
0
41
1
10
94.338511850142
20
-9.46908322951862
30
0
41
1
10
94.4116306217064
20
-9.65524478337457
30
0
41
1
10
94.5578681648354
20
-9.97060668953526
30
0
41
1
10
94.6309869363998
20
-10.0998212095804
30
0
41
1
10
94.7772244795289
20
-10.3032804688287
30
0
41
1
10
94.8503432510933
20
-10.3775463896129
30
0
41
1
10
94.9965807942222
20
-10.4753393173943
30
0
41
1
10
95.0696995657867
20
-10.4988899116339
30
0
41
1
10
95.1610980302422
20
-10.5002294726595
30
0
41
1
10
95.1793777231334
20
-10.4991029086916
30
0
41
1
10
95.2159371089156
20
-10.4939691303013
30
0
41
1
10
95.2342168018067
20
-10.4899610808273
30
0
41
1
10
95.28905588048
20
-10.4734740995207
30
0
41
1
10
95.3256152662623
20
-10.4565296618713
30
0
41
1
10
95.435293423609
20
-10.3868072815542
30
0
41
1
10
95.5084121951734
20
-10.3150797569675
30
0
41
1
10
95.6546497383024
20
-10.1168543275256
30
0
41
1
10
95.7277685098668
20
-9.99033502272005
30
0
41
1
10
95.8740060529958
20
-9.6803997097976
30
0
41
1
10
95.9471248245602
20
-9.4969690951821
30
0
41
1
10
96.0933623676892
20
-9.07384246440211
30
0
41
1
10
96.1664811392536
20
-8.83414278882225
30
0
41
1
10
96.3127186823825
20
-8.30215594323528
30
0
41
1
10
96.3858374539469
20
-8.00987831509801
30
0
41
1
10
96.532074997076
20
-7.37937807831071
30
0
41
1
10
96.6051937686403
20
-7.04117750483223
30
0
41
1
10
96.6783125402048
20
-6.6845682229654
30
0
0
SPLINE
5
FE
100
AcDbEntity
8
1
62
256
6
ByLayer
370
13
48
1
60
0
100
AcDbSpline
70
4
71
3
72
44
73
40
40
0
40
0
40
0
40
0
40
0.0624999999999968
40
0.0624999999999968
40
0.124999999999994
40
0.124999999999994
40
0.18749999999999
40
0.18749999999999
40
0.249999999999987
40
0.249999999999987
40
0.312499999999984
40
0.312499999999984
40
0.320312499999984
40
0.320312499999984
40
0.328124999999983
40
0.328124999999983
40
0.343749999999984
40
0.343749999999984
40
0.374999999999985
40
0.374999999999985
40
0.437499999999986
40
0.437499999999986
40
0.499999999999988
40
0.499999999999988
40
0.562499999999989
40
0.562499999999989
40
0.624999999999991
40
0.624999999999991
40
0.687499999999992
40
0.687499999999992
40
0.749999999999994
40
0.749999999999994
40
0.812499999999995
40
0.812499999999995
40
0.874999999999997
40
0.874999999999997
40
0.937499999999998
40
0.937499999999998
40
1
40
1
40
1
40
1
41
1
10
85.7
20
-7.12001810128237
30
0
41
1
10
85.7843795984833
20
-6.7270739681758
30
0
41
1
10
85.8687591969664
20
-6.30692423338419
30
0
41
1
10
86.0375183939328
20
-5.42800563952073
30
0
41
1
10
86.1218979924161
20
-4.96930535686138
30
0
41
1
10
86.2906571893824
20
-4.03088382031998
30
0
41
1
10
86.3750367878657
20
-3.55122674382457
30
0
41
1
10
86.5437959848322
20
-2.58812857306614
30
0
41
1
10
86.6281755833153
20
-2.10473450400124
30
0
41
1
10
86.7969347802817
20
-1.14932630843401
30
0
41
1
10
86.8813143787651
20
-0.677336517352671
30
0
41
1
10
86.9762414270585
20
-0.159502759061098
30
0
41
1
10
86.9867888768689
20
-0.102146163472895
30
0
41
1
10
87.0078837764898
20
0.0121865365279348
30
0
41
1
10
87.0184312263003
20
0.0692230874427651
30
0
41
1
10
87.0500735757314
20
0.241257719976716
30
0
41
1
10
87.0711684753521
20
0.356690569226231
30
0
41
1
10
87.1344531742146
20
0.704974086181153
30
0
41
1
10
87.1766429734562
20
0.939816463557889
30
0
41
1
10
87.303212371181
20
1.65010265419079
30
0
41
1
10
87.3875919696642
20
2.13139805360984
30
0
41
1
10
87.5563511666306
20
3.09536037639802
30
0
41
1
10
87.6407307651139
20
3.57798720800676
30
0
41
1
10
87.8094899620803
20
4.52791048788723
30
0
41
1
10
87.8938695605635
20
4.99514709987088
30
0
41
1
10
88.06262875753
20
5.89661023793863
30
0
41
1
10
88.147008356013
20
6.33076787030484
30
0
41
1
10
88.3157675529795
20
7.14939501673911
30
0
41
1
10
88.4001471514628
20
7.53380238626562
30
0
41
1
10
88.5689063484292
20
8.23928216804151
30
0
41
1
10
88.6532859469124
20
8.56031441446424
30
0
41
1
10
88.8220451438789
20
9.13001820792641
30
0
41
1
10
88.906424742362
20
9.37868011617562
30
0
41
1
10
89.0751839393284
20
9.80001015830814
30
0
41
1
10
89.1595635378117
20
9.97269807374275
30
0
41
1
10
89.3283227347781
20
10.2436741545645
30
0
41
1
10
89.4127023332613
20
10.3420024091076
30
0
41
1
10
89.5814615302278
20
10.4701413306093
30
0
41
1
10
89.665841128711
20
10.5
30
0
41
1
10
89.7502207271941
20
10.5
30
0
0
SPLINE
5
FF
100
AcDbEntity
8
1
62
256
6
ByLayer
370
13
48
1
60
0
100
AcDbSpline
70
4
71
3
72
80
73
76
40
0
40
0
40
0
40
0
40
0.0312500000000016
40
0.0312500000000016
40
0.0625000000000031
40
0.0625000000000031
40
0.0937500000000047
40
0.0937500000000047
40
0.125000000000006
40
0.125000000000006
40
0.156250000000008
40
0.156250000000008
40
0.187500000000009
40
0.187500000000009
40
0.218750000000011
40
0.218750000000011
40
0.250000000000012
40
0.250000000000012
40
0.281250000000014
40
0.281250000000014
40
0.312500000000016
40
0.312500000000016
40
0.343750000000017
40
0.343750000000017
40
0.359375000000018
40
0.359375000000018
40
0.363281250000018
40
0.363281250000018
40
0.367187500000018
40
0.367187500000018
40
0.375000000000018
40
0.375000000000018
40
0.406250000000017
40
0.406250000000017
40
0.437500000000017
40
0.437500000000017
40
0.468750000000016
40
0.468750000000016
40
0.500000000000016
40
0.500000000000016
40
0.531250000000015
40
0.531250000000015
40
0.562500000000014
40
0.562500000000014
40
0.593750000000014
40
0.593750000000014
40
0.625000000000013
40
0.625000000000013
40
0.656250000000013
40
0.656250000000013
40
0.687500000000012
40
0.687500000000012
40
0.718750000000012
40
0.718750000000012
40
0.726562500000011
40
0.726562500000011
40
0.734375000000011
40
0.734375000000011
40
0.75000000000001
40
0.75000000000001
40
0.781250000000009
40
0.781250000000009
40
0.812500000000008
40
0.812500000000008
40
0.843750000000007
40
0.843750000000007
40
0.875000000000005
40
0.875000000000005
40
0.906250000000004
40
0.906250000000004
40
0.937500000000003
40
0.937500000000003
40
0.968750000000001
40
0.968750000000001
40
1
40
1
40
1
40
1
41
1
10
89.1640467298787
20
10.5
30
0
41
1
10
89.2423203320695
20
10.5
30
0
41
1
10
89.3205939342605
20
10.474317797136
30
0
41
1
10
89.4771411386423
20
10.3645746857107
30
0
41
1
10
89.5554147408332
20
10.280480680085
30
0
41
1
10
89.711961945215
20
10.0489058337677
30
0
41
1
10
89.7902355474059
20
9.9013960768184
30
0
41
1
10
89.9467827517877
20
9.5410064433629
30
0
41
1
10
90.0250563539786
20
9.32810923517897
30
0
41
1
10
90.1816035583604
20
8.83870882077716
30
0
41
1
10
90.2598771605512
20
8.56220599890349
30
0
41
1
10
90.4164243649331
20
7.95138129275486
30
0
41
1
10
90.4946979671241
20
7.61707977714426
30
0
41
1
10
90.6512451715058
20
6.90016009412389
30
0
41
1
10
90.7295187736967
20
6.51757921792588
30
0
41
1
10
90.8860659780785
20
5.71643661709561
30
0
41
1
10
90.9643395802694
20
5.29792138413302
30
0
41
1
10
91.1208867846511
20
4.43878904826707
30
0
41
1
10
91.1991603868421
20
3.9982179056077
30
0
41
1
10
91.3557075912239
20
3.10897101644025
30
0
41
1
10
91.4339811934148
20
2.66033225545124
30
0
41
1
10
91.5905283977965
20
1.76779128870524
30
0
41
1
10
91.6688019999874
20
1.3239122804244
30
0
41
1
10
91.7862124032738
20
0.669721853767498
30
0
41
1
10
91.8253492043692
20
0.453578097810151
30
0
41
1
10
91.8742702057385
20
0.186489717941953
30
0
41
1
10
91.8840544060124
20
0.133226210006995
30
0
41
1
10
91.9036228065602
20
0.0270232238506765
30
0
41
1
10
91.913407006834
20
-0.025832132910466
30
0
41
1
10
91.9427596076555
20
-0.185129328939013
30
0
41
1
10
91.9623280082034
20
-0.291976070503637
30
0
41
1
10
92.060170010942
20
-0.82913263278104
30
0
41
1
10
92.1384436131328
20
-1.26830982813774
30
0
41
1
10
92.2949908175146
20
-2.15576265786231
30
0
41
1
10
92.3732644197055
20
-2.60402064756312
30
0
41
1
10
92.5298116240873
20
-3.49751797466513
30
0
41
1
10
92.6080852262781
20
-3.9427251773181
30
0
41
1
10
92.76463243066
20
-4.81644725890979
30
0
41
1
10
92.8429060328509
20
-5.24491872262334
30
0
41
1
10
92.9994532372326
20
-6.07108911432852
30
0
41
1
10
93.0777268394236
20
-6.46874060962764
30
0
41
1
10
93.2342740438054
20
-7.22017877111349
30
0
41
1
10
93.3125476459963
20
-7.57392360086845
30
0
41
1
10
93.469094850378
20
-8.2268213805981
30
0
41
1
10
93.5473684525689
20
-8.5259469512132
30
0
41
1
10
93.7039156569508
20
-9.06231467037384
30
0
41
1
10
93.7821892591417
20
-9.299548913526
30
0
41
1
10
93.9387364635235
20
-9.70882190167725
30
0
41
1
10
94.0170100657143
20
-9.88087188102418
30
0
41
1
10
94.1735572700962
20
-10.1603873890531
30
0
41
1
10
94.251830872287
20
-10.2678783384655
30
0
41
1
10
94.4083780766689
20
-10.4222374756331
30
0
41
1
10
94.4866516788597
20
-10.4691380293431
30
0
41
1
10
94.5844936815984
20
-10.4938848305631
30
0
41
1
10
94.6040620821461
20
-10.4971448419492
30
0
41
1
10
94.6431988832416
20
-10.5004017780411
30
0
41
1
10
94.6627672837893
20
-10.5004136646286
30
0
41
1
10
94.7214724854324
20
-10.4956015843807
30
0
41
1
10
94.7606092865278
20
-10.4858663270992
30
0
41
1
10
94.8780196898142
20
-10.435724574733
30
0
41
1
10
94.9562932920052
20
-10.374310337671
30
0
41
1
10
95.1128404963869
20
-10.1896716602929
30
0
41
1
10
95.1911140985778
20
-10.0664158795502
30
0
41
1
10
95.3476613029597
20
-9.75487134768633
30
0
41
1
10
95.4259349051505
20
-9.56656006227072
30
0
41
1
10
95.5824821095323
20
-9.12519935713712
30
0
41
1
10
95.6607557117232
20
-8.87214313764724
30
0
41
1
10
95.817302916105
20
-8.30557034803095
30
0
41
1
10
95.8955765182959
20
-7.99206669618997
30
0
41
1
10
96.0521237226777
20
-7.31277930580376
30
0
41
1
10
96.1303973248686
20
-6.94702719314031
30
0
41
1
10
96.2869445292504
20
-6.17464814210362
30
0
41
1
10
96.3652181314413
20
-5.76806534329265
30
0
41
1
10
96.521765335823
20
-4.92749024238091
30
0
41
1
10
96.600038938014
20
-4.4935452274249
30
0
41
1
10
96.6783125402048
20
-4.05295348260725
30
0
0
SPLINE
5
100
100
AcDbEntity
8
1
62
256
6
ByLayer
370
13
48
1
60
0
100
AcDbSpline
70
4
71
3
72
42
73
38
40
0
40
0
40
0
40
0
40
0.0624999999999977
40
0.0624999999999977
40
0.124999999999995
40
0.124999999999995
40
0.187499999999993
40
0.187499999999993
40
0.218749999999992
40
0.218749999999992
40
0.234374999999992
40
0.234374999999992
40
0.249999999999992
40
0.249999999999992
40
0.312499999999992
40
0.312499999999992
40
0.374999999999993
40
0.374999999999993
40
0.437499999999994
40
0.437499999999994
40
0.499999999999994
40
0.499999999999994
40
0.562499999999995
40
0.562499999999995
40
0.624999999999996
40
0.624999999999996
40
0.687499999999996
40
0.687499999999996
40
0.749999999999997
40
0.749999999999997
40
0.812499999999998
40
0.812499999999998
40
0.874999999999999
40
0.874999999999999
40
0.937499999999999
40
0.937499999999999
40
1
40
1
40
1
40
1
41
1
10
85.6999999999999
20
-4.56349894067779
30
0
41
1
10
85.7740699372304
20
-4.15246352817704
30
0
41
1
10
85.8481398744606
20
-3.73306084683631
30
0
41
1
10
85.9962797489213
20
-2.88918580023974
30
0
41
1
10
86.0703496861516
20
-2.46473979216418
30
0
41
1
10
86.2184895606124
20
-1.62142462103122
30
0
41
1
10
86.2925594978427
20
-1.20257162698803
30
0
41
1
10
86.4036644036883
20
-0.585160734046298
30
0
41
1
10
86.4406993723034
20
-0.381153554225563
30
0
41
1
10
86.4962518252262
20
-0.0785282406461363
30
0
41
1
10
86.5147693095337
20
0.021406193758196
30
0
41
1
10
86.5518042781489
20
0.222725534230619
30
0
41
1
10
86.5703217624565
20
0.323958490320166
30
0
41
1
10
86.6629091839944
20
0.8327160084757
30
0
41
1
10
86.7369791212249
20
1.24809806081606
30
0
41
1
10
86.8851189956855
20
2.08731829178197
30
0
41
1
10
86.9591889329158
20
2.51114345621357
30
0
41
1
10
87.1073288073765
20
3.35708617187427
30
0
41
1
10
87.1813987446068
20
3.77918023561676
30
0
41
1
10
87.3295386190675
20
4.6101828974154
30
0
41
1
10
87.4036085562979
20
5.01905946027225
30
0
41
1
10
87.5517484307586
20
5.81167825697776
30
0
41
1
10
87.625818367989
20
6.1953845100555
30
0
41
1
10
87.7739582424497
20
6.92628337746533
30
0
41
1
10
87.84802817968
20
7.27344246163139
30
0
41
1
10
87.9961680541407
20
7.92150577950622
30
0
41
1
10
88.0702379913711
20
8.22238532988732
30
0
41
1
10
88.2183778658317
20
8.77068352291792
30
0
41
1
10
88.292447803062
20
9.0180907208437
30
0
41
1
10
88.4405876775227
20
9.45532955107245
30
0
41
1
10
88.5146576147531
20
9.64516406396683
30
0
41
1
10
88.6627974892139
20
9.96636354913397
30
0
41
1
10
88.7368674264441
20
10.0977434795032
30
0
41
1
10
88.8850073009049
20
10.3040814113498
30
0
41
1
10
88.9590772381351
20
10.3790619917023
30
0
41
1
10
89.1072171125959
20
10.4770087062838
30
0
41
1
10
89.1812870498263
20
10.5
30
0
41
1
10
89.2553569870566
20
10.5
30
0
0
SPLINE
5
101
100
AcDbEntity
8
1
62
256
6
ByLayer
370
13
48
1
60
0
100
AcDbSpline
70
4
71
3
72
80
73
76
40
0
40
0
40
0
40
0
40
0.0312499999999992
40
0.0312499999999992
40
0.0624999999999984
40
0.0624999999999984
40
0.0937499999999975
40
0.0937499999999975
40
0.124999999999997
40
0.124999999999997
40
0.156249999999996
40
0.156249999999996
40
0.187499999999995
40
0.187499999999995
40
0.218749999999994
40
0.218749999999994
40
0.249999999999993
40
0.249999999999993
40
0.281249999999992
40
0.281249999999992
40
0.312499999999992
40
0.312499999999992
40
0.328124999999991
40
0.328124999999991
40
0.335937499999991
40
0.339843749999991
40
0.339843749999991
40
0.343749999999991
40
0.343749999999991
40
0.374999999999991
40
0.374999999999991
40
0.406249999999992
40
0.406249999999992
40
0.437499999999992
40
0.437499999999992
40
0.468749999999993
40
0.468749999999993
40
0.499999999999993
40
0.499999999999993
40
0.531249999999993
40
0.531249999999993
40
0.562499999999994
40
0.562499999999994
40
0.593749999999994
40
0.593749999999994
40
0.624999999999995
40
0.624999999999995
40
0.656249999999995
40
0.656249999999995
40
0.671874999999995
40
0.671874999999995
40
0.679687499999995
40
0.683593749999996
40
0.683593749999996
40
0.687499999999996
40
0.687499999999996
40
0.718749999999997
40
0.718749999999997
40
0.749999999999997
40
0.749999999999997
40
0.781249999999997
40
0.781249999999997
40
0.812499999999998
40
0.812499999999998
40
0.843749999999998
40
0.843749999999998
40
0.874999999999999
40
0.874999999999999
40
0.906249999999999
40
0.906249999999999
40
0.937499999999999
40
0.937499999999999
40
0.96875
40
0.96875
40
1
40
1
40
1
40
1
41
1
10
88.6691829897411
20
10.5
30
0
41
1
10
88.7526114225585
20
10.5
30
0
41
1
10
88.8360398553757
20
10.4708128158371
30
0
41
1
10
89.0028967210104
20
10.3456382484537
30
0
41
1
10
89.0863251538278
20
10.2496054771958
30
0
41
1
10
89.2531820194625
20
9.98498135092939
30
0
41
1
10
89.3366104522798
20
9.8163518032687
30
0
41
1
10
89.5034673179144
20
9.40482408691216
30
0
41
1
10
89.5868957507317
20
9.16190639580503
30
0
41
1
10
89.7537526163665
20
8.60505049935614
30
0
41
1
10
89.8371810491838
20
8.29112005523828
30
0
41
1
10
90.0040379148184
20
7.6006494983852
30
0
41
1
10
90.0874663476358
20
7.22414585478657
30
0
41
1
10
90.2543232132704
20
6.42143595771822
30
0
41
1
10
90.3377516460878
20
5.99528744614642
30
0
41
1
10
90.5046085117225
20
5.1092409328223
30
0
41
1
10
90.5880369445398
20
4.64940811678048
30
0
41
1
10
90.7548938101744
20
3.7130908157952
30
0
41
1
10
90.8383222429917
20
3.23666416733917
30
0
41
1
10
91.0051791086264
20
2.28350092247609
30
0
41
1
10
91.0886075414437
20
1.8068043602662
30
0
41
1
10
91.2137501906697
20
1.10208919246296
30
0
41
1
10
91.2554644070784
20
0.868884408791502
30
0
41
1
10
91.3180357316915
20
0.522727335970473
30
0
41
1
10
91.3493213939979
20
0.350558943153914
30
0
41
1
10
91.3806070563044
20
0.179939971632024
30
0
41
1
10
91.4014641645088
20
0.0665572255442441
30
0
41
1
10
91.4118927186108
20
0.0101690886814083
30
0
41
1
10
91.5057497055304
20
-0.498555568164449
30
0
41
1
10
91.5891781383477
20
-0.96279022975196
30
0
41
1
10
91.7560350039824
20
-1.90420309425616
30
0
41
1
10
91.8394634367996
20
-2.38136121781278
30
0
41
1
10
92.0063203024343
20
-3.33439062507881
30
0
41
1
10
92.0897487352516
20
-3.81022046223305
30
0
41
1
10
92.2566056008862
20
-4.74418037284849
30
0
41
1
10
92.3400340337037
20
-5.20225170292446
30
0
41
1
10
92.5068908993384
20
-6.08362487888314
30
0
41
1
10
92.5903193321557
20
-6.50686155473321
30
0
41
1
10
92.7571761977903
20
-7.30274582491299
30
0
41
1
10
92.8406046306076
20
-7.67533673838267
30
0
41
1
10
93.0074614962423
20
-8.3572472391742
30
0
41
1
10
93.0908899290597
20
-8.66653218065281
30
0
41
1
10
93.2577467946943
20
-9.21370404523168
30
0
41
1
10
93.3411752275116
20
-9.45158521827503
30
0
41
1
10
93.5080320931463
20
-9.85300275292627
30
0
41
1
10
93.5914605259636
20
-10.0165602476125
30
0
41
1
10
93.7583173915983
20
-10.2713168408388
30
0
41
1
10
93.8417458244156
20
-10.3625549940376
30
0
41
1
10
93.9668884736417
20
-10.449626485041
30
0
41
1
10
94.0086026900503
20
-10.4703799037328
30
0
41
1
10
94.0711740146634
20
-10.4898592986472
30
0
41
1
10
94.1024596769698
20
-10.4966880633825
30
0
41
1
10
94.1337453392763
20
-10.4993057611601
30
0
41
1
10
94.1546024474807
20
-10.5001331495869
30
0
41
1
10
94.1650310015827
20
-10.5000904061503
30
0
41
1
10
94.2588879885022
20
-10.4955862691744
30
0
41
1
10
94.3423164213197
20
-10.4620741733977
30
0
41
1
10
94.5091732869543
20
-10.3277525072032
30
0
41
1
10
94.5926017197717
20
-10.2268976864064
30
0
41
1
10
94.7594585854063
20
-9.9523702565188
30
0
41
1
10
94.8428870182236
20
-9.77866037224766
30
0
41
1
10
95.0097438838583
20
-9.35702938792477
30
0
41
1
10
95.0931723166756
20
-9.10909041826852
30
0
41
1
10
95.2600291823103
20
-8.5426054775472
30
0
41
1
10
95.3434576151275
20
-8.22406928627709
30
0
41
1
10
95.5103144807623
20
-7.52513953994759
30
0
41
1
10
95.5937429135796
20
-7.14478424150459
30
0
41
1
10
95.7605997792142
20
-6.33538530231951
30
0
41
1
10
95.8440282120315
20
-5.90640039751696
30
0
41
1
10
96.0108850776662
20
-5.01583678435497
30
0
41
1
10
96.0943135104835
20
-4.55432320595506
30
0
41
1
10
96.2611703761182
20
-3.61580625929017
30
0
41
1
10
96.3445988089355
20
-3.13885977070424
30
0
41
1
10
96.5114556745702
20
-2.18570581118283
30
0
41
1
10
96.5948841073875
20
-1.70953694566194
30
0
41
1
10
96.6783125402048
20
-1.24068180298801
30
0
0
SPLINE
5
102
100
AcDbEntity
8
1
62
256
6
ByLayer
370
13
48
1
60
0
100
AcDbSpline
70
4
71
3
72
8
73
4
40
0
40
0
40
0
40
0
40
1
40
1
40
1
40
1
41
1
10
96.6783125402048
20
-10.1103777536977
30
0
41
1
10
97.9522083601366
20
-6.74386176563848
30
0
41
1
10
99.2261041800683
20
-3.37371122814019
30
0
41
1
10
100.5
20
2.84E-14
30
0
0
SPLINE
5
103
100
AcDbEntity
8
1
62
256
6
ByLayer
370
13
48
1
60
0
100
AcDbSpline
70
4
71
3
72
8
73
4
40
0
40
0
40
0
40
0
40
1
40
1
40
1
40
1
41
1
10
96.6783125402048
20
-6.94794727895558
30
0
41
1
10
97.9522083601366
20
-4.64199357906134
30
0
41
1
10
99.2261041800684
20
-2.32599421554784
30
0
41
1
10
100.5
20
4.547E-13
30
0
0
SPLINE
5
104
100
AcDbEntity
8
1
62
256
6
ByLayer
370
13
48
1
60
0
100
AcDbSpline
70
4
71
3
72
8
73
4
40
0
40
0
40
0
40
0
40
1
40
1
40
1
40
1
41
1
10
96.6783125402051
20
4.33664585734024
30
0
41
1
10
97.9522083601366
20
2.8789154698068
30
0
41
1
10
99.2261041800682
20
1.4333563240273
30
0
41
1
10
100.5
20
2.274E-13
30
0
0
SPLINE
5
105
100
AcDbEntity
8
1
62
256
6
ByLayer
370
13
48
1
60
0
100
AcDbSpline
70
4
71
3
72
8
73
4
40
0
40
0
40
0
40
0
40
1
40
1
40
1
40
1
41
1
10
96.6783125402048
20
-8.38540519075389
30
0
41
1
10
97.9522083601366
20
-5.58221985345259
30
0
41
1
10
99.2261041800683
20
-2.78706439760273
30
0
41
1
10
100.5
20
2.84E-14
30
0
0
SPLINE
5
106
100
AcDbEntity
8
1
62
256
6
ByLayer
370
13
48
1
60
0
100
AcDbSpline
70
4
71
3
72
8
73
4
40
0
40
0
40
0
40
0
40
1
40
1
40
1
40
1
41
1
10
96.6783125402048
20
4.60158350330232
30
0
41
1
10
97.9522083601366
20
3.07974533629368
30
0
41
1
10
99.2261041800683
20
1.54587293802587
30
0
41
1
10
100.5
20
-2.84E-14
30
0
0
SPLINE
5
107
100
AcDbEntity
8
1
62
256
6
ByLayer
370
13
48
1
60
0
100
AcDbSpline
70
4
71
3
72
8
73
4
40
0
40
0
40
0
40
0
40
1
40
1
40
1
40
1
41
1
10
96.6783125402051
20
9.89599526652168
30
0
41
1
10
97.9522083601365
20
6.59285895257898
30
0
41
1
10
99.226104180068
20
3.2941697856638
30
0
41
1
10
100.499999999999
20
1.7337E-12
30
0
0
SPLINE
5
108
100
AcDbEntity
8
1
62
256
6
ByLayer
370
13
48
1
60
0
100
AcDbSpline
70
4
71
3
72
8
73
4
40
0
40
0
40
0
40
0
40
1
40
1
40
1
40
1
41
1
10
96.6783125402051
20
-1.55526641665844
30
0
41
1
10
97.9522083601366
20
-1.05007263832968
30
0
41
1
10
99.2261041800682
20
-0.531646681393369
30
0
41
1
10
100.5
20
-8.53E-14
30
0
0
SPLINE
5
109
100
AcDbEntity
8
1
62
256
6
ByLayer
370
13
48
1
60
0
100
AcDbSpline
70
4
71
3
72
8
73
4
40
0
40
0
40
0
40
0
40
1
40
1
40
1
40
1
41
1
10
96.6783125402049
20
9.55359182805799
30
0
41
1
10
97.9522083601366
20
6.37461091527786
30
0
41
1
10
99.2261041800683
20
3.19005703693983
30
0
41
1
10
100.5
20
1.137E-13
30
0
0
SPLINE
5
10A
100
AcDbEntity
8
1
62
256
6
ByLayer
370
13
48
1
60
0
100
AcDbSpline
70
4
71
3
72
8
73
4
40
0
40
0
40
0
40
0
40
1
40
1
40
1
40
1
41
1
10
96.6783125402048
20
10.2947179423217
30
0
41
1
10
97.9522083601366
20
6.86577729512808
30
0
41
1
10
99.2261041800683
20
3.43417958174572
30
0
41
1
10
100.5
20
2.84E-14
30
0
0
SPLINE
5
10B
100
AcDbEntity
8
1
62
256
6
ByLayer
370
13
48
1
60
0
100
AcDbSpline
70
4
71
3
72
8
73
4
40
0
40
0
40
0
40
0
40
1
40
1
40
1
40
1
41
1
10
96.6783125402048
20
-7.80459352790157
30
0
41
1
10
97.9522083601365
20
-5.21201035430883
30
0
41
1
10
99.2261041800681
20
-2.61046015851835
30
0
41
1
10
100.5
20
-4.263E-13
30
0
0
SPLINE
5
10C
100
AcDbEntity
8
1
62
256
6
ByLayer
370
13
48
1
60
0
100
AcDbSpline
70
4
71
3
72
8
73
4
40
0
40
0
40
0
40
0
40
1
40
1
40
1
40
1
41
1
10
96.6783125402048
20
-10.4732578570621
30
0
41
1
10
97.9522083601365
20
-6.98121786826727
30
0
41
1
10
99.2261041800681
20
-3.49010642409658
30
0
41
1
10
100.5
20
-5.684E-13
30
0
0
SPLINE
5
10D
100
AcDbEntity
8
1
62
256
6
ByLayer
370
13
48
1
60
0
100
AcDbSpline
70
4
71
3
72
8
73
4
40
0
40
0
40
0
40
0
40
1
40
1
40
1
40
1
41
1
10
96.6783125402048
20
-7.60571343845328
30
0
41
1
10
97.9522083601366
20
-5.06125389361094
30
0
41
1
10
99.2261041800683
20
-2.52599758931524
30
0
41
1
10
100.5
20
2.84E-14
30
0
0
SPLINE
5
10E
100
AcDbEntity
8
1
62
256
6
ByLayer
370
13
48
1
60
0
100
AcDbSpline
70
4
71
3
72
8
73
4
40
0
40
0
40
0
40
0
40
1
40
1
40
1
40
1
41
1
10
96.6783125402048
20
-9.19925608538054
30
0
41
1
10
97.9522083601366
20
-6.13928583119861
30
0
41
1
10
99.2261041800684
20
-3.07284472742705
30
0
41
1
10
100.5
20
5.969E-13
30
0
0
SPLINE
5
10F
100
AcDbEntity
8
1
62
256
6
ByLayer
370
13
48
1
60
0
100
AcDbSpline
70
4
71
3
72
8
73
4
40
0
40
0
40
0
40
0
40
1
40
1
40
1
40
1
41
1
10
96.6783125402051
20
9.42841084213941
30
0
41
1
10
97.9522083601365
20
6.2797203586818
30
0
41
1
10
99.226104180068
20
3.13689380820671
30
0
41
1
10
100.499999999999
20
1.6485E-12
30
0
0
SPLINE
5
110
100
AcDbEntity
8
1
62
256
6
ByLayer
370
13
48
1
60
0
100
AcDbSpline
70
4
71
3
72
8
73
4
40
0
40
0
40
0
40
0
40
1
40
1
40
1
40
1
41
1
10
96.6783125402048
20
7.51981800765856
30
0
41
1
10
97.9522083601366
20
5.02254735297259
30
0
41
1
10
99.2261041800683
20
2.51592302285766
30
0
41
1
10
100.5
20
-2.84E-14
30
0
0
SPLINE
5
111
100
AcDbEntity
8
1
62
256
6
ByLayer
370
13
48
1
60
0
100
AcDbSpline
70
4
71
3
72
8
73
4
40
0
40
0
40
0
40
0
40
1
40
1
40
1
40
1
41
1
10
96.6783125402048
20
-4.71256174611179
30
0
41
1
10
97.9522083601366
20
-3.12975479343859
30
0
41
1
10
99.2261041800684
20
-1.55888943578572
30
0
41
1
10
100.5
20
1.705E-13
30
0
0
SPLINE
5
112
100
AcDbEntity
8
1
62
256
6
ByLayer
370
13
48
1
60
0
100
AcDbSpline
70
4
71
3
72
8
73
4
40
0
40
0
40
0
40
0
40
1
40
1
40
1
40
1
41
1
10
96.6783125402048
20
-5.75710549241043
30
0
41
1
10
97.9522083601366
20
-3.82688426537419
30
0
41
1
10
99.2261041800684
20
-1.90783511444621
30
0
41
1
10
100.5
20
3.695E-13
30
0
0
SPLINE
5
113
100
AcDbEntity
8
1
62
256
6
ByLayer
370
13
48
1
60
0
100
AcDbSpline
70
4
71
3
72
8
73
4
40
0
40
0
40
0
40
0
40
1
40
1
40
1
40
1
41
1
10
96.6783125402051
20
7.31257076101792
30
0
41
1
10
97.9522083601365
20
4.86544836191993
30
0
41
1
10
99.226104180068
20
2.42790699792602
30
0
41
1
10
100.499999999999
20
1.279E-12
30
0
0
SPLINE
5
114
100
AcDbEntity
8
1
62
256
6
ByLayer
370
13
48
1
60
0
100
AcDbSpline
70
4
71
3
72
8
73
4
40
0
40
0
40
0
40
0
40
1
40
1
40
1
40
1
41
1
10
96.6783125402051
20
-4.97234698353233
30
0
41
1
10
97.9522083601366
20
-3.32667899557325
30
0
41
1
10
99.2261041800682
20
-1.66921786863401
30
0
41
1
10
100.5
20
-2.842E-13
30
0
0
SPLINE
5
115
100
AcDbEntity
8
1
62
256
6
ByLayer
370
13
48
1
60
0
100
AcDbSpline
70
4
71
3
72
8
73
4
40
0
40
0
40
0
40
0
40
1
40
1
40
1
40
1
41
1
10
96.6783125402048
20
-1.2651312692426
30
0
41
1
10
97.9522083601366
20
-0.830142387545095
30
0
41
1
10
99.2261041800682
20
-0.408428917188019
30
0
41
1
10
100.5
20
-2.84E-14
30
0
0
SPLINE
5
116
100
AcDbEntity
8
1
62
256
6
ByLayer
370
13
48
1
60
0
100
AcDbSpline
70
4
71
3
72
8
73
4
40
0
40
0
40
0
40
0
40
1
40
1
40
1
40
1
41
1
10
96.6783125402051
20
8.12812697737442
30
0
41
1
10
97.9522083601368
20
5.41028364238735
30
0
41
1
10
99.2261041800685
20
2.70088821828315
30
0
41
1
10
100.5
20
-5.116E-13
30
0
0
SPLINE
5
117
100
AcDbEntity
8
1
62
256
6
ByLayer
370
13
48
1
60
0
100
AcDbSpline
70
4
71
3
72
8
73
4
40
0
40
0
40
0
40
0
40
1
40
1
40
1
40
1
41
1
10
96.6783125402048
20
2.33110053055083
30
0
41
1
10
97.9522083601366
20
1.56710912385898
30
0
41
1
10
99.2261041800684
20
0.790069907533137
30
0
41
1
10
100.5
20
-8.53E-14
30
0
0
SPLINE
5
118
100
AcDbEntity
8
1
62
256
6
ByLayer
370
13
48
1
60
0
100
AcDbSpline
70
4
71
3
72
8
73
4
40
0
40
0
40
0
40
0
40
1
40
1
40
1
40
1
41
1
10
96.6783125402048
20
-9.60430165826094
30
0
41
1
10
97.9522083601366
20
-6.39746198064131
30
0
41
1
10
99.2261041800683
20
-3.19600472879839
30
0
41
1
10
100.5
20
2.84E-14
30
0
0
SPLINE
5
119
100
AcDbEntity
8
1
62
256
6
ByLayer
370
13
48
1
60
0
100
AcDbSpline
70
4
71
3
72
8
73
4
40
0
40
0
40
0
40
0
40
1
40
1
40
1
40
1
41
1
10
96.6783125402051
20
0.850656380669562
30
0
41
1
10
97.9522083601366
20
0.553772315732061
30
0
41
1
10
99.2261041800682
20
0.270218150616302
30
0
41
1
10
100.5
20
5.68E-14
30
0
0
SPLINE
5
11A
100
AcDbEntity
8
1
62
256
6
ByLayer
370
13
48
1
60
0
100
AcDbSpline
70
4
71
3
72
8
73
4
40
0
40
0
40
0
40
0
40
1
40
1
40
1
40
1
41
1
10
96.6783125402048
20
-2.45167059528387
30
0
41
1
10
97.9522083601366
20
-1.6214408859467
30
0
41
1
10
99.2261041800682
20
-0.804211417957106
30
0
41
1
10
100.5
20
-5.68E-14
30
0
0
SPLINE
5
11B
100
AcDbEntity
8
1
62
256
6
ByLayer
370
13
48
1
60
0
100
AcDbSpline
70
4
71
3
72
8
73
4
40
0
40
0
40
0
40
0
40
1
40
1
40
1
40
1
41
1
10
96.6783125402048
20
-10.3685732371029
30
0
41
1
10
97.9522083601366
20
-6.91449186532665
30
0
41
1
10
99.2261041800684
20
-3.45827554184217
30
0
41
1
10
100.5
20
6.537E-13
30
0
0
SPLINE
5
11C
100
AcDbEntity
8
1
62
256
6
ByLayer
370
13
48
1
60
0
100
AcDbSpline
70
4
71
3
72
8
73
4
40
0
40
0
40
0
40
0
40
1
40
1
40
1
40
1
41
1
10
96.6783125402051
20
10.4353067049871
30
0
41
1
10
97.9522083601368
20
6.95538860760746
30
0
41
1
10
99.2261041800685
20
3.47692764112901
30
0
41
1
10
100.5
20
-6.537E-13
30
0
0
SPLINE
5
11D
100
AcDbEntity
8
1
62
256
6
ByLayer
370
13
48
1
60
0
100
AcDbSpline
70
4
71
3
72
8
73
4
40
0
40
0
40
0
40
0
40
1
40
1
40
1
40
1
41
1
10
96.6783125402048
20
5.65315458195687
30
0
41
1
10
97.9522083601366
20
3.78004149268389
30
0
41
1
10
99.2261041800683
20
1.89564284361199
30
0
41
1
10
100.5
20
-2.84E-14
30
0
0
SPLINE
5
11E
100
AcDbEntity
8
1
62
256
6
ByLayer
370
13
48
1
60
0
100
AcDbSpline
70
4
71
3
72
8
73
4
40
0
40
0
40
0
40
0
40
1
40
1
40
1
40
1
41
1
10
96.6783125402051
20
5.40425034622021
30
0
41
1
10
97.9522083601366
20
3.59136538269019
30
0
41
1
10
99.2261041800682
20
1.78993547343711
30
0
41
1
10
100.5
20
2.842E-13
30
0
0
SPLINE
5
11F
100
AcDbEntity
8
1
62
256
6
ByLayer
370
13
48
1
60
0
100
AcDbSpline
70
4
71
3
72
8
73
4
40
0
40
0
40
0
40
0
40
1
40
1
40
1
40
1
41
1
10
96.6783125402051
20
-2.73538500197714
30
0
41
1
10
97.9522083601366
20
-1.83650404244813
30
0
41
1
10
99.2261041800682
20
-0.924702351844189
30
0
41
1
10
100.5
20
-1.421E-13
30
0
0
SPLINE
5
120
100
AcDbEntity
8
1
62
256
6
ByLayer
370
13
48
1
60
0
100
AcDbSpline
70
4
71
3
72
8
73
4
40
0
40
0
40
0
40
0
40
1
40
1
40
1
40
1
41
1
10
96.6783125402048
20
-10.318366808919
30
0
41
1
10
97.9522083601366
20
-6.87643404144777
30
0
41
1
10
99.2261041800683
20
-3.43695332740336
30
0
41
1
10
100.5
20
2.84E-14
30
0
0
SPLINE
5
121
100
AcDbEntity
8
1
62
256
6
ByLayer
370
13
48
1
60
0
100
AcDbSpline
70
4
71
3
72
8
73
4
40
0
40
0
40
0
40
0
40
1
40
1
40
1
40
1
41
1
10
96.6783125402048
20
8.31029985990875
30
0
41
1
10
97.9522083601366
20
5.54837559056671
30
0
41
1
10
99.2261041800683
20
2.77825538832349
30
0
41
1
10
100.5
20
-2.84E-14
30
0
0
SPLINE
5
122
100
AcDbEntity
8
1
62
256
6
ByLayer
370
13
48
1
60
0
100
AcDbSpline
70
4
71
3
72
8
73
4
40
0
40
0
40
0
40
0
40
1
40
1
40
1
40
1
41
1
10
96.6783125402051
20
-5.99969778862993
30
0
41
1
10
97.9522083601366
20
-4.01077575532722
30
0
41
1
10
99.2261041800682
20
-2.01086186118815
30
0
41
1
10
100.5
20
-3.411E-13
30
0
0
SPLINE
5
123
100
AcDbEntity
8
1
62
256
6
ByLayer
370
13
48
1
60
0
100
AcDbSpline
70
4
71
3
72
8
73
4
40
0
40
0
40
0
40
0
40
1
40
1
40
1
40
1
41
1
10
96.6783125402048
20
-9.05454194531035
30
0
41
1
10
97.9522083601366
20
-6.02958861801662
30
0
41
1
10
99.2261041800683
20
-3.01138594538338
30
0
41
1
10
100.5
20
2.84E-14
30
0
0
SPLINE
5
124
100
AcDbEntity
8
1
62
256
6
ByLayer
370
13
48
1
60
0
100
AcDbSpline
70
4
71
3
72
8
73
4
40
0
40
0
40
0
40
0
40
1
40
1
40
1
40
1
41
1
10
96.6783125402051
20
10.2331087465096
30
0
41
1
10
97.9522083601368
20
6.81907586647901
30
0
41
1
10
99.2261041800685
20
3.40801471537162
30
0
41
1
10
100.5
20
-6.537E-13
30
0
0
SPLINE
5
125
100
AcDbEntity
8
1
62
256
6
ByLayer
370
13
48
1
60
0
100
AcDbSpline
70
4
71
3
72
8
73
4
40
0
40
0
40
0
40
0
40
1
40
1
40
1
40
1
41
1
10
96.6783125402048
20
10.4636979807185
30
0
41
1
10
97.9522083601366
20
6.97690995876863
30
0
41
1
10
99.2261041800683
20
3.48898515828893
30
0
41
1
10
100.5
20
0
30
0
0
SPLINE
5
126
100
AcDbEntity
8
1
62
256
6
ByLayer
370
13
48
1
60
0
100
AcDbSpline
70
4
71
3
72
8
73
4
40
0
40
0
40
0
40
0
40
1
40
1
40
1
40
1
41
1
10
96.6783125402049
20
9.99001011343645
30
0
41
1
10
97.9522083601366
20
6.66412473696747
30
0
41
1
10
99.2261041800683
20
3.33409703798665
30
0
41
1
10
100.5
20
2.84E-14
30
0
0
SPLINE
5
127
100
AcDbEntity
8
1
62
256
6
ByLayer
370
13
48
1
60
0
100
AcDbSpline
70
4
71
3
72
8
73
4
40
0
40
0
40
0
40
0
40
1
40
1
40
1
40
1
41
1
10
96.6783125402048
20
-8.55834232583081
30
0
41
1
10
97.9522083601366
20
-5.71331085647719
30
0
41
1
10
99.2261041800683
20
-2.86050922950969
30
0
41
1
10
100.5
20
2.84E-14
30
0
0
SPLINE
5
128
100
AcDbEntity
8
1
62
256
6
ByLayer
370
13
48
1
60
0
100
AcDbSpline
70
4
71
3
72
8
73
4
40
0
40
0
40
0
40
0
40
1
40
1
40
1
40
1
41
1
10
96.6783125402048
20
-6.72574631329906
30
0
41
1
10
97.9522083601366
20
-4.47355926651204
30
0
41
1
10
99.2261041800683
20
-2.23162748185067
30
0
41
1
10
100.5
20
2.84E-14
30
0
0
SPLINE
5
129
100
AcDbEntity
8
1
62
256
6
ByLayer
370
13
48
1
60
0
100
AcDbSpline
70
4
71
3
72
8
73
4
40
0
40
0
40
0
40
0
40
1
40
1
40
1
40
1
41
1
10
96.6783125402051
20
8.8365202076609
30
0
41
1
10
97.9522083601366
20
5.88378857181448
30
0
41
1
10
99.2261041800682
20
2.93826034354333
30
0
41
1
10
100.5
20
4.832E-13
30
0
0
SPLINE
5
12A
100
AcDbEntity
8
1
62
256
6
ByLayer
370
13
48
1
60
0
100
AcDbSpline
70
4
71
3
72
8
73
4
40
0
40
0
40
0
40
0
40
1
40
1
40
1
40
1
41
1
10
96.6783125402048
20
-3.60588656533156
30
0
41
1
10
97.9522083601366
20
-2.39136195661399
30
0
41
1
10
99.2261041800682
20
-1.18939102125427
30
0
41
1
10
100.5
20
-8.53E-14
30
0
0
SPLINE
5
12B
100
AcDbEntity
8
1
62
256
6
ByLayer
370
13
48
1
60
0
100
AcDbSpline
70
4
71
3
72
8
73
4
40
0
40
0
40
0
40
0
40
1
40
1
40
1
40
1
41
1
10
96.6783125402051
20
6.40060402834197
30
0
41
1
10
97.9522083601366
20
4.25646595672237
30
0
41
1
10
99.2261041800682
20
2.12291572598667
30
0
41
1
10
100.5
20
3.411E-13
30
0
0
SPLINE
5
12C
100
AcDbEntity
8
1
62
256
6
ByLayer
370
13
48
1
60
0
100
AcDbSpline
70
4
71
3
72
8
73
4
40
0
40
0
40
0
40
0
40
1
40
1
40
1
40
1
41
1
10
96.6783125402048
20
-0.0619121786061498
30
0
41
1
10
97.9522083601366
20
-0.0278991121536478
30
0
41
1
10
99.2261041800682
20
-0.0072616011367472
30
0
41
1
10
100.5
20
0
30
0
0
SPLINE
5
12D
100
AcDbEntity
8
1
62
256
6
ByLayer
370
13
48
1
60
0
100
AcDbSpline
70
4
71
3
72
8
73
4
40
0
40
0
40
0
40
0
40
1
40
1
40
1
40
1
41
1
10
96.6783125402051
20
3.21186609045415
30
0
41
1
10
97.9522083601366
20
2.12850931199188
30
0
41
1
10
99.2261041800682
20
1.05787949447387
30
0
41
1
10
100.5
20
1.705E-13
30
0
0
SPLINE
5
12E
100
AcDbEntity
8
1
62
256
6
ByLayer
370
13
48
1
60
0
100
AcDbSpline
70
4
71
3
72
8
73
4
40
0
40
0
40
0
40
0
40
1
40
1
40
1
40
1
41
1
10
96.6783125402048
20
-9.71888486076648
30
0
41
1
10
97.9522083601366
20
-6.48431913216947
30
0
41
1
10
99.2261041800683
20
-3.24466717508926
30
0
41
1
10
100.5
20
2.84E-14
30
0
0
SPLINE
5
12F
100
AcDbEntity
8
1
62
256
6
ByLayer
370
13
48
1
60
0
100
AcDbSpline
70
4
71
3
72
8
73
4
40
0
40
0
40
0
40
0
40
1
40
1
40
1
40
1
41
1
10
96.6783125402048
20
3.48934415134977
30
0
41
1
10
97.9522083601366
20
2.33884515052614
30
0
41
1
10
99.2261041800683
20
1.17572190889371
30
0
41
1
10
100.5
20
0
30
0
0
SPLINE
5
130
100
AcDbEntity
8
1
62
256
6
ByLayer
370
13
48
1
60
0
100
AcDbSpline
70
4
71
3
72
8
73
4
40
0
40
0
40
0
40
0
40
1
40
1
40
1
40
1
41
1
10
96.6783125402051
20
-0.35464286213741
30
0
41
1
10
97.9522083601366
20
-0.249796849173066
30
0
41
1
10
99.2261041800682
20
-0.131581665976483
30
0
41
1
10
100.5
20
-2.84E-14
30
0
0
SPLINE
5
131
100
AcDbEntity
8
1
62
256
6
ByLayer
370
13
48
1
60
0
100
AcDbSpline
70
4
71
3
72
8
73
4
40
0
40
0
40
0
40
0
40
1
40
1
40
1
40
1
41
1
10
96.6783125402048
20
-10.4900672058214
30
0
41
1
10
97.9522083601366
20
-6.99395980705322
30
0
41
1
10
99.2261041800684
20
-3.49724520197327
30
0
41
1
10
100.5
20
6.537E-13
30
0
0
SPLINE
5
132
100
AcDbEntity
8
1
62
256
6
ByLayer
370
13
48
1
60
0
100
AcDbSpline
70
4
71
3
72
8
73
4
40
0
40
0
40
0
40
0
40
1
40
1
40
1
40
1
41
1
10
96.6783125402048
20
6.63019324651353
30
0
41
1
10
97.9522083601366
20
4.43050076353424
30
0
41
1
10
99.2261041800683
20
2.22042018348046
30
0
41
1
10
100.5
20
-2.84E-14
30
0
0
SPLINE
5
133
100
AcDbEntity
8
1
62
256
6
ByLayer
370
13
48
1
60
0
100
AcDbSpline
70
4
71
3
72
8
73
4
40
0
40
0
40
0
40
0
40
1
40
1
40
1
40
1
41
1
10
96.6783125402051
20
-3.87943967913114
30
0
41
1
10
97.9522083601366
20
-2.59872257960888
30
0
41
1
10
99.2261041800682
20
-1.30556654626057
30
0
41
1
10
100.5
20
-2.274E-13
30
0
0
SPLINE
5
134
100
AcDbEntity
8
1
62
256
6
ByLayer
370
13
48
1
60
0
100
AcDbSpline
70
4
71
3
72
8
73
4
40
0
40
0
40
0
40
0
40
1
40
1
40
1
40
1
41
1
10
96.6783125402048
20
1.14212317559907
30
0
41
1
10
97.9522083601366
20
0.77471199117349
30
0
41
1
10
99.2261041800684
20
0.394001453436232
30
0
41
1
10
100.5
20
-2.84E-14
30
0
0
SPLINE
5
135
100
AcDbEntity
8
1
62
256
6
ByLayer
370
13
48
1
60
0
100
AcDbSpline
70
4
71
3
72
8
73
4
40
0
40
0
40
0
40
0
40
1
40
1
40
1
40
1
41
1
10
96.6783125402048
20
-10.0274361785095
30
0
41
1
10
97.9522083601365
20
-6.6809898192576
30
0
41
1
10
99.2261041800681
20
-3.33848669383175
30
0
41
1
10
100.5
20
-5.684E-13
30
0
0
SPLINE
5
136
100
AcDbEntity
8
1
62
256
6
ByLayer
370
13
48
1
60
0
100
AcDbSpline
70
4
71
3
72
8
73
4
40
0
40
0
40
0
40
0
40
1
40
1
40
1
40
1
41
1
10
96.6783125402051
20
2.04474038555941
30
0
41
1
10
97.9522083601366
20
1.3500404265171
30
0
41
1
10
99.2261041800682
20
0.668455352600432
30
0
41
1
10
100.5
20
1.137E-13
30
0
0
SPLINE
5
137
100
AcDbEntity
8
1
62
256
6
ByLayer
370
13
48
1
60
0
100
AcDbSpline
70
4
71
3
72
8
73
4
40
0
40
0
40
0
40
0
40
1
40
1
40
1
40
1
41
1
10
96.6783125402048
20
8.99121691935932
30
0
41
1
10
97.9522083601366
20
6.00105284297342
30
0
41
1
10
99.2261041800683
20
3.0039586331682
30
0
41
1
10
100.5
20
-2.84E-14
30
0
0
LINE
5
7D
100
AcDbEntity
8
80
62
256
6
ByLayer
370
18
48
1
60
0
100
AcDbLine
10
0
20
0
30
0
11
-5
21
0
31
0
39
0
210
0
220
0
230
1
0
LINE
5
7E
100
AcDbEntity
8
4
62
256
6
ByLayer
370
18
48
0.05
60
0
100
AcDbLine
10
-5
20
0
30
0
11
105.5
21
0
31
0
39
0
210
0
220
0
230
1
0
LINE
5
80
100
AcDbEntity
8
81
62
256
6
ByLayer
370
18
48
1
60
0
100
AcDbLine
10
100.5
20
0
30
0
11
105.5
21
0
31
0
39
0
210
0
220
0
230
1
0
LINE
5
81
100
AcDbEntity
8
SK4
62
256
6
ByLayer
370
18
48
0.05
60
0
100
AcDbLine
10
-61
20
0
30
0
11
105.5
21
0
31
0
39
0
210
0
220
0
230
1
0
LINE
5
83
100
AcDbEntity
8
1
62
256
6
ByLayer
370
18
48
1
60
0
100
AcDbLine
10
10
20
-10.2
30
0
11
46.918961
21
-10.2
31
0
39
0
210
0
220
0
230
1
0
LINE
5
84
100
AcDbEntity
8
1
62
256
6
ByLayer
370
18
48
1
60
0
100
AcDbLine
10
46.918961
20
10.2
30
0
11
10
21
10.2
31
0
39
0
210
0
220
0
230
1
0
LINE
5
85
100
AcDbEntity
8
1
62
256
6
ByLayer
370
18
48
1
60
0
100
AcDbLine
10
100.5
20
0
30
0
11
96.678313
21
10.5
31
0
39
0
210
0
220
0
230
1
0
LINE
5
86
100
AcDbEntity
8
1
62
256
6
ByLayer
370
18
48
1
60
0
100
AcDbLine
10
96.678313
20
-10.5
30
0
11
100.5
21
0
31
0
39
0
210
0
220
0
230
1
0
LINE
5
87
100
AcDbEntity
8
1
62
256
6
ByLayer
370
18
48
1
60
0
100
AcDbLine
10
10
20
10.2
30
0
11
0
21
12.5
31
0
39
0
210
0
220
0
230
1
0
LINE
5
88
100
AcDbEntity
8
1
62
256
6
ByLayer
370
18
48
1
60
0
100
AcDbLine
10
0
20
-12.5
30
0
11
10
21
-10.2
31
0
39
0
210
0
220
0
230
1
0
LINE
5
89
100
AcDbEntity
8
1
62
256
6
ByLayer
370
18
48
1
60
0
100
AcDbLine
10
85.7
20
-10.5
30
0
11
96.678313
21
-10.5
31
0
39
0
210
0
220
0
230
1
0
LINE
5
8A
100
AcDbEntity
8
1
62
256
6
ByLayer
370
18
48
1
60
0
100
AcDbLine
10
100.5
20
0
30
0
11
96.678313
21
10.5
31
0
39
0
210
0
220
0
230
1
0
LINE
5
8B
100
AcDbEntity
8
1
62
256
6
ByLayer
370
18
48
1
60
0
100
AcDbLine
10
96.678313
20
-10.5
30
0
11
100.5
21
0
31
0
39
0
210
0
220
0
230
1
0
LINE
5
8C
100
AcDbEntity
8
SK1
62
256
6
ByLayer
370
18
48
1
60
0
100
AcDbLine
10
-56
20
-11.5
30
0
11
-55
21
-12.5
31
0
39
0
210
0
220
0
230
1
0
LINE
5
8E
100
AcDbEntity
8
SK1
62
256
6
ByLayer
370
18
48
1
60
0
100
AcDbLine
10
-55
20
12.5
30
0
11
-56
21
11.5
31
0
39
0
210
0
220
0
230
1
0
LINE
5
8F
100
AcDbEntity
8
SK1
62
256
6
ByLayer
370
18
48
1
60
0
100
AcDbLine
10
-55
20
-12.5
30
0
11
0
21
-12.5
31
0
39
0
210
0
220
0
230
1
0
LINE
5
90
100
AcDbEntity
8
SK1
62
256
6
ByLayer
370
18
48
1
60
0
100
AcDbLine
10
0
20
12.5
30
0
11
-55
21
12.5
31
0
39
0
210
0
220
0
230
1
0
LINE
5
91
100
AcDbEntity
8
1
62
256
6
ByLayer
370
18
48
1
60
0
100
AcDbLine
10
0
20
12.5
30
0
11
0
21
-12.5
31
0
39
0
210
0
220
0
230
1
0
LINE
5
92
100
AcDbEntity
8
1
62
256
6
ByLayer
370
18
48
1
60
0
100
AcDbLine
10
96.678313
20
10.5
30
0
11
96.678313
21
10.166573
31
0
39
0
210
0
220
0
230
1
0
LINE
5
93
100
AcDbEntity
8
1
62
256
6
ByLayer
370
18
48
1
60
0
100
AcDbLine
10
96.678313
20
-10.5
30
0
11
96.678313
21
-1.497798
31
0
39
0
210
0
220
0
230
1
0
LINE
5
94
100
AcDbEntity
8
1
62
256
6
ByLayer
370
18
48
1
60
0
100
AcDbLine
10
10
20
-10.2
30
0
11
10
21
-2.647038
31
0
39
0
210
0
220
0
230
1
0
LINE
5
95
100
AcDbEntity
8
1
62
256
6
ByLayer
370
18
48
1
60
0
100
AcDbLine
10
10
20
10.2
30
0
11
10
21
8.529265
31
0
39
0
210
0
220
0
230
1
0
LINE
5
96
100
AcDbEntity
8
SK1
62
256
6
ByLayer
370
13
48
1
60
0
100
AcDbLine
10
-15.162813
20
-7.237775
30
0
11
-15.162813
21
7.237775
31
0
39
0
210
0
220
0
230
1
0
LINE
5
97
100
AcDbEntity
8
SK1
62
256
6
ByLayer
370
13
48
1
60
0
100
AcDbLine
10
-51.386002
20
5.000227
30
0
11
-51.386002
21
-5.000227
31
0
39
0
210
0
220
0
230
1
0
LINE
5
98
100
AcDbEntity
8
SK1
62
256
6
ByLayer
370
18
48
1
60
0
100
AcDbLine
10
-56
20
-11.5
30
0
11
-56
21
11.5
31
0
39
0
210
0
220
0
230
1
0
LINE
5
99
100
AcDbEntity
8
SK1
62
256
6
ByLayer
370
13
48
1
60
0
100
AcDbLine
10
-52.500329
20
-3.620591
30
0
11
-52.500329
21
3.620591
31
0
39
0
210
0
220
0
230
1
0
LINE
5
9A
100
AcDbEntity
8
SK1
62
256
6
ByLayer
370
18
48
1
60
0
100
AcDbLine
10
-55
20
-12.5
30
0
11
-55
21
12.5
31
0
39
0
210
0
220
0
230
1
0
LINE
5
9B
100
AcDbEntity
8
SK1
62
256
6
ByLayer
370
18
48
1
60
0
100
AcDbLine
10
0
20
12.5
30
0
11
0
21
-12.5
31
0
39
0
210
0
220
0
230
1
0
LINE
5
9C
100
AcDbEntity
8
SK1
62
256
6
ByLayer
370
13
48
1
60
0
100
AcDbLine
10
-14.015776
20
6.592429
30
0
11
-14.015776
21
-6.592429
31
0
39
0
210
0
220
0
230
1
0
LINE
5
9D
100
AcDbEntity
8
1
62
256
6
ByLayer
370
18
48
1
60
0
100
AcDbLine
10
96.678313
20
10.5
30
0
11
96.678313
21
-10.5
31
0
39
0
210
0
220
0
230
1
0
LINE
5
9E
100
AcDbEntity
8
1
62
256
6
ByLayer
370
18
48
1
60
0
100
AcDbLine
10
96.678313
20
10.5
30
0
11
96.678313
21
-10.5
31
0
39
0
210
0
220
0
230
1
0
LINE
5
9F
100
AcDbEntity
8
1
62
256
6
ByLayer
370
18
48
1
60
0
100
AcDbLine
10
96.678313
20
10.5
30
0
11
96.678313
21
-10.5
31
0
39
0
210
0
220
0
230
1
0
LINE
5
A0
100
AcDbEntity
8
1
62
256
6
ByLayer
370
18
48
1
60
0
100
AcDbLine
10
85.7
20
10.5
30
0
11
85.7
21
-10.5
31
0
39
0
210
0
220
0
230
1
0
LINE
5
A1
100
AcDbEntity
8
1
62
256
6
ByLayer
370
18
48
1
60
0
100
AcDbLine
10
85.7
20
10.5
30
0
11
85.7
21
-10.5
31
0
39
0
210
0
220
0
230
1
0
LINE
5
A2
100
AcDbEntity
8
1
62
256
6
ByLayer
370
18
48
1
60
0
100
AcDbLine
10
96.678313
20
10.5
30
0
11
96.678313
21
-10.5
31
0
39
0
210
0
220
0
230
1
0
LINE
5
A3
100
AcDbEntity
8
1
62
256
6
ByLayer
370
18
48
1
60
0
100
AcDbLine
10
85.7
20
10.5
30
0
11
85.7
21
-10.5
31
0
39
0
210
0
220
0
230
1
0
LINE
5
A4
100
AcDbEntity
8
1
62
256
6
ByLayer
370
18
48
1
60
0
100
AcDbLine
10
96.678313
20
10.5
30
0
11
96.678313
21
-10.5
31
0
39
0
210
0
220
0
230
1
0
LINE
5
A5
100
AcDbEntity
8
SK2
62
256
6
ByLayer
370
13
48
1
60
0
100
AcDbLine
10
-62.5
20
-12.5
30
0
11
-62.5
21
41.524569
31
0
39
0
210
0
220
0
230
1
0
LINE
5
A7
100
AcDbEntity
8
SK2
62
256
6
ByLayer
370
13
48
1
60
0
100
AcDbLine
10
-57.5875
20
12.5
30
0
11
-64.5
21
12.5
31
0
39
0
210
0
220
0
230
1
0
LINE
5
A8
100
AcDbEntity
8
SK2
62
256
6
ByLayer
370
13
48
1
60
0
100
AcDbLine
10
-57.5875
20
-12.5
30
0
11
-64.5
21
-12.5
31
0
39
0
210
0
220
0
230
1
0
LINE
5
A9
100
AcDbEntity
8
1
62
256
6
ByLayer
370
18
48
1
60
1
100
AcDbLine
10
-62.5
20
12.5
30
0
11
-62.039216
21
9.000002
31
0
39
0
210
0
220
0
230
1
0
LINE
5
AA
100
AcDbEntity
8
1
62
256
6
ByLayer
370
18
48
1
60
1
100
AcDbLine
10
-62.039216
20
9.000002
30
0
11
-62.960784
21
8.999998
31
0
39
0
210
0
220
0
230
1
0
LINE
5
AB
100
AcDbEntity
8
1
62
256
6
ByLayer
370
18
48
1
60
1
100
AcDbLine
10
-62.960784
20
8.999998
30
0
11
-62.5
21
12.5
31
0
39
0
210
0
220
0
230
1
0
LINE
5
AC
100
AcDbEntity
8
1
62
256
6
ByLayer
370
18
48
1
60
1
100
AcDbLine
10
-62.5
20
-12.5
30
0
11
-62.960784
21
-9.000002
31
0
39
0
210
0
220
0
230
1
0
LINE
5
AD
100
AcDbEntity
8
1
62
256
6
ByLayer
370
18
48
1
60
1
100
AcDbLine
10
-62.960784
20
-9.000002
30
0
11
-62.039216
21
-8.999998
31
0
39
0
210
0
220
0
230
1
0
LINE
5
AE
100
AcDbEntity
8
1
62
256
6
ByLayer
370
18
48
1
60
1
100
AcDbLine
10
-62.039216
20
-8.999998
30
0
11
-62.5
21
-12.5
31
0
39
0
210
0
220
0
230
1
0
LINE
5
AF
100
AcDbEntity
8
2
62
256
6
ByLayer
370
13
48
1
60
0
100
AcDbLine
10
108
20
-10.5
30
0
11
108
21
38.774683
31
0
39
0
210
0
220
0
230
1
0
LINE
5
B1
100
AcDbEntity
8
2
62
256
6
ByLayer
370
13
48
1
60
0
100
AcDbLine
10
98.265813
20
10.5
30
0
11
110
21
10.5
31
0
39
0
210
0
220
0
230
1
0
LINE
5
B2
100
AcDbEntity
8
2
62
256
6
ByLayer
370
13
48
1
60
0
100
AcDbLine
10
98.265813
20
-10.5
30
0
11
110
21
-10.5
31
0
39
0
210
0
220
0
230
1
0
LINE
5
B3
100
AcDbEntity
8
1
62
256
6
ByLayer
370
18
48
1
60
1
100
AcDbLine
10
108
20
10.5
30
0
11
108.460784
21
7.000002
31
0
39
0
210
0
220
0
230
1
0
LINE
5
B4
100
AcDbEntity
8
1
62
256
6
ByLayer
370
18
48
1
60
1
100
AcDbLine
10
108.460784
20
7.000002
30
0
11
107.539216
21
6.999998
31
0
39
0
210
0
220
0
230
1
0
LINE
5
B5
100
AcDbEntity
8
1
62
256
6
ByLayer
370
18
48
1
60
1
100
AcDbLine
10
107.539216
20
6.999998
30
0
11
108
21
10.5
31
0
39
0
210
0
220
0
230
1
0
LINE
5
B6
100
AcDbEntity
8
1
62
256
6
ByLayer
370
18
48
1
60
1
100
AcDbLine
10
108
20
-10.5
30
0
11
107.539216
21
-7.000002
31
0
39
0
210
0
220
0
230
1
0
LINE
5
B7
100
AcDbEntity
8
1
62
256
6
ByLayer
370
18
48
1
60
1
100
AcDbLine
10
107.539216
20
-7.000002
30
0
11
108.460784
21
-6.999998
31
0
39
0
210
0
220
0
230
1
0
LINE
5
B8
100
AcDbEntity
8
1
62
256
6
ByLayer
370
18
48
1
60
1
100
AcDbLine
10
108.460784
20
-6.999998
30
0
11
108
21
-10.5
31
0
39
0
210
0
220
0
230
1
0
LINE
5
B9
100
AcDbEntity
8
SK2
62
256
6
ByLayer
370
13
48
1
60
0
100
AcDbLine
10
101.042957
20
-1.491762
30
0
11
107.682423
21
-19.733545
31
0
39
0
210
0
220
0
230
1
0
LINE
5
BA
100
AcDbEntity
8
SK2
62
256
6
ByLayer
370
13
48
1
60
0
100
AcDbLine
10
101.042957
20
1.491762
30
0
11
107.682423
21
19.733545
31
0
39
0
210
0
220
0
230
1
0
LINE
5
BB
100
AcDbEntity
8
1
62
256
6
ByLayer
370
18
48
1
60
1
100
AcDbLine
10
106.998383
20
-17.85416
30
0
11
110.051575
21
-16.082064
31
0
39
0
210
0
220
0
230
1
0
LINE
5
BC
100
AcDbEntity
8
1
62
256
6
ByLayer
370
18
48
1
60
1
100
AcDbLine
10
110.051575
20
-16.082064
30
0
11
110.406196
21
-16.93267
31
0
39
0
210
0
220
0
230
1
0
LINE
5
BD
100
AcDbEntity
8
1
62
256
6
ByLayer
370
18
48
1
60
1
100
AcDbLine
10
110.406196
20
-16.93267
30
0
11
106.998383
21
-17.85416
31
0
39
0
210
0
220
0
230
1
0
LINE
5
BE
100
AcDbEntity
8
1
62
256
6
ByLayer
370
18
48
1
60
1
100
AcDbLine
10
106.998383
20
17.85416
30
0
11
110.406193
21
16.932671
31
0
39
0
210
0
220
0
230
1
0
LINE
5
BF
100
AcDbEntity
8
1
62
256
6
ByLayer
370
18
48
1
60
1
100
AcDbLine
10
110.406193
20
16.932671
30
0
11
110.051579
21
16.082063
31
0
39
0
210
0
220
0
230
1
0
LINE
5
C0
100
AcDbEntity
8
1
62
256
6
ByLayer
370
18
48
1
60
1
100
AcDbLine
10
110.051579
20
16.082063
30
0
11
106.998383
21
17.85416
31
0
39
0
210
0
220
0
230
1
0
LINE
5
13C
100
AcDbEntity
8
1
62
256
6
ByLayer
370
18
48
1
60
1
100
AcDbLine
10
-62.5
20
12.5
30
0
11
-62.039216
21
9.000002
31
0
39
0
210
0
220
0
230
1
0
LINE
5
13D
100
AcDbEntity
8
1
62
256
6
ByLayer
370
18
48
1
60
1
100
AcDbLine
10
-62.039216
20
9.000002
30
0
11
-62.960784
21
8.999998
31
0
39
0
210
0
220
0
230
1
0
LINE
5
13E
100
AcDbEntity
8
1
62
256
6
ByLayer
370
18
48
1
60
1
100
AcDbLine
10
-62.960784
20
8.999998
30
0
11
-62.5
21
12.5
31
0
39
0
210
0
220
0
230
1
0
LINE
5
140
100
AcDbEntity
8
1
62
256
6
ByLayer
370
18
48
1
60
1
100
AcDbLine
10
-62.5
20
-12.5
30
0
11
-62.960784
21
-9.000002
31
0
39
0
210
0
220
0
230
1
0
LINE
5
141
100
AcDbEntity
8
1
62
256
6
ByLayer
370
18
48
1
60
1
100
AcDbLine
10
-62.960784
20
-9.000002
30
0
11
-62.039216
21
-8.999998
31
0
39
0
210
0
220
0
230
1
0
LINE
5
142
100
AcDbEntity
8
1
62
256
6
ByLayer
370
18
48
1
60
1
100
AcDbLine
10
-62.039216
20
-8.999998
30
0
11
-62.5
21
-12.5
31
0
39
0
210
0
220
0
230
1
0
LINE
5
146
100
AcDbEntity
8
1
62
256
6
ByLayer
370
18
48
1
60
1
100
AcDbLine
10
108
20
10.5
30
0
11
108.460784
21
7.000002
31
0
39
0
210
0
220
0
230
1
0
LINE
5
147
100
AcDbEntity
8
1
62
256
6
ByLayer
370
18
48
1
60
1
100
AcDbLine
10
108.460784
20
7.000002
30
0
11
107.539216
21
6.999998
31
0
39
0
210
0
220
0
230
1
0
LINE
5
148
100
AcDbEntity
8
1
62
256
6
ByLayer
370
18
48
1
60
1
100
AcDbLine
10
107.539216
20
6.999998
30
0
11
108
21
10.5
31
0
39
0
210
0
220
0
230
1
0
LINE
5
14A
100
AcDbEntity
8
1
62
256
6
ByLayer
370
18
48
1
60
1
100
AcDbLine
10
108
20
-10.5
30
0
11
107.539216
21
-7.000002
31
0
39
0
210
0
220
0
230
1
0
LINE
5
14B
100
AcDbEntity
8
1
62
256
6
ByLayer
370
18
48
1
60
1
100
AcDbLine
10
107.539216
20
-7.000002
30
0
11
108.460784
21
-6.999998
31
0
39
0
210
0
220
0
230
1
0
LINE
5
14C
100
AcDbEntity
8
1
62
256
6
ByLayer
370
18
48
1
60
1
100
AcDbLine
10
108.460784
20
-6.999998
30
0
11
108
21
-10.5
31
0
39
0
210
0
220
0
230
1
0
LINE
5
14F
100
AcDbEntity
8
1
62
256
6
ByLayer
370
18
48
1
60
1
100
AcDbLine
10
106.998383
20
-17.85416
30
0
11
110.051575
21
-16.082064
31
0
39
0
210
0
220
0
230
1
0
LINE
5
150
100
AcDbEntity
8
1
62
256
6
ByLayer
370
18
48
1
60
1
100
AcDbLine
10
110.051575
20
-16.082064
30
0
11
110.406196
21
-16.93267
31
0
39
0
210
0
220
0
230
1
0
LINE
5
151
100
AcDbEntity
8
1
62
256
6
ByLayer
370
18
48
1
60
1
100
AcDbLine
10
110.406196
20
-16.93267
30
0
11
106.998383
21
-17.85416
31
0
39
0
210
0
220
0
230
1
0
LINE
5
153
100
AcDbEntity
8
1
62
256
6
ByLayer
370
18
48
1
60
1
100
AcDbLine
10
106.998383
20
17.85416
30
0
11
110.406193
21
16.932671
31
0
39
0
210
0
220
0
230
1
0
LINE
5
154
100
AcDbEntity
8
1
62
256
6
ByLayer
370
18
48
1
60
1
100
AcDbLine
10
110.406193
20
16.932671
30
0
11
110.051579
21
16.082063
31
0
39
0
210
0
220
0
230
1
0
LINE
5
155
100
AcDbEntity
8
1
62
256
6
ByLayer
370
18
48
1
60
1
100
AcDbLine
10
110.051579
20
16.082063
30
0
11
106.998383
21
17.85416
31
0
39
0
210
0
220
0
230
1
0
MTEXT
5
138
100
AcDbEntity
8
SK2
62
256
6
ByLayer
370
18
48
1
60
0
100
AcDbMText
10
-63.841114
20
24.158438
30
0
210
0
220
0
230
1
1
%%c
40
3
41
0
44
1.084337
50
90
71
7
72
5
7
iso_b_vert
0
MTEXT
5
13B
100
AcDbEntity
8
SK2
62
256
6
ByLayer
370
18
48
1
60
0
100
AcDbMText
10
-63.841114
20
30.135
30
0
210
0
220
0
230
1
1
\W0.7513;25.000
40
3
41
0
44
1.084337
50
90
71
7
72
5
7
iso_b_vert
0
MTEXT
5
144
100
AcDbEntity
8
2
62
256
6
ByLayer
370
18
48
1
60
0
100
AcDbMText
10
106.658886
20
22.158438
30
0
210
0
220
0
230
1
1
%%c
40
3
41
0
44
1.084337
50
90
71
7
72
5
7
iso_b_vert
0
MTEXT
5
145
100
AcDbEntity
8
2
62
256
6
ByLayer
370
18
48
1
60
0
100
AcDbMText
10
106.658886
20
28.135
30
0
210
0
220
0
230
1
1
\W0.7022;21.000
40
3
41
0
44
1.084337
50
90
71
7
72
5
7
iso_b_vert
0
MTEXT
5
14E
100
AcDbEntity
8
SK2
62
256
6
ByLayer
370
18
48
1
60
0
100
AcDbMText
10
120.409114
20
3.734657
30
0
210
0
220
0
230
1
1
\W0.7071;140%%d
40
3
41
0
44
1.084337
50
270
71
7
72
5
7
iso_b_vert
0
MTEXT
5
157
100
AcDbEntity
8
SK6
62
256
6
ByLayer
370
18
48
1
60
0
100
AcDbMText
10
-1.287254
20
-67.114886
30
0
210
0
220
0
230
1
1
\W0.7358;H85321.0
40
3
41
0
44
1.084337
50
0
71
7
72
5
7
iso_b_vert
0
HATCH
5
13F
100
AcDbEntity
8
SK2
62
256
6
ByLayer
370
13
48
1
60
0
100
AcDbHatch
10
0
20
0
30
0
210
0
220
0
230
1
2
ANSI31
70
0
71
0
91
1
92
5
93
3
72
1
10
-62.5
20
12.5
11
-62.0392162584472
21
9.00000169255318
72
1
10
-62.0392162584472
20
9.00000169255318
11
-62.9607837415528
21
8.99999830744682
72
1
10
-62.9607837415528
20
8.99999830744682
11
-62.5
21
12.5
97
0
75
0
76
1
52
0
41
0.0062
77
0
78
1
53
45
43
0
44
0
45
-0.0139193969876572
46
0.0139193969876572
79
0
47
0
98
1
10
0
20
0
0
HATCH
5
143
100
AcDbEntity
8
SK2
62
256
6
ByLayer
370
13
48
1
60
0
100
AcDbHatch
10
0
20
0
30
0
210
0
220
0
230
1
2
ANSI31
70
0
71
0
91
1
92
5
93
3
72
1
10
-62.5
20
-12.5
11
-62.9607837415528
21
-9.00000169255318
72
1
10
-62.9607837415528
20
-9.00000169255318
11
-62.0392162584472
21
-8.99999830744682
72
1
10
-62.0392162584472
20
-8.99999830744682
11
-62.5
21
-12.5
97
0
75
0
76
1
52
0
41
0.0062
77
0
78
1
53
45
43
0
44
0
45
-0.0139193969876572
46
0.0139193969876572
79
0
47
0
98
1
10
0
20
0
0
HATCH
5
149
100
AcDbEntity
8
2
62
256
6
ByLayer
370
13
48
1
60
0
100
AcDbHatch
10
0
20
0
30
0
210
0
220
0
230
1
2
ANSI31
70
0
71
0
91
1
92
5
93
3
72
1
10
108
20
10.5
11
108.460783741553
21
7.00000169255318
72
1
10
108.460783741553
20
7.00000169255318
11
107.539216258447
21
6.99999830744682
72
1
10
107.539216258447
20
6.99999830744682
11
108
21
10.5
97
0
75
0
76
1
52
0
41
0.0062
77
0
78
1
53
45
43
0
44
0
45
-0.0139193969876572
46
0.0139193969876572
79
0
47
0
98
1
10
0
20
0
0
HATCH
5
14D
100
AcDbEntity
8
2
62
256
6
ByLayer
370
13
48
1
60
0
100
AcDbHatch
10
0
20
0
30
0
210
0
220
0
230
1
2
ANSI31
70
0
71
0
91
1
92
5
93
3
72
1
10
108
20
-10.5
11
107.539216258447
21
-7.00000169255318
72
1
10
107.539216258447
20
-7.00000169255318
11
108.460783741553
21
-6.99999830744682
72
1
10
108.460783741553
20
-6.99999830744682
11
108
21
-10.5
97
0
75
0
76
1
52
0
41
0.0062
77
0
78
1
53
45
43
0
44
0
45
-0.0139193969876572
46
0.0139193969876572
79
0
47
0
98
1
10
0
20
0
0
HATCH
5
152
100
AcDbEntity
8
SK2
62
256
6
ByLayer
370
13
48
1
60
0
100
AcDbHatch
10
0
20
0
30
0
210
0
220
0
230
1
2
ANSI31
70
0
71
0
91
1
92
5
93
3
72
1
10
106.998382723188
20
-17.8541597949322
11
110.051575425693
21
-16.0820638240607
72
1
10
110.051575425693
20
-16.0820638240607
11
110.406195833975
21
-16.9326700737196
72
1
10
110.406195833975
20
-16.9326700737196
11
106.998382723188
21
-17.8541597949322
97
0
75
0
76
1
52
0
41
0.0062
77
0
78
1
53
45
43
0
44
0
45
-0.0139193969876572
46
0.0139193969876572
79
0
47
0
98
1
10
0
20
0
0
HATCH
5
156
100
AcDbEntity
8
SK2
62
256
6
ByLayer
370
13
48
1
60
0
100
AcDbHatch
10
0
20
0
30
0
210
0
220
0
230
1
2
ANSI31
70
0
71
0
91
1
92
5
93
3
72
1
10
106.998382723188
20
17.8541597949322
11
110.406192709519
21
16.9326713763016
72
1
10
110.406192709519
20
16.9326713763016
11
110.051578550149
21
16.0820625214787
72
1
10
110.051578550149
20
16.0820625214787
11
106.998382723188
21
17.8541597949322
97
0
75
0
76
1
52
0
41
0.0062
77
0
78
1
53
45
43
0
44
0
45
-0.0139193969876572
46
0.0139193969876572
79
0
47
0
98
1
10
0
20
0
0
DIMENSION
5
15A
100
AcDbEntity
8
SK2
62
256
6
ByLayer
370
18
48
1
60
0
100
AcDbDimension
2
_U0
10
100.5
20
-45.952229
30
0
11
22.25
21
-45.952229
31
0
70
32
71
1
72
1
41
1
210
0
220
0
230
1
3
Standard
100
AcDbAlignedDimension
13
-56
23
-12.5
33
0
14
100.5
24
0
34
0
50
0
100
AcDbRotatedDimension
1001
ACAD
1000
DSTYLE
1002
{
1070
   371
1070
    13
1070
   372
1070
    13
1070
     3
1000

1070
   170
1070
     0
1070
   144
1040
1.0
1070
   277
1070
     2
1070
   284
1070
     8
1070
   278
1070
    46
1070
   146
1040
1.166667
1070
   345
1005
16
1070
   347
1005
16
1070
   346
1005
16
1070
   344
1005
0
1070
   343
1005
0
1070
   172
1070
     1
1070
    76
1070
     0
1070
    75
1070
     0
1070
   282
1070
     0
1070
   281
1070
     0
1070
    71
1070
     0
1070
    74
1070
     0
1070
   279
1070
     0
1070
   173
1070
     1
1070
   340
1005
139
1070
   271
1070
     2
1070
   272
1070
     3
1070
    77
1070
     1
1070
    73
1070
     1
1070
   171
1070
     3
1070
   274
1070
     4
1070
   177
1070
     2
1070
   176
1070
     2
1070
   178
1070
     2
1070
    78
1070
     8
1070
    48
1040
-0.1
1070
    41
1040
3.5
1070
   147
1040
1.5
1070
    42
1040
1.5875
1070
    44
1040
2.0
1070
   140
1040
3.0
1002
}
1001
ACAD_DSTYLE_DIM_LINETYPE
1070
   380
1005
16
1001
ACAD_DSTYLE_DIM_EXT1_LINETYPE
1070
   381
1005
16
1001
ACAD_DSTYLE_DIM_EXT2_LINETYPE
1070
   382
1005
16
0
DIMENSION
5
173
100
AcDbEntity
8
SK2
62
256
6
ByLayer
370
18
48
1
60
0
100
AcDbDimension
2
_U1
10
3
20
-35.952229
30
0
11
51.75
21
-35.952229
31
0
70
32
71
1
72
1
41
1
210
0
220
0
230
1
3
Standard
100
AcDbAlignedDimension
13
100.5
23
0
33
0
14
3
24
-10.5
34
0
50
0
100
AcDbRotatedDimension
1001
ACAD
1000
DSTYLE
1002
{
1070
   371
1070
    13
1070
   372
1070
    13
1070
     3
1000

1070
   170
1070
     0
1070
   144
1040
1.0
1070
   277
1070
     2
1070
   284
1070
     8
1070
   278
1070
    46
1070
   146
1040
1.166667
1070
   345
1005
16
1070
   347
1005
16
1070
   346
1005
16
1070
   344
1005
0
1070
   343
1005
0
1070
   172
1070
     1
1070
    76
1070
     0
1070
    75
1070
     0
1070
   282
1070
     0
1070
   281
1070
     0
1070
    71
1070
     0
1070
    74
1070
     0
1070
   279
1070
     0
1070
   173
1070
     1
1070
   340
1005
139
1070
   271
1070
     2
1070
   272
1070
     3
1070
    77
1070
     1
1070
    73
1070
     1
1070
   171
1070
     3
1070
   274
1070
     4
1070
   177
1070
     2
1070
   176
1070
     2
1070
   178
1070
     2
1070
    78
1070
     8
1070
    48
1040
-0.1
1070
    41
1040
3.5
1070
   147
1040
1.5
1070
    42
1040
1.5875
1070
    44
1040
2.0
1070
   140
1040
3.0
1002
}
1001
ACAD_DSTYLE_DIM_LINETYPE
1070
   380
1005
16
1001
ACAD_DSTYLE_DIM_EXT1_LINETYPE
1070
   381
1005
16
1001
ACAD_DSTYLE_DIM_EXT2_LINETYPE
1070
   382
1005
16
0
DIMENSION
5
18B
100
AcDbEntity
8
SK2
62
256
6
ByLayer
370
18
48
1
60
0
100
AcDbDimension
2
_U2
10
0
20
-35.952229
30
0
11
-28
21
-35.952229
31
0
70
32
71
1
72
1
41
1
210
0
220
0
230
1
3
Standard
100
AcDbAlignedDimension
13
-56
23
-12.5
33
0
14
0
24
-12.5
34
0
50
0
100
AcDbRotatedDimension
1001
ACAD
1000
DSTYLE
1002
{
1070
   371
1070
    13
1070
   372
1070
    13
1070
     3
1000

1070
   170
1070
     0
1070
   144
1040
1.0
1070
   277
1070
     2
1070
   284
1070
     8
1070
   278
1070
    46
1070
   146
1040
1.166667
1070
   345
1005
16
1070
   347
1005
16
1070
   346
1005
16
1070
   344
1005
0
1070
   343
1005
0
1070
   172
1070
     1
1070
    76
1070
     0
1070
    75
1070
     0
1070
   282
1070
     0
1070
   281
1070
     0
1070
    71
1070
     0
1070
    74
1070
     0
1070
   279
1070
     0
1070
   173
1070
     1
1070
   340
1005
139
1070
   271
1070
     2
1070
   272
1070
     3
1070
    77
1070
     1
1070
    73
1070
     1
1070
   171
1070
     3
1070
   274
1070
     4
1070
   177
1070
     2
1070
   176
1070
     2
1070
   178
1070
     2
1070
    78
1070
     8
1070
    48
1040
-0.1
1070
    41
1040
3.5
1070
   147
1040
1.5
1070
    42
1040
1.5875
1070
    44
1040
2.0
1070
   140
1040
3.0
1002
}
1001
ACAD_DSTYLE_DIM_LINETYPE
1070
   380
1005
16
1001
ACAD_DSTYLE_DIM_EXT1_LINETYPE
1070
   381
1005
16
1001
ACAD_DSTYLE_DIM_EXT2_LINETYPE
1070
   382
1005
16
0
DIMENSION
5
1A3
100
AcDbEntity
8
SK2
62
256
6
ByLayer
370
18
48
1
60
0
100
AcDbDimension
2
_U3
10
24
20
32.952229
30
0
11
62.25
21
32.952229
31
0
70
32
71
1
72
1
41
1
210
0
220
0
230
1
3
Standard
100
AcDbAlignedDimension
13
100.5
23
0
33
0
14
24
24
10.5
34
0
50
0
100
AcDbRotatedDimension
1001
ACAD
1000
DSTYLE
1002
{
1070
   371
1070
    13
1070
   372
1070
    13
1070
     3
1000

1070
   170
1070
     0
1070
   144
1040
1.0
1070
   277
1070
     2
1070
   284
1070
     8
1070
   278
1070
    46
1070
   146
1040
1.166667
1070
   345
1005
16
1070
   347
1005
16
1070
   346
1005
16
1070
   344
1005
0
1070
   343
1005
0
1070
   172
1070
     1
1070
    76
1070
     0
1070
    75
1070
     0
1070
   282
1070
     0
1070
   281
1070
     0
1070
    71
1070
     0
1070
    74
1070
     0
1070
   279
1070
     0
1070
   173
1070
     1
1070
   340
1005
139
1070
   271
1070
     2
1070
   272
1070
     3
1070
    77
1070
     1
1070
    73
1070
     1
1070
   171
1070
     3
1070
   274
1070
     4
1070
   177
1070
     2
1070
   176
1070
     2
1070
   178
1070
     2
1070
    78
1070
     8
1070
    48
1040
-0.1
1070
    41
1040
3.5
1070
   147
1040
1.5
1070
    42
1040
1.5875
1070
    44
1040
2.0
1070
   140
1040
3.0
1002
}
1001
ACAD_DSTYLE_DIM_LINETYPE
1070
   380
1005
16
1001
ACAD_DSTYLE_DIM_EXT1_LINETYPE
1070
   381
1005
16
1001
ACAD_DSTYLE_DIM_EXT2_LINETYPE
1070
   382
1005
16
0
ENDSEC
0
SECTION
2
OBJECTS
0
DICTIONARY
5
22b
330
0
100
AcDbDictionary
280
0
281
1
3
ACAD_GROUP
350
22c
3
ACAD_MLINESTYLE
350
22d
0
DICTIONARY
5
22c
330
0
100
AcDbDictionary
280
0
281
1
0
DICTIONARY
5
22d
330
0
100
AcDbDictionary
280
0
281
1
3
Standard
350
18
0
MLINESTYLE
5
18
330
22d
100
AcDbMlineStyle
2
Standard
70
0
3

62
256
51
90
52
90
71
2
49
-0.5
62
256
6
ByLayer
49
0.5
62
256
6
ByLayer
0
RASTERVARIABLES
5
219
330

100
AcDbRasterVariables
90
0
70
1
71
1
72
1
0
ENDSEC
0
EOF
