0
SECTION
2
HEADER
9
$ACADVER
1
AC1015
9
$DWGCODEPAGE
3
ANSI_1252
9
$HANDSEED
5
248
9
$ANGBASE
50
0
9
$ANGDIR
70
0
9
$ATTMODE
70
1
9
$AUNITS
70
0
9
$AUPREC
70
0
9
$CECOLOR
62
256
9
$CELTSCALE
40
1
9
$CELTYPE
6
ByLayer
9
$CELWEIGHT
370
18
9
$CLAYER
8
0
9
$CMLJUST
70
0
9
$CMLSCALE
40
1
9
$CMLSTYLE
2
Standard
9
$DIMSTYLE
2
Standard
9
$TEXTSIZE
40
0.2
9
$TEXTSTYLE
7
Standard
9
$LUNITS
70
2
9
$LUPREC
70
4
9
$EXTNAMES
290
1
9
$INSUNITS
70
4
9
$LTSCALE
40
1
9
$LWDISPLAY
290
1
9
$PDMODE
70
0
9
$PDSIZE
40
0
9
$PLINEGEN
70
0
0
ENDSEC
0
SECTION
2
CLASSES
0
CLASS
1
RASTERVARIABLES
2
AcDbRasterVariables
3
ISM
90
0
280
0
281
0
0
ENDSEC
0
SECTION
2
TABLES
0
TABLE
2
VPORT
5
23e
100
AcDbSymbolTable
0
VPORT
5
1
100
AcDbSymbolTableRecord
100
AcDbViewportTableRecord
2
*Active
70
0
10
0
20
0
11
1
21
1
12
-1
22
1
13
0
23
0
14
0.5
24
0.5
15
10
25
10
16
0
26
0
36
1
17
0
27
0
37
0
0
ENDTAB
0
TABLE
2
LTYPE
5
23f
100
AcDbSymbolTable
0
LTYPE
5
14
100
AcDbSymbolTableRecord
100
AcDbLinetypeTableRecord
70
0
2
ByBlock
3

72
65
73
0
40
0
0
LTYPE
5
15
100
AcDbSymbolTableRecord
100
AcDbLinetypeTableRecord
70
0
2
ByLayer
3

72
65
73
0
40
0
0
LTYPE
5
16
100
AcDbSymbolTableRecord
100
AcDbLinetypeTableRecord
70
0
2
Continuous
3
Solid line
72
65
73
0
40
0
0
LTYPE
5
6E
100
AcDbSymbolTableRecord
100
AcDbLinetypeTableRecord
70
0
2
CENTER
3
____ _ ____ _ ____ _ ____
72
65
73
4
40
47.5
49
22
74
0
49
-8.5
74
0
49
8.5
74
0
49
-8.5
74
0
0
LTYPE
5
6F
100
AcDbSymbolTableRecord
100
AcDbLinetypeTableRecord
70
0
2
DASHED
3
__ __ __ __ __ __ __ __ __
72
65
73
2
40
25.72
49
12.86
74
0
49
-12.86
74
0
0
ENDTAB
0
TABLE
2
LAYER
5
240
100
AcDbSymbolTable
0
LAYER
5
10
100
AcDbSymbolTableRecord
100
AcDbLayerTableRecord
2
0
70
0
62
7
6
Continuous
290
1
370
-3
390
0
0
LAYER
5
71
100
AcDbSymbolTableRecord
100
AcDbLayerTableRecord
2
81
70
0
62
-3
6
Continuous
290
1
370
-3
390
0
0
LAYER
5
73
100
AcDbSymbolTableRecord
100
AcDbLayerTableRecord
2
80
70
0
62
-6
6
Continuous
290
1
370
-3
390
0
0
LAYER
5
75
100
AcDbSymbolTableRecord
100
AcDbLayerTableRecord
2
1
70
0
62
4
6
Continuous
290
1
370
-3
390
0
0
LAYER
5
7F
100
AcDbSymbolTableRecord
100
AcDbLayerTableRecord
2
4
70
0
62
-2
6
CENTER
290
1
370
-3
390
0
0
LAYER
5
B1
100
AcDbSymbolTableRecord
100
AcDbLayerTableRecord
2
2
70
0
62
7
6
Continuous
290
1
370
-3
390
0
0
LAYER
5
16D
100
AcDbSymbolTableRecord
100
AcDbLayerTableRecord
2
Defpoints
70
0
62
7
6
Continuous
290
0
370
-3
390
0
0
LAYER
5
22a
100
AcDbSymbolTableRecord
100
AcDbLayerTableRecord
2
SK4
70
0
62
2
6
CENTER
290
1
370
-3
390
0
0
LAYER
5
22b
100
AcDbSymbolTableRecord
100
AcDbLayerTableRecord
2
SK1
70
0
62
4
6
Continuous
290
1
370
-3
390
0
0
LAYER
5
22c
100
AcDbSymbolTableRecord
100
AcDbLayerTableRecord
2
SK2
70
0
62
7
6
Continuous
290
1
370
-3
390
0
0
LAYER
5
22d
100
AcDbSymbolTableRecord
100
AcDbLayerTableRecord
2
SK6
70
0
62
5
6
Continuous
290
1
370
-3
390
0
0
ENDTAB
0
TABLE
2
STYLE
5
241
100
AcDbSymbolTable
0
STYLE
5
11
100
AcDbSymbolTableRecord
100
AcDbTextStyleTableRecord
2
Standard
3
txt
70
0
71
0
40
0
41
1
42
0
50
0
0
STYLE
5
149
100
AcDbSymbolTableRecord
100
AcDbTextStyleTableRecord
2
iso_b_vert
3
simplex.shx
70
0
71
0
40
0
41
1
42
0
50
0
0
STYLE
5
14A
100
AcDbSymbolTableRecord
100
AcDbTextStyleTableRecord
2
DWGDirectTextStyle
3
simplex
70
0
71
0
40
0
41
1
42
0
50
0
0
ENDTAB
0
TABLE
2
DIMSTYLE
5
242
100
AcDbSymbolTable
100
AcDbDimStyleTable
0
DIMSTYLE
105
27
100
AcDbSymbolTableRecord
100
AcDbDimStyleTableRecord
2
Standard
70
0
3
<>
41
0.18
42
0.0625
44
0.18
140
0.18
147
0.09
73
0
74
0
77
1
271
2
275
0
278
52
280
0
340
11
0
ENDTAB
0
TABLE
2
VIEW
5
243
100
AcDbSymbolTable
0
ENDTAB
0
TABLE
2
UCS
5
244
100
AcDbSymbolTable
0
ENDTAB
0
TABLE
2
APPID
5
245
100
AcDbSymbolTable
0
APPID
5
12
100
AcDbSymbolTableRecord
100
AcDbRegAppTableRecord
2
ACAD
70
0
0
APPID
5
169
100
AcDbSymbolTableRecord
100
AcDbRegAppTableRecord
2
ACAD_DSTYLE_DIMBREAK
70
0
0
APPID
5
1E9
100
AcDbSymbolTableRecord
100
AcDbRegAppTableRecord
2
ACAD_DSTYLE_DIM_LINETYPE
70
0
0
APPID
5
1EA
100
AcDbSymbolTableRecord
100
AcDbRegAppTableRecord
2
ACAD_DSTYLE_DIM_EXT1_LINETYPE
70
0
0
APPID
5
1EB
100
AcDbSymbolTableRecord
100
AcDbRegAppTableRecord
2
ACAD_DSTYLE_DIM_EXT2_LINETYPE
70
0
0
APPID
5
226
100
AcDbSymbolTableRecord
100
AcDbRegAppTableRecord
2
ACAD_MLEADERVER
70
0
0
ENDTAB
0
TABLE
2
BLOCK_RECORD
5
246
100
AcDbSymbolTable
0
BLOCK_RECORD
5
1F
100
AcDbSymbolTableRecord
100
AcDbBlockTableRecord
2
*Model_Space
340
0
70
0
0
BLOCK_RECORD
5
1B
100
AcDbSymbolTableRecord
100
AcDbBlockTableRecord
2
*Paper_Space
340
0
70
0
0
BLOCK_RECORD
5
23
100
AcDbSymbolTableRecord
100
AcDbBlockTableRecord
2
*Paper_Space0
340
0
70
0
0
BLOCK_RECORD
5
16E
100
AcDbSymbolTableRecord
100
AcDbBlockTableRecord
2
*D1
340
0
70
0
0
BLOCK_RECORD
5
17A
100
AcDbSymbolTableRecord
100
AcDbBlockTableRecord
2
_U0
340
0
70
0
0
BLOCK_RECORD
5
186
100
AcDbSymbolTableRecord
100
AcDbBlockTableRecord
2
*D3
340
0
70
0
0
BLOCK_RECORD
5
192
100
AcDbSymbolTableRecord
100
AcDbBlockTableRecord
2
_U1
340
0
70
0
0
BLOCK_RECORD
5
19E
100
AcDbSymbolTableRecord
100
AcDbBlockTableRecord
2
*D5
340
0
70
0
0
BLOCK_RECORD
5
1AA
100
AcDbSymbolTableRecord
100
AcDbBlockTableRecord
2
_U2
340
0
70
0
0
BLOCK_RECORD
5
1B6
100
AcDbSymbolTableRecord
100
AcDbBlockTableRecord
2
*D7
340
0
70
0
0
BLOCK_RECORD
5
1C2
100
AcDbSymbolTableRecord
100
AcDbBlockTableRecord
2
_U3
340
0
70
0
0
ENDTAB
0
ENDSEC
0
SECTION
2
BLOCKS
0
BLOCK
5
20
100
AcDbEntity
8
0
100
AcDbBlockBegin
2
*Model_Space
70
0
10
0
20
0
30
0
3
*Model_Space
0
ENDBLK
5
21
100
AcDbEntity
8
0
100
AcDbBlockEnd
0
BLOCK
5
1C
100
AcDbEntity
8
0
100
AcDbBlockBegin
2
*Paper_Space
70
0
10
0
20
0
30
0
3
*Paper_Space
0
ENDBLK
5
1D
100
AcDbEntity
8
0
100
AcDbBlockEnd
0
BLOCK
5
24
100
AcDbEntity
8
0
100
AcDbBlockBegin
2
*Paper_Space0
70
0
10
0
20
0
30
0
3
*Paper_Space0
0
ENDBLK
5
25
100
AcDbEntity
8
0
100
AcDbBlockEnd
0
BLOCK
5
16F
100
AcDbEntity
8
0
100
AcDbBlockBegin
2
*D1
70
1
10
0
20
0
30
0
3
*D1
0
LINE
5
171
100
AcDbEntity
8
0
62
256
6
ByLayer
370
-2
48
1
60
0
100
AcDbLine
10
-60
20
-17.4625
30
0
11
-60
21
-47.952229
31
0
39
0
210
0
220
0
230
1
0
LINE
5
172
100
AcDbEntity
8
0
62
256
6
ByLayer
370
-2
48
1
60
0
100
AcDbLine
10
115
20
-1.5875
30
0
11
115
21
-47.952229
31
0
39
0
210
0
220
0
230
1
0
LINE
5
173
100
AcDbEntity
8
0
62
256
6
ByLayer
370
-2
48
1
60
0
100
AcDbLine
10
-56.5
20
-45.952229
30
0
11
111.5
21
-45.952229
31
0
39
0
210
0
220
0
230
1
0
SOLID
5
174
100
AcDbEntity
8
0
62
256
6
ByLayer
370
-1
48
1
60
0
100
AcDbTrace
10
-56.5
20
-45.368896
30
0
11
-56.5
21
-46.535563
31
0
12
-60
22
-45.952229
32
0
13
-60
23
-45.952229
33
0
39
0
210
0
220
0
230
1
0
SOLID
5
175
100
AcDbEntity
8
0
62
256
6
ByLayer
370
-1
48
1
60
0
100
AcDbTrace
10
111.5
20
-46.535563
30
0
11
111.5
21
-45.368896
31
0
12
115
22
-45.952229
32
0
13
115
23
-45.952229
33
0
39
0
210
0
220
0
230
1
0
MTEXT
5
176
100
AcDbEntity
8
0
62
256
6
ByLayer
370
18
48
1
60
0
100
AcDbMText
10
27.5
20
-39.952229
30
0
210
0
220
0
230
1
1
\A1;175
40
3
41
0
44
1
50
0
71
5
72
5
7
iso_b_vert
0
POINT
5
177
100
AcDbEntity
8
Defpoints
62
0
6
ByLayer
370
-1
48
1
60
0
100
AcDbPoint
10
-60
20
-15.875
30
0
39
0
210
0
220
0
230
1
50
360
0
POINT
5
178
100
AcDbEntity
8
Defpoints
62
0
6
ByLayer
370
-1
48
1
60
0
100
AcDbPoint
10
115
20
0
30
0
39
0
210
0
220
0
230
1
50
360
0
POINT
5
179
100
AcDbEntity
8
Defpoints
62
0
6
ByLayer
370
-1
48
1
60
0
100
AcDbPoint
10
115
20
-45.952229
30
0
39
0
210
0
220
0
230
1
50
360
0
ENDBLK
5
170
100
AcDbEntity
8
0
100
AcDbBlockEnd
0
BLOCK
5
181
100
AcDbEntity
8
0
100
AcDbBlockBegin
2
_U0
70
0
10
0
20
0
30
0
3
_U0
0
MTEXT
5
17B
100
AcDbEntity
8
SK2
62
256
6
ByLayer
370
18
48
1
60
0
100
AcDbMText
10
22.271658
20
-45.067115
30
0
210
0
220
0
230
1
1
\W0.7022;175.00
40
3
41
0
44
1.084337
50
0
71
7
72
5
7
iso_b_vert
0
LINE
5
17C
100
AcDbEntity
8
SK2
62
256
6
ByLayer
370
13
48
1
60
0
100
AcDbLine
10
-60
20
-17.4625
30
0
11
-60
21
-47.952229
31
0
39
0
210
0
220
0
230
1
0
LINE
5
17D
100
AcDbEntity
8
SK2
62
256
6
ByLayer
370
13
48
1
60
0
100
AcDbLine
10
115
20
-1.5875
30
0
11
115
21
-47.952229
31
0
39
0
210
0
220
0
230
1
0
LINE
5
17E
100
AcDbEntity
8
SK2
62
256
6
ByLayer
370
13
48
1
60
0
100
AcDbLine
10
-60
20
-45.952229
30
0
11
115
21
-45.952229
31
0
39
0
210
0
220
0
230
1
0
SOLID
5
17F
100
AcDbEntity
8
SK2
62
256
6
ByLayer
370
18
48
1
60
0
100
AcDbTrace
10
-60
20
-45.952229
30
0
11
-56.500002
21
-45.491446
31
0
12
-56.499998
22
-46.413013
32
0
13
-56.499998
23
-46.413013
33
0
39
0
210
0
220
0
230
1
0
SOLID
5
180
100
AcDbEntity
8
SK2
62
256
6
ByLayer
370
18
48
1
60
0
100
AcDbTrace
10
115
20
-45.952229
30
0
11
111.500002
21
-46.413013
31
0
12
111.499998
22
-45.491446
32
0
13
111.499998
23
-45.491446
33
0
39
0
210
0
220
0
230
1
0
ENDBLK
5
182
100
AcDbEntity
8
0
100
AcDbBlockEnd
0
BLOCK
5
187
100
AcDbEntity
8
0
100
AcDbBlockBegin
2
*D3
70
1
10
0
20
0
30
0
3
*D3
0
LINE
5
189
100
AcDbEntity
8
0
62
256
6
ByLayer
370
-2
48
1
60
0
100
AcDbLine
10
115
20
-1.5875
30
0
11
115
21
-37.952229
31
0
39
0
210
0
220
0
230
1
0
LINE
5
18A
100
AcDbEntity
8
0
62
256
6
ByLayer
370
-2
48
1
60
0
100
AcDbLine
10
3
20
-14.883
30
0
11
3
21
-37.952229
31
0
39
0
210
0
220
0
230
1
0
LINE
5
18B
100
AcDbEntity
8
0
62
256
6
ByLayer
370
-2
48
1
60
0
100
AcDbLine
10
111.5
20
-35.952229
30
0
11
6.5
21
-35.952229
31
0
39
0
210
0
220
0
230
1
0
SOLID
5
18C
100
AcDbEntity
8
0
62
256
6
ByLayer
370
-1
48
1
60
0
100
AcDbTrace
10
111.5
20
-36.535563
30
0
11
111.5
21
-35.368896
31
0
12
115
22
-35.952229
32
0
13
115
23
-35.952229
33
0
39
0
210
0
220
0
230
1
0
SOLID
5
18D
100
AcDbEntity
8
0
62
256
6
ByLayer
370
-1
48
1
60
0
100
AcDbTrace
10
6.5
20
-35.368896
30
0
11
6.5
21
-36.535563
31
0
12
3
22
-35.952229
32
0
13
3
23
-35.952229
33
0
39
0
210
0
220
0
230
1
0
MTEXT
5
18E
100
AcDbEntity
8
0
62
256
6
ByLayer
370
18
48
1
60
0
100
AcDbMText
10
59
20
-29.952229
30
0
210
0
220
0
230
1
1
\A1;112
40
3
41
0
44
1
50
0
71
5
72
5
7
iso_b_vert
0
POINT
5
18F
100
AcDbEntity
8
Defpoints
62
0
6
ByLayer
370
-1
48
1
60
0
100
AcDbPoint
10
115
20
0
30
0
39
0
210
0
220
0
230
1
50
360
0
POINT
5
190
100
AcDbEntity
8
Defpoints
62
0
6
ByLayer
370
-1
48
1
60
0
100
AcDbPoint
10
3
20
-13.2955
30
0
39
0
210
0
220
0
230
1
50
360
0
POINT
5
191
100
AcDbEntity
8
Defpoints
62
0
6
ByLayer
370
-1
48
1
60
0
100
AcDbPoint
10
3
20
-35.952229
30
0
39
0
210
0
220
0
230
1
50
360
0
ENDBLK
5
188
100
AcDbEntity
8
0
100
AcDbBlockEnd
0
BLOCK
5
199
100
AcDbEntity
8
0
100
AcDbBlockBegin
2
_U1
70
0
10
0
20
0
30
0
3
_U1
0
MTEXT
5
193
100
AcDbEntity
8
SK2
62
256
6
ByLayer
370
18
48
1
60
0
100
AcDbMText
10
54.146601
20
-35.067115
30
0
210
0
220
0
230
1
1
\W0.6532;112.00
40
3
41
0
44
1.084337
50
0
71
7
72
5
7
iso_b_vert
0
LINE
5
194
100
AcDbEntity
8
SK2
62
256
6
ByLayer
370
13
48
1
60
0
100
AcDbLine
10
115
20
-1.5875
30
0
11
115
21
-37.952229
31
0
39
0
210
0
220
0
230
1
0
LINE
5
195
100
AcDbEntity
8
SK2
62
256
6
ByLayer
370
13
48
1
60
0
100
AcDbLine
10
3
20
-14.883
30
0
11
3
21
-37.952229
31
0
39
0
210
0
220
0
230
1
0
LINE
5
196
100
AcDbEntity
8
SK2
62
256
6
ByLayer
370
13
48
1
60
0
100
AcDbLine
10
115
20
-35.952229
30
0
11
3
21
-35.952229
31
0
39
0
210
0
220
0
230
1
0
SOLID
5
197
100
AcDbEntity
8
SK2
62
256
6
ByLayer
370
18
48
1
60
0
100
AcDbTrace
10
115
20
-35.952229
30
0
11
111.500002
21
-36.413013
31
0
12
111.499998
22
-35.491446
32
0
13
111.499998
23
-35.491446
33
0
39
0
210
0
220
0
230
1
0
SOLID
5
198
100
AcDbEntity
8
SK2
62
256
6
ByLayer
370
18
48
1
60
0
100
AcDbTrace
10
3
20
-35.952229
30
0
11
6.499998
21
-35.491446
31
0
12
6.500002
22
-36.413013
32
0
13
6.500002
23
-36.413013
33
0
39
0
210
0
220
0
230
1
0
ENDBLK
5
19A
100
AcDbEntity
8
0
100
AcDbBlockEnd
0
BLOCK
5
19F
100
AcDbEntity
8
0
100
AcDbBlockBegin
2
*D5
70
1
10
0
20
0
30
0
3
*D5
0
LINE
5
1A1
100
AcDbEntity
8
0
62
256
6
ByLayer
370
-2
48
1
60
0
100
AcDbLine
10
-60
20
-17.4625
30
0
11
-60
21
-37.952229
31
0
39
0
210
0
220
0
230
1
0
LINE
5
1A2
100
AcDbEntity
8
0
62
256
6
ByLayer
370
-2
48
1
60
0
100
AcDbLine
10
0
20
-17.4625
30
0
11
0
21
-37.952229
31
0
39
0
210
0
220
0
230
1
0
LINE
5
1A3
100
AcDbEntity
8
0
62
256
6
ByLayer
370
-2
48
1
60
0
100
AcDbLine
10
-56.5
20
-35.952229
30
0
11
-3.5
21
-35.952229
31
0
39
0
210
0
220
0
230
1
0
SOLID
5
1A4
100
AcDbEntity
8
0
62
256
6
ByLayer
370
-1
48
1
60
0
100
AcDbTrace
10
-56.5
20
-35.368896
30
0
11
-56.5
21
-36.535563
31
0
12
-60
22
-35.952229
32
0
13
-60
23
-35.952229
33
0
39
0
210
0
220
0
230
1
0
SOLID
5
1A5
100
AcDbEntity
8
0
62
256
6
ByLayer
370
-1
48
1
60
0
100
AcDbTrace
10
-3.5
20
-36.535563
30
0
11
-3.5
21
-35.368896
31
0
12
0
22
-35.952229
32
0
13
0
23
-35.952229
33
0
39
0
210
0
220
0
230
1
0
MTEXT
5
1A6
100
AcDbEntity
8
0
62
256
6
ByLayer
370
18
48
1
60
0
100
AcDbMText
10
-30
20
-29.952229
30
0
210
0
220
0
230
1
1
\A1;60
40
3
41
0
44
1
50
0
71
5
72
5
7
iso_b_vert
0
POINT
5
1A7
100
AcDbEntity
8
Defpoints
62
0
6
ByLayer
370
-1
48
1
60
0
100
AcDbPoint
10
-60
20
-15.875
30
0
39
0
210
0
220
0
230
1
50
360
0
POINT
5
1A8
100
AcDbEntity
8
Defpoints
62
0
6
ByLayer
370
-1
48
1
60
0
100
AcDbPoint
10
0
20
-15.875
30
0
39
0
210
0
220
0
230
1
50
360
0
POINT
5
1A9
100
AcDbEntity
8
Defpoints
62
0
6
ByLayer
370
-1
48
1
60
0
100
AcDbPoint
10
0
20
-35.952229
30
0
39
0
210
0
220
0
230
1
50
360
0
ENDBLK
5
1A0
100
AcDbEntity
8
0
100
AcDbBlockEnd
0
BLOCK
5
1B1
100
AcDbEntity
8
0
100
AcDbBlockBegin
2
_U2
70
0
10
0
20
0
30
0
3
_U2
0
MTEXT
5
1AB
100
AcDbEntity
8
SK2
62
256
6
ByLayer
370
18
48
1
60
0
100
AcDbMText
10
-34.48237
20
-35.067115
30
0
210
0
220
0
230
1
1
\W0.7468;60.00
40
3
41
0
44
1.084337
50
0
71
7
72
5
7
iso_b_vert
0
LINE
5
1AC
100
AcDbEntity
8
SK2
62
256
6
ByLayer
370
13
48
1
60
0
100
AcDbLine
10
-60
20
-17.4625
30
0
11
-60
21
-37.952229
31
0
39
0
210
0
220
0
230
1
0
LINE
5
1AD
100
AcDbEntity
8
SK2
62
256
6
ByLayer
370
13
48
1
60
0
100
AcDbLine
10
0
20
-17.4625
30
0
11
0
21
-37.952229
31
0
39
0
210
0
220
0
230
1
0
LINE
5
1AE
100
AcDbEntity
8
SK2
62
256
6
ByLayer
370
13
48
1
60
0
100
AcDbLine
10
-60
20
-35.952229
30
0
11
0
21
-35.952229
31
0
39
0
210
0
220
0
230
1
0
SOLID
5
1AF
100
AcDbEntity
8
SK2
62
256
6
ByLayer
370
18
48
1
60
0
100
AcDbTrace
10
-60
20
-35.952229
30
0
11
-56.500002
21
-35.491446
31
0
12
-56.499998
22
-36.413013
32
0
13
-56.499998
23
-36.413013
33
0
39
0
210
0
220
0
230
1
0
SOLID
5
1B0
100
AcDbEntity
8
SK2
62
256
6
ByLayer
370
18
48
1
60
0
100
AcDbTrace
10
0
20
-35.952229
30
0
11
-3.499998
21
-36.413013
31
0
12
-3.500002
22
-35.491446
32
0
13
-3.500002
23
-35.491446
33
0
39
0
210
0
220
0
230
1
0
ENDBLK
5
1B2
100
AcDbEntity
8
0
100
AcDbBlockEnd
0
BLOCK
5
1B7
100
AcDbEntity
8
0
100
AcDbBlockBegin
2
*D7
70
1
10
0
20
0
30
0
3
*D7
0
LINE
5
1B9
100
AcDbEntity
8
0
62
256
6
ByLayer
370
-2
48
1
60
0
100
AcDbLine
10
115
20
1.5875
30
0
11
115
21
34.952229
31
0
39
0
210
0
220
0
230
1
0
LINE
5
1BA
100
AcDbEntity
8
0
62
256
6
ByLayer
370
-2
48
1
60
0
100
AcDbLine
10
23
20
14.883
30
0
11
23
21
34.952229
31
0
39
0
210
0
220
0
230
1
0
LINE
5
1BB
100
AcDbEntity
8
0
62
256
6
ByLayer
370
-2
48
1
60
0
100
AcDbLine
10
111.5
20
32.952229
30
0
11
26.5
21
32.952229
31
0
39
0
210
0
220
0
230
1
0
SOLID
5
1BC
100
AcDbEntity
8
0
62
256
6
ByLayer
370
-1
48
1
60
0
100
AcDbTrace
10
111.5
20
32.368896
30
0
11
111.5
21
33.535563
31
0
12
115
22
32.952229
32
0
13
115
23
32.952229
33
0
39
0
210
0
220
0
230
1
0
SOLID
5
1BD
100
AcDbEntity
8
0
62
256
6
ByLayer
370
-1
48
1
60
0
100
AcDbTrace
10
26.5
20
33.535563
30
0
11
26.5
21
32.368896
31
0
12
23
22
32.952229
32
0
13
23
23
32.952229
33
0
39
0
210
0
220
0
230
1
0
MTEXT
5
1BE
100
AcDbEntity
8
0
62
256
6
ByLayer
370
18
48
1
60
0
100
AcDbMText
10
69
20
38.952229
30
0
210
0
220
0
230
1
1
\A1;92
40
3
41
0
44
1
50
0
71
5
72
5
7
iso_b_vert
0
POINT
5
1BF
100
AcDbEntity
8
Defpoints
62
0
6
ByLayer
370
-1
48
1
60
0
100
AcDbPoint
10
115
20
0
30
0
39
0
210
0
220
0
230
1
50
360
0
POINT
5
1C0
100
AcDbEntity
8
Defpoints
62
0
6
ByLayer
370
-1
48
1
60
0
100
AcDbPoint
10
23
20
13.2955
30
0
39
0
210
0
220
0
230
1
50
360
0
POINT
5
1C1
100
AcDbEntity
8
Defpoints
62
0
6
ByLayer
370
-1
48
1
60
0
100
AcDbPoint
10
23
20
32.952229
30
0
39
0
210
0
220
0
230
1
50
360
0
ENDBLK
5
1B8
100
AcDbEntity
8
0
100
AcDbBlockEnd
0
BLOCK
5
1C9
100
AcDbEntity
8
0
100
AcDbBlockBegin
2
_U3
70
0
10
0
20
0
30
0
3
_U3
0
MTEXT
5
1C3
100
AcDbEntity
8
SK2
62
256
6
ByLayer
370
18
48
1
60
0
100
AcDbMText
10
64.51763
20
33.837344
30
0
210
0
220
0
230
1
1
\W0.7468;92.00
40
3
41
0
44
1.084337
50
0
71
7
72
5
7
iso_b_vert
0
LINE
5
1C4
100
AcDbEntity
8
SK2
62
256
6
ByLayer
370
13
48
1
60
0
100
AcDbLine
10
115
20
1.5875
30
0
11
115
21
34.952229
31
0
39
0
210
0
220
0
230
1
0
LINE
5
1C5
100
AcDbEntity
8
SK2
62
256
6
ByLayer
370
13
48
1
60
0
100
AcDbLine
10
23
20
14.883
30
0
11
23
21
34.952229
31
0
39
0
210
0
220
0
230
1
0
LINE
5
1C6
100
AcDbEntity
8
SK2
62
256
6
ByLayer
370
13
48
1
60
0
100
AcDbLine
10
115
20
32.952229
30
0
11
23
21
32.952229
31
0
39
0
210
0
220
0
230
1
0
SOLID
5
1C7
100
AcDbEntity
8
SK2
62
256
6
ByLayer
370
18
48
1
60
0
100
AcDbTrace
10
115
20
32.952229
30
0
11
111.500002
21
32.491446
31
0
12
111.499998
22
33.413013
32
0
13
111.499998
23
33.413013
33
0
39
0
210
0
220
0
230
1
0
SOLID
5
1C8
100
AcDbEntity
8
SK2
62
256
6
ByLayer
370
18
48
1
60
0
100
AcDbTrace
10
23
20
32.952229
30
0
11
26.499998
21
33.413013
31
0
12
26.500002
22
32.491446
32
0
13
26.500002
23
32.491446
33
0
39
0
210
0
220
0
230
1
0
ENDBLK
5
1CA
100
AcDbEntity
8
0
100
AcDbBlockEnd
0
ENDSEC
0
SECTION
2
ENTITIES
0
ARC
5
C2
100
AcDbEntity
8
SK2
62
256
6
ByLayer
370
13
48
1
60
0
100
AcDbCircle
39
0
10
115
20
0
30
0
40
18.9999999999999
210
0
220
0
230
1
100
AcDbArc
50
290
51
70
0
ELLIPSE
5
C3
100
AcDbEntity
8
SK1
62
256
6
ByLayer
370
18
48
1
60
0
100
AcDbEllipse
10
-38.196323
20
0
30
0
11
-2.91609388003954E-15
21
-15.875
31
0
210
0
220
0
230
1
40
0.932515
41
-2.04476529460845
42
-1.09682735898134
0
ELLIPSE
5
C4
100
AcDbEntity
8
SK1
62
256
6
ByLayer
370
18
48
1
60
0
100
AcDbEllipse
10
-24.023853
20
0
30
0
11
17.0238532716365
21
-1.92897228726061E-14
31
0
210
0
220
0
230
1
40
0.932515
41
-0.473968967813626
42
0.473968967813628
0
POINT
5
70
100
AcDbEntity
8
81
62
256
6
ByLayer
370
18
48
1
60
0
100
AcDbPoint
10
115
20
0
30
0
39
0
210
0
220
0
230
1
50
360
0
POINT
5
72
100
AcDbEntity
8
80
62
256
6
ByLayer
370
18
48
1
60
0
100
AcDbPoint
10
0
20
0
30
0
39
0
210
0
220
0
230
1
50
360
0
POINT
5
74
100
AcDbEntity
8
1
62
256
6
ByLayer
370
18
48
1
60
1
100
AcDbPoint
10
-60
20
-15.875
30
0
39
0
210
0
220
0
230
1
50
360
0
POINT
5
76
100
AcDbEntity
8
1
62
256
6
ByLayer
370
18
48
1
60
1
100
AcDbPoint
10
115
20
0
30
0
39
0
210
0
220
0
230
1
50
360
0
POINT
5
77
100
AcDbEntity
8
1
62
256
6
ByLayer
370
18
48
1
60
1
100
AcDbPoint
10
115
20
0
30
0
39
0
210
0
220
0
230
1
50
360
0
POINT
5
78
100
AcDbEntity
8
1
62
256
6
ByLayer
370
18
48
1
60
1
100
AcDbPoint
10
3
20
-13.2955
30
0
39
0
210
0
220
0
230
1
50
360
0
POINT
5
79
100
AcDbEntity
8
1
62
256
6
ByLayer
370
18
48
1
60
1
100
AcDbPoint
10
-60
20
-15.875
30
0
39
0
210
0
220
0
230
1
50
360
0
POINT
5
7A
100
AcDbEntity
8
1
62
256
6
ByLayer
370
18
48
1
60
1
100
AcDbPoint
10
0
20
-15.875
30
0
39
0
210
0
220
0
230
1
50
360
0
POINT
5
7B
100
AcDbEntity
8
1
62
256
6
ByLayer
370
18
48
1
60
1
100
AcDbPoint
10
115
20
0
30
0
39
0
210
0
220
0
230
1
50
360
0
POINT
5
7C
100
AcDbEntity
8
1
62
256
6
ByLayer
370
18
48
1
60
1
100
AcDbPoint
10
23
20
13.2955
30
0
39
0
210
0
220
0
230
1
50
360
0
SPLINE
5
C5
100
AcDbEntity
8
1
62
256
6
ByLayer
370
18
48
1
60
0
100
AcDbSpline
70
4
71
3
72
22
73
18
40
0
40
0
40
0
40
0
40
0.125000000000004
40
0.125000000000004
40
0.187500000000006
40
0.187500000000006
40
0.250000000000008
40
0.250000000000008
40
0.500000000000009
40
0.500000000000009
40
0.62500000000001
40
0.62500000000001
40
0.68750000000001
40
0.68750000000001
40
0.750000000000011
40
0.750000000000011
40
1
40
1
40
1
40
1
41
1
10
110.160833750302
20
-1.89764360218561
30
0
41
1
10
109.649315271772
20
-1.71369580088637
30
0
41
1
10
109.13803449497
20
-1.52918807754395
30
0
41
1
10
108.371516770226
20
-1.25145732959678
30
0
41
1
10
108.116081502463
20
-1.15870949095088
30
0
41
1
10
107.605333521779
20
-0.972924030432381
30
0
41
1
10
107.350010230119
20
-0.879915715207432
30
0
41
1
10
106.07329879411
20
-0.415259984614806
30
0
41
1
10
105.051826409085
20
-0.0442134016701914
30
0
41
1
10
103.519751803575
20
0.512143909689115
30
0
41
1
10
103.009083991184
20
0.697564575734674
30
0
41
1
10
102.243165057836
20
0.97577723714025
30
0
41
1
10
101.987873317298
20
1.06853051696808
30
0
41
1
10
101.477317849227
20
1.25406513193582
30
0
41
1
10
101.222049961633
20
1.34683496489754
30
0
41
1
10
99.9453737588428
20
1.80963332491439
30
0
41
1
10
98.9230694591287
20
2.17682592908525
30
0
41
1
10
97.9000000000002
20
2.54152048535806
30
0
0
SPLINE
5
C6
100
AcDbEntity
8
1
62
256
6
ByLayer
370
18
48
1
60
0
100
AcDbSpline
70
4
71
3
72
95
73
91
40
0
40
0
40
0
40
0
40
0.0312500000000026
40
0.0312500000000026
40
0.0625000000000052
40
0.0625000000000052
40
0.0937500000000078
40
0.0937500000000078
40
0.12500000000001
40
0.12500000000001
40
0.140625000000011
40
0.140625000000011
40
0.148437500000012
40
0.148437500000012
40
0.156250000000013
40
0.187500000000014
40
0.187500000000014
40
0.218750000000015
40
0.218750000000015
40
0.250000000000016
40
0.250000000000016
40
0.281250000000018
40
0.281250000000018
40
0.296875000000018
40
0.296875000000018
40
0.304687500000019
40
0.304687500000019
40
0.31250000000002
40
0.31250000000002
40
0.343750000000021
40
0.343750000000021
40
0.375000000000022
40
0.375000000000022
40
0.406250000000023
40
0.406250000000023
40
0.437500000000024
40
0.437500000000024
40
0.445312500000024
40
0.445312500000024
40
0.453125000000025
40
0.468750000000026
40
0.468750000000026
40
0.500000000000027
40
0.500000000000027
40
0.531250000000028
40
0.531250000000028
40
0.539062500000029
40
0.539062500000029
40
0.546875000000029
40
0.56250000000003
40
0.56250000000003
40
0.593750000000032
40
0.593750000000032
40
0.625000000000033
40
0.625000000000033
40
0.632812500000033
40
0.632812500000033
40
0.640625000000034
40
0.656250000000033
40
0.656250000000033
40
0.687500000000032
40
0.687500000000032
40
0.71875000000003
40
0.71875000000003
40
0.72656250000003
40
0.72656250000003
40
0.73437500000003
40
0.73437500000003
40
0.750000000000028
40
0.750000000000028
40
0.781250000000023
40
0.781250000000023
40
0.812500000000019
40
0.812500000000019
40
0.843750000000014
40
0.843750000000014
40
0.851562500000013
40
0.851562500000013
40
0.859375000000012
40
0.875000000000011
40
0.875000000000011
40
0.906250000000008
40
0.906250000000008
40
0.937500000000005
40
0.968750000000002
40
0.968750000000002
40
0.976562500000001
40
0.976562500000001
40
0.984375000000001
40
1
40
1
40
1
40
1
41
1
10
110.160833750314
20
12.8733174400917
30
0
41
1
10
110.243870882453
20
12.6674333408454
30
0
41
1
10
110.327038434655
20
12.4584574150972
30
0
41
1
10
110.493775810751
20
12.0348086566803
30
0
41
1
10
110.577345491581
20
11.8201347103969
30
0
41
1
10
110.744986399794
20
11.3854404478966
30
0
41
1
10
110.829057691141
20
11.1654195151509
30
0
41
1
10
110.997760806936
20
10.7202744484476
30
0
41
1
10
111.082392924713
20
10.4951500556326
30
0
41
1
10
111.209771610559
20
10.1537474592702
30
0
41
1
10
111.252302541324
20
10.0393265418389
30
0
41
1
10
111.316203239907
20
9.86677258824116
30
0
41
1
10
111.337535585784
20
9.80906076353887
30
0
41
1
10
111.380158660921
20
9.69353486434909
30
0
41
1
10
111.486559238832
20
9.40460594811293
30
0
41
1
10
111.592184819395
20
9.11511523102433
30
0
41
1
10
111.760124227161
20
8.65120576965722
30
0
41
1
10
111.843564211701
20
8.41888922215989
30
0
41
1
10
112.009192002815
20
7.95347774560909
30
0
41
1
10
112.091381596739
20
7.72038340575867
30
0
41
1
10
112.254153877746
20
7.25329904115441
30
0
41
1
10
112.334740148738
20
7.01931045053274
30
0
41
1
10
112.45397581472
20
6.66750450143286
30
0
41
1
10
112.493444946174
20
6.5500978765142
30
0
41
1
10
112.552155010793
20
6.37375285099083
30
0
41
1
10
112.571653070423
20
6.31490003443281
30
0
41
1
10
112.610415736623
20
6.19727002667315
30
0
41
1
10
112.629671450319
20
6.13852017632851
30
0
41
1
10
112.725282262092
20
5.84508350626854
30
0
41
1
10
112.799657430168
20
5.61133741300065
30
0
41
1
10
112.942820181379
20
5.1454719360755
30
0
41
1
10
113.011617170988
20
4.91335406069029
30
0
41
1
10
113.141533584363
20
4.45026645063393
30
0
41
1
10
113.20266399626
20
4.21929769572097
30
0
41
1
10
113.31410007045
20
3.75788709063016
30
0
41
1
10
113.364410752567
20
3.52744336809528
30
0
41
1
10
113.417730894429
20
3.23924182558403
30
0
41
1
10
113.427919455552
20
3.18155627772904
30
0
41
1
10
113.447222822395
20
3.0663224039871
30
0
41
1
10
113.474502736684
20
2.89407780955003
30
0
41
1
10
113.496463836106
20
2.72367533425435
30
0
41
1
10
113.53257958719
20
2.38542141582991
30
0
41
1
10
113.546171290933
20
2.1633085980354
30
0
41
1
10
113.549844625336
20
1.72665156376846
30
0
41
1
10
113.539904956458
20
1.51211097825151
30
0
41
1
10
113.512878243464
20
1.24936333013841
30
0
41
1
10
113.506742640436
20
1.1970321061473
30
0
41
1
10
113.493086327786
20
1.09317182479546
30
0
41
1
10
113.470589458722
20
0.939039215416045
30
0
41
1
10
113.442404408257
20
0.789818338559712
30
0
41
1
10
113.379397149832
20
0.497765778341318
30
0
41
1
10
113.32857919826
20
0.311571085219271
30
0
41
1
10
113.213901893813
20
-0.0444736991516095
30
0
41
1
10
113.150052170823
20
-0.214328583334719
30
0
41
1
10
113.064210547769
20
-0.416589422270249
30
0
41
1
10
113.046722690168
20
-0.456570407870089
30
0
41
1
10
113.011246612128
20
-0.535371628490822
30
0
41
1
10
112.957368269695
20
-0.65164395575303
30
0
41
1
10
112.901703570235
20
-0.762241594295773
30
0
41
1
10
112.788424716404
20
-0.976098256014922
30
0
41
1
10
112.710331994584
20
-1.10890494904569
30
0
41
1
10
112.550514718109
20
-1.35564369976322
30
0
41
1
10
112.468779359444
20
-1.46957220619055
30
0
41
1
10
112.36483199898
20
-1.60020563170946
30
0
41
1
10
112.343952296964
20
-1.62574207423344
30
0
41
1
10
112.302020199879
20
-1.67562961529657
30
0
41
1
10
112.280953420956
20
-1.69999553179508
30
0
41
1
10
112.217775101431
20
-1.77100728850453
30
0
41
1
10
112.175606136148
20
-1.81566752460373
30
0
41
1
10
112.049014934232
20
-1.94178632010573
30
0
41
1
10
111.964514673074
20
-2.01539917906135
30
0
41
1
10
111.795455332725
20
-2.14222268799102
30
0
41
1
10
111.710893618296
20
-2.19543122888592
30
0
41
1
10
111.541685258567
20
-2.28147399696687
30
0
41
1
10
111.457037408297
20
-2.3143082379797
30
0
41
1
10
111.351086073278
20
-2.34234481004046
30
0
41
1
10
111.329875290136
20
-2.34730189939279
30
0
41
1
10
111.287627085078
20
-2.35586858418395
30
0
41
1
10
111.224448389623
20
-2.36671713252471
30
0
41
1
10
111.161829827636
20
-2.37162807976037
30
0
41
1
10
111.037284658704
20
-2.37366781755665
30
0
41
1
10
110.955176959061
20
-2.36466464046214
30
0
41
1
10
110.792517788229
20
-2.32630898458433
30
0
41
1
10
110.631414828336
20
-2.26760171910263
30
0
41
1
10
110.472857140044
20
-2.16811807722618
30
0
41
1
10
110.374375622286
20
-2.09291825676402
30
0
41
1
10
110.354725157303
20
-2.0772367212686
30
0
41
1
10
110.315585664799
20
-2.04465250739514
30
0
41
1
10
110.257085227419
20
-1.9939188927938
30
0
41
1
10
110.199186434581
20
-1.93763170357454
30
0
41
1
10
110.160833750314
20
-1.89764360218985
30
0
0
SPLINE
5
C7
100
AcDbEntity
8
1
62
256
6
ByLayer
370
18
48
1
60
0
100
AcDbSpline
70
4
71
3
72
22
73
18
40
0
40
0
40
0
40
0
40
0.0035705770666065
40
0.0035705770666065
40
0.086606362311056
40
0.086606362311056
40
0.169642147555505
40
0.169642147555505
40
0.335713718044404
40
0.335713718044404
40
0.667856859022202
40
0.667856859022202
40
0.750892644266652
40
0.750892644266652
40
0.833928429511101
40
0.833928429511101
40
1
40
1
40
1
40
1
41
1
10
100.933616381709
20
13.2938391022965
30
0
41
1
10
100.944593954792
20
13.2938410684238
30
0
41
1
10
100.95557140654
20
13.2938412195179
30
0
41
1
10
101.221832755942
20
13.293800849287
30
0
41
1
10
101.477080683656
20
13.2927786061136
30
0
41
1
10
101.987670559676
20
13.2887833298486
30
0
41
1
10
102.242992840523
20
13.2858109736419
30
0
41
1
10
103.009000528204
20
13.2739863614276
30
0
41
1
10
103.519721730112
20
13.2622277818942
30
0
41
1
10
105.051908044562
20
13.2153635351133
30
0
41
1
10
106.073381894464
20
13.1687067810126
30
0
41
1
10
107.349816843063
20
13.0906293968135
30
0
41
1
10
107.605101705834
20
13.0740293252459
30
0
41
1
10
108.115868477732
20
13.0389646593171
30
0
41
1
10
108.371334608902
20
13.0204940364897
30
0
41
1
10
109.137938974126
20
12.9622623253076
30
0
41
1
10
109.649275597822
20
12.9196789440815
30
0
41
1
10
110.160833750302
20
12.8733174400928
30
0
0
SPLINE
5
C8
100
AcDbEntity
8
1
62
256
6
ByLayer
370
18
48
1
60
0
100
AcDbSpline
70
4
71
3
72
44
73
40
40
0
40
0
40
0
40
0
40
0.0239391561407642
40
0.0239391561407642
40
0.0753107795017765
40
0.0753107795017765
40
0.100996591182283
40
0.100996591182283
40
0.126682402862789
40
0.126682402862789
40
0.178054026223801
40
0.178054026223801
40
0.280797272945822
40
0.280797272945822
40
0.332168896306831
40
0.332168896306831
40
0.357854707987336
40
0.357854707987336
40
0.38354051966784
40
0.38354051966784
40
0.486283766389862
40
0.486283766389862
40
0.537655389750872
40
0.537655389750872
40
0.589027013111883
40
0.589027013111883
40
0.614712824792388
40
0.614712824792388
40
0.640398636472894
40
0.640398636472894
40
0.691770259833908
40
0.691770259833908
40
0.794513506555935
40
0.794513506555935
40
0.845885129916951
40
0.845885129916951
40
0.897256753277966
40
0.897256753277966
40
1
40
1
40
1
40
1
41
1
10
74.2133534943212
20
9.79842383814199
30
0
41
1
10
74.4023826975039
20
9.84413692905372
30
0
41
1
10
74.5914005382366
20
9.88947800267914
30
0
41
1
10
75.1859927208302
20
10.0309587976438
30
0
41
1
10
75.5915035920765
20
10.1257941033776
30
0
41
1
10
76.1996830561008
20
10.265456168852
30
0
41
1
10
76.4024061821706
20
10.3115582262486
30
0
41
1
10
76.8079559276147
20
10.4026690666344
30
0
41
1
10
77.0107759983146
20
10.4476898473025
30
0
41
1
10
77.619350624009
20
10.5811923620008
30
0
41
1
10
78.0252166821614
20
10.668123528307
30
0
41
1
10
79.2431498659936
20
10.9228909016148
30
0
41
1
10
80.0548782775645
20
11.0845379810476
30
0
41
1
10
81.2718393268527
20
11.3151295525056
30
0
41
1
10
81.6773842528543
20
11.3900147076958
30
0
41
1
10
82.2855144470136
20
11.4993757594912
30
0
41
1
10
82.4881979282786
20
11.5353277036557
30
0
41
1
10
82.8936183656936
20
11.606083862216
30
0
41
1
10
83.0963629646529
20
11.6408786600281
30
0
41
1
10
84.110232613727
20
11.8119873441769
30
0
41
1
10
84.9217483782002
20
11.9397880436467
30
0
41
1
10
86.1393399786107
20
12.1183344885622
30
0
41
1
10
86.5453068360403
20
12.1756576305355
30
0
41
1
10
87.3570819112845
20
12.2859085199493
30
0
41
1
10
87.7627930542942
20
12.3388234431864
30
0
41
1
10
88.3710575388138
20
12.4148875473186
30
0
41
1
10
88.5737582987111
20
12.439693420721
30
0
41
1
10
88.9791440459066
20
12.4881184435364
30
0
41
1
10
89.1818418381182
20
12.511726349438
30
0
41
1
10
89.7899860356869
20
12.5807164180439
30
0
41
1
10
90.1954589098315
20
12.6242887512296
30
0
41
1
10
91.4118764905579
20
12.74791444056
30
0
41
1
10
92.2228460069919
20
12.8208698645374
30
0
41
1
10
93.4390578766512
20
12.9162885871291
30
0
41
1
10
93.844420307833
20
12.9457557809442
30
0
41
1
10
94.6550133110535
20
12.999993358984
30
0
41
1
10
95.0602015305608
20
13.0247745123077
30
0
41
1
10
96.2764604274709
20
13.0916281476551
30
0
41
1
10
97.0880043242355
20
13.1263684251945
30
0
41
1
10
97.9
20
13.151451863892
30
0
0
SPLINE
5
C9
100
AcDbEntity
8
1
62
256
6
ByLayer
370
18
48
1
60
0
100
AcDbSpline
70
4
71
3
72
79
73
75
40
0
40
0
40
0
40
0
40
0.0259315924245241
40
0.0259315924245241
40
0.0518631848490482
40
0.0518631848490482
40
0.064828981061311
40
0.064828981061311
40
0.0777947772735738
40
0.103726369698099
40
0.103726369698099
40
0.155589554547149
40
0.155589554547149
40
0.168555350759412
40
0.168555350759412
40
0.181521146971675
40
0.181521146971675
40
0.207452739396199
40
0.207452739396199
40
0.259315924245246
40
0.259315924245246
40
0.285247516669769
40
0.285247516669769
40
0.311179109094292
40
0.311179109094292
40
0.337110701518816
40
0.337110701518816
40
0.363042293943339
40
0.363042293943339
40
0.414905478792386
40
0.414905478792386
40
0.440837071216908
40
0.440837071216908
40
0.466768663641431
40
0.466768663641431
40
0.492700256065954
40
0.492700256065954
40
0.518631848490476
40
0.518631848490476
40
0.544563440914999
40
0.544563440914999
40
0.55752923712726
40
0.55752923712726
40
0.570495033339522
40
0.570495033339522
40
0.622358218188564
40
0.622358218188564
40
0.648289810613086
40
0.648289810613086
40
0.661255606825347
40
0.661255606825347
40
0.674221403037608
40
0.674221403037608
40
0.70015299546213
40
0.70015299546213
40
0.726084587886653
40
0.726084587886653
40
0.777947772735698
40
0.777947772735698
40
0.790913568947959
40
0.790913568947959
40
0.80387936516022
40
0.80387936516022
40
0.829810957584741
40
0.829810957584741
40
0.881674142433785
40
0.881674142433785
40
0.907605734858306
40
0.907605734858306
40
0.933537327282828
40
0.933537327282828
40
0.985400512131871
40
0.985400512131871
40
1
40
1
40
1
40
1
41
1
10
97.9
20
2.48809706145283
30
0
41
1
10
97.4636030070942
20
2.64269783581452
30
0
41
1
10
97.0273214792622
20
2.79676760590419
30
0
41
1
10
96.1550299472068
20
3.10395080896211
30
0
41
1
10
95.7190346296193
20
3.25710350959488
30
0
41
1
10
95.0652134168282
20
3.48601930283036
30
0
41
1
10
94.847287716061
20
3.56215151657722
30
0
41
1
10
94.4113837044629
20
3.71385177353332
30
0
41
1
10
93.7574731984927
20
3.94062155275262
30
0
41
1
10
93.1034217953898
20
4.16511894540838
30
0
41
1
10
91.7951724537941
20
4.61120482407855
30
0
41
1
10
90.9228047214295
20
4.90470640191137
30
0
41
1
10
89.8322736767507
20
5.26716012257302
30
0
41
1
10
89.614147766334
20
5.3394340511347
30
0
41
1
10
89.1779740555896
20
5.48351746423276
30
0
41
1
10
88.9599392476493
20
5.55532925412797
30
0
41
1
10
88.3058610945814
20
5.76974509578358
30
0
41
1
10
87.8697946057945
20
5.9112070534903
30
0
41
1
10
86.5615589571854
20
6.33120499138317
30
0
41
1
10
85.6893685818029
20
6.60539928778053
30
0
41
1
10
84.3812134856609
20
7.0084455014516
30
0
41
1
10
83.945186364193
20
7.14142464275335
30
0
41
1
10
83.0732142645458
20
7.40470078696873
30
0
41
1
10
82.6373224784443
20
7.53511607283792
30
0
41
1
10
81.765175950796
20
7.79222933566325
30
0
41
1
10
81.3288649594494
20
7.91896663441344
30
0
41
1
10
80.4562565706538
20
8.16877072289313
30
0
41
1
10
80.020000197328
20
8.29182432048816
30
0
41
1
10
78.7114140460105
20
8.65554713736452
30
0
41
1
10
77.8392696304683
20
8.89079630432693
30
0
41
1
10
76.5316391222953
20
9.23315873283332
30
0
41
1
10
76.0958535366719
20
9.34550514751152
30
0
41
1
10
75.2239328213279
20
9.56560909771295
30
0
41
1
10
74.7878545824873
20
9.67348329267389
30
0
41
1
10
73.91549445778
20
9.88495919779226
30
0
41
1
10
73.479211580306
20
9.98855901893788
30
0
41
1
10
72.6064687690262
20
10.1915360415069
30
0
41
1
10
72.1701142923154
20
10.2908889201391
30
0
41
1
10
71.2977673178552
20
10.4853157130323
30
0
41
1
10
70.8617396639889
20
10.5804144270976
30
0
41
1
10
70.2078943951685
20
10.7198257690574
30
0
41
1
10
69.9899693605726
20
10.7657408494429
30
0
41
1
10
69.5540709546222
20
10.8563094192997
30
0
41
1
10
69.3361040577164
20
10.9009739062206
30
0
41
1
10
68.2461917463436
20
11.1212276949637
30
0
41
1
10
67.3740156775726
20
11.2876325729235
30
0
41
1
10
66.0655538310372
20
11.5228621654408
30
0
41
1
10
65.629368422571
20
11.5988745206573
30
0
41
1
10
64.9750714782795
20
11.7093134333094
30
0
41
1
10
64.7569690980909
20
11.7455292114929
30
0
41
1
10
64.3207610701851
20
11.8167648115781
30
0
41
1
10
64.102706655552
20
11.851782947239
30
0
41
1
10
63.4486024917629
20
11.9548893699453
30
0
41
1
10
63.0125344856723
20
12.0209532725115
30
0
41
1
10
62.1403638621464
20
12.1477397605098
30
0
41
1
10
61.7042728394596
20
12.2084762632386
30
0
41
1
10
60.3960213053372
20
12.3827930172967
30
0
41
1
10
59.523879035749
20
12.4884947765449
30
0
41
1
10
58.4339163971664
20
12.607556896554
30
0
41
1
10
58.2159370656807
20
12.6307166235518
30
0
41
1
10
57.7799895826724
20
12.6757116857881
30
0
41
1
10
57.5620172490175
20
12.6975430593119
30
0
41
1
10
56.9079568563668
20
12.7609272543693
30
0
41
1
10
56.4717062456265
20
12.8003909210136
30
0
41
1
10
55.1627333138527
20
12.9104651326303
30
0
41
1
10
54.2902765014441
20
12.9727308562298
30
0
41
1
10
52.9820680732177
20
13.0496003474053
30
0
41
1
10
52.5460809564229
20
13.072465708389
30
0
41
1
10
51.6743023291472
20
13.1126525032551
30
0
41
1
10
51.2385291866244
20
13.1299705746908
30
0
41
1
10
49.9307066368456
20
13.1733493470887
30
0
41
1
10
49.0583610878643
20
13.1909429877441
30
0
41
1
10
47.9400047532737
20
13.1990951780142
30
0
41
1
10
47.6943228803028
20
13.1999942146215
30
0
41
1
10
47.4486691667223
20
13.2000000659551
30
0
0
SPLINE
5
CA
100
AcDbEntity
8
1
62
256
6
ByLayer
370
18
48
1
60
0
100
AcDbSpline
70
4
71
3
72
10
73
6
40
0
40
0
40
0
40
0
40
0.505433478630024
40
0.505433478630024
40
1
40
1
40
1
40
1
41
1
10
97.9
20
-13.2474800244073
30
0
41
1
10
98.4115706220832
20
-13.2629814238309
30
0
41
1
10
98.9229355693844
20
-13.2745990494179
30
0
41
1
10
99.9341615544279
20
-13.2899007297055
30
0
41
1
10
100.434014594971
20
-13.2937496212973
30
0
41
1
10
100.933616318367
20
-13.2938391022852
30
0
0
SPLINE
5
CB
100
AcDbEntity
8
1
62
256
6
ByLayer
370
18
48
1
60
0
100
AcDbSpline
70
4
71
3
72
126
73
122
40
0
40
0
40
0
40
0
40
0.0312499999999983
40
0.0312499999999983
40
0.0624999999999967
40
0.0624999999999967
40
0.0781249999999956
40
0.0781249999999956
40
0.0859374999999949
40
0.0859374999999949
40
0.0937499999999941
40
0.0937499999999941
40
0.109374999999993
40
0.109374999999993
40
0.124999999999991
40
0.124999999999991
40
0.156249999999987
40
0.156249999999987
40
0.164062499999987
40
0.164062499999987
40
0.171874999999986
40
0.171874999999986
40
0.187499999999984
40
0.187499999999984
40
0.203124999999983
40
0.203124999999983
40
0.218749999999981
40
0.218749999999981
40
0.234374999999979
40
0.234374999999979
40
0.242187499999979
40
0.242187499999979
40
0.249999999999978
40
0.249999999999978
40
0.281249999999975
40
0.281249999999975
40
0.312499999999971
40
0.312499999999971
40
0.32812499999997
40
0.32812499999997
40
0.343749999999969
40
0.343749999999969
40
0.374999999999966
40
0.374999999999966
40
0.390624999999965
40
0.390624999999965
40
0.398437499999965
40
0.398437499999965
40
0.406249999999965
40
0.406249999999965
40
0.421874999999964
40
0.421874999999964
40
0.437499999999963
40
0.437499999999963
40
0.468749999999962
40
0.468749999999962
40
0.476562499999962
40
0.476562499999962
40
0.484374999999962
40
0.484374999999962
40
0.499999999999962
40
0.499999999999962
40
0.531249999999963
40
0.531249999999963
40
0.546874999999964
40
0.546874999999964
40
0.554687499999964
40
0.554687499999964
40
0.562499999999965
40
0.562499999999965
40
0.593749999999967
40
0.593749999999967
40
0.624999999999969
40
0.624999999999969
40
0.632812499999969
40
0.632812499999969
40
0.640624999999969
40
0.640624999999969
40
0.64843749999997
40
0.64843749999997
40
0.65624999999997
40
0.65624999999997
40
0.687499999999973
40
0.687499999999973
40
0.703124999999974
40
0.703124999999974
40
0.718749999999975
40
0.718749999999975
40
0.726562499999975
40
0.726562499999975
40
0.734374999999976
40
0.734374999999976
40
0.749999999999977
40
0.749999999999977
40
0.781249999999979
40
0.781249999999979
40
0.796874999999981
40
0.796874999999981
40
0.804687499999982
40
0.804687499999982
40
0.812499999999982
40
0.812499999999982
40
0.843749999999985
40
0.843749999999985
40
0.859374999999987
40
0.859374999999987
40
0.874999999999988
40
0.874999999999988
40
0.88281249999999
40
0.88281249999999
40
0.890624999999991
40
0.890624999999991
40
0.906249999999992
40
0.906249999999992
40
0.937499999999994
40
0.937499999999994
40
0.953124999999996
40
0.953124999999996
40
0.968749999999997
40
0.968749999999997
40
1
40
1
40
1
40
1
41
1
10
20.012580836122
20
7.95901614860696
30
0
41
1
10
20.8239100432409
20
7.72399483747017
30
0
41
1
10
21.6354145358171
20
7.48433284221195
30
0
41
1
10
23.2583410096558
20
6.99494263397395
30
0
41
1
10
24.0697676306619
20
6.74522442432752
30
0
41
1
10
25.2865503524388
20
6.36235987411584
30
0
41
1
10
25.692073396548
20
6.23332617585373
30
0
41
1
10
26.3002726439683
20
6.03768949061936
30
0
41
1
10
26.5030016391345
20
5.97215406758991
30
0
41
1
10
26.9085629182432
20
5.84071402940074
30
0
41
1
10
27.1113899226426
20
5.77479678607307
30
0
41
1
10
27.7199888407351
20
5.57640594681163
30
0
41
1
10
28.1259138906243
20
5.44326873574661
30
0
41
1
10
28.9378210859635
20
5.17517312743843
30
0
41
1
10
29.3437205727978
20
5.04025257867377
30
0
41
1
10
30.5611939448289
20
4.63271562237489
30
0
41
1
10
31.3725322157236
20
4.35730181302475
30
0
41
1
10
32.3860824149068
20
4.00771660748904
30
0
41
1
10
32.5887656468262
20
3.93754443074349
30
0
41
1
10
32.9941836407002
20
3.79696801838634
30
0
41
1
10
33.1969273650714
20
3.72658782254797
30
0
41
1
10
33.8052513590985
20
3.51514471894737
30
0
41
1
10
34.2109162957537
20
3.37375799087854
30
0
41
1
10
35.0223990889573
20
3.0899353745414
30
0
41
1
10
35.4282213832493
20
2.94751126948333
30
0
41
1
10
36.2399875516023
20
2.66152956387543
30
0
41
1
10
36.6459882906038
20
2.51794801643578
30
0
41
1
10
37.4577383849079
20
2.2296133456469
30
0
41
1
10
37.8634703633703
20
2.08486713356504
30
0
41
1
10
38.4718161450176
20
1.86677381637367
30
0
41
1
10
38.6745515502742
20
1.79390128600602
30
0
41
1
10
39.0800196754484
20
1.64805508533823
30
0
41
1
10
39.2827652815135
20
1.57511692525603
30
0
41
1
10
40.2966250571949
20
1.2105562925953
30
0
41
1
10
41.1079965372327
20
0.918946270980598
30
0
41
1
10
42.7308469923046
20
0.334548084867777
30
0
41
1
10
43.5423419663468
20
0.0418041164105034
30
0
41
1
10
44.7593913799464
20
-0.398971616737015
30
0
41
1
10
45.1650516413021
20
-0.546319955088904
30
0
41
1
10
45.9764801317268
20
-0.839778471933954
30
0
41
1
10
46.382235653383
20
-0.986018998437942
30
0
41
1
10
47.5994772475166
20
-1.42369883780879
30
0
41
1
10
48.4109619527546
20
-1.7140330357559
30
0
41
1
10
49.6279015903718
20
-2.14810955796642
30
0
41
1
10
50.0334987535644
20
-2.29256770993885
30
0
41
1
10
50.6417834104657
20
-2.50900027192605
30
0
41
1
10
50.8445218575948
20
-2.58111445080428
30
0
41
1
10
51.2499808074669
20
-2.72520474932
30
0
41
1
10
51.4527064856236
20
-2.7971666954956
30
0
41
1
10
52.0610387740579
20
-3.01235098614168
30
0
41
1
10
52.4667762479915
20
-3.1549388002723
30
0
41
1
10
53.2785076487817
20
-3.43867892577848
30
0
41
1
10
53.6845324750007
20
-3.57983313376485
30
0
41
1
10
54.9022439086436
20
-4.00104653355686
30
0
41
1
10
55.7137894061092
20
-4.27893140166773
30
0
41
1
10
56.7276389205137
20
-4.62326677670472
30
0
41
1
10
56.9303787074065
20
-4.69198488860798
30
0
41
1
10
57.3357988018701
20
-4.82911859935598
30
0
41
1
10
57.5384821695403
20
-4.89752597600219
30
0
41
1
10
58.1466110116451
20
-5.10186016634643
30
0
41
1
10
58.5521717320792
20
-5.23680716253446
30
0
41
1
10
59.769128004809
20
-5.63823492448469
30
0
41
1
10
60.5807916507343
20
-5.90132241940674
30
0
41
1
10
61.7985651197849
20
-6.28981739369638
30
0
41
1
10
62.2045146464338
20
-6.41828947442107
30
0
41
1
10
62.8131156064435
20
-6.6094345093382
30
0
41
1
10
63.0159431035041
20
-6.6728935515026
30
0
41
1
10
63.4215130085794
20
-6.79931071987889
30
0
41
1
10
63.6242512655934
20
-6.86227833587645
30
0
41
1
10
64.6379382489816
20
-7.17536303343152
30
0
41
1
10
65.4492163283656
20
-7.41943147540007
30
0
41
1
10
67.0719689455767
20
-7.89602228581802
30
0
41
1
10
67.8834558009842
20
-8.12851567301848
30
0
41
1
10
68.8977040250769
20
-8.41237251933862
30
0
41
1
10
69.1005481492908
20
-8.46880512292299
30
0
41
1
10
69.506219468204
20
-8.58100129248064
30
0
41
1
10
69.7090398104643
20
-8.63677911506508
30
0
41
1
10
70.114713532859
20
-8.74755622906579
30
0
41
1
10
70.3175715411178
20
-8.80253247240825
30
0
41
1
10
70.7232984871148
20
-8.91147740046335
30
0
41
1
10
70.9261720397464
20
-8.96547100782044
30
0
41
1
10
71.9405561020068
20
-9.2331288701813
30
0
41
1
10
72.7520905451949
20
-9.4399279037809
30
0
41
1
10
73.9691640862002
20
-9.73973833159869
30
0
41
1
10
74.3748162634977
20
-9.83794265414292
30
0
41
1
10
75.1859927208301
20
-10.0309587976438
30
0
41
1
10
75.5915035920765
20
-10.1257941033776
30
0
41
1
10
76.1996830561008
20
-10.265456168852
30
0
41
1
10
76.4024061821705
20
-10.3115582262487
30
0
41
1
10
76.8079559276146
20
-10.4026690666344
30
0
41
1
10
77.0107759983146
20
-10.4476898473025
30
0
41
1
10
77.6193506240089
20
-10.5811923620008
30
0
41
1
10
78.0252166821615
20
-10.6681235283071
30
0
41
1
10
79.2431498659936
20
-10.9228909016148
30
0
41
1
10
80.0548782775645
20
-11.0845379810476
30
0
41
1
10
81.2718393268526
20
-11.3151295525056
30
0
41
1
10
81.6773842528542
20
-11.3900147076958
30
0
41
1
10
82.2855144470135
20
-11.4993757594912
30
0
41
1
10
82.4881979282787
20
-11.5353277036558
30
0
41
1
10
82.8936183656936
20
-11.606083862216
30
0
41
1
10
83.0963629646528
20
-11.6408786600281
30
0
41
1
10
84.1102326137268
20
-11.8119873441769
30
0
41
1
10
84.9217483782001
20
-11.9397880436468
30
0
41
1
10
86.1393399786106
20
-12.1183344885622
30
0
41
1
10
86.5453068360401
20
-12.1756576305355
30
0
41
1
10
87.3570819112842
20
-12.2859085199493
30
0
41
1
10
87.7627930542941
20
-12.3388234431864
30
0
41
1
10
88.3710575388138
20
-12.4148875473186
30
0
41
1
10
88.573758298711
20
-12.439693420721
30
0
41
1
10
88.9791440459065
20
-12.4881184435364
30
0
41
1
10
89.1818418381181
20
-12.511726349438
30
0
41
1
10
89.7899860356869
20
-12.5807164180439
30
0
41
1
10
90.1954589098315
20
-12.6242887512296
30
0
41
1
10
91.4118764905579
20
-12.74791444056
30
0
41
1
10
92.2228460069919
20
-12.8208698645374
30
0
41
1
10
93.4390578766512
20
-12.9162885871291
30
0
41
1
10
93.844420307833
20
-12.9457557809442
30
0
41
1
10
94.6550133110534
20
-12.999993358984
30
0
41
1
10
95.0602015305608
20
-13.0247745123077
30
0
41
1
10
96.2764604274707
20
-13.0916281476551
30
0
41
1
10
97.0880043242354
20
-13.1263684251945
30
0
41
1
10
97.8999999999999
20
-13.151451863892
30
0
0
SPLINE
5
CC
100
AcDbEntity
8
1
62
256
6
ByLayer
370
18
48
1
60
0
100
AcDbSpline
70
4
71
3
72
93
73
89
40
0
40
0
40
0
40
0
40
0.0194796676236162
40
0.0194796676236162
40
0.0412690083430919
40
0.0412690083430919
40
0.0630583490625676
40
0.0630583490625676
40
0.0739530194223055
40
0.0739530194223055
40
0.0848476897820433
40
0.0848476897820433
40
0.128426371220994
40
0.128426371220994
40
0.150215711940469
40
0.150215711940469
40
0.161110382300206
40
0.161110382300206
40
0.172005052659944
40
0.172005052659944
40
0.193794393379419
40
0.193794393379419
40
0.215583734098894
40
0.215583734098894
40
0.259162415537845
40
0.259162415537845
40
0.270057085897582
40
0.270057085897582
40
0.28095175625732
40
0.28095175625732
40
0.302741096976795
40
0.302741096976795
40
0.346319778415746
40
0.346319778415746
40
0.368109119135221
40
0.368109119135221
40
0.389898459854697
40
0.389898459854697
40
0.433477141293648
40
0.433477141293648
40
0.455266482013124
40
0.455266482013124
40
0.477055822732599
40
0.477055822732599
40
0.487950493092337
40
0.487950493092337
40
0.498845163452074
40
0.520634504171549
40
0.520634504171549
40
0.564213185610501
40
0.564213185610501
40
0.575107855970239
40
0.575107855970239
40
0.586002526329977
40
0.586002526329977
40
0.607791867049452
40
0.607791867049452
40
0.651370548488404
40
0.651370548488404
40
0.67315988920788
40
0.67315988920788
40
0.684054559567618
40
0.684054559567618
40
0.694949229927355
40
0.694949229927355
40
0.71673857064683
40
0.71673857064683
40
0.738527911366305
40
0.738527911366305
40
0.782106592805254
40
0.782106592805254
40
0.803895933524728
40
0.803895933524728
40
0.825685274244203
40
0.825685274244203
40
0.847474614963678
40
0.847474614963678
40
0.869263955683153
40
0.869263955683153
40
0.891053296402627
40
0.891053296402627
40
0.901947966762365
40
0.901947966762365
40
0.912842637122102
40
0.912842637122102
40
0.956421318561051
40
0.956421318561051
40
1
40
1
40
1
40
1
41
1
10
74.2129656326833
20
-9.8127739171498
30
0
41
1
10
73.823001373731
20
-9.90689866546992
30
0
41
1
10
73.4329561516363
20
-9.99931681501207
30
0
41
1
10
72.6064687690262
20
-10.1915360415069
30
0
41
1
10
72.1701142923154
20
-10.290888920139
30
0
41
1
10
71.2977673178551
20
-10.4853157130323
30
0
41
1
10
70.8617396639889
20
-10.5804144270976
30
0
41
1
10
70.2078943951685
20
-10.7198257690574
30
0
41
1
10
69.9899693605726
20
-10.7657408494429
30
0
41
1
10
69.5540709546223
20
-10.8563094192997
30
0
41
1
10
69.3361040577165
20
-10.9009739062206
30
0
41
1
10
68.2461917463436
20
-11.1212276949636
30
0
41
1
10
67.3740156775726
20
-11.2876325729235
30
0
41
1
10
66.0655538310373
20
-11.5228621654408
30
0
41
1
10
65.629368422571
20
-11.5988745206573
30
0
41
1
10
64.9750714782794
20
-11.7093134333093
30
0
41
1
10
64.756969098091
20
-11.7455292114929
30
0
41
1
10
64.3207610701851
20
-11.8167648115781
30
0
41
1
10
64.102706655552
20
-11.8517829472389
30
0
41
1
10
63.4486024917629
20
-11.9548893699452
30
0
41
1
10
63.0125344856722
20
-12.0209532725115
30
0
41
1
10
62.1403638621463
20
-12.1477397605098
30
0
41
1
10
61.7042728394596
20
-12.2084762632386
30
0
41
1
10
60.3960213053373
20
-12.3827930172967
30
0
41
1
10
59.523879035749
20
-12.4884947765449
30
0
41
1
10
58.4339163971664
20
-12.607556896554
30
0
41
1
10
58.2159370656806
20
-12.6307166235518
30
0
41
1
10
57.7799895826724
20
-12.6757116857881
30
0
41
1
10
57.5620172490175
20
-12.6975430593119
30
0
41
1
10
56.9079568563668
20
-12.7609272543692
30
0
41
1
10
56.4717062456265
20
-12.8003909210136
30
0
41
1
10
55.1627333138526
20
-12.9104651326303
30
0
41
1
10
54.2902765014442
20
-12.9727308562298
30
0
41
1
10
52.9820680732178
20
-13.0496003474053
30
0
41
1
10
52.546080956423
20
-13.072465708389
30
0
41
1
10
51.6743023291472
20
-13.1126525032551
30
0
41
1
10
51.2385291866244
20
-13.1299705746908
30
0
41
1
10
49.9307066368456
20
-13.1733493470886
30
0
41
1
10
49.0583610878643
20
-13.1909429877441
30
0
41
1
10
47.749321315537
20
-13.2004851532999
30
0
41
1
10
47.3129156655835
20
-13.200852635384
30
0
41
1
10
46.4405116424196
20
-13.1959445855794
30
0
41
1
10
46.0044519681168
20
-13.1906688921469
30
0
41
1
10
45.3505775789677
20
-13.1784907698709
30
0
41
1
10
45.1326499728843
20
-13.1737203953329
30
0
41
1
10
44.6967563804337
20
-13.1627759104139
30
0
41
1
10
44.0428634423836
20
-13.1442547002545
30
0
41
1
10
43.3888348373983
20
-13.1194491675011
30
0
41
1
10
42.080640538041
20
-13.0614922842733
30
0
41
1
10
41.2083200116248
20
-13.0117477208494
30
0
41
1
10
40.1178592265523
20
-12.935527655677
30
0
41
1
10
39.8997640315807
20
-12.9195802814814
30
0
41
1
10
39.4635710782511
20
-12.8862698566868
30
0
41
1
10
39.2454831825076
20
-12.8689028921745
30
0
41
1
10
38.5913462616999
20
-12.8147329418787
30
0
41
1
10
38.1552777333774
20
-12.7759068461738
30
0
41
1
10
36.8469991763212
20
-12.6514601946221
30
0
41
1
10
35.9747928446249
20
-12.5578385629242
30
0
41
1
10
34.6666267335623
20
-12.4013477330391
30
0
41
1
10
34.2305977184156
20
-12.3465016556087
30
0
41
1
10
33.5766203657219
20
-12.2601580664497
30
0
41
1
10
33.3586398878537
20
-12.230696504579
30
0
41
1
10
32.9226990582081
20
-12.170409851607
30
0
41
1
10
32.7047362208546
20
-12.1395866560245
30
0
41
1
10
32.0507241060685
20
-12.0452357579318
30
0
41
1
10
31.6145440314756
20
-11.9798389858206
30
0
41
1
10
30.7418759653327
20
-11.8440489055012
30
0
41
1
10
30.3055722293977
20
-11.7736845561949
30
0
41
1
10
28.9968890700291
20
-11.5551824527808
30
0
41
1
10
28.124694038445
20
-11.399645355803
30
0
41
1
10
26.8170120501829
20
-11.1511203011706
30
0
41
1
10
26.3812549970401
20
-11.0656782939739
30
0
41
1
10
25.5094334395801
20
-10.8904649203491
30
0
41
1
10
25.0734081644997
20
-10.8006417245447
30
0
41
1
10
24.2011625323833
20
-10.6165393870979
30
0
41
1
10
23.7649412095271
20
-10.5222617282832
30
0
41
1
10
22.8923291405467
20
-10.3292126522736
30
0
41
1
10
22.4558875725755
20
-10.2304290095642
30
0
41
1
10
21.583397983938
20
-10.0284026313546
30
0
41
1
10
21.1472983409494
20
-9.92514524962525
30
0
41
1
10
20.4933838916942
20
-9.76683962948297
30
0
41
1
10
20.2754494776675
20
-9.71350433148748
30
0
41
1
10
19.8395606658076
20
-9.60587667472242
30
0
41
1
10
19.6216010249993
20
-9.55159480218171
30
0
41
1
10
18.5317342966505
20
-9.2778429395552
30
0
41
1
10
17.6596323305649
20
-9.0513388273105
30
0
41
1
10
15.9152177952484
20
-8.58301312836994
30
0
41
1
10
15.0429031084525
20
-8.34119865739581
30
0
41
1
10
14.1706357108978
20
-8.09127662697287
30
0
0
SPLINE
5
CD
100
AcDbEntity
8
1
62
256
6
ByLayer
370
18
48
1
60
0
100
AcDbSpline
70
4
71
3
72
101
73
97
40
0
40
0
40
0
40
0
40
0.0624999999999962
40
0.0624999999999962
40
0.0937499999999943
40
0.0937499999999943
40
0.124999999999992
40
0.124999999999992
40
0.15624999999999
40
0.15624999999999
40
0.187499999999989
40
0.187499999999989
40
0.195312499999989
40
0.195312499999989
40
0.203124999999989
40
0.218749999999988
40
0.218749999999988
40
0.249999999999987
40
0.249999999999987
40
0.281249999999986
40
0.281249999999986
40
0.296874999999986
40
0.296874999999986
40
0.304687499999987
40
0.304687499999987
40
0.312499999999987
40
0.312499999999987
40
0.34374999999999
40
0.34374999999999
40
0.374999999999993
40
0.374999999999993
40
0.390624999999995
40
0.390624999999995
40
0.394531249999995
40
0.394531249999995
40
0.398437499999995
40
0.398437499999995
40
0.406249999999995
40
0.406249999999995
40
0.437499999999997
40
0.437499999999997
40
0.468749999999998
40
0.468749999999998
40
0.484374999999999
40
0.484374999999999
40
0.488281249999999
40
0.488281249999999
40
0.4921875
40
0.4921875
40
0.5
40
0.5
40
0.531250000000001
40
0.531250000000001
40
0.562500000000002
40
0.562500000000002
40
0.570312500000003
40
0.570312500000003
40
0.578125000000003
40
0.578125000000003
40
0.593750000000003
40
0.593750000000003
40
0.625000000000003
40
0.625000000000003
40
0.640625000000002
40
0.640625000000002
40
0.648437500000002
40
0.648437500000002
40
0.656250000000002
40
0.656250000000002
40
0.687500000000002
40
0.687500000000002
40
0.718750000000002
40
0.718750000000002
40
0.750000000000002
40
0.750000000000002
40
0.757812500000002
40
0.757812500000002
40
0.765625000000001
40
0.765625000000001
40
0.78125
40
0.78125
40
0.8125
40
0.8125
40
0.843750000000001
40
0.843750000000001
40
0.875000000000001
40
0.875000000000001
40
0.906250000000001
40
0.906250000000001
40
0.937500000000001
40
0.937500000000001
40
0.953125000000001
40
0.953125000000001
40
0.968750000000001
40
0.968750000000001
40
1
40
1
40
1
40
1
41
1
10
10
20
8.42027702307297
30
0
41
1
10
9.54305377256719
20
8.36769711631518
30
0
41
1
10
9.09919967724431
20
8.29191821872652
30
0
41
1
10
8.45265353084289
20
8.14003582618435
30
0
41
1
10
8.24035036395259
20
8.08301973288167
30
0
41
1
10
7.8221916012065
20
7.95535097536006
30
0
41
1
10
7.61633540200012
20
7.8847007058416
30
0
41
1
10
7.21117030512926
20
7.72864584854074
30
0
41
1
10
7.01186044517743
20
7.64324504272298
30
0
41
1
10
6.61998795516107
20
7.45621964120923
30
0
41
1
10
6.42742373361136
20
7.35460123412224
30
0
41
1
10
6.19114621401476
20
7.21620958592376
30
0
41
1
10
6.14410871314735
20
7.18795681938417
30
0
41
1
10
6.05091734444062
20
7.13054924978383
30
0
41
1
10
5.91229155402834
20
7.04298995480588
30
0
41
1
10
5.77715305222478
20
6.9510313903491
30
0
41
1
10
5.51155652009567
20
6.76107129934593
30
0
41
1
10
5.34072327336736
20
6.62638794280315
30
0
41
1
10
5.01188986653625
20
6.33969361127288
30
0
41
1
10
4.85388604777111
20
6.18768901858022
30
0
41
1
10
4.62704000209513
20
5.94537088026908
30
0
41
1
10
4.55312096541803
20
5.86220832286239
30
0
41
1
10
4.44488738568009
20
5.73366272157654
30
0
41
1
10
4.4092126130401
20
5.69013215344629
30
0
41
1
10
4.33894579142304
20
5.60198882461003
30
0
41
1
10
4.30440707635017
20
5.55744581047247
30
0
41
1
10
4.13469241746844
20
5.33235044109946
30
0
41
1
10
4.00843033923658
20
5.14467455234285
30
0
41
1
10
3.77541663643876
20
4.75325747759479
30
0
41
1
10
3.66865866099309
20
4.54952224072858
30
0
41
1
10
3.52402385362245
20
4.23082867419933
30
0
41
1
10
3.47840177085857
20
4.12241103695348
30
0
41
1
10
3.42475504301518
20
3.98400371473073
30
0
41
1
10
3.41419490197316
20
3.95617785361017
30
0
41
1
10
3.3934173013817
20
3.9002329746709
30
0
41
1
10
3.38319695837396
20
3.87210453413198
30
0
41
1
10
3.35316710444698
20
3.7875908392102
30
0
41
1
10
3.33395028869958
20
3.73097609966766
30
0
41
1
10
3.24186075248258
20
3.44654161428386
30
0
41
1
10
3.18093569913472
20
3.21464966116434
30
0
41
1
10
3.08461783729388
20
2.74203173707315
30
0
41
1
10
3.04922107269499
20
2.5013072817647
30
0
41
1
10
3.01602736746335
20
2.1332774896002
30
0
41
1
10
3.00828759090717
20
2.009441391883
30
0
41
1
10
3.00291403617666
20
1.85314386363876
30
0
41
1
10
3.0020545758419
20
1.82180917981535
30
0
41
1
10
3.00077058039932
20
1.75898789043538
30
0
41
1
10
3.00034652194975
20
1.72749197865517
30
0
41
1
10
2.99973327480032
20
1.63317688357364
30
0
41
1
10
3.00019935135867
20
1.57039873901283
30
0
41
1
10
3.00683987865094
20
1.25699371874916
30
0
41
1
10
3.02590342672073
20
1.00781911509534
30
0
41
1
10
3.09058125665172
20
0.512465266405741
30
0
41
1
10
3.13620044606438
20
0.266286582257862
30
0
41
1
10
3.20982951569655
20
-0.039558380051858
30
0
41
1
10
3.22538775722939
20
-0.100633197518079
30
0
41
1
10
3.2581777986502
20
-0.222593333092334
30
0
41
1
10
3.2753439266931
20
-0.283230928975712
30
0
41
1
10
3.32901764838522
20
-0.463830062929901
30
0
41
1
10
3.36773543754521
20
-0.582615805780591
30
0
41
1
10
3.49234525616197
20
-0.934345899022986
30
0
41
1
10
3.58667316024636
20
-1.16267417496951
30
0
41
1
10
3.74410535191913
20
-1.49653870181916
30
0
41
1
10
3.79924508624953
20
-1.60638587542658
30
0
41
1
10
3.88587334790515
20
-1.76904832746908
30
0
41
1
10
3.91540280255765
20
-1.82291762201371
30
0
41
1
10
3.97575881255659
20
-1.92996050821716
30
0
41
1
10
4.00653509635879
20
-1.98304147446549
30
0
41
1
10
4.1627779918548
20
-2.24535927002566
30
0
41
1
10
4.29583390450048
20
-2.4463020126679
30
0
41
1
10
4.57646230466406
20
-2.83243705259002
30
0
41
1
10
4.72404244753227
20
-3.01762065514618
30
0
41
1
10
5.03254606392767
20
-3.3737745860879
30
0
41
1
10
5.19347439696134
20
-3.54473956630795
30
0
41
1
10
5.40238381962072
20
-3.75033270461077
30
0
41
1
10
5.4445535384553
20
-3.79104512171725
30
0
41
1
10
5.52965504310464
20
-3.87167496801641
30
0
41
1
10
5.57262551057505
20
-3.9116274596976
30
0
41
1
10
5.70236425873057
20
-4.03004907107021
30
0
41
1
10
5.7898464840913
20
-4.1069867639589
30
0
41
1
10
6.0550756554145
20
-4.33221014935987
30
0
41
1
10
6.23560148066093
20
-4.47491781385042
30
0
41
1
10
6.60318527113668
20
-4.74745174021015
30
0
41
1
10
6.79024482867126
20
-4.87727392514333
30
0
41
1
10
7.17011767616674
20
-5.1256998073813
30
0
41
1
10
7.36293145955031
20
-5.24430158956582
30
0
41
1
10
7.75360036196452
20
-5.47171218928688
30
0
41
1
10
7.95145504567944
20
-5.58052064676403
30
0
41
1
10
8.35155906738362
20
-5.78956475164918
30
0
41
1
10
8.5538071817185
20
-5.88980116031434
30
0
41
1
10
8.86005874995402
20
-6.03448146145763
30
0
41
1
10
8.96266610673177
20
-6.08177958665178
30
0
41
1
10
9.16849455660963
20
-6.17445464738805
30
0
41
1
10
9.27172970221579
20
-6.21983941877536
30
0
41
1
10
9.58234032026382
20
-6.35329261538305
30
0
41
1
10
9.79061528245779
20
-6.43867083148839
30
0
41
1
10
10
20
-6.52074925779957
30
0
0
SPLINE
5
CE
100
AcDbEntity
8
1
62
256
6
ByLayer
370
18
48
1
60
0
100
AcDbSpline
70
4
71
3
72
14
73
10
40
0
40
0
40
0
40
0
40
0.25
40
0.25
40
0.5
40
0.5
40
0.75
40
0.75
40
1
40
1
40
1
40
1
41
1
10
14.1706357108979
20
-8.0912766269729
30
0
41
1
10
13.8123422606043
20
-7.98545355498189
30
0
41
1
10
13.457182004107
20
-7.87300864719211
30
0
41
1
10
12.7519918048802
20
-7.63622832662702
30
0
41
1
10
12.4019554425829
20
-7.51190940894924
30
0
41
1
10
11.7066836420241
20
-7.25136441689253
30
0
41
1
10
11.3614503126796
20
-7.1151413564366
30
0
41
1
10
10.6763584601849
20
-6.82904062608634
30
0
41
1
10
10.336507695616
20
-6.6791556519803
30
0
41
1
10
10
20
-6.52074925779957
30
0
0
SPLINE
5
CF
100
AcDbEntity
8
1
62
256
6
ByLayer
370
18
48
1
60
0
100
AcDbSpline
70
4
71
4
72
16
73
11
40
0
40
0
40
0
40
0
40
0
40
0.297899736506096
40
0.297899736506096
40
0.297899736506096
40
0.702100263493908
40
0.702100263493908
40
0.702100263493908
40
1
40
1
40
1
40
1
40
1
41
0.997302691446342
10
20.012580836122
20
7.95901614860697
30
0
41
0.994871846512633
10
19.8545200470286
20
7.53525519805598
30
0
41
0.993500197779417
10
19.5441777137814
20
6.69266246300655
30
0
41
1
10
19.0911211856974
20
5.45569294261668
30
0
41
1
10
17.9510341664289
20
2.33553581337822
30
0
41
0.988033871712585
10
17.0916082735098
20
-0.0219631142419343
30
0
41
1
10
16.2321823805909
20
-2.38687663815423
30
0
41
1
10
15.0920953613224
20
-5.53132147167247
30
0
41
0.993500197779417
10
14.6390388332384
20
-6.7838275501677
30
0
41
0.994871846512632
10
14.3286964999911
20
-7.64651797081486
30
0
41
0.997302691446341
10
14.1706357108978
20
-8.09127662697284
30
0
0
SPLINE
5
D0
100
AcDbEntity
8
1
62
256
6
ByLayer
370
18
48
1
60
0
100
AcDbSpline
70
4
71
3
72
27
73
23
40
0
40
0
40
0
40
0
40
0.124999999999996
40
0.124999999999996
40
0.249999999999992
40
0.249999999999992
40
0.374999999999988
40
0.374999999999988
40
0.437499999999984
40
0.437499999999984
40
0.453124999999985
40
0.453124999999985
40
0.468749999999986
40
0.499999999999984
40
0.499999999999984
40
0.624999999999988
40
0.624999999999988
40
0.749999999999992
40
0.749999999999992
40
0.874999999999996
40
0.874999999999996
40
1
40
1
40
1
40
1
41
1
10
10
20
8.42027702307297
30
0
41
1
10
10.4089115648931
20
8.52840316029864
30
0
41
1
10
10.821297076025
20
8.61639764399519
30
0
41
1
10
11.6525238294694
20
8.75719314289336
30
0
41
1
10
12.0713689756899
20
8.80996375662266
30
0
41
1
10
12.9152514075092
20
8.88307962681404
30
0
41
1
10
13.3402917739513
20
8.90340476714408
30
0
41
1
10
13.9823867627262
20
8.91053390401339
30
0
41
1
10
14.197174818823
20
8.90900722418334
30
0
41
1
10
14.466595719978
20
8.90226388100413
30
0
41
1
10
14.5205264087911
20
8.90067289211777
30
0
41
1
10
14.6281679078231
20
8.89702035165323
30
0
41
1
10
14.7894186159945
20
8.89083302628492
30
0
41
1
10
14.9500446608514
20
8.88255023671584
30
0
41
1
10
15.4841197568276
20
8.85040849746468
30
0
41
1
10
15.9070763463278
20
8.81021103781404
30
0
41
1
10
16.745452565816
20
8.7036008041074
30
0
41
1
10
17.1608688692514
20
8.63716824134448
30
0
41
1
10
17.9852776349362
20
8.48066792207095
30
0
41
1
10
18.3942715151385
20
8.39059693739509
30
0
41
1
10
19.2070413198537
20
8.18966523219754
30
0
41
1
10
19.6108253677757
20
8.07882816939019
30
0
41
1
10
20.0125808361221
20
7.95901614860693
30
0
0
SPLINE
5
D1
100
AcDbEntity
8
1
62
256
6
ByLayer
370
13
48
1
60
0
100
AcDbSpline
70
4
71
3
72
80
73
76
40
0
40
0
40
0
40
0
40
0.0312500000000005
40
0.0312500000000005
40
0.0625000000000011
40
0.0625000000000011
40
0.0937500000000016
40
0.0937500000000016
40
0.125000000000002
40
0.125000000000002
40
0.156250000000003
40
0.156250000000003
40
0.187500000000003
40
0.187500000000003
40
0.218750000000004
40
0.218750000000004
40
0.250000000000004
40
0.250000000000004
40
0.265625000000005
40
0.265625000000005
40
0.269531250000005
40
0.269531250000005
40
0.273437500000005
40
0.281250000000005
40
0.281250000000005
40
0.312500000000005
40
0.312500000000005
40
0.343750000000005
40
0.343750000000005
40
0.375000000000004
40
0.375000000000004
40
0.406250000000004
40
0.406250000000004
40
0.437500000000004
40
0.437500000000004
40
0.468750000000004
40
0.468750000000004
40
0.500000000000004
40
0.500000000000004
40
0.531250000000003
40
0.531250000000003
40
0.562500000000003
40
0.562500000000003
40
0.593750000000003
40
0.593750000000003
40
0.625000000000003
40
0.625000000000003
40
0.632812500000002
40
0.632812500000002
40
0.636718750000002
40
0.636718750000002
40
0.640625000000002
40
0.656250000000002
40
0.656250000000002
40
0.687500000000002
40
0.687500000000002
40
0.718750000000002
40
0.718750000000002
40
0.750000000000002
40
0.750000000000002
40
0.781250000000001
40
0.781250000000001
40
0.812500000000001
40
0.812500000000001
40
0.843750000000001
40
0.843750000000001
40
0.875000000000001
40
0.875000000000001
40
0.90625
40
0.90625
40
0.9375
40
0.9375
40
0.96875
40
0.96875
40
1
40
1
40
1
40
1
41
1
10
97.9
20
-5.28199991381382
30
0
41
1
10
97.9871726042993
20
-5.83675049135911
30
0
41
1
10
98.0743452085986
20
-6.38234083984295
30
0
41
1
10
98.2486904171972
20
-7.43759558462099
30
0
41
1
10
98.3358630214965
20
-7.94720078716446
30
0
41
1
10
98.510208230095
20
-8.91372226963301
30
0
41
1
10
98.5973808343944
20
-9.37058432826819
30
0
41
1
10
98.771726042993
20
-10.2175524812065
30
0
41
1
10
98.8588986472922
20
-10.6076207744866
30
0
41
1
10
99.0332438558908
20
-11.3110527834222
30
0
41
1
10
99.1204164601901
20
-11.6244023471064
30
0
41
1
10
99.2947616687886
20
-12.1693684815474
30
0
41
1
10
99.381934273088
20
-12.4009952712592
30
0
41
1
10
99.5562794816865
20
-12.7824629767309
30
0
41
1
10
99.6434520859859
20
-12.9323331482611
30
0
41
1
10
99.8177972945845
20
-13.1545927131087
30
0
41
1
10
99.9049698988838
20
-13.2270216584744
30
0
41
1
10
100.035728805333
20
-13.2832510248476
30
0
41
1
10
100.079315107482
20
-13.2932802566518
30
0
41
1
10
100.133797985169
20
-13.2956422741541
30
0
41
1
10
100.144694560707
20
-13.2956087184346
30
0
41
1
10
100.166487711782
20
-13.2945278073229
30
0
41
1
10
100.199177438394
20
-13.2913792643025
30
0
41
1
10
100.231867165006
20
-13.2835650529514
30
0
41
1
10
100.34083292038
20
-13.2467908354309
30
0
41
1
10
100.42800552468
20
-13.1829503894351
30
0
41
1
10
100.602350733278
20
-12.9786087119102
30
0
41
1
10
100.689523337577
20
-12.8380673329425
30
0
41
1
10
100.863868546176
20
-12.4755556638854
30
0
41
1
10
100.951041150475
20
-12.2535544356951
30
0
41
1
10
101.125386359074
20
-11.7275885223232
30
0
41
1
10
101.212558963373
20
-11.4236110280609
30
0
41
1
10
101.386904171972
20
-10.7380811661985
30
0
41
1
10
101.474076776271
20
-10.3565400142583
30
0
41
1
10
101.64842198487
20
-9.52523673661477
30
0
41
1
10
101.735594589169
20
-9.07550991200907
30
0
41
1
10
101.909939797768
20
-8.12145040238508
30
0
41
1
10
101.997112402067
20
-7.61717056506964
30
0
41
1
10
102.171457610665
20
-6.57052781627331
30
0
41
1
10
102.258630214965
20
-6.02822415441108
30
0
41
1
10
102.432975423563
20
-4.92323672467825
30
0
41
1
10
102.520148027863
20
-4.36060672546705
30
0
41
1
10
102.694493236461
20
-3.23210962308653
30
0
41
1
10
102.78166584076
20
-2.66628197365287
30
0
41
1
10
102.956011049359
20
-1.54654414217487
30
0
41
1
10
103.043183653658
20
-0.992655322397724
30
0
41
1
10
103.152149409033
20
-0.3153953145694
30
0
41
1
10
103.173942560107
20
-0.180690601725701
30
0
41
1
10
103.206632286719
20
0.0201262095282004
30
0
41
1
10
103.217528862257
20
0.0869546902738705
30
0
41
1
10
103.239322013332
20
0.221267875990634
30
0
41
1
10
103.293804891019
20
0.558056162620062
30
0
41
1
10
103.348287768706
20
0.899643999398194
30
0
41
1
10
103.479046675155
20
1.72656728569913
30
0
41
1
10
103.566219279454
20
2.28742380871566
30
0
41
1
10
103.740564488053
20
3.41473689859717
30
0
41
1
10
103.827737092352
20
3.98116398479124
30
0
41
1
10
104.002082300951
20
5.10347324482655
30
0
41
1
10
104.08925490525
20
5.6593088583702
30
0
41
1
10
104.263600113848
20
6.74286593346423
30
0
41
1
10
104.350772718148
20
7.27052986358541
30
0
41
1
10
104.525117926746
20
8.28034040080954
30
0
41
1
10
104.612290531046
20
8.7624290658886
30
0
41
1
10
104.786635739644
20
9.66562841483457
30
0
41
1
10
104.873808343943
20
10.0866928235168
30
0
41
1
10
105.048153552542
20
10.8559352244192
30
0
41
1
10
105.135326156841
20
11.2040881231211
30
0
41
1
10
105.30967136544
20
11.8202544053308
30
0
41
1
10
105.396843969739
20
12.0882675851959
30
0
41
1
10
105.571189178338
20
12.5419440934536
30
0
41
1
10
105.658361782637
20
12.7276292222472
30
0
41
1
10
105.832706991236
20
13.0191411420177
30
0
41
1
10
105.919879595535
20
13.1250040948031
30
0
41
1
10
106.094224804134
20
13.2631628593413
30
0
41
1
10
106.181397408433
20
13.2955
30
0
41
1
10
106.268570012732
20
13.2955
30
0
0
SPLINE
5
D2
100
AcDbEntity
8
1
62
256
6
ByLayer
370
13
48
1
60
0
100
AcDbSpline
70
4
71
3
72
74
73
70
40
0
40
0
40
0
40
0
40
0.03125
40
0.03125
40
0.0625
40
0.0625
40
0.09375
40
0.09375
40
0.125
40
0.125
40
0.15625
40
0.15625
40
0.1875
40
0.1875
40
0.21875
40
0.21875
40
0.25
40
0.25
40
0.28125
40
0.28125
40
0.3125
40
0.3125
40
0.34375
40
0.34375
40
0.375
40
0.375
40
0.40625
40
0.40625
40
0.437500000000001
40
0.437500000000001
40
0.468750000000001
40
0.468750000000001
40
0.500000000000001
40
0.500000000000001
40
0.515625000000001
40
0.515625000000001
40
0.5234375
40
0.5234375
40
0.53125
40
0.53125
40
0.5625
40
0.5625
40
0.59375
40
0.59375
40
0.625
40
0.625
40
0.65625
40
0.65625
40
0.6875
40
0.6875
40
0.71875
40
0.71875
40
0.75
40
0.75
40
0.78125
40
0.78125
40
0.8125
40
0.8125
40
0.84375
40
0.84375
40
0.875
40
0.875
40
0.90625
40
0.90625
40
0.9375
40
0.9375
40
0.96875
40
0.96875
40
1
40
1
40
1
40
1
41
1
10
104.224930182804
20
13.2955
30
0
41
1
10
104.286762511633
20
13.2955
30
0
41
1
10
104.348594840461
20
13.2792513094436
30
0
41
1
10
104.472259498117
20
13.2110094340103
30
0
41
1
10
104.534091826946
20
13.159008812867
30
0
41
1
10
104.657756484602
20
13.016565742348
30
0
41
1
10
104.71958881343
20
12.9261160282242
30
0
41
1
10
104.843253471087
20
12.7048643679117
30
0
41
1
10
104.905085799915
20
12.5740561263879
30
0
41
1
10
105.028750457571
20
12.2711705669565
30
0
41
1
10
105.0905827864
20
12.0990887709123
30
0
41
1
10
105.214247444056
20
11.7138977169707
30
0
41
1
10
105.276079772884
20
11.5007865525592
30
0
41
1
10
105.399744430541
20
11.0350353823825
30
0
41
1
10
105.461576759369
20
10.782396545865
30
0
41
1
10
105.585241417025
20
10.240358368112
30
0
41
1
10
105.647073745854
20
9.95096339584563
30
0
41
1
10
105.77073840351
20
9.33936799330161
30
0
41
1
10
105.832570732338
20
9.01717481368871
30
0
41
1
10
105.956235389995
20
8.34494878456107
30
0
41
1
10
106.018067718823
20
7.99492533915753
30
0
41
1
10
106.141732376479
20
7.27276229013611
30
0
41
1
10
106.203564705308
20
6.90063322880175
30
0
41
1
10
106.327229362964
20
6.14043682686315
30
0
41
1
10
106.389061691792
20
5.7523800479029
30
0
41
1
10
106.512726349449
20
4.96663952401855
30
0
41
1
10
106.574558678277
20
4.56896533224474
30
0
41
1
10
106.698223335933
20
3.77012916385084
30
0
41
1
10
106.760055664762
20
3.36897495127164
30
0
41
1
10
106.883720322418
20
2.5688832702715
30
0
41
1
10
106.945552651246
20
2.16995132907931
30
0
41
1
10
107.069217308903
20
1.37937327862699
30
0
41
1
10
107.131049637731
20
0.987730352584748
30
0
41
1
10
107.223798130973
20
0.408957491564934
30
0
41
1
10
107.254714295387
20
0.217475525563032
30
0
41
1
10
107.301088542008
20
-0.0672388280326572
30
0
41
1
10
107.316546624216
20
-0.162263596947042
30
0
41
1
10
107.34746278863
20
-0.353382877067332
30
0
41
1
10
107.362920870837
20
-0.449337824630931
30
0
41
1
10
107.440211281872
20
-0.930942814272669
30
0
41
1
10
107.5020436107
20
-1.32211529427624
30
0
41
1
10
107.625708268357
20
-2.11197985640342
30
0
41
1
10
107.687540597185
20
-2.51066886667169
30
0
41
1
10
107.811205254841
20
-3.31053687771143
30
0
41
1
10
107.87303758367
20
-3.71171046531276
30
0
41
1
10
107.996702241326
20
-4.51087439516536
30
0
41
1
10
108.058534570154
20
-4.90885707458946
30
0
41
1
10
108.182199227811
20
-5.6955191434644
30
0
41
1
10
108.244031556639
20
-6.08418905115954
30
0
41
1
10
108.367696214295
20
-6.84591792211324
30
0
41
1
10
108.429528543124
20
-7.21896635045951
30
0
41
1
10
108.55319320078
20
-7.94326054472194
30
0
41
1
10
108.615025529608
20
-8.29449574153881
30
0
41
1
10
108.738690187265
20
-8.96940841634438
30
0
41
1
10
108.800522516093
20
-9.29307640980397
30
0
41
1
10
108.924187173749
20
-9.90784146423093
30
0
41
1
10
108.986019502578
20
-10.1989311500875
30
0
41
1
10
109.109684160234
20
-10.744524929498
30
0
41
1
10
109.171516489062
20
-10.9990245030602
30
0
41
1
10
109.295181146719
20
-11.468602947168
30
0
41
1
10
109.357013475547
20
-11.6836804923381
30
0
41
1
10
109.480678133203
20
-12.0728479006983
30
0
41
1
10
109.542510462032
20
-12.2469395299174
30
0
41
1
10
109.666175119688
20
-12.5538288366053
30
0
41
1
10
109.728007448516
20
-12.6866308832446
30
0
41
1
10
109.851672106173
20
-12.9118012152403
30
0
41
1
10
109.913504435001
20
-13.0041757270673
30
0
41
1
10
110.037169092657
20
-13.150355621118
30
0
41
1
10
110.099001421486
20
-13.2041682403045
30
0
41
1
10
110.160833750314
20
-13.2400281899709
30
0
0
SPLINE
5
D3
100
AcDbEntity
8
1
62
256
6
ByLayer
370
13
48
1
60
0
100
AcDbSpline
70
4
71
3
72
79
73
75
40
0
40
0
40
0
40
0
40
0.0312499999999994
40
0.0312499999999994
40
0.0624999999999987
40
0.0624999999999987
40
0.0937499999999981
40
0.0937499999999981
40
0.124999999999998
40
0.124999999999998
40
0.156249999999997
40
0.156249999999997
40
0.187499999999996
40
0.187499999999996
40
0.218749999999996
40
0.218749999999996
40
0.226562499999996
40
0.226562499999996
40
0.234374999999996
40
0.234374999999996
40
0.249999999999996
40
0.249999999999996
40
0.281249999999997
40
0.281249999999997
40
0.312499999999997
40
0.312499999999997
40
0.343749999999997
40
0.343749999999997
40
0.374999999999998
40
0.374999999999998
40
0.406249999999998
40
0.406249999999998
40
0.437499999999999
40
0.437499999999999
40
0.468749999999999
40
0.468749999999999
40
0.5
40
0.5
40
0.53125
40
0.53125
40
0.562500000000001
40
0.562500000000001
40
0.593750000000001
40
0.593750000000001
40
0.609375000000001
40
0.609375000000001
40
0.613281250000001
40
0.613281250000001
40
0.617187500000001
40
0.625000000000001
40
0.625000000000001
40
0.656250000000001
40
0.656250000000001
40
0.687500000000001
40
0.687500000000001
40
0.718750000000001
40
0.718750000000001
40
0.750000000000001
40
0.750000000000001
40
0.781250000000001
40
0.781250000000001
40
0.812500000000001
40
0.812500000000001
40
0.84375
40
0.84375
40
0.875
40
0.875
40
0.90625
40
0.90625
40
0.9375
40
0.9375
40
0.96875
40
0.96875
40
1
40
1
40
1
40
1
41
1
10
97.9
20
-8.22658776365208
30
0
41
1
10
97.9821045517594
20
-8.6885134257617
30
0
41
1
10
98.0642091035188
20
-9.12801647015064
30
0
41
1
10
98.2284182070376
20
-9.95003949776515
30
0
41
1
10
98.3105227587971
20
-10.3325284624362
30
0
41
1
10
98.4747318623159
20
-11.031356886085
30
0
41
1
10
98.5568364140754
20
-11.3476811071287
30
0
41
1
10
98.7210455175942
20
-11.9087796346544
30
0
41
1
10
98.8031500693537
20
-12.1535561010723
30
0
41
1
10
98.9673591728724
20
-12.5701231460983
30
0
41
1
10
99.0494637246319
20
-12.7419308666649
30
0
41
1
10
99.2136728281508
20
-13.0147865391198
30
0
41
1
10
99.2957773799102
20
-13.1158614138921
30
0
41
1
10
99.4599864834291
20
-13.2524566504098
30
0
41
1
10
99.5420910351884
20
-13.2880076419462
30
0
41
1
10
99.6447217248877
20
-13.2960357736793
30
0
41
1
10
99.6652478628275
20
-13.2958419837958
30
0
41
1
10
99.7063001387072
20
-13.2918351901388
30
0
41
1
10
99.7268262766471
20
-13.2880082662239
30
0
41
1
10
99.7884046904667
20
-13.2708748692179
30
0
41
1
10
99.8294569663465
20
-13.2519124626073
30
0
41
1
10
99.9526137939854
20
-13.1710531717817
30
0
41
1
10
100.034718345745
20
-13.08510815802
30
0
41
1
10
100.198927449264
20
-12.8434455583297
30
0
41
1
10
100.281032001023
20
-12.6876997051809
30
0
41
1
10
100.445241104542
20
-12.3034598073108
30
0
41
1
10
100.527345656301
20
-12.0749459306108
30
0
41
1
10
100.69155475982
20
-11.5457204207831
30
0
41
1
10
100.77365931158
20
-11.2450029570219
30
0
41
1
10
100.937868415099
20
-10.5758519536299
30
0
41
1
10
101.019972966858
20
-10.2074297666046
30
0
41
1
10
101.184182070377
20
-9.41120854192724
30
0
41
1
10
101.266286622136
20
-8.98343736430823
30
0
41
1
10
101.430495725655
20
-8.08011995811947
30
0
41
1
10
101.512600277414
20
-7.6046133666155
30
0
41
1
10
101.676809380933
20
-6.61965511753843
30
0
41
1
10
101.758913932693
20
-6.11024742214016
30
0
41
1
10
101.923123036212
20
-5.07226057291771
30
0
41
1
10
102.005227587971
20
-4.54372184421237
30
0
41
1
10
102.16943669149
20
-3.48189454841671
30
0
41
1
10
102.251541243249
20
-2.94863683908528
30
0
41
1
10
102.415750346768
20
-1.89035104712539
30
0
41
1
10
102.497854898527
20
-1.36534132646185
30
0
41
1
10
102.621011726167
20
-0.59209200284289
30
0
41
1
10
102.662064002046
20
-0.336701034088321
30
0
41
1
10
102.713379346896
20
-0.021104179691946
30
0
41
1
10
102.723642415866
20
0.0417644636559658
30
0
41
1
10
102.744168553806
20
0.168082426939179
30
0
41
1
10
102.774957760716
20
0.358101669295394
30
0
41
1
10
102.805746967625
20
0.549674857707458
30
0
41
1
10
102.908377657324
20
1.19135747078201
30
0
41
1
10
102.990482209084
20
1.7147370547423
30
0
41
1
10
103.154691312603
20
2.77107936717766
30
0
41
1
10
103.236795864362
20
3.30402516400699
30
0
41
1
10
103.401004967881
20
4.36675946974162
30
0
41
1
10
103.48310951964
20
4.89651842859618
30
0
41
1
10
103.647318623159
20
5.93858964656482
30
0
41
1
10
103.729423174919
20
6.45086229798005
30
0
41
1
10
103.893632278438
20
7.44317315831182
30
0
41
1
10
103.975736830197
20
7.92316742642407
30
0
41
1
10
104.139945933716
20
8.83691375993459
30
0
41
1
10
104.222050485475
20
9.27062530879869
30
0
41
1
10
104.386259588994
20
10.0798765261037
30
0
41
1
10
104.468364140754
20
10.4553867226815
30
0
41
1
10
104.632573244273
20
11.1394617614939
30
0
41
1
10
104.714677796032
20
11.44801330138
30
0
41
1
10
104.878886899551
20
11.9932119479959
30
0
41
1
10
104.96099145131
20
12.22986306817
30
0
41
1
10
105.125200554829
20
12.6302559227988
30
0
41
1
10
105.207305106588
20
12.7940161787155
30
0
41
1
10
105.371514210107
20
13.0512242652881
30
0
41
1
10
105.453618761867
20
13.1446997293958
30
0
41
1
10
105.617827865385
20
13.2668222515267
30
0
41
1
10
105.699932417145
20
13.2955
30
0
41
1
10
105.782036968904
20
13.2955
30
0
0
SPLINE
5
D4
100
AcDbEntity
8
1
62
256
6
ByLayer
370
13
48
1
60
0
100
AcDbSpline
70
4
71
3
72
78
73
74
40
0
40
0
40
0
40
0
40
0.0312499999999999
40
0.0312499999999999
40
0.0624999999999997
40
0.0624999999999997
40
0.0937499999999996
40
0.0937499999999996
40
0.124999999999999
40
0.124999999999999
40
0.156249999999999
40
0.156249999999999
40
0.187499999999999
40
0.187499999999999
40
0.218749999999999
40
0.218749999999999
40
0.249999999999999
40
0.249999999999999
40
0.281249999999999
40
0.281249999999999
40
0.312499999999998
40
0.312499999999998
40
0.343749999999998
40
0.343749999999998
40
0.374999999999998
40
0.374999999999998
40
0.406249999999998
40
0.406249999999998
40
0.437499999999998
40
0.437499999999998
40
0.468749999999998
40
0.468749999999998
40
0.476562499999998
40
0.476562499999998
40
0.484374999999998
40
0.484374999999998
40
0.499999999999998
40
0.499999999999998
40
0.531249999999998
40
0.531249999999998
40
0.562499999999998
40
0.562499999999998
40
0.593749999999998
40
0.593749999999998
40
0.624999999999999
40
0.624999999999999
40
0.656249999999999
40
0.656249999999999
40
0.687499999999999
40
0.687499999999999
40
0.718749999999999
40
0.718749999999999
40
0.749999999999999
40
0.749999999999999
40
0.78125
40
0.78125
40
0.8125
40
0.8125
40
0.84375
40
0.84375
40
0.875
40
0.875
40
0.906250000000001
40
0.906250000000001
40
0.937500000000001
40
0.937500000000001
40
0.953125000000001
40
0.953125000000001
40
0.9609375
40
0.9609375
40
0.96875
40
0.96875
40
1
40
1
40
1
40
1
41
1
10
103.738397138977
20
13.2955
30
0
41
1
10
103.805297520345
20
13.2955
30
0
41
1
10
103.872197901713
20
13.2764745135938
30
0
41
1
10
104.005998664449
20
13.1962847488399
30
0
41
1
10
104.072899045817
20
13.1351094335173
30
0
41
1
10
104.206699808553
20
12.9673090232105
30
0
41
1
10
104.273600189921
20
12.8606733167778
30
0
41
1
10
104.407400952658
20
12.5997681434869
30
0
41
1
10
104.474301334026
20
12.4454898999573
30
0
41
1
10
104.608102096762
20
12.0885391751804
30
0
41
1
10
104.67500247813
20
11.8858612028323
30
0
41
1
10
104.808803240866
20
11.4329936281389
30
0
41
1
10
104.875703622234
20
11.1828030105386
30
0
41
1
10
105.009504384971
20
10.6375376631612
30
0
41
1
10
105.076404766339
20
10.3424670163368
30
0
41
1
10
105.210205529075
20
9.7117697639618
30
0
41
1
10
105.277105910443
20
9.37615218057968
30
0
41
1
10
105.410906673179
20
8.67019183040676
30
0
41
1
10
105.477807054547
20
8.29986205021973
30
0
41
1
10
105.611607817283
20
7.53147602569734
30
0
41
1
10
105.678508198651
20
7.13343511604955
30
0
41
1
10
105.812308961388
20
6.31736189203312
30
0
41
1
10
105.879209342756
20
5.89934533987315
30
0
41
1
10
106.013010105492
20
5.05131818046266
30
0
41
1
10
106.07991048686
20
4.62132193397434
30
0
41
1
10
106.213711249596
20
3.75713630880068
30
0
41
1
10
106.280611630964
20
3.32295848706352
30
0
41
1
10
106.4144123937
20
2.45762048944792
30
0
41
1
10
106.481312775069
20
2.0264682799328
30
0
41
1
10
106.615113537805
20
1.1735068332988
30
0
41
1
10
106.682013919173
20
0.751701819818408
30
0
41
1
10
106.765639395883
20
0.233570527251231
30
0
41
1
10
106.782364491225
20
0.13039778023014
30
0
41
1
10
106.815814681909
20
-0.0749697299893342
30
0
41
1
10
106.832539777251
20
-0.177818359442512
30
0
41
1
10
106.882715063277
20
-0.488203975849103
30
0
41
1
10
106.916165253961
20
-0.696970187762503
30
0
41
1
10
107.016515826013
20
-1.32787417714962
30
0
41
1
10
107.083416207381
20
-1.75465064484331
30
0
41
1
10
107.217216970118
20
-2.61480446551266
30
0
41
1
10
107.284117351486
20
-3.04817590999707
30
0
41
1
10
107.417918114222
20
-3.91476944009312
30
0
41
1
10
107.48481849559
20
-4.34798187005168
30
0
41
1
10
107.618619258326
20
-5.20674162511301
30
0
41
1
10
107.685519639694
20
-5.63227598063449
30
0
41
1
10
107.81932040243
20
-6.46774004551213
30
0
41
1
10
107.886220783799
20
-6.87765455059298
30
0
41
1
10
108.020021546535
20
-7.67394302257713
30
0
41
1
10
108.086921927903
20
-8.06030118050339
30
0
41
1
10
108.220722690639
20
-8.80201671714022
30
0
41
1
10
108.287623072007
20
-9.15735960057887
30
0
41
1
10
108.421423834743
20
-9.83052215984591
30
0
41
1
10
108.488324216111
20
-10.148330484676
30
0
41
1
10
108.622124978848
20
-10.7412338678211
30
0
41
1
10
108.689025360216
20
-11.0163220777917
30
0
41
1
10
108.822826122952
20
-11.5202052169188
30
0
41
1
10
108.88972650432
20
-11.7489984132236
30
0
41
1
10
109.023527267056
20
-12.1584518745406
30
0
41
1
10
109.090427648424
20
-12.339115309146
30
0
41
1
10
109.22422841116
20
-12.652186818095
30
0
41
1
10
109.291128792528
20
-12.7846020492457
30
0
41
1
10
109.424929555265
20
-13.0026129212167
30
0
41
1
10
109.491829936633
20
-13.0882183572772
30
0
41
1
10
109.625630699369
20
-13.215343803778
30
0
41
1
10
109.692531080737
20
-13.256874782092
30
0
41
1
10
109.792881652789
20
-13.2888937465995
30
0
41
1
10
109.826331843473
20
-13.2945270930348
30
0
41
1
10
109.876507129499
20
-13.2958129972517
30
0
41
1
10
109.893232224841
20
-13.2950561610606
30
0
41
1
10
109.926682415525
20
-13.2911155294759
30
0
41
1
10
109.943407510868
20
-13.2879299084309
30
0
41
1
10
110.027032987577
20
-13.2657612738031
30
0
41
1
10
110.093933368946
20
-13.2280269276918
30
0
41
1
10
110.160833750314
20
-13.1684104593575
30
0
0
SPLINE
5
D5
100
AcDbEntity
8
1
62
256
6
ByLayer
370
13
48
1
60
0
100
AcDbSpline
70
4
71
3
72
78
73
74
40
0
40
0
40
0
40
0
40
0.0312499999999996
40
0.0312499999999996
40
0.0624999999999992
40
0.0624999999999992
40
0.0937499999999988
40
0.0937499999999988
40
0.124999999999998
40
0.124999999999998
40
0.156249999999998
40
0.156249999999998
40
0.164062499999998
40
0.164062499999998
40
0.171874999999998
40
0.171874999999998
40
0.187499999999998
40
0.187499999999998
40
0.218749999999999
40
0.218749999999999
40
0.249999999999999
40
0.249999999999999
40
0.28125
40
0.28125
40
0.3125
40
0.3125
40
0.343750000000001
40
0.343750000000001
40
0.375000000000001
40
0.375000000000001
40
0.406250000000002
40
0.406250000000002
40
0.437500000000002
40
0.437500000000002
40
0.468750000000003
40
0.468750000000003
40
0.500000000000003
40
0.500000000000003
40
0.531250000000004
40
0.531250000000004
40
0.562500000000004
40
0.562500000000004
40
0.578125000000005
40
0.578125000000005
40
0.585937500000005
40
0.585937500000005
40
0.593750000000005
40
0.593750000000005
40
0.625000000000005
40
0.625000000000005
40
0.656250000000004
40
0.656250000000004
40
0.687500000000004
40
0.687500000000004
40
0.718750000000004
40
0.718750000000004
40
0.750000000000003
40
0.750000000000003
40
0.781250000000003
40
0.781250000000003
40
0.812500000000002
40
0.812500000000002
40
0.843750000000002
40
0.843750000000002
40
0.875000000000002
40
0.875000000000002
40
0.906250000000001
40
0.906250000000001
40
0.937500000000001
40
0.937500000000001
40
0.96875
40
0.96875
40
1
40
1
40
1
40
1
41
1
10
97.9
20
-10.65594674916
30
0
41
1
10
97.9770364992196
20
-10.9853194281175
30
0
41
1
10
98.0540729984391
20
-11.2856586798561
30
0
41
1
10
98.2081459968782
20
-11.8236543735951
30
0
41
1
10
98.2851824960977
20
-12.061311332776
30
0
41
1
10
98.4392554945368
20
-12.4723790364726
30
0
41
1
10
98.5162919937563
20
-12.6458008575166
30
0
41
1
10
98.6703649921955
20
-12.9297289094328
30
0
41
1
10
98.747401491415
20
-13.0402536173033
30
0
41
1
10
98.9014744898541
20
-13.2021552681123
30
0
41
1
10
98.9785109890736
20
-13.2535541964054
30
0
41
1
10
99.0748066130981
20
-13.2843247311595
30
0
41
1
10
99.094065737903
20
-13.2888084233397
30
0
41
1
10
99.1325839875126
20
-13.2945341274514
30
0
41
1
10
99.1518431123177
20
-13.2957771733846
30
0
41
1
10
99.2096204867323
20
-13.2947918722063
30
0
41
1
10
99.2481387363421
20
-13.28781224368
30
0
41
1
10
99.3636934851714
20
-13.2467017060829
30
0
41
1
10
99.4407299843909
20
-13.1923498935103
30
0
41
1
10
99.5948029828301
20
-13.0242956029415
30
0
41
1
10
99.6718394820496
20
-12.9105712273131
30
0
41
1
10
99.8259124804886
20
-12.6201090037302
30
0
41
1
10
99.9029489797082
20
-12.44335296957
30
0
41
1
10
100.057021978147
20
-12.0256229550654
30
0
41
1
10
100.134058477367
20
-11.7846383813217
30
0
41
1
10
100.288131475806
20
-11.2401517356954
30
0
41
1
10
100.365167975025
20
-10.9366497530737
30
0
41
1
10
100.519240973465
20
-10.271901913212
30
0
41
1
10
100.596277472684
20
-9.91066806733909
30
0
41
1
10
100.750350471123
20
-9.13812437357046
30
0
41
1
10
100.827386970343
20
-8.72683722243679
30
0
41
1
10
100.981459968782
20
-7.86422110626546
30
0
41
1
10
101.058496468001
20
-7.41292196016215
30
0
41
1
10
101.21256946644
20
-6.48187883111603
30
0
41
1
10
101.28960596566
20
-6.00216683451785
30
0
41
1
10
101.443678964099
20
-5.02651068563929
30
0
41
1
10
101.520715463319
20
-4.53059569807056
30
0
41
1
10
101.674788461758
20
-3.53442587794888
30
0
41
1
10
101.751824960977
20
-3.03419360116467
30
0
41
1
10
101.905897959416
20
-2.04017215477973
30
0
41
1
10
101.982934458636
20
-1.54639703121973
30
0
41
1
10
102.098489207465
20
-0.817405953194395
30
0
41
1
10
102.137007457075
20
-0.576339933283606
30
0
41
1
10
102.19478483149
20
-0.218354823476091
30
0
41
1
10
102.214043956295
20
-0.0997530070423238
30
0
41
1
10
102.252562205904
20
0.136662104666982
30
0
41
1
10
102.271821330709
20
0.255519501306821
30
0
41
1
10
102.368116954734
20
0.852784038340445
30
0
41
1
10
102.445153453953
20
1.34020034202845
30
0
41
1
10
102.599226452392
20
2.32604944050922
30
0
41
1
10
102.676262951612
20
2.824472325496
30
0
41
1
10
102.830335950051
20
3.82230469453725
30
0
41
1
10
102.90737244927
20
4.32169554236071
30
0
41
1
10
103.06144544771
20
5.31002749985078
30
0
41
1
10
103.138481946929
20
5.798942212713
30
0
41
1
10
103.292554945368
20
6.7541603113975
30
0
41
1
10
103.369591444588
20
7.22043247595312
30
0
41
1
10
103.523664443027
20
8.11835625283678
30
0
41
1
10
103.600700942246
20
8.54997636618211
30
0
41
1
10
103.754773940685
20
9.36769888453208
30
0
41
1
10
103.831810439905
20
9.7537746583919
30
0
41
1
10
103.985883438344
20
10.4715153406482
30
0
41
1
10
104.062919937564
20
10.8031628629064
30
0
41
1
10
104.216992936003
20
11.4058337844174
30
0
41
1
10
104.294029435222
20
11.6768514532024
30
0
41
1
10
104.448102433661
20
12.1550831521729
30
0
41
1
10
104.525138932881
20
12.3623030062771
30
0
41
1
10
104.67921193132
20
12.7127891119746
30
0
41
1
10
104.75624843054
20
12.8560704129871
30
0
41
1
10
104.910321428979
20
13.0812350826654
30
0
41
1
10
104.987357928198
20
13.1631390792089
30
0
41
1
10
105.141430926637
20
13.2702603663726
30
0
41
1
10
105.218467425857
20
13.2955
30
0
41
1
10
105.295503925076
20
13.2955
30
0
0
SPLINE
5
D6
100
AcDbEntity
8
1
62
256
6
ByLayer
370
13
48
1
60
0
100
AcDbSpline
70
4
71
3
72
79
73
75
40
0
40
0
40
0
40
0
40
0.0312500000000018
40
0.0312500000000018
40
0.0625000000000036
40
0.0625000000000036
40
0.0937500000000054
40
0.0937500000000054
40
0.125000000000007
40
0.125000000000007
40
0.156250000000009
40
0.156250000000009
40
0.187500000000011
40
0.187500000000011
40
0.218750000000012
40
0.218750000000012
40
0.250000000000014
40
0.250000000000014
40
0.281250000000016
40
0.281250000000016
40
0.312500000000018
40
0.312500000000018
40
0.34375000000002
40
0.34375000000002
40
0.375000000000021
40
0.375000000000021
40
0.406250000000023
40
0.406250000000023
40
0.437500000000025
40
0.437500000000025
40
0.441406250000025
40
0.441406250000025
40
0.445312500000025
40
0.445312500000025
40
0.453125000000025
40
0.468750000000024
40
0.468750000000024
40
0.500000000000023
40
0.500000000000023
40
0.531250000000021
40
0.531250000000021
40
0.56250000000002
40
0.56250000000002
40
0.593750000000018
40
0.593750000000018
40
0.625000000000016
40
0.625000000000016
40
0.656250000000015
40
0.656250000000015
40
0.687500000000013
40
0.687500000000013
40
0.718750000000012
40
0.718750000000012
40
0.75000000000001
40
0.75000000000001
40
0.781250000000009
40
0.781250000000009
40
0.812500000000007
40
0.812500000000007
40
0.843750000000006
40
0.843750000000006
40
0.875000000000004
40
0.875000000000004
40
0.882812500000004
40
0.882812500000004
40
0.890625000000003
40
0.890625000000003
40
0.906250000000003
40
0.906250000000003
40
0.937500000000002
40
0.937500000000002
40
0.968750000000001
40
0.968750000000001
40
1
40
1
40
1
40
1
41
1
10
103.251864095149
20
13.2955
30
0
41
1
10
103.323832529057
20
13.2955
30
0
41
1
10
103.395800962965
20
13.2734776574274
30
0
41
1
10
103.53973783078
20
13.1803310803356
30
0
41
1
10
103.611706264689
20
13.1091909403326
30
0
41
1
10
103.755643132504
20
12.9138232572335
30
0
41
1
10
103.827611566412
20
12.7895807062478
30
0
41
1
10
103.971548434228
20
12.4855959915667
30
0
41
1
10
104.043516868137
20
12.3058420974025
30
0
41
1
10
104.187453735952
20
11.8904063894796
30
0
41
1
10
104.25942216986
20
11.6547184787999
30
0
41
1
10
104.403359037676
20
11.1292466270305
30
0
41
1
10
104.475327471584
20
10.8394639600982
30
0
41
1
10
104.6192643394
20
10.209972886928
30
0
41
1
10
104.691232773308
20
9.87027369277402
30
0
41
1
10
104.835169641124
20
9.14730181901936
30
0
41
1
10
104.907138075032
20
8.76404539420858
30
0
41
1
10
105.051074942848
20
7.96210633753117
30
0
41
1
10
105.123043376756
20
7.54344476365381
30
0
41
1
10
105.266980244572
20
6.68006818014089
30
0
41
1
10
105.33894867848
20
6.23537596522243
30
0
41
1
10
105.482885546296
20
5.32986616304302
30
0
41
1
10
105.554853980204
20
4.86906995313504
30
0
41
1
10
105.69879084802
20
3.94116091717524
30
0
41
1
10
105.770759281928
20
3.47406550890946
30
0
41
1
10
105.914696149744
20
2.5426565284908
30
0
41
1
10
105.986664583652
20
2.07835492365678
30
0
41
1
10
106.130601451467
20
1.16047619505176
30
0
41
1
10
106.202569885375
20
0.706905239741161
30
0
41
1
10
106.283534373522
20
0.206334814322162
30
0
41
1
10
106.29253042776
20
0.15084959278181
30
0
41
1
10
106.310522536237
20
0.0401576137029735
30
0
41
1
10
106.319518590476
20
-0.0149612913198496
30
0
41
1
10
106.346506753191
20
-0.180871865183576
30
0
41
1
10
106.400483078622
20
-0.514372754432486
30
0
41
1
10
106.454459404053
20
-0.852521256643627
30
0
41
1
10
106.562412054915
20
-1.53383719256152
30
0
41
1
10
106.634380488823
20
-1.99478333176933
30
0
41
1
10
106.778317356639
20
-2.92276327667423
30
0
41
1
10
106.850285790547
20
-3.38978741728704
30
0
41
1
10
106.994222658363
20
-4.32124792269093
30
0
41
1
10
107.066191092271
20
-4.7856689042415
30
0
41
1
10
107.210127960087
20
-5.70234006131795
30
0
41
1
10
107.282096393995
20
-6.15457016828603
30
0
41
1
10
107.426033261811
20
-7.03690592540829
30
0
41
1
10
107.498001695719
20
-7.4669889831124
30
0
41
1
10
107.641938563535
20
-8.29535574534631
30
0
41
1
10
107.713906997443
20
-8.6936173193688
30
0
41
1
10
107.857843865259
20
-9.44962801133667
30
0
41
1
10
107.929812299167
20
-9.80735865373484
30
0
41
1
10
108.073749166983
20
-10.4751775493019
30
0
41
1
10
108.145717600891
20
-10.7852536267113
30
0
41
1
10
108.289654468707
20
-11.3526858277172
30
0
41
1
10
108.361622902614
20
-11.6100375386364
30
0
41
1
10
108.50555977043
20
-12.0692489956197
30
0
41
1
10
108.577528204339
20
-12.2711120873146
30
0
41
1
10
108.721465072154
20
-12.6188944318302
30
0
41
1
10
108.793433506062
20
-12.7648234562336
30
0
41
1
10
108.937370373878
20
-13.0024029026515
30
0
41
1
10
109.009338807786
20
-13.0940673362921
30
0
41
1
10
109.153275675602
20
-13.2265341550259
30
0
41
1
10
109.22524410951
20
-13.2673523561375
30
0
41
1
10
109.315204651895
20
-13.2895307000851
30
0
41
1
10
109.333196760372
20
-13.2925266400055
30
0
41
1
10
109.369180977326
20
-13.29572118071
30
0
41
1
10
109.387173085803
20
-13.2959286021905
30
0
41
1
10
109.441149411234
20
-13.2924099045622
30
0
41
1
10
109.477133628188
20
-13.284493369555
30
0
41
1
10
109.58508627905
20
-13.2430592237387
30
0
41
1
10
109.657054712958
20
-13.1918195396205
30
0
41
1
10
109.800991580774
20
-13.0376608460368
30
0
41
1
10
109.872960014682
20
-12.9347262069615
30
0
41
1
10
110.016896882498
20
-12.6740914650266
30
0
41
1
10
110.088865316406
20
-12.5163780453541
30
0
41
1
10
110.160833750314
20
-12.3306558839188
30
0
0
SPLINE
5
D7
100
AcDbEntity
8
1
62
256
6
ByLayer
370
13
48
1
60
0
100
AcDbSpline
70
4
71
3
72
80
73
76
40
0
40
0
40
0
40
0
40
0.03125
40
0.03125
40
0.0625000000000001
40
0.0625000000000001
40
0.0937500000000001
40
0.0937500000000001
40
0.109375
40
0.109375
40
0.1171875
40
0.1171875
40
0.125
40
0.125
40
0.15625
40
0.15625
40
0.1875
40
0.1875
40
0.21875
40
0.21875
40
0.25
40
0.25
40
0.28125
40
0.28125
40
0.3125
40
0.3125
40
0.34375
40
0.34375
40
0.375
40
0.375
40
0.40625
40
0.40625
40
0.4375
40
0.4375
40
0.46875
40
0.46875
40
0.5
40
0.5
40
0.53125
40
0.53125
40
0.546875
40
0.546875
40
0.5546875
40
0.5546875
40
0.55859375
40
0.55859375
40
0.5625
40
0.5625
40
0.59375
40
0.59375
40
0.625
40
0.625
40
0.65625
40
0.65625
40
0.6875
40
0.6875
40
0.71875
40
0.71875
40
0.75
40
0.75
40
0.78125
40
0.78125
40
0.8125
40
0.8125
40
0.84375
40
0.84375
40
0.875
40
0.875
40
0.90625
40
0.90625
40
0.9375
40
0.9375
40
0.96875
40
0.96875
40
1
40
1
40
1
40
1
41
1
10
97.9000000000001
20
-12.3306527198782
30
0
41
1
10
97.9719684466799
20
-12.5163752314127
30
0
41
1
10
98.0439368933594
20
-12.6740889906179
30
0
41
1
10
98.1878737867187
20
-12.934724379845
30
0
41
1
10
98.2598422333983
20
-13.037659326672
30
0
41
1
10
98.4037791267577
20
-13.1918185968154
30
0
41
1
10
98.4757475734374
20
-13.2430585497497
30
0
41
1
10
98.5837002434569
20
-13.2844930668349
30
0
41
1
10
98.6196844667967
20
-13.2924097202991
30
0
41
1
10
98.6736608018065
20
-13.2959285875407
30
0
41
1
10
98.6916529134764
20
-13.2957212209923
30
0
41
1
10
98.7276371368163
20
-13.2925267919027
30
0
41
1
10
98.7456292484861
20
-13.2895309081315
30
0
41
1
10
98.8355898068357
20
-13.2673528463809
30
0
41
1
10
98.9075582535155
20
-13.2265348757341
30
0
41
1
10
99.0514951468748
20
-13.0940685197203
30
0
41
1
10
99.1234635935544
20
-13.0024043183179
30
0
41
1
10
99.2674004869138
20
-12.7648253291571
30
0
41
1
10
99.3393689335934
20
-12.6188965297463
30
0
41
1
10
99.4833058269528
20
-12.2711146182706
30
0
41
1
10
99.5552742736324
20
-12.0692517345904
30
0
41
1
10
99.6992111669919
20
-11.6100406671468
30
0
41
1
10
99.7711796136715
20
-11.3526891377189
30
0
41
1
10
99.9151165070308
20
-10.7852572648665
30
0
41
1
10
99.9870849537105
20
-10.4751813340905
30
0
41
1
10
100.13102184707
20
-9.80736269079176
30
0
41
1
10
100.202990293749
20
-9.44963215401106
30
0
41
1
10
100.346927187109
20
-8.69362162899853
30
0
41
1
10
100.418895633789
20
-8.29536011631114
30
0
41
1
10
100.562832527148
20
-7.46699343239098
30
0
41
1
10
100.634800973827
20
-7.03691039167774
30
0
41
1
10
100.778737867187
20
-6.15457462716429
30
0
41
1
10
100.850706313867
20
-5.70234449583793
30
0
41
1
10
100.994643207226
20
-4.78567325416034
30
0
41
1
10
101.066611653906
20
-4.32125221239676
30
0
41
1
10
101.210548547265
20
-3.38979155784824
30
0
41
1
10
101.282516993945
20
-2.92276732833369
30
0
41
1
10
101.426453887304
20
-1.99478718483096
30
0
41
1
10
101.498422333983
20
-1.53384093595218
30
0
41
1
10
101.606375004003
20
-0.852524825811315
30
0
41
1
10
101.642359227343
20
-0.627092431307091
30
0
41
1
10
101.696335562353
20
-0.292042738010053
30
0
41
1
10
101.714327674023
20
-0.18087525263681
30
0
41
1
10
101.741315841527
20
-0.0149646323316404
30
0
41
1
10
101.750311897362
20
0.0401542798609
30
0
41
1
10
101.768304009032
20
0.150846267416455
30
0
41
1
10
101.777300064867
20
0.206331493353332
30
0
41
1
10
101.858264567382
20
0.70690195977204
30
0
41
1
10
101.930233014062
20
1.16047296175438
30
0
41
1
10
102.074169907421
20
2.07835180427946
30
0
41
1
10
102.146138354101
20
2.54265347636931
30
0
41
1
10
102.29007524746
20
3.47406261058336
30
0
41
1
10
102.36204369414
20
3.94115810539043
30
0
41
1
10
102.505980587499
20
4.86906733083938
30
0
41
1
10
102.577949034179
20
5.32986364368938
30
0
41
1
10
102.721885927538
20
6.23537366375356
30
0
41
1
10
102.793854374218
20
6.68006599360095
30
0
41
1
10
102.937791267577
20
7.54344281333434
30
0
41
1
10
103.009759714257
20
7.96210450848295
30
0
41
1
10
103.153696607616
20
8.764043807717
30
0
41
1
10
103.225665054296
20
9.1473003537898
30
0
41
1
10
103.369601947655
20
9.87027246369433
30
0
41
1
10
103.441570394335
20
10.2099717727142
30
0
41
1
10
103.585507287694
20
10.8394630635122
30
0
41
1
10
103.657475734374
20
11.1292458331901
30
0
41
1
10
103.801412627733
20
11.6547178738666
30
0
41
1
10
103.873381074413
20
11.8904058706996
30
0
41
1
10
104.017317967772
20
12.3058417314911
30
0
41
1
10
104.089286414452
20
12.4855956923711
30
0
41
1
10
104.233223307811
20
12.7895805199302
30
0
41
1
10
104.305191754491
20
12.913823117086
30
0
41
1
10
104.44912864785
20
13.1091908724575
30
0
41
1
10
104.52109709453
20
13.1803310385753
30
0
41
1
10
104.665033987889
20
13.2734776495976
30
0
41
1
10
104.737002434569
20
13.2955
30
0
41
1
10
104.808970881248
20
13.2955
30
0
0
SPLINE
5
D8
100
AcDbEntity
8
1
62
256
6
ByLayer
370
13
48
1
60
0
100
AcDbSpline
70
4
71
3
72
78
73
74
40
0
40
0
40
0
40
0
40
0.0312499999999998
40
0.0312499999999998
40
0.0624999999999996
40
0.0624999999999996
40
0.0937499999999994
40
0.0937499999999994
40
0.124999999999999
40
0.124999999999999
40
0.156249999999999
40
0.156249999999999
40
0.187499999999999
40
0.187499999999999
40
0.218749999999999
40
0.218749999999999
40
0.249999999999999
40
0.249999999999999
40
0.281249999999999
40
0.281249999999999
40
0.312499999999998
40
0.312499999999998
40
0.343749999999998
40
0.343749999999998
40
0.374999999999998
40
0.374999999999998
40
0.406249999999998
40
0.406249999999998
40
0.414062499999998
40
0.414062499999998
40
0.421874999999998
40
0.421874999999998
40
0.437499999999998
40
0.437499999999998
40
0.468749999999998
40
0.468749999999998
40
0.499999999999998
40
0.499999999999998
40
0.531249999999999
40
0.531249999999999
40
0.562499999999999
40
0.562499999999999
40
0.593749999999999
40
0.593749999999999
40
0.624999999999999
40
0.624999999999999
40
0.656249999999999
40
0.656249999999999
40
0.687499999999999
40
0.687499999999999
40
0.718749999999999
40
0.718749999999999
40
0.749999999999999
40
0.749999999999999
40
0.78125
40
0.78125
40
0.8125
40
0.8125
40
0.828125
40
0.828125
40
0.8359375
40
0.8359375
40
0.84375
40
0.84375
40
0.875
40
0.875
40
0.90625
40
0.90625
40
0.9375
40
0.9375
40
0.96875
40
0.96875
40
1
40
1
40
1
40
1
41
1
10
102.765331051321
20
13.2955
30
0
41
1
10
102.842367537769
20
13.2955
30
0
41
1
10
102.919404024217
20
13.2702603747583
30
0
41
1
10
103.073476997112
20
13.1631391241013
30
0
41
1
10
103.15051348356
20
13.0812351556972
30
0
41
1
10
103.304586456456
20
12.8560705639325
30
0
41
1
10
103.381622942904
20
12.71278931271
30
0
41
1
10
103.535695915799
20
12.3623033284981
30
0
41
1
10
103.612732402247
20
12.1550835460979
30
0
41
1
10
103.766805375143
20
11.6768520106963
30
0
41
1
10
103.843841861591
20
11.405834433774
30
0
41
1
10
103.997914834486
20
10.8031637122809
30
0
41
1
10
104.074951320934
20
10.4715162981633
30
0
41
1
10
104.22902429383
20
9.75377584274256
30
0
41
1
10
104.306060780278
20
9.3677001875524
30
0
41
1
10
104.460133753173
20
8.54997791009609
30
0
41
1
10
104.537170239621
20
8.1183579189443
30
0
41
1
10
104.691243212517
20
7.220434382598
30
0
41
1
10
104.768279698965
20
6.75416233635718
30
0
41
1
10
104.92235267186
20
5.79894446356451
30
0
41
1
10
104.999389158308
20
5.31002985825759
30
0
41
1
10
105.153462131204
20
4.32169809955138
30
0
41
1
10
105.230498617652
20
3.82230734294555
30
0
41
1
10
105.384571590548
20
2.82447513622171
30
0
41
1
10
105.461608076995
20
2.3260523223349
30
0
41
1
10
105.615681049891
20
1.34020334410138
30
0
41
1
10
105.692717536339
20
0.852787089569489
30
0
41
1
10
105.789013144399
20
0.255522600244461
30
0
41
1
10
105.808272266011
20
0.13666521246347
30
0
41
1
10
105.846790509235
20
-0.0997498828795642
30
0
41
1
10
105.866049630847
20
-0.218351649146854
30
0
41
1
10
105.923826995682
20
-0.57633666732076
30
0
41
1
10
105.962345238906
20
-0.817402627343711
30
0
41
1
10
106.077899968578
20
-1.54639353087202
30
0
41
1
10
106.154936455026
20
-2.0401685449751
30
0
41
1
10
106.309009427922
20
-3.03418979512694
30
0
41
1
10
106.386045914369
20
-3.53442198516845
30
0
41
1
10
106.540118887265
20
-4.53059166352259
30
0
41
1
10
106.617155373713
20
-5.02650659610606
30
0
41
1
10
106.771228346609
20
-6.00216267471097
30
0
41
1
10
106.848264833057
20
-6.48187465605889
30
0
41
1
10
107.002337805952
20
-7.41291780002311
30
0
41
1
10
107.0793742924
20
-7.86421697632252
30
0
41
1
10
107.233447265296
20
-8.72683320074495
30
0
41
1
10
107.310483751744
20
-9.13812042994323
30
0
41
1
10
107.464556724639
20
-9.91066432627156
30
0
41
1
10
107.541593211087
20
-10.2718982966277
30
0
41
1
10
107.695666183983
20
-10.9366464266152
30
0
41
1
10
107.772702670431
20
-11.2401485748486
30
0
41
1
10
107.926775643326
20
-11.7846355844007
30
0
41
1
10
108.003812129774
20
-12.0256203564159
30
0
41
1
10
108.15788510267
20
-12.4433507896572
30
0
41
1
10
108.234921589118
20
-12.6201070442381
30
0
41
1
10
108.388994562013
20
-12.9105697196382
30
0
41
1
10
108.466031048461
20
-13.0242943266255
30
0
41
1
10
108.620104021357
20
-13.1923490802236
30
0
41
1
10
108.697140507805
20
-13.2467011244412
30
0
41
1
10
108.812695237477
20
-13.2878120028802
30
0
41
1
10
108.8512134807
20
-13.2947917439303
30
0
41
1
10
108.908990845536
20
-13.2957772115476
30
0
41
1
10
108.928249967148
20
-13.294534221831
30
0
41
1
10
108.966768210372
20
-13.2888086336666
30
0
41
1
10
108.986027331984
20
-13.2843250008952
30
0
41
1
10
109.082322940044
20
-13.2535547703
30
0
41
1
10
109.159359426492
20
-13.202156108258
30
0
41
1
10
109.313432399387
20
-13.0402550318228
30
0
41
1
10
109.390468885835
20
-12.9297306320857
30
0
41
1
10
109.544541858731
20
-12.6458032301032
30
0
41
1
10
109.621578345179
20
-12.4723817508485
30
0
41
1
10
109.775651318074
20
-12.0613147518915
30
0
41
1
10
109.852687804522
20
-11.8236581556245
30
0
41
1
10
110.006760777418
20
-11.2856631927756
30
0
41
1
10
110.083797263866
20
-10.985324308954
30
0
41
1
10
110.160833750314
20
-10.6559519913268
30
0
0
SPLINE
5
D9
100
AcDbEntity
8
1
62
256
6
ByLayer
370
13
48
1
60
0
100
AcDbSpline
70
4
71
3
72
78
73
74
40
0
40
0
40
0
40
0
40
0.0312500000000006
40
0.0312500000000006
40
0.0390625000000005
40
0.0390625000000005
40
0.0468750000000004
40
0.0468750000000004
40
0.0625000000000002
40
0.0625000000000002
40
0.0937500000000002
40
0.0937500000000002
40
0.125
40
0.125
40
0.15625
40
0.15625
40
0.1875
40
0.1875
40
0.21875
40
0.21875
40
0.25
40
0.25
40
0.28125
40
0.28125
40
0.3125
40
0.3125
40
0.34375
40
0.34375
40
0.375
40
0.375
40
0.40625
40
0.40625
40
0.4375
40
0.4375
40
0.46875
40
0.46875
40
0.5
40
0.5
40
0.515625
40
0.515625
40
0.5234375
40
0.5234375
40
0.53125
40
0.53125
40
0.5625
40
0.5625
40
0.59375
40
0.59375
40
0.625
40
0.625
40
0.65625
40
0.65625
40
0.6875
40
0.6875
40
0.71875
40
0.71875
40
0.75
40
0.75
40
0.78125
40
0.78125
40
0.8125
40
0.8125
40
0.84375
40
0.84375
40
0.875
40
0.875
40
0.90625
40
0.90625
40
0.9375
40
0.9375
40
0.96875
40
0.96875
40
1
40
1
40
1
40
1
41
1
10
97.9
20
-13.1684093667639
30
0
41
1
10
97.9669003941398
20
-13.2280261134194
30
0
41
1
10
98.0338007882797
20
-13.2657607191977
30
0
41
1
10
98.1174262809543
20
-13.2879296534914
30
0
41
1
10
98.1341513794893
20
-13.29111533323
30
0
41
1
10
98.1676015765592
20
-13.295056079707
30
0
41
1
10
98.1843266750942
20
-13.295812971679
30
0
41
1
10
98.2345019706991
20
-13.2945272340227
30
0
41
1
10
98.267952167769
20
-13.2888939999753
30
0
41
1
10
98.3683027589785
20
-13.2568753756063
30
0
41
1
10
98.4352031531184
20
-13.2153446280567
30
0
41
1
10
98.5690039413979
20
-13.0882196444013
30
0
41
1
10
98.6359043355378
20
-13.0026144404086
30
0
41
1
10
98.7697051238173
20
-12.7846040260995
30
0
41
1
10
98.8366055179572
20
-12.6521890205233
30
0
41
1
10
98.9704063062367
20
-12.339117947866
30
0
41
1
10
99.0373067003765
20
-12.1584547239536
30
0
41
1
10
99.1711074886562
20
-11.749001660851
30
0
41
1
10
99.238007882796
20
-11.520208652042
30
0
41
1
10
99.3718086710757
20
-11.0163258572488
30
0
41
1
10
99.4387090652153
20
-10.7412378040935
30
0
41
1
10
99.5725098534949
20
-10.1483346980066
30
0
41
1
10
99.6394102476348
20
-9.83052649340331
30
0
41
1
10
99.7732110359144
20
-9.1573641342747
30
0
41
1
10
99.8401114300542
20
-8.8020213307413
30
0
41
1
10
99.9739122183337
20
-8.06030591237791
30
0
41
1
10
100.040812612474
20
-7.67394779282412
30
0
41
1
10
100.174613400753
20
-6.87765935738153
30
0
41
1
10
100.241513794893
20
-6.46774485048354
30
0
41
1
10
100.375314583172
20
-5.63228074538168
30
0
41
1
10
100.442214977312
20
-5.20674635147333
30
0
41
1
10
100.576015765592
20
-4.34798648842008
30
0
41
1
10
100.642916159732
20
-3.91477398887923
30
0
41
1
10
100.776716948011
20
-3.04818029487001
30
0
41
1
10
100.843617342151
20
-2.61480875607643
30
0
41
1
10
100.977418130431
20
-1.754654728926
30
0
41
1
10
101.04431852457
20
-1.32787814907826
30
0
41
1
10
101.14466911578
20
-0.696973983087503
30
0
41
1
10
101.17811931285
20
-0.488207710907659
30
0
41
1
10
101.228294608455
20
-0.177822002587391
30
0
41
1
10
101.24501970699
20
-0.0749733255513831
30
0
41
1
10
101.27846990406
20
0.130394201104906
30
0
41
1
10
101.295195002595
20
0.233566956931355
30
0
41
1
10
101.378820495269
20
0.751698296487405
30
0
41
1
10
101.445720889409
20
1.17350335707846
30
0
41
1
10
101.579521677689
20
2.02646491705474
30
0
41
1
10
101.646422071829
20
2.45761719280716
30
0
41
1
10
101.780222860108
20
3.32295534096508
30
0
41
1
10
101.847123254248
20
3.75713324700897
30
0
41
1
10
101.980924042528
20
4.62131905654192
30
0
41
1
10
102.047824436667
20
5.05131540307929
30
0
41
1
10
102.181625224947
20
5.89934277476442
30
0
41
1
10
102.248525619087
20
6.31735943914089
30
0
41
1
10
102.382326407367
20
7.13343289513693
30
0
41
1
10
102.449226801506
20
7.53147392453388
30
0
41
1
10
102.583027589786
20
8.29986019076097
30
0
41
1
10
102.649927983926
20
8.67019009288651
30
0
41
1
10
102.783728772205
20
9.37615068356564
30
0
41
1
10
102.850629166345
20
9.71176838549815
30
0
41
1
10
102.984429954625
20
10.3424658663151
30
0
41
1
10
103.051330348764
20
10.6375366230163
30
0
41
1
10
103.185131137044
20
11.1828021769811
30
0
41
1
10
103.252031531184
20
11.4329928912821
30
0
41
1
10
103.385832319463
20
11.8858606428601
30
0
41
1
10
103.452732713603
20
12.0885386953881
30
0
41
1
10
103.586533501883
20
12.44548956202
30
0
41
1
10
103.653433896023
20
12.5997678672266
30
0
41
1
10
103.787234684302
20
12.8606731447622
30
0
41
1
10
103.854135078442
20
12.9673088937694
30
0
41
1
10
103.987935866722
20
13.1351093707535
30
0
41
1
10
104.054836260861
20
13.1962847101885
30
0
41
1
10
104.188637049141
20
13.2764745063191
30
0
41
1
10
104.255537443281
20
13.2955
30
0
41
1
10
104.322437837421
20
13.2955
30
0
0
SPLINE
5
DA
100
AcDbEntity
8
1
62
256
6
ByLayer
370
13
48
1
60
0
100
AcDbSpline
70
4
71
3
72
79
73
75
40
0
40
0
40
0
40
0
40
0.0312500000000001
40
0.0312500000000001
40
0.0625000000000001
40
0.0625000000000001
40
0.0937500000000002
40
0.0937500000000002
40
0.125
40
0.125
40
0.15625
40
0.15625
40
0.1875
40
0.1875
40
0.21875
40
0.21875
40
0.25
40
0.25
40
0.28125
40
0.28125
40
0.3125
40
0.3125
40
0.343750000000001
40
0.343750000000001
40
0.375000000000001
40
0.375000000000001
40
0.382812500000001
40
0.386718750000001
40
0.386718750000001
40
0.390625000000001
40
0.390625000000001
40
0.406250000000001
40
0.406250000000001
40
0.437500000000001
40
0.437500000000001
40
0.468750000000001
40
0.468750000000001
40
0.500000000000001
40
0.500000000000001
40
0.531250000000001
40
0.531250000000001
40
0.562500000000001
40
0.562500000000001
40
0.593750000000001
40
0.593750000000001
40
0.625
40
0.625
40
0.65625
40
0.65625
40
0.6875
40
0.6875
40
0.71875
40
0.71875
40
0.75
40
0.75
40
0.765625
40
0.765625
40
0.7734375
40
0.7734375
40
0.78125
40
0.78125
40
0.8125
40
0.8125
40
0.84375
40
0.84375
40
0.875
40
0.875
40
0.90625
40
0.90625
40
0.9375
40
0.9375
40
0.96875
40
0.96875
40
1
40
1
40
1
40
1
41
1
10
102.278798007493
20
13.2955
30
0
41
1
10
102.360902546481
20
13.2955
30
0
41
1
10
102.443007085468
20
13.2668222604695
30
0
41
1
10
102.607216163444
20
13.144699777443
30
0
41
1
10
102.689320702431
20
13.0512243435206
30
0
41
1
10
102.853529780407
20
12.7940163405417
30
0
41
1
10
102.935634319394
20
12.6302561380528
30
0
41
1
10
103.09984339737
20
12.2298634134607
30
0
41
1
10
103.181947936358
20
11.993212369904
30
0
41
1
10
103.346157014333
20
11.4480138971666
30
0
41
1
10
103.428261553321
20
11.1394624545343
30
0
41
1
10
103.592470631296
20
10.4553876258014
30
0
41
1
10
103.674575170284
20
10.0798775420256
30
0
41
1
10
103.83878424826
20
9.2706265587592
30
0
41
1
10
103.920888787247
20
8.83691513109562
30
0
41
1
10
104.085097865223
20
7.92316904014012
30
0
41
1
10
104.16720240421
20
7.44317489334287
30
0
41
1
10
104.331411482186
20
6.45086426754202
30
0
41
1
10
104.413516021174
20
5.93859172930945
30
0
41
1
10
104.577725099149
20
4.8965207225103
30
0
41
1
10
104.659829638137
20
4.36676186162259
30
0
41
1
10
104.824038716112
20
3.30402773150715
30
0
41
1
10
104.9061432551
20
2.77108201232576
30
0
41
1
10
105.070352333075
20
1.71473983210163
30
0
41
1
10
105.152456872063
20
1.19136030271343
30
0
41
1
10
105.255087545798
20
0.54967774311433
30
0
41
1
10
105.285876747918
20
0.35810456964694
30
0
41
1
10
105.316665950038
20
0.168085340601095
30
0
41
1
10
105.337192084785
20
0.0417673858304966
30
0
41
1
10
105.347455152159
20
-0.0211012496189653
30
0
41
1
10
105.398770489026
20
-0.336698026663157
30
0
41
1
10
105.43982275852
20
-0.592088934627554
30
0
41
1
10
105.562979567002
20
-1.36533808088737
30
0
41
1
10
105.645084105989
20
-1.89034768997251
30
0
41
1
10
105.809293183965
20
-2.94863328216806
30
0
41
1
10
105.891397722952
20
-3.48189090335586
30
0
41
1
10
106.055606800928
20
-4.5437180565504
30
0
41
1
10
106.137711339915
20
-5.07225673084923
30
0
41
1
10
106.301920417891
20
-6.11024351397776
30
0
41
1
10
106.384024956879
20
-6.61965119773743
30
0
41
1
10
106.548234034854
20
-7.60460947248558
30
0
41
1
10
106.630338573842
20
-8.08011610133266
30
0
41
1
10
106.794547651817
20
-8.98343363329747
30
0
41
1
10
106.876652190805
20
-9.41120489935679
30
0
41
1
10
107.040861268781
20
-10.2074263494102
30
0
41
1
10
107.122965807768
20
-10.5758486733492
30
0
41
1
10
107.287174885744
20
-11.2449999919487
30
0
41
1
10
107.369279424731
20
-11.5457176339577
30
0
41
1
10
107.533488502707
20
-12.0749435310716
30
0
41
1
10
107.615593041694
20
-12.3034576167527
30
0
41
1
10
107.77980211967
20
-12.6876979509097
30
0
41
1
10
107.861906658658
20
-12.84344403131
30
0
41
1
10
108.026115736633
20
-13.0851070912158
30
0
41
1
10
108.108220275621
20
-13.1710523379006
30
0
41
1
10
108.231377084103
20
-13.2519119739301
30
0
41
1
10
108.272429353596
20
-13.270874494926
30
0
41
1
10
108.334007757837
20
-13.2880080615878
30
0
41
1
10
108.354533892584
20
-13.2918350417354
30
0
41
1
10
108.395586162078
20
-13.2958419470845
30
0
41
1
10
108.416112296825
20
-13.2960357918428
30
0
41
1
10
108.518742970559
20
-13.2880079439284
30
0
41
1
10
108.600847509547
20
-13.2524572041516
30
0
41
1
10
108.765056587523
20
-13.1158625174874
30
0
41
1
10
108.84716112651
20
-13.0147879408293
30
0
41
1
10
109.011370204486
20
-12.7419329029015
30
0
41
1
10
109.093474743473
20
-12.5701255187405
30
0
41
1
10
109.257683821449
20
-12.1535591715187
30
0
41
1
10
109.339788360437
20
-11.9087830664574
30
0
41
1
10
109.503997438412
20
-11.3476852687849
30
0
41
1
10
109.5861019774
20
-11.0313614161635
30
0
41
1
10
109.750311055375
20
-10.3325337158612
30
0
41
1
10
109.832415594363
20
-9.95004510602189
30
0
41
1
10
109.996624672338
20
-9.12802275371368
30
0
41
1
10
110.078729211326
20
-8.68852002970985
30
0
41
1
10
110.160833750314
20
-8.22659466167681
30
0
0
SPLINE
5
DB
100
AcDbEntity
8
1
62
256
6
ByLayer
370
13
48
1
60
0
100
AcDbSpline
70
4
71
3
72
74
73
70
40
0
40
0
40
0
40
0
40
0.0312499999999998
40
0.0312499999999998
40
0.0624999999999997
40
0.0624999999999997
40
0.0937499999999996
40
0.0937499999999996
40
0.125
40
0.125
40
0.156249999999999
40
0.156249999999999
40
0.187499999999999
40
0.187499999999999
40
0.218749999999999
40
0.218749999999999
40
0.249999999999999
40
0.249999999999999
40
0.281249999999999
40
0.281249999999999
40
0.312499999999999
40
0.312499999999999
40
0.343749999999999
40
0.343749999999999
40
0.374999999999999
40
0.374999999999999
40
0.406249999999999
40
0.406249999999999
40
0.437499999999999
40
0.437499999999999
40
0.46875
40
0.46875
40
0.476562499999999
40
0.476562499999999
40
0.484374999999999
40
0.484374999999999
40
0.499999999999999
40
0.499999999999999
40
0.531249999999999
40
0.531249999999999
40
0.562499999999999
40
0.562499999999999
40
0.593749999999999
40
0.593749999999999
40
0.624999999999999
40
0.624999999999999
40
0.656249999999999
40
0.656249999999999
40
0.687499999999999
40
0.687499999999999
40
0.718749999999999
40
0.718749999999999
40
0.749999999999999
40
0.749999999999999
40
0.781249999999999
40
0.781249999999999
40
0.812499999999999
40
0.812499999999999
40
0.843749999999999
40
0.843749999999999
40
0.875
40
0.875
40
0.90625
40
0.90625
40
0.9375
40
0.9375
40
0.96875
40
0.96875
40
1
40
1
40
1
40
1
41
1
10
97.9
20
-13.2400289010414
30
0
41
1
10
97.9618323415999
20
-13.204169180926
30
0
41
1
10
98.0236646831999
20
-13.1503567937409
30
0
41
1
10
98.1473293663998
20
-13.0041773624827
30
0
41
1
10
98.2091617079996
20
-12.9118030814353
30
0
41
1
10
98.3328263911995
20
-12.6866332029255
30
0
41
1
10
98.3946587327994
20
-12.553831378977
30
0
41
1
10
98.5183234159992
20
-12.2469425023972
30
0
41
1
10
98.5801557575992
20
-12.0728510805772
30
0
41
1
10
98.7038204407991
20
-11.6836840647112
30
0
41
1
10
98.7656527823989
20
-11.4686067046176
30
0
41
1
10
98.8893174655989
20
-10.9990286020565
30
0
41
1
10
98.9511498071988
20
-10.744529184948
30
0
41
1
10
99.0748144903986
20
-10.1989356848022
30
0
41
1
10
99.1366468319984
20
-9.90784612174491
30
0
41
1
10
99.2603115151983
20
-9.29308127594115
30
0
41
1
10
99.3221438567983
20
-8.96941336830008
30
0
41
1
10
99.4458085399981
20
-8.29450082679648
30
0
41
1
10
99.507640881598
20
-7.94326567746467
30
0
41
1
10
99.6313055647978
20
-7.21897154050922
30
0
41
1
10
99.6931379063979
20
-6.84592312199317
30
0
41
1
10
99.8168025895976
20
-6.08419423558553
30
0
41
1
10
99.8786349311975
20
-5.69552430261967
30
0
41
1
10
100.002299614397
20
-4.90886215217949
30
0
41
1
10
100.064131955997
20
-4.51087941647705
30
0
41
1
10
100.187796639197
20
-3.71171534822108
30
0
41
1
10
100.249628980797
20
-3.31054167851127
30
0
41
1
10
100.373293663997
20
-2.51067348317068
30
0
41
1
10
100.435126005597
20
-2.11198437072483
30
0
41
1
10
100.558790688797
20
-1.32211959002905
30
0
41
1
10
100.620623030397
20
-0.930946993646131
30
0
41
1
10
100.697913457396
20
-0.449341853131898
30
0
41
1
10
100.713371542796
20
-0.353386875122737
30
0
41
1
10
100.744287713597
20
-0.162267533650748
30
0
41
1
10
100.759745798997
20
-0.0672427176333201
30
0
41
1
10
100.806120055196
20
0.217471660617065
30
0
41
1
10
100.837036225996
20
0.408953645226688
30
0
41
1
10
100.929784738396
20
0.987726568680131
30
0
41
1
10
100.991617079996
20
1.37936954518619
30
0
41
1
10
101.115281763196
20
2.1699477141602
30
0
41
1
10
101.177114104796
20
2.56887972341406
30
0
41
1
10
101.300778787996
20
3.36897155712654
30
0
41
1
10
101.362611129596
20
3.77012585435756
30
0
41
1
10
101.486275812796
20
4.56896220663515
30
0
41
1
10
101.548108154396
20
4.96663649763838
30
0
41
1
10
101.671772837595
20
5.75237723156636
30
0
41
1
10
101.733605179195
20
6.14043412133458
30
0
41
1
10
101.857269862395
20
6.90063075262236
30
0
41
1
10
101.919102203995
20
7.27275993248827
30
0
41
1
10
102.042766887195
20
7.99492322183971
30
0
41
1
10
102.104599228795
20
8.34494678902968
30
0
41
1
10
102.228263911995
20
9.0171730602473
30
0
41
1
10
102.290096253595
20
9.3393663601509
30
0
41
1
10
102.413760936794
20
9.95096199713976
30
0
41
1
10
102.475593278394
20
10.2403570835484
30
0
41
1
10
102.599257961594
20
10.7823954792675
30
0
41
1
10
102.661090303194
20
11.0350344195997
30
0
41
1
10
102.784754986394
20
11.5007857836938
30
0
41
1
10
102.846587327994
20
11.7138970382029
30
0
41
1
10
102.970252011194
20
12.09908825624
30
0
41
1
10
103.032084352794
20
12.2711701262809
30
0
41
1
10
103.155749035993
20
12.5740558163174
30
0
41
1
10
103.217581377593
20
12.7048641144523
30
0
41
1
10
103.341246060793
20
12.9261158703802
30
0
41
1
10
103.403078402393
20
13.0165656235139
30
0
41
1
10
103.526743085593
20
13.1590087551681
30
0
41
1
10
103.588575427193
20
13.2110093984441
30
0
41
1
10
103.712240110393
20
13.2792513027229
30
0
41
1
10
103.774072451993
20
13.2955
30
0
41
1
10
103.835904793593
20
13.2955
30
0
0
SPLINE
5
DC
100
AcDbEntity
8
1
62
256
6
ByLayer
370
13
48
1
60
0
100
AcDbSpline
70
4
71
3
72
81
73
77
40
0
40
0
40
0
40
0
40
0.0312500000000011
40
0.0312500000000011
40
0.0625000000000023
40
0.0625000000000023
40
0.0937500000000034
40
0.0937500000000034
40
0.125000000000005
40
0.125000000000005
40
0.156250000000006
40
0.156250000000006
40
0.187500000000007
40
0.187500000000007
40
0.218750000000008
40
0.218750000000008
40
0.250000000000009
40
0.250000000000009
40
0.28125000000001
40
0.28125000000001
40
0.312500000000011
40
0.312500000000011
40
0.343750000000012
40
0.343750000000012
40
0.359375000000013
40
0.359375000000013
40
0.363281250000013
40
0.363281250000013
40
0.367187500000013
40
0.367187500000013
40
0.375000000000013
40
0.375000000000013
40
0.406250000000013
40
0.406250000000013
40
0.437500000000012
40
0.437500000000012
40
0.468750000000012
40
0.468750000000012
40
0.500000000000011
40
0.500000000000011
40
0.531250000000011
40
0.531250000000011
40
0.562500000000011
40
0.562500000000011
40
0.59375000000001
40
0.59375000000001
40
0.62500000000001
40
0.62500000000001
40
0.656250000000009
40
0.656250000000009
40
0.687500000000009
40
0.687500000000009
40
0.718750000000008
40
0.718750000000008
40
0.726562500000008
40
0.730468750000008
40
0.730468750000008
40
0.734375000000008
40
0.734375000000008
40
0.750000000000008
40
0.750000000000008
40
0.781250000000007
40
0.781250000000007
40
0.812500000000006
40
0.812500000000006
40
0.843750000000005
40
0.843750000000005
40
0.875000000000004
40
0.875000000000004
40
0.906250000000003
40
0.906250000000003
40
0.937500000000002
40
0.937500000000002
40
0.968750000000001
40
0.968750000000001
40
1
40
1
40
1
40
1
41
1
10
101.792264963665
20
13.2955
30
0
41
1
10
101.879437555193
20
13.2955
30
0
41
1
10
101.96661014672
20
13.2631628688423
30
0
41
1
10
102.140955329775
20
13.1250041460272
30
0
41
1
10
102.228127921303
20
13.0191412254939
30
0
41
1
10
102.402473104358
20
12.7276293950284
30
0
41
1
10
102.489645695886
20
12.5419443233112
30
0
41
1
10
102.663990878941
20
12.0882679535536
30
0
41
1
10
102.751163470469
20
11.8202548551197
30
0
41
1
10
102.925508653524
20
11.20408875663
30
0
41
1
10
103.012681245051
20
10.8559359602024
30
0
41
1
10
103.187026428107
20
10.0866937782648
30
0
41
1
10
103.274199019634
20
9.66562948623718
30
0
41
1
10
103.448544202689
20
8.76243037639321
30
0
41
1
10
103.535716794217
20
8.28034183371273
30
0
41
1
10
103.710061977272
20
7.27053153758683
30
0
41
1
10
103.797234568799
20
6.74286772611717
30
0
41
1
10
103.971579751855
20
5.65931087577684
30
0
41
1
10
104.058752343382
20
5.10347536830071
30
0
41
1
10
104.233097526438
20
3.98116630092943
30
0
41
1
10
104.320270117965
20
3.41473930131753
30
0
41
1
10
104.49461530102
20
2.28742636089143
30
0
41
1
10
104.581787892548
20
1.72656990075345
30
0
41
1
10
104.712546779839
20
0.899646689918256
30
0
41
1
10
104.756133075603
20
0.626376442530216
30
0
41
1
10
104.810615945308
20
0.288628667188704
30
0
41
1
10
104.821512519249
20
0.221270616762411
30
0
41
1
10
104.843305667131
20
0.0869574397457029
30
0
41
1
10
104.854202241072
20
0.0201289596774075
30
0
41
1
10
104.886891962894
20
-0.180687805085
30
0
41
1
10
104.908685110776
20
-0.315392487217537
30
0
41
1
10
105.017650850186
20
-0.992652343304741
30
0
41
1
10
105.104823441713
20
-1.54654104744719
30
0
41
1
10
105.279168624769
20
-2.66627867030013
30
0
41
1
10
105.366341216296
20
-3.23210622679386
30
0
41
1
10
105.540686399351
20
-4.36060317761942
30
0
41
1
10
105.627858990879
20
-4.92323311827954
30
0
41
1
10
105.802204173934
20
-6.02822047565783
30
0
41
1
10
105.889376765462
20
-6.57052412377928
30
0
41
1
10
106.063721948517
20
-7.6171668970438
30
0
41
1
10
106.150894540045
20
-8.12144677261091
30
0
41
1
10
106.3252397231
20
-9.07550641301577
30
0
41
1
10
106.412412314627
20
-9.52523333015827
30
0
41
1
10
106.586757497682
20
-10.3565368438019
30
0
41
1
10
106.67393008921
20
-10.7380781391736
30
0
41
1
10
106.848275272265
20
-11.4236083301567
30
0
41
1
10
106.935447863793
20
-11.7275860100464
30
0
41
1
10
107.109793046848
20
-12.2535523243982
30
0
41
1
10
107.196965638376
20
-12.4755537678676
30
0
41
1
10
107.371310821431
20
-12.8380658829168
30
0
41
1
10
107.458483412958
20
-12.9786074925324
30
0
41
1
10
107.632828596014
20
-13.1829496328893
30
0
41
1
10
107.720001187541
20
-13.2467903110252
30
0
41
1
10
107.828966926951
20
-13.2835648122925
30
0
41
1
10
107.861656648774
20
-13.2913791082955
30
0
41
1
10
107.894346370596
20
-13.2945277350846
30
0
41
1
10
107.916139518478
20
-13.2956087018279
30
0
41
1
10
107.927036092419
20
-13.2956422851098
30
0
41
1
10
107.981518962124
20
-13.2932804080017
30
0
41
1
10
108.025105257888
20
-13.2832512950383
30
0
41
1
10
108.155864145179
20
-13.2270223043887
30
0
41
1
10
108.243036736707
20
-13.154593635299
30
0
41
1
10
108.417381919762
20
-12.9323346683196
30
0
41
1
10
108.504554511289
20
-12.7824648183898
30
0
41
1
10
108.678899694345
20
-12.4009977889405
30
0
41
1
10
108.766072285872
20
-12.1693713536149
30
0
41
1
10
108.940417468927
20
-11.6244059423391
30
0
41
1
10
109.027590060455
20
-11.3110567473519
30
0
41
1
10
109.20193524351
20
-10.6076254676076
30
0
41
1
10
109.289107835038
20
-10.2175575347083
30
0
41
1
10
109.463453018093
20
-9.37059007056897
30
0
41
1
10
109.550625609621
20
-8.91372834023508
30
0
41
1
10
109.724970792676
20
-7.9472074610583
30
0
41
1
10
109.812143384203
20
-7.43760253341696
30
0
41
1
10
109.986488567259
20
-6.38234826939333
30
0
41
1
10
110.073661158786
20
-5.83675812672396
30
0
41
1
10
110.160833750314
20
-5.28200771638441
30
0
0
SPLINE
5
DD
100
AcDbEntity
8
1
62
256
6
ByLayer
370
13
48
1
60
0
100
AcDbSpline
70
4
71
3
72
58
73
54
40
0
40
0
40
0
40
0
40
0.0312499999999998
40
0.0312499999999998
40
0.0624999999999997
40
0.0624999999999997
40
0.0937499999999995
40
0.0937499999999995
40
0.124999999999999
40
0.124999999999999
40
0.156249999999999
40
0.156249999999999
40
0.187499999999999
40
0.187499999999999
40
0.218749999999999
40
0.218749999999999
40
0.249999999999999
40
0.249999999999999
40
0.281249999999999
40
0.281249999999999
40
0.312499999999998
40
0.312499999999998
40
0.374999999999999
40
0.374999999999999
40
0.437499999999999
40
0.437499999999999
40
0.499999999999999
40
0.499999999999999
40
0.562499999999999
40
0.562499999999999
40
0.593749999999999
40
0.593749999999999
40
0.624999999999999
40
0.624999999999999
40
0.656249999999999
40
0.656249999999999
40
0.687499999999999
40
0.687499999999999
40
0.718749999999999
40
0.718749999999999
40
0.749999999999999
40
0.749999999999999
40
0.781249999999999
40
0.781249999999999
40
0.812499999999999
40
0.812499999999999
40
0.843749999999999
40
0.843749999999999
40
0.874999999999999
40
0.874999999999999
40
0.9375
40
0.9375
40
1
40
1
40
1
40
1
41
1
10
97.9
20
-12.565218446427
30
0
41
1
10
97.9567642890601
20
-12.4385846723547
30
0
41
1
10
98.0135285781201
20
-12.2946385384096
30
0
41
1
10
98.1270571562401
20
-11.9719730228902
30
0
41
1
10
98.1838214453003
20
-11.7932516553329
30
0
41
1
10
98.2973500234204
20
-11.4017513407368
30
0
41
1
10
98.3541143124804
20
-11.1889721397072
30
0
41
1
10
98.4676428906005
20
-10.7309775856432
30
0
41
1
10
98.5244071796606
20
-10.4857638898423
30
0
41
1
10
98.6379357577807
20
-9.96540699452845
30
0
41
1
10
98.6947000468407
20
-9.69026732985108
30
0
41
1
10
98.8082286249607
20
-9.11337213332479
30
0
41
1
10
98.8649929140208
20
-8.81162175622546
30
0
41
1
10
98.9785214921409
20
-8.18549419841125
30
0
41
1
10
99.035285781201
20
-7.86112334090626
30
0
41
1
10
99.1488143593211
20
-7.19424521814847
30
0
41
1
10
99.2055786483811
20
-6.85174486618644
30
0
41
1
10
99.3191072265013
20
-6.15339859225693
30
0
41
1
10
99.3758715155613
20
-5.79755955688395
30
0
41
1
10
99.4894000936813
20
-5.07741779374851
30
0
41
1
10
99.5461643827414
20
-4.71312136077611
30
0
41
1
10
99.7164572499216
20
-3.6146961359446
30
0
41
1
10
99.8299858280417
20
-2.8752586507006
30
0
41
1
10
100.057042984282
20
-1.41627254288733
30
0
41
1
10
100.170571562402
20
-0.696805693728209
30
0
41
1
10
100.397628718642
20
0.696030670720887
30
0
41
1
10
100.511157296762
20
1.41546787205723
30
0
41
1
10
100.738214453003
20
2.8744396576096
30
0
41
1
10
100.851743031123
20
3.61387569094722
30
0
41
1
10
101.022035898303
20
4.71230916665931
30
0
41
1
10
101.078800187363
20
5.07661007768567
30
0
41
1
10
101.192328765483
20
5.79676440074869
30
0
41
1
10
101.249093054543
20
6.15261151861679
30
0
41
1
10
101.362621632663
20
6.85097757098671
30
0
41
1
10
101.419385921723
20
7.19348961913514
30
0
41
1
10
101.532914499843
20
7.86039460355204
30
0
41
1
10
101.589678788903
20
8.18478062632192
30
0
41
1
10
101.703207367023
20
8.81094168528051
30
0
41
1
10
101.759971656083
20
9.11271039759657
30
0
41
1
10
101.873500234203
20
9.68964499509144
30
0
41
1
10
101.930264523263
20
9.9648057244658
30
0
41
1
10
102.043793101384
20
10.4852069242954
30
0
41
1
10
102.100557390444
20
10.7304438585907
30
0
41
1
10
102.214085968564
20
11.1884864302321
30
0
41
1
10
102.270850257624
20
11.4012904089111
30
0
41
1
10
102.384378835744
20
11.7928411477547
30
0
41
1
10
102.441143124804
20
11.9715881605344
30
0
41
1
10
102.554671702924
20
12.294305169483
30
0
41
1
10
102.611435991984
20
12.4382771504613
30
0
41
1
10
102.781728859164
20
12.8182553859764
30
0
41
1
10
102.895257437284
20
13.0019976775263
30
0
41
1
10
103.122314593524
20
13.2405442797013
30
0
41
1
10
103.235843171645
20
13.2955
30
0
41
1
10
103.349371749765
20
13.2955
30
0
0
SPLINE
5
DE
100
AcDbEntity
8
1
62
256
6
ByLayer
370
13
48
1
60
0
100
AcDbSpline
70
4
71
3
72
81
73
77
40
0
40
0
40
0
40
0
40
0.0312499999999992
40
0.0312499999999992
40
0.0624999999999984
40
0.0624999999999984
40
0.0937499999999975
40
0.0937499999999975
40
0.124999999999997
40
0.124999999999997
40
0.156249999999996
40
0.156249999999996
40
0.187499999999995
40
0.187499999999995
40
0.218749999999994
40
0.218749999999994
40
0.249999999999993
40
0.249999999999993
40
0.281249999999993
40
0.281249999999993
40
0.312499999999992
40
0.312499999999992
40
0.343749999999991
40
0.343749999999991
40
0.347656249999991
40
0.347656249999991
40
0.351562499999991
40
0.359374999999991
40
0.359374999999991
40
0.374999999999992
40
0.374999999999992
40
0.406249999999992
40
0.406249999999992
40
0.437499999999993
40
0.437499999999993
40
0.468749999999994
40
0.468749999999994
40
0.499999999999994
40
0.499999999999994
40
0.531249999999995
40
0.531249999999995
40
0.562499999999996
40
0.562499999999996
40
0.593749999999996
40
0.593749999999996
40
0.624999999999997
40
0.624999999999997
40
0.656249999999997
40
0.656249999999997
40
0.687499999999998
40
0.687499999999998
40
0.691406249999998
40
0.691406249999998
40
0.695312499999998
40
0.695312499999998
40
0.703124999999998
40
0.703124999999998
40
0.718749999999998
40
0.718749999999998
40
0.749999999999998
40
0.749999999999998
40
0.781249999999999
40
0.781249999999999
40
0.812499999999999
40
0.812499999999999
40
0.843749999999999
40
0.843749999999999
40
0.874999999999999
40
0.874999999999999
40
0.906249999999999
40
0.906249999999999
40
0.9375
40
0.9375
40
0.96875
40
0.96875
40
1
40
1
40
1
40
1
41
1
10
101.305731919837
20
13.2955
30
0
41
1
10
101.397972563905
20
13.2955
30
0
41
1
10
101.490213207972
20
13.2592817118947
30
0
41
1
10
101.674694496107
20
13.1040435505332
30
0
41
1
10
101.766935140174
20
12.9849689979642
30
0
41
1
10
101.951416428309
20
12.656882075141
30
0
41
1
10
102.043657072377
20
12.4478233953105
30
0
41
1
10
102.228138360512
20
11.9375276351781
30
0
41
1
10
102.320379004579
20
11.6362661798394
30
0
41
1
10
102.504860292714
20
10.9453324317624
30
0
41
1
10
102.597100936782
20
10.5556680604886
30
0
41
1
10
102.781582224917
20
9.69798524248674
30
0
41
1
10
102.873822868984
20
9.23000910888931
30
0
41
1
10
103.058304157119
20
8.23129337266579
30
0
41
1
10
103.150544801186
20
7.7006221894467
30
0
41
1
10
103.335026089321
20
6.5959379954343
30
0
41
1
10
103.427266733389
20
6.02200346683085
30
0
41
1
10
103.611748021524
20
4.85177464882585
30
0
41
1
10
103.703988665591
20
4.2555512827476
30
0
41
1
10
103.888469953726
20
3.06097962986829
30
0
41
1
10
103.980710597794
20
2.46268178848172
30
0
41
1
10
104.165191885928
20
1.28158473943478
30
0
41
1
10
104.257432529996
20
0.69881051771668
30
0
41
1
10
104.361203254572
20
0.0597088738207674
30
0
41
1
10
104.37273333508
20
-0.0109235150029292
30
0
41
1
10
104.395793496097
20
-0.152736545540222
30
0
41
1
10
104.430383737623
20
-0.366144241325969
30
0
41
1
10
104.464973979148
20
-0.581513387160385
30
0
41
1
10
104.534154462198
20
-1.01456964338087
30
0
41
1
10
104.580274784232
20
-1.30637220778328
30
0
41
1
10
104.718635750333
20
-2.18841026956059
30
0
41
1
10
104.810876394401
20
-2.78538196143677
30
0
41
1
10
104.995357682536
20
-3.9802100779192
30
0
41
1
10
105.087598326603
20
-4.57801985377651
30
0
41
1
10
105.272079614738
20
-5.75462908174836
30
0
41
1
10
105.364320258806
20
-6.33336009927973
30
0
41
1
10
105.54880154694
20
-7.45082076260422
30
0
41
1
10
105.641042191008
20
-7.98947199668032
30
0
41
1
10
105.825523479143
20
-9.00694207409515
30
0
41
1
10
105.91776412321
20
-9.48568978715397
30
0
41
1
10
106.102245411345
20
-10.366994780864
30
0
41
1
10
106.194486055413
20
-10.7695049485131
30
0
41
1
10
106.378967343548
20
-11.4872844567335
30
0
41
1
10
106.471207987615
20
-11.8025404685411
30
0
41
1
10
106.65568927575
20
-12.3410043318264
30
0
41
1
10
106.747929919817
20
-12.5642321122366
30
0
41
1
10
106.932411207953
20
-12.9199643031258
30
0
41
1
10
107.02465185202
20
-13.0525125184578
30
0
41
1
10
107.209133140155
20
-13.2333436993105
30
0
41
1
10
107.301373784222
20
-13.2816809148883
30
0
41
1
10
107.405144508798
20
-13.2943239487588
30
0
41
1
10
107.416674589307
20
-13.2951507351939
30
0
41
1
10
107.439734750323
20
-13.2956703835099
30
0
41
1
10
107.451264830832
20
-13.2953662969854
30
0
41
1
10
107.485855072357
20
-13.292737901369
30
0
41
1
10
107.508915233374
20
-13.2886935615783
30
0
41
1
10
107.578095716425
20
-13.2694255433958
30
0
41
1
10
107.624216038458
20
-13.2470614892886
30
0
41
1
10
107.76257700456
20
-13.1495108358612
30
0
41
1
10
107.854817648627
20
-13.0437384254052
30
0
41
1
10
108.039298936762
20
-12.7430702648863
30
0
41
1
10
108.131539580829
20
-12.5481260311128
30
0
41
1
10
108.316020868964
20
-12.0660326588096
30
0
41
1
10
108.408261513032
20
-11.7788549545723
30
0
41
1
10
108.592742801167
20
-11.1150960181758
30
0
41
1
10
108.684983445234
20
-10.7385173542886
30
0
41
1
10
108.869464733369
20
-9.9050691791366
30
0
41
1
10
108.961705377437
20
-9.44823698000585
30
0
41
1
10
109.146186665572
20
-8.46911194036781
30
0
41
1
10
109.238427309639
20
-7.9468844164594
30
0
41
1
10
109.422908597774
20
-6.85594083156212
30
0
41
1
10
109.515149241842
20
-6.28730289393135
30
0
41
1
10
109.699630529977
20
-5.12443612606833
30
0
41
1
10
109.791871174044
20
-4.53028039626409
30
0
41
1
10
109.976352462179
20
-3.33686451308034
30
0
41
1
10
110.068593106246
20
-2.73765848569744
30
0
41
1
10
110.160833750314
20
-2.1449596735475
30
0
0
SPLINE
5
DF
100
AcDbEntity
8
1
62
256
6
ByLayer
370
13
48
1
60
0
100
AcDbSpline
70
4
71
3
72
42
73
38
40
0
40
0
40
0
40
0
40
0.0624999999999995
40
0.0624999999999995
40
0.124999999999999
40
0.124999999999999
40
0.187499999999999
40
0.187499999999999
40
0.249999999999998
40
0.249999999999998
40
0.312499999999997
40
0.312499999999997
40
0.374999999999997
40
0.374999999999997
40
0.390624999999997
40
0.390624999999997
40
0.406249999999997
40
0.406249999999997
40
0.437499999999997
40
0.437499999999997
40
0.499999999999997
40
0.499999999999997
40
0.562499999999997
40
0.562499999999997
40
0.624999999999998
40
0.624999999999998
40
0.687499999999998
40
0.687499999999998
40
0.749999999999999
40
0.749999999999999
40
0.812499999999999
40
0.812499999999999
40
0.874999999999999
40
0.874999999999999
40
0.9375
40
0.9375
40
1
40
1
40
1
40
1
41
1
10
97.9
20
-11.0571940951168
30
0
41
1
10
98.0033924730403
20
-10.648554924471
30
0
41
1
10
98.1067849460808
20
-10.1853723213548
30
0
41
1
10
98.3135698921614
20
-9.16637475190601
30
0
41
1
10
98.4169623652018
20
-8.61065262814262
30
0
41
1
10
98.6237473112824
20
-7.43105711876169
30
0
41
1
10
98.7271397843228
20
-6.80731659900454
30
0
41
1
10
98.9339247304035
20
-5.52063301744107
30
0
41
1
10
99.0373172034439
20
-4.85782416228813
30
0
41
1
10
99.2441021495246
20
-3.52226017611693
30
0
41
1
10
99.347494622565
20
-2.84960649711124
30
0
41
1
10
99.5542795686457
20
-1.52026210955697
30
0
41
1
10
99.6576720416861
20
-0.863623592997271
30
0
41
1
10
99.7869126329865
20
-0.065435194026719
30
0
41
1
10
99.8127607512465
20
0.0925733283409613
30
0
41
1
10
99.8644569877667
20
0.412101406631933
30
0
41
1
10
99.8903051060267
20
0.572972949673954
30
0
41
1
10
99.967849460807
20
1.05849251226911
30
0
41
1
10
100.019545697327
20
1.38605768180904
30
0
41
1
10
100.174634406888
20
2.37661967201143
30
0
41
1
10
100.278026879928
20
3.0476427583076
30
0
41
1
10
100.484811826009
20
4.38644611973052
30
0
41
1
10
100.588204299049
20
5.05413583839973
30
0
41
1
10
100.79498924513
20
6.35759255485249
30
0
41
1
10
100.89838171817
20
6.99323051539105
30
0
41
1
10
101.105166664251
20
8.20320414803751
30
0
41
1
10
101.208559137291
20
8.7774030253585
30
0
41
1
10
101.415344083372
20
9.83854146647403
30
0
41
1
10
101.518736556412
20
10.3253757101147
30
0
41
1
10
101.725521502493
20
11.1930338356864
30
0
41
1
10
101.828913975533
20
11.5738136590778
30
0
41
1
10
102.035698921614
20
12.2201560643645
30
0
41
1
10
102.139091394654
20
12.4857423851751
30
0
41
1
10
102.345876340735
20
12.9023401695661
30
0
41
1
10
102.449268813775
20
13.0534260432435
30
0
41
1
10
102.656053759856
20
13.2499579947285
30
0
41
1
10
102.759446232896
20
13.2955
30
0
41
1
10
102.862838705937
20
13.2955
30
0
0
SPLINE
5
E0
100
AcDbEntity
8
1
62
256
6
ByLayer
370
13
48
1
60
0
100
AcDbSpline
70
4
71
3
72
74
73
70
40
0
40
0
40
0
40
0
40
0.03125
40
0.03125
40
0.0625
40
0.0625
40
0.09375
40
0.09375
40
0.125
40
0.125
40
0.15625
40
0.15625
40
0.1875
40
0.1875
40
0.21875
40
0.21875
40
0.25
40
0.25
40
0.28125
40
0.28125
40
0.3125
40
0.3125
40
0.328125
40
0.328125
40
0.34375
40
0.34375
40
0.375
40
0.375
40
0.40625
40
0.40625
40
0.4375
40
0.4375
40
0.46875
40
0.46875
40
0.5
40
0.5
40
0.53125
40
0.53125
40
0.5625
40
0.5625
40
0.59375
40
0.59375
40
0.625
40
0.625
40
0.65625
40
0.65625
40
0.6875
40
0.6875
40
0.71875
40
0.71875
40
0.75
40
0.75
40
0.78125
40
0.78125
40
0.8125
40
0.8125
40
0.84375
40
0.84375
40
0.875
40
0.875
40
0.90625
40
0.90625
40
0.9375
40
0.9375
40
0.96875
40
0.96875
40
0.984375
40
0.984375
40
1
40
1
40
1
40
1
41
1
10
100.819198876009
20
13.2955
30
0
41
1
10
100.916507572616
20
13.2955
30
0
41
1
10
101.013816269224
20
13.2551782577274
30
0
41
1
10
101.208433662438
20
13.0818095332951
30
0
41
1
10
101.305742359046
20
12.9486913494768
30
0
41
1
10
101.500359752261
20
12.5817503929548
30
0
41
1
10
101.597668448868
20
12.3478695054378
30
0
41
1
10
101.792285842083
20
11.7776725751197
30
0
41
1
10
101.88959453869
20
11.441330994072
30
0
41
1
10
102.084211931905
20
10.6720596576852
30
0
41
1
10
102.181520628512
20
10.2391503636296
30
0
41
1
10
102.376138021727
20
9.29028586495667
30
0
41
1
10
102.473446718334
20
8.77439686114542
30
0
41
1
10
102.668064111549
20
7.67949378446673
30
0
41
1
10
102.765372808156
20
7.10057592300041
30
0
41
1
10
102.959990201371
20
5.90340411986011
30
0
41
1
10
103.057298897978
20
5.28525134820231
30
0
41
1
10
103.251916291193
20
4.03420501377556
30
0
41
1
10
103.3492249878
20
3.40139379474829
30
0
41
1
10
103.543842381015
20
2.1435934062954
30
0
41
1
10
103.641151077622
20
1.51865384166831
30
0
41
1
10
103.787114122533
20
0.600992567110126
30
0
41
1
10
103.835768470837
20
0.298362460708717
30
0
41
1
10
103.933077167444
20
-0.298552690071091
30
0
41
1
10
103.981731515748
20
-0.601186155059963
30
0
41
1
10
104.127694560659
20
-1.5188515622003
30
0
41
1
10
104.225003257266
20
-2.14379302822414
30
0
41
1
10
104.419620650481
20
-3.40159501885688
30
0
41
1
10
104.516929347088
20
-4.03440593489955
30
0
41
1
10
104.711546740303
20
-5.2854491199231
30
0
41
1
10
104.80885543691
20
-5.90359904220284
30
0
41
1
10
105.003472830125
20
-7.10076252351629
30
0
41
1
10
105.100781526732
20
-7.67967491168085
30
0
41
1
10
105.295398919947
20
-8.7745646641857
30
0
41
1
10
105.392707616554
20
-9.29044581905831
30
0
41
1
10
105.587325009769
20
-10.2392927983841
30
0
41
1
10
105.684633706376
20
-10.6721924263004
30
0
41
1
10
105.879251099591
20
-11.4414433796865
30
0
41
1
10
105.976559796198
20
-11.7777742490321
30
0
41
1
10
106.171177189413
20
-12.347949542948
30
0
41
1
10
106.26848588602
20
-12.5818195101251
30
0
41
1
10
106.463103279235
20
-12.9487391685609
30
0
41
1
10
106.560411975842
20
-13.0818469770859
30
0
41
1
10
106.755029369057
20
-13.2551960613243
30
0
41
1
10
106.852338065664
20
-13.29550853922
30
0
41
1
10
107.046955458879
20
-13.2954914580582
30
0
41
1
10
107.144264155486
20
-13.255160451117
30
0
41
1
10
107.338881548701
20
-13.0817720862589
30
0
41
1
10
107.436190245308
20
-12.9486435270553
30
0
41
1
10
107.630807638523
20
-12.5816812723346
30
0
41
1
10
107.72811633513
20
-12.3477894644572
30
0
41
1
10
107.922733728345
20
-11.7775708977825
30
0
41
1
10
108.020042424952
20
-11.4412186050992
30
0
41
1
10
108.214659818167
20
-10.6719268859328
30
0
41
1
10
108.311968514774
20
-10.2390079258923
30
0
41
1
10
108.506585907989
20
-9.29012590825468
30
0
41
1
10
108.603894604596
20
-8.77422905573235
30
0
41
1
10
108.798511997811
20
-7.67931265537919
30
0
41
1
10
108.895820694418
20
-7.10038932088264
30
0
41
1
10
109.090438087633
20
-5.90320919646729
30
0
41
1
10
109.18774678424
20
-5.28505357571152
30
0
41
1
10
109.382364177455
20
-4.03400409241797
30
0
41
1
10
109.479672874062
20
-3.40119257066229
30
0
41
1
10
109.674290267277
20
-2.14339378485477
30
0
41
1
10
109.771598963884
20
-1.51845612183379
30
0
41
1
10
109.917562008796
20
-0.600798980128587
30
0
41
1
10
109.966216357099
20
-0.298173999221376
30
0
41
1
10
110.063525053706
20
0.298744688999562
30
0
41
1
10
110.11217940201
20
0.601379743978072
30
0
41
1
10
110.160833750314
20
0.907269590461937
30
0
0
SPLINE
5
E1
100
AcDbEntity
8
1
62
256
6
ByLayer
370
13
48
1
60
0
100
AcDbSpline
70
4
71
3
72
43
73
39
40
0
40
0
40
0
40
0
40
0.0625000000000016
40
0.0625000000000016
40
0.125000000000003
40
0.125000000000003
40
0.187500000000005
40
0.187500000000005
40
0.250000000000006
40
0.250000000000006
40
0.312500000000008
40
0.312500000000008
40
0.320312500000008
40
0.320312500000008
40
0.328125000000008
40
0.343750000000007
40
0.343750000000007
40
0.375000000000007
40
0.375000000000007
40
0.437500000000006
40
0.437500000000006
40
0.500000000000006
40
0.500000000000006
40
0.562500000000005
40
0.562500000000005
40
0.625000000000004
40
0.625000000000004
40
0.687500000000003
40
0.687500000000003
40
0.750000000000003
40
0.750000000000003
40
0.812500000000002
40
0.812500000000002
40
0.875000000000001
40
0.875000000000001
40
0.937500000000001
40
0.937500000000001
40
1
40
1
40
1
40
1
41
1
10
97.9
20
-8.76427877264959
30
0
41
1
10
97.9932563679606
20
-8.26084436179164
30
0
41
1
10
98.0865127359212
20
-7.72519578692456
30
0
41
1
10
98.2730254718424
20
-6.60935004815568
30
0
41
1
10
98.366281839803
20
-6.02923575091324
30
0
41
1
10
98.5527945757243
20
-4.84614134123311
30
0
41
1
10
98.6460509436848
20
-4.24323613658365
30
0
41
1
10
98.832563679606
20
-3.03546358574087
30
0
41
1
10
98.9258200475667
20
-2.43064924701559
30
0
41
1
10
99.1123327834878
20
-1.23721738217762
30
0
41
1
10
99.2055891514484
20
-0.648625675711799
30
0
41
1
10
99.3105025654041
20
-0.0035692576049939
30
0
41
1
10
99.3221596113992
20
0.0678529794523683
30
0
41
1
10
99.3454737033893
20
0.211477939396417
30
0
41
1
10
99.3804448413746
20
0.427609223274317
30
0
41
1
10
99.4154159793598
20
0.645714314745703
30
0
41
1
10
99.4853582553301
20
1.08424535936621
30
0
41
1
10
99.5319864393106
20
1.37970195241178
30
0
41
1
10
99.6718709912514
20
2.27259412202713
30
0
41
1
10
99.765127359212
20
2.87666086552883
30
0
41
1
10
99.9516400951332
20
4.08465683071407
30
0
41
1
10
100.044896463094
20
4.68853534595101
30
0
41
1
10
100.231409199015
20
5.8754683829622
30
0
41
1
10
100.324665566976
20
6.45844947171133
30
0
41
1
10
100.511178302897
20
7.5818983363834
30
0
41
1
10
100.604434670858
20
8.12228321406099
30
0
41
1
10
100.790947406779
20
9.14025187971845
30
0
41
1
10
100.884203774739
20
9.61776213355117
30
0
41
1
10
101.07071651066
20
10.4935174222761
30
0
41
1
10
101.163972878621
20
10.8917159300475
30
0
41
1
10
101.350485614542
20
11.5980717046646
30
0
41
1
10
101.443741982503
20
11.9062189694852
30
0
41
1
10
101.630254718424
20
12.42825894772
30
0
41
1
10
101.723511086385
20
12.6421764088585
30
0
41
1
10
101.910023822306
20
12.9778675513975
30
0
41
1
10
102.003280190267
20
13.0996897755813
30
0
41
1
10
102.189792926188
20
13.2584771393291
30
0
41
1
10
102.283049294148
20
13.2955
30
0
41
1
10
102.376305662109
20
13.2955
30
0
0
SPLINE
5
E2
100
AcDbEntity
8
1
62
256
6
ByLayer
370
13
48
1
60
0
100
AcDbSpline
70
4
71
3
72
85
73
81
40
0
40
0
40
0
40
0
40
0.0312500000000003
40
0.0312500000000003
40
0.0625000000000007
40
0.0625000000000007
40
0.093750000000001
40
0.093750000000001
40
0.125000000000001
40
0.125000000000001
40
0.156250000000002
40
0.156250000000002
40
0.187500000000002
40
0.187500000000002
40
0.218750000000002
40
0.218750000000002
40
0.250000000000003
40
0.250000000000003
40
0.281250000000003
40
0.281250000000003
40
0.296875000000003
40
0.296875000000003
40
0.304687500000004
40
0.308593750000004
40
0.308593750000004
40
0.312500000000004
40
0.312500000000004
40
0.343750000000004
40
0.343750000000004
40
0.375000000000004
40
0.375000000000004
40
0.406250000000005
40
0.406250000000005
40
0.437500000000005
40
0.437500000000005
40
0.468750000000005
40
0.468750000000005
40
0.500000000000006
40
0.500000000000006
40
0.531250000000006
40
0.531250000000006
40
0.562500000000006
40
0.562500000000006
40
0.593750000000006
40
0.593750000000006
40
0.609375000000007
40
0.609375000000007
40
0.617187500000007
40
0.621093750000007
40
0.621093750000007
40
0.625000000000006
40
0.625000000000006
40
0.656250000000006
40
0.656250000000006
40
0.687500000000005
40
0.687500000000005
40
0.718750000000005
40
0.718750000000005
40
0.750000000000004
40
0.750000000000004
40
0.781250000000004
40
0.781250000000004
40
0.812500000000003
40
0.812500000000003
40
0.843750000000003
40
0.843750000000003
40
0.875000000000002
40
0.875000000000002
40
0.906250000000002
40
0.906250000000002
40
0.921875000000001
40
0.921875000000001
40
0.929687500000001
40
0.933593750000001
40
0.933593750000001
40
0.937500000000001
40
0.937500000000001
40
0.968750000000001
40
0.968750000000001
40
1
40
1
40
1
40
1
41
1
10
100.332665832181
20
13.2955
30
0
41
1
10
100.435042581329
20
13.2955
30
0
41
1
10
100.537419330476
20
13.250851928883
30
0
41
1
10
100.74217282877
20
13.058293864926
30
0
41
1
10
100.844549577917
20
12.9102924790271
30
0
41
1
10
101.049303076212
20
12.5022141443743
30
0
41
1
10
101.151679825359
20
12.2420656592922
30
0
41
1
10
101.356433323653
20
11.6087526852027
30
0
41
1
10
101.458810072801
20
11.2355638388234
30
0
41
1
10
101.663563571095
20
10.3846432778203
30
0
41
1
10
101.765940320242
20
9.90695092108831
30
0
41
1
10
101.970693818537
20
8.86473159584469
30
0
41
1
10
102.073070567684
20
8.30030255453286
30
0
41
1
10
102.277824065978
20
7.10945023601269
30
0
41
1
10
102.380200815126
20
6.48315646862403
30
0
41
1
10
102.58495431342
20
5.19701427727057
30
0
41
1
10
102.687331062567
20
4.53729032167854
30
0
41
1
10
102.892084560862
20
3.21237417236631
30
0
41
1
10
102.994461310009
20
2.54727172326773
30
0
41
1
10
103.14802643373
20
1.56383060901891
30
0
41
1
10
103.199214808303
20
1.23834863096218
30
0
41
1
10
103.275997370164
20
0.755514443802383
30
0
41
1
10
103.314388651094
20
0.515440203073894
30
0
41
1
10
103.352779932024
20
0.277694543186783
30
0
41
1
10
103.378374119311
20
0.119746969937182
30
0
41
1
10
103.391171212954
20
0.0411873843583521
30
0
41
1
10
103.506345055745
20
-0.666134140925664
30
0
41
1
10
103.608721804892
20
-1.31339494477123
30
0
41
1
10
103.813475303187
20
-2.62608631894938
30
0
41
1
10
103.915852052334
20
-3.2914724130126
30
0
41
1
10
104.120605550628
20
-4.61589645925145
30
0
41
1
10
104.222982299775
20
-5.27484292569144
30
0
41
1
10
104.42773579807
20
-6.5582847275077
30
0
41
1
10
104.530112547217
20
-7.18265473591396
30
0
41
1
10
104.734866045511
20
-8.36857786718207
30
0
41
1
10
104.837242794659
20
-8.93000204376068
30
0
41
1
10
105.041996292953
20
-9.96534954298482
30
0
41
1
10
105.1443730421
20
-10.4391768665669
30
0
41
1
10
105.349126540395
20
-11.2818423758269
30
0
41
1
10
105.451503289542
20
-11.650643795937
30
0
41
1
10
105.656256787836
20
-12.275040580843
30
0
41
1
10
105.758633536984
20
-12.5306626060804
30
0
41
1
10
105.963387035278
20
-12.9298997911651
30
0
41
1
10
106.065763784425
20
-13.0735878197075
30
0
41
1
10
106.219328908146
20
-13.2118945487378
30
0
41
1
10
106.27051728272
20
-13.2451795684673
30
0
41
1
10
106.34729984458
20
-13.2771117162359
30
0
41
1
10
106.38569112551
20
-13.2885823690367
30
0
41
1
10
106.424082406441
20
-13.2935674131529
30
0
41
1
10
106.449676593727
20
-13.2954796638401
30
0
41
1
10
106.462473687371
20
-13.2957322685727
30
0
41
1
10
106.577647530161
20
-13.2917455558705
30
0
41
1
10
106.680024279308
20
-13.2432393265646
30
0
41
1
10
106.884777777603
20
-13.0424952884519
30
0
41
1
10
106.98715452675
20
-12.8901663470483
30
0
41
1
10
107.191908025044
20
-12.4732309990445
30
0
41
1
10
107.294284774192
20
-12.2085544333605
30
0
41
1
10
107.499038272486
20
-11.5663370876765
30
0
41
1
10
107.601415021633
20
-11.1887742810229
30
0
41
1
10
107.806168519928
20
-10.3296404093544
30
0
41
1
10
107.908545269075
20
-9.84811128651083
30
0
41
1
10
108.113298767369
20
-8.79908809827498
30
0
41
1
10
108.215675516517
20
-8.23169384395715
30
0
41
1
10
108.420429014811
20
-7.03599736530856
30
0
41
1
10
108.522805763958
20
-6.40782515426915
30
0
41
1
10
108.727559262253
20
-5.11907255651784
30
0
41
1
10
108.8299360114
20
-4.45861573140598
30
0
41
1
10
109.034689509694
20
-3.13329076094237
30
0
41
1
10
109.137066258842
20
-2.46851059965627
30
0
41
1
10
109.290631382562
20
-1.48619800885288
30
0
41
1
10
109.341819757136
20
-1.16119906582571
30
0
41
1
10
109.418602318997
20
-0.679227522851619
30
0
41
1
10
109.456993599927
20
-0.439619099381247
30
0
41
1
10
109.495384880857
20
-0.20238666483155
30
0
41
1
10
109.520979068144
20
-0.0447912895555476
30
0
41
1
10
109.533776161787
20
0.0335698030846174
30
0
41
1
10
109.648950004578
20
0.742508941621793
30
0
41
1
10
109.751326753725
20
1.39089087641162
30
0
41
1
10
109.956080252019
20
2.70494995574012
30
0
41
1
10
110.058457001167
20
3.37058073895886
30
0
41
1
10
110.160833750314
20
4.03250484251339
30
0
0
SPLINE
5
E3
100
AcDbEntity
8
1
62
256
6
ByLayer
370
13
48
1
60
0
100
AcDbSpline
70
4
71
3
72
44
73
40
40
0
40
0
40
0
40
0
40
0.0624999999999999
40
0.0624999999999999
40
0.125
40
0.125
40
0.1875
40
0.1875
40
0.21875
40
0.21875
40
0.2265625
40
0.2265625
40
0.234375
40
0.234375
40
0.25
40
0.25
40
0.3125
40
0.3125
40
0.375
40
0.375
40
0.437499999999999
40
0.437499999999999
40
0.499999999999999
40
0.499999999999999
40
0.562499999999999
40
0.562499999999999
40
0.624999999999999
40
0.624999999999999
40
0.687499999999999
40
0.687499999999999
40
0.749999999999999
40
0.749999999999999
40
0.8125
40
0.8125
40
0.875
40
0.875
40
0.9375
40
0.9375
40
1
40
1
40
1
40
1
41
1
10
97.9
20
-5.89825216718424
30
0
41
1
10
97.9831202628808
20
-5.37696931461821
30
0
41
1
10
98.0662405257617
20
-4.84440136724785
30
0
41
1
10
98.2324810515234
20
-3.77173845122974
30
0
41
1
10
98.3156013144043
20
-3.23167852188806
30
0
41
1
10
98.481841840166
20
-2.15783697387332
30
0
41
1
10
98.5649621030469
20
-1.6240772525604
30
0
41
1
10
98.6896424973681
20
-0.836856297027765
30
0
41
1
10
98.7312026288084
20
-0.576666650408413
30
0
41
1
10
98.783152793109
20
-0.254953561488634
30
0
41
1
10
98.7935428259692
20
-0.190786730489833
30
0
41
1
10
98.8143228916895
20
-0.0628217956306969
30
0
41
1
10
98.8247129245495
20
0.0008497874422915
30
0
41
1
10
98.8558830231299
20
0.192436439960232
30
0
41
1
10
98.8766630888501
20
0.32090948481931
30
0
41
1
10
98.9805634174511
20
0.966672344938132
30
0
41
1
10
99.063683680332
20
1.49425796892103
30
0
41
1
10
99.2299242060937
20
2.56086634356123
30
0
41
1
10
99.3130444689746
20
3.09987293615612
30
0
41
1
10
99.4792849947363
20
4.17637434050664
30
0
41
1
10
99.5624052576171
20
4.7138393155636
30
0
41
1
10
99.7286457833788
20
5.77256917086902
30
0
41
1
10
99.8117660462597
20
6.29379288500581
30
0
41
1
10
99.9780065720213
20
7.30469030999396
30
0
41
1
10
100.061126834902
20
7.79431741208094
30
0
41
1
10
100.227367360664
20
8.72735286711236
30
0
41
1
10
100.310487623545
20
9.17071748847732
30
0
41
1
10
100.476728149306
20
9.99862927191259
30
0
41
1
10
100.559848412187
20
10.383143995936
30
0
41
1
10
100.726088937949
20
11.0840013301476
30
0
41
1
10
100.80920920083
20
11.4003286505813
30
0
41
1
10
100.975449726592
20
11.9594356882536
30
0
41
1
10
101.058569989473
20
12.2022187983784
30
0
41
1
10
101.224810515234
20
12.6130210332213
30
0
41
1
10
101.307930778115
20
12.7810593658321
30
0
41
1
10
101.474171303877
20
13.0449609304435
30
0
41
1
10
101.557291566757
20
13.140853379299
30
0
41
1
10
101.723532092519
20
13.2661066010473
30
0
41
1
10
101.8066523554
20
13.2955
30
0
41
1
10
101.889772618281
20
13.2955
30
0
0
SPLINE
5
E4
100
AcDbEntity
8
1
62
256
6
ByLayer
370
13
48
1
60
0
100
AcDbSpline
70
4
71
3
72
84
73
80
40
0
40
0
40
0
40
0
40
0.0312499999999996
40
0.0312499999999996
40
0.0624999999999991
40
0.0624999999999991
40
0.0937499999999987
40
0.0937499999999987
40
0.124999999999998
40
0.124999999999998
40
0.156249999999998
40
0.156249999999998
40
0.187499999999998
40
0.187499999999998
40
0.218749999999997
40
0.218749999999997
40
0.249999999999997
40
0.249999999999997
40
0.281249999999996
40
0.281249999999996
40
0.296874999999996
40
0.296874999999996
40
0.304687499999996
40
0.304687499999996
40
0.312499999999996
40
0.312499999999996
40
0.343749999999996
40
0.343749999999996
40
0.374999999999996
40
0.374999999999996
40
0.406249999999996
40
0.406249999999996
40
0.437499999999996
40
0.437499999999996
40
0.468749999999996
40
0.468749999999996
40
0.499999999999996
40
0.499999999999996
40
0.531249999999996
40
0.531249999999996
40
0.562499999999995
40
0.562499999999995
40
0.593749999999995
40
0.593749999999995
40
0.597656249999995
40
0.597656249999995
40
0.601562499999995
40
0.609374999999995
40
0.609374999999995
40
0.624999999999996
40
0.624999999999996
40
0.656249999999996
40
0.656249999999996
40
0.687499999999996
40
0.687499999999996
40
0.718749999999997
40
0.718749999999997
40
0.749999999999997
40
0.749999999999997
40
0.781249999999997
40
0.781249999999997
40
0.812499999999998
40
0.812499999999998
40
0.843749999999998
40
0.843749999999998
40
0.874999999999998
40
0.874999999999998
40
0.890624999999999
40
0.890624999999999
40
0.894531249999999
40
0.894531249999999
40
0.898437499999999
40
0.906249999999999
40
0.906249999999999
40
0.937499999999999
40
0.937499999999999
40
0.96875
40
0.96875
40
1
40
1
40
1
40
1
41
1
10
99.8461327883533
20
13.2955
30
0
41
1
10
99.9535775900405
20
13.2955
30
0
41
1
10
100.061022391728
20
13.2463021007186
30
0
41
1
10
100.275911995102
20
13.0334885509199
30
0
41
1
10
100.383356796789
20
12.8697571150657
30
0
41
1
10
100.598246400163
20
12.4182570230549
30
0
41
1
10
100.70569120185
20
12.1304019359025
30
0
41
1
10
100.920580805224
20
11.4308379449656
30
0
41
1
10
101.028025606911
20
11.0191093934208
30
0
41
1
10
101.242915210286
20
10.0835129130855
30
0
41
1
10
101.350360011973
20
9.55971131238303
30
0
41
1
10
101.565249615347
20
8.42256018575634
30
0
41
1
10
101.672694417034
20
7.80934913537794
30
0
41
1
10
101.887584020408
20
6.52368768037056
30
0
41
1
10
101.995028822095
20
5.85140488931282
30
0
41
1
10
102.209918425469
20
4.48084847200599
30
0
41
1
10
102.317363227156
20
3.78272115779706
30
0
41
1
10
102.53225283053
20
2.39176605953335
30
0
41
1
10
102.639697632218
20
1.69902928948085
30
0
41
1
10
102.800864834748
20
0.683146859429712
30
0
41
1
10
102.854587235592
20
0.348337617145887
30
0
41
1
10
102.935170836857
20
-0.146266063901066
30
0
41
1
10
102.962032037279
20
-0.312038197729407
30
0
41
1
10
103.015754438122
20
-0.646196618903417
30
0
41
1
10
103.042615638544
20
-0.814402742731346
30
0
41
1
10
103.176921640653
20
-1.66025206229912
30
0
41
1
10
103.28436644234
20
-2.35262044435112
30
0
41
1
10
103.499256045714
20
-3.74337971583327
30
0
41
1
10
103.606700847401
20
-4.44168078395873
30
0
41
1
10
103.821590450776
20
-5.81320381880016
30
0
41
1
10
103.929035252463
20
-6.48628027909189
30
0
41
1
10
104.143924855837
20
-7.77414360331807
30
0
41
1
10
104.251369657524
20
-8.38876280831272
30
0
41
1
10
104.466259260898
20
-9.52924446170829
30
0
41
1
10
104.573704062585
20
-10.0549674249733
30
0
41
1
10
104.788593665959
20
-10.9947406658677
30
0
41
1
10
104.896038467647
20
-11.4087230192533
30
0
41
1
10
105.110928071021
20
-12.1129095702096
30
0
41
1
10
105.218372872708
20
-12.4031318862903
30
0
41
1
10
105.433262476082
20
-12.8592728837718
30
0
41
1
10
105.540707277769
20
-13.0252770612391
30
0
41
1
10
105.755596881143
20
-13.2423833093959
30
0
41
1
10
105.86304168283
20
-13.2936009736508
30
0
41
1
10
105.983917084728
20
-13.2956787860035
30
0
41
1
10
105.997347684939
20
-13.295145038247
30
0
41
1
10
106.024208885361
20
-13.2925175349553
30
0
41
1
10
106.064500685994
20
-13.2862344883752
30
0
41
1
10
106.104792486626
20
-13.2727700674242
30
0
41
1
10
106.185376087891
20
-13.235872839177
30
0
41
1
10
106.239098488735
20
-13.1979720312102
30
0
41
1
10
106.400265691266
20
-13.041574372491
30
0
41
1
10
106.507710492953
20
-12.8801121862913
30
0
41
1
10
106.722600096327
20
-12.4332495279606
30
0
41
1
10
106.830044898014
20
-12.1477617037995
30
0
41
1
10
107.044934501388
20
-11.4528244946092
30
0
41
1
10
107.152379303075
20
-11.0433539398594
30
0
41
1
10
107.367268906449
20
-10.1119465368361
30
0
41
1
10
107.474713708137
20
-9.59007441548772
30
0
41
1
10
107.689603311511
20
-8.45627283003242
30
0
41
1
10
107.797048113198
20
-7.844480815948
30
0
41
1
10
108.011937716572
20
-6.56104403657727
30
0
41
1
10
108.119382518259
20
-5.88956682087101
30
0
41
1
10
108.334272121633
20
-4.52000010107727
30
0
41
1
10
108.44171692332
20
-3.82205770230783
30
0
41
1
10
108.656606526695
20
-2.43092705111926
30
0
41
1
10
108.764051328382
20
-1.73783100303319
30
0
41
1
10
108.925218530912
20
-0.721096981898086
30
0
41
1
10
108.978940931756
20
-0.385952050910731
30
0
41
1
10
109.04609393281
20
0.0266909750621096
30
0
41
1
10
109.059524533021
20
0.109065020198102
30
0
41
1
10
109.086385733443
20
0.274798529674626
30
0
41
1
10
109.126677534076
20
0.524308214659868
30
0
41
1
10
109.166969334708
20
0.776379511709109
30
0
41
1
10
109.301275336817
20
1.62149980797383
30
0
41
1
10
109.408720138504
20
2.31349073881219
30
0
41
1
10
109.623609741878
20
3.70403398511752
30
0
41
1
10
109.731054543565
20
4.40249767416418
30
0
41
1
10
109.945944146939
20
5.77496427376016
30
0
41
1
10
110.053388948627
20
6.44882249566405
30
0
41
1
10
110.160833750314
20
7.09384367028139
30
0
0
SPLINE
5
E5
100
AcDbEntity
8
1
62
256
6
ByLayer
370
13
48
1
60
0
100
AcDbSpline
70
4
71
3
72
38
73
34
40
0
40
0
40
0
40
0
40
0.0625
40
0.0625
40
0.125
40
0.125
40
0.1875
40
0.1875
40
0.25
40
0.25
40
0.3125
40
0.3125
40
0.375
40
0.375
40
0.4375
40
0.4375
40
0.5
40
0.5
40
0.5625
40
0.5625
40
0.625
40
0.625
40
0.6875
40
0.6875
40
0.75
40
0.75
40
0.8125
40
0.8125
40
0.875
40
0.875
40
0.9375
40
0.9375
40
1
40
1
40
1
40
1
41
1
10
97.9000000000001
20
-2.77351156647305
30
0
41
1
10
97.9729841578012
20
-2.301816338827
30
0
41
1
10
98.0459683156022
20
-1.83229800560864
30
0
41
1
10
98.1919366312044
20
-0.905630115086268
30
0
41
1
10
98.2649207890056
20
-0.448486085631004
30
0
41
1
10
98.4108891046078
20
0.446937910573723
30
0
41
1
10
98.4838732624089
20
0.904042046757297
30
0
41
1
10
98.6298415780111
20
1.83068169354053
30
0
41
1
10
98.7028257358122
20
2.30019010837685
30
0
41
1
10
98.8487940514144
20
3.24357078540473
30
0
41
1
10
98.9217782092155
20
3.71743127062231
30
0
41
1
10
99.0677465248178
20
4.66020699147674
30
0
41
1
10
99.1407306826188
20
5.12910438132457
30
0
41
1
10
99.2866989982209
20
6.05180633377688
30
0
41
1
10
99.3596831560221
20
6.50558842760654
30
0
41
1
10
99.5056514716243
20
7.38768538557932
30
0
41
1
10
99.5786356294254
20
7.81597581767781
30
0
41
1
10
99.7246039450276
20
8.63720315863941
30
0
41
1
10
99.7975881028289
20
9.03011710149519
30
0
41
1
10
99.9435564184311
20
9.77191803872751
30
0
41
1
10
100.016540576232
20
10.1207869660554
30
0
41
1
10
100.162508891834
20
10.7676657707596
30
0
41
1
10
100.235493049635
20
11.0656650696025
30
0
41
1
10
100.381461365238
20
11.606252437402
30
0
41
1
10
100.454445523039
20
11.8488385406153
30
0
41
1
10
100.600413838641
20
12.2765182292642
30
0
41
1
10
100.673397996442
20
12.4616179455724
30
0
41
1
10
100.819366312044
20
12.7746484855773
30
0
41
1
10
100.892350469845
20
12.9025916807647
30
0
41
1
10
101.038318785448
20
13.1037519389177
30
0
41
1
10
101.111302943249
20
13.1769850326339
30
0
41
1
10
101.257271258851
20
13.272850533375
30
0
41
1
10
101.330255416652
20
13.2955
30
0
41
1
10
101.403239574453
20
13.2955
30
0
0
SPLINE
5
E6
100
AcDbEntity
8
1
62
256
6
ByLayer
370
13
48
1
60
0
100
AcDbSpline
70
4
71
3
72
121
73
117
40
0
40
0
40
0
40
0
40
0.0312500000000003
40
0.0312500000000003
40
0.0625000000000006
40
0.0625000000000006
40
0.0781250000000006
40
0.0781250000000006
40
0.0937500000000006
40
0.0937500000000006
40
0.109375000000001
40
0.109375000000001
40
0.125000000000001
40
0.125000000000001
40
0.140625000000001
40
0.140625000000001
40
0.156250000000001
40
0.156250000000001
40
0.171875000000001
40
0.171875000000001
40
0.187500000000001
40
0.187500000000001
40
0.203125000000001
40
0.203125000000001
40
0.218750000000001
40
0.218750000000001
40
0.250000000000001
40
0.250000000000001
40
0.281250000000001
40
0.281250000000001
40
0.285156250000001
40
0.285156250000001
40
0.289062500000001
40
0.296875000000001
40
0.296875000000001
40
0.312500000000001
40
0.312500000000001
40
0.343750000000002
40
0.343750000000002
40
0.359375000000002
40
0.359375000000002
40
0.375000000000002
40
0.375000000000002
40
0.390625000000001
40
0.390625000000001
40
0.406250000000001
40
0.406250000000001
40
0.421875000000001
40
0.421875000000001
40
0.437500000000002
40
0.437500000000002
40
0.453125000000002
40
0.453125000000002
40
0.468750000000002
40
0.468750000000002
40
0.484375000000002
40
0.484375000000002
40
0.500000000000002
40
0.500000000000002
40
0.531250000000001
40
0.531250000000001
40
0.562500000000001
40
0.562500000000001
40
0.566406250000001
40
0.566406250000001
40
0.570312500000001
40
0.570312500000001
40
0.578125000000001
40
0.578125000000001
40
0.593750000000001
40
0.593750000000001
40
0.625000000000001
40
0.625000000000001
40
0.640625000000001
40
0.640625000000001
40
0.656250000000001
40
0.656250000000001
40
0.671875
40
0.671875
40
0.6875
40
0.6875
40
0.703125
40
0.703125
40
0.71875
40
0.71875
40
0.734375
40
0.734375
40
0.75
40
0.75
40
0.765625
40
0.765625
40
0.78125
40
0.78125
40
0.8125
40
0.8125
40
0.843749999999999
40
0.843749999999999
40
0.851562499999999
40
0.851562499999999
40
0.859374999999999
40
0.859374999999999
40
0.874999999999999
40
0.874999999999999
40
0.906249999999999
40
0.906249999999999
40
0.921874999999999
40
0.921874999999999
40
0.9375
40
0.9375
40
0.953125
40
0.953125
40
0.96875
40
0.96875
40
0.984375
40
0.984375
40
1
40
1
40
1
40
1
41
1
10
99.3595997445254
20
13.2955
30
0
41
1
10
99.4721125987524
20
13.2955
30
0
41
1
10
99.5846254529794
20
13.2415280997953
30
0
41
1
10
99.8096511614332
20
13.0073858382258
30
0
41
1
10
99.9221640156603
20
12.8270705352933
30
0
41
1
10
100.090933297001
20
12.4541676799825
30
0
41
1
10
100.147189724114
20
12.3128733298689
30
0
41
1
10
100.259702578341
20
11.9961211803421
30
0
41
1
10
100.315959005455
20
11.8206614157208
30
0
41
1
10
100.428471859681
20
11.4362328568852
30
0
41
1
10
100.484728286795
20
11.2272637260883
30
0
41
1
10
100.597241141022
20
10.777344151806
30
0
41
1
10
100.653497568136
20
10.5363951783765
30
0
41
1
10
100.766010422362
20
10.0249004517808
30
0
41
1
10
100.822266849476
20
9.75435795683461
30
0
41
1
10
100.934779703703
20
9.18684633564197
30
0
41
1
10
100.991036130816
20
8.88988202816586
30
0
41
1
10
101.103548985043
20
8.27336030358998
30
0
41
1
10
101.159805412157
20
7.95380885433653
30
0
41
1
10
101.272318266384
20
7.29644617892643
30
0
41
1
10
101.328574693497
20
6.95864153376854
30
0
41
1
10
101.441087547724
20
6.26941519898608
30
0
41
1
10
101.497343974838
20
5.91800012380622
30
0
41
1
10
101.609856829065
20
5.20630486195589
30
0
41
1
10
101.666113256178
20
4.84603078352495
30
0
41
1
10
101.834882537518
20
3.758913267862
30
0
41
1
10
101.947395391746
20
3.02598621178396
30
0
41
1
10
102.1724211002
20
1.57748392629639
30
0
41
1
10
102.284933954427
20
0.861992914018913
30
0
41
1
10
102.411510915432
20
0.0815591742078254
30
0
41
1
10
102.42557502221
20
-0.0045900134782926
30
0
41
1
10
102.453703235767
20
-0.17761878205701
30
0
41
1
10
102.495895556102
20
-0.438183493536854
30
0
41
1
10
102.538087876437
20
-0.701625374424992
30
0
41
1
10
102.622472517107
20
-1.23179533408231
30
0
41
1
10
102.678728944221
20
-1.58964044526181
30
0
41
1
10
102.847498225561
20
-2.67134333822111
30
0
41
1
10
102.960011079788
20
-3.40357655927767
30
0
41
1
10
103.128780361129
20
-4.49407838963151
30
0
41
1
10
103.185036788242
20
-4.85621379799949
30
0
41
1
10
103.297549642469
20
-5.57316285022111
30
0
41
1
10
103.353806069583
20
-5.92797064912287
30
0
41
1
10
103.46631892381
20
-6.62552067337333
30
0
41
1
10
103.522575350923
20
-6.96825639339124
30
0
41
1
10
103.63508820515
20
-7.63696250645387
30
0
41
1
10
103.691344632263
20
-7.96292624445323
30
0
41
1
10
103.80385748649
20
-8.59363219670516
30
0
41
1
10
103.860113913604
20
-8.89836818172409
30
0
41
1
10
103.972626767831
20
-9.48260152862738
30
0
41
1
10
104.028883194944
20
-9.76209364658777
30
0
41
1
10
104.141396049171
20
-10.2924354851886
30
0
41
1
10
104.197652476285
20
-10.5432814069095
30
0
41
1
10
104.310165330512
20
-11.0136777105949
30
0
41
1
10
104.366421757625
20
-11.2332260304666
30
0
41
1
10
104.478934611852
20
-11.6392134903563
30
0
41
1
10
104.535191038966
20
-11.8256523918098
30
0
41
1
10
104.647703893193
20
-12.1644815232706
30
0
41
1
10
104.703960320306
20
-12.3168732203801
30
0
41
1
10
104.872729601646
20
-12.7228486815261
30
0
41
1
10
104.985242455874
20
-12.92489897253
30
0
41
1
10
105.210268164327
20
-13.200164948211
30
0
41
1
10
105.322781018554
20
-13.2735224048223
30
0
41
1
10
105.44935797956
20
-13.2934304198568
30
0
41
1
10
105.463422086338
20
-13.2947767343573
30
0
41
1
10
105.491550299895
20
-13.2957778316742
30
0
41
1
10
105.505614406673
20
-13.2954385801703
30
0
41
1
10
105.547806727008
20
-13.2918666409809
30
0
41
1
10
105.575934940565
20
-13.2860691061159
30
0
41
1
10
105.660319581235
20
-13.2579616153018
30
0
41
1
10
105.716576008349
20
-13.2249239277426
30
0
41
1
10
105.885345289689
20
-13.0795759576478
30
0
41
1
10
105.997858143916
20
-12.9207152217394
30
0
41
1
10
106.166627425257
20
-12.5807056946281
30
0
41
1
10
106.22288385237
20
-12.4504889305896
30
0
41
1
10
106.335396706597
20
-12.1558626538465
30
0
41
1
10
106.391653133711
20
-11.9914507130211
30
0
41
1
10
106.504165987937
20
-11.6288106582421
30
0
41
1
10
106.560422415051
20
-11.4305816516381
30
0
41
1
10
106.672935269278
20
-11.0015511942161
30
0
41
1
10
106.729191696391
20
-10.7707506195805
30
0
41
1
10
106.841704550618
20
-10.2786889085114
30
0
41
1
10
106.897960977732
20
-10.0174304654661
30
0
41
1
10
107.010473831959
20
-9.46737950070474
30
0
41
1
10
107.066730259072
20
-9.17859132886539
30
0
41
1
10
107.179243113299
20
-8.57711550919052
30
0
41
1
10
107.235499540413
20
-8.26443351081758
30
0
41
1
10
107.34801239464
20
-7.61936120295039
30
0
41
1
10
107.404268821753
20
-7.28697733878437
30
0
41
1
10
107.51678167598
20
-6.60706552669313
30
0
41
1
10
107.573038103094
20
-6.25954424503365
30
0
41
1
10
107.685550957321
20
-5.55409593824305
30
0
41
1
10
107.741807384434
20
-5.19617523906354
30
0
41
1
10
107.910576665775
20
-4.11387766743681
30
0
41
1
10
108.023089520002
20
-3.38115769066988
30
0
41
1
10
108.248115228455
20
-1.928013462553
30
0
41
1
10
108.360628082682
20
-1.2076871175102
30
0
41
1
10
108.501269150466
20
-0.33222597940204
30
0
41
1
10
108.529397364023
20
-0.158505505578461
30
0
41
1
10
108.585653791136
20
0.186735519053684
30
0
41
1
10
108.613782004693
20
0.360744363459617
30
0
41
1
10
108.698166645363
20
0.88642011433592
30
0
41
1
10
108.754423072477
20
1.24175355522152
30
0
41
1
10
108.923192353817
20
2.31764171256035
30
0
41
1
10
109.035705208044
20
3.04830951752456
30
0
41
1
10
109.204474489385
20
4.14078857538291
30
0
41
1
10
109.260730916498
20
4.50430020910417
30
0
41
1
10
109.373243770725
20
5.22551761433721
30
0
41
1
10
109.429500197838
20
5.58321784483422
30
0
41
1
10
109.542013052065
20
6.28809550417265
30
0
41
1
10
109.598269479179
20
6.63526659097923
30
0
41
1
10
109.710782333406
20
7.31435036215655
30
0
41
1
10
109.767038760519
20
7.6462563785951
30
0
41
1
10
109.879551614746
20
8.29025287149284
30
0
41
1
10
109.93580804186
20
8.60233691683075
30
0
41
1
10
110.048320896087
20
9.20250953094538
30
0
41
1
10
110.1045773232
20
9.49059247952454
30
0
41
1
10
110.160833750314
20
9.76486781429469
30
0
0
SPLINE
5
E7
100
AcDbEntity
8
1
62
256
6
ByLayer
370
13
48
1
60
0
100
AcDbSpline
70
4
71
3
72
10
73
6
40
0
40
0
40
0
40
0
40
0.5
40
0.5
40
1
40
1
40
1
40
1
41
1
10
109.576793664912
20
13.2955
30
0
41
1
10
109.674133679145
20
13.2955
30
0
41
1
10
109.771473693379
20
13.2551522085051
30
0
41
1
10
109.966153721846
20
13.081668163914
30
0
41
1
10
110.06349373608
20
12.9484605961848
30
0
41
1
10
110.160833750314
20
12.7648665223961
30
0
0
SPLINE
5
E8
100
AcDbEntity
8
1
62
256
6
ByLayer
370
13
48
1
60
0
100
AcDbSpline
70
4
71
3
72
38
73
34
40
0
40
0
40
0
40
0
40
0.0625
40
0.0625
40
0.125
40
0.125
40
0.1875
40
0.1875
40
0.25
40
0.25
40
0.3125
40
0.3125
40
0.375
40
0.375
40
0.4375
40
0.4375
40
0.5
40
0.5
40
0.5625
40
0.5625
40
0.625
40
0.625
40
0.6875
40
0.6875
40
0.75
40
0.75
40
0.8125
40
0.8125
40
0.875
40
0.875
40
0.9375
40
0.9375
40
1
40
1
40
1
40
1
41
1
10
97.9
20
0.29886911770123
30
0
41
1
10
97.9628480527213
20
0.687844163816351
30
0
41
1
10
98.0256961054426
20
1.08332038831401
30
0
41
1
10
98.1513922108854
20
1.88298026665748
30
0
41
1
10
98.2142402636067
20
2.28716107361757
30
0
41
1
10
98.3399363690495
20
3.09909390897963
30
0
41
1
10
98.4027844217709
20
3.50684052816644
30
0
41
1
10
98.5284805272137
20
4.320051658903
30
0
41
1
10
98.591328579935
20
4.72550823844449
30
0
41
1
10
98.7170246853777
20
5.52776946077117
30
0
41
1
10
98.779872738099
20
5.9245640670124
30
0
41
1
10
98.9055688435416
20
6.70288657084177
30
0
41
1
10
98.9684168962631
20
7.08440313315475
30
0
41
1
10
99.0941130017059
20
7.82563391905853
30
0
41
1
10
99.1569610544271
20
8.1853366208735
30
0
41
1
10
99.28265715987
20
8.87683062990996
30
0
41
1
10
99.3455052125912
20
9.2086114795716
30
0
41
1
10
99.4712013180339
20
9.83891391018406
30
0
41
1
10
99.5340493707553
20
10.1374272658591
30
0
41
1
10
99.6597454761981
20
10.696892628856
30
0
41
1
10
99.7225935289194
20
10.9578395108393
30
0
41
1
10
99.848289634362
20
11.4391189093307
30
0
41
1
10
99.9111376870834
20
11.6594498134466
30
0
41
1
10
100.036833792526
20
12.0577955007139
30
0
41
1
10
100.099681845248
20
12.2358120930739
30
0
41
1
10
100.22537795069
20
12.5491748845494
30
0
41
1
10
100.288226003411
20
12.684525780331
30
0
41
1
10
100.413922108854
20
12.913450353517
30
0
41
1
10
100.476770161576
20
13.0070307833613
30
0
41
1
10
100.602466267018
20
13.1543798643093
30
0
41
1
10
100.66531431974
20
13.2081563752474
30
0
41
1
10
100.791010425183
20
13.2787124083482
30
0
41
1
10
100.853858477904
20
13.2955
30
0
41
1
10
100.916706530625
20
13.2955
30
0
0
SPLINE
5
E9
100
AcDbEntity
8
1
62
256
6
ByLayer
370
13
48
1
60
0
100
AcDbSpline
70
4
71
3
72
143
73
139
40
0
40
0
40
0
40
0
40
0.03125
40
0.03125
40
0.046875
40
0.046875
40
0.0624999999999999
40
0.0624999999999999
40
0.0781249999999999
40
0.0781249999999999
40
0.0937499999999999
40
0.0937499999999999
40
0.109375
40
0.109375
40
0.125
40
0.125
40
0.140625
40
0.140625
40
0.15625
40
0.15625
40
0.171875
40
0.171875
40
0.1875
40
0.1875
40
0.203125
40
0.203125
40
0.21875
40
0.21875
40
0.234375
40
0.234375
40
0.25
40
0.25
40
0.265625
40
0.265625
40
0.26953125
40
0.26953125
40
0.2734375
40
0.2734375
40
0.28125
40
0.28125
40
0.296875
40
0.296875
40
0.3125
40
0.3125
40
0.328125
40
0.328125
40
0.34375
40
0.34375
40
0.359375
40
0.359375
40
0.375
40
0.375
40
0.390625
40
0.390625
40
0.40625
40
0.40625
40
0.421875
40
0.421875
40
0.4375
40
0.4375
40
0.453125
40
0.453125
40
0.46875
40
0.46875
40
0.484375
40
0.484375
40
0.5
40
0.5
40
0.515625
40
0.515625
40
0.53125
40
0.53125
40
0.5390625
40
0.5390625
40
0.54296875
40
0.54296875
40
0.546875
40
0.546875
40
0.5625
40
0.5625
40
0.578125
40
0.578125
40
0.59375
40
0.59375
40
0.609375
40
0.609375
40
0.625
40
0.625
40
0.640625
40
0.640625
40
0.65625
40
0.65625
40
0.671875
40
0.671875
40
0.6875
40
0.6875
40
0.703125
40
0.703125
40
0.71875
40
0.71875
40
0.734375
40
0.734375
40
0.75
40
0.75
40
0.765625
40
0.765625
40
0.78125
40
0.78125
40
0.796875
40
0.796875
40
0.8125
40
0.8125
40
0.81640625
40
0.81640625
40
0.8203125
40
0.828125
40
0.828125
40
0.84375
40
0.84375
40
0.859375
40
0.859375
40
0.875
40
0.875
40
0.890625
40
0.890625
40
0.90625
40
0.90625
40
0.921875
40
0.921875
40
0.9375
40
0.9375
40
0.953125
40
0.953125
40
0.96875
40
0.96875
40
0.984375
40
0.984375
40
1
40
1
40
1
40
1
41
1
10
98.8730667006976
20
13.2955
30
0
41
1
10
98.9906476074644
20
13.2955
30
0
41
1
10
99.1082285142312
20
13.2365292022869
30
0
41
1
10
99.2845998743815
20
13.0441159669127
30
0
41
1
10
99.3433903277649
20
12.9627043659832
30
0
41
1
10
99.4609712345317
20
12.7636102598472
30
0
41
1
10
99.5197616879151
20
12.6459227069072
30
0
41
1
10
99.637342594682
20
12.3733309461632
30
0
41
1
10
99.6961330480654
20
12.218422927486
30
0
41
1
10
99.8137139548322
20
11.8713685198387
30
0
41
1
10
99.8725044082156
20
11.6792201099378
30
0
41
1
10
99.9900853149824
20
11.2586767860372
30
0
41
1
10
100.048875768366
20
11.0302820494476
30
0
41
1
10
100.166456675133
20
10.5392805788133
30
0
41
1
10
100.225247128516
20
10.2766763943643
30
0
41
1
10
100.342828035283
20
9.72029268503314
30
0
41
1
10
100.401618488666
20
9.42651796645842
30
0
41
1
10
100.519199395433
20
8.81172091359218
30
0
41
1
10
100.577989848817
20
8.49070523628677
30
0
41
1
10
100.695570755584
20
7.82607125831231
30
0
41
1
10
100.754361208967
20
7.48246082579294
30
0
41
1
10
100.871942115734
20
6.77777903936794
30
0
41
1
10
100.930732569117
20
6.4167159953584
30
0
41
1
10
101.048313475884
20
5.68252165379002
30
0
41
1
10
101.107103929267
20
5.30939833353304
30
0
41
1
10
101.224684836034
20
4.55647979331647
30
0
41
1
10
101.283475289418
20
4.17669155520261
30
0
41
1
10
101.401056196184
20
3.41561639331985
30
0
41
1
10
101.459846649568
20
3.03433498736416
30
0
41
1
10
101.577427556335
20
2.27503444634326
30
0
41
1
10
101.636218009718
20
1.89701912698476
30
0
41
1
10
101.753798916485
20
1.14845874393205
30
0
41
1
10
101.812589369868
20
0.777915776780588
30
0
41
1
10
101.886077436598
20
0.321635011059016
30
0
41
1
10
101.900775049944
20
0.23072212306937
30
0
41
1
10
101.930170276635
20
0.0496319548872464
30
0
41
1
10
101.944867889981
20
-0.0403431021292988
30
0
41
1
10
101.988960730019
20
-0.311902612759752
30
0
41
1
10
102.01835595671
20
-0.494418102360697
30
0
41
1
10
102.106541636786
20
-1.04578823835254
30
0
41
1
10
102.165332090169
20
-1.41848696727791
30
0
41
1
10
102.282912996936
20
-2.17040002170648
30
0
41
1
10
102.341703450319
20
-2.54961184452489
30
0
41
1
10
102.459284357086
20
-3.31020297925767
30
0
41
1
10
102.518074810469
20
-3.69157805511969
30
0
41
1
10
102.635655717236
20
-4.45162370886706
30
0
41
1
10
102.69444617062
20
-4.83028838479174
30
0
41
1
10
102.812027077387
20
-5.57966991858075
30
0
41
1
10
102.87081753077
20
-5.950379503031
30
0
41
1
10
102.988398437537
20
-6.67843521471809
30
0
41
1
10
103.04718889092
20
-7.03577321773616
30
0
41
1
10
103.164769797687
20
-7.73173101614773
30
0
41
1
10
103.22356025107
20
-8.0703425354709
30
0
41
1
10
103.341141157837
20
-8.72380237781564
30
0
41
1
10
103.399931611221
20
-9.03864305753643
30
0
41
1
10
103.517512517987
20
-9.64006787867461
30
0
41
1
10
103.576302971371
20
-9.92664575874744
30
0
41
1
10
103.693883878138
20
-10.4678146869463
30
0
41
1
10
103.752674331521
20
-10.7224014468948
30
0
41
1
10
103.870255238288
20
-11.196781237765
30
0
41
1
10
103.929045691672
20
-11.4165722926515
30
0
41
1
10
104.046626598438
20
-11.8195721876537
30
0
41
1
10
104.105417051822
20
-12.0027814071584
30
0
41
1
10
104.222997958589
20
-12.331871390566
30
0
41
1
10
104.281788411972
20
-12.4777546520813
30
0
41
1
10
104.399369318739
20
-12.7324443985998
30
0
41
1
10
104.458159772122
20
-12.8412550470622
30
0
41
1
10
104.575740678889
20
-13.0229473203364
30
0
41
1
10
104.634531132273
20
-13.0958342016062
30
0
41
1
10
104.752112039039
20
-13.2075791634099
30
0
41
1
10
104.810902492423
20
-13.2464429993456
30
0
41
1
10
104.899088172498
20
-13.2810810643382
30
0
41
1
10
104.92848339919
20
-13.2886881565619
30
0
41
1
10
104.972576239227
20
-13.2944530032378
30
0
41
1
10
104.987273852573
20
-13.2954338370759
30
0
41
1
10
105.016669079265
20
-13.2955596899058
30
0
41
1
10
105.031366692611
20
-13.2947061922268
30
0
41
1
10
105.10485475934
20
-13.2857428078973
30
0
41
1
10
105.163645212723
20
-13.2635289197585
30
0
41
1
10
105.28122611949
20
-13.186307149523
30
0
41
1
10
105.340016572873
20
-13.1312934692965
30
0
41
1
10
105.45759747964
20
-12.9862472320354
30
0
41
1
10
105.516387933024
20
-12.8962090886004
30
0
41
1
10
105.633968839791
20
-12.6795556096654
30
0
41
1
10
105.692759293174
20
-12.5529354703909
30
0
41
1
10
105.810340199941
20
-12.2623844013332
30
0
41
1
10
105.869130653324
20
-12.0984500459734
30
0
41
1
10
105.986711560091
20
-11.7334874136582
30
0
41
1
10
106.045502013475
20
-11.5324576166844
30
0
41
1
10
106.163082920241
20
-11.094547565769
30
0
41
1
10
106.221873373625
20
-10.8576680564312
30
0
41
1
10
106.339454280392
20
-10.3503414644981
30
0
41
1
10
106.398244733775
20
-10.0798974983372
30
0
41
1
10
106.515825640542
20
-9.50870652282038
30
0
41
1
10
106.574616093925
20
-9.20796481396698
30
0
41
1
10
106.692197000692
20
-8.58029725039873
30
0
41
1
10
106.750987454076
20
-8.25337841054647
30
0
41
1
10
106.868568360842
20
-7.57814303509389
30
0
41
1
10
106.927358814226
20
-7.22983454705457
30
0
41
1
10
107.044939720993
20
-6.51704512192154
30
0
41
1
10
107.103730174376
20
-6.15257248286758
30
0
41
1
10
107.221311081143
20
-5.41287052162428
30
0
41
1
10
107.280101534526
20
-5.03764899079692
30
0
41
1
10
107.397682441293
20
-4.28181131195677
30
0
41
1
10
107.456472894676
20
-3.9012018267446
30
0
41
1
10
107.574053801443
20
-3.13967753204608
30
0
41
1
10
107.632844254827
20
-2.75876784239986
30
0
41
1
10
107.750425161593
20
-2.00128151465003
30
0
41
1
10
107.809215614977
20
-1.62470827112293
30
0
41
1
10
107.926796521744
20
-0.879954080850354
30
0
41
1
10
107.985586975127
20
-0.511774834145143
30
0
41
1
10
108.059075041857
20
-0.0589234583759719
30
0
41
1
10
108.073772655202
20
0.0310569057660075
30
0
41
1
10
108.103167881894
20
0.212045973003256
30
0
41
1
10
108.147260721932
20
0.484637229698478
30
0
41
1
10
108.191353561969
20
0.760336037451367
30
0
41
1
10
108.279539242044
20
1.31524303914662
30
0
41
1
10
108.338329695428
20
1.6898801815399
30
0
41
1
10
108.455910602195
20
2.44467456723825
30
0
41
1
10
108.514701055578
20
2.82482889428243
30
0
41
1
10
108.632281962345
20
3.58617184823279
30
0
41
1
10
108.691072415728
20
3.96735582249457
30
0
41
1
10
108.808653322495
20
4.72578056442842
30
0
41
1
10
108.867443775878
20
5.10301506315244
30
0
41
1
10
108.985024682645
20
5.84823615625652
30
0
41
1
10
109.043815136029
20
6.21621521622117
30
0
41
1
10
109.161396042796
20
6.93750219542716
30
0
41
1
10
109.220186496179
20
7.29080188470627
30
0
41
1
10
109.337767402946
20
7.97742723603176
30
0
41
1
10
109.396557856329
20
8.31074470213755
30
0
41
1
10
109.514138763096
20
8.9524724237514
30
0
41
1
10
109.57292921648
20
9.26087530505464
30
0
41
1
10
109.690510123246
20
9.84844700586106
30
0
41
1
10
109.74930057663
20
10.1276099945665
30
0
41
1
10
109.866881483397
20
10.6531821617993
30
0
41
1
10
109.92567193678
20
10.8995875902408
30
0
41
1
10
110.043252843547
20
11.3570775783462
30
0
41
1
10
110.10204329693
20
11.568160737983
30
0
41
1
10
110.160833750314
20
11.760815290272
30
0
0
SPLINE
5
EA
100
AcDbEntity
8
1
62
256
6
ByLayer
370
13
48
1
60
0
100
AcDbSpline
70
4
71
3
72
14
73
10
40
0
40
0
40
0
40
0
40
0.25
40
0.25
40
0.5
40
0.5
40
0.75
40
0.75
40
1
40
1
40
1
40
1
41
1
10
109.090260621084
20
13.2955
30
0
41
1
10
109.179475048519
20
13.2955
30
0
41
1
10
109.268689475955
20
13.2616259176385
30
0
41
1
10
109.447118330827
20
13.1167120991331
30
0
41
1
10
109.536332758263
20
13.0056260066587
30
0
41
1
10
109.714761613135
20
12.6996523680428
30
0
41
1
10
109.80397604057
20
12.5047247701947
30
0
41
1
10
109.982404895442
20
12.0286358607501
30
0
41
1
10
110.071619322878
20
11.7474515917173
30
0
41
1
10
110.160833750314
20
11.4245296029851
30
0
0
SPLINE
5
EB
100
AcDbEntity
8
1
62
256
6
ByLayer
370
13
48
1
60
0
100
AcDbSpline
70
4
71
3
72
22
73
18
40
0
40
0
40
0
40
0
40
0.125
40
0.125
40
0.25
40
0.25
40
0.375
40
0.375
40
0.5
40
0.5
40
0.625
40
0.625
40
0.75
40
0.75
40
0.875
40
0.875
40
1
40
1
40
1
40
1
41
1
10
97.9
20
3.4013082336196
30
0
41
1
10
98.0054238952832
20
4.0841121578313
30
0
41
1
10
98.1108477905664
20
4.76733560618314
30
0
41
1
10
98.3216955811328
20
6.10483961636328
30
0
41
1
10
98.4271194764161
20
6.75898225085257
30
0
41
1
10
98.6379672669825
20
8.00703175270635
30
0
41
1
10
98.7433911622658
20
8.60078670583252
30
0
41
1
10
98.9542389528322
20
9.6999334393129
30
0
41
1
10
99.0596628481154
20
10.205204021703
30
0
41
1
10
99.2705106386818
20
11.1066920977014
30
0
41
1
10
99.3759345339651
20
11.502855101537
30
0
41
1
10
99.5867823245316
20
12.1756310810072
30
0
41
1
10
99.6922062198147
20
12.4522660923571
30
0
41
1
10
99.9030540103812
20
12.8861778209019
30
0
41
1
10
100.008477905664
20
13.0435348673205
30
0
41
1
10
100.219325696231
20
13.2481431969372
30
0
41
1
10
100.324749591514
20
13.2955
30
0
41
1
10
100.430173486797
20
13.2955
30
0
0
SPLINE
5
EC
100
AcDbEntity
8
1
62
256
6
ByLayer
370
13
48
1
60
0
100
AcDbSpline
70
4
71
3
72
144
73
140
40
0
40
0
40
0
40
0
40
0.0156249999999999
40
0.0156249999999999
40
0.0312499999999999
40
0.0312499999999999
40
0.0468749999999998
40
0.0468749999999998
40
0.0624999999999997
40
0.0624999999999997
40
0.0781249999999997
40
0.0781249999999997
40
0.0937499999999996
40
0.0937499999999996
40
0.109375
40
0.109375
40
0.125
40
0.125
40
0.140624999999999
40
0.140624999999999
40
0.156249999999999
40
0.156249999999999
40
0.171874999999999
40
0.171874999999999
40
0.187499999999999
40
0.187499999999999
40
0.203124999999999
40
0.203124999999999
40
0.218749999999999
40
0.218749999999999
40
0.234374999999999
40
0.234374999999999
40
0.249999999999999
40
0.249999999999999
40
0.257812499999999
40
0.257812499999999
40
0.261718749999999
40
0.261718749999999
40
0.265624999999999
40
0.265624999999999
40
0.281249999999999
40
0.281249999999999
40
0.296875
40
0.296875
40
0.3125
40
0.3125
40
0.328125
40
0.328125
40
0.34375
40
0.34375
40
0.359375
40
0.359375
40
0.375
40
0.375
40
0.390625000000001
40
0.390625000000001
40
0.406250000000001
40
0.406250000000001
40
0.421875000000001
40
0.421875000000001
40
0.437500000000001
40
0.437500000000001
40
0.453125000000001
40
0.453125000000001
40
0.468750000000001
40
0.468750000000001
40
0.484375000000002
40
0.484375000000002
40
0.500000000000002
40
0.500000000000002
40
0.515625000000002
40
0.515625000000002
40
0.519531250000002
40
0.519531250000002
40
0.523437500000002
40
0.523437500000002
40
0.531250000000002
40
0.531250000000002
40
0.546875000000002
40
0.546875000000002
40
0.562500000000002
40
0.562500000000002
40
0.578125000000002
40
0.578125000000002
40
0.593750000000002
40
0.593750000000002
40
0.609375000000002
40
0.609375000000002
40
0.625000000000001
40
0.625000000000001
40
0.640625000000001
40
0.640625000000001
40
0.656250000000001
40
0.656250000000001
40
0.671875000000001
40
0.671875000000001
40
0.687500000000001
40
0.687500000000001
40
0.703125000000001
40
0.703125000000001
40
0.718750000000001
40
0.718750000000001
40
0.734375000000001
40
0.734375000000001
40
0.750000000000001
40
0.750000000000001
40
0.765625000000001
40
0.765625000000001
40
0.773437500000001
40
0.773437500000001
40
0.781250000000001
40
0.781250000000001
40
0.796875000000001
40
0.796875000000001
40
0.812500000000001
40
0.812500000000001
40
0.828125000000001
40
0.828125000000001
40
0.843750000000001
40
0.843750000000001
40
0.859375000000001
40
0.859375000000001
40
0.875
40
0.875
40
0.890625
40
0.890625
40
0.90625
40
0.90625
40
0.921875
40
0.921875
40
0.9375
40
0.9375
40
0.953125
40
0.953125
40
0.96875
40
0.96875
40
0.984375
40
0.984375
40
1
40
1
40
1
40
1
41
1
10
98.3865336568696
20
13.2955
30
0
41
1
10
98.447858136523
20
13.2955
30
0
41
1
10
98.5091826161763
20
13.2795174434837
30
0
41
1
10
98.631831575483
20
13.2124175544594
30
0
41
1
10
98.6931560551363
20
13.1612930870684
30
0
41
1
10
98.8158050144431
20
13.0212699963861
30
0
41
1
10
98.8771294940964
20
12.9323643926261
30
0
41
1
10
98.9997784534031
20
12.7148975781767
30
0
41
1
10
99.0611029330565
20
12.5863302930699
30
0
41
1
10
99.1837518923632
20
12.2886154593446
30
0
41
1
10
99.2450763720166
20
12.1194635432257
30
0
41
1
10
99.3677253313232
20
11.7407713326884
30
0
41
1
10
99.4290498109766
20
11.5312290953891
30
0
41
1
10
99.5516987702835
20
11.0731619751323
30
0
41
1
10
99.6130232499368
20
10.8246380624774
30
0
41
1
10
99.7356722092434
20
10.2912433760992
30
0
41
1
10
99.7969966888968
20
10.0063766227164
30
0
41
1
10
99.9196456482036
20
9.40408737882376
30
0
41
1
10
99.9809701278569
20
9.08667168251705
30
0
41
1
10
100.103619087164
20
8.42406731292078
30
0
41
1
10
100.164943566817
20
8.07888754276789
30
0
41
1
10
100.287592526124
20
7.36629102747085
30
0
41
1
10
100.348917005777
20
6.99888435024477
30
0
41
1
10
100.471565965084
20
6.24783481571146
30
0
41
1
10
100.532890444737
20
5.86420213556775
30
0
41
1
10
100.655539404044
20
5.08685836515235
30
0
41
1
10
100.716863883697
20
4.69315657612032
30
0
41
1
10
100.839512843004
20
3.90169345489881
30
0
41
1
10
100.900837322657
20
3.50393978319698
30
0
41
1
10
101.023486281964
20
2.70999570815067
30
0
41
1
10
101.084810761617
20
2.31381086678954
30
0
41
1
10
101.207459720924
20
1.52803139032576
30
0
41
1
10
101.268784200577
20
1.13844008241529
30
0
41
1
10
101.360770920057
20
0.56221888666613
30
0
41
1
10
101.391433159884
20
0.371500121125535
30
0
41
1
10
101.437426519624
20
0.0878012592798143
30
0
41
1
10
101.452757639537
20
-0.0060945750590236
30
0
41
1
10
101.483419879364
20
-0.194764527217473
30
0
41
1
10
101.498750999277
20
-0.289503495420064
30
0
41
1
10
101.575406598844
20
-0.765079987942386
30
0
41
1
10
101.636731078497
20
-1.15159338962377
30
0
41
1
10
101.759380037804
20
-1.93268490510431
30
0
41
1
10
101.820704517457
20
-2.32726039349302
30
0
41
1
10
101.943353476764
20
-3.11967734618497
30
0
41
1
10
102.004677956418
20
-3.51751396851793
30
0
41
1
10
102.127326915724
20
-4.31100805459957
30
0
41
1
10
102.188651395378
20
-4.70665850003815
30
0
41
1
10
102.311300354684
20
-5.48986704876171
30
0
41
1
10
102.372624834338
20
-5.87741630980059
30
0
41
1
10
102.495273793644
20
-6.63828086725951
30
0
41
1
10
102.556598273298
20
-7.01158616931085
30
0
41
1
10
102.679247232604
20
-7.73787821900737
30
0
41
1
10
102.740571712258
20
-8.09085474809098
30
0
41
1
10
102.863220671565
20
-8.77076871188459
30
0
41
1
10
102.924545151218
20
-9.09769675586065
30
0
41
1
10
103.047194110525
20
-9.72045554875444
30
0
41
1
10
103.108518590178
20
-10.016278734798
30
0
41
1
10
103.231167549485
20
-10.5726900209008
30
0
41
1
10
103.292492029138
20
-10.8332731564012
30
0
41
1
10
103.415140988445
20
-11.3161775846142
30
0
41
1
10
103.476465468098
20
-11.5384969195775
30
0
41
1
10
103.599114427405
20
-11.9430630660122
30
0
41
1
10
103.660438907058
20
-12.1253109199367
30
0
41
1
10
103.783087866365
20
-12.4491528092999
30
0
41
1
10
103.844412346018
20
-12.590750501048
30
0
41
1
10
103.967061305325
20
-12.8338678463142
30
0
41
1
10
104.028385784978
20
-12.9353931105175
30
0
41
1
10
104.151034744285
20
-13.0999566811412
30
0
41
1
10
104.212359223938
20
-13.1630017627967
30
0
41
1
10
104.335008183245
20
-13.2530224204857
30
0
41
1
10
104.396332662898
20
-13.2800051563712
30
0
41
1
10
104.472988262465
20
-13.2930850203812
30
0
41
1
10
104.488319382378
20
-13.2946697665069
30
0
41
1
10
104.518981622205
20
-13.2958283298614
30
0
41
1
10
104.534312742119
20
-13.2954098401981
30
0
41
1
10
104.580306101858
20
-13.2911145176831
30
0
41
1
10
104.610968341685
20
-13.2841844744572
30
0
41
1
10
104.702955061165
20
-13.2505939780258
30
0
41
1
10
104.764279540819
20
-13.2111142963928
30
0
41
1
10
104.886928500125
20
-13.0951588732019
30
0
41
1
10
104.948252979779
20
-13.0186760247521
30
0
41
1
10
105.070901939085
20
-12.8265656195444
30
0
41
1
10
105.132226418739
20
-12.7109316088782
30
0
41
1
10
105.254875378045
20
-12.4392660339012
30
0
41
1
10
105.316199857699
20
-12.2832294666203
30
0
41
1
10
105.438848817005
20
-11.9305767381264
30
0
41
1
10
105.500173296659
20
-11.7339577853446
30
0
41
1
10
105.622822255965
20
-11.3011488332767
30
0
41
1
10
105.684146735619
20
-11.064958831564
30
0
41
1
10
105.806795694925
20
-10.5552508327758
30
0
41
1
10
105.868120174579
20
-10.2817358829469
30
0
41
1
10
105.990769133886
20
-9.70081052415179
30
0
41
1
10
106.052093613539
20
-9.39340607077131
30
0
41
1
10
106.174742572846
20
-8.74918772186464
30
0
41
1
10
106.236067052499
20
-8.41238214245661
30
0
41
1
10
106.358716011806
20
-7.71468445540097
30
0
41
1
10
106.420040491459
20
-7.35380215392775
30
0
41
1
10
106.542689450766
20
-6.61383535219966
30
0
41
1
10
106.604013930419
20
-6.23476110837433
30
0
41
1
10
106.726662889726
20
-5.46455108986618
30
0
41
1
10
106.787987369379
20
-5.07342499529005
30
0
41
1
10
106.910636328686
20
-4.28520532072943
30
0
41
1
10
106.971960808339
20
-3.8881199957639
30
0
41
1
10
107.094609767646
20
-3.09375717217847
30
0
41
1
10
107.155934247299
20
-2.69648594178293
30
0
41
1
10
107.278583206606
20
-1.90698814247884
30
0
41
1
10
107.339907686259
20
-1.51476561765111
30
0
41
1
10
107.431894405739
20
-0.933622611654386
30
0
41
1
10
107.462556645566
20
-0.741100955258077
30
0
41
1
10
107.52388112522
20
-0.35893764616111
30
0
41
1
10
107.554543365046
20
-0.169504163780374
30
0
41
1
10
107.646530084526
20
0.395090859795573
30
0
41
1
10
107.70785456418
20
0.778106043641657
30
0
41
1
10
107.830503523486
20
1.5535897574938
30
0
41
1
10
107.89182800314
20
1.94605634122715
30
0
41
1
10
108.014476962446
20
2.73587939671387
30
0
41
1
10
108.0758014421
20
3.13323175018817
30
0
41
1
10
108.198450401406
20
3.92757325923773
30
0
41
1
10
108.25977488106
20
4.32455607521086
30
0
41
1
10
108.382423840366
20
5.1123727367922
30
0
41
1
10
108.44374832002
20
5.50319826942302
30
0
41
1
10
108.566397279326
20
6.27260298191703
30
0
41
1
10
108.62772175898
20
6.65117244764292
30
0
41
1
10
108.750370718287
20
7.38992899069473
30
0
41
1
10
108.81169519794
20
7.75010580950303
30
0
41
1
10
108.934344157247
20
8.44620554457174
30
0
41
1
10
108.9956686369
20
8.78211868780474
30
0
41
1
10
109.118317596207
20
9.42438867117642
30
0
41
1
10
109.17964207586
20
9.73073726086267
30
0
41
1
10
109.302291035167
20
10.3094191713792
30
0
41
1
10
109.36361551482
20
10.5817466262854
30
0
41
1
10
109.486264474127
20
11.0889855972761
30
0
41
1
10
109.54758895378
20
11.3238941671847
30
0
41
1
10
109.670237913087
20
11.7540868984962
30
0
41
1
10
109.73156239274
20
11.9493711609286
30
0
41
1
10
109.854211352047
20
12.2993417812201
30
0
41
1
10
109.9155358317
20
12.4540310145468
30
0
41
1
10
110.038184791007
20
12.7230269901296
30
0
41
1
10
110.09950927066
20
12.8373387961785
30
0
41
1
10
110.160833750314
20
12.9321007100468
30
0
0
SPLINE
5
ED
100
AcDbEntity
8
1
62
256
6
ByLayer
370
13
48
1
60
0
100
AcDbSpline
70
4
71
3
72
22
73
18
40
0
40
0
40
0
40
0
40
0.125
40
0.125
40
0.25
40
0.25
40
0.375
40
0.375
40
0.5
40
0.5
40
0.625
40
0.625
40
0.75
40
0.75
40
0.875
40
0.875
40
1
40
1
40
1
40
1
41
1
10
108.603727577256
20
13.2955
30
0
41
1
10
108.668607001133
20
13.2955
30
0
41
1
10
108.733486425011
20
13.2776081608088
30
0
41
1
10
108.863245272765
20
13.2023032234223
30
0
41
1
10
108.928124696643
20
13.1448806605422
30
0
41
1
10
109.057883544398
20
12.9874555709903
30
0
41
1
10
109.122762968275
20
12.8874438834045
30
0
41
1
10
109.25252181603
20
12.6427616541702
30
0
41
1
10
109.317401239907
20
12.4980833850765
30
0
41
1
10
109.447160087662
20
12.1632268007419
30
0
41
1
10
109.51203951154
20
11.9730433702658
30
0
41
1
10
109.641798359294
20
11.5477701576331
30
0
41
1
10
109.706677783172
20
11.3126788739545
30
0
41
1
10
109.836436630927
20
10.7997214021255
30
0
41
1
10
109.901316054804
20
10.5218579128292
30
0
41
1
10
110.031074902559
20
9.92700904827416
30
0
41
1
10
110.095954326436
20
9.61003056564041
30
0
41
1
10
110.160833750314
20
9.27600616972001
30
0
0
SPLINE
5
EE
100
AcDbEntity
8
1
62
256
6
ByLayer
370
13
48
1
60
0
100
AcDbSpline
70
4
71
3
72
22
73
18
40
0
40
0
40
0
40
0
40
0.125
40
0.125
40
0.25
40
0.25
40
0.375
40
0.375
40
0.5
40
0.5
40
0.625
40
0.625
40
0.75
40
0.75
40
0.875
40
0.875
40
1
40
1
40
1
40
1
41
1
10
97.9
20
6.50101922397667
30
0
41
1
10
97.9851516851237
20
7.0248408625938
30
0
41
1
10
98.0703033702474
20
7.53362579315399
30
0
41
1
10
98.2406067404949
20
8.50520443691653
30
0
41
1
10
98.3257584256186
20
8.96794756520669
30
0
41
1
10
98.496061795866
20
9.83344705372335
30
0
41
1
10
98.5812134809898
20
10.2361644502259
30
0
41
1
10
98.7515168512372
20
10.9710250263417
30
0
41
1
10
98.836668536361
20
11.3031483957946
30
0
41
1
10
99.0069719066084
20
11.8905484563159
30
0
41
1
10
99.0921235917322
20
12.1458269787077
30
0
41
1
10
99.2624269619796
20
12.577853823632
30
0
41
1
10
99.3475786471033
20
12.7546226908687
30
0
41
1
10
99.5178820173508
20
13.0321840011471
30
0
41
1
10
99.6030337024745
20
13.1330090154252
30
0
41
1
10
99.7733370727219
20
13.2646486218183
30
0
41
1
10
99.8584887578456
20
13.2955
30
0
41
1
10
99.9436404429694
20
13.2955
30
0
0
SPLINE
5
EF
100
AcDbEntity
8
1
62
256
6
ByLayer
370
13
48
1
60
0
100
AcDbSpline
70
4
71
3
72
134
73
130
40
0
40
0
40
0
40
0
40
0.015625
40
0.015625
40
0.03125
40
0.03125
40
0.046875
40
0.046875
40
0.0624999999999999
40
0.0624999999999999
40
0.0781249999999999
40
0.0781249999999999
40
0.0937499999999999
40
0.0937499999999999
40
0.109375
40
0.109375
40
0.125
40
0.125
40
0.140625
40
0.140625
40
0.15625
40
0.15625
40
0.171875
40
0.171875
40
0.1875
40
0.1875
40
0.203125
40
0.203125
40
0.21875
40
0.21875
40
0.234375
40
0.234375
40
0.25
40
0.25
40
0.265625
40
0.265625
40
0.28125
40
0.28125
40
0.296875
40
0.296875
40
0.3125
40
0.3125
40
0.328125
40
0.328125
40
0.34375
40
0.34375
40
0.359375
40
0.359375
40
0.375
40
0.375
40
0.390625
40
0.390625
40
0.40625
40
0.40625
40
0.421875
40
0.421875
40
0.4375
40
0.4375
40
0.453125
40
0.453125
40
0.46875
40
0.46875
40
0.484375
40
0.484375
40
0.5
40
0.5
40
0.515625
40
0.515625
40
0.53125
40
0.53125
40
0.546875
40
0.546875
40
0.5625
40
0.5625
40
0.578125
40
0.578125
40
0.59375
40
0.59375
40
0.609375
40
0.609375
40
0.625
40
0.625
40
0.640625
40
0.640625
40
0.65625
40
0.65625
40
0.671875
40
0.671875
40
0.6875
40
0.6875
40
0.703125
40
0.703125
40
0.71875
40
0.71875
40
0.734375
40
0.734375
40
0.75
40
0.75
40
0.765625
40
0.765625
40
0.78125
40
0.78125
40
0.796875
40
0.796875
40
0.8125
40
0.8125
40
0.828125
40
0.828125
40
0.84375
40
0.84375
40
0.859375
40
0.859375
40
0.875
40
0.875
40
0.890625
40
0.890625
40
0.90625
40
0.90625
40
0.921875
40
0.921875
40
0.9375
40
0.9375
40
0.953125
40
0.953125
40
0.96875
40
0.96875
40
0.984375
40
0.984375
40
1
40
1
40
1
40
1
41
1
10
97.9000006130417
20
13.2955
30
0
41
1
10
97.963859118965
20
13.2955
30
0
41
1
10
98.0277176248884
20
13.2781675439051
30
0
41
1
10
98.1554346367349
20
13.2052694419547
30
0
41
1
10
98.2192931426582
20
13.1496950547531
30
0
41
1
10
98.3470101545048
20
12.9973780425071
30
0
41
1
10
98.410868660428
20
12.9006269293992
30
0
41
1
10
98.5385856722746
20
12.6639328742645
30
0
41
1
10
98.6024441781979
20
12.5239827049065
30
0
41
1
10
98.7301611900446
20
12.2000182030233
30
0
41
1
10
98.7940196959678
20
12.0159989617913
30
0
41
1
10
98.9217367078144
20
11.6043613725469
30
0
41
1
10
98.9855952137376
20
11.3767413480644
30
0
41
1
10
99.1133122255843
20
10.8798067379919
30
0
41
1
10
99.1771707315075
20
10.6104942699849
30
0
41
1
10
99.3048877433541
20
10.0335139466471
30
0
41
1
10
99.3687462492775
20
9.72585205157563
30
0
41
1
10
99.4964632611239
20
9.07682514578818
30
0
41
1
10
99.5603217670473
20
8.73546941414244
30
0
41
1
10
99.6880387788939
20
8.02478902435803
30
0
41
1
10
99.7518972848172
20
7.65547593981134
30
0
41
1
10
99.8796142966638
20
6.89537975259731
30
0
41
1
10
99.9434728025871
20
6.50460918378133
30
0
41
1
10
100.071189814434
20
5.70849465375986
30
0
41
1
10
100.135048320357
20
5.30316279836325
30
0
41
1
10
100.262765332204
20
4.48484509656839
30
0
41
1
10
100.326623838127
20
4.07186973447247
30
0
41
1
10
100.454340849973
20
3.24486396914202
30
0
41
1
10
100.518199355897
20
2.8308416078259
30
0
41
1
10
100.645916367743
20
2.00773964737957
30
0
41
1
10
100.709774873667
20
1.59866527234845
30
0
41
1
10
100.837491885513
20
0.790655903810489
30
0
41
1
10
100.901350391436
20
0.391723357407045
30
0
41
1
10
101.029067403283
20
-0.391721477139441
30
0
41
1
10
101.092925909206
20
-0.790653980693946
30
0
41
1
10
101.220642921053
20
-1.59866331702006
30
0
41
1
10
101.284501426976
20
-2.00773767974596
30
0
41
1
10
101.412218438823
20
-2.8308396245701
30
0
41
1
10
101.476076944746
20
-3.24486198257381
30
0
41
1
10
101.603793956593
20
-4.07186775141292
30
0
41
1
10
101.667652462516
20
-4.48484312033423
30
0
41
1
10
101.795369474363
20
-5.30316084667231
30
0
41
1
10
101.859227980286
20
-5.70849271979017
30
0
41
1
10
101.986944992132
20
-6.50460729640113
30
0
41
1
10
102.050803498056
20
-6.89537789408712
30
0
41
1
10
102.178520509902
20
-7.6554741498596
30
0
41
1
10
102.242379015826
20
-8.02478727409434
30
0
41
1
10
102.370096027672
20
-8.73546775314003
30
0
41
1
10
102.433954533595
20
-9.07682353435629
30
0
41
1
10
102.561671545442
20
-9.72585054767805
30
0
41
1
10
102.625530051365
20
-10.0335125007086
30
0
41
1
10
102.753247063212
20
-10.6104929464175
30
0
41
1
10
102.817105569135
20
-10.8798054788305
30
0
41
1
10
102.944822580982
20
-11.3767402219393
30
0
41
1
10
103.008681086905
20
-11.6043603150458
30
0
41
1
10
103.136398098752
20
-12.0159980434316
30
0
41
1
10
103.200256604675
20
-12.2000173551751
30
0
41
1
10
103.327973616522
20
-12.5239819977248
30
0
41
1
10
103.391832122445
20
-12.6639322372331
30
0
41
1
10
103.519549134291
20
-12.9006264302988
30
0
41
1
10
103.583407640215
20
-12.9973776111847
30
0
41
1
10
103.711124652061
20
-13.1496947549535
30
0
41
1
10
103.774983157985
20
-13.2052692058988
30
0
41
1
10
103.902700169831
20
-13.2781674300498
30
0
41
1
10
103.966558675754
20
-13.295499944602
30
0
41
1
10
104.094275687601
20
-13.2955000553978
30
0
41
1
10
104.158134193524
20
-13.2781676577601
30
0
41
1
10
104.285851205371
20
-13.2052696780103
30
0
41
1
10
104.349709711294
20
-13.1496953545524
30
0
41
1
10
104.477426723141
20
-12.9973784738292
30
0
41
1
10
104.541285229064
20
-12.9006274284991
30
0
41
1
10
104.669002240911
20
-12.6639335112957
30
0
41
1
10
104.732860746834
20
-12.523983412088
30
0
41
1
10
104.860577758681
20
-12.2000190508711
30
0
41
1
10
104.924436264604
20
-12.0159998801507
30
0
41
1
10
105.05215327645
20
-11.6043624300476
30
0
41
1
10
105.116011782374
20
-11.3767424741891
30
0
41
1
10
105.24372879422
20
-10.879807997153
30
0
41
1
10
105.307587300144
20
-10.6104955935521
30
0
41
1
10
105.43530431199
20
-10.0335153925853
30
0
41
1
10
105.499162817913
20
-9.72585355547292
30
0
41
1
10
105.62687982976
20
-9.07682675721981
30
0
41
1
10
105.690738335683
20
-8.73547107514466
30
0
41
1
10
105.81845534753
20
-8.02479077462152
30
0
41
1
10
105.882313853453
20
-7.65547772976288
30
0
41
1
10
106.0100308653
20
-6.89538161110733
30
0
41
1
10
106.073889371223
20
-6.50461107116138
30
0
41
1
10
106.20160638307
20
-5.70849658772948
30
0
41
1
10
106.265464888993
20
-5.30316475005409
30
0
41
1
10
106.393181900839
20
-4.48484707280252
30
0
41
1
10
106.457040406763
20
-4.07187171753199
30
0
41
1
10
106.584757418609
20
-3.24486595571023
30
0
41
1
10
106.648615924533
20
-2.83084359108173
30
0
41
1
10
106.776332936379
20
-2.00774161501323
30
0
41
1
10
106.840191442303
20
-1.59866722767691
30
0
41
1
10
106.967908454149
20
-0.790657826927117
30
0
41
1
10
107.031766960072
20
-0.391725260621285
30
0
41
1
10
107.159483971919
20
0.391719619818304
30
0
41
1
10
107.223342477842
20
0.790652057577489
30
0
41
1
10
107.351059489689
20
1.59866136169171
30
0
41
1
10
107.414917995612
20
2.00773571211238
30
0
41
1
10
107.542635007459
20
2.8308376413143
30
0
41
1
10
107.606493513382
20
3.24485999600563
30
0
41
1
10
107.734210525229
20
4.07186576835338
30
0
41
1
10
107.798069031152
20
4.48484114410005
30
0
41
1
10
107.925786042998
20
5.30315889498132
30
0
41
1
10
107.989644548922
20
5.70849078582037
30
0
41
1
10
108.117361560768
20
6.5046054090208
30
0
41
1
10
108.181220066692
20
6.89537603557679
30
0
41
1
10
108.308937078538
20
7.65547235990772
30
0
41
1
10
108.372795584462
20
8.02478552383045
30
0
41
1
10
108.500512596308
20
8.73546609213736
30
0
41
1
10
108.564371102231
20
9.07682192292418
30
0
41
1
10
108.692088114078
20
9.72584904378019
30
0
41
1
10
108.755946620001
20
10.0335110547699
30
0
41
1
10
108.883663631848
20
10.6104916228498
30
0
41
1
10
108.947522137771
20
10.8798042196688
30
0
41
1
10
109.075239149618
20
11.3767390958139
30
0
41
1
10
109.139097655541
20
11.6043592575444
30
0
41
1
10
109.266814667388
20
12.0159971250715
30
0
41
1
10
109.330673173311
20
12.2000165073266
30
0
41
1
10
109.458390185158
20
12.5239812905426
30
0
41
1
10
109.522248691081
20
12.6639316002013
30
0
41
1
10
109.649965702928
20
12.9006259311981
30
0
41
1
10
109.713824208851
20
12.997377179862
30
0
41
1
10
109.841541220697
20
13.1496944551536
30
0
41
1
10
109.905399726621
20
13.2052689698426
30
0
41
1
10
110.033116738467
20
13.2781673161942
30
0
41
1
10
110.096975244391
20
13.2954998892036
30
0
41
1
10
110.160833750314
20
13.2954999999995
30
0
0
SPLINE
5
F0
100
AcDbEntity
8
1
62
256
6
ByLayer
370
13
48
1
60
0
100
AcDbSpline
70
4
71
3
72
22
73
18
40
0
40
0
40
0
40
0
40
0.125
40
0.125
40
0.25
40
0.25
40
0.375
40
0.375
40
0.5
40
0.5
40
0.625
40
0.625
40
0.75
40
0.75
40
0.875
40
0.875
40
1
40
1
40
1
40
1
41
1
10
108.117194533428
20
13.2955
30
0
41
1
10
108.202346167465
20
13.2955
30
0
41
1
10
108.287497801502
20
13.2646486589314
30
0
41
1
10
108.457801069575
20
13.1330092152438
30
0
41
1
10
108.542952703612
20
13.0321843266676
30
0
41
1
10
108.713255971686
20
12.7546233644864
30
0
41
1
10
108.798407605723
20
12.5778547197326
30
0
41
1
10
108.968710873797
20
12.1458284153593
30
0
41
1
10
109.053862507834
20
11.8905502110684
30
0
41
1
10
109.224165775908
20
11.3031508699732
30
0
41
1
10
109.309317409945
20
10.9710279018004
30
0
41
1
10
109.479620678018
20
10.2361681879663
30
0
41
1
10
109.564772312055
20
9.83345125234212
30
0
41
1
10
109.735075580129
20
8.96795271321093
30
0
41
1
10
109.820227214166
20
8.50521007325361
30
0
41
1
10
109.99053048224
20
7.53363239769809
30
0
41
1
10
110.075682116277
20
7.02484794683275
30
0
41
1
10
110.160833750314
20
6.50102676638656
30
0
0
SPLINE
5
F1
100
AcDbEntity
8
1
62
256
6
ByLayer
370
13
48
1
60
0
100
AcDbSpline
70
4
71
3
72
22
73
18
40
0
40
0
40
0
40
0
40
0.125
40
0.125
40
0.25
40
0.25
40
0.375
40
0.375
40
0.5
40
0.5
40
0.625
40
0.625
40
0.75
40
0.75
40
0.875
40
0.875
40
1
40
1
40
1
40
1
41
1
10
97.9
20
9.27599985736606
30
0
41
1
10
97.9648794749643
20
9.61002473041034
30
0
41
1
10
98.0297589499286
20
9.92700368100245
30
0
41
1
10
98.159517899857
20
10.5218534438893
30
0
41
1
10
98.2243973748212
20
10.79971736351
30
0
41
1
10
98.3541563247496
20
11.3126756422117
30
0
41
1
10
98.4190357997139
20
11.5477673024077
30
0
41
1
10
98.5487947496424
20
11.9730412025136
30
0
41
1
10
98.6136742246065
20
12.1632249439358
30
0
41
1
10
98.743433174535
20
12.498082077842
30
0
41
1
10
98.8083126494992
20
12.6427605855715
30
0
41
1
10
98.9380715994276
20
12.887443218012
30
0
41
1
10
99.0029510743919
20
12.987455070194
30
0
41
1
10
99.1327100243204
20
13.1448804175882
30
0
41
1
10
99.1975894992846
20
13.2023030737491
30
0
41
1
10
99.327348449213
20
13.2776081325939
30
0
41
1
10
99.3922279241772
20
13.2955
30
0
41
1
10
99.4571073991415
20
13.2955
30
0
0
SPLINE
5
F2
100
AcDbEntity
8
1
62
256
6
ByLayer
370
13
48
1
60
0
100
AcDbSpline
70
4
71
3
72
144
73
140
40
0
40
0
40
0
40
0
40
0.0156249999999997
40
0.0156249999999997
40
0.0312499999999994
40
0.0312499999999994
40
0.0468749999999991
40
0.0468749999999991
40
0.0624999999999988
40
0.0624999999999988
40
0.0781249999999985
40
0.0781249999999985
40
0.0937499999999982
40
0.0937499999999982
40
0.109374999999998
40
0.109374999999998
40
0.124999999999998
40
0.124999999999998
40
0.140624999999997
40
0.140624999999997
40
0.156249999999997
40
0.156249999999997
40
0.171874999999997
40
0.171874999999997
40
0.187499999999996
40
0.187499999999996
40
0.203124999999996
40
0.203124999999996
40
0.218749999999996
40
0.218749999999996
40
0.226562499999996
40
0.226562499999996
40
0.234374999999995
40
0.234374999999995
40
0.249999999999995
40
0.249999999999995
40
0.265624999999995
40
0.265624999999995
40
0.281249999999995
40
0.281249999999995
40
0.296874999999994
40
0.296874999999994
40
0.312499999999994
40
0.312499999999994
40
0.328124999999994
40
0.328124999999994
40
0.343749999999993
40
0.343749999999993
40
0.359374999999993
40
0.359374999999993
40
0.374999999999993
40
0.374999999999993
40
0.390624999999993
40
0.390624999999993
40
0.406249999999993
40
0.406249999999993
40
0.421874999999992
40
0.421874999999992
40
0.437499999999992
40
0.437499999999992
40
0.453124999999992
40
0.453124999999992
40
0.468749999999992
40
0.468749999999992
40
0.476562499999992
40
0.476562499999992
40
0.480468749999992
40
0.480468749999992
40
0.484374999999992
40
0.484374999999992
40
0.499999999999993
40
0.499999999999993
40
0.515624999999993
40
0.515624999999993
40
0.531249999999994
40
0.531249999999994
40
0.546874999999995
40
0.546874999999995
40
0.562499999999996
40
0.562499999999996
40
0.578124999999997
40
0.578124999999997
40
0.593749999999997
40
0.593749999999997
40
0.609374999999998
40
0.609374999999998
40
0.624999999999999
40
0.624999999999999
40
0.640625
40
0.640625
40
0.656250000000001
40
0.656250000000001
40
0.671875000000001
40
0.671875000000001
40
0.687500000000002
40
0.687500000000002
40
0.703125000000003
40
0.703125000000003
40
0.718750000000004
40
0.718750000000004
40
0.734375000000005
40
0.734375000000005
40
0.738281250000005
40
0.738281250000005
40
0.742187500000005
40
0.742187500000005
40
0.750000000000005
40
0.750000000000005
40
0.765625000000004
40
0.765625000000004
40
0.781250000000004
40
0.781250000000004
40
0.796875000000004
40
0.796875000000004
40
0.812500000000003
40
0.812500000000003
40
0.828125000000003
40
0.828125000000003
40
0.843750000000003
40
0.843750000000003
40
0.859375000000003
40
0.859375000000003
40
0.875000000000002
40
0.875000000000002
40
0.890625000000002
40
0.890625000000002
40
0.906250000000002
40
0.906250000000002
40
0.921875000000001
40
0.921875000000001
40
0.937500000000001
40
0.937500000000001
40
0.953125000000001
40
0.953125000000001
40
0.96875
40
0.96875
40
0.984375
40
0.984375
40
1
40
1
40
1
40
1
41
1
10
97.9
20
12.9321026046548
30
0
41
1
10
97.9613244860392
20
12.8373409409617
30
0
41
1
10
98.0226489720785
20
12.7230293868757
30
0
41
1
10
98.1452979441569
20
12.4540339118997
30
0
41
1
10
98.206622430196
20
12.2993449272025
30
0
41
1
10
98.3292714022743
20
11.949374793376
30
0
41
1
10
98.3905958883136
20
11.7540907687614
30
0
41
1
10
98.513244860392
20
11.3238984947474
30
0
41
1
10
98.5745693464312
20
11.0889901442996
30
0
41
1
10
98.6972183185097
20
10.5817515868382
30
0
41
1
10
98.7585428045489
20
10.3094243259828
30
0
41
1
10
98.8811917766274
20
9.73074277216904
30
0
41
1
10
98.9425162626665
20
9.42439434512099
30
0
41
1
10
99.0651652347449
20
8.78212465114467
30
0
41
1
10
99.1264897207842
20
8.44621163466104
30
0
41
1
10
99.2491386928625
20
7.75011211458084
30
0
41
1
10
99.3104631789018
20
7.38993538401076
30
0
41
1
10
99.4331121509802
20
6.65117897828247
30
0
41
1
10
99.4944366370194
20
6.2726095616475
30
0
41
1
10
99.6170856090979
20
5.50320490945478
30
0
41
1
10
99.678410095137
20
5.11237938804516
30
0
41
1
10
99.8010590672154
20
4.32456271396018
30
0
41
1
10
99.8623835532546
20
3.92757987427626
30
0
41
1
10
99.9850325253331
20
3.13323828707325
30
0
41
1
10
100.046357011372
20
2.73588587917143
30
0
41
1
10
100.169005983451
20
1.94606268914365
30
0
41
1
10
100.23033046949
20
1.55359602531107
30
0
41
1
10
100.352979441568
20
0.778112131003297
30
0
41
1
10
100.414303927608
20
0.395096846812834
30
0
41
1
10
100.506290656666
20
-0.169498338412865
30
0
41
1
10
100.536952899686
20
-0.358931746280632
30
0
41
1
10
100.598277385725
20
-0.741095035878089
30
0
41
1
10
100.628939628745
20
-0.933616685246704
30
0
41
1
10
100.720926357804
20
-1.51475967885784
30
0
41
1
10
100.782250843843
20
-1.90698220704971
30
0
41
1
10
100.904899815921
20
-2.69648003866783
30
0
41
1
10
100.96622430196
20
-3.0937512980224
30
0
41
1
10
101.088873274039
20
-3.88811420658035
30
0
41
1
10
101.150197760078
20
-4.28519958756672
30
0
41
1
10
101.272846732156
20
-5.07341940154743
30
0
41
1
10
101.334171218195
20
-5.46454557952686
30
0
41
1
10
101.456820190274
20
-6.23475579122189
30
0
41
1
10
101.518144676313
20
-6.61383014483064
30
0
41
1
10
101.640793648392
20
-7.35379719012209
30
0
41
1
10
101.702118134431
20
-7.71467962537028
30
0
41
1
10
101.824767106509
20
-8.41237760027846
30
0
41
1
10
101.886091592548
20
-8.74918333375453
30
0
41
1
10
102.008740564627
20
-9.39340200631446
30
0
41
1
10
102.070065050666
20
-9.70080662926725
30
0
41
1
10
102.192714022744
20
-10.2817323371887
30
0
41
1
10
102.254038508784
20
-10.5552474665571
30
0
41
1
10
102.376687480862
20
-11.0649558285411
30
0
41
1
10
102.438011966901
20
-11.3011460138959
30
0
41
1
10
102.56066093898
20
-11.7339553316116
30
0
41
1
10
102.621985425019
20
-11.9305744663871
30
0
41
1
10
102.744634397097
20
-12.2832275519937
30
0
41
1
10
102.805958883136
20
-12.439264294385
30
0
41
1
10
102.928607855215
20
-12.7109302082998
30
0
41
1
10
102.989932341254
20
-12.8265643827889
30
0
41
1
10
103.112581313332
20
-13.0186751009797
30
0
41
1
10
103.173905799372
20
-13.0951580985892
30
0
41
1
10
103.29655477145
20
-13.2111138031615
30
0
41
1
10
103.357879257489
20
-13.250593617019
30
0
41
1
10
103.449865986548
20
-13.2841842981789
30
0
41
1
10
103.480528229568
20
-13.2911144007209
30
0
41
1
10
103.526521594097
20
-13.2954098087747
30
0
41
1
10
103.541852715607
20
-13.2958283261407
30
0
41
1
10
103.572514958626
20
-13.2946698183633
30
0
41
1
10
103.587846080136
20
-13.2930851001785
30
0
41
1
10
103.664501687685
20
-13.2800053765447
30
0
41
1
10
103.725826173724
20
-13.2530227551287
30
0
41
1
10
103.848475145803
20
-13.1630023280609
30
0
41
1
10
103.909799631842
20
-13.0999573625532
30
0
41
1
10
104.032448603921
20
-12.9353940227858
30
0
41
1
10
104.09377308996
20
-12.8338688732849
30
0
41
1
10
104.216422062038
20
-12.5907517525463
30
0
41
1
10
104.277746548077
20
-12.4491541706156
30
0
41
1
10
104.400395520156
20
-12.1253124924649
30
0
41
1
10
104.461720006195
20
-11.9430647399266
30
0
41
1
10
104.584368978273
20
-11.5384987844433
30
0
41
1
10
104.645693464313
20
-11.3161795390364
30
0
41
1
10
104.768342436391
20
-10.8332752751346
30
0
41
1
10
104.82966692243
20
-10.5726922143814
30
0
41
1
10
104.952315894509
20
-10.0162810606609
30
0
41
1
10
105.013640380548
20
-9.72045793224748
30
0
41
1
10
105.136289352626
20
-9.09769923605859
30
0
41
1
10
105.197613838666
20
-8.77077123115532
30
0
41
1
10
105.320262810744
20
-8.09085732648549
30
0
41
1
10
105.381587296783
20
-7.73788081745437
30
0
41
1
10
105.504236268862
20
-7.0115887893586
30
0
41
1
10
105.565560754901
20
-6.63828348886011
30
0
41
1
10
105.688209726979
20
-5.87741891741103
30
0
41
1
10
105.749534213018
20
-5.48986964083593
30
0
41
1
10
105.872183185097
20
-4.70666104606752
30
0
41
1
10
105.933507671136
20
-4.31101057012825
30
0
41
1
10
106.056156643214
20
-3.51751641068466
30
0
41
1
10
106.117481129254
20
-3.11967974549839
30
0
41
1
10
106.240130101332
20
-2.32726269759695
30
0
41
1
10
106.301454587371
20
-1.932687156859
30
0
41
1
10
106.42410355945
20
-1.1515955300537
30
0
41
1
10
106.485428045489
20
-0.765082069402212
30
0
41
1
10
106.562083653038
20
-0.289505500718491
30
0
41
1
10
106.577414774548
20
-0.194766517160559
30
0
41
1
10
106.608077017567
20
-0.0060965340847758
30
0
41
1
10
106.623408139077
20
0.087799305092318
30
0
41
1
10
106.669401503606
20
0.371498180149672
30
0
41
1
10
106.700063746626
20
0.562216955580169
30
0
41
1
10
106.792050475685
20
1.13843818428393
30
0
41
1
10
106.853374961724
20
1.52802951855759
30
0
41
1
10
106.976023933802
20
2.31380905643647
30
0
41
1
10
107.037348419842
20
2.70999393285121
30
0
41
1
10
107.15999739192
20
3.5039380861416
30
0
41
1
10
107.221321877959
20
3.90169180103422
30
0
41
1
10
107.343970850038
20
4.69315501573092
30
0
41
1
10
107.405295336077
20
5.08685685504591
30
0
41
1
10
107.527944308155
20
5.8642007316005
30
0
41
1
10
107.589268794195
20
6.24783346759725
30
0
41
1
10
107.711917766273
20
6.99888311748123
30
0
41
1
10
107.773242252312
20
7.36628985420015
30
0
41
1
10
107.89589122439
20
8.07888648991198
30
0
41
1
10
107.95721571043
20
8.4240663209809
30
0
41
1
10
108.079864682508
20
9.08667081149929
30
0
41
1
10
108.141189168547
20
9.40408656780582
30
0
41
1
10
108.263838140626
20
10.0063759285099
30
0
41
1
10
108.325162626665
20
10.2912427386986
30
0
41
1
10
108.447811598743
20
10.8246375334635
30
0
41
1
10
108.509136084782
20
11.0731614976949
30
0
41
1
10
108.631785056861
20
11.5312287142351
30
0
41
1
10
108.6931095429
20
11.7407709962387
30
0
41
1
10
108.815758514979
20
12.1194632881648
30
0
41
1
10
108.877083001018
20
12.2886152409675
30
0
41
1
10
108.999731973096
20
12.5863301394267
30
0
41
1
10
109.061056459135
20
12.7148974525849
30
0
41
1
10
109.183705431214
20
12.9323643144103
30
0
41
1
10
109.245029917253
20
13.0212699374976
30
0
41
1
10
109.367678889332
20
13.1612930584714
30
0
41
1
10
109.429003375371
20
13.2124175368302
30
0
41
1
10
109.551652347449
20
13.2795174401511
30
0
41
1
10
109.612976833488
20
13.2955
30
0
41
1
10
109.674301319528
20
13.2955
30
0
0
SPLINE
5
F3
100
AcDbEntity
8
1
62
256
6
ByLayer
370
13
48
1
60
0
100
AcDbSpline
70
4
71
3
72
22
73
18
40
0
40
0
40
0
40
0
40
0.125
40
0.125
40
0.25
40
0.25
40
0.375
40
0.375
40
0.5
40
0.5
40
0.625
40
0.625
40
0.75
40
0.75
40
0.875
40
0.875
40
1
40
1
40
1
40
1
41
1
10
107.6306614896
20
13.2955
30
0
41
1
10
107.736085333796
20
13.2955
30
0
41
1
10
107.841509177993
20
13.2481432430284
30
0
41
1
10
108.052356866385
20
13.0435351186794
30
0
41
1
10
108.157780710582
20
12.8861782316876
30
0
41
1
10
108.368628398975
20
12.452266943173
30
0
41
1
10
108.474052243171
20
12.1756322125781
30
0
41
1
10
108.684899931564
20
11.5028569041179
30
0
41
1
10
108.79032377576
20
11.1066942904862
30
0
41
1
10
109.001171464153
20
10.205207071085
30
0
41
1
10
109.10659530835
20
9.6999369548079
30
0
41
1
10
109.317442996742
20
8.60079117978137
30
0
41
1
10
109.422866840939
20
8.00703671857815
30
0
41
1
10
109.633714529332
20
6.75898817112181
30
0
41
1
10
109.739138373528
20
6.10484599871813
30
0
41
1
10
109.949986061921
20
4.76734283464094
30
0
41
1
10
110.055409906117
20
4.08411977008805
30
0
41
1
10
110.160833750314
20
3.4013161746517
30
0
0
SPLINE
5
F4
100
AcDbEntity
8
1
62
256
6
ByLayer
370
13
48
1
60
0
100
AcDbSpline
70
4
71
3
72
14
73
10
40
0
40
0
40
0
40
0
40
0.25
40
0.25
40
0.5
40
0.5
40
0.75
40
0.75
40
1
40
1
40
1
40
1
41
1
10
97.9
20
11.4245251650312
30
0
41
1
10
97.9892145296095
20
11.7474479039065
30
0
41
1
10
98.0784290592189
20
12.0286328396344
30
0
41
1
10
98.2568581184378
20
12.504722884102
30
0
41
1
10
98.3460726480473
20
12.6996509503326
30
0
41
1
10
98.5245017072663
20
13.0056253218535
30
0
41
1
10
98.6137162368757
20
13.1167116790516
30
0
41
1
10
98.7921452960946
20
13.2616258398282
30
0
41
1
10
98.8813598257041
20
13.2955
30
0
41
1
10
98.9705743553136
20
13.2955
30
0
0
SPLINE
5
F5
100
AcDbEntity
8
1
62
256
6
ByLayer
370
13
48
1
60
0
100
AcDbSpline
70
4
71
3
72
143
73
139
40
0
40
0
40
0
40
0
40
0.0156249999999997
40
0.0156249999999997
40
0.0312499999999994
40
0.0312499999999994
40
0.0468749999999991
40
0.0468749999999991
40
0.0624999999999988
40
0.0624999999999988
40
0.0781249999999986
40
0.0781249999999986
40
0.0937499999999983
40
0.0937499999999983
40
0.109374999999998
40
0.109374999999998
40
0.124999999999998
40
0.124999999999998
40
0.140624999999998
40
0.140624999999998
40
0.156249999999997
40
0.156249999999997
40
0.171874999999997
40
0.171874999999997
40
0.179687499999997
40
0.179687499999997
40
0.183593749999997
40
0.183593749999997
40
0.187499999999997
40
0.187499999999997
40
0.203124999999997
40
0.203124999999997
40
0.218749999999998
40
0.218749999999998
40
0.234374999999998
40
0.234374999999998
40
0.249999999999998
40
0.249999999999998
40
0.265624999999999
40
0.265624999999999
40
0.281249999999999
40
0.281249999999999
40
0.296875
40
0.296875
40
0.3125
40
0.3125
40
0.328125000000001
40
0.328125000000001
40
0.343750000000001
40
0.343750000000001
40
0.359375000000002
40
0.359375000000002
40
0.375000000000002
40
0.375000000000002
40
0.390625000000003
40
0.390625000000003
40
0.406250000000003
40
0.406250000000003
40
0.421875000000004
40
0.421875000000004
40
0.437500000000004
40
0.437500000000004
40
0.453125000000005
40
0.453125000000005
40
0.457031250000005
40
0.457031250000005
40
0.460937500000005
40
0.468750000000005
40
0.468750000000005
40
0.484375000000004
40
0.484375000000004
40
0.500000000000004
40
0.500000000000004
40
0.515625000000004
40
0.515625000000004
40
0.531250000000004
40
0.531250000000004
40
0.546875000000004
40
0.546875000000004
40
0.562500000000003
40
0.562500000000003
40
0.578125000000003
40
0.578125000000003
40
0.593750000000003
40
0.593750000000003
40
0.609375000000003
40
0.609375000000003
40
0.625000000000003
40
0.625000000000003
40
0.640625000000002
40
0.640625000000002
40
0.656250000000002
40
0.656250000000002
40
0.671875000000002
40
0.671875000000002
40
0.687500000000002
40
0.687500000000002
40
0.703125000000002
40
0.703125000000002
40
0.718750000000001
40
0.718750000000001
40
0.726562500000001
40
0.726562500000001
40
0.730468750000001
40
0.730468750000001
40
0.734375000000001
40
0.734375000000001
40
0.750000000000001
40
0.750000000000001
40
0.765625000000001
40
0.765625000000001
40
0.781250000000001
40
0.781250000000001
40
0.796875000000001
40
0.796875000000001
40
0.812500000000001
40
0.812500000000001
40
0.828125000000001
40
0.828125000000001
40
0.843750000000001
40
0.843750000000001
40
0.859375000000001
40
0.859375000000001
40
0.875000000000001
40
0.875000000000001
40
0.890625000000001
40
0.890625000000001
40
0.90625
40
0.90625
40
0.921875
40
0.921875
40
0.9375
40
0.9375
40
0.953125
40
0.953125
40
0.96875
40
0.96875
40
1
40
1
40
1
40
1
41
1
10
97.9
20
11.7608193081078
30
0
41
1
10
97.9587904597693
20
11.56816499051
30
0
41
1
10
98.0175809195385
20
11.3570820580307
30
0
41
1
10
98.1351618390771
20
10.8995925024924
30
0
41
1
10
98.1939522988464
20
10.6531872794449
30
0
41
1
10
98.311533218385
20
10.127615495272
30
0
41
1
10
98.3703236781542
20
9.84845268421947
30
0
41
1
10
98.4879045976928
20
9.26088130618353
30
0
41
1
10
98.5466950574619
20
8.95247856998881
30
0
41
1
10
98.6642759770006
20
8.31075110276316
30
0
41
1
10
98.7230664367698
20
7.97743374593318
30
0
41
1
10
98.8406473563084
20
7.29080857574857
30
0
41
1
10
98.8994378160776
20
6.93750895833625
30
0
41
1
10
99.0170187356161
20
6.21622208561553
30
0
41
1
10
99.0758091953854
20
5.84824306027605
30
0
41
1
10
99.1933901149239
20
5.10302200095225
30
0
41
1
10
99.2521805746932
20
4.72578750139368
30
0
41
1
10
99.3697614942317
20
3.9673627254538
30
0
41
1
10
99.4285519540009
20
3.5861787180329
30
0
41
1
10
99.5461328735394
20
2.82483566956717
30
0
41
1
10
99.6049233333089
20
2.44468128117944
30
0
41
1
10
99.7225042528474
20
1.68988674935949
30
0
41
1
10
99.7812947126166
20
1.31524952219982
30
0
41
1
10
99.8694804022705
20
0.76034237953894
30
0
41
1
10
99.8988756321551
20
0.576543125079979
30
0
41
1
10
99.9429684769821
20
0.302916160650966
30
0
41
1
10
99.9576660919244
20
0.212052162739468
30
0
41
1
10
99.9870613218091
20
0.031063042305675
30
0
41
1
10
100.001758936752
20
-0.0589173263339831
30
0
41
1
10
100.075247011463
20
-0.511768668404073
30
0
41
1
10
100.134037471232
20
-0.879947898089
30
0
41
1
10
100.251618390771
20
-1.6247020768578
30
0
41
1
10
100.31040885054
20
-2.00127532590952
30
0
41
1
10
100.427989770079
20
-2.7587616893546
30
0
41
1
10
100.486780229848
20
-3.13967140917907
30
0
41
1
10
100.604361149386
20
-3.90119579018602
30
0
41
1
10
100.663151609156
20
-4.28180533153449
30
0
41
1
10
100.780732528694
20
-5.03764314889116
30
0
41
1
10
100.839522988464
20
-5.41286476210229
30
0
41
1
10
100.957103908002
20
-6.15256691348611
30
0
41
1
10
101.015894367771
20
-6.51703966029697
30
0
41
1
10
101.13347528731
20
-7.22982932422491
30
0
41
1
10
101.192265747079
20
-7.57813794329846
30
0
41
1
10
101.309846666618
20
-8.25337360084211
30
0
41
1
10
101.368637126387
20
-8.58029259174361
30
0
41
1
10
101.486218045925
20
-9.20796047317842
30
0
41
1
10
101.545008505695
20
-9.50870234883857
30
0
41
1
10
101.662589425233
20
-10.0798936687606
30
0
41
1
10
101.721379885003
20
-10.3503378125077
30
0
41
1
10
101.838960804541
20
-10.8576647650523
30
0
41
1
10
101.89775126431
20
-11.0945444574028
30
0
41
1
10
102.015332183849
20
-11.5324548744272
30
0
41
1
10
102.074122643618
20
-11.7334848544861
30
0
41
1
10
102.191703563157
20
-12.0984478480508
30
0
41
1
10
102.250494022926
20
-12.2623823815666
30
0
41
1
10
102.368074942464
20
-12.5529337976573
30
0
41
1
10
102.426865402234
20
-12.6795541058035
30
0
41
1
10
102.544446321772
20
-12.8962079096963
30
0
41
1
10
102.603236781541
20
-12.9862462092155
30
0
41
1
10
102.72081770108
20
-13.1312927433096
30
0
41
1
10
102.779608160849
20
-13.1863065642861
30
0
41
1
10
102.897189080388
20
-13.2635285991039
30
0
41
1
10
102.955979540157
20
-13.2857426110786
30
0
41
1
10
103.029467614869
20
-13.2947061392018
30
0
41
1
10
103.044165229811
20
-13.2955596650461
30
0
41
1
10
103.073560459696
20
-13.2954338676348
30
0
41
1
10
103.117653304523
20
-13.2924918168112
30
0
41
1
10
103.16174614935
20
-13.2810812632623
30
0
41
1
10
103.249931839003
20
-13.2464433690261
30
0
41
1
10
103.308722298773
20
-13.2075796485187
30
0
41
1
10
103.426303218311
20
-13.0958349181381
30
0
41
1
10
103.485093678081
20
-13.0229481528594
30
0
41
1
10
103.602674597619
20
-12.8412561091473
30
0
41
1
10
103.661465057388
20
-12.7324455742503
30
0
41
1
10
103.779045976927
20
-12.4777560492315
30
0
41
1
10
103.837836436696
20
-12.3318728956436
30
0
41
1
10
103.955417356235
20
-12.0027831192134
30
0
41
1
10
104.014207816004
20
-11.8195739987512
30
0
41
1
10
104.131788735543
20
-11.4165742898967
30
0
41
1
10
104.190579195312
20
-11.1967833221081
30
0
41
1
10
104.30816011485
20
-10.7224036908515
30
0
41
1
10
104.366950574619
20
-10.4678170034124
30
0
41
1
10
104.484531494158
20
-9.92664820362745
30
0
41
1
10
104.543321953927
20
-9.64007037945487
30
0
41
1
10
104.660902873466
20
-9.03864565226846
30
0
41
1
10
104.719693333235
20
-8.7238050105978
30
0
41
1
10
104.837274252774
20
-8.07034522612537
30
0
41
1
10
104.896064712543
20
-7.73173372662578
30
0
41
1
10
105.013645632082
20
-7.03577595012021
30
0
41
1
10
105.072436091851
20
-6.67843794918841
30
0
41
1
10
105.190017011389
20
-5.95038222520498
30
0
41
1
10
105.248807471159
20
-5.57967262637786
30
0
41
1
10
105.366388390697
20
-4.83029104927752
30
0
41
1
10
105.425178850466
20
-4.45162634442511
30
0
41
1
10
105.542759770005
20
-3.6915806206255
30
0
41
1
10
105.601550229774
20
-3.31020550364576
30
0
41
1
10
105.719131149313
20
-2.54961427708602
30
0
41
1
10
105.777921609082
20
-2.17040240356448
30
0
41
1
10
105.895502528621
20
-1.41848924079255
30
0
41
1
10
105.95429298839
20
-1.04579045423191
30
0
41
1
10
106.042478678044
20
-0.494420228487741
30
0
41
1
10
106.071873907928
20
-0.311904708418098
30
0
41
1
10
106.115966752755
20
-0.0403451514790163
30
0
41
1
10
106.130664367698
20
0.049629914707225
30
0
41
1
10
106.160059597582
20
0.230720091536313
30
0
41
1
10
106.174757212525
20
0.321632984108277
30
0
41
1
10
106.248245287236
20
0.777913774045231
30
0
41
1
10
106.307035747005
20
1.148456764755
30
0
41
1
10
106.424616666544
20
1.89701720332823
30
0
41
1
10
106.483407126313
20
2.27503255465075
30
0
41
1
10
106.600988045852
20
3.03433316765313
30
0
41
1
10
106.659778505621
20
3.41561461362704
30
0
41
1
10
106.77735942516
20
4.17668986282277
30
0
41
1
10
106.836149884929
20
4.55647814823089
30
0
41
1
10
106.953730804467
20
5.30939678910423
30
0
41
1
10
107.012521264237
20
5.68252016272177
30
0
41
1
10
107.130102183775
20
6.41671461547747
30
0
41
1
10
107.188892643545
20
6.77777771731039
30
0
41
1
10
107.306473563083
20
7.48245962193417
30
0
41
1
10
107.365264022852
20
7.8260701148244
30
0
41
1
10
107.482844942391
20
8.49070421398753
30
0
41
1
10
107.54163540216
20
8.81171995210556
30
0
41
1
10
107.659216321699
20
9.42651712489607
30
0
41
1
10
107.718006781468
20
9.72029190257732
30
0
41
1
10
107.835587701006
20
10.2766757263872
30
0
41
1
10
107.894378160776
20
10.5392799662041
30
0
41
1
10
108.011959080314
20
11.030281542067
30
0
41
1
10
108.070749540083
20
11.2586763285143
30
0
41
1
10
108.188330459622
20
11.6792197452271
30
0
41
1
10
108.247120919391
20
11.8713681980811
30
0
41
1
10
108.36470183893
20
12.2184226837851
30
0
41
1
10
108.423492298699
20
12.3733307375659
30
0
41
1
10
108.541073218238
20
12.6459225601956
30
0
41
1
10
108.599863678007
20
12.7636101399191
30
0
41
1
10
108.717444597545
20
12.9627042912799
30
0
41
1
10
108.776235057315
20
13.0441159106533
30
0
41
1
10
108.952606436623
20
13.2365291894055
30
0
41
1
10
109.070187356161
20
13.2955
30
0
41
1
10
109.1877682757
20
13.2955
30
0
0
SPLINE
5
F6
100
AcDbEntity
8
1
62
256
6
ByLayer
370
13
48
1
60
0
100
AcDbSpline
70
4
71
3
72
38
73
34
40
0
40
0
40
0
40
0
40
0.0625
40
0.0625
40
0.125
40
0.125
40
0.1875
40
0.1875
40
0.25
40
0.25
40
0.3125
40
0.3125
40
0.375
40
0.375
40
0.4375
40
0.4375
40
0.5
40
0.5
40
0.5625
40
0.5625
40
0.625
40
0.625
40
0.6875
40
0.6875
40
0.75
40
0.75
40
0.8125
40
0.8125
40
0.875
40
0.875
40
0.9375
40
0.9375
40
1
40
1
40
1
40
1
41
1
10
107.144128445772
20
13.2955
30
0
41
1
10
107.20697647295
20
13.2955
30
0
41
1
10
107.269824500128
20
13.2787124220114
30
0
41
1
10
107.395520554484
20
13.2081564476126
30
0
41
1
10
107.458368581662
20
13.1543799817296
30
0
41
1
10
107.584064636018
20
13.0070310252644
30
0
41
1
10
107.646912663196
20
12.9134506748632
30
0
41
1
10
107.772608717552
20
12.6845262963633
30
0
41
1
10
107.835456744729
20
12.5491755158366
30
0
41
1
10
107.961152799085
20
12.235812990111
30
0
41
1
10
108.024000826263
20
12.0577965482514
30
0
41
1
10
108.149696880619
20
11.6594511944097
30
0
41
1
10
108.212544907797
20
11.439120473216
30
0
41
1
10
108.338240962153
20
10.9578414678778
30
0
41
1
10
108.401088989331
20
10.6968947961134
30
0
41
1
10
108.526785043687
20
10.1374298736674
30
0
41
1
10
108.589633070865
20
9.83891674830431
30
0
41
1
10
108.715329125221
20
9.20861478963863
30
0
41
1
10
108.778177152399
20
8.87683418158622
30
0
41
1
10
108.903873206755
20
8.18534065740229
30
0
41
1
10
108.966721233933
20
7.82563819880323
30
0
41
1
10
109.092417288289
20
7.0844078911864
30
0
41
1
10
109.155265315466
20
6.70289156391945
30
0
41
1
10
109.280961369822
20
5.92456951297152
30
0
41
1
10
109.343809397
20
5.52777512454625
30
0
41
1
10
109.469505451356
20
4.72551431296972
30
0
41
1
10
109.532353478534
20
4.3200579263507
30
0
41
1
10
109.65804953289
20
3.5068471507762
30
0
41
1
10
109.720897560068
20
3.09910069382548
30
0
41
1
10
109.846593614424
20
2.28716814855196
30
0
41
1
10
109.909441641602
20
1.88298746944807
30
0
41
1
10
110.035137695958
20
1.08332781082359
30
0
41
1
10
110.097985723136
20
0.687851678197973
30
0
41
1
10
110.160833750314
20
0.29887670609682
30
0
0
SPLINE
5
F7
100
AcDbEntity
8
1
62
256
6
ByLayer
370
13
48
1
60
0
100
AcDbSpline
70
4
71
3
72
10
73
6
40
0
40
0
40
0
40
0
40
0.5
40
0.5
40
1
40
1
40
1
40
1
41
1
10
97.9
20
12.7648642098641
30
0
41
1
10
97.9973402185809
20
12.9484590902556
30
0
41
1
10
98.0946804371619
20
13.0816672413193
30
0
41
1
10
98.2893608743236
20
13.2551520385062
30
0
41
1
10
98.3867010929047
20
13.2955
30
0
41
1
10
98.4840413114856
20
13.2955
30
0
0
SPLINE
5
F8
100
AcDbEntity
8
1
62
256
6
ByLayer
370
13
48
1
60
0
100
AcDbSpline
70
4
71
3
72
122
73
118
40
0
40
0
40
0
40
0
40
0.0156249999999996
40
0.0156249999999996
40
0.0312499999999993
40
0.0312499999999993
40
0.0468749999999989
40
0.0468749999999989
40
0.0624999999999986
40
0.0624999999999986
40
0.0781249999999982
40
0.0781249999999982
40
0.0937499999999978
40
0.0937499999999978
40
0.124999999999997
40
0.124999999999997
40
0.140624999999997
40
0.140624999999997
40
0.148437499999997
40
0.148437499999997
40
0.156249999999997
40
0.156249999999997
40
0.187499999999997
40
0.187499999999997
40
0.218749999999997
40
0.218749999999997
40
0.234374999999996
40
0.234374999999996
40
0.249999999999996
40
0.249999999999996
40
0.265624999999996
40
0.265624999999996
40
0.281249999999996
40
0.281249999999996
40
0.296874999999996
40
0.296874999999996
40
0.312499999999996
40
0.312499999999996
40
0.328124999999996
40
0.328124999999996
40
0.343749999999995
40
0.343749999999995
40
0.359374999999995
40
0.359374999999995
40
0.374999999999995
40
0.374999999999995
40
0.406249999999995
40
0.406249999999995
40
0.421874999999995
40
0.421874999999995
40
0.429687499999995
40
0.429687499999995
40
0.433593749999994
40
0.433593749999994
40
0.437499999999994
40
0.437499999999994
40
0.468749999999994
40
0.468749999999994
40
0.499999999999994
40
0.499999999999994
40
0.515624999999994
40
0.515624999999994
40
0.531249999999994
40
0.531249999999994
40
0.546874999999994
40
0.546874999999994
40
0.562499999999994
40
0.562499999999994
40
0.578124999999994
40
0.578124999999994
40
0.593749999999994
40
0.593749999999994
40
0.609374999999994
40
0.609374999999994
40
0.624999999999994
40
0.624999999999994
40
0.640624999999994
40
0.640624999999994
40
0.656249999999994
40
0.656249999999994
40
0.687499999999994
40
0.687499999999994
40
0.703124999999994
40
0.703124999999994
40
0.710937499999994
40
0.710937499999994
40
0.714843749999994
40
0.714843749999994
40
0.718749999999994
40
0.718749999999994
40
0.749999999999995
40
0.749999999999995
40
0.781249999999995
40
0.781249999999995
40
0.796874999999996
40
0.796874999999996
40
0.812499999999996
40
0.812499999999996
40
0.828124999999996
40
0.828124999999996
40
0.843749999999997
40
0.843749999999997
40
0.859374999999997
40
0.859374999999997
40
0.874999999999997
40
0.874999999999997
40
0.890624999999998
40
0.890624999999998
40
0.906249999999998
40
0.906249999999998
40
0.921874999999998
40
0.921874999999998
40
0.937499999999999
40
0.937499999999999
40
0.968749999999999
40
0.968749999999999
40
1
40
1
40
1
40
1
41
1
10
97.9
20
9.76487379199926
30
0
41
1
10
97.9562564334994
20
9.49059862631918
30
0
41
1
10
98.0125128669987
20
9.2025158317534
30
0
41
1
10
98.1250257339973
20
8.60234349212678
30
0
41
1
10
98.1812821674967
20
8.290259567259
30
0
41
1
10
98.2937950344954
20
7.64626327982512
30
0
41
1
10
98.3500514679946
20
7.31435734838024
30
0
41
1
10
98.4625643349933
20
6.63527371131153
30
0
41
1
10
98.5188207684927
20
6.288102673624
30
0
41
1
10
98.6313336354914
20
5.58322507771527
30
0
41
1
10
98.6875900689906
20
5.22552486153643
30
0
41
1
10
98.8001029359893
20
4.50430745249486
30
0
41
1
10
98.8563593694887
20
4.14079580065669
30
0
41
1
10
99.0251286699867
20
3.04831664486761
30
0
41
1
10
99.1376415369854
20
2.31764871634508
30
0
41
1
10
99.3064108374834
20
1.24176031204644
30
0
41
1
10
99.3626672709826
20
0.886426778626287
30
0
41
1
10
99.4470519212316
20
0.360750877058649
30
0
41
1
10
99.4751801379814
20
0.186741980440587
30
0
41
1
10
99.5314365714806
20
-0.158499152018294
30
0
41
1
10
99.5595647882303
20
-0.332219549962673
30
0
41
1
10
99.7002058719787
20
-1.2076806372994
30
0
41
1
10
99.8127187389773
20
-1.92800698179883
30
0
41
1
10
100.037744472975
20
-3.38115130523474
30
0
41
1
10
100.150257339973
20
-4.11387137805772
30
0
41
1
10
100.319026640471
20
-5.19616916961769
30
0
41
1
10
100.375283073971
20
-5.55408995463657
30
0
41
1
10
100.487795940969
20
-6.25953845721108
30
0
41
1
10
100.544052374469
20
-6.6070598488148
30
0
41
1
10
100.656565241467
20
-7.28697190288375
30
0
41
1
10
100.712821674967
20
-7.61935589907984
30
0
41
1
10
100.825334541965
20
-8.26442849006509
30
0
41
1
10
100.881590975465
20
-8.5771106395197
30
0
41
1
10
100.994103842463
20
-9.17858677651731
30
0
41
1
10
101.050360275963
20
-9.46737511458898
30
0
41
1
10
101.162873142961
20
-10.0174264224387
30
0
41
1
10
101.219129576461
20
-10.2786850423298
30
0
41
1
10
101.331642443459
20
-10.7707471128296
30
0
41
1
10
101.387898876959
20
-11.0015478700396
30
0
41
1
10
101.500411743957
20
-11.4305786934286
30
0
41
1
10
101.556668177457
20
-11.6288078834157
30
0
41
1
10
101.669181044455
20
-11.9914483011236
30
0
41
1
10
101.725437477955
20
-12.1558604214872
30
0
41
1
10
101.837950344953
20
-12.4504870493359
30
0
41
1
10
101.894206778452
20
-12.5807039849369
30
0
41
1
10
102.062976078951
20
-12.9207140096477
30
0
41
1
10
102.175488945949
20
-13.0795750540716
30
0
41
1
10
102.344258246447
20
-13.2249234390908
30
0
41
1
10
102.400514679947
20
-13.2579612570914
30
0
41
1
10
102.484899330196
20
-13.2860689310664
30
0
41
1
10
102.513027546945
20
-13.2918665249076
30
0
41
1
10
102.55521987207
20
-13.2954385494096
30
0
41
1
10
102.569283980444
20
-13.2957778286063
30
0
41
1
10
102.597412197194
20
-13.2947767868563
30
0
41
1
10
102.611476305569
20
-13.2934305002793
30
0
41
1
10
102.738053280943
20
-13.2735227376802
30
0
41
1
10
102.850566147941
20
-13.2001655136946
30
0
41
1
10
103.075591881938
20
-12.9249000006082
30
0
41
1
10
103.188104748937
20
-12.7228499394471
30
0
41
1
10
103.356874049435
20
-12.3168748034314
30
0
41
1
10
103.413130482935
20
-12.1644832114054
30
0
41
1
10
103.525643349933
20
-11.8256542806027
30
0
41
1
10
103.581899783433
20
-11.6392154747173
30
0
41
1
10
103.694412650431
20
-11.2332281937511
30
0
41
1
10
103.750669083931
20
-11.0136799572289
30
0
41
1
10
103.863181950929
20
-10.5432838057457
30
0
41
1
10
103.919438384429
20
-10.292437952873
30
0
41
1
10
104.031951251427
20
-9.76209623577265
30
0
41
1
10
104.088207684927
20
-9.48260417046163
30
0
41
1
10
104.200720551925
20
-8.89837091166623
30
0
41
1
10
104.256976985424
20
-8.59363496210503
30
0
41
1
10
104.369489852423
20
-7.96292906334526
30
0
41
1
10
104.425746285923
20
-7.6369653433818
30
0
41
1
10
104.538259152921
20
-6.96825924948908
30
0
41
1
10
104.59451558642
20
-6.62552353060852
30
0
41
1
10
104.707028453419
20
-5.92797349293252
30
0
41
1
10
104.763284886918
20
-5.57316567947265
30
0
41
1
10
104.875797753917
20
-4.85621658419063
30
0
41
1
10
104.932054187416
20
-4.49408114732597
30
0
41
1
10
105.100823487914
20
-3.40357921379282
30
0
41
1
10
105.213336354913
20
-2.67134590035224
30
0
41
1
10
105.382105655411
20
-1.58964284782519
30
0
41
1
10
105.43836208891
20
-1.23179767996817
30
0
41
1
10
105.52274673916
20
-0.701627631817644
30
0
41
1
10
105.550874955909
20
-0.525999681147255
30
0
41
1
10
105.593067281034
20
-0.264476051851716
30
0
41
1
10
105.607131389408
20
-0.177620948218703
30
0
41
1
10
105.635259606158
20
-0.0045921487090652
30
0
41
1
10
105.649323714533
20
0.0815570436808741
30
0
41
1
10
105.775900689907
20
0.861990822885076
30
0
41
1
10
105.888413556905
20
1.57748188625166
30
0
41
1
10
106.113439290903
20
3.02598430564726
30
0
41
1
10
106.225952157901
20
3.75891144457285
30
0
41
1
10
106.394721458399
20
4.84602910372203
30
0
41
1
10
106.450977891898
20
5.20630323313571
30
0
41
1
10
106.563490758897
20
5.91799860193902
30
0
41
1
10
106.619747192396
20
6.26941373308674
30
0
41
1
10
106.732260059395
20
6.95864018315982
30
0
41
1
10
106.788516492895
20
7.29644488763711
30
0
41
1
10
106.901029359893
20
7.95380768318606
30
0
41
1
10
106.957285793393
20
8.27335919325489
30
0
41
1
10
107.069798660391
20
8.88988103899899
30
0
41
1
10
107.12605509389
20
9.18684540682361
30
0
41
1
10
107.238567960889
20
9.75435714631024
30
0
41
1
10
107.294824394388
20
10.0248996991977
30
0
41
1
10
107.407337261387
20
10.5363945374849
30
0
41
1
10
107.463593694886
20
10.7773435646611
30
0
41
1
10
107.576106561885
20
11.2272632407245
30
0
41
1
10
107.632362995384
20
11.4362324195535
30
0
41
1
10
107.744875862383
20
11.8206610675732
30
0
41
1
10
107.801132295882
20
11.9961208733458
30
0
41
1
10
107.913645162881
20
12.3128730975316
30
0
41
1
10
107.96990159638
20
12.4541674811532
30
0
41
1
10
108.138670896878
20
12.8270704249988
30
0
41
1
10
108.251183763877
20
13.0073857708048
30
0
41
1
10
108.476209497875
20
13.2415280874816
30
0
41
1
10
108.588722364873
20
13.2955
30
0
41
1
10
108.701235231872
20
13.2955
30
0
0
SPLINE
5
F9
100
AcDbEntity
8
1
62
256
6
ByLayer
370
13
48
1
60
0
100
AcDbSpline
70
4
71
3
72
38
73
34
40
0
40
0
40
0
40
0
40
0.0625
40
0.0625
40
0.125
40
0.125
40
0.1875
40
0.1875
40
0.25
40
0.25
40
0.3125
40
0.3125
40
0.375
40
0.375
40
0.4375
40
0.4375
40
0.5
40
0.5
40
0.5625
40
0.5625
40
0.625
40
0.625
40
0.6875
40
0.6875
40
0.75
40
0.75
40
0.8125
40
0.8125
40
0.875
40
0.875
40
0.9375
40
0.9375
40
1
40
1
40
1
40
1
41
1
10
106.657595401944
20
13.2955
30
0
41
1
10
106.730579534202
20
13.2955
30
0
41
1
10
106.803563666459
20
13.2728505492572
30
0
41
1
10
106.949531930975
20
13.1769851174062
30
0
41
1
10
107.022516063233
20
13.1037520767277
30
0
41
1
10
107.168484327748
20
12.9025919653738
30
0
41
1
10
107.241468460006
20
12.7746488639739
30
0
41
1
10
107.387436724521
20
12.4616185531812
30
0
41
1
10
107.460420856779
20
12.2765189723138
30
0
41
1
10
107.606389121294
20
11.8488395937461
30
0
41
1
10
107.679373253552
20
11.6062536651738
30
0
41
1
10
107.825341518067
20
11.0656666797971
30
0
41
1
10
107.898325650325
20
10.7676675887175
30
0
41
1
10
108.04429391484
20
10.1207892232655
30
0
41
1
10
108.117278047098
20
9.77192052739028
30
0
41
1
10
108.263246311613
20
9.03012006484406
30
0
41
1
10
108.336230443871
20
8.63720636517439
30
0
41
1
10
108.482198708387
20
7.81597950916762
30
0
41
1
10
108.555182840644
20
7.38768931878863
30
0
41
1
10
108.70115110516
20
6.5055928298695
30
0
41
1
10
108.774135237417
20
6.05181096333237
30
0
41
1
10
108.920103501933
20
5.12910943974012
30
0
41
1
10
108.993087634191
20
4.66021225143277
30
0
41
1
10
109.139055898706
20
3.71743689927726
30
0
41
1
10
109.212040030964
20
3.2435765812084
30
0
41
1
10
109.358008295479
20
2.30019619868051
30
0
41
1
10
109.430992427737
20
1.83068791120152
30
0
41
1
10
109.576960692252
20
0.904048477207397
30
0
41
1
10
109.64994482451
20
0.446944243201642
30
0
41
1
10
109.795913089025
20
-0.448479256069476
30
0
41
1
10
109.868897221283
20
-0.905623044333254
30
0
41
1
10
110.014865485798
20
-1.83229048194434
30
0
41
1
10
110.087849618056
20
-2.30180860348403
30
0
41
1
10
110.160833750314
20
-2.77350364231972
30
0
0
SPLINE
5
FA
100
AcDbEntity
8
1
62
256
6
ByLayer
370
13
48
1
60
0
100
AcDbSpline
70
4
71
3
72
8
73
4
40
0
40
0
40
0
40
0
40
1
40
1
40
1
40
1
41
1
10
97.9
20
13.2817982970983
30
0
41
1
10
97.9325027558859
20
13.2910139238179
30
0
41
1
10
97.9650055117718
20
13.2955
30
0
41
1
10
97.9975082676577
20
13.2955
30
0
0
SPLINE
5
FB
100
AcDbEntity
8
1
62
256
6
ByLayer
370
13
48
1
60
0
100
AcDbSpline
70
4
71
3
72
86
73
82
40
0
40
0
40
0
40
0
40
0.03125
40
0.03125
40
0.0625
40
0.0625
40
0.0937500000000001
40
0.0937500000000001
40
0.1015625
40
0.1015625
40
0.10546875
40
0.10546875
40
0.109375
40
0.109375
40
0.125
40
0.125
40
0.15625
40
0.15625
40
0.1875
40
0.1875
40
0.21875
40
0.21875
40
0.25
40
0.25
40
0.28125
40
0.28125
40
0.3125
40
0.3125
40
0.34375
40
0.34375
40
0.375
40
0.375
40
0.390625
40
0.390625
40
0.3984375
40
0.3984375
40
0.40234375
40
0.40234375
40
0.40625
40
0.40625
40
0.4375
40
0.4375
40
0.46875
40
0.46875
40
0.5
40
0.5
40
0.53125
40
0.53125
40
0.5625
40
0.5625
40
0.59375
40
0.59375
40
0.625
40
0.625
40
0.65625
40
0.65625
40
0.6875
40
0.6875
40
0.6953125
40
0.6953125
40
0.703125
40
0.703125
40
0.71875
40
0.71875
40
0.75
40
0.75
40
0.78125
40
0.78125
40
0.8125
40
0.8125
40
0.84375
40
0.84375
40
0.875
40
0.875
40
0.90625
40
0.90625
40
0.9375
40
0.9375
40
0.96875
40
0.96875
40
1
40
1
40
1
40
1
41
1
10
97.9
20
7.09385103080123
30
0
41
1
10
98.0074448144587
20
6.44882999867488
30
0
41
1
10
98.1148896289176
20
5.77497185012868
30
0
41
1
10
98.3297792578351
20
4.40250526997824
30
0
41
1
10
98.4372240722939
20
3.70404152726641
30
0
41
1
10
98.6521137012115
20
2.31349807280728
30
0
41
1
10
98.7595585156703
20
1.62150698775957
30
0
41
1
10
98.8938645337438
20
0.776386456556253
30
0
41
1
10
98.9207257373585
20
0.608338876098884
30
0
41
1
10
98.9610175427805
20
0.357975396965486
30
0
41
1
10
98.9744481445879
20
0.274805323099145
30
0
41
1
10
99.0013093482027
20
0.109071760907341
30
0
41
1
10
99.01473995001
20
0.02669767791852
30
0
41
1
10
99.0818929590466
20
-0.385945312228188
30
0
41
1
10
99.1356153662762
20
-0.721090223520036
30
0
41
1
10
99.2967825879643
20
-1.73782421586608
30
0
41
1
10
99.4042274024231
20
-2.43092028545641
30
0
41
1
10
99.6191170313407
20
-3.82205107378576
30
0
41
1
10
99.7265618457994
20
-4.51999358833984
30
0
41
1
10
99.941451474717
20
-5.88956063543719
30
0
41
1
10
100.048896289176
20
-6.56103806270465
30
0
41
1
10
100.263785918093
20
-7.84447534789396
30
0
41
1
10
100.371230732552
20
-8.45626765612519
30
0
41
1
10
100.58612036147
20
-9.59006988579216
30
0
41
1
10
100.693565175928
20
-10.1119423569675
30
0
41
1
10
100.908454804846
20
-11.0433504804507
30
0
41
1
10
101.015899619305
20
-11.4528214055621
30
0
41
1
10
101.230789248222
20
-12.1477593408817
30
0
41
1
10
101.338234062681
20
-12.4332475206117
30
0
41
1
10
101.553123691599
20
-12.8801108472369
30
0
41
1
10
101.660568506058
20
-13.0415733460921
30
0
41
1
10
101.821735727746
20
-13.1979714289717
30
0
41
1
10
101.875458134975
20
-13.2358723709487
30
0
41
1
10
101.956041745819
20
-13.2727697883886
30
0
41
1
10
101.982902949434
20
-13.281746130122
30
0
41
1
10
102.023194754856
20
-13.2904229661154
30
0
41
1
10
102.036625356664
20
-13.2925174347248
30
0
41
1
10
102.063486560278
20
-13.2951449951188
30
0
41
1
10
102.076917162085
20
-13.2956787707765
30
0
41
1
10
102.197792578352
20
-13.2936012080852
30
0
41
1
10
102.30523739281
20
-13.2423837746781
30
0
41
1
10
102.520127021728
20
-13.0252779895274
30
0
41
1
10
102.627571836187
20
-12.8592740441276
30
0
41
1
10
102.842461465104
20
-12.4031334911718
30
0
41
1
10
102.949906279563
20
-12.1129113873981
30
0
41
1
10
103.164795908481
20
-11.4087252199005
30
0
41
1
10
103.272240722939
20
-10.9947430375012
30
0
41
1
10
103.487130351857
20
-10.0549700802237
30
0
41
1
10
103.594575166316
20
-9.52924722947841
30
0
41
1
10
103.809464795233
20
-8.3887657343254
30
0
41
1
10
103.916909609692
20
-7.7741465750473
30
0
41
1
10
104.13179923861
20
-6.48628327768404
30
0
41
1
10
104.239244053069
20
-5.81320679863472
30
0
41
1
10
104.454133681986
20
-4.4416836731896
30
0
41
1
10
104.561578496445
20
-3.74338253336569
30
0
41
1
10
104.776468125362
20
-2.35262308225214
30
0
41
1
10
104.883912939821
20
-1.6602545924035
30
0
41
1
10
105.018218957895
20
-0.814405126526765
30
0
41
1
10
105.04508016151
20
-0.646198972855728
30
0
41
1
10
105.098802568739
20
-0.312040491087117
30
0
41
1
10
105.125663772354
20
-0.146268306193377
30
0
41
1
10
105.206247383198
20
0.348335399404647
30
0
41
1
10
105.259969790427
20
0.683144661834632
30
0
41
1
10
105.421137012115
20
1.69902716387585
30
0
41
1
10
105.528581826574
20
2.39176399748439
30
0
41
1
10
105.743471455492
20
3.78271925169943
30
0
41
1
10
105.85091626995
20
4.48084665830987
30
0
41
1
10
106.065805898868
20
5.85140328180017
30
0
41
1
10
106.173250713327
20
6.52368618658863
30
0
41
1
10
106.388140342244
20
7.8093478783378
30
0
41
1
10
106.495585156703
20
8.42255905162619
30
0
41
1
10
106.710474785621
20
9.55971041895734
30
0
41
1
10
106.81791960008
20
10.0835121373403
30
0
41
1
10
107.032809228997
20
11.0191088346211
30
0
41
1
10
107.140254043456
20
11.4308374853509
30
0
41
1
10
107.355143672374
20
12.1304016471179
30
0
41
1
10
107.462588486832
20
12.4182568058979
30
0
41
1
10
107.67747811575
20
12.8697570102104
30
0
41
1
10
107.784922930209
20
13.0334884867779
30
0
41
1
10
107.999812559126
20
13.2463020889706
30
0
41
1
10
108.107257373585
20
13.2955
30
0
41
1
10
108.214702188044
20
13.2955
30
0
0
SPLINE
5
FC
100
AcDbEntity
8
1
62
256
6
ByLayer
370
13
48
1
60
0
100
AcDbSpline
70
4
71
3
72
43
73
39
40
0
40
0
40
0
40
0
40
0.0624999999999998
40
0.0624999999999998
40
0.125
40
0.125
40
0.187499999999999
40
0.187499999999999
40
0.249999999999999
40
0.249999999999999
40
0.312499999999999
40
0.312499999999999
40
0.374999999999999
40
0.374999999999999
40
0.437499999999999
40
0.437499999999999
40
0.499999999999998
40
0.499999999999998
40
0.562499999999998
40
0.562499999999998
40
0.624999999999998
40
0.624999999999998
40
0.687499999999998
40
0.687499999999998
40
0.749999999999998
40
0.749999999999998
40
0.765624999999998
40
0.765624999999998
40
0.773437499999998
40
0.773437499999998
40
0.781249999999998
40
0.812499999999998
40
0.812499999999998
40
0.874999999999999
40
0.874999999999999
40
0.937499999999999
40
0.937499999999999
40
1
40
1
40
1
40
1
41
1
10
106.171062358116
20
13.2955
30
0
41
1
10
106.254182595454
20
13.2955
30
0
41
1
10
106.337302832791
20
13.2661066191565
30
0
41
1
10
106.503543307466
20
13.1408534766633
30
0
41
1
10
106.586663544803
20
13.0449610890034
30
0
41
1
10
106.752904019478
20
12.7810596938642
30
0
41
1
10
106.836024256816
20
12.6130214695703
30
0
41
1
10
107.002264731491
20
12.2022194982092
30
0
41
1
10
107.085384968828
20
11.9594365432663
30
0
41
1
10
107.251625443503
20
11.4003298573755
30
0
41
1
10
107.33474568084
20
11.0840027335244
30
0
41
1
10
107.500986155515
20
10.3831458232298
30
0
41
1
10
107.584106392853
20
9.99863132648849
30
0
41
1
10
107.750346867528
20
9.17072001351008
30
0
41
1
10
107.833467104865
20
8.72735563524276
30
0
41
1
10
107.99970757954
20
7.79432066523651
30
0
41
1
10
108.082827816878
20
7.3046938049944
30
0
41
1
10
108.249068291552
20
6.29379684573507
30
0
41
1
10
108.33218852889
20
5.77257335541461
30
0
41
1
10
108.498429003565
20
4.71384391559315
30
0
41
1
10
108.581549240902
20
4.17637913216547
30
0
41
1
10
108.747789715577
20
3.09987806897613
30
0
41
1
10
108.830909952915
20
2.56087162590771
30
0
41
1
10
108.997150427589
20
1.49426350317532
30
0
41
1
10
109.080270664927
20
0.966677981595154
30
0
41
1
10
109.184170961599
20
0.320915219753857
30
0
41
1
10
109.204951020933
20
0.192442193074157
30
0
41
1
10
109.236121109935
20
0.0008555656343674
30
0
41
1
10
109.246511139602
20
-0.062815986826422
30
0
41
1
10
109.267291198936
20
-0.190780859928651
30
0
41
1
10
109.319241347272
20
-0.511613214514455
30
0
41
1
10
109.371191495608
20
-0.83685012311625
30
0
41
1
10
109.495871851614
20
-1.62407073076687
30
0
41
1
10
109.578992088952
20
-2.1578302352367
30
0
41
1
10
109.745232563627
20
-3.23167140058504
30
0
41
1
10
109.828352800964
20
-3.77173116419667
30
0
41
1
10
109.994593275639
20
-4.84439382064383
30
0
41
1
10
110.077713512976
20
-5.37696167428155
30
0
41
1
10
110.160833750314
20
-5.89824447788826
30
0
0
SPLINE
5
FD
100
AcDbEntity
8
1
62
256
6
ByLayer
370
13
48
1
60
0
100
AcDbSpline
70
4
71
3
72
85
73
81
40
0
40
0
40
0
40
0
40
0.0312500000000006
40
0.0312500000000006
40
0.0625000000000011
40
0.0625000000000011
40
0.0664062500000013
40
0.0664062500000013
40
0.0703125000000015
40
0.0781250000000016
40
0.0781250000000016
40
0.0937500000000019
40
0.0937500000000019
40
0.125000000000002
40
0.125000000000002
40
0.156250000000003
40
0.156250000000003
40
0.187500000000003
40
0.187500000000003
40
0.218750000000003
40
0.218750000000003
40
0.250000000000004
40
0.250000000000004
40
0.281250000000004
40
0.281250000000004
40
0.312500000000005
40
0.312500000000005
40
0.343750000000005
40
0.343750000000005
40
0.375000000000005
40
0.375000000000005
40
0.378906250000005
40
0.378906250000005
40
0.382812500000005
40
0.390625000000005
40
0.390625000000005
40
0.406250000000005
40
0.406250000000005
40
0.437500000000003
40
0.437500000000003
40
0.468750000000002
40
0.468750000000002
40
0.500000000000001
40
0.500000000000001
40
0.531249999999999
40
0.531249999999999
40
0.562499999999998
40
0.562499999999998
40
0.593749999999997
40
0.593749999999997
40
0.624999999999995
40
0.624999999999995
40
0.656249999999994
40
0.656249999999994
40
0.687499999999993
40
0.687499999999993
40
0.691406249999993
40
0.691406249999993
40
0.695312499999993
40
0.703124999999993
40
0.703124999999993
40
0.718749999999993
40
0.718749999999993
40
0.749999999999994
40
0.749999999999994
40
0.781249999999995
40
0.781249999999995
40
0.812499999999995
40
0.812499999999995
40
0.843749999999996
40
0.843749999999996
40
0.874999999999997
40
0.874999999999997
40
0.906249999999998
40
0.906249999999998
40
0.937499999999998
40
0.937499999999998
40
0.968749999999999
40
0.968749999999999
40
1
40
1
40
1
40
1
41
1
10
97.9
20
4.03251276984182
30
0
41
1
10
98.0023767619189
20
3.37058861478832
30
0
41
1
10
98.1047535238379
20
2.70495772547415
30
0
41
1
10
98.3095070476757
20
1.3908983523047
30
0
41
1
10
98.4118838095946
20
0.742516229982442
30
0
41
1
10
98.5270576667533
20
0.0335768517805946
30
0
41
1
10
98.5398547619932
20
-0.0447842481842997
30
0
41
1
10
98.5654489524729
20
-0.202379609744526
30
0
41
1
10
98.6038402381927
20
-0.439612025334469
30
0
41
1
10
98.6422315239121
20
-0.679220434839834
30
0
41
1
10
98.7190140953512
20
-1.16119195692772
30
0
41
1
10
98.7702024763108
20
-1.48619089543499
30
0
41
1
10
98.9237676191892
20
-2.46850350358724
30
0
41
1
10
99.0261443811081
20
-3.133283717957
30
0
41
1
10
99.2308979049459
20
-4.4586088860909
30
0
41
1
10
99.3332746668649
20
-5.1190658558904
30
0
41
1
10
99.5380281907027
20
-6.40781883216644
30
0
41
1
10
99.6404049526217
20
-7.03599127704516
30
0
41
1
10
99.8451584764594
20
-8.2316882973098
30
0
41
1
10
99.9475352383784
20
-8.79908285928505
30
0
41
1
10
100.152288762216
20
-9.84810671041964
30
0
41
1
10
100.254665524135
20
-10.3296361882964
30
0
41
1
10
100.459419047973
20
-11.1887707852155
30
0
41
1
10
100.561795809892
20
-11.5663339618659
30
0
41
1
10
100.76654933373
20
-12.2085520310345
30
0
41
1
10
100.868926095649
20
-12.4732289500504
30
0
41
1
10
101.073679619486
20
-12.8901649631484
30
0
41
1
10
101.176056381405
20
-13.0424942162608
30
0
41
1
10
101.380809905243
20
-13.243238821031
30
0
41
1
10
101.483186667162
20
-13.2917453053236
30
0
41
1
10
101.598360524321
20
-13.2957322700491
30
0
41
1
10
101.611157619561
20
-13.2954796928625
30
0
41
1
10
101.63675181004
20
-13.2935674979206
30
0
41
1
10
101.67514309576
20
-13.2885825377911
30
0
41
1
10
101.71353438148
20
-13.2771119699704
30
0
41
1
10
101.790316952919
20
-13.2451799931578
30
0
41
1
10
101.841505333878
20
-13.2118950887352
30
0
41
1
10
101.995070476757
20
-13.0735887066704
30
0
41
1
10
102.097447238676
20
-12.929900910911
30
0
41
1
10
102.302200762513
20
-12.5306641758368
30
0
41
1
10
102.404577524432
20
-12.2750423677077
30
0
41
1
10
102.60933104827
20
-11.6506459817021
30
0
41
1
10
102.711707810189
20
-11.2818447432454
30
0
41
1
10
102.916461334027
20
-10.4391795451082
30
0
41
1
10
103.018838095946
20
-9.96535235088805
30
0
41
1
10
103.223591619784
20
-8.9300050481306
30
0
41
1
10
103.325968381702
20
-8.36858093862429
30
0
41
1
10
103.53072190554
20
-7.18265787821383
30
0
41
1
10
103.633098667459
20
-6.55828787364678
30
0
41
1
10
103.837852191297
20
-5.27484602391621
30
0
41
1
10
103.940228953216
20
-4.61589950583462
30
0
41
1
10
104.144982477054
20
-3.29147531451196
30
0
41
1
10
104.247359238973
20
-2.62608912712875
30
0
41
1
10
104.452112762811
20
-1.31339754069978
30
0
41
1
10
104.55448952473
20
-0.666136618016253
30
0
41
1
10
104.669663381888
20
0.0411850468018713
30
0
41
1
10
104.682460477128
20
0.119744630545995
30
0
41
1
10
104.708054667608
20
0.27769221266567
30
0
41
1
10
104.746445953328
20
0.515437886534983
30
0
41
1
10
104.784837239047
20
0.755512143290872
30
0
41
1
10
104.861619810486
20
1.23834636525027
30
0
41
1
10
104.912808191446
20
1.56382837017446
30
0
41
1
10
105.066373334324
20
2.54726957590077
30
0
41
1
10
105.168750096243
20
3.21237210062907
30
0
41
1
10
105.373503620081
20
4.53728842655403
30
0
41
1
10
105.475880382
20
5.19701248311728
30
0
41
1
10
105.680633905837
20
6.48315489335292
30
0
41
1
10
105.783010667757
20
7.10944877859467
30
0
41
1
10
105.987764191594
20
8.30030133784953
30
0
41
1
10
106.090140953513
20
8.86473050195252
30
0
41
1
10
106.294894477351
20
9.90695006469656
30
0
41
1
10
106.39727123927
20
10.384642536047
30
0
41
1
10
106.602024763108
20
11.2355633067483
30
0
41
1
10
106.704401525027
20
11.6087522481502
30
0
41
1
10
106.909155048865
20
12.2420653852813
30
0
41
1
10
107.011531810783
20
12.5022139383753
30
0
41
1
10
107.216285334621
20
12.9102923795746
30
0
41
1
10
107.31866209654
20
13.0582938040439
30
0
41
1
10
107.523415620378
20
13.2508519176991
30
0
41
1
10
107.625792382297
20
13.2955
30
0
41
1
10
107.728169144216
20
13.2955
30
0
0
SPLINE
5
FE
100
AcDbEntity
8
1
62
256
6
ByLayer
370
13
48
1
60
0
100
AcDbSpline
70
4
71
3
72
43
73
39
40
0
40
0
40
0
40
0
40
0.0625
40
0.0625
40
0.125
40
0.125
40
0.1875
40
0.1875
40
0.25
40
0.25
40
0.3125
40
0.3125
40
0.375
40
0.375
40
0.4375
40
0.4375
40
0.5
40
0.5
40
0.5625
40
0.5625
40
0.625
40
0.625
40
0.65625
40
0.65625
40
0.671875
40
0.6796875
40
0.6796875
40
0.6875
40
0.6875
40
0.75
40
0.75
40
0.8125
40
0.8125
40
0.875
40
0.875
40
0.9375
40
0.9375
40
1
40
1
40
1
40
1
41
1
10
105.684529314288
20
13.2955
30
0
41
1
10
105.777785656705
20
13.2955
30
0
41
1
10
105.871041999123
20
13.2584771596748
30
0
41
1
10
106.057554683957
20
13.0996898857136
30
0
41
1
10
106.150811026374
20
12.9778677310489
30
0
41
1
10
106.337323711209
20
12.6421767808922
30
0
41
1
10
106.430580053626
20
12.4282594426739
30
0
41
1
10
106.61709273846
20
11.9062197614363
30
0
41
1
10
106.710349080877
20
11.5980726707014
30
0
41
1
10
106.896861765712
20
10.8917172857046
30
0
41
1
10
106.990118108129
20
10.493518993413
30
0
41
1
10
107.176630792963
20
9.61776416052263
30
0
41
1
10
107.269887135381
20
9.14025414693526
30
0
41
1
10
107.456399820215
20
8.12228596572794
30
0
41
1
10
107.549656162632
20
7.58190133212369
30
0
41
1
10
107.736168847467
20
6.4584529380586
30
0
41
1
10
107.829425189884
20
5.87547207573101
30
0
41
1
10
108.015937874718
20
4.68853945575287
30
0
41
1
10
108.109194217135
20
4.08466113106545
30
0
41
1
10
108.29570690197
20
2.87666549883937
30
0
41
1
10
108.388963244387
20
2.27259889774325
30
0
41
1
10
108.528847758013
20
1.37970690158806
30
0
41
1
10
108.575475929221
20
1.08425035972519
30
0
41
1
10
108.645418186034
20
0.645719381870293
30
0
41
1
10
108.680389314441
20
0.427614321284039
30
0
41
1
10
108.715360442847
20
0.211483064572519
30
0
41
1
10
108.738674528451
20
0.0678581219184764
30
0
41
1
10
108.750331571254
20
-0.0035641058196916
30
0
41
1
10
108.855244956473
20
-0.648620245341988
30
0
41
1
10
108.94850129889
20
-1.23721171391708
30
0
41
1
10
109.135013983725
20
-2.430643147338
30
0
41
1
10
109.228270326142
20
-3.03545729266099
30
0
41
1
10
109.414783010976
20
-4.24322952787168
30
0
41
1
10
109.508039353393
20
-4.84613461045655
30
0
41
1
10
109.694552038228
20
-6.02922887134929
30
0
41
1
10
109.787808380645
20
-6.60934314203334
30
0
41
1
10
109.974321065479
20
-7.72518893942726
30
0
41
1
10
110.067577407897
20
-8.2608375995857
30
0
41
1
10
110.160833750314
20
-8.76427215376935
30
0
0
SPLINE
5
FF
100
AcDbEntity
8
1
62
256
6
ByLayer
370
13
48
1
60
0
100
AcDbSpline
70
4
71
3
72
74
73
70
40
0
40
0
40
0
40
0
40
0.0156250000000001
40
0.0156250000000001
40
0.0312500000000001
40
0.0312500000000001
40
0.0625
40
0.0625
40
0.0937499999999999
40
0.0937499999999999
40
0.125
40
0.125
40
0.15625
40
0.15625
40
0.1875
40
0.1875
40
0.21875
40
0.21875
40
0.249999999999999
40
0.249999999999999
40
0.281249999999999
40
0.281249999999999
40
0.312499999999999
40
0.312499999999999
40
0.343749999999999
40
0.343749999999999
40
0.374999999999999
40
0.374999999999999
40
0.406249999999999
40
0.406249999999999
40
0.437499999999999
40
0.437499999999999
40
0.468749999999999
40
0.468749999999999
40
0.499999999999998
40
0.499999999999998
40
0.531249999999998
40
0.531249999999998
40
0.562499999999998
40
0.562499999999998
40
0.593749999999998
40
0.593749999999998
40
0.624999999999998
40
0.624999999999998
40
0.656249999999998
40
0.656249999999998
40
0.671874999999998
40
0.671874999999998
40
0.687499999999998
40
0.687499999999998
40
0.718749999999998
40
0.718749999999998
40
0.749999999999998
40
0.749999999999998
40
0.781249999999998
40
0.781249999999998
40
0.812499999999999
40
0.812499999999999
40
0.843749999999999
40
0.843749999999999
40
0.874999999999999
40
0.874999999999999
40
0.906249999999999
40
0.906249999999999
40
0.9375
40
0.9375
40
0.96875
40
0.96875
40
1
40
1
40
1
40
1
41
1
10
97.9
20
0.907277298847674
30
0
41
1
10
97.9486543546896
20
0.601387357758227
30
0
41
1
10
97.9973087093791
20
0.298752200628144
30
0
41
1
10
98.0946174187582
20
-0.298166703609127
30
0
41
1
10
98.1432717734475
20
-0.600791525351269
30
0
41
1
10
98.2892348375162
20
-1.51844862919899
30
0
41
1
10
98.3865435468953
20
-2.1433863031821
30
0
41
1
10
98.5811609656533
20
-3.4011851946625
30
0
41
1
10
98.6784696750324
20
-4.03399681123602
30
0
41
1
10
98.8730870937904
20
-5.28504657154394
30
0
41
1
10
98.9703958031694
20
-5.9032023745485
30
0
41
1
10
99.1650132219275
20
-7.10038294395591
30
0
41
1
10
99.2623219313065
20
-7.67930654115926
30
0
41
1
10
99.4569393500646
20
-8.77422352967895
30
0
41
1
10
99.5542480594438
20
-9.29012070753376
30
0
41
1
10
99.7488654782019
20
-10.2390034124799
30
0
41
1
10
99.846174187581
20
-10.6719227343161
30
0
41
1
10
100.040791606339
20
-11.4412151840357
30
0
41
1
10
100.138100315718
20
-11.7775678453037
30
0
41
1
10
100.332717734476
20
-12.3477871283947
30
0
41
1
10
100.430026443855
20
-12.5816792839909
30
0
41
1
10
100.624643862613
20
-12.9486421921111
30
0
41
1
10
100.721952571992
20
-13.0817710569636
30
0
41
1
10
100.916569990751
20
-13.2551599784408
30
0
41
1
10
101.013878700129
20
-13.2954912363888
30
0
41
1
10
101.208496118887
20
-13.2955087607464
30
0
41
1
10
101.305804828266
20
-13.2551965125991
30
0
41
1
10
101.500422247025
20
-13.0818478909262
30
0
41
1
10
101.597730956404
20
-12.9487403151547
30
0
41
1
10
101.792348375162
20
-12.5818211085331
30
0
41
1
10
101.889657084541
20
-12.3479513603214
30
0
41
1
10
102.084274503299
20
-11.7777764727539
30
0
41
1
10
102.181583212678
20
-11.441445790678
30
0
41
1
10
102.376200631436
20
-10.6721951644549
30
0
41
1
10
102.473509340815
20
-10.239295676337
30
0
41
1
10
102.668126759573
20
-9.29044891881
30
0
41
1
10
102.765435468952
20
-8.77456784589668
30
0
41
1
10
102.96005288771
20
-7.67967819662897
30
0
41
1
10
103.057361597089
20
-7.10076582976924
30
0
41
1
10
103.251979015847
20
-5.90360233527971
30
0
41
1
10
103.349287725226
20
-5.28545237859993
30
0
41
1
10
103.543905143984
20
-4.03440907996745
30
0
41
1
10
103.641213853363
20
-3.40159808481735
30
0
41
1
10
103.835831272121
20
-2.14379590534799
30
0
41
1
10
103.933139981501
20
-1.51885432968331
30
0
41
1
10
104.079103045569
20
-0.601188745936724
30
0
41
1
10
104.127757400259
20
-0.298555220048286
30
0
41
1
10
104.225066109638
20
0.298360054968583
30
0
41
1
10
104.273720464327
20
0.600990135134396
30
0
41
1
10
104.419683528396
20
1.51865147907407
30
0
41
1
10
104.516992237775
20
2.14359110400815
30
0
41
1
10
104.711609656533
20
3.40139163972805
30
0
41
1
10
104.808918365912
20
4.03420294572467
30
0
41
1
10
105.00353578467
20
5.28524947547717
30
0
41
1
10
105.100844494049
20
5.90340235546674
30
0
41
1
10
105.295461912807
20
7.10057438770565
30
0
41
1
10
105.392770622186
20
7.67949236988005
30
0
41
1
10
105.587388040944
20
8.77439568903657
30
0
41
1
10
105.684696750323
20
9.2902848145404
30
0
41
1
10
105.879314169081
20
10.2391495459783
30
0
41
1
10
105.976622878461
20
10.6720589510366
30
0
41
1
10
106.171240297219
20
11.4413304891243
30
0
41
1
10
106.268549006597
20
11.7776721608312
30
0
41
1
10
106.463166425356
20
12.3478692461845
30
0
41
1
10
106.560475134735
20
12.5817501980777
30
0
41
1
10
106.755092553493
20
12.9486912553894
30
0
41
1
10
106.852401262872
20
13.081809475653
30
0
41
1
10
107.04701868163
20
13.255178247106
30
0
41
1
10
107.144327391009
20
13.2955
30
0
41
1
10
107.241636100388
20
13.2955
30
0
0
SPLINE
5
100
100
AcDbEntity
8
1
62
256
6
ByLayer
370
13
48
1
60
0
100
AcDbSpline
70
4
71
3
72
42
73
38
40
0
40
0
40
0
40
0
40
0.0624999999999997
40
0.0624999999999997
40
0.124999999999999
40
0.124999999999999
40
0.187499999999999
40
0.187499999999999
40
0.249999999999999
40
0.249999999999999
40
0.312499999999999
40
0.312499999999999
40
0.374999999999998
40
0.374999999999998
40
0.437499999999998
40
0.437499999999998
40
0.499999999999998
40
0.499999999999998
40
0.562499999999997
40
0.562499999999997
40
0.593749999999997
40
0.593749999999997
40
0.609374999999997
40
0.609374999999997
40
0.624999999999997
40
0.624999999999997
40
0.687499999999997
40
0.687499999999997
40
0.749999999999998
40
0.749999999999998
40
0.812499999999998
40
0.812499999999998
40
0.874999999999999
40
0.874999999999999
40
0.937499999999999
40
0.937499999999999
40
1
40
1
40
1
40
1
41
1
10
105.19799627046
20
13.2955
30
0
41
1
10
105.301388717957
20
13.2955
30
0
41
1
10
105.404781165454
20
13.2499580173221
30
0
41
1
10
105.611566060448
20
13.0534261663112
30
0
41
1
10
105.714958507945
20
12.9023403706307
30
0
41
1
10
105.921743402939
20
12.4857428016405
30
0
41
1
10
106.025135850436
20
12.2201566183068
30
0
41
1
10
106.23192074543
20
11.5738145422619
30
0
41
1
10
106.335313192927
20
11.1930349106179
30
0
41
1
10
106.542098087921
20
10.3253772074716
30
0
41
1
10
106.645490535418
20
9.8385431943864
30
0
41
1
10
106.852275430411
20
8.77740522980457
30
0
41
1
10
106.955667877908
20
8.20320659827135
30
0
41
1
10
107.162452772902
20
6.99323344585028
30
0
41
1
10
107.265845220399
20
6.35759571956371
30
0
41
1
10
107.472630115393
20
5.05413943616441
30
0
41
1
10
107.57602256289
20
4.3864499161825
30
0
41
1
10
107.782807457884
20
3.0476468999795
30
0
41
1
10
107.886199905381
20
2.37662396019868
30
0
41
1
10
108.041288576626
20
1.38606214518657
30
0
41
1
10
108.092984800375
20
1.05849702668712
30
0
41
1
10
108.170529135997
20
0.572977529557392
30
0
41
1
10
108.196377247872
20
0.412106006491967
30
0
41
1
10
108.24807347162
20
0.0925779644986164
30
0
41
1
10
108.273921583494
20
-0.065430522810118
30
0
41
1
10
108.403162142866
20
-0.863618614500666
30
0
41
1
10
108.506554590363
20
-1.52025689713074
30
0
41
1
10
108.713339485356
20
-2.84960087173403
30
0
41
1
10
108.816731932853
20
-3.52225437192081
30
0
41
1
10
109.023516827847
20
-4.85781808810879
30
0
41
1
10
109.126909275344
20
-5.52062685235418
30
0
41
1
10
109.333694170338
20
-6.8073103668161
30
0
41
1
10
109.437086617835
20
-7.43105091060175
30
0
41
1
10
109.643871512829
20
-8.61064659655881
30
0
41
1
10
109.747263960326
20
-9.16636887295886
30
0
41
1
10
109.95404885532
20
-10.1853668717175
30
0
41
1
10
110.057441302817
20
-10.6485497514128
30
0
41
1
10
110.160833750314
20
-11.057189249252
30
0
0
SPLINE
5
101
100
AcDbEntity
8
1
62
256
6
ByLayer
370
13
48
1
60
0
100
AcDbSpline
70
4
71
3
72
81
73
77
40
0
40
0
40
0
40
0
40
0.0312499999999987
40
0.0312499999999987
40
0.0624999999999975
40
0.0624999999999975
40
0.0937499999999962
40
0.0937499999999962
40
0.124999999999995
40
0.124999999999995
40
0.156249999999994
40
0.156249999999994
40
0.187499999999992
40
0.187499999999992
40
0.218749999999991
40
0.218749999999991
40
0.24999999999999
40
0.24999999999999
40
0.281249999999989
40
0.281249999999989
40
0.296874999999988
40
0.296874999999988
40
0.304687499999987
40
0.304687499999987
40
0.308593749999987
40
0.308593749999987
40
0.312499999999987
40
0.312499999999987
40
0.343749999999987
40
0.343749999999987
40
0.374999999999987
40
0.374999999999987
40
0.406249999999986
40
0.406249999999986
40
0.437499999999986
40
0.437499999999986
40
0.468749999999986
40
0.468749999999986
40
0.499999999999985
40
0.499999999999985
40
0.531249999999985
40
0.531249999999985
40
0.562499999999984
40
0.562499999999984
40
0.593749999999984
40
0.593749999999984
40
0.624999999999983
40
0.624999999999983
40
0.640624999999983
40
0.640624999999983
40
0.648437499999983
40
0.652343749999983
40
0.652343749999983
40
0.656249999999983
40
0.656249999999983
40
0.687499999999985
40
0.687499999999985
40
0.718749999999986
40
0.718749999999986
40
0.749999999999988
40
0.749999999999988
40
0.781249999999989
40
0.781249999999989
40
0.812499999999991
40
0.812499999999991
40
0.843749999999992
40
0.843749999999992
40
0.874999999999994
40
0.874999999999994
40
0.906249999999995
40
0.906249999999995
40
0.937499999999997
40
0.937499999999997
40
0.968749999999998
40
0.968749999999998
40
1
40
1
40
1
40
1
41
1
10
97.9
20
-2.1449517952621
30
0
41
1
10
97.9922406568392
20
-2.73765063299774
30
0
41
1
10
98.0844813136783
20
-3.33685672424338
30
0
41
1
10
98.2689626273568
20
-4.53027281767226
30
0
41
1
10
98.3612032841959
20
-5.12442869392237
30
0
41
1
10
98.5456845978741
20
-6.28729583505759
30
0
41
1
10
98.6379252547133
20
-6.85593399951867
30
0
41
1
10
98.8224065683917
20
-7.94687810690846
30
0
41
1
10
98.9146472252309
20
-8.46910592641024
30
0
41
1
10
99.0991285389092
20
-9.44823160605429
30
0
41
1
10
99.1913691957483
20
-9.90506414946969
30
0
41
1
10
99.3758505094266
20
-10.7385130365687
30
0
41
1
10
99.4680911662658
20
-11.1150920679688
30
0
41
1
10
99.6525724799442
20
-11.7788517362241
30
0
41
1
10
99.7448131367834
20
-12.0660298046811
30
0
41
1
10
99.9292944504617
20
-12.548123878915
30
0
41
1
10
100.021535107301
20
-12.7430684503279
30
0
41
1
10
100.206016420979
20
-13.0437372425491
30
0
41
1
10
100.298257077818
20
-13.1495099470581
30
0
41
1
10
100.436618063077
20
-13.2470610017103
30
0
41
1
10
100.482738391497
20
-13.2694251829755
30
0
41
1
10
100.551918884126
20
-13.2886933816254
30
0
41
1
10
100.574979048336
20
-13.2927377798635
30
0
41
1
10
100.609569294651
20
-13.2953662605675
30
0
41
1
10
100.621099376755
20
-13.295670374859
30
0
41
1
10
100.644159540965
20
-13.2951507820487
30
0
41
1
10
100.65568962307
20
-13.2943240234825
30
0
41
1
10
100.759460362014
20
-13.2816812413867
30
0
41
1
10
100.851701018853
20
-13.2333442565361
30
0
41
1
10
101.036182332532
20
-13.0525135386245
30
0
41
1
10
101.128422989371
20
-12.9199655554582
30
0
41
1
10
101.312904303049
20
-12.5642338151972
30
0
41
1
10
101.405144959888
20
-12.3410062531711
30
0
41
1
10
101.589626273567
20
-11.8025427968905
30
0
41
1
10
101.681866930406
20
-11.4872869736115
30
0
41
1
10
101.866348244084
20
-10.7695077983821
30
0
41
1
10
101.958588900924
20
-10.3669977751168
30
0
41
1
10
102.143070214602
20
-9.48569301623013
30
0
41
1
10
102.235310871441
20
-9.00694539357158
30
0
41
1
10
102.419792185119
20
-7.98947543942342
30
0
41
1
10
102.512032841958
20
-7.45082423822655
30
0
41
1
10
102.696514155637
20
-6.33336358625292
30
0
41
1
10
102.788754812476
20
-5.75463254725105
30
0
41
1
10
102.973236126154
20
-4.57802323066602
30
0
41
1
10
103.065476782993
20
-3.98021338774652
30
0
41
1
10
103.249958096672
20
-2.78538510364098
30
0
41
1
10
103.342198753511
20
-2.18841331128118
30
0
41
1
10
103.48055973877
20
-1.30637508351612
30
0
41
1
10
103.526680067189
20
-1.01457246124085
30
0
41
1
10
103.595860559819
20
-0.58151611555752
30
0
41
1
10
103.630450806133
20
-0.366146924327268
30
0
41
1
10
103.665041052448
20
-0.152739182355447
30
0
41
1
10
103.688101216658
20
-0.0109261208738189
30
0
41
1
10
103.699631298763
20
0.0597062737957117
30
0
41
1
10
103.803402037707
20
0.698807956440703
30
0
41
1
10
103.895642694546
20
1.2815822257044
30
0
41
1
10
104.080124008224
20
2.46267939614739
30
0
41
1
10
104.172364665063
20
3.06097731140207
30
0
41
1
10
104.356845978742
20
4.25554913538153
30
0
41
1
10
104.449086635581
20
4.85177259868726
30
0
41
1
10
104.633567949259
20
6.02200162823328
30
0
41
1
10
104.725808606098
20
6.59593627111818
30
0
41
1
10
104.910289919777
20
7.70062070170104
30
0
41
1
10
105.002530576616
20
8.23129200715414
30
0
41
1
10
105.187011890294
20
9.23000798530953
30
0
41
1
10
105.279252547133
20
9.69798423854189
30
0
41
1
10
105.463733860812
20
10.5556672831033
30
0
41
1
10
105.555974517651
20
10.9453317612502
30
0
41
1
10
105.740455831329
20
11.6362657023457
30
0
41
1
10
105.832696488168
20
11.9375272438047
30
0
41
1
10
106.017177801847
20
12.4478231507808
30
0
41
1
10
106.109418458686
20
12.6568818913397
30
0
41
1
10
106.293899772364
20
12.9849689092026
30
0
41
1
10
106.386140429203
20
13.1040434961106
30
0
41
1
10
106.570621742882
20
13.2592817018341
30
0
41
1
10
106.662862399721
20
13.2955
30
0
41
1
10
106.75510305656
20
13.2955
30
0
0
SPLINE
5
102
100
AcDbEntity
8
1
62
256
6
ByLayer
370
13
48
1
60
0
100
AcDbSpline
70
4
71
3
72
58
73
54
40
0
40
0
40
0
40
0
40
0.0625000000000006
40
0.0625000000000006
40
0.125000000000001
40
0.125000000000001
40
0.156250000000001
40
0.156250000000001
40
0.187500000000001
40
0.187500000000001
40
0.218750000000001
40
0.218750000000001
40
0.250000000000002
40
0.250000000000002
40
0.281250000000002
40
0.281250000000002
40
0.312500000000002
40
0.312500000000002
40
0.343750000000002
40
0.343750000000002
40
0.375000000000002
40
0.375000000000002
40
0.406250000000002
40
0.406250000000002
40
0.437500000000003
40
0.437500000000003
40
0.500000000000003
40
0.500000000000003
40
0.562500000000003
40
0.562500000000003
40
0.625000000000003
40
0.625000000000003
40
0.687500000000003
40
0.687500000000003
40
0.718750000000002
40
0.718750000000002
40
0.750000000000002
40
0.750000000000002
40
0.781250000000002
40
0.781250000000002
40
0.812500000000002
40
0.812500000000002
40
0.843750000000001
40
0.843750000000001
40
0.875000000000001
40
0.875000000000001
40
0.906250000000001
40
0.906250000000001
40
0.937500000000001
40
0.937500000000001
40
0.96875
40
0.96875
40
1
40
1
40
1
40
1
41
1
10
104.711463226632
20
13.2955
30
0
41
1
10
104.824991779209
20
13.2955
30
0
41
1
10
104.938520331786
20
13.240544304556
30
0
41
1
10
105.165577436939
20
13.0019978136872
30
0
41
1
10
105.279105989516
20
12.8182556087542
30
0
41
1
10
105.449398818381
20
12.4382775520324
30
0
41
1
10
105.506163094669
20
12.2943056387119
30
0
41
1
10
105.619691647246
20
11.9715887804528
30
0
41
1
10
105.676455923534
20
11.7928418507053
30
0
41
1
10
105.789984476111
20
11.4012912917081
30
0
41
1
10
105.846748752399
20
11.1884874098411
30
0
41
1
10
105.960277304976
20
10.730445043188
30
0
41
1
10
106.017041581264
20
10.485208217064
30
0
41
1
10
106.130570133841
20
9.96480724180537
30
0
41
1
10
106.187334410129
20
9.68964662882331
30
0
41
1
10
106.300862962706
20
9.11271226866978
30
0
41
1
10
106.357627238994
20
8.81094367729415
30
0
41
1
10
106.471155791571
20
8.18478286080796
30
0
41
1
10
106.52792006786
20
7.86039695956094
30
0
41
1
10
106.641448620436
20
7.19349221479331
30
0
41
1
10
106.698212896725
20
6.85098028476278
30
0
41
1
10
106.811741449301
20
6.15261446148884
30
0
41
1
10
106.86850572559
20
5.79676745459193
30
0
41
1
10
106.982034278166
20
5.07661334306613
30
0
41
1
10
107.038798554455
20
4.71231253260112
30
0
41
1
10
107.20909138332
20
3.61387933904575
30
0
41
1
10
107.322619935896
20
2.87444346737863
30
0
41
1
10
107.54967704105
20
1.41547194057358
30
0
41
1
10
107.663205593627
20
0.696034652902824
30
0
41
1
10
107.89026269878
20
-0.69680121460425
30
0
41
1
10
108.003791251357
20
-1.41626782646475
30
0
41
1
10
108.23084835651
20
-2.87525351917032
30
0
41
1
10
108.344376909087
20
-3.61469082689658
30
0
41
1
10
108.514669737952
20
-4.7131158596608
30
0
41
1
10
108.57143401424
20
-5.07741224096515
30
0
41
1
10
108.684962566817
20
-5.79755392969625
30
0
41
1
10
108.741726843105
20
-6.15339294234434
30
0
41
1
10
108.855255395682
20
-6.85173920312153
30
0
41
1
10
108.91201967197
20
-7.19423956466562
30
0
41
1
10
109.025548224547
20
-7.86111774105109
30
0
41
1
10
109.082312500835
20
-8.18548864260777
30
0
41
1
10
109.195841053412
20
-8.81161632371453
30
0
41
1
10
109.2526053297
20
-9.11336678005651
30
0
41
1
10
109.366133882277
20
-9.69026216941825
30
0
41
1
10
109.422898158565
20
-9.96540194768548
30
0
41
1
10
109.536426711142
20
-10.4857591021392
30
0
41
1
10
109.59319098743
20
-10.7309729434828
30
0
41
1
10
109.706719540007
20
-11.1889678168049
30
0
41
1
10
109.763483816295
20
-11.4017471915393
30
0
41
1
10
109.877012368872
20
-11.7932478768079
30
0
41
1
10
109.93377664516
20
-11.9719694413199
30
0
41
1
10
110.047305197737
20
-12.2946353683381
30
0
41
1
10
110.104069474025
20
-12.4385817168138
30
0
41
1
10
110.160833750314
20
-12.5652157111912
30
0
0
SPLINE
5
103
100
AcDbEntity
8
1
62
256
6
ByLayer
370
13
48
1
60
0
100
AcDbSpline
70
4
71
3
72
8
73
4
40
0
40
0
40
0
40
0
40
1
40
1
40
1
40
1
41
1
10
110.160833750314
20
1.61721092030123
30
0
41
1
10
111.773889166876
20
1.05685347933016
30
0
41
1
10
113.386944583438
20
0.517776943809793
30
0
41
1
10
115
20
2.84E-14
30
0
0
SPLINE
5
104
100
AcDbEntity
8
1
62
256
6
ByLayer
370
13
48
1
60
0
100
AcDbSpline
70
4
71
3
72
8
73
4
40
0
40
0
40
0
40
0
40
1
40
1
40
1
40
1
41
1
10
110.160833750314
20
11.4016323749224
30
0
41
1
10
111.773889166876
20
7.5900564249815
30
0
41
1
10
113.386944583438
20
3.78946784347258
30
0
41
1
10
115
20
2.842E-13
30
0
0
SPLINE
5
105
100
AcDbEntity
8
1
62
256
6
ByLayer
370
13
48
1
60
0
100
AcDbSpline
70
4
71
3
72
8
73
4
40
0
40
0
40
0
40
0
40
1
40
1
40
1
40
1
41
1
10
110.160833750314
20
-3.17956894250079
30
0
41
1
10
111.773889166876
20
-2.14053670905599
30
0
41
1
10
113.386944583438
20
-1.08066790403012
30
0
41
1
10
115
20
-8.53E-14
30
0
0
SPLINE
5
106
100
AcDbEntity
8
1
62
256
6
ByLayer
370
13
48
1
60
0
100
AcDbSpline
70
4
71
3
72
8
73
4
40
0
40
0
40
0
40
0
40
1
40
1
40
1
40
1
41
1
10
110.160833750314
20
-2.30730149458017
30
0
41
1
10
111.773889166876
20
-1.51708002794197
30
0
41
1
10
113.386944583438
20
-0.747970606982534
30
0
41
1
10
115
20
0
30
0
0
SPLINE
5
107
100
AcDbEntity
8
1
62
256
6
ByLayer
370
13
48
1
60
0
100
AcDbSpline
70
4
71
3
72
8
73
4
40
0
40
0
40
0
40
0
40
1
40
1
40
1
40
1
41
1
10
110.160833750314
20
5.92120414922914
30
0
41
1
10
111.773889166876
20
3.96667154570201
30
0
41
1
10
113.386944583438
20
1.99291364439719
30
0
41
1
10
115
20
0
30
0
0
SPLINE
5
108
100
AcDbEntity
8
1
62
256
6
ByLayer
370
13
48
1
60
0
100
AcDbSpline
70
4
71
3
72
8
73
4
40
0
40
0
40
0
40
0
40
1
40
1
40
1
40
1
41
1
10
110.160833750314
20
-12.9886974465807
30
0
41
1
10
111.773889166876
20
-8.65455099134914
30
0
41
1
10
113.386944583438
20
-4.32493449993046
30
0
41
1
10
115
20
-3.126E-13
30
0
0
SPLINE
5
109
100
AcDbEntity
8
1
62
256
6
ByLayer
370
13
48
1
60
0
100
AcDbSpline
70
4
71
3
72
8
73
4
40
0
40
0
40
0
40
0
40
1
40
1
40
1
40
1
41
1
10
110.160833750314
20
10.5444042913797
30
0
41
1
10
111.773889166876
20
7.04266620576075
30
0
41
1
10
113.386944583438
20
3.52782357041207
30
0
41
1
10
115
20
0
30
0
0
SPLINE
5
10A
100
AcDbEntity
8
1
62
256
6
ByLayer
370
13
48
1
60
0
100
AcDbSpline
70
4
71
3
72
8
73
4
40
0
40
0
40
0
40
0
40
1
40
1
40
1
40
1
41
1
10
110.160833750314
20
-4.33776761128476
30
0
41
1
10
111.773889166876
20
-2.9121179205508
30
0
41
1
10
113.386944583438
20
-1.46617837439854
30
0
41
1
10
115
20
-1.137E-13
30
0
0
SPLINE
5
10B
100
AcDbEntity
8
1
62
256
6
ByLayer
370
13
48
1
60
0
100
AcDbSpline
70
4
71
3
72
8
73
4
40
0
40
0
40
0
40
0
40
1
40
1
40
1
40
1
41
1
10
110.160833750314
20
-9.41284720451262
30
0
41
1
10
111.773889166876
20
-6.29037776179496
30
0
41
1
10
113.386944583438
20
-3.15272523030916
30
0
41
1
10
115
20
-2.274E-13
30
0
0
SPLINE
5
10C
100
AcDbEntity
8
1
62
256
6
ByLayer
370
13
48
1
60
0
100
AcDbSpline
70
4
71
3
72
8
73
4
40
0
40
0
40
0
40
0
40
1
40
1
40
1
40
1
41
1
10
110.160833750314
20
-4.63553810737181
30
0
41
1
10
111.773889166876
20
-3.07025809317534
30
0
41
1
10
113.386944583438
20
-1.52506071039579
30
0
41
1
10
115
20
-1.137E-13
30
0
0
SPLINE
5
10D
100
AcDbEntity
8
1
62
256
6
ByLayer
370
13
48
1
60
0
100
AcDbSpline
70
4
71
3
72
8
73
4
40
0
40
0
40
0
40
0
40
1
40
1
40
1
40
1
41
1
10
110.160833750314
20
-12.1359109700048
30
0
41
1
10
111.773889166876
20
-8.09936695952672
30
0
41
1
10
113.386944583438
20
-4.05401590325295
30
0
41
1
10
115
20
-2.842E-13
30
0
0
SPLINE
5
10E
100
AcDbEntity
8
1
62
256
6
ByLayer
370
13
48
1
60
0
100
AcDbSpline
70
4
71
3
72
8
73
4
40
0
40
0
40
0
40
0
40
1
40
1
40
1
40
1
41
1
10
110.160833750314
20
-7.5610017674513
30
0
41
1
10
111.773889166876
20
-5.05830862289091
30
0
41
1
10
113.386944583438
20
-2.53794512161667
30
0
41
1
10
115
20
-1.99E-13
30
0
0
SPLINE
5
10F
100
AcDbEntity
8
1
62
256
6
ByLayer
370
13
48
1
60
0
100
AcDbSpline
70
4
71
3
72
8
73
4
40
0
40
0
40
0
40
0
40
1
40
1
40
1
40
1
41
1
10
110.160833750314
20
-9.63357124719491
30
0
41
1
10
111.773889166876
20
-6.40760004765201
30
0
41
1
10
113.386944583438
20
-3.19637209060792
30
0
41
1
10
115
20
2.274E-13
30
0
0
SPLINE
5
110
100
AcDbEntity
8
1
62
256
6
ByLayer
370
13
48
1
60
0
100
AcDbSpline
70
4
71
3
72
8
73
4
40
0
40
0
40
0
40
0
40
1
40
1
40
1
40
1
41
1
10
110.160833750314
20
-3.48579724054798
30
0
41
1
10
111.773889166876
20
-2.30316865732507
30
0
41
1
10
113.386944583438
20
-1.14122271981751
30
0
41
1
10
115
20
0
30
0
0
SPLINE
5
111
100
AcDbEntity
8
1
62
256
6
ByLayer
370
13
48
1
60
0
100
AcDbSpline
70
4
71
3
72
8
73
4
40
0
40
0
40
0
40
0
40
1
40
1
40
1
40
1
41
1
10
110.160833750314
20
9.97799506454086
30
0
41
1
10
111.773889166876
20
6.63782292339474
30
0
41
1
10
113.386944583438
20
3.31178568060986
30
0
41
1
10
115
20
2.558E-13
30
0
0
SPLINE
5
112
100
AcDbEntity
8
1
62
256
6
ByLayer
370
13
48
1
60
0
100
AcDbSpline
70
4
71
3
72
8
73
4
40
0
40
0
40
0
40
0
40
1
40
1
40
1
40
1
41
1
10
110.160833750314
20
13.246344251514
30
0
41
1
10
111.773889166876
20
8.82905369102588
30
0
41
1
10
113.386944583438
20
4.41355391503592
30
0
41
1
10
115
20
3.126E-13
30
0
0
SPLINE
5
113
100
AcDbEntity
8
1
62
256
6
ByLayer
370
13
48
1
60
0
100
AcDbSpline
70
4
71
3
72
8
73
4
40
0
40
0
40
0
40
0
40
1
40
1
40
1
40
1
41
1
10
110.160833750314
20
-5.74703970528628
30
0
41
1
10
111.773889166876
20
-3.8120204964078
30
0
41
1
10
113.386944583438
20
-1.89631823992343
30
0
41
1
10
115
20
0
30
0
0
SPLINE
5
114
100
AcDbEntity
8
1
62
256
6
ByLayer
370
13
48
1
60
0
100
AcDbSpline
70
4
71
3
72
8
73
4
40
0
40
0
40
0
40
0
40
1
40
1
40
1
40
1
41
1
10
110.160833750314
20
8.2257966603849
30
0
41
1
10
111.773889166876
20
5.4670154151178
30
0
41
1
10
113.386944583438
20
2.72505115617258
30
0
41
1
10
115
20
1.99E-13
30
0
0
SPLINE
5
115
100
AcDbEntity
8
1
62
256
6
ByLayer
370
13
48
1
60
0
100
AcDbSpline
70
4
71
3
72
8
73
4
40
0
40
0
40
0
40
0
40
1
40
1
40
1
40
1
41
1
10
110.160833750314
20
11.23570019962
30
0
41
1
10
111.773889166876
20
7.50193304408543
30
0
41
1
10
113.386944583438
20
3.75665574748814
30
0
41
1
10
115
20
0
30
0
0
SPLINE
5
116
100
AcDbEntity
8
1
62
256
6
ByLayer
370
13
48
1
60
0
100
AcDbSpline
70
4
71
3
72
8
73
4
40
0
40
0
40
0
40
0
40
1
40
1
40
1
40
1
41
1
10
110.160833750314
20
3.97542526549435
30
0
41
1
10
111.773889166876
20
2.62981827289119
30
0
41
1
10
113.386944583438
20
1.30466108185743
30
0
41
1
10
115
20
8.53E-14
30
0
0
SPLINE
5
117
100
AcDbEntity
8
1
62
256
6
ByLayer
370
13
48
1
60
0
100
AcDbSpline
70
4
71
3
72
8
73
4
40
0
40
0
40
0
40
0
40
1
40
1
40
1
40
1
41
1
10
110.160833750314
20
-1.99514151904111
30
0
41
1
10
111.773889166876
20
-1.35129788005656
30
0
41
1
10
113.386944583438
20
-0.686242837421389
30
0
41
1
10
115
20
-5.68E-14
30
0
0
SPLINE
5
118
100
AcDbEntity
8
1
62
256
6
ByLayer
370
13
48
1
60
0
100
AcDbSpline
70
4
71
3
72
8
73
4
40
0
40
0
40
0
40
0
40
1
40
1
40
1
40
1
41
1
10
110.160833750314
20
-7.81904037953279
30
0
41
1
10
111.773889166876
20
-5.19534795752787
30
0
41
1
10
113.386944583438
20
-2.58897071500613
30
0
41
1
10
115
20
5.4E-13
30
0
0
SPLINE
5
119
100
AcDbEntity
8
1
62
256
6
ByLayer
370
13
48
1
60
0
100
AcDbSpline
70
4
71
3
72
8
73
4
40
0
40
0
40
0
40
0
40
1
40
1
40
1
40
1
41
1
10
110.160833750314
20
12.7345309531565
30
0
41
1
10
111.773889166876
20
8.49585120912971
30
0
41
1
10
113.386944583438
20
4.25095783224057
30
0
41
1
10
115
20
0
30
0
0
SPLINE
5
11A
100
AcDbEntity
8
1
62
256
6
ByLayer
370
13
48
1
60
0
100
AcDbSpline
70
4
71
3
72
8
73
4
40
0
40
0
40
0
40
0
40
1
40
1
40
1
40
1
41
1
10
110.160833750314
20
1.30279553374717
30
0
41
1
10
111.773889166876
20
0.889873526115025
30
0
41
1
10
113.386944583438
20
0.455603180199688
30
0
41
1
10
115
20
0
30
0
0
SPLINE
5
11B
100
AcDbEntity
8
1
62
256
6
ByLayer
370
13
48
1
60
0
100
AcDbSpline
70
4
71
3
72
8
73
4
40
0
40
0
40
0
40
0
40
1
40
1
40
1
40
1
41
1
10
110.160833750314
20
-11.59314282565
30
0
41
1
10
111.773889166876
20
-7.739261543819
30
0
41
1
10
113.386944583438
20
-3.87483531391646
30
0
41
1
10
115
20
-2.842E-13
30
0
0
SPLINE
5
11C
100
AcDbEntity
8
1
62
256
6
ByLayer
370
13
48
1
60
0
100
AcDbSpline
70
4
71
3
72
8
73
4
40
0
40
0
40
0
40
0
40
1
40
1
40
1
40
1
41
1
10
110.160833750314
20
9.13959281796113
30
0
41
1
10
111.773889166876
20
6.07748622995746
30
0
41
1
10
113.386944583438
20
3.03091968038243
30
0
41
1
10
115
20
2.274E-13
30
0
0
SPLINE
5
11D
100
AcDbEntity
8
1
62
256
6
ByLayer
370
13
48
1
60
0
100
AcDbSpline
70
4
71
3
72
8
73
4
40
0
40
0
40
0
40
0
40
1
40
1
40
1
40
1
41
1
10
110.160833750314
20
12.3352989102003
30
0
41
1
10
111.773889166876
20
8.23153484466931
30
0
41
1
10
113.386944583438
20
4.11972036642572
30
0
41
1
10
115
20
0
30
0
0
SPLINE
5
11E
100
AcDbEntity
8
1
62
256
6
ByLayer
370
13
48
1
60
0
100
AcDbSpline
70
4
71
3
72
8
73
4
40
0
40
0
40
0
40
0
40
1
40
1
40
1
40
1
41
1
10
110.160833750314
20
3.6724643382135
30
0
41
1
10
111.773889166876
20
2.46892156227591
30
0
41
1
10
113.386944583438
20
1.24475236911181
30
0
41
1
10
115
20
0
30
0
0
SPLINE
5
11F
100
AcDbEntity
8
1
62
256
6
ByLayer
370
13
48
1
60
0
100
AcDbSpline
70
4
71
3
72
8
73
4
40
0
40
0
40
0
40
0
40
1
40
1
40
1
40
1
41
1
10
110.160833750314
20
-12.261669537989
30
0
41
1
10
111.773889166876
20
-8.1661549116954
30
0
41
1
10
113.386944583438
20
-4.07888390848399
30
0
41
1
10
115
20
8.527E-13
30
0
0
SPLINE
5
120
100
AcDbEntity
8
1
62
256
6
ByLayer
370
13
48
1
60
0
100
AcDbSpline
70
4
71
3
72
8
73
4
40
0
40
0
40
0
40
0
40
1
40
1
40
1
40
1
41
1
10
110.160833750314
20
5.11015714382225
30
0
41
1
10
111.773889166876
20
3.38697242311778
30
0
41
1
10
113.386944583438
20
1.68356684128017
30
0
41
1
10
115
20
1.137E-13
30
0
0
SPLINE
5
121
100
AcDbEntity
8
1
62
256
6
ByLayer
370
13
48
1
60
0
100
AcDbSpline
70
4
71
3
72
8
73
4
40
0
40
0
40
0
40
0
40
1
40
1
40
1
40
1
41
1
10
110.160833750314
20
-13.1927764180814
30
0
41
1
10
111.773889166876
20
-8.79252348495069
30
0
41
1
10
113.386944583438
20
-4.39487986570276
30
0
41
1
10
115
20
-3.126E-13
30
0
0
SPLINE
5
122
100
AcDbEntity
8
1
62
256
6
ByLayer
370
13
48
1
60
0
100
AcDbSpline
70
4
71
3
72
8
73
4
40
0
40
0
40
0
40
0
40
1
40
1
40
1
40
1
41
1
10
110.160833750314
20
-11.1308824043382
30
0
41
1
10
111.773889166876
20
-7.40885904081534
30
0
41
1
10
113.386944583438
20
-3.69852150893678
30
0
41
1
10
115
20
2.558E-13
30
0
0
SPLINE
5
123
100
AcDbEntity
8
1
62
256
6
ByLayer
370
13
48
1
60
0
100
AcDbSpline
70
4
71
3
72
8
73
4
40
0
40
0
40
0
40
0
40
1
40
1
40
1
40
1
41
1
10
110.160833750314
20
-12.9174627067591
30
0
41
1
10
111.773889166876
20
-8.61671959367743
30
0
41
1
10
113.386944583438
20
-4.31084825585924
30
0
41
1
10
115
20
9.095E-13
30
0
0
SPLINE
5
124
100
AcDbEntity
8
1
62
256
6
ByLayer
370
13
48
1
60
0
100
AcDbSpline
70
4
71
3
72
8
73
4
40
0
40
0
40
0
40
0
40
1
40
1
40
1
40
1
41
1
10
110.160833750314
20
6.97686227313997
30
0
41
1
10
111.773889166876
20
4.66949783356483
30
0
41
1
10
113.386944583438
20
2.34384977450486
30
0
41
1
10
115
20
8.53E-14
30
0
0
SPLINE
5
125
100
AcDbEntity
8
1
62
256
6
ByLayer
370
13
48
1
60
0
100
AcDbSpline
70
4
71
3
72
8
73
4
40
0
40
0
40
0
40
0
40
1
40
1
40
1
40
1
41
1
10
110.160833750314
20
13.2931119641966
30
0
41
1
10
111.773889166876
20
8.86248110254024
30
0
41
1
10
113.386944583438
20
4.43139189768158
30
0
41
1
10
115
20
0
30
0
0
SPLINE
5
126
100
AcDbEntity
8
1
62
256
6
ByLayer
370
13
48
1
60
0
100
AcDbSpline
70
4
71
3
72
8
73
4
40
0
40
0
40
0
40
0
40
1
40
1
40
1
40
1
41
1
10
110.160833750314
20
12.4498302528641
30
0
41
1
10
111.773889166876
20
8.29236023381227
30
0
41
1
10
113.386944583438
20
4.1423682549493
30
0
41
1
10
115
20
3.126E-13
30
0
0
SPLINE
5
127
100
AcDbEntity
8
1
62
256
6
ByLayer
370
13
48
1
60
0
100
AcDbSpline
70
4
71
3
72
8
73
4
40
0
40
0
40
0
40
0
40
1
40
1
40
1
40
1
41
1
10
110.160833750314
20
-13.1497991583226
30
0
41
1
10
111.773889166876
20
-8.76969909043714
30
0
41
1
10
113.386944583438
20
-4.38638136943598
30
0
41
1
10
115
20
-3.126E-13
30
0
0
SPLINE
5
128
100
AcDbEntity
8
1
62
256
6
ByLayer
370
13
48
1
60
0
100
AcDbSpline
70
4
71
3
72
8
73
4
40
0
40
0
40
0
40
0
40
1
40
1
40
1
40
1
41
1
10
110.160833750314
20
0.0969112534794476
30
0
41
1
10
111.773889166876
20
0.0860533108808852
30
0
41
1
10
113.386944583438
20
0.053749097783566
30
0
41
1
10
115
20
0
30
0
0
SPLINE
5
129
100
AcDbEntity
8
1
62
256
6
ByLayer
370
13
48
1
60
0
100
AcDbSpline
70
4
71
3
72
8
73
4
40
0
40
0
40
0
40
0
40
1
40
1
40
1
40
1
41
1
10
110.160833750314
20
-1.10977246266742
30
0
41
1
10
111.773889166876
20
-0.718476771388964
30
0
41
1
10
113.386944583438
20
-0.34854836923131
30
0
41
1
10
115
20
-2.84E-14
30
0
0
SPLINE
5
12A
100
AcDbEntity
8
1
62
256
6
ByLayer
370
13
48
1
60
0
100
AcDbSpline
70
4
71
3
72
8
73
4
40
0
40
0
40
0
40
0
40
1
40
1
40
1
40
1
41
1
10
110.160833750314
20
0.413181727339293
30
0
41
1
10
111.773889166876
20
0.254018465217797
30
0
41
1
10
113.386944583438
20
0.116289693821614
30
0
41
1
10
115
20
0
30
0
0
SPLINE
5
12B
100
AcDbEntity
8
1
62
256
6
ByLayer
370
13
48
1
60
0
100
AcDbSpline
70
4
71
3
72
8
73
4
40
0
40
0
40
0
40
0
40
1
40
1
40
1
40
1
41
1
10
110.160833750314
20
-5.46018336591462
30
0
41
1
10
111.773889166876
20
-3.65967662210602
30
0
41
1
10
113.386944583438
20
-1.83959411318904
30
0
41
1
10
115
20
-1.421E-13
30
0
0
SPLINE
5
12C
100
AcDbEntity
8
1
62
256
6
ByLayer
370
13
48
1
60
0
100
AcDbSpline
70
4
71
3
72
8
73
4
40
0
40
0
40
0
40
0
40
1
40
1
40
1
40
1
41
1
10
110.160833750314
20
-6.53755722569051
30
0
41
1
10
111.773889166876
20
-4.37704608667676
30
0
41
1
10
113.386944583438
20
-2.19783475637061
30
0
41
1
10
115
20
-1.705E-13
30
0
0
SPLINE
5
12D
100
AcDbEntity
8
1
62
256
6
ByLayer
370
13
48
1
60
0
100
AcDbSpline
70
4
71
3
72
8
73
4
40
0
40
0
40
0
40
0
40
1
40
1
40
1
40
1
41
1
10
110.160833750314
20
11.8343110837344
30
0
41
1
10
111.773889166876
20
7.89931527950787
30
0
41
1
10
113.386944583438
20
3.95449869181479
30
0
41
1
10
115
20
0
30
0
0
SPLINE
5
12E
100
AcDbEntity
8
1
62
256
6
ByLayer
370
13
48
1
60
0
100
AcDbSpline
70
4
71
3
72
8
73
4
40
0
40
0
40
0
40
0
40
1
40
1
40
1
40
1
41
1
10
110.160833750314
20
13.0287138858965
30
0
41
1
10
111.773889166876
20
8.69008398642615
30
0
41
1
10
113.386944583438
20
4.34712849115959
30
0
41
1
10
115
20
0
30
0
0
SPLINE
5
12F
100
AcDbEntity
8
1
62
256
6
ByLayer
370
13
48
1
60
0
100
AcDbSpline
70
4
71
3
72
8
73
4
40
0
40
0
40
0
40
0
40
1
40
1
40
1
40
1
41
1
10
110.160833750314
20
13.0880730427618
30
0
41
1
10
111.773889166876
20
8.72160849082428
30
0
41
1
10
113.386944583438
20
4.35886640967414
30
0
41
1
10
115
20
3.126E-13
30
0
0
SPLINE
5
130
100
AcDbEntity
8
1
62
256
6
ByLayer
370
13
48
1
60
0
100
AcDbSpline
70
4
71
3
72
8
73
4
40
0
40
0
40
0
40
0
40
1
40
1
40
1
40
1
41
1
10
110.160833750314
20
-11.7447179662647
30
0
41
1
10
111.773889166876
20
-7.81976018024292
30
0
41
1
10
113.386944583438
20
-3.90480839209434
30
0
41
1
10
115
20
8.242E-13
30
0
0
SPLINE
5
131
100
AcDbEntity
8
1
62
256
6
ByLayer
370
13
48
1
60
0
100
AcDbSpline
70
4
71
3
72
8
73
4
40
0
40
0
40
0
40
0
40
1
40
1
40
1
40
1
41
1
10
110.160833750314
20
2.80789949091638
30
0
41
1
10
111.773889166876
20
1.85097034606508
30
0
41
1
10
113.386944583438
20
0.914992971918082
30
0
41
1
10
115
20
5.68E-14
30
0
0
SPLINE
5
132
100
AcDbEntity
8
1
62
256
6
ByLayer
370
13
48
1
60
0
100
AcDbSpline
70
4
71
3
72
8
73
4
40
0
40
0
40
0
40
0
40
1
40
1
40
1
40
1
41
1
10
110.160833750314
20
2.4979328526924
30
0
41
1
10
111.773889166876
20
1.68635303736352
30
0
41
1
10
113.386944583438
20
0.85369892170263
30
0
41
1
10
115
20
5.68E-14
30
0
0
SPLINE
5
133
100
AcDbEntity
8
1
62
256
6
ByLayer
370
13
48
1
60
0
100
AcDbSpline
70
4
71
3
72
8
73
4
40
0
40
0
40
0
40
0
40
1
40
1
40
1
40
1
41
1
10
110.160833750314
20
-8.52207443929953
30
0
41
1
10
111.773889166876
20
-5.69784439099809
30
0
41
1
10
113.386944583438
20
-2.85711958605972
30
0
41
1
10
115
20
5.969E-13
30
0
0
SPLINE
5
134
100
AcDbEntity
8
1
62
256
6
ByLayer
370
13
48
1
60
0
100
AcDbSpline
70
4
71
3
72
8
73
4
40
0
40
0
40
0
40
0
40
1
40
1
40
1
40
1
41
1
10
110.160833750314
20
-10.4252264764479
30
0
41
1
10
111.773889166876
20
-6.93684108029561
30
0
41
1
10
113.386944583438
20
-3.46172495133081
30
0
41
1
10
115
20
2.274E-13
30
0
0
SPLINE
5
135
100
AcDbEntity
8
1
62
256
6
ByLayer
370
13
48
1
60
0
100
AcDbSpline
70
4
71
3
72
8
73
4
40
0
40
0
40
0
40
0
40
1
40
1
40
1
40
1
41
1
10
110.160833750314
20
-8.76244720268332
30
0
41
1
10
111.773889166876
20
-5.82550173380167
30
0
41
1
10
113.386944583438
20
-2.90465186344858
30
0
41
1
10
115
20
1.99E-13
30
0
0
SPLINE
5
136
100
AcDbEntity
8
1
62
256
6
ByLayer
370
13
48
1
60
0
100
AcDbSpline
70
4
71
3
72
8
73
4
40
0
40
0
40
0
40
0
40
1
40
1
40
1
40
1
41
1
10
110.160833750314
20
11.9751236349456
30
0
41
1
10
111.773889166876
20
7.97409811208823
30
0
41
1
10
113.386944583438
20
3.98234353226084
30
0
41
1
10
115
20
2.842E-13
30
0
0
SPLINE
5
137
100
AcDbEntity
8
1
62
256
6
ByLayer
370
13
48
1
60
0
100
AcDbSpline
70
4
71
3
72
8
73
4
40
0
40
0
40
0
40
0
40
1
40
1
40
1
40
1
41
1
10
110.160833750314
20
-0.794255865427402
30
0
41
1
10
111.773889166876
20
-0.550911986398148
30
0
41
1
10
113.386944583438
20
-0.286156847789357
30
0
41
1
10
115
20
-2.84E-14
30
0
0
SPLINE
5
138
100
AcDbEntity
8
1
62
256
6
ByLayer
370
13
48
1
60
0
100
AcDbSpline
70
4
71
3
72
8
73
4
40
0
40
0
40
0
40
0
40
1
40
1
40
1
40
1
41
1
10
110.160833750314
20
7.97496718393364
30
0
41
1
10
111.773889166876
20
5.33380471349838
30
0
41
1
10
113.386944583438
20
2.67545112626863
30
0
41
1
10
115
20
1.137E-13
30
0
0
SPLINE
5
139
100
AcDbEntity
8
1
62
256
6
ByLayer
370
13
48
1
60
0
100
AcDbSpline
70
4
71
3
72
8
73
4
40
0
40
0
40
0
40
0
40
1
40
1
40
1
40
1
41
1
10
110.160833750314
20
8.90728536023693
30
0
41
1
10
111.773889166876
20
5.95411221557646
30
0
41
1
10
113.386944583438
20
2.98498226898616
30
0
41
1
10
115
20
0
30
0
0
SPLINE
5
13A
100
AcDbEntity
8
1
62
256
6
ByLayer
370
13
48
1
60
0
100
AcDbSpline
70
4
71
3
72
8
73
4
40
0
40
0
40
0
40
0
40
1
40
1
40
1
40
1
41
1
10
110.160833750314
20
-12.6774727062527
30
0
41
1
10
111.773889166876
20
-8.44518577159943
30
0
41
1
10
113.386944583438
20
-4.21931208231879
30
0
41
1
10
115
20
2.842E-13
30
0
0
SPLINE
5
13B
100
AcDbEntity
8
1
62
256
6
ByLayer
370
13
48
1
60
0
100
AcDbSpline
70
4
71
3
72
8
73
4
40
0
40
0
40
0
40
0
40
1
40
1
40
1
40
1
41
1
10
110.160833750314
20
13.2154209480287
30
0
41
1
10
111.773889166876
20
8.81263092041704
30
0
41
1
10
113.386944583438
20
4.40743901658243
30
0
41
1
10
115
20
0
30
0
0
SPLINE
5
13C
100
AcDbEntity
8
1
62
256
6
ByLayer
370
13
48
1
60
0
100
AcDbSpline
70
4
71
3
72
8
73
4
40
0
40
0
40
0
40
0
40
1
40
1
40
1
40
1
41
1
10
110.160833750314
20
-12.5785681127255
30
0
41
1
10
111.773889166876
20
-8.39265944780547
30
0
41
1
10
113.386944583438
20
-4.19975429004498
30
0
41
1
10
115
20
2.842E-13
30
0
0
SPLINE
5
13D
100
AcDbEntity
8
1
62
256
6
ByLayer
370
13
48
1
60
0
100
AcDbSpline
70
4
71
3
72
8
73
4
40
0
40
0
40
0
40
0
40
1
40
1
40
1
40
1
41
1
10
110.160833750314
20
-6.81113308615406
30
0
41
1
10
111.773889166876
20
-4.52233695453674
30
0
41
1
10
113.386944583438
20
-2.25193274777064
30
0
41
1
10
115
20
1.421E-13
30
0
0
SPLINE
5
13E
100
AcDbEntity
8
1
62
256
6
ByLayer
370
13
48
1
60
0
100
AcDbSpline
70
4
71
3
72
8
73
4
40
0
40
0
40
0
40
0
40
1
40
1
40
1
40
1
41
1
10
110.160833750314
20
-13.2880261418385
30
0
41
1
10
111.773889166876
20
-8.85796509602099
30
0
41
1
10
113.386944583438
20
-4.42857118952347
30
0
41
1
10
115
20
9.379E-13
30
0
0
SPLINE
5
13F
100
AcDbEntity
8
1
62
256
6
ByLayer
370
13
48
1
60
0
100
AcDbSpline
70
4
71
3
72
8
73
4
40
0
40
0
40
0
40
0
40
1
40
1
40
1
40
1
41
1
10
110.160833750314
20
4.81670109890737
30
0
41
1
10
111.773889166876
20
3.23112357237406
30
0
41
1
10
113.386944583438
20
1.62553766221717
30
0
41
1
10
115
20
0
30
0
0
SPLINE
5
140
100
AcDbEntity
8
1
62
256
6
ByLayer
370
13
48
1
60
0
100
AcDbSpline
70
4
71
3
72
8
73
4
40
0
40
0
40
0
40
0
40
1
40
1
40
1
40
1
41
1
10
110.160833750314
20
6.20273454759607
30
0
41
1
10
111.773889166876
20
4.11618691536353
30
0
41
1
10
113.386944583438
20
2.04858459812775
30
0
41
1
10
115
20
-4.263E-13
30
0
0
SPLINE
5
141
100
AcDbEntity
8
1
62
256
6
ByLayer
370
13
48
1
60
0
100
AcDbSpline
70
4
71
3
72
8
73
4
40
0
40
0
40
0
40
0
40
1
40
1
40
1
40
1
41
1
10
110.160833750314
20
9.76612596559738
30
0
41
1
10
111.773889166876
20
6.52530332752809
30
0
41
1
10
113.386944583438
20
3.2698898325142
30
0
41
1
10
115
20
1.137E-13
30
0
0
SPLINE
5
142
100
AcDbEntity
8
1
62
256
6
ByLayer
370
13
48
1
60
0
100
AcDbSpline
70
4
71
3
72
8
73
4
40
0
40
0
40
0
40
0
40
1
40
1
40
1
40
1
41
1
10
110.160833750314
20
-10.2259719411433
30
0
41
1
10
111.773889166876
20
-6.83102083610285
30
0
41
1
10
113.386944583438
20
-3.42232355780442
30
0
41
1
10
115
20
7.105E-13
30
0
0
SPLINE
5
143
100
AcDbEntity
8
1
62
256
6
ByLayer
370
13
48
1
60
0
100
AcDbSpline
70
4
71
3
72
8
73
4
40
0
40
0
40
0
40
0
40
1
40
1
40
1
40
1
41
1
10
110.160833750314
20
-10.9547410578093
30
0
41
1
10
111.773889166876
20
-7.31531376580497
30
0
41
1
10
113.386944583438
20
-3.66369061035644
30
0
41
1
10
115
20
7.674E-13
30
0
0
SPLINE
5
144
100
AcDbEntity
8
1
62
256
6
ByLayer
370
13
48
1
60
0
100
AcDbSpline
70
4
71
3
72
8
73
4
40
0
40
0
40
0
40
0
40
1
40
1
40
1
40
1
41
1
10
110.160833750314
20
12.8218363005601
30
0
41
1
10
111.773889166876
20
8.54221739681753
30
0
41
1
10
113.386944583438
20
4.26822194291566
30
0
41
1
10
115
20
3.126E-13
30
0
0
SPLINE
5
145
100
AcDbEntity
8
1
62
256
6
ByLayer
370
13
48
1
60
0
100
AcDbSpline
70
4
71
3
72
8
73
4
40
0
40
0
40
0
40
0
40
1
40
1
40
1
40
1
41
1
10
110.160833750314
20
-13.2736608881878
30
0
41
1
10
111.773889166876
20
-8.85033598661639
30
0
41
1
10
113.386944583438
20
-4.42573054646695
30
0
41
1
10
115
20
9.095E-13
30
0
0
SPLINE
5
146
100
AcDbEntity
8
1
62
256
6
ByLayer
370
13
48
1
60
0
100
AcDbSpline
70
4
71
3
72
8
73
4
40
0
40
0
40
0
40
0
40
1
40
1
40
1
40
1
41
1
10
110.160833750314
20
10.7340872906631
30
0
41
1
10
111.773889166876
20
7.14340319160993
30
0
41
1
10
113.386944583438
20
3.56533224989366
30
0
41
1
10
115
20
2.558E-13
30
0
0
SPLINE
5
147
100
AcDbEntity
8
1
62
256
6
ByLayer
370
13
48
1
60
0
100
AcDbSpline
70
4
71
3
72
8
73
4
40
0
40
0
40
0
40
0
40
1
40
1
40
1
40
1
41
1
10
110.160833750314
20
7.24414463727496
30
0
41
1
10
111.773889166876
20
4.81144634679646
30
0
41
1
10
113.386944583438
20
2.39670326461874
30
0
41
1
10
115
20
1.705E-13
30
0
0
LINE
5
7D
100
AcDbEntity
8
80
62
256
6
ByLayer
370
18
48
1
60
0
100
AcDbLine
10
0
20
0
30
0
11
-5
21
0
31
0
39
0
210
0
220
0
230
1
0
LINE
5
7E
100
AcDbEntity
8
4
62
256
6
ByLayer
370
18
48
0.05
60
0
100
AcDbLine
10
-5
20
0
30
0
11
120
21
0
31
0
39
0
210
0
220
0
230
1
0
LINE
5
80
100
AcDbEntity
8
81
62
256
6
ByLayer
370
18
48
1
60
0
100
AcDbLine
10
115
20
0
30
0
11
120
21
0
31
0
39
0
210
0
220
0
230
1
0
LINE
5
81
100
AcDbEntity
8
SK4
62
256
6
ByLayer
370
18
48
0.05
60
0
100
AcDbLine
10
-65
20
0
30
0
11
120
21
0
31
0
39
0
210
0
220
0
230
1
0
LINE
5
83
100
AcDbEntity
8
1
62
256
6
ByLayer
370
18
48
1
60
0
100
AcDbLine
10
10
20
-13.2
30
0
11
47.447406
21
-13.2
31
0
39
0
210
0
220
0
230
1
0
LINE
5
84
100
AcDbEntity
8
1
62
256
6
ByLayer
370
18
48
1
60
0
100
AcDbLine
10
47.447406
20
13.2
30
0
11
10
21
13.2
31
0
39
0
210
0
220
0
230
1
0
LINE
5
85
100
AcDbEntity
8
1
62
256
6
ByLayer
370
18
48
1
60
0
100
AcDbLine
10
115
20
0
30
0
11
110.160834
21
13.2955
31
0
39
0
210
0
220
0
230
1
0
LINE
5
86
100
AcDbEntity
8
1
62
256
6
ByLayer
370
18
48
1
60
0
100
AcDbLine
10
110.160834
20
-13.2955
30
0
11
115
21
0
31
0
39
0
210
0
220
0
230
1
0
LINE
5
87
100
AcDbEntity
8
1
62
256
6
ByLayer
370
18
48
1
60
0
100
AcDbLine
10
10
20
13.2
30
0
11
0
21
15.875
31
0
39
0
210
0
220
0
230
1
0
LINE
5
88
100
AcDbEntity
8
1
62
256
6
ByLayer
370
18
48
1
60
0
100
AcDbLine
10
0
20
-15.875
30
0
11
10
21
-13.2
31
0
39
0
210
0
220
0
230
1
0
LINE
5
89
100
AcDbEntity
8
1
62
256
6
ByLayer
370
18
48
1
60
0
100
AcDbLine
10
115
20
0
30
0
11
110.160834
21
13.2955
31
0
39
0
210
0
220
0
230
1
0
LINE
5
8A
100
AcDbEntity
8
1
62
256
6
ByLayer
370
18
48
1
60
0
100
AcDbLine
10
110.160834
20
-13.2955
30
0
11
115
21
0
31
0
39
0
210
0
220
0
230
1
0
LINE
5
8B
100
AcDbEntity
8
1
62
256
6
ByLayer
370
18
48
1
60
0
100
AcDbLine
10
110.160834
20
13.2955
30
0
11
97.9
21
13.2955
31
0
39
0
210
0
220
0
230
1
0
LINE
5
8C
100
AcDbEntity
8
1
62
256
6
ByLayer
370
18
48
1
60
0
100
AcDbLine
10
97.9
20
-13.2955
30
0
11
110.160834
21
-13.2955
31
0
39
0
210
0
220
0
230
1
0
LINE
5
8D
100
AcDbEntity
8
SK1
62
256
6
ByLayer
370
18
48
1
60
0
100
AcDbLine
10
-60
20
-14.875
30
0
11
-59
21
-15.875
31
0
39
0
210
0
220
0
230
1
0
LINE
5
8F
100
AcDbEntity
8
SK1
62
256
6
ByLayer
370
18
48
1
60
0
100
AcDbLine
10
-59
20
15.875
30
0
11
-60
21
14.875
31
0
39
0
210
0
220
0
230
1
0
LINE
5
90
100
AcDbEntity
8
SK1
62
256
6
ByLayer
370
18
48
1
60
0
100
AcDbLine
10
-59
20
-15.875
30
0
11
0
21
-15.875
31
0
39
0
210
0
220
0
230
1
0
LINE
5
91
100
AcDbEntity
8
SK1
62
256
6
ByLayer
370
18
48
1
60
0
100
AcDbLine
10
0
20
15.875
30
0
11
-59
21
15.875
31
0
39
0
210
0
220
0
230
1
0
LINE
5
92
100
AcDbEntity
8
1
62
256
6
ByLayer
370
18
48
1
60
0
100
AcDbLine
10
0
20
15.875
30
0
11
0
21
-15.875
31
0
39
0
210
0
220
0
230
1
0
LINE
5
93
100
AcDbEntity
8
1
62
256
6
ByLayer
370
18
48
1
60
0
100
AcDbLine
10
110.160834
20
13.2955
30
0
11
110.160834
21
12.873317
31
0
39
0
210
0
220
0
230
1
0
LINE
5
94
100
AcDbEntity
8
1
62
256
6
ByLayer
370
18
48
1
60
0
100
AcDbLine
10
110.160834
20
-13.2955
30
0
11
110.160834
21
-1.897644
31
0
39
0
210
0
220
0
230
1
0
LINE
5
95
100
AcDbEntity
8
1
62
256
6
ByLayer
370
18
48
1
60
0
100
AcDbLine
10
10
20
-13.2
30
0
11
10
21
-6.520749
31
0
39
0
210
0
220
0
230
1
0
LINE
5
96
100
AcDbEntity
8
1
62
256
6
ByLayer
370
18
48
1
60
0
100
AcDbLine
10
10
20
13.2
30
0
11
10
21
8.420277
31
0
39
0
210
0
220
0
230
1
0
LINE
5
97
100
AcDbEntity
8
SK1
62
256
6
ByLayer
370
18
48
1
60
0
100
AcDbLine
10
-51.368099
20
-7.245688
30
0
11
-51.368099
21
7.245688
31
0
39
0
210
0
220
0
230
1
0
LINE
5
98
100
AcDbEntity
8
SK1
62
256
6
ByLayer
370
18
48
1
60
0
100
AcDbLine
10
-60
20
-14.875
30
0
11
-60
21
14.875
31
0
39
0
210
0
220
0
230
1
0
LINE
5
99
100
AcDbEntity
8
SK1
62
256
6
ByLayer
370
18
48
1
60
0
100
AcDbLine
10
0
20
15.875
30
0
11
0
21
-15.875
31
0
39
0
210
0
220
0
230
1
0
LINE
5
9A
100
AcDbEntity
8
SK1
62
256
6
ByLayer
370
18
48
1
60
0
100
AcDbLine
10
-59
20
-15.875
30
0
11
-59
21
15.875
31
0
39
0
210
0
220
0
230
1
0
LINE
5
9B
100
AcDbEntity
8
SK1
62
256
6
ByLayer
370
18
48
1
60
0
100
AcDbLine
10
-8.876645
20
-7.245688
30
0
11
-51.368099
21
-7.245688
31
0
39
0
210
0
220
0
230
1
0
LINE
5
9C
100
AcDbEntity
8
SK1
62
256
6
ByLayer
370
18
48
1
60
0
100
AcDbLine
10
-51.368099
20
7.245688
30
0
11
-8.876645
21
7.245688
31
0
39
0
210
0
220
0
230
1
0
LINE
5
9D
100
AcDbEntity
8
SK1
62
256
6
ByLayer
370
18
48
1
60
0
100
AcDbLine
10
-8.876645
20
-7.245688
30
0
11
-8.876645
21
7.245688
31
0
39
0
210
0
220
0
230
1
0
LINE
5
9E
100
AcDbEntity
8
1
62
256
6
ByLayer
370
18
48
1
60
0
100
AcDbLine
10
110.160834
20
13.2955
30
0
11
110.160834
21
-13.2955
31
0
39
0
210
0
220
0
230
1
0
LINE
5
9F
100
AcDbEntity
8
1
62
256
6
ByLayer
370
18
48
1
60
0
100
AcDbLine
10
110.160834
20
13.2955
30
0
11
110.160834
21
-13.2955
31
0
39
0
210
0
220
0
230
1
0
LINE
5
A0
100
AcDbEntity
8
1
62
256
6
ByLayer
370
18
48
1
60
0
100
AcDbLine
10
110.160834
20
13.2955
30
0
11
110.160834
21
-13.2955
31
0
39
0
210
0
220
0
230
1
0
LINE
5
A1
100
AcDbEntity
8
1
62
256
6
ByLayer
370
18
48
1
60
0
100
AcDbLine
10
97.9
20
13.2955
30
0
11
97.9
21
-13.2955
31
0
39
0
210
0
220
0
230
1
0
LINE
5
A2
100
AcDbEntity
8
1
62
256
6
ByLayer
370
18
48
1
60
0
100
AcDbLine
10
97.9
20
13.2955
30
0
11
97.9
21
-13.2955
31
0
39
0
210
0
220
0
230
1
0
LINE
5
A3
100
AcDbEntity
8
1
62
256
6
ByLayer
370
18
48
1
60
0
100
AcDbLine
10
110.160834
20
13.2955
30
0
11
110.160834
21
-13.2955
31
0
39
0
210
0
220
0
230
1
0
LINE
5
A4
100
AcDbEntity
8
1
62
256
6
ByLayer
370
18
48
1
60
0
100
AcDbLine
10
97.9
20
13.2955
30
0
11
97.9
21
-13.2955
31
0
39
0
210
0
220
0
230
1
0
LINE
5
A5
100
AcDbEntity
8
1
62
256
6
ByLayer
370
18
48
1
60
0
100
AcDbLine
10
110.160834
20
13.2955
30
0
11
110.160834
21
-13.2955
31
0
39
0
210
0
220
0
230
1
0
LINE
5
A6
100
AcDbEntity
8
SK2
62
256
6
ByLayer
370
13
48
1
60
0
100
AcDbLine
10
-66.5
20
-15.875
30
0
11
-66.5
21
44.149683
31
0
39
0
210
0
220
0
230
1
0
LINE
5
A8
100
AcDbEntity
8
SK2
62
256
6
ByLayer
370
13
48
1
60
0
100
AcDbLine
10
-61.5875
20
15.875
30
0
11
-68.5
21
15.875
31
0
39
0
210
0
220
0
230
1
0
LINE
5
A9
100
AcDbEntity
8
SK2
62
256
6
ByLayer
370
13
48
1
60
0
100
AcDbLine
10
-61.5875
20
-15.875
30
0
11
-68.5
21
-15.875
31
0
39
0
210
0
220
0
230
1
0
LINE
5
AA
100
AcDbEntity
8
1
62
256
6
ByLayer
370
18
48
1
60
1
100
AcDbLine
10
-66.5
20
15.875
30
0
11
-66.039216
21
12.375002
31
0
39
0
210
0
220
0
230
1
0
LINE
5
AB
100
AcDbEntity
8
1
62
256
6
ByLayer
370
18
48
1
60
1
100
AcDbLine
10
-66.039216
20
12.375002
30
0
11
-66.960784
21
12.374998
31
0
39
0
210
0
220
0
230
1
0
LINE
5
AC
100
AcDbEntity
8
1
62
256
6
ByLayer
370
18
48
1
60
1
100
AcDbLine
10
-66.960784
20
12.374998
30
0
11
-66.5
21
15.875
31
0
39
0
210
0
220
0
230
1
0
LINE
5
AD
100
AcDbEntity
8
1
62
256
6
ByLayer
370
18
48
1
60
1
100
AcDbLine
10
-66.5
20
-15.875
30
0
11
-66.960784
21
-12.375002
31
0
39
0
210
0
220
0
230
1
0
LINE
5
AE
100
AcDbEntity
8
1
62
256
6
ByLayer
370
18
48
1
60
1
100
AcDbLine
10
-66.960784
20
-12.375002
30
0
11
-66.039216
21
-12.374998
31
0
39
0
210
0
220
0
230
1
0
LINE
5
AF
100
AcDbEntity
8
1
62
256
6
ByLayer
370
18
48
1
60
1
100
AcDbLine
10
-66.039216
20
-12.374998
30
0
11
-66.5
21
-15.875
31
0
39
0
210
0
220
0
230
1
0
LINE
5
B0
100
AcDbEntity
8
2
62
256
6
ByLayer
370
13
48
1
60
0
100
AcDbLine
10
122.5
20
-13.2955
30
0
11
122.5
21
41.570183
31
0
39
0
210
0
220
0
230
1
0
LINE
5
B2
100
AcDbEntity
8
2
62
256
6
ByLayer
370
13
48
1
60
0
100
AcDbLine
10
111.748334
20
13.2955
30
0
11
124.5
21
13.2955
31
0
39
0
210
0
220
0
230
1
0
LINE
5
B3
100
AcDbEntity
8
2
62
256
6
ByLayer
370
13
48
1
60
0
100
AcDbLine
10
111.748334
20
-13.2955
30
0
11
124.5
21
-13.2955
31
0
39
0
210
0
220
0
230
1
0
LINE
5
B4
100
AcDbEntity
8
1
62
256
6
ByLayer
370
18
48
1
60
1
100
AcDbLine
10
122.5
20
13.2955
30
0
11
122.960784
21
9.795502
31
0
39
0
210
0
220
0
230
1
0
LINE
5
B5
100
AcDbEntity
8
1
62
256
6
ByLayer
370
18
48
1
60
1
100
AcDbLine
10
122.960784
20
9.795502
30
0
11
122.039216
21
9.795498
31
0
39
0
210
0
220
0
230
1
0
LINE
5
B6
100
AcDbEntity
8
1
62
256
6
ByLayer
370
18
48
1
60
1
100
AcDbLine
10
122.039216
20
9.795498
30
0
11
122.5
21
13.2955
31
0
39
0
210
0
220
0
230
1
0
LINE
5
B7
100
AcDbEntity
8
1
62
256
6
ByLayer
370
18
48
1
60
1
100
AcDbLine
10
122.5
20
-13.2955
30
0
11
122.039216
21
-9.795502
31
0
39
0
210
0
220
0
230
1
0
LINE
5
B8
100
AcDbEntity
8
1
62
256
6
ByLayer
370
18
48
1
60
1
100
AcDbLine
10
122.039216
20
-9.795502
30
0
11
122.960784
21
-9.795498
31
0
39
0
210
0
220
0
230
1
0
LINE
5
B9
100
AcDbEntity
8
1
62
256
6
ByLayer
370
18
48
1
60
1
100
AcDbLine
10
122.960784
20
-9.795498
30
0
11
122.5
21
-13.2955
31
0
39
0
210
0
220
0
230
1
0
LINE
5
BA
100
AcDbEntity
8
SK2
62
256
6
ByLayer
370
13
48
1
60
0
100
AcDbLine
10
115.542957
20
-1.491762
30
0
11
122.182423
21
-19.733545
31
0
39
0
210
0
220
0
230
1
0
LINE
5
BB
100
AcDbEntity
8
SK2
62
256
6
ByLayer
370
13
48
1
60
0
100
AcDbLine
10
115.542957
20
1.491762
30
0
11
122.182423
21
19.733545
31
0
39
0
210
0
220
0
230
1
0
LINE
5
BC
100
AcDbEntity
8
1
62
256
6
ByLayer
370
18
48
1
60
1
100
AcDbLine
10
121.498383
20
-17.85416
30
0
11
124.551575
21
-16.082064
31
0
39
0
210
0
220
0
230
1
0
LINE
5
BD
100
AcDbEntity
8
1
62
256
6
ByLayer
370
18
48
1
60
1
100
AcDbLine
10
124.551575
20
-16.082064
30
0
11
124.906196
21
-16.93267
31
0
39
0
210
0
220
0
230
1
0
LINE
5
BE
100
AcDbEntity
8
1
62
256
6
ByLayer
370
18
48
1
60
1
100
AcDbLine
10
124.906196
20
-16.93267
30
0
11
121.498383
21
-17.85416
31
0
39
0
210
0
220
0
230
1
0
LINE
5
BF
100
AcDbEntity
8
1
62
256
6
ByLayer
370
18
48
1
60
1
100
AcDbLine
10
121.498383
20
17.85416
30
0
11
124.906193
21
16.932671
31
0
39
0
210
0
220
0
230
1
0
LINE
5
C0
100
AcDbEntity
8
1
62
256
6
ByLayer
370
18
48
1
60
1
100
AcDbLine
10
124.906193
20
16.932671
30
0
11
124.551579
21
16.082063
31
0
39
0
210
0
220
0
230
1
0
LINE
5
C1
100
AcDbEntity
8
1
62
256
6
ByLayer
370
18
48
1
60
1
100
AcDbLine
10
124.551579
20
16.082063
30
0
11
121.498383
21
17.85416
31
0
39
0
210
0
220
0
230
1
0
LINE
5
14C
100
AcDbEntity
8
1
62
256
6
ByLayer
370
18
48
1
60
1
100
AcDbLine
10
-66.5
20
15.875
30
0
11
-66.039216
21
12.375002
31
0
39
0
210
0
220
0
230
1
0
LINE
5
14D
100
AcDbEntity
8
1
62
256
6
ByLayer
370
18
48
1
60
1
100
AcDbLine
10
-66.039216
20
12.375002
30
0
11
-66.960784
21
12.374998
31
0
39
0
210
0
220
0
230
1
0
LINE
5
14E
100
AcDbEntity
8
1
62
256
6
ByLayer
370
18
48
1
60
1
100
AcDbLine
10
-66.960784
20
12.374998
30
0
11
-66.5
21
15.875
31
0
39
0
210
0
220
0
230
1
0
LINE
5
150
100
AcDbEntity
8
1
62
256
6
ByLayer
370
18
48
1
60
1
100
AcDbLine
10
-66.5
20
-15.875
30
0
11
-66.960784
21
-12.375002
31
0
39
0
210
0
220
0
230
1
0
LINE
5
151
100
AcDbEntity
8
1
62
256
6
ByLayer
370
18
48
1
60
1
100
AcDbLine
10
-66.960784
20
-12.375002
30
0
11
-66.039216
21
-12.374998
31
0
39
0
210
0
220
0
230
1
0
LINE
5
152
100
AcDbEntity
8
1
62
256
6
ByLayer
370
18
48
1
60
1
100
AcDbLine
10
-66.039216
20
-12.374998
30
0
11
-66.5
21
-15.875
31
0
39
0
210
0
220
0
230
1
0
LINE
5
156
100
AcDbEntity
8
1
62
256
6
ByLayer
370
18
48
1
60
1
100
AcDbLine
10
122.5
20
13.2955
30
0
11
122.960784
21
9.795502
31
0
39
0
210
0
220
0
230
1
0
LINE
5
157
100
AcDbEntity
8
1
62
256
6
ByLayer
370
18
48
1
60
1
100
AcDbLine
10
122.960784
20
9.795502
30
0
11
122.039216
21
9.795498
31
0
39
0
210
0
220
0
230
1
0
LINE
5
158
100
AcDbEntity
8
1
62
256
6
ByLayer
370
18
48
1
60
1
100
AcDbLine
10
122.039216
20
9.795498
30
0
11
122.5
21
13.2955
31
0
39
0
210
0
220
0
230
1
0
LINE
5
15A
100
AcDbEntity
8
1
62
256
6
ByLayer
370
18
48
1
60
1
100
AcDbLine
10
122.5
20
-13.2955
30
0
11
122.039216
21
-9.795502
31
0
39
0
210
0
220
0
230
1
0
LINE
5
15B
100
AcDbEntity
8
1
62
256
6
ByLayer
370
18
48
1
60
1
100
AcDbLine
10
122.039216
20
-9.795502
30
0
11
122.960784
21
-9.795498
31
0
39
0
210
0
220
0
230
1
0
LINE
5
15C
100
AcDbEntity
8
1
62
256
6
ByLayer
370
18
48
1
60
1
100
AcDbLine
10
122.960784
20
-9.795498
30
0
11
122.5
21
-13.2955
31
0
39
0
210
0
220
0
230
1
0
LINE
5
15F
100
AcDbEntity
8
1
62
256
6
ByLayer
370
18
48
1
60
1
100
AcDbLine
10
121.498383
20
-17.85416
30
0
11
124.551575
21
-16.082064
31
0
39
0
210
0
220
0
230
1
0
LINE
5
160
100
AcDbEntity
8
1
62
256
6
ByLayer
370
18
48
1
60
1
100
AcDbLine
10
124.551575
20
-16.082064
30
0
11
124.906196
21
-16.93267
31
0
39
0
210
0
220
0
230
1
0
LINE
5
161
100
AcDbEntity
8
1
62
256
6
ByLayer
370
18
48
1
60
1
100
AcDbLine
10
124.906196
20
-16.93267
30
0
11
121.498383
21
-17.85416
31
0
39
0
210
0
220
0
230
1
0
LINE
5
163
100
AcDbEntity
8
1
62
256
6
ByLayer
370
18
48
1
60
1
100
AcDbLine
10
121.498383
20
17.85416
30
0
11
124.906193
21
16.932671
31
0
39
0
210
0
220
0
230
1
0
LINE
5
164
100
AcDbEntity
8
1
62
256
6
ByLayer
370
18
48
1
60
1
100
AcDbLine
10
124.906193
20
16.932671
30
0
11
124.551579
21
16.082063
31
0
39
0
210
0
220
0
230
1
0
LINE
5
165
100
AcDbEntity
8
1
62
256
6
ByLayer
370
18
48
1
60
1
100
AcDbLine
10
124.551579
20
16.082063
30
0
11
121.498383
21
17.85416
31
0
39
0
210
0
220
0
230
1
0
MTEXT
5
148
100
AcDbEntity
8
SK2
62
256
6
ByLayer
370
18
48
1
60
0
100
AcDbMText
10
-67.841114
20
27.533438
30
0
210
0
220
0
230
1
1
%%c
40
3
41
0
44
1.084337
50
90
71
7
72
5
7
iso_b_vert
0
MTEXT
5
14B
100
AcDbEntity
8
SK2
62
256
6
ByLayer
370
18
48
1
60
0
100
AcDbMText
10
-67.841114
20
33.51
30
0
210
0
220
0
230
1
1
\W0.7022;31.750
40
3
41
0
44
1.084337
50
90
71
7
72
5
7
iso_b_vert
0
MTEXT
5
154
100
AcDbEntity
8
2
62
256
6
ByLayer
370
18
48
1
60
0
100
AcDbMText
10
121.158886
20
24.953938
30
0
210
0
220
0
230
1
1
%%c
40
3
41
0
44
1.084337
50
90
71
7
72
5
7
iso_b_vert
0
MTEXT
5
155
100
AcDbEntity
8
2
62
256
6
ByLayer
370
18
48
1
60
0
100
AcDbMText
10
121.158886
20
30.9305
30
0
210
0
220
0
230
1
1
\W0.7440;26.591
40
3
41
0
44
1.084337
50
90
71
7
72
5
7
iso_b_vert
0
MTEXT
5
15E
100
AcDbEntity
8
SK2
62
256
6
ByLayer
370
18
48
1
60
0
100
AcDbMText
10
134.909114
20
3.734657
30
0
210
0
220
0
230
1
1
\W0.7071;140%%d
40
3
41
0
44
1.084337
50
270
71
7
72
5
7
iso_b_vert
0
MTEXT
5
167
100
AcDbEntity
8
SK6
62
256
6
ByLayer
370
18
48
1
60
0
100
AcDbMText
10
-1.50794
20
-67.114886
30
0
210
0
220
0
230
1
1
\W0.7696;H8531.3/64
40
3
41
0
44
1.084337
50
0
71
7
72
5
7
iso_b_vert
0
HATCH
5
14F
100
AcDbEntity
8
SK2
62
256
6
ByLayer
370
13
48
1
60
0
100
AcDbHatch
10
0
20
0
30
0
210
0
220
0
230
1
2
ANSI31
70
0
71
0
91
1
92
5
93
3
72
1
10
-66.5
20
15.875
11
-66.0392162584472
21
12.3750016925532
72
1
10
-66.0392162584472
20
12.3750016925532
11
-66.9607837415528
21
12.3749983074468
72
1
10
-66.9607837415528
20
12.3749983074468
11
-66.5
21
15.875
97
0
75
0
76
1
52
0
41
0.0062
77
0
78
1
53
45
43
0
44
0
45
-0.0139193969876572
46
0.0139193969876572
79
0
47
0
98
1
10
0
20
0
0
HATCH
5
153
100
AcDbEntity
8
SK2
62
256
6
ByLayer
370
13
48
1
60
0
100
AcDbHatch
10
0
20
0
30
0
210
0
220
0
230
1
2
ANSI31
70
0
71
0
91
1
92
5
93
3
72
1
10
-66.5
20
-15.875
11
-66.9607837415528
21
-12.3750016925532
72
1
10
-66.9607837415528
20
-12.3750016925532
11
-66.0392162584472
21
-12.3749983074468
72
1
10
-66.0392162584472
20
-12.3749983074468
11
-66.5
21
-15.875
97
0
75
0
76
1
52
0
41
0.0062
77
0
78
1
53
45
43
0
44
0
45
-0.0139193969876572
46
0.0139193969876572
79
0
47
0
98
1
10
0
20
0
0
HATCH
5
159
100
AcDbEntity
8
2
62
256
6
ByLayer
370
13
48
1
60
0
100
AcDbHatch
10
0
20
0
30
0
210
0
220
0
230
1
2
ANSI31
70
0
71
0
91
1
92
5
93
3
72
1
10
122.5
20
13.2955
11
122.960783741553
21
9.79550169255319
72
1
10
122.960783741553
20
9.79550169255319
11
122.039216258447
21
9.79549830744682
72
1
10
122.039216258447
20
9.79549830744682
11
122.5
21
13.2955
97
0
75
0
76
1
52
0
41
0.0062
77
0
78
1
53
45
43
0
44
0
45
-0.0139193969876572
46
0.0139193969876572
79
0
47
0
98
1
10
0
20
0
0
HATCH
5
15D
100
AcDbEntity
8
2
62
256
6
ByLayer
370
13
48
1
60
0
100
AcDbHatch
10
0
20
0
30
0
210
0
220
0
230
1
2
ANSI31
70
0
71
0
91
1
92
5
93
3
72
1
10
122.5
20
-13.2955
11
122.039216258447
21
-9.79550169255319
72
1
10
122.039216258447
20
-9.79550169255319
11
122.960783741553
21
-9.79549830744682
72
1
10
122.960783741553
20
-9.79549830744682
11
122.5
21
-13.2955
97
0
75
0
76
1
52
0
41
0.0062
77
0
78
1
53
45
43
0
44
0
45
-0.0139193969876572
46
0.0139193969876572
79
0
47
0
98
1
10
0
20
0
0
HATCH
5
162
100
AcDbEntity
8
SK2
62
256
6
ByLayer
370
13
48
1
60
0
100
AcDbHatch
10
0
20
0
30
0
210
0
220
0
230
1
2
ANSI31
70
0
71
0
91
1
92
5
93
3
72
1
10
121.498382723188
20
-17.8541597949322
11
124.551575425693
21
-16.0820638240607
72
1
10
124.551575425693
20
-16.0820638240607
11
124.906195833975
21
-16.9326700737196
72
1
10
124.906195833975
20
-16.9326700737196
11
121.498382723188
21
-17.8541597949322
97
0
75
0
76
1
52
0
41
0.0062
77
0
78
1
53
45
43
0
44
0
45
-0.0139193969876572
46
0.0139193969876572
79
0
47
0
98
1
10
0
20
0
0
HATCH
5
166
100
AcDbEntity
8
SK2
62
256
6
ByLayer
370
13
48
1
60
0
100
AcDbHatch
10
0
20
0
30
0
210
0
220
0
230
1
2
ANSI31
70
0
71
0
91
1
92
5
93
3
72
1
10
121.498382723188
20
17.8541597949322
11
124.906192709519
21
16.9326713763016
72
1
10
124.906192709519
20
16.9326713763016
11
124.551578550149
21
16.0820625214787
72
1
10
124.551578550149
20
16.0820625214787
11
121.498382723188
21
17.8541597949322
97
0
75
0
76
1
52
0
41
0.0062
77
0
78
1
53
45
43
0
44
0
45
-0.0139193969876572
46
0.0139193969876572
79
0
47
0
98
1
10
0
20
0
0
DIMENSION
5
16A
100
AcDbEntity
8
SK2
62
256
6
ByLayer
370
18
48
1
60
0
100
AcDbDimension
2
_U0
10
115
20
-45.952229
30
0
11
27.5
21
-45.952229
31
0
70
32
71
1
72
1
41
1
210
0
220
0
230
1
3
Standard
100
AcDbAlignedDimension
13
-60
23
-15.875
33
0
14
115
24
0
34
0
50
0
100
AcDbRotatedDimension
1001
ACAD
1000
DSTYLE
1002
{
1070
   371
1070
    13
1070
   372
1070
    13
1070
     3
1000

1070
   170
1070
     0
1070
   144
1040
1.0
1070
   277
1070
     2
1070
   284
1070
     8
1070
   278
1070
    46
1070
   146
1040
1.166667
1070
   345
1005
16
1070
   347
1005
16
1070
   346
1005
16
1070
   344
1005
0
1070
   343
1005
0
1070
   172
1070
     1
1070
    76
1070
     0
1070
    75
1070
     0
1070
   282
1070
     0
1070
   281
1070
     0
1070
    71
1070
     0
1070
    74
1070
     0
1070
   279
1070
     0
1070
   173
1070
     1
1070
   340
1005
149
1070
   271
1070
     2
1070
   272
1070
     3
1070
    77
1070
     1
1070
    73
1070
     1
1070
   171
1070
     3
1070
   274
1070
     4
1070
   177
1070
     2
1070
   176
1070
     2
1070
   178
1070
     2
1070
    78
1070
     8
1070
    48
1040
-0.1
1070
    41
1040
3.5
1070
   147
1040
1.5
1070
    42
1040
1.5875
1070
    44
1040
2.0
1070
   140
1040
3.0
1002
}
1001
ACAD_DSTYLE_DIM_LINETYPE
1070
   380
1005
16
1001
ACAD_DSTYLE_DIM_EXT1_LINETYPE
1070
   381
1005
16
1001
ACAD_DSTYLE_DIM_EXT2_LINETYPE
1070
   382
1005
16
0
DIMENSION
5
183
100
AcDbEntity
8
SK2
62
256
6
ByLayer
370
18
48
1
60
0
100
AcDbDimension
2
_U1
10
3
20
-35.952229
30
0
11
59
21
-35.952229
31
0
70
32
71
1
72
1
41
1
210
0
220
0
230
1
3
Standard
100
AcDbAlignedDimension
13
115
23
0
33
0
14
3
24
-13.2955
34
0
50
0
100
AcDbRotatedDimension
1001
ACAD
1000
DSTYLE
1002
{
1070
   371
1070
    13
1070
   372
1070
    13
1070
     3
1000

1070
   170
1070
     0
1070
   144
1040
1.0
1070
   277
1070
     2
1070
   284
1070
     8
1070
   278
1070
    46
1070
   146
1040
1.166667
1070
   345
1005
16
1070
   347
1005
16
1070
   346
1005
16
1070
   344
1005
0
1070
   343
1005
0
1070
   172
1070
     1
1070
    76
1070
     0
1070
    75
1070
     0
1070
   282
1070
     0
1070
   281
1070
     0
1070
    71
1070
     0
1070
    74
1070
     0
1070
   279
1070
     0
1070
   173
1070
     1
1070
   340
1005
149
1070
   271
1070
     2
1070
   272
1070
     3
1070
    77
1070
     1
1070
    73
1070
     1
1070
   171
1070
     3
1070
   274
1070
     4
1070
   177
1070
     2
1070
   176
1070
     2
1070
   178
1070
     2
1070
    78
1070
     8
1070
    48
1040
-0.1
1070
    41
1040
3.5
1070
   147
1040
1.5
1070
    42
1040
1.5875
1070
    44
1040
2.0
1070
   140
1040
3.0
1002
}
1001
ACAD_DSTYLE_DIM_LINETYPE
1070
   380
1005
16
1001
ACAD_DSTYLE_DIM_EXT1_LINETYPE
1070
   381
1005
16
1001
ACAD_DSTYLE_DIM_EXT2_LINETYPE
1070
   382
1005
16
0
DIMENSION
5
19B
100
AcDbEntity
8
SK2
62
256
6
ByLayer
370
18
48
1
60
0
100
AcDbDimension
2
_U2
10
0
20
-35.952229
30
0
11
-30
21
-35.952229
31
0
70
32
71
1
72
1
41
1
210
0
220
0
230
1
3
Standard
100
AcDbAlignedDimension
13
-60
23
-15.875
33
0
14
0
24
-15.875
34
0
50
0
100
AcDbRotatedDimension
1001
ACAD
1000
DSTYLE
1002
{
1070
   371
1070
    13
1070
   372
1070
    13
1070
     3
1000

1070
   170
1070
     0
1070
   144
1040
1.0
1070
   277
1070
     2
1070
   284
1070
     8
1070
   278
1070
    46
1070
   146
1040
1.166667
1070
   345
1005
16
1070
   347
1005
16
1070
   346
1005
16
1070
   344
1005
0
1070
   343
1005
0
1070
   172
1070
     1
1070
    76
1070
     0
1070
    75
1070
     0
1070
   282
1070
     0
1070
   281
1070
     0
1070
    71
1070
     0
1070
    74
1070
     0
1070
   279
1070
     0
1070
   173
1070
     1
1070
   340
1005
149
1070
   271
1070
     2
1070
   272
1070
     3
1070
    77
1070
     1
1070
    73
1070
     1
1070
   171
1070
     3
1070
   274
1070
     4
1070
   177
1070
     2
1070
   176
1070
     2
1070
   178
1070
     2
1070
    78
1070
     8
1070
    48
1040
-0.1
1070
    41
1040
3.5
1070
   147
1040
1.5
1070
    42
1040
1.5875
1070
    44
1040
2.0
1070
   140
1040
3.0
1002
}
1001
ACAD_DSTYLE_DIM_LINETYPE
1070
   380
1005
16
1001
ACAD_DSTYLE_DIM_EXT1_LINETYPE
1070
   381
1005
16
1001
ACAD_DSTYLE_DIM_EXT2_LINETYPE
1070
   382
1005
16
0
DIMENSION
5
1B3
100
AcDbEntity
8
SK2
62
256
6
ByLayer
370
18
48
1
60
0
100
AcDbDimension
2
_U3
10
23
20
32.952229
30
0
11
69
21
32.952229
31
0
70
32
71
1
72
1
41
1
210
0
220
0
230
1
3
Standard
100
AcDbAlignedDimension
13
115
23
0
33
0
14
23
24
13.2955
34
0
50
0
100
AcDbRotatedDimension
1001
ACAD
1000
DSTYLE
1002
{
1070
   371
1070
    13
1070
   372
1070
    13
1070
     3
1000

1070
   170
1070
     0
1070
   144
1040
1.0
1070
   277
1070
     2
1070
   284
1070
     8
1070
   278
1070
    46
1070
   146
1040
1.166667
1070
   345
1005
16
1070
   347
1005
16
1070
   346
1005
16
1070
   344
1005
0
1070
   343
1005
0
1070
   172
1070
     1
1070
    76
1070
     0
1070
    75
1070
     0
1070
   282
1070
     0
1070
   281
1070
     0
1070
    71
1070
     0
1070
    74
1070
     0
1070
   279
1070
     0
1070
   173
1070
     1
1070
   340
1005
149
1070
   271
1070
     2
1070
   272
1070
     3
1070
    77
1070
     1
1070
    73
1070
     1
1070
   171
1070
     3
1070
   274
1070
     4
1070
   177
1070
     2
1070
   176
1070
     2
1070
   178
1070
     2
1070
    78
1070
     8
1070
    48
1040
-0.1
1070
    41
1040
3.5
1070
   147
1040
1.5
1070
    42
1040
1.5875
1070
    44
1040
2.0
1070
   140
1040
3.0
1002
}
1001
ACAD_DSTYLE_DIM_LINETYPE
1070
   380
1005
16
1001
ACAD_DSTYLE_DIM_EXT1_LINETYPE
1070
   381
1005
16
1001
ACAD_DSTYLE_DIM_EXT2_LINETYPE
1070
   382
1005
16
0
ENDSEC
0
SECTION
2
OBJECTS
0
DICTIONARY
5
23b
330
0
100
AcDbDictionary
280
0
281
1
3
ACAD_GROUP
350
23c
3
ACAD_MLINESTYLE
350
23d
0
DICTIONARY
5
23c
330
0
100
AcDbDictionary
280
0
281
1
0
DICTIONARY
5
23d
330
0
100
AcDbDictionary
280
0
281
1
3
Standard
350
18
0
MLINESTYLE
5
18
330
23d
100
AcDbMlineStyle
2
Standard
70
0
3

62
256
51
90
52
90
71
2
49
-0.5
62
256
6
ByLayer
49
0.5
62
256
6
ByLayer
0
RASTERVARIABLES
5
229
330

100
AcDbRasterVariables
90
0
70
1
71
1
72
1
0
ENDSEC
0
EOF
