0
SECTION
2
HEADER
9
$ACADVER
1
AC1015
9
$DWGCODEPAGE
3
ANSI_1252
9
$HANDSEED
5
24d
9
$ANGBASE
50
0
9
$ANGDIR
70
0
9
$ATTMODE
70
1
9
$AUNITS
70
0
9
$AUPREC
70
0
9
$CECOLOR
62
256
9
$CELTSCALE
40
1
9
$CELTYPE
6
ByLayer
9
$CELWEIGHT
370
18
9
$CLAYER
8
0
9
$CMLJUST
70
0
9
$CMLSCALE
40
1
9
$CMLSTYLE
2
Standard
9
$DIMSTYLE
2
Standard
9
$TEXTSIZE
40
0.2
9
$TEXTSTYLE
7
Standard
9
$LUNITS
70
2
9
$LUPREC
70
4
9
$EXTNAMES
290
1
9
$INSUNITS
70
4
9
$LTSCALE
40
1
9
$LWDISPLAY
290
1
9
$PDMODE
70
0
9
$PDSIZE
40
0
9
$PLINEGEN
70
0
0
ENDSEC
0
SECTION
2
CLASSES
0
CLASS
1
RASTERVARIABLES
2
AcDbRasterVariables
3
ISM
90
0
280
0
281
0
0
ENDSEC
0
SECTION
2
TABLES
0
TABLE
2
VPORT
5
243
100
AcDbSymbolTable
0
VPORT
5
1
100
AcDbSymbolTableRecord
100
AcDbViewportTableRecord
2
*Active
70
0
10
0
20
0
11
1
21
1
12
-1
22
1
13
0
23
0
14
0.5
24
0.5
15
10
25
10
16
0
26
0
36
1
17
0
27
0
37
0
0
ENDTAB
0
TABLE
2
LTYPE
5
244
100
AcDbSymbolTable
0
LTYPE
5
14
100
AcDbSymbolTableRecord
100
AcDbLinetypeTableRecord
70
0
2
ByBlock
3

72
65
73
0
40
0
0
LTYPE
5
15
100
AcDbSymbolTableRecord
100
AcDbLinetypeTableRecord
70
0
2
ByLayer
3

72
65
73
0
40
0
0
LTYPE
5
16
100
AcDbSymbolTableRecord
100
AcDbLinetypeTableRecord
70
0
2
Continuous
3
Solid line
72
65
73
0
40
0
0
LTYPE
5
6E
100
AcDbSymbolTableRecord
100
AcDbLinetypeTableRecord
70
0
2
CENTER
3
____ _ ____ _ ____ _ ____
72
65
73
4
40
47.5
49
22
74
0
49
-8.5
74
0
49
8.5
74
0
49
-8.5
74
0
0
LTYPE
5
6F
100
AcDbSymbolTableRecord
100
AcDbLinetypeTableRecord
70
0
2
DASHED
3
__ __ __ __ __ __ __ __ __
72
65
73
2
40
25.72
49
12.86
74
0
49
-12.86
74
0
0
ENDTAB
0
TABLE
2
LAYER
5
245
100
AcDbSymbolTable
0
LAYER
5
10
100
AcDbSymbolTableRecord
100
AcDbLayerTableRecord
2
0
70
0
62
7
6
Continuous
290
1
370
-3
390
0
0
LAYER
5
71
100
AcDbSymbolTableRecord
100
AcDbLayerTableRecord
2
80
70
0
62
-6
6
Continuous
290
1
370
-3
390
0
0
LAYER
5
73
100
AcDbSymbolTableRecord
100
AcDbLayerTableRecord
2
81
70
0
62
-3
6
Continuous
290
1
370
-3
390
0
0
LAYER
5
75
100
AcDbSymbolTableRecord
100
AcDbLayerTableRecord
2
1
70
0
62
4
6
Continuous
290
1
370
-3
390
0
0
LAYER
5
7F
100
AcDbSymbolTableRecord
100
AcDbLayerTableRecord
2
4
70
0
62
-2
6
CENTER
290
1
370
-3
390
0
0
LAYER
5
B1
100
AcDbSymbolTableRecord
100
AcDbLayerTableRecord
2
2
70
0
62
7
6
Continuous
290
1
370
-3
390
0
0
LAYER
5
172
100
AcDbSymbolTableRecord
100
AcDbLayerTableRecord
2
Defpoints
70
0
62
7
6
Continuous
290
0
370
-3
390
0
0
LAYER
5
22f
100
AcDbSymbolTableRecord
100
AcDbLayerTableRecord
2
SK4
70
0
62
2
6
CENTER
290
1
370
-3
390
0
0
LAYER
5
230
100
AcDbSymbolTableRecord
100
AcDbLayerTableRecord
2
SK1
70
0
62
4
6
Continuous
290
1
370
-3
390
0
0
LAYER
5
231
100
AcDbSymbolTableRecord
100
AcDbLayerTableRecord
2
SK2
70
0
62
7
6
Continuous
290
1
370
-3
390
0
0
LAYER
5
232
100
AcDbSymbolTableRecord
100
AcDbLayerTableRecord
2
SK6
70
0
62
5
6
Continuous
290
1
370
-3
390
0
0
ENDTAB
0
TABLE
2
STYLE
5
246
100
AcDbSymbolTable
0
STYLE
5
11
100
AcDbSymbolTableRecord
100
AcDbTextStyleTableRecord
2
Standard
3
txt
70
0
71
0
40
0
41
1
42
0
50
0
0
STYLE
5
14E
100
AcDbSymbolTableRecord
100
AcDbTextStyleTableRecord
2
iso_b_vert
3
simplex.shx
70
0
71
0
40
0
41
1
42
0
50
0
0
STYLE
5
14F
100
AcDbSymbolTableRecord
100
AcDbTextStyleTableRecord
2
DWGDirectTextStyle
3
simplex
70
0
71
0
40
0
41
1
42
0
50
0
0
ENDTAB
0
TABLE
2
DIMSTYLE
5
247
100
AcDbSymbolTable
100
AcDbDimStyleTable
0
DIMSTYLE
105
27
100
AcDbSymbolTableRecord
100
AcDbDimStyleTableRecord
2
Standard
70
0
3
<>
41
0.18
42
0.0625
44
0.18
140
0.18
147
0.09
73
0
74
0
77
1
271
2
275
0
278
52
280
0
340
11
0
ENDTAB
0
TABLE
2
VIEW
5
248
100
AcDbSymbolTable
0
ENDTAB
0
TABLE
2
UCS
5
249
100
AcDbSymbolTable
0
ENDTAB
0
TABLE
2
APPID
5
24a
100
AcDbSymbolTable
0
APPID
5
12
100
AcDbSymbolTableRecord
100
AcDbRegAppTableRecord
2
ACAD
70
0
0
APPID
5
16E
100
AcDbSymbolTableRecord
100
AcDbRegAppTableRecord
2
ACAD_DSTYLE_DIMBREAK
70
0
0
APPID
5
1EE
100
AcDbSymbolTableRecord
100
AcDbRegAppTableRecord
2
ACAD_DSTYLE_DIM_LINETYPE
70
0
0
APPID
5
1EF
100
AcDbSymbolTableRecord
100
AcDbRegAppTableRecord
2
ACAD_DSTYLE_DIM_EXT1_LINETYPE
70
0
0
APPID
5
1F0
100
AcDbSymbolTableRecord
100
AcDbRegAppTableRecord
2
ACAD_DSTYLE_DIM_EXT2_LINETYPE
70
0
0
APPID
5
22B
100
AcDbSymbolTableRecord
100
AcDbRegAppTableRecord
2
ACAD_MLEADERVER
70
0
0
ENDTAB
0
TABLE
2
BLOCK_RECORD
5
24b
100
AcDbSymbolTable
0
BLOCK_RECORD
5
1F
100
AcDbSymbolTableRecord
100
AcDbBlockTableRecord
2
*Model_Space
340
0
70
0
0
BLOCK_RECORD
5
1B
100
AcDbSymbolTableRecord
100
AcDbBlockTableRecord
2
*Paper_Space
340
0
70
0
0
BLOCK_RECORD
5
23
100
AcDbSymbolTableRecord
100
AcDbBlockTableRecord
2
*Paper_Space0
340
0
70
0
0
BLOCK_RECORD
5
173
100
AcDbSymbolTableRecord
100
AcDbBlockTableRecord
2
*D1
340
0
70
0
0
BLOCK_RECORD
5
17F
100
AcDbSymbolTableRecord
100
AcDbBlockTableRecord
2
_U0
340
0
70
0
0
BLOCK_RECORD
5
18B
100
AcDbSymbolTableRecord
100
AcDbBlockTableRecord
2
*D3
340
0
70
0
0
BLOCK_RECORD
5
197
100
AcDbSymbolTableRecord
100
AcDbBlockTableRecord
2
_U1
340
0
70
0
0
BLOCK_RECORD
5
1A3
100
AcDbSymbolTableRecord
100
AcDbBlockTableRecord
2
*D5
340
0
70
0
0
BLOCK_RECORD
5
1AF
100
AcDbSymbolTableRecord
100
AcDbBlockTableRecord
2
_U2
340
0
70
0
0
BLOCK_RECORD
5
1BB
100
AcDbSymbolTableRecord
100
AcDbBlockTableRecord
2
*D7
340
0
70
0
0
BLOCK_RECORD
5
1C7
100
AcDbSymbolTableRecord
100
AcDbBlockTableRecord
2
_U3
340
0
70
0
0
ENDTAB
0
ENDSEC
0
SECTION
2
BLOCKS
0
BLOCK
5
20
100
AcDbEntity
8
0
100
AcDbBlockBegin
2
*Model_Space
70
0
10
0
20
0
30
0
3
*Model_Space
0
ENDBLK
5
21
100
AcDbEntity
8
0
100
AcDbBlockEnd
0
BLOCK
5
1C
100
AcDbEntity
8
0
100
AcDbBlockBegin
2
*Paper_Space
70
0
10
0
20
0
30
0
3
*Paper_Space
0
ENDBLK
5
1D
100
AcDbEntity
8
0
100
AcDbBlockEnd
0
BLOCK
5
24
100
AcDbEntity
8
0
100
AcDbBlockBegin
2
*Paper_Space0
70
0
10
0
20
0
30
0
3
*Paper_Space0
0
ENDBLK
5
25
100
AcDbEntity
8
0
100
AcDbBlockEnd
0
BLOCK
5
174
100
AcDbEntity
8
0
100
AcDbBlockBegin
2
*D1
70
1
10
0
20
0
30
0
3
*D1
0
LINE
5
176
100
AcDbEntity
8
0
62
256
6
ByLayer
370
-2
48
1
60
0
100
AcDbLine
10
-60
20
-17.4625
30
0
11
-60
21
-47.952229
31
0
39
0
210
0
220
0
230
1
0
LINE
5
177
100
AcDbEntity
8
0
62
256
6
ByLayer
370
-2
48
1
60
0
100
AcDbLine
10
120
20
-1.5875
30
0
11
120
21
-47.952229
31
0
39
0
210
0
220
0
230
1
0
LINE
5
178
100
AcDbEntity
8
0
62
256
6
ByLayer
370
-2
48
1
60
0
100
AcDbLine
10
-56.5
20
-45.952229
30
0
11
116.5
21
-45.952229
31
0
39
0
210
0
220
0
230
1
0
SOLID
5
179
100
AcDbEntity
8
0
62
256
6
ByLayer
370
-1
48
1
60
0
100
AcDbTrace
10
-56.5
20
-45.368896
30
0
11
-56.5
21
-46.535563
31
0
12
-60
22
-45.952229
32
0
13
-60
23
-45.952229
33
0
39
0
210
0
220
0
230
1
0
SOLID
5
17A
100
AcDbEntity
8
0
62
256
6
ByLayer
370
-1
48
1
60
0
100
AcDbTrace
10
116.5
20
-46.535563
30
0
11
116.5
21
-45.368896
31
0
12
120
22
-45.952229
32
0
13
120
23
-45.952229
33
0
39
0
210
0
220
0
230
1
0
MTEXT
5
17B
100
AcDbEntity
8
0
62
256
6
ByLayer
370
18
48
1
60
0
100
AcDbMText
10
30
20
-39.952229
30
0
210
0
220
0
230
1
1
\A1;180
40
3
41
0
44
1
50
0
71
5
72
5
7
iso_b_vert
0
POINT
5
17C
100
AcDbEntity
8
Defpoints
62
0
6
ByLayer
370
-1
48
1
60
0
100
AcDbPoint
10
-60
20
-15.875
30
0
39
0
210
0
220
0
230
1
50
360
0
POINT
5
17D
100
AcDbEntity
8
Defpoints
62
0
6
ByLayer
370
-1
48
1
60
0
100
AcDbPoint
10
120
20
0
30
0
39
0
210
0
220
0
230
1
50
360
0
POINT
5
17E
100
AcDbEntity
8
Defpoints
62
0
6
ByLayer
370
-1
48
1
60
0
100
AcDbPoint
10
120
20
-45.952229
30
0
39
0
210
0
220
0
230
1
50
360
0
ENDBLK
5
175
100
AcDbEntity
8
0
100
AcDbBlockEnd
0
BLOCK
5
186
100
AcDbEntity
8
0
100
AcDbBlockBegin
2
_U0
70
0
10
0
20
0
30
0
3
_U0
0
MTEXT
5
180
100
AcDbEntity
8
SK2
62
256
6
ByLayer
370
18
48
1
60
0
100
AcDbMText
10
24.771658
20
-45.067115
30
0
210
0
220
0
230
1
1
\W0.7022;180.00
40
3
41
0
44
1.084337
50
0
71
7
72
5
7
iso_b_vert
0
LINE
5
181
100
AcDbEntity
8
SK2
62
256
6
ByLayer
370
13
48
1
60
0
100
AcDbLine
10
-60
20
-17.4625
30
0
11
-60
21
-47.952229
31
0
39
0
210
0
220
0
230
1
0
LINE
5
182
100
AcDbEntity
8
SK2
62
256
6
ByLayer
370
13
48
1
60
0
100
AcDbLine
10
120
20
-1.5875
30
0
11
120
21
-47.952229
31
0
39
0
210
0
220
0
230
1
0
LINE
5
183
100
AcDbEntity
8
SK2
62
256
6
ByLayer
370
13
48
1
60
0
100
AcDbLine
10
-60
20
-45.952229
30
0
11
120
21
-45.952229
31
0
39
0
210
0
220
0
230
1
0
SOLID
5
184
100
AcDbEntity
8
SK2
62
256
6
ByLayer
370
18
48
1
60
0
100
AcDbTrace
10
-60
20
-45.952229
30
0
11
-56.500002
21
-45.491446
31
0
12
-56.499998
22
-46.413013
32
0
13
-56.499998
23
-46.413013
33
0
39
0
210
0
220
0
230
1
0
SOLID
5
185
100
AcDbEntity
8
SK2
62
256
6
ByLayer
370
18
48
1
60
0
100
AcDbTrace
10
120
20
-45.952229
30
0
11
116.500002
21
-46.413013
31
0
12
116.499998
22
-45.491446
32
0
13
116.499998
23
-45.491446
33
0
39
0
210
0
220
0
230
1
0
ENDBLK
5
187
100
AcDbEntity
8
0
100
AcDbBlockEnd
0
BLOCK
5
18C
100
AcDbEntity
8
0
100
AcDbBlockBegin
2
*D3
70
1
10
0
20
0
30
0
3
*D3
0
LINE
5
18E
100
AcDbEntity
8
0
62
256
6
ByLayer
370
-2
48
1
60
0
100
AcDbLine
10
120
20
-1.5875
30
0
11
120
21
-37.952229
31
0
39
0
210
0
220
0
230
1
0
LINE
5
18F
100
AcDbEntity
8
0
62
256
6
ByLayer
370
-2
48
1
60
0
100
AcDbLine
10
3
20
-15.875
30
0
11
3
21
-37.952229
31
0
39
0
210
0
220
0
230
1
0
LINE
5
190
100
AcDbEntity
8
0
62
256
6
ByLayer
370
-2
48
1
60
0
100
AcDbLine
10
116.5
20
-35.952229
30
0
11
6.5
21
-35.952229
31
0
39
0
210
0
220
0
230
1
0
SOLID
5
191
100
AcDbEntity
8
0
62
256
6
ByLayer
370
-1
48
1
60
0
100
AcDbTrace
10
116.5
20
-36.535563
30
0
11
116.5
21
-35.368896
31
0
12
120
22
-35.952229
32
0
13
120
23
-35.952229
33
0
39
0
210
0
220
0
230
1
0
SOLID
5
192
100
AcDbEntity
8
0
62
256
6
ByLayer
370
-1
48
1
60
0
100
AcDbTrace
10
6.5
20
-35.368896
30
0
11
6.5
21
-36.535563
31
0
12
3
22
-35.952229
32
0
13
3
23
-35.952229
33
0
39
0
210
0
220
0
230
1
0
MTEXT
5
193
100
AcDbEntity
8
0
62
256
6
ByLayer
370
18
48
1
60
0
100
AcDbMText
10
61.5
20
-29.952229
30
0
210
0
220
0
230
1
1
\A1;117
40
3
41
0
44
1
50
0
71
5
72
5
7
iso_b_vert
0
POINT
5
194
100
AcDbEntity
8
Defpoints
62
0
6
ByLayer
370
-1
48
1
60
0
100
AcDbPoint
10
120
20
0
30
0
39
0
210
0
220
0
230
1
50
360
0
POINT
5
195
100
AcDbEntity
8
Defpoints
62
0
6
ByLayer
370
-1
48
1
60
0
100
AcDbPoint
10
3
20
-14.2875
30
0
39
0
210
0
220
0
230
1
50
360
0
POINT
5
196
100
AcDbEntity
8
Defpoints
62
0
6
ByLayer
370
-1
48
1
60
0
100
AcDbPoint
10
3
20
-35.952229
30
0
39
0
210
0
220
0
230
1
50
360
0
ENDBLK
5
18D
100
AcDbEntity
8
0
100
AcDbBlockEnd
0
BLOCK
5
19E
100
AcDbEntity
8
0
100
AcDbBlockBegin
2
_U1
70
0
10
0
20
0
30
0
3
_U1
0
MTEXT
5
198
100
AcDbEntity
8
SK2
62
256
6
ByLayer
370
18
48
1
60
0
100
AcDbMText
10
56.646601
20
-35.067115
30
0
210
0
220
0
230
1
1
\W0.6532;117.00
40
3
41
0
44
1.084337
50
0
71
7
72
5
7
iso_b_vert
0
LINE
5
199
100
AcDbEntity
8
SK2
62
256
6
ByLayer
370
13
48
1
60
0
100
AcDbLine
10
120
20
-1.5875
30
0
11
120
21
-37.952229
31
0
39
0
210
0
220
0
230
1
0
LINE
5
19A
100
AcDbEntity
8
SK2
62
256
6
ByLayer
370
13
48
1
60
0
100
AcDbLine
10
3
20
-15.875
30
0
11
3
21
-37.952229
31
0
39
0
210
0
220
0
230
1
0
LINE
5
19B
100
AcDbEntity
8
SK2
62
256
6
ByLayer
370
13
48
1
60
0
100
AcDbLine
10
120
20
-35.952229
30
0
11
3
21
-35.952229
31
0
39
0
210
0
220
0
230
1
0
SOLID
5
19C
100
AcDbEntity
8
SK2
62
256
6
ByLayer
370
18
48
1
60
0
100
AcDbTrace
10
120
20
-35.952229
30
0
11
116.500002
21
-36.413013
31
0
12
116.499998
22
-35.491446
32
0
13
116.499998
23
-35.491446
33
0
39
0
210
0
220
0
230
1
0
SOLID
5
19D
100
AcDbEntity
8
SK2
62
256
6
ByLayer
370
18
48
1
60
0
100
AcDbTrace
10
3
20
-35.952229
30
0
11
6.499998
21
-35.491446
31
0
12
6.500002
22
-36.413013
32
0
13
6.500002
23
-36.413013
33
0
39
0
210
0
220
0
230
1
0
ENDBLK
5
19F
100
AcDbEntity
8
0
100
AcDbBlockEnd
0
BLOCK
5
1A4
100
AcDbEntity
8
0
100
AcDbBlockBegin
2
*D5
70
1
10
0
20
0
30
0
3
*D5
0
LINE
5
1A6
100
AcDbEntity
8
0
62
256
6
ByLayer
370
-2
48
1
60
0
100
AcDbLine
10
-60
20
-17.4625
30
0
11
-60
21
-37.952229
31
0
39
0
210
0
220
0
230
1
0
LINE
5
1A7
100
AcDbEntity
8
0
62
256
6
ByLayer
370
-2
48
1
60
0
100
AcDbLine
10
0
20
-17.4625
30
0
11
0
21
-37.952229
31
0
39
0
210
0
220
0
230
1
0
LINE
5
1A8
100
AcDbEntity
8
0
62
256
6
ByLayer
370
-2
48
1
60
0
100
AcDbLine
10
-56.5
20
-35.952229
30
0
11
-3.5
21
-35.952229
31
0
39
0
210
0
220
0
230
1
0
SOLID
5
1A9
100
AcDbEntity
8
0
62
256
6
ByLayer
370
-1
48
1
60
0
100
AcDbTrace
10
-56.5
20
-35.368896
30
0
11
-56.5
21
-36.535563
31
0
12
-60
22
-35.952229
32
0
13
-60
23
-35.952229
33
0
39
0
210
0
220
0
230
1
0
SOLID
5
1AA
100
AcDbEntity
8
0
62
256
6
ByLayer
370
-1
48
1
60
0
100
AcDbTrace
10
-3.5
20
-36.535563
30
0
11
-3.5
21
-35.368896
31
0
12
0
22
-35.952229
32
0
13
0
23
-35.952229
33
0
39
0
210
0
220
0
230
1
0
MTEXT
5
1AB
100
AcDbEntity
8
0
62
256
6
ByLayer
370
18
48
1
60
0
100
AcDbMText
10
-30
20
-29.952229
30
0
210
0
220
0
230
1
1
\A1;60
40
3
41
0
44
1
50
0
71
5
72
5
7
iso_b_vert
0
POINT
5
1AC
100
AcDbEntity
8
Defpoints
62
0
6
ByLayer
370
-1
48
1
60
0
100
AcDbPoint
10
-60
20
-15.875
30
0
39
0
210
0
220
0
230
1
50
360
0
POINT
5
1AD
100
AcDbEntity
8
Defpoints
62
0
6
ByLayer
370
-1
48
1
60
0
100
AcDbPoint
10
0
20
-15.875
30
0
39
0
210
0
220
0
230
1
50
360
0
POINT
5
1AE
100
AcDbEntity
8
Defpoints
62
0
6
ByLayer
370
-1
48
1
60
0
100
AcDbPoint
10
0
20
-35.952229
30
0
39
0
210
0
220
0
230
1
50
360
0
ENDBLK
5
1A5
100
AcDbEntity
8
0
100
AcDbBlockEnd
0
BLOCK
5
1B6
100
AcDbEntity
8
0
100
AcDbBlockBegin
2
_U2
70
0
10
0
20
0
30
0
3
_U2
0
MTEXT
5
1B0
100
AcDbEntity
8
SK2
62
256
6
ByLayer
370
18
48
1
60
0
100
AcDbMText
10
-34.48237
20
-35.067115
30
0
210
0
220
0
230
1
1
\W0.7468;60.00
40
3
41
0
44
1.084337
50
0
71
7
72
5
7
iso_b_vert
0
LINE
5
1B1
100
AcDbEntity
8
SK2
62
256
6
ByLayer
370
13
48
1
60
0
100
AcDbLine
10
-60
20
-17.4625
30
0
11
-60
21
-37.952229
31
0
39
0
210
0
220
0
230
1
0
LINE
5
1B2
100
AcDbEntity
8
SK2
62
256
6
ByLayer
370
13
48
1
60
0
100
AcDbLine
10
0
20
-17.4625
30
0
11
0
21
-37.952229
31
0
39
0
210
0
220
0
230
1
0
LINE
5
1B3
100
AcDbEntity
8
SK2
62
256
6
ByLayer
370
13
48
1
60
0
100
AcDbLine
10
-60
20
-35.952229
30
0
11
0
21
-35.952229
31
0
39
0
210
0
220
0
230
1
0
SOLID
5
1B4
100
AcDbEntity
8
SK2
62
256
6
ByLayer
370
18
48
1
60
0
100
AcDbTrace
10
-60
20
-35.952229
30
0
11
-56.500002
21
-35.491446
31
0
12
-56.499998
22
-36.413013
32
0
13
-56.499998
23
-36.413013
33
0
39
0
210
0
220
0
230
1
0
SOLID
5
1B5
100
AcDbEntity
8
SK2
62
256
6
ByLayer
370
18
48
1
60
0
100
AcDbTrace
10
0
20
-35.952229
30
0
11
-3.499998
21
-36.413013
31
0
12
-3.500002
22
-35.491446
32
0
13
-3.500002
23
-35.491446
33
0
39
0
210
0
220
0
230
1
0
ENDBLK
5
1B7
100
AcDbEntity
8
0
100
AcDbBlockEnd
0
BLOCK
5
1BC
100
AcDbEntity
8
0
100
AcDbBlockBegin
2
*D7
70
1
10
0
20
0
30
0
3
*D7
0
LINE
5
1BE
100
AcDbEntity
8
0
62
256
6
ByLayer
370
-2
48
1
60
0
100
AcDbLine
10
120
20
1.5875
30
0
11
120
21
34.952229
31
0
39
0
210
0
220
0
230
1
0
LINE
5
1BF
100
AcDbEntity
8
0
62
256
6
ByLayer
370
-2
48
1
60
0
100
AcDbLine
10
23
20
15.875
30
0
11
23
21
34.952229
31
0
39
0
210
0
220
0
230
1
0
LINE
5
1C0
100
AcDbEntity
8
0
62
256
6
ByLayer
370
-2
48
1
60
0
100
AcDbLine
10
116.5
20
32.952229
30
0
11
26.5
21
32.952229
31
0
39
0
210
0
220
0
230
1
0
SOLID
5
1C1
100
AcDbEntity
8
0
62
256
6
ByLayer
370
-1
48
1
60
0
100
AcDbTrace
10
116.5
20
32.368896
30
0
11
116.5
21
33.535563
31
0
12
120
22
32.952229
32
0
13
120
23
32.952229
33
0
39
0
210
0
220
0
230
1
0
SOLID
5
1C2
100
AcDbEntity
8
0
62
256
6
ByLayer
370
-1
48
1
60
0
100
AcDbTrace
10
26.5
20
33.535563
30
0
11
26.5
21
32.368896
31
0
12
23
22
32.952229
32
0
13
23
23
32.952229
33
0
39
0
210
0
220
0
230
1
0
MTEXT
5
1C3
100
AcDbEntity
8
0
62
256
6
ByLayer
370
18
48
1
60
0
100
AcDbMText
10
71.5
20
38.952229
30
0
210
0
220
0
230
1
1
\A1;97
40
3
41
0
44
1
50
0
71
5
72
5
7
iso_b_vert
0
POINT
5
1C4
100
AcDbEntity
8
Defpoints
62
0
6
ByLayer
370
-1
48
1
60
0
100
AcDbPoint
10
120
20
0
30
0
39
0
210
0
220
0
230
1
50
360
0
POINT
5
1C5
100
AcDbEntity
8
Defpoints
62
0
6
ByLayer
370
-1
48
1
60
0
100
AcDbPoint
10
23
20
14.2875
30
0
39
0
210
0
220
0
230
1
50
360
0
POINT
5
1C6
100
AcDbEntity
8
Defpoints
62
0
6
ByLayer
370
-1
48
1
60
0
100
AcDbPoint
10
23
20
32.952229
30
0
39
0
210
0
220
0
230
1
50
360
0
ENDBLK
5
1BD
100
AcDbEntity
8
0
100
AcDbBlockEnd
0
BLOCK
5
1CE
100
AcDbEntity
8
0
100
AcDbBlockBegin
2
_U3
70
0
10
0
20
0
30
0
3
_U3
0
MTEXT
5
1C8
100
AcDbEntity
8
SK2
62
256
6
ByLayer
370
18
48
1
60
0
100
AcDbMText
10
67.01763
20
33.837344
30
0
210
0
220
0
230
1
1
\W0.7468;97.00
40
3
41
0
44
1.084337
50
0
71
7
72
5
7
iso_b_vert
0
LINE
5
1C9
100
AcDbEntity
8
SK2
62
256
6
ByLayer
370
13
48
1
60
0
100
AcDbLine
10
120
20
1.5875
30
0
11
120
21
34.952229
31
0
39
0
210
0
220
0
230
1
0
LINE
5
1CA
100
AcDbEntity
8
SK2
62
256
6
ByLayer
370
13
48
1
60
0
100
AcDbLine
10
23
20
15.875
30
0
11
23
21
34.952229
31
0
39
0
210
0
220
0
230
1
0
LINE
5
1CB
100
AcDbEntity
8
SK2
62
256
6
ByLayer
370
13
48
1
60
0
100
AcDbLine
10
120
20
32.952229
30
0
11
23
21
32.952229
31
0
39
0
210
0
220
0
230
1
0
SOLID
5
1CC
100
AcDbEntity
8
SK2
62
256
6
ByLayer
370
18
48
1
60
0
100
AcDbTrace
10
120
20
32.952229
30
0
11
116.500002
21
32.491446
31
0
12
116.499998
22
33.413013
32
0
13
116.499998
23
33.413013
33
0
39
0
210
0
220
0
230
1
0
SOLID
5
1CD
100
AcDbEntity
8
SK2
62
256
6
ByLayer
370
18
48
1
60
0
100
AcDbTrace
10
23
20
32.952229
30
0
11
26.499998
21
33.413013
31
0
12
26.500002
22
32.491446
32
0
13
26.500002
23
32.491446
33
0
39
0
210
0
220
0
230
1
0
ENDBLK
5
1CF
100
AcDbEntity
8
0
100
AcDbBlockEnd
0
ENDSEC
0
SECTION
2
ENTITIES
0
ARC
5
C2
100
AcDbEntity
8
SK2
62
256
6
ByLayer
370
13
48
1
60
0
100
AcDbCircle
39
0
10
120
20
0
30
0
40
18.9999999999999
210
0
220
0
230
1
100
AcDbArc
50
290
51
70
0
ELLIPSE
5
C3
100
AcDbEntity
8
SK1
62
256
6
ByLayer
370
18
48
1
60
0
100
AcDbEllipse
10
-38.196323
20
0
30
0
11
-2.91609388003954E-15
21
-15.875
31
0
210
0
220
0
230
1
40
0.932515
41
-2.04476529460845
42
-1.09682735898134
0
ELLIPSE
5
C4
100
AcDbEntity
8
SK1
62
256
6
ByLayer
370
18
48
1
60
0
100
AcDbEllipse
10
-24.023853
20
0
30
0
11
17.0238532716365
21
-1.92897228726061E-14
31
0
210
0
220
0
230
1
40
0.932515
41
-0.473968967813626
42
0.473968967813628
0
POINT
5
70
100
AcDbEntity
8
80
62
256
6
ByLayer
370
18
48
1
60
0
100
AcDbPoint
10
0
20
0
30
0
39
0
210
0
220
0
230
1
50
360
0
POINT
5
72
100
AcDbEntity
8
81
62
256
6
ByLayer
370
18
48
1
60
0
100
AcDbPoint
10
120
20
0
30
0
39
0
210
0
220
0
230
1
50
360
0
POINT
5
74
100
AcDbEntity
8
1
62
256
6
ByLayer
370
18
48
1
60
1
100
AcDbPoint
10
-60
20
-15.875
30
0
39
0
210
0
220
0
230
1
50
360
0
POINT
5
76
100
AcDbEntity
8
1
62
256
6
ByLayer
370
18
48
1
60
1
100
AcDbPoint
10
120
20
0
30
0
39
0
210
0
220
0
230
1
50
360
0
POINT
5
77
100
AcDbEntity
8
1
62
256
6
ByLayer
370
18
48
1
60
1
100
AcDbPoint
10
120
20
0
30
0
39
0
210
0
220
0
230
1
50
360
0
POINT
5
78
100
AcDbEntity
8
1
62
256
6
ByLayer
370
18
48
1
60
1
100
AcDbPoint
10
3
20
-14.2875
30
0
39
0
210
0
220
0
230
1
50
360
0
POINT
5
79
100
AcDbEntity
8
1
62
256
6
ByLayer
370
18
48
1
60
1
100
AcDbPoint
10
-60
20
-15.875
30
0
39
0
210
0
220
0
230
1
50
360
0
POINT
5
7A
100
AcDbEntity
8
1
62
256
6
ByLayer
370
18
48
1
60
1
100
AcDbPoint
10
0
20
-15.875
30
0
39
0
210
0
220
0
230
1
50
360
0
POINT
5
7B
100
AcDbEntity
8
1
62
256
6
ByLayer
370
18
48
1
60
1
100
AcDbPoint
10
120
20
0
30
0
39
0
210
0
220
0
230
1
50
360
0
POINT
5
7C
100
AcDbEntity
8
1
62
256
6
ByLayer
370
18
48
1
60
1
100
AcDbPoint
10
23
20
14.2875
30
0
39
0
210
0
220
0
230
1
50
360
0
SPLINE
5
C5
100
AcDbEntity
8
1
62
256
6
ByLayer
370
18
48
1
60
0
100
AcDbSpline
70
4
71
3
72
25
73
21
40
0
40
0
40
0
40
0
40
0.124999999999993
40
0.124999999999993
40
0.187499999999993
40
0.187499999999993
40
0.249999999999993
40
0.249999999999993
40
0.499999999999991
40
0.499999999999991
40
0.624999999999987
40
0.624999999999987
40
0.687499999999989
40
0.687499999999989
40
0.74999999999999
40
0.74999999999999
40
0.812499999999991
40
0.812499999999991
40
0.874999999999992
40
1
40
1
40
1
40
1
41
1
10
114.799775277933
20
-2.03915640907593
30
0
41
1
10
114.278337110123
20
-1.85165390573474
30
0
41
1
10
113.757108447814
20
-1.66363459928721
30
0
41
1
10
112.975627948423
20
-1.38069732826907
30
0
41
1
10
112.715194528855
20
-1.28623445536408
30
0
41
1
10
112.194454205149
20
-1.09699037751025
30
0
41
1
10
111.934152872742
20
-1.00219379490662
30
0
41
1
10
110.632649566992
20
-0.528279955087356
30
0
41
1
10
109.591273300859
20
-0.1498783578119
30
0
41
1
10
108.029232783527
20
0.417419675469319
30
0
41
1
10
107.508556281427
20
0.606467325534226
30
0
41
1
10
106.727595748262
20
0.890095250965459
30
0
41
1
10
106.467284526703
20
0.984647070593439
30
0
41
1
10
105.94668583144
20
1.17378500526598
30
0
41
1
10
105.686407309066
20
1.26839578373205
30
0
41
1
10
105.165820409646
20
1.45750373873449
30
0
41
1
10
104.905492999456
20
1.55194846587469
30
0
41
1
10
104.384698045838
20
1.74042057568195
30
0
41
1
10
103.60332590282
20
2.02258673198847
30
0
41
1
10
102.82145106692
20
2.30322784590183
30
0
41
1
10
102.3
20
2.48970548644044
30
0
0
SPLINE
5
C6
100
AcDbEntity
8
1
62
256
6
ByLayer
370
18
48
1
60
0
100
AcDbSpline
70
4
71
3
72
97
73
93
40
0
40
0
40
0
40
0
40
0.031249999999997
40
0.031249999999997
40
0.0624999999999939
40
0.0624999999999939
40
0.0937499999999909
40
0.0937499999999909
40
0.124999999999988
40
0.124999999999988
40
0.140624999999987
40
0.140624999999987
40
0.148437499999987
40
0.148437499999987
40
0.156249999999986
40
0.187499999999987
40
0.187499999999987
40
0.218749999999988
40
0.218749999999988
40
0.249999999999989
40
0.249999999999989
40
0.28124999999999
40
0.28124999999999
40
0.29687499999999
40
0.29687499999999
40
0.304687499999991
40
0.304687499999991
40
0.312499999999991
40
0.312499999999991
40
0.343749999999993
40
0.343749999999993
40
0.374999999999994
40
0.374999999999994
40
0.406249999999996
40
0.406249999999996
40
0.437499999999998
40
0.437499999999998
40
0.445312499999998
40
0.445312499999998
40
0.453124999999999
40
0.468749999999999
40
0.468749999999999
40
0.499999999999999
40
0.499999999999999
40
0.531249999999999
40
0.531249999999999
40
0.535156249999999
40
0.535156249999999
40
0.5390625
40
0.5390625
40
0.546874999999999
40
0.562499999999999
40
0.562499999999999
40
0.593749999999998
40
0.593749999999998
40
0.624999999999998
40
0.624999999999998
40
0.632812499999997
40
0.632812499999997
40
0.640624999999996
40
0.656249999999996
40
0.656249999999996
40
0.687499999999996
40
0.687499999999996
40
0.718749999999995
40
0.718749999999995
40
0.726562499999995
40
0.726562499999995
40
0.734374999999996
40
0.734374999999996
40
0.749999999999996
40
0.749999999999996
40
0.781249999999997
40
0.781249999999997
40
0.812499999999997
40
0.812499999999997
40
0.843749999999998
40
0.843749999999998
40
0.851562499999998
40
0.851562499999998
40
0.859374999999998
40
0.874999999999999
40
0.874999999999999
40
0.906249999999999
40
0.906249999999999
40
0.9375
40
0.96875
40
0.96875
40
0.9765625
40
0.9765625
40
0.984375000000001
40
1
40
1
40
1
40
1
41
1
10
114.799775277922
20
13.8338197036956
30
0
41
1
10
114.889009350647
20
13.6125700233184
30
0
41
1
10
114.978383524786
20
13.3879977398928
30
0
41
1
10
115.157564092826
20
12.9327309494522
30
0
41
1
10
115.247370333697
20
12.7020352409747
30
0
41
1
10
115.427521727267
20
12.2348982935135
30
0
41
1
10
115.51786694883
20
11.998456391819
30
0
41
1
10
115.699159678713
20
11.5200883964268
30
0
41
1
10
115.790107502426
20
11.2781620243849
30
0
41
1
10
115.926991787505
20
10.9112790628334
30
0
41
1
10
115.972696562624
20
10.7883184042615
30
0
41
1
10
116.041365783521
20
10.6028859757062
30
0
41
1
10
116.064290032533
20
10.5408668469737
30
0
41
1
10
116.110093759434
20
10.4167188117438
30
0
41
1
10
116.224434229717
20
10.1062259984171
30
0
41
1
10
116.337941784441
20
9.79512926567634
30
0
41
1
10
116.518412951027
20
9.29659586670368
30
0
41
1
10
116.608079192978
20
9.04694021954344
30
0
41
1
10
116.786065765076
20
8.54679217228477
30
0
41
1
10
116.874387657957
20
8.29630017119629
30
0
41
1
10
117.049306408245
20
7.79435478281533
30
0
41
1
10
117.135907138425
20
7.54290294170954
30
0
41
1
10
117.264043769814
20
7.16484174977896
30
0
41
1
10
117.30645968583
20
7.03867330128185
30
0
41
1
10
117.369553310874
20
6.8491680687132
30
0
41
1
10
117.390507250684
20
6.78592301371646
30
0
41
1
10
117.432163727019
20
6.65951562431295
30
0
41
1
10
117.452856953867
20
6.59638194561106
30
0
41
1
10
117.555605414802
20
6.28104944846413
30
0
41
1
10
117.635532716891
20
6.0298615280557
30
0
41
1
10
117.789382206617
20
5.52923330076112
30
0
41
1
10
117.863314505105
20
5.27979461711379
30
0
41
1
10
118.002927825052
20
4.78215000277035
30
0
41
1
10
118.06862067363
20
4.53394511763949
30
0
41
1
10
118.188372454988
20
4.03809974885672
30
0
41
1
10
118.24243678273
20
3.7904572567852
30
0
41
1
10
118.299733420106
20
3.48074448286187
30
0
41
1
10
118.310682350647
20
3.41874938892784
30
0
41
1
10
118.331422997514
20
3.29492557004852
30
0
41
1
10
118.360733933433
20
3.10984068678024
30
0
41
1
10
118.384329441345
20
2.92673344414189
30
0
41
1
10
118.423131728577
20
2.56325748600079
30
0
41
1
10
118.437732371097
20
2.32457907102818
30
0
41
1
10
118.44166860639
20
1.85534697196456
30
0
41
1
10
118.430981308672
20
1.62479715414179
30
0
41
1
10
118.40483423481
20
1.37067355357109
30
0
41
1
10
118.40173480147
20
1.34251061591758
30
0
41
1
10
118.39515114734
20
1.28633337604685
30
0
41
1
10
118.391663786208
20
1.25829574782918
30
0
41
1
10
118.380655843025
20
1.17459635921446
30
0
41
1
10
118.356477724348
20
1.008977973008
30
0
41
1
10
118.326187738254
20
0.848634676476763
30
0
41
1
10
118.258475821225
20
0.53481041903197
30
0
41
1
10
118.20386439734
20
0.334731247442392
30
0
41
1
10
118.080626118399
20
-0.0478696713783506
30
0
41
1
10
118.012009626326
20
-0.230396572360945
30
0
41
1
10
117.919758343788
20
-0.447749762738113
30
0
41
1
10
117.900963791519
20
-0.49071607033116
30
0
41
1
10
117.862841834529
20
-0.575390640168763
30
0
41
1
10
117.804945043128
20
-0.700329722844401
30
0
41
1
10
117.745128311423
20
-0.819172598077841
30
0
41
1
10
117.623399378468
20
-1.04897422175074
30
0
41
1
10
117.539480500032
20
-1.19168505075225
30
0
41
1
10
117.367737904052
20
-1.4568271589701
30
0
41
1
10
117.279902584558
20
-1.5792546329329
30
0
41
1
10
117.168196140208
20
-1.71963405785604
30
0
41
1
10
117.145757816308
20
-1.74707571189592
30
0
41
1
10
117.100695439988
20
-1.80068530967955
30
0
41
1
10
117.078057336751
20
-1.8268675178515
30
0
41
1
10
117.010168779908
20
-1.90317044755108
30
0
41
1
10
116.964855622601
20
-1.95115875945447
30
0
41
1
10
116.828824659933
20
-2.08667672993087
30
0
41
1
10
116.738022114421
20
-2.16577683678818
30
0
41
1
10
116.556351437636
20
-2.302054699857
30
0
41
1
10
116.465480476341
20
-2.35923019753119
30
0
41
1
10
116.283644886487
20
-2.45168703563181
30
0
41
1
10
116.192678964214
20
-2.48696839771932
30
0
41
1
10
116.078817921495
20
-2.51709251749091
30
0
41
1
10
116.05602531542
20
-2.52241811749803
30
0
41
1
10
116.010627688537
20
-2.53162122244367
30
0
41
1
10
115.942739045666
20
-2.54327535350001
30
0
41
1
10
115.875451571037
20
-2.54854958042012
30
0
41
1
10
115.741619246681
20
-2.55073582633611
30
0
41
1
10
115.653387658746
20
-2.54105789862729
30
0
41
1
10
115.478594469947
20
-2.49983429920147
30
0
41
1
10
115.305471248554
20
-2.43674048282279
30
0
41
1
10
115.135078680416
20
-2.32982453001793
30
0
41
1
10
115.02924498729
20
-2.24900582590942
30
0
41
1
10
115.00812954669
20
-2.23215421665699
30
0
41
1
10
114.966070746655
20
-2.19713779956274
30
0
41
1
10
114.903206805169
20
-2.14261734652649
30
0
41
1
10
114.840989039441
20
-2.08212904228248
30
0
41
1
10
114.799775277922
20
-2.03915640907198
30
0
0
SPLINE
5
C7
100
AcDbEntity
8
1
62
256
6
ByLayer
370
18
48
1
60
0
100
AcDbSpline
70
4
71
3
72
20
73
16
40
0
40
0
40
0
40
0
40
0.0547459505355887
40
0.0547459505355887
40
0.369830633690392
40
0.369830633690392
40
0.527372975267798
40
0.527372975267798
40
0.684915316845204
40
0.684915316845204
40
0.763686487633903
40
0.763686487633903
40
0.842457658422602
40
0.842457658422602
40
1
40
1
40
1
40
1
41
1
10
104.883255235555
20
14.2857148438893
30
0
41
1
10
105.064177145967
20
14.2857494078936
30
0
41
1
10
105.245069307697
20
14.2853257079875
30
0
41
1
10
106.46703788453
20
14.2793634974801
30
0
41
1
10
107.508501045476
20
14.259180161789
30
0
41
1
10
109.070630522571
20
14.2065363025776
30
0
41
1
10
109.591335409877
20
14.1852512231276
30
0
41
1
10
110.63263826193
20
14.1351396558903
30
0
41
1
10
111.153213224247
20
14.1063019078203
30
0
41
1
10
111.934006663503
20
14.0573208896822
30
0
41
1
10
112.194289923071
20
14.0400528569501
30
0
41
1
10
112.715043186538
20
14.0037183528859
30
0
41
1
10
112.975494765546
20
13.9846436971754
30
0
41
1
10
113.757035093936
20
13.9246909901288
30
0
41
1
10
114.278304127632
20
13.8810827134155
30
0
41
1
10
114.799775277933
20
13.8338197036946
30
0
0
SPLINE
5
C8
100
AcDbEntity
8
1
62
256
6
ByLayer
370
18
48
1
60
0
100
AcDbSpline
70
4
71
3
72
50
73
46
40
0
40
0
40
0
40
0
40
0.0166674917278153
40
0.0166674917278153
40
0.0658341171414259
40
0.0658341171414259
40
0.0904174298482314
40
0.0904174298482314
40
0.115000742555037
40
0.115000742555037
40
0.213333993382255
40
0.213333993382255
40
0.262500618795863
40
0.262500618795863
40
0.311667244209471
40
0.311667244209471
40
0.336250556916275
40
0.336250556916275
40
0.360833869623079
40
0.360833869623079
40
0.385417182329882
40
0.385417182329882
40
0.410000495036687
40
0.410000495036687
40
0.508333745863902
40
0.508333745863902
40
0.557500371277511
40
0.557500371277511
40
0.60666699669112
40
0.60666699669112
40
0.631250309397925
40
0.631250309397925
40
0.65583362210473
40
0.65583362210473
40
0.705000247518339
40
0.705000247518339
40
0.803333498345557
40
0.803333498345557
40
0.852500123759167
40
0.852500123759167
40
0.877083436465971
40
0.877083436465971
40
0.901666749172776
40
0.901666749172776
40
1
40
1
40
1
40
1
41
1
10
76.2109776369254
20
10.160625051025
30
0
41
1
10
76.3559654036329
20
10.1950415197257
30
0
41
1
10
76.5009449288971
20
10.2292536195241
30
0
41
1
10
77.0735537543235
20
10.3635859439551
30
0
41
1
10
77.5011174087929
20
10.4621489172818
30
0
41
1
10
78.1423110564559
20
10.6074069904592
30
0
41
1
10
78.3560169376761
20
10.6553951247633
30
0
41
1
10
78.7833717605785
20
10.7505149987537
30
0
41
1
10
78.997016615184
20
10.7976535011388
30
0
41
1
10
80.0653086092782
20
11.0308221534839
30
0
41
1
10
80.920485719534
20
11.2087322155331
30
0
41
1
10
82.2037107758284
20
11.4634350254451
30
0
41
1
10
82.6315317526096
20
11.5463007156399
30
0
41
1
10
83.4872832634649
20
11.7080326989038
30
0
41
1
10
83.9150888153795
20
11.7868764346097
30
0
41
1
10
84.5565298133688
20
11.9021260551079
30
0
41
1
10
84.7703054222167
20
11.9400409734821
30
0
41
1
10
85.1977740872644
20
12.014871329342
30
0
41
1
10
85.4114602641209
20
12.0517959832747
30
0
41
1
10
85.8388078518664
20
12.1245601787468
30
0
41
1
10
86.052480513318
20
12.1603842933899
30
0
41
1
10
86.4798856705142
20
12.230838764687
30
0
41
1
10
86.6936091158905
20
12.2654817366625
30
0
41
1
10
87.7622966038633
20
12.4358357453927
30
0
41
1
10
88.6174498901613
20
12.5630097199064
30
0
41
1
10
89.9002074856854
20
12.7405088518698
30
0
41
1
10
90.3277969018792
20
12.7974624919624
30
0
41
1
10
91.1829320332834
20
12.9069705791956
30
0
41
1
10
91.6104578116476
20
12.9595438931675
30
0
41
1
10
92.2517471192572
20
13.0350325332463
30
0
41
1
10
92.4655258815099
20
13.0596181561311
30
0
41
1
10
92.8932102830175
20
13.1075494729638
30
0
41
1
10
93.1070659555272
20
13.1308999550466
30
0
41
1
10
93.7486250047486
20
13.1991325728545
30
0
41
1
10
94.1763280763598
20
13.24220225926
30
0
41
1
10
95.4593410888635
20
13.3642764415887
30
0
41
1
10
96.3145709529566
20
13.4361498353668
30
0
41
1
10
97.5969452937818
20
13.529843709262
30
0
41
1
10
98.0243151058937
20
13.5587230595391
30
0
41
1
10
98.6652443154808
20
13.598472196924
30
0
41
1
10
98.878875592679
20
13.6111214138729
30
0
41
1
10
99.306225721228
20
13.6351681359789
30
0
41
1
10
99.519941493324
20
13.6465679998892
30
0
41
1
10
100.588689037719
20
13.7004832762355
30
0
41
1
10
101.444192683895
20
13.7337807559178
30
0
41
1
10
102.3
20
13.7573613288331
30
0
0
SPLINE
5
C9
100
AcDbEntity
8
1
62
256
6
ByLayer
370
18
48
1
60
0
100
AcDbSpline
70
4
71
3
72
83
73
79
40
0
40
0
40
0
40
0
40
0.0499176354515653
40
0.0499176354515653
40
0.0748764531773472
40
0.0748764531773472
40
0.0998352709031292
40
0.0998352709031292
40
0.149752906354692
40
0.149752906354692
40
0.174711724080472
40
0.174711724080472
40
0.187191132943363
40
0.187191132943363
40
0.199670541806253
40
0.199670541806253
40
0.249588177257816
40
0.249588177257816
40
0.274546994983597
40
0.274546994983597
40
0.287026403846488
40
0.287026403846488
40
0.299505812709379
40
0.299505812709379
40
0.324464630435161
40
0.324464630435161
40
0.349423448160942
40
0.349423448160942
40
0.399341083612505
40
0.399341083612505
40
0.411820492475395
40
0.411820492475395
40
0.424299901338286
40
0.424299901338286
40
0.449258719064066
40
0.449258719064066
40
0.474217536789846
40
0.474217536789846
40
0.499176354515626
40
0.499176354515626
40
0.524135172241406
40
0.524135172241406
40
0.549093989967186
40
0.549093989967186
40
0.599011625418747
40
0.599011625418747
40
0.623970443144527
40
0.623970443144527
40
0.648929260870307
40
0.648929260870307
40
0.661408669733197
40
0.661408669733197
40
0.673888078596087
40
0.698846896321865
40
0.698846896321865
40
0.748764531773422
40
0.748764531773422
40
0.76124394063631
40
0.76124394063631
40
0.773723349499199
40
0.773723349499199
40
0.798682167224975
40
0.798682167224975
40
0.823640984950752
40
0.823640984950752
40
0.848599802676529
40
0.848599802676529
40
0.873558620402305
40
0.873558620402305
40
0.898517438128082
40
0.898517438128082
40
0.948435073579635
40
0.948435073579635
40
0.973393891305411
40
0.973393891305411
40
0.998352709031187
40
0.998352709031187
40
1
40
1
40
1
40
1
41
1
10
102.3
20
2.23122216177256
30
0
41
1
10
101.379483902406
20
2.55002681770657
30
0
41
1
10
100.459355217526
20
2.86681313474662
30
0
41
1
10
99.0799530840823
20
3.33951842958788
30
0
41
1
10
98.620300708161
20
3.49671651771942
30
0
41
1
10
97.700745226601
20
3.80886172738735
30
0
41
1
10
97.240891318958
20
3.96394678936011
30
0
41
1
10
95.8611503394629
20
4.42638875272499
30
0
41
1
10
94.9410748208458
20
4.73091215190968
30
0
41
1
10
93.5607912102338
20
5.1825692416574
30
0
41
1
10
93.1006208142443
20
5.33230230666317
30
0
41
1
10
92.4106997154017
20
5.55548633721332
30
0
41
1
10
92.1807633272905
20
5.62963078128109
30
0
41
1
10
91.7208697233211
20
5.77717086042162
30
0
41
1
10
91.4909167195715
20
5.85057786730451
30
0
41
1
10
90.3411310702969
20
6.2158330389444
30
0
41
1
10
89.4212395988068
20
6.50235934111171
30
0
41
1
10
88.041479026241
20
6.92411497796368
30
0
41
1
10
87.5815729727461
20
7.06336271505333
30
0
41
1
10
86.8917630305233
20
7.27028611102915
30
0
41
1
10
86.6618342807127
20
7.33893502226917
30
0
41
1
10
86.2019958485123
20
7.47558649743226
30
0
41
1
10
85.9720913689082
20
7.54360128409655
30
0
41
1
10
85.2823132955384
20
7.74644888907747
30
0
41
1
10
84.8223093052069
20
7.87992935512969
30
0
41
1
10
83.9019602139119
20
8.14331923955854
30
0
41
1
10
83.4418007608738
20
8.27320718472672
30
0
41
1
10
82.0615370567729
20
8.65752913417739
30
0
41
1
10
81.1415879475536
20
8.90664448354582
30
0
41
1
10
79.9921130067128
20
9.2094979120514
30
0
41
1
10
79.7622439010872
20
9.26964650488154
30
0
41
1
10
79.3025383308033
20
9.38905481578593
30
0
41
1
10
79.072697047334
20
9.4483039911004
30
0
41
1
10
78.3830679232999
20
9.62439756231453
30
0
41
1
10
77.9231981540305
20
9.73963920623643
30
0
41
1
10
77.0032600775318
20
9.96591323404454
30
0
41
1
10
76.5431910252526
20
10.0769440347414
30
0
41
1
10
75.6228801379899
20
10.2948533822987
30
0
41
1
10
75.162577904021
20
10.4017449666657
30
0
41
1
10
74.2423175613391
20
10.6113226863087
30
0
41
1
10
73.7823233367579
20
10.7140205704362
30
0
41
1
10
72.8626348705792
20
10.9152546285308
30
0
41
1
10
72.4029406964884
20
11.0137833659083
30
0
41
1
10
71.0235266947217
20
11.301769838868
30
0
41
1
10
70.1036951821283
20
11.4840432805194
30
0
41
1
10
68.7237878965795
20
11.7432584715771
30
0
41
1
10
68.2637921881738
20
11.8272945982271
30
0
41
1
10
67.3437864938282
20
11.9906660487296
30
0
41
1
10
66.8837862455103
20
12.0700143523284
30
0
41
1
10
66.1937586677396
20
12.1854546896536
30
0
41
1
10
65.9637588695375
20
12.2233192329371
30
0
41
1
10
65.5037665079756
20
12.2976884430756
30
0
41
1
10
64.8137738720594
20
12.4072370916375
30
0
41
1
10
64.1237908306325
20
12.5108305966203
30
0
41
1
10
62.743878946614
20
12.710172798112
30
0
41
1
10
61.8240037391362
20
12.8326173582659
30
0
41
1
10
60.6744200915711
20
12.9727393880626
30
0
41
1
10
60.4445161740781
20
13.0001156194274
30
0
41
1
10
59.984737300214
20
13.0535688845324
30
0
41
1
10
59.7548657897749
20
13.0796484999811
30
0
41
1
10
59.0651826119283
20
13.1558297025398
30
0
41
1
10
58.6052495004685
20
13.2038295287487
30
0
41
1
10
57.6850926139692
20
13.2942909141412
30
0
41
1
10
57.2248108681536
20
13.3367631043134
30
0
41
1
10
56.3044543735406
20
13.4161746418728
30
0
41
1
10
55.844352520888
20
13.4531173011397
30
0
41
1
10
54.9243365760813
20
13.5214974826958
30
0
41
1
10
54.4644240851561
20
13.5529359080756
30
0
41
1
10
53.5448213756225
20
13.6102934574052
30
0
41
1
10
53.085181638776
20
13.6362286666602
30
0
41
1
10
51.7059384503123
20
13.7054219529497
30
0
41
1
10
50.7860592409236
20
13.7401412382718
30
0
41
1
10
49.40584410651
20
13.7753067864875
30
0
41
1
10
48.9457054875818
20
13.7842056300611
30
0
41
1
10
48.0253316757955
20
13.7963423071755
30
0
41
1
10
47.5652173579995
20
13.7995779963363
30
0
41
1
10
47.0749563833868
20
13.7999866749818
30
0
41
1
10
47.0446031329388
20
13.799999538409
30
0
41
1
10
47.0142505590424
20
13.7999999625381
30
0
0
SPLINE
5
CA
100
AcDbEntity
8
1
62
256
6
ByLayer
370
18
48
1
60
0
100
AcDbSpline
70
4
71
3
72
120
73
116
40
0
40
0
40
0
40
0
40
0.0312500000000011
40
0.0312500000000011
40
0.0625000000000022
40
0.0625000000000022
40
0.078125000000003
40
0.078125000000003
40
0.0859375000000036
40
0.0859375000000036
40
0.0937500000000042
40
0.0937500000000042
40
0.125000000000006
40
0.125000000000006
40
0.156250000000007
40
0.156250000000007
40
0.164062500000008
40
0.164062500000008
40
0.171875000000008
40
0.171875000000008
40
0.18750000000001
40
0.18750000000001
40
0.218750000000012
40
0.218750000000012
40
0.234375000000013
40
0.234375000000013
40
0.242187500000014
40
0.242187500000014
40
0.250000000000014
40
0.250000000000014
40
0.281250000000016
40
0.281250000000016
40
0.312500000000018
40
0.312500000000018
40
0.328125000000019
40
0.328125000000019
40
0.343750000000021
40
0.343750000000021
40
0.375000000000023
40
0.375000000000023
40
0.390625000000023
40
0.390625000000023
40
0.406250000000024
40
0.406250000000024
40
0.437500000000026
40
0.437500000000026
40
0.468750000000027
40
0.468750000000027
40
0.484375000000028
40
0.484375000000028
40
0.500000000000029
40
0.500000000000029
40
0.531250000000031
40
0.531250000000031
40
0.546875000000032
40
0.546875000000032
40
0.554687500000033
40
0.554687500000033
40
0.562500000000033
40
0.562500000000033
40
0.578125000000032
40
0.578125000000032
40
0.593750000000031
40
0.593750000000031
40
0.62500000000003
40
0.62500000000003
40
0.63281250000003
40
0.63281250000003
40
0.640625000000029
40
0.640625000000029
40
0.656250000000029
40
0.656250000000029
40
0.687500000000027
40
0.687500000000027
40
0.703125000000026
40
0.703125000000026
40
0.710937500000026
40
0.710937500000026
40
0.718750000000026
40
0.718750000000026
40
0.750000000000023
40
0.750000000000023
40
0.765625000000022
40
0.765625000000022
40
0.781250000000021
40
0.781250000000021
40
0.78906250000002
40
0.78906250000002
40
0.796875000000019
40
0.796875000000019
40
0.804687500000019
40
0.804687500000019
40
0.812500000000018
40
0.812500000000018
40
0.843750000000016
40
0.843750000000016
40
0.859375000000014
40
0.859375000000014
40
0.875000000000013
40
0.875000000000013
40
0.882812500000012
40
0.882812500000012
40
0.890625000000012
40
0.890625000000012
40
0.90625000000001
40
0.90625000000001
40
0.937500000000007
40
0.937500000000007
40
0.953125000000005
40
0.953125000000005
40
0.960937500000004
40
0.960937500000004
40
0.968750000000003
40
0.968750000000003
40
1
40
1
40
1
40
1
41
1
10
20.2026085630475
20
7.78316935846505
30
0
41
1
10
21.057771453756
20
7.53374248158556
30
0
41
1
10
21.9131065841687
20
7.28008470554536
30
0
41
1
10
23.6236823557495
20
6.76342914024471
30
0
41
1
10
24.4789258888082
20
6.50043773608525
30
0
41
1
10
25.76141889739
20
6.09815592766145
30
0
41
1
10
26.1888398202848
20
5.96272278386056
30
0
41
1
10
26.8298906783654
20
5.75763473692118
30
0
41
1
10
27.0435732060747
20
5.68898053328075
30
0
41
1
10
27.4710416954238
20
5.55136515226047
30
0
41
1
10
27.6848202502382
20
5.48238508754341
30
0
41
1
10
28.7538997808367
20
5.13653993604137
30
0
41
1
10
29.6099084405453
20
4.85670597576137
30
0
41
1
10
31.3209235015883
20
4.29041451919747
30
0
41
1
10
32.1760899601666
20
4.00387042503397
30
0
41
1
10
33.2444080502945
20
3.64081513036757
30
0
41
1
10
33.4580480205046
20
3.56798271841799
30
0
41
1
10
33.8853901081923
20
3.42217691351965
30
0
41
1
10
34.0990948422819
20
3.34921098299958
30
0
41
1
10
34.7402894587717
20
3.13007002620216
30
0
41
1
10
35.1678553762564
20
2.98363999943359
30
0
41
1
10
36.4507528914171
20
2.54305121009605
30
0
41
1
10
37.3063054580324
20
2.24765695152649
30
0
41
1
10
38.5897715640818
20
1.80121525358126
30
0
41
1
10
39.0174562500632
20
1.65189420220591
30
0
41
1
10
39.6587035544292
20
1.42705796730579
30
0
41
1
10
39.8724093039914
20
1.35197298664824
30
0
41
1
10
40.2998342843388
20
1.20180864115179
30
0
41
1
10
40.5135644592837
20
1.12676041168589
30
0
41
1
10
41.5823068777883
20
0.751698418782581
30
0
41
1
10
42.4375187534766
20
0.452009422758721
30
0
41
1
10
44.1479390270905
20
-0.147893185772233
30
0
41
1
10
45.0031572741381
20
-0.44807875613202
30
0
41
1
10
46.285690207182
20
-0.899588586469235
30
0
41
1
10
46.7131470358422
20
-1.05031199709015
30
0
41
1
10
47.5685866398073
20
-1.35038778147271
30
0
41
1
10
47.9963491129238
20
-1.49988227802635
30
0
41
1
10
49.2795225679168
20
-1.94709176684702
30
0
41
1
10
50.1348919970201
20
-2.24348102406307
30
0
41
1
10
51.4175390298407
20
-2.68625111396821
30
0
41
1
10
51.8450190486037
20
-2.83354121017177
30
0
41
1
10
52.6997897533179
20
-3.1276559260933
30
0
41
1
10
53.1270396336772
20
-3.2745919057393
30
0
41
1
10
54.4093906941718
20
-3.71223964385732
30
0
41
1
10
55.264869147743
20
-4.00042435112042
30
0
41
1
10
56.9764714672917
20
-4.57107346547403
30
0
41
1
10
57.8319849648188
20
-4.85326450888456
30
0
41
1
10
59.114363654316
20
-5.2725884221843
30
0
41
1
10
59.5416219146855
20
-5.41185971348233
30
0
41
1
10
60.3963829016011
20
-5.68769105589246
30
0
41
1
10
60.8238744195555
20
-5.82428527775659
30
0
41
1
10
62.106524996974
20
-6.23054090225165
30
0
41
1
10
62.9618787217109
20
-6.49663268119087
30
0
41
1
10
64.2450104887176
20
-6.88935800024001
30
0
41
1
10
64.6727365224017
20
-7.01919956194865
30
0
41
1
10
65.3143112277372
20
-7.21244024993445
30
0
41
1
10
65.5281390288012
20
-7.27659972489008
30
0
41
1
10
65.9556927740659
20
-7.40435555146212
30
0
41
1
10
66.1694318800907
20
-7.46794288333663
30
0
41
1
10
66.8107020828098
20
-7.65743514325388
30
0
41
1
10
67.2382837473064
20
-7.78207937357041
30
0
41
1
10
68.0934759543262
20
-8.0282887547157
30
0
41
1
10
68.5210881688048
20
-8.14984935363987
30
0
41
1
10
69.8039097979425
20
-8.51006340876694
30
0
41
1
10
70.6591077930043
20
-8.74425203627908
30
0
41
1
10
71.7278250409973
20
-9.03005043222484
30
0
41
1
10
71.9415540181968
20
-9.08686337980672
30
0
41
1
10
72.3689800673822
20
-9.19979751254547
30
0
41
1
10
72.5826794041459
20
-9.25591334792077
30
0
41
1
10
73.2238900398469
20
-9.4228798209449
30
0
41
1
10
73.6515590846011
20
-9.53225737761136
30
0
41
1
10
74.9350165367828
20
-9.85491852081114
30
0
41
1
10
75.7906364076326
20
-10.0626173567079
30
0
41
1
10
77.0735537543235
20
-10.3635859439551
30
0
41
1
10
77.5011174087929
20
-10.4621489172818
30
0
41
1
10
78.1423110564558
20
-10.6074069904592
30
0
41
1
10
78.356016937676
20
-10.6553951247633
30
0
41
1
10
78.7833717605784
20
-10.7505149987538
30
0
41
1
10
78.9970166151839
20
-10.7976535011388
30
0
41
1
10
80.0653086092781
20
-11.030822153484
30
0
41
1
10
80.920485719534
20
-11.2087322155331
30
0
41
1
10
82.2037107758284
20
-11.4634350254451
30
0
41
1
10
82.6315317526096
20
-11.5463007156399
30
0
41
1
10
83.4872832634649
20
-11.7080326989038
30
0
41
1
10
83.9150888153795
20
-11.7868764346097
30
0
41
1
10
84.5565298133687
20
-11.9021260551079
30
0
41
1
10
84.7703054222167
20
-11.9400409734821
30
0
41
1
10
85.1977740872644
20
-12.0148713293421
30
0
41
1
10
85.4114602641209
20
-12.0517959832748
30
0
41
1
10
85.8388078518664
20
-12.1245601787468
30
0
41
1
10
86.052480513318
20
-12.16038429339
30
0
41
1
10
86.4798856705141
20
-12.2308387646871
30
0
41
1
10
86.6936091158905
20
-12.2654817366625
30
0
41
1
10
87.7622966038633
20
-12.4358357453928
30
0
41
1
10
88.6174498901613
20
-12.5630097199064
30
0
41
1
10
89.9002074856854
20
-12.7405088518698
30
0
41
1
10
90.3277969018792
20
-12.7974624919625
30
0
41
1
10
91.1829320332834
20
-12.9069705791956
30
0
41
1
10
91.6104578116476
20
-12.9595438931675
30
0
41
1
10
92.2517471192572
20
-13.0350325332463
30
0
41
1
10
92.46552588151
20
-13.0596181561311
30
0
41
1
10
92.8932102830174
20
-13.1075494729639
30
0
41
1
10
93.1070659555272
20
-13.1308999550466
30
0
41
1
10
93.7486250047486
20
-13.1991325728545
30
0
41
1
10
94.1763280763598
20
-13.24220225926
30
0
41
1
10
95.4593410888635
20
-13.3642764415887
30
0
41
1
10
96.3145709529564
20
-13.4361498353668
30
0
41
1
10
97.5969452937818
20
-13.529843709262
30
0
41
1
10
98.0243151058938
20
-13.5587230595391
30
0
41
1
10
98.6652443154809
20
-13.598472196924
30
0
41
1
10
98.878875592679
20
-13.611121413873
30
0
41
1
10
99.3062257212279
20
-13.6351681359789
30
0
41
1
10
99.519941493324
20
-13.6465679998892
30
0
41
1
10
100.588689037719
20
-13.7004832762355
30
0
41
1
10
101.444192683895
20
-13.7337807559178
30
0
41
1
10
102.3
20
-13.7573613288331
30
0
0
SPLINE
5
CB
100
AcDbEntity
8
1
62
256
6
ByLayer
370
18
48
1
60
0
100
AcDbSpline
70
4
71
3
72
91
73
87
40
0
40
0
40
0
40
0
40
0.0020624013037937
40
0.0020624013037937
40
0.0242387923859312
40
0.0242387923859312
40
0.0464151834680686
40
0.0464151834680686
40
0.0685915745502061
40
0.0685915745502061
40
0.11294435671448
40
0.11294435671448
40
0.135120747796617
40
0.135120747796617
40
0.157297138878754
40
0.157297138878754
40
0.168385334419822
40
0.168385334419822
40
0.17947352996089
40
0.201649921043029
40
0.201649921043029
40
0.246002703207306
40
0.246002703207306
40
0.257090898748375
40
0.257090898748375
40
0.268179094289444
40
0.268179094289444
40
0.290355485371583
40
0.290355485371583
40
0.312531876453721
40
0.312531876453721
40
0.334708267535859
40
0.334708267535859
40
0.356884658617997
40
0.356884658617997
40
0.379061049700135
40
0.379061049700135
40
0.423413831864411
40
0.423413831864411
40
0.445590222946549
40
0.445590222946549
40
0.467766614028688
40
0.467766614028688
40
0.478854809569757
40
0.478854809569757
40
0.489943005110826
40
0.489943005110826
40
0.512119396192964
40
0.512119396192964
40
0.55647217835724
40
0.55647217835724
40
0.578648569439378
40
0.578648569439378
40
0.589736764980447
40
0.589736764980447
40
0.600824960521516
40
0.600824960521516
40
0.645177742685792
40
0.645177742685792
40
0.66735413376793
40
0.66735413376793
40
0.678442329308998
40
0.678442329308998
40
0.689530524850067
40
0.689530524850067
40
0.733883307014343
40
0.733883307014343
40
0.756059698096481
40
0.756059698096481
40
0.778236089178619
40
0.778236089178619
40
0.800412480260757
40
0.800412480260757
40
0.822588871342896
40
0.822588871342896
40
0.866941653507171
40
0.866941653507171
40
0.889118044589309
40
0.889118044589309
40
0.900206240130378
40
0.900206240130378
40
0.911294435671448
40
0.911294435671448
40
0.955647217835724
40
0.955647217835724
40
1
40
1
40
1
40
1
41
1
10
76.2114165069379
20
-10.1554465064339
30
0
41
1
10
76.1686236196672
20
-10.1656152129643
30
0
41
1
10
76.1258299742424
20
-10.1757659389263
30
0
41
1
10
75.6228801379898
20
-10.2948533822987
30
0
41
1
10
75.1625779040209
20
-10.4017449666657
30
0
41
1
10
74.2423175613391
20
-10.6113226863087
30
0
41
1
10
73.7823233367578
20
-10.7140205704362
30
0
41
1
10
72.8626348705791
20
-10.9152546285308
30
0
41
1
10
72.4029406964884
20
-11.0137833659083
30
0
41
1
10
71.0235266947217
20
-11.3017698388681
30
0
41
1
10
70.1036951821282
20
-11.4840432805193
30
0
41
1
10
68.7237878965794
20
-11.743258471577
30
0
41
1
10
68.2637921881737
20
-11.8272945982271
30
0
41
1
10
67.3437864938281
20
-11.9906660487296
30
0
41
1
10
66.8837862455102
20
-12.0700143523284
30
0
41
1
10
66.1937586677395
20
-12.1854546896535
30
0
41
1
10
65.9637588695374
20
-12.2233192329371
30
0
41
1
10
65.5037665079755
20
-12.2976884430756
30
0
41
1
10
64.8137738720594
20
-12.4072370916375
30
0
41
1
10
64.1237908306323
20
-12.5108305966203
30
0
41
1
10
62.7438789466139
20
-12.7101727981119
30
0
41
1
10
61.8240037391361
20
-12.8326173582659
30
0
41
1
10
60.674420091571
20
-12.9727393880626
30
0
41
1
10
60.444516174078
20
-13.0001156194274
30
0
41
1
10
59.9847373002139
20
-13.0535688845324
30
0
41
1
10
59.7548657897748
20
-13.0796484999811
30
0
41
1
10
59.0651826119283
20
-13.1558297025398
30
0
41
1
10
58.6052495004684
20
-13.2038295287487
30
0
41
1
10
57.6850926139692
20
-13.2942909141411
30
0
41
1
10
57.2248108681535
20
-13.3367631043134
30
0
41
1
10
56.3044543735405
20
-13.4161746418728
30
0
41
1
10
55.844352520888
20
-13.4531173011397
30
0
41
1
10
54.9243365760813
20
-13.5214974826958
30
0
41
1
10
54.4644240851561
20
-13.5529359080756
30
0
41
1
10
53.5448213756225
20
-13.6102934574052
30
0
41
1
10
53.085181638776
20
-13.6362286666602
30
0
41
1
10
51.7059384503122
20
-13.7054219529497
30
0
41
1
10
50.7860592409235
20
-13.7401412382718
30
0
41
1
10
49.4058441065099
20
-13.7753067864875
30
0
41
1
10
48.9457054875817
20
-13.7842056300611
30
0
41
1
10
48.0253316757955
20
-13.7963423071755
30
0
41
1
10
47.5652173579994
20
-13.7995779963363
30
0
41
1
10
46.8753569328684
20
-13.8001530599019
30
0
41
1
10
46.6454478832707
20
-13.7996308260386
30
0
41
1
10
46.1856338300356
20
-13.7971586972934
30
0
41
1
10
45.9557194090532
20
-13.7952098661809
30
0
41
1
10
45.2659433752978
20
-13.7872363595979
30
0
41
1
10
44.8060565374055
20
-13.7790853731998
30
0
41
1
10
43.4263338780534
20
-13.7461727607726
30
0
41
1
10
42.5064269681231
20
-13.7129707788217
30
0
41
1
10
41.1266365540225
20
-13.6461578195636
30
0
41
1
10
40.6667334632729
20
-13.6210396338915
30
0
41
1
10
39.9768632138681
20
-13.5790788984604
30
0
41
1
10
39.7468900248989
20
-13.564384395063
30
0
41
1
10
39.2868330518676
20
-13.5336237406068
30
0
41
1
10
39.0567655808075
20
-13.5175543227327
30
0
41
1
10
37.9065384410195
20
-13.4337916985442
30
0
41
1
10
36.9864515977739
20
-13.3558536390214
30
0
41
1
10
35.6066344690888
20
-13.2225336886836
30
0
41
1
10
35.1467496465476
20
-13.1753528636471
30
0
41
1
10
34.4570304506113
20
-13.1004268960272
30
0
41
1
10
34.227141831173
20
-13.0747590453703
30
0
41
1
10
33.7674031911014
20
-13.0220293207401
30
0
41
1
10
33.5375535932013
20
-12.9949663328697
30
0
41
1
10
32.3881857671526
20
-12.8563648879529
30
0
41
1
10
31.4681559975139
20
-12.7351460381444
30
0
41
1
10
30.0874750106025
20
-12.5377915565069
30
0
41
1
10
29.6272751810353
20
-12.4694340884194
30
0
41
1
10
28.7073964554336
20
-12.3275955667566
30
0
41
1
10
28.2476534599123
20
-12.2541030744523
30
0
41
1
10
27.328590711795
20
-12.1019086085712
30
0
41
1
10
26.869314417735
20
-12.0231394694863
30
0
41
1
10
25.9507216260115
20
-11.8610329229129
30
0
41
1
10
25.4914313696281
20
-11.7776656394377
30
0
41
1
10
24.1136280237462
20
-11.5206041346079
30
0
41
1
10
23.1951732366246
20
-11.3399777499335
30
0
41
1
10
21.8178069885048
20
-11.0548492571456
30
0
41
1
10
21.3587401711133
20
-10.9574336772783
30
0
41
1
10
20.6702405898422
20
-10.8076927822221
30
0
41
1
10
20.4407568302166
20
-10.757176609949
30
0
41
1
10
19.9817334675662
20
-10.6550957070754
30
0
41
1
10
19.7521869286406
20
-10.6035441323203
30
0
41
1
10
18.6042815450569
20
-10.34324001432
30
0
41
1
10
17.6854210654653
20
-10.1268346336031
30
0
41
1
10
15.8468438984165
20
-9.6773577691558
30
0
41
1
10
14.9271240104397
20
-9.44429554545263
30
0
41
1
10
14.0071147349948
20
-9.20244974798078
30
0
0
SPLINE
5
CC
100
AcDbEntity
8
1
62
256
6
ByLayer
370
18
48
1
60
0
100
AcDbSpline
70
4
71
3
72
94
73
90
40
0
40
0
40
0
40
0
40
0.0625000000000051
40
0.0625000000000051
40
0.093750000000007
40
0.093750000000007
40
0.125000000000009
40
0.125000000000009
40
0.156250000000011
40
0.156250000000011
40
0.164062500000011
40
0.164062500000011
40
0.171875000000011
40
0.187500000000011
40
0.187500000000011
40
0.218750000000012
40
0.218750000000012
40
0.250000000000012
40
0.250000000000012
40
0.281250000000012
40
0.281250000000012
40
0.289062500000013
40
0.289062500000013
40
0.296875000000013
40
0.312500000000012
40
0.312500000000012
40
0.343750000000011
40
0.343750000000011
40
0.37500000000001
40
0.37500000000001
40
0.382812500000009
40
0.382812500000009
40
0.390625000000009
40
0.390625000000009
40
0.406250000000008
40
0.406250000000008
40
0.437500000000007
40
0.437500000000007
40
0.468750000000006
40
0.468750000000006
40
0.476562500000005
40
0.480468750000005
40
0.480468750000005
40
0.484375000000005
40
0.484375000000005
40
0.500000000000004
40
0.500000000000004
40
0.531250000000003
40
0.531250000000003
40
0.562500000000001
40
0.562500000000001
40
0.570312500000001
40
0.570312500000001
40
0.578125
40
0.578125
40
0.593749999999999
40
0.593749999999999
40
0.624999999999998
40
0.624999999999998
40
0.640624999999998
40
0.640624999999998
40
0.656249999999998
40
0.656249999999998
40
0.687499999999998
40
0.687499999999998
40
0.718749999999997
40
0.718749999999997
40
0.749999999999997
40
0.749999999999997
40
0.765624999999997
40
0.773437499999996
40
0.773437499999996
40
0.781249999999996
40
0.781249999999996
40
0.812499999999996
40
0.812499999999996
40
0.843749999999996
40
0.843749999999996
40
0.874999999999996
40
0.874999999999996
40
0.906249999999996
40
0.906249999999996
40
0.937499999999996
40
0.937499999999996
40
0.953124999999997
40
0.953124999999997
40
0.968749999999997
40
0.968749999999997
40
1
40
1
40
1
40
1
41
1
10
10
20
8.0934786952233
30
0
41
1
10
9.53256530921564
20
8.00367482149554
30
0
41
1
10
9.07889208141921
20
7.88925181782338
30
0
41
1
10
8.4186957774765
20
7.67723175052055
30
0
41
1
10
8.20202340885541
20
7.59980585718344
30
0
41
1
10
7.77551514302797
20
7.43055530529765
30
0
41
1
10
7.56567854878944
20
7.33873323832256
30
0
41
1
10
7.15298088283197
20
7.13951503614291
30
0
41
1
10
6.95011868369897
20
7.03212303129146
30
0
41
1
10
6.70106015128761
20
6.88717528955817
30
0
41
1
10
6.6514546487854
20
6.85763556157363
30
0
41
1
10
6.5530865451849
20
6.79769389231157
30
0
41
1
10
6.4066586848096
20
6.70640820012335
30
0
41
1
10
6.26360107030024
20
6.61096028555909
30
0
41
1
10
5.98199031083806
20
6.4143772906659
30
0
41
1
10
5.80024820918771
20
6.27574988117524
30
0
41
1
10
5.44898614994787
20
5.98238451623124
30
0
41
1
10
5.27946385986482
20
5.82765073210115
30
0
41
1
10
4.95313259429446
20
5.50071750016537
30
0
41
1
10
4.7963194840209
20
5.32852513183076
30
0
41
1
10
4.6087820755767
20
5.1011737517625
30
0
41
1
10
4.5717273813728
20
5.05512648730851
30
0
41
1
10
4.4988531510466
20
4.96226792931134
30
0
41
1
10
4.39125775514799
20
4.82166897910744
30
0
41
1
10
4.28881367100647
20
4.6771040279319
30
0
41
1
10
4.0908443642455
20
4.38256941540163
30
0
41
1
10
3.96807211606628
20
4.17902033623898
30
0
41
1
10
3.74160315210292
20
3.75662288943764
30
0
41
1
10
3.6378998191756
20
3.53778037953222
30
0
41
1
10
3.52100581918572
20
3.25378416126483
30
0
41
1
10
3.49826568067974
20
3.19646125385359
30
0
41
1
10
3.4540915141805
20
3.08073931079625
30
0
41
1
10
3.43276601281246
20
3.0226236873624
30
0
41
1
10
3.37109155524576
20
2.84759669383425
30
0
41
1
10
3.33302924236108
20
2.72996918911832
30
0
41
1
10
3.22794475753776
20
2.37425435847626
30
0
41
1
10
3.1700002117579
20
2.13334140084984
30
0
41
1
10
3.07860102457624
20
1.64380132819986
30
0
41
1
10
3.04514204511872
20
1.39517563951946
30
0
41
1
10
3.01931691495091
20
1.07931982622992
30
0
41
1
10
3.01277270447886
20
0.984181602640575
30
0
41
1
10
3.00806399485518
20
0.888460980788409
30
0
41
1
10
3.00533663720822
20
0.824516538719706
30
0
41
1
10
3.00417808051753
20
0.79245200021191
30
0
41
1
10
2.99943404505021
20
0.632128117878324
30
0
41
1
10
2.99899996545412
20
0.504341577891978
30
0
41
1
10
3.00751885410804
20
0.12236284962691
30
0
41
1
10
3.02626664070982
20
-0.130451861838566
30
0
41
1
10
3.08919803073235
20
-0.632511268905034
30
0
41
1
10
3.13338481250065
20
-0.881755528636859
30
0
41
1
10
3.20458807356084
20
-1.19107941613913
30
0
41
1
10
3.21962908828931
20
-1.25283238033441
30
0
41
1
10
3.25132099428964
20
-1.37611373400051
30
0
41
1
10
3.2679203737363
20
-1.4374369089827
30
0
41
1
10
3.3198218724072
20
-1.62005208666198
30
0
41
1
10
3.35727248576586
20
-1.74017328686602
30
0
41
1
10
3.4778634968479
20
-2.09587261951128
30
0
41
1
10
3.56922457713171
20
-2.32679656005996
30
0
41
1
10
3.72187949135085
20
-2.66445917637395
30
0
41
1
10
3.77537167667208
20
-2.77555676970167
30
0
41
1
10
3.88748265578721
20
-2.99490895117219
30
0
41
1
10
3.94611975345128
20
-3.10319513607033
30
0
41
1
10
4.12952045823656
20
-3.42367910239665
30
0
41
1
10
4.25992468955283
20
-3.62834418716636
30
0
41
1
10
4.53547401130854
20
-4.0217186996779
30
0
41
1
10
4.68062604380356
20
-4.21042022185014
30
0
41
1
10
4.98456515353837
20
-4.5733720204743
30
0
41
1
10
5.14335666618726
20
-4.74761739028361
30
0
41
1
10
5.39112167472604
20
-4.99904178612209
30
0
41
1
10
5.51740086331955
20
-5.12226505328664
30
0
41
1
10
5.64716792908442
20
-5.24190175592483
30
0
41
1
10
5.73444322279008
20
-5.3208776818349
30
0
41
1
10
5.77847179358741
20
-5.35998102553216
30
0
41
1
10
5.99966374767564
20
-5.55287011661667
30
0
41
1
10
6.18062160559981
20
-5.69939009000112
30
0
41
1
10
6.54968922880184
20
-5.97884265248041
30
0
41
1
10
6.73780077442561
20
-6.11177089548298
30
0
41
1
10
7.12043879529762
20
-6.36567512837885
30
0
41
1
10
7.31496599957566
20
-6.48664884793084
30
0
41
1
10
7.70977528360584
20
-6.71802957304143
30
0
41
1
10
7.91005722506031
20
-6.82843576767738
30
0
41
1
10
8.3157845941889
20
-7.03986150344184
30
0
41
1
10
8.52122913737105
20
-7.14088129405391
30
0
41
1
10
8.83288841255984
20
-7.28610710317184
30
0
41
1
10
8.93735766576216
20
-7.33346347174813
30
0
41
1
10
9.14740943673559
20
-7.42617424683098
30
0
41
1
10
9.25303576200963
20
-7.47154683503607
30
0
41
1
10
9.57117513146693
20
-7.60465084148757
30
0
41
1
10
9.78484583354452
20
-7.68934243621294
30
0
41
1
10
10
20
-7.77031656794577
30
0
0
SPLINE
5
CD
100
AcDbEntity
8
1
62
256
6
ByLayer
370
18
48
1
60
0
100
AcDbSpline
70
4
71
3
72
14
73
10
40
0
40
0
40
0
40
0
40
0.25
40
0.25
40
0.5
40
0.5
40
0.75
40
0.75
40
1
40
1
40
1
40
1
41
1
10
14.0071147349948
20
-9.20244974798081
30
0
41
1
10
13.661354938874
20
-9.10874584884454
30
0
41
1
10
13.3189296668896
20
-9.00849061103023
30
0
41
1
10
12.6398580818129
20
-8.79563688538849
30
0
41
1
10
12.3032073272958
20
-8.68304922277738
30
0
41
1
10
11.6353567795637
20
-8.44537936102864
30
0
41
1
10
11.3041572772329
20
-8.3203016652802
30
0
41
1
10
10.6475263162631
20
-8.05631889179111
30
0
41
1
10
10.3220989665087
20
-7.91741229689998
30
0
41
1
10
10
20
-7.77031656794577
30
0
0
SPLINE
5
CE
100
AcDbEntity
8
1
62
256
6
ByLayer
370
18
48
1
60
0
100
AcDbSpline
70
4
71
4
72
16
73
11
40
0
40
0
40
0
40
0
40
0
40
0.290902154881822
40
0.290902154881822
40
0.290902154881822
40
0.709097845118177
40
0.709097845118177
40
0.709097845118177
40
1
40
1
40
1
40
1
40
1
41
0.996781205377453
10
20.2026085630474
20
7.7831693584647
30
0
41
0.994712669283808
10
20.0163126977112
20
7.3817293999266
30
0
41
0.99420986852106
10
19.6853052790572
20
6.57711920387142
30
0
41
1
10
19.2243632536354
20
5.39336802126456
30
0
41
1
10
18.0284107780558
20
2.24641876783761
30
0
41
0.988033871712585
10
17.1048616490211
20
-0.24434659412373
30
0
41
1
10
16.1813125199865
20
-2.81760168549334
30
0
41
1
10
14.9853600444069
20
-6.22831959578011
30
0
41
0.99420986852106
10
14.5244180189851
20
-7.57201364716484
30
0
41
0.994712669283808
10
14.1934106003311
20
-8.58238901665325
30
0
41
0.996781205377453
10
14.0071147349949
20
-9.20244974798026
30
0
0
SPLINE
5
CF
100
AcDbEntity
8
1
62
256
6
ByLayer
370
18
48
1
60
0
100
AcDbSpline
70
4
71
3
72
26
73
22
40
0
40
0
40
0
40
0
40
0.125000000000002
40
0.125000000000002
40
0.250000000000004
40
0.250000000000004
40
0.375000000000006
40
0.375000000000006
40
0.437500000000007
40
0.437500000000007
40
0.468750000000007
40
0.468750000000007
40
0.500000000000008
40
0.500000000000008
40
0.625000000000006
40
0.625000000000006
40
0.750000000000004
40
0.750000000000004
40
0.875000000000002
40
0.875000000000002
40
1
40
1
40
1
40
1
41
1
10
10
20
8.0934786952233
30
0
41
1
10
10.4133478033011
20
8.21640780974798
30
0
41
1
10
10.8305012381181
20
8.31818939190194
30
0
41
1
10
11.6718939845638
20
8.4845286600281
30
0
41
1
10
12.0961371329184
20
8.54905791859161
30
0
41
1
10
12.9514298059645
20
8.64373028677198
30
0
41
1
10
13.3824822060056
20
8.67385525513498
30
0
41
1
10
14.0340598331234
20
8.69427170695158
30
0
41
1
10
14.2520863840018
20
8.69693862619542
30
0
41
1
10
14.580368165892
20
8.69478694436197
30
0
41
1
10
14.6900095372797
20
8.69304375783221
30
0
41
1
10
14.9096762980871
20
8.68751131863795
30
0
41
1
10
15.0192377033271
20
8.68373397365318
30
0
41
1
10
15.5657243780917
20
8.6599264004773
30
0
41
1
10
15.9986911145654
20
8.62516159895628
30
0
41
1
10
16.8571310782808
20
8.52709375431377
30
0
41
1
10
17.2826011730253
20
8.4637719494439
30
0
41
1
10
18.1269908327273
20
8.31108888622106
30
0
41
1
10
18.5459110435316
20
8.22172356284722
30
0
41
1
10
19.3781899843959
20
8.01947663420941
30
0
41
1
10
19.7915547721235
20
7.90661422725634
30
0
41
1
10
20.2026085630476
20
7.78316935846505
30
0
0
SPLINE
5
D0
100
AcDbEntity
8
1
62
256
6
ByLayer
370
13
48
1
60
0
100
AcDbSpline
70
4
71
3
72
138
73
134
40
0
40
0
40
0
40
0
40
0.0156250000000002
40
0.0156250000000002
40
0.0312500000000004
40
0.0312500000000004
40
0.0468750000000006
40
0.0468750000000006
40
0.0625000000000007
40
0.0625000000000007
40
0.0781250000000009
40
0.0781250000000009
40
0.0937500000000011
40
0.0937500000000011
40
0.109375000000001
40
0.109375000000001
40
0.125000000000001
40
0.125000000000001
40
0.140625000000002
40
0.140625000000002
40
0.148437500000002
40
0.148437500000002
40
0.152343750000002
40
0.152343750000002
40
0.156250000000002
40
0.156250000000002
40
0.187500000000002
40
0.187500000000002
40
0.203125000000002
40
0.203125000000002
40
0.218750000000002
40
0.218750000000002
40
0.234375000000002
40
0.234375000000002
40
0.250000000000003
40
0.250000000000003
40
0.265625000000003
40
0.265625000000003
40
0.281250000000003
40
0.281250000000003
40
0.296875000000003
40
0.296875000000003
40
0.312500000000003
40
0.312500000000003
40
0.328125000000004
40
0.328125000000004
40
0.343750000000004
40
0.343750000000004
40
0.359375000000004
40
0.359375000000004
40
0.375000000000004
40
0.375000000000004
40
0.390625000000004
40
0.390625000000004
40
0.406250000000004
40
0.406250000000004
40
0.421875000000004
40
0.421875000000004
40
0.429687500000005
40
0.429687500000005
40
0.433593750000005
40
0.433593750000005
40
0.437500000000005
40
0.437500000000005
40
0.468750000000005
40
0.468750000000005
40
0.484375000000005
40
0.484375000000005
40
0.500000000000005
40
0.500000000000005
40
0.515625000000005
40
0.515625000000005
40
0.531250000000005
40
0.531250000000005
40
0.546875000000005
40
0.546875000000005
40
0.562500000000005
40
0.562500000000005
40
0.578125000000005
40
0.578125000000005
40
0.593750000000004
40
0.593750000000004
40
0.609375000000004
40
0.609375000000004
40
0.625000000000004
40
0.625000000000004
40
0.640625000000004
40
0.640625000000004
40
0.656250000000004
40
0.656250000000004
40
0.671875000000004
40
0.671875000000004
40
0.687500000000004
40
0.687500000000004
40
0.703125000000004
40
0.703125000000004
40
0.710937500000004
40
0.710937500000004
40
0.714843750000004
40
0.714843750000004
40
0.718750000000004
40
0.718750000000004
40
0.750000000000004
40
0.750000000000004
40
0.765625000000004
40
0.765625000000004
40
0.781250000000003
40
0.781250000000003
40
0.796875000000003
40
0.796875000000003
40
0.812500000000003
40
0.812500000000003
40
0.828125000000003
40
0.828125000000003
40
0.843750000000002
40
0.843750000000002
40
0.859375000000002
40
0.859375000000002
40
0.875000000000002
40
0.875000000000002
40
0.890625000000002
40
0.890625000000002
40
0.906250000000001
40
0.906250000000001
40
0.921875000000001
40
0.921875000000001
40
0.937500000000001
40
0.937500000000001
40
0.953125000000001
40
0.953125000000001
40
0.96875
40
0.96875
40
1
40
1
40
1
40
1
41
1
10
102.3
20
10.6866841843622
30
0
41
1
10
102.357550829479
20
10.3975802695364
30
0
41
1
10
102.415101658957
20
10.0931523038464
30
0
41
1
10
102.530203317915
20
9.4574100500227
30
0
41
1
10
102.587754147394
20
9.12610163637143
30
0
41
1
10
102.702855806351
20
8.44101960763572
30
0
41
1
10
102.76040663583
20
8.08725288511184
30
0
41
1
10
102.875508294788
20
7.36213234719008
30
0
41
1
10
102.933059124267
20
6.99078582000578
30
0
41
1
10
103.048160783224
20
6.23562557091077
30
0
41
1
10
103.105711612703
20
5.8518189032589
30
0
41
1
10
103.22081327166
20
5.07688249978946
30
0
41
1
10
103.278364101139
20
4.68575903550772
30
0
41
1
10
103.393465760097
20
3.90115547368666
30
0
41
1
10
103.451016589575
20
3.50768046191425
30
0
41
1
10
103.566118248533
20
2.72299077155006
30
0
41
1
10
103.623669078012
20
2.33177976750503
30
0
41
1
10
103.738770736969
20
1.55575347589146
30
0
41
1
10
103.796321566448
20
1.17094040208409
30
0
41
1
10
103.882647810666
20
0.601191656498656
30
0
41
1
10
103.911423225406
20
0.412515902523268
30
0
41
1
10
103.954586347515
20
0.131654002780437
30
0
41
1
10
103.968974054884
20
0.0385996242780777
30
0
41
1
10
103.997749469624
20
-0.147751815462954
30
0
41
1
10
104.012137176993
20
-0.241299661557065
30
0
41
1
10
104.14162654332
20
-1.086373293669
30
0
41
1
10
104.256728202278
20
-1.86029294315062
30
0
41
1
10
104.429380690714
20
-3.03359478445628
30
0
41
1
10
104.486931520193
20
-3.42668932951128
30
0
41
1
10
104.602033179151
20
-4.21243866762094
30
0
41
1
10
104.659584008629
20
-4.60508892579412
30
0
41
1
10
104.774685667587
20
-5.38510786550458
30
0
41
1
10
104.832236497066
20
-5.77247071373014
30
0
41
1
10
104.947338156023
20
-6.53682126379846
30
0
41
1
10
105.004888985502
20
-6.91380216735999
30
0
41
1
10
105.11999064446
20
-7.65223446681853
30
0
41
1
10
105.177541473938
20
-8.01367859567478
30
0
41
1
10
105.292643132896
20
-8.7160352533632
30
0
41
1
10
105.350193962375
20
-9.05694065309112
30
0
41
1
10
105.465295621332
20
-9.71358841638499
30
0
41
1
10
105.522846450811
20
-10.029324425492
30
0
41
1
10
105.637948109768
20
-10.6315773550381
30
0
41
1
10
105.695498939247
20
-10.9180892686329
30
0
41
1
10
105.810600598205
20
-11.4585858913661
30
0
41
1
10
105.868151427684
20
-11.7125673637139
30
0
41
1
10
105.983253086641
20
-12.185568050932
30
0
41
1
10
106.04080391612
20
-12.4045860107621
30
0
41
1
10
106.155905575077
20
-12.8061656682811
30
0
41
1
10
106.213456404556
20
-12.988728072874
30
0
41
1
10
106.328558063514
20
-13.3168515903208
30
0
41
1
10
106.386108892992
20
-13.4624151417144
30
0
41
1
10
106.50121055195
20
-13.7168966371789
30
0
41
1
10
106.558761381429
20
-13.8258183650952
30
0
41
1
10
106.673863040386
20
-14.0081776505696
30
0
41
1
10
106.731413869865
20
-14.081619867529
30
0
41
1
10
106.846515528823
20
-14.1948587920021
30
0
41
1
10
106.904066358301
20
-14.2346605549013
30
0
41
1
10
106.99039260252
20
-14.2709052993844
30
0
41
1
10
107.019168017259
20
-14.2790808852277
30
0
41
1
10
107.062331139368
20
-14.2857344362744
30
0
41
1
10
107.076718846738
20
-14.2870174844111
30
0
41
1
10
107.105494261477
20
-14.2877573383813
30
0
41
1
10
107.119881968847
20
-14.2872198352555
30
0
41
1
10
107.249371335174
20
-14.274060795925
30
0
41
1
10
107.364472994132
20
-14.2028274529568
30
0
41
1
10
107.537125482568
20
-13.9923211609945
30
0
41
1
10
107.594676312047
20
-13.9049273315834
30
0
41
1
10
107.709777971004
20
-13.69411252193
30
0
41
1
10
107.767328800483
20
-13.5706871726925
30
0
41
1
10
107.88243045944
20
-13.286952966862
30
0
41
1
10
107.939981288919
20
-13.1266408091331
30
0
41
1
10
108.055082947877
20
-12.769124141882
30
0
41
1
10
108.112633777355
20
-12.5719178447233
30
0
41
1
10
108.227735436313
20
-12.1415295661799
30
0
41
1
10
108.285286265792
20
-11.9083476428976
30
0
41
1
10
108.400387924749
20
-11.4078773865506
30
0
41
1
10
108.457938754228
20
-11.140591108707
30
0
41
1
10
108.573040413186
20
-10.5747027131014
30
0
41
1
10
108.630591242664
20
-10.2761045755044
30
0
41
1
10
108.745692901622
20
-9.65121328519098
30
0
41
1
10
108.803243731101
20
-9.32492573704675
30
0
41
1
10
108.918345390058
20
-8.64896154874299
30
0
41
1
10
108.975896219537
20
-8.29929164605613
30
0
41
1
10
109.090997878495
20
-7.58136656343058
30
0
41
1
10
109.148548707973
20
-7.21311864423109
30
0
41
1
10
109.263650366931
20
-6.46312680728153
30
0
41
1
10
109.32120119641
20
-6.08139003787372
30
0
41
1
10
109.436302855367
20
-5.30957664183572
30
0
41
1
10
109.493853684846
20
-4.91950648016299
30
0
41
1
10
109.608955343804
20
-4.13604297110601
30
0
41
1
10
109.666506173282
20
-3.74265496955508
30
0
41
1
10
109.78160783224
20
-2.95725426892173
30
0
41
1
10
109.839158661719
20
-2.56524553484226
30
0
41
1
10
109.954260320676
20
-1.78684315971816
30
0
41
1
10
110.011811150155
20
-1.40045201979012
30
0
41
1
10
110.098137394373
20
-0.827839582317665
30
0
41
1
10
110.126912809112
20
-0.638126581669951
30
0
41
1
10
110.170075931221
20
-0.35559633675868
30
0
41
1
10
110.184463638591
20
-0.261759163795261
30
0
41
1
10
110.21323905333
20
-0.074810761026356
30
0
41
1
10
110.2276267607
20
0.018059179231642
30
0
41
1
10
110.357116127027
20
0.85799219036403
30
0
41
1
10
110.472217785985
20
1.6285217555922
30
0
41
1
10
110.644870274421
20
2.79921711946844
30
0
41
1
10
110.7024211039
20
3.19185504044873
30
0
41
1
10
110.817522762857
20
3.97761131130673
30
0
41
1
10
110.875073592336
20
4.37072540894189
30
0
41
1
10
110.990175251294
20
5.15266230347635
30
0
41
1
10
111.047726080773
20
5.54147950487598
30
0
41
1
10
111.16282773973
20
6.30976491743004
30
0
41
1
10
111.220378569209
20
6.68922648762558
30
0
41
1
10
111.335480228166
20
7.43364187840706
30
0
41
1
10
111.393031057645
20
7.79858847946127
30
0
41
1
10
111.508132716603
20
8.50892398587879
30
0
41
1
10
111.565683546082
20
8.85430568350554
30
0
41
1
10
111.680785205039
20
9.5207890561806
30
0
41
1
10
111.738336034518
20
9.84188417334437
30
0
41
1
10
111.853437693475
20
10.4556086594527
30
0
41
1
10
111.910988522954
20
10.7482327134834
30
0
41
1
10
112.026090181912
20
11.3015462706154
30
0
41
1
10
112.08364101139
20
11.5622321600968
30
0
41
1
10
112.198742670348
20
12.049053060519
30
0
41
1
10
112.256293499827
20
12.2751864158369
30
0
41
1
10
112.371395158784
20
12.6912182228024
30
0
41
1
10
112.428945988263
20
12.881117002739
30
0
41
1
10
112.54404764722
20
13.2239477261488
30
0
41
1
10
112.601598476699
20
13.3768817899846
30
0
41
1
10
112.716700135657
20
13.6459655717485
30
0
41
1
10
112.774250965136
20
13.7621188414028
30
0
41
1
10
112.889352624093
20
13.9586513279621
30
0
41
1
10
112.946903453572
20
14.0390350687554
30
0
41
1
10
113.119555942008
20
14.2290978750341
30
0
41
1
10
113.234657600966
20
14.2875
30
0
41
1
10
113.349759259923
20
14.2875
30
0
0
SPLINE
5
D1
100
AcDbEntity
8
1
62
256
6
ByLayer
370
13
48
1
60
0
100
AcDbSpline
70
4
71
3
72
44
73
40
40
0
40
0
40
0
40
0
40
0.0624999999999994
40
0.0624999999999994
40
0.124999999999999
40
0.124999999999999
40
0.187499999999998
40
0.187499999999998
40
0.249999999999997
40
0.249999999999997
40
0.312499999999997
40
0.312499999999997
40
0.374999999999996
40
0.374999999999996
40
0.437499999999995
40
0.437499999999995
40
0.499999999999995
40
0.499999999999995
40
0.562499999999994
40
0.562499999999994
40
0.624999999999993
40
0.624999999999993
40
0.687499999999992
40
0.687499999999992
40
0.749999999999991
40
0.749999999999991
40
0.812499999999991
40
0.812499999999991
40
0.820312499999991
40
0.820312499999991
40
0.828124999999991
40
0.828124999999991
40
0.843749999999992
40
0.843749999999992
40
0.874999999999993
40
0.874999999999993
40
0.937499999999997
40
0.937499999999997
40
1
40
1
40
1
40
1
41
1
10
111.000100482911
20
14.2875
30
0
41
1
10
111.079260374474
20
14.2875
30
0
41
1
10
111.158420266037
20
14.259944931244
30
0
41
1
10
111.316740049162
20
14.1429488143359
30
0
41
1
10
111.395899940725
20
14.0534827924774
30
0
41
1
10
111.55421972385
20
13.8075004464082
30
0
41
1
10
111.633379615413
20
13.6509611308975
30
0
41
1
10
111.791699398538
20
13.2680608084767
30
0
41
1
10
111.870859290101
20
13.0416831828799
30
0
41
1
10
112.029179073227
20
12.5193393623592
30
0
41
1
10
112.108338964789
20
12.2233670394585
30
0
41
1
10
112.266658747915
20
11.5654278039838
30
0
41
1
10
112.345818639477
20
11.2034678297686
30
0
41
1
10
112.504138422603
20
10.4205038792699
30
0
41
1
10
112.583298314166
20
9.99951990923947
30
0
41
1
10
112.741618097291
20
9.10840816874543
30
0
41
1
10
112.820777988854
20
8.63831060873278
30
0
41
1
10
112.979097771979
20
7.66105448029606
30
0
41
1
10
113.058257663542
20
7.1539312700404
30
0
41
1
10
113.216577446667
20
6.11588448731843
30
0
41
1
10
113.29573733823
20
5.58499557914766
30
0
41
1
10
113.454057121355
20
4.51278284629024
30
0
41
1
10
113.533217012918
20
3.9714879310292
30
0
41
1
10
113.691536796044
20
2.89096149926183
30
0
41
1
10
113.770696687606
20
2.35174997643313
30
0
41
1
10
113.929016470732
20
1.28627773992565
30
0
41
1
10
114.008176362294
20
0.760027195743959
30
0
41
1
10
114.097231240302
20
0.180242845719505
30
0
41
1
10
114.107126226748
20
0.115991063282223
30
0
41
1
10
114.126916199639
20
-0.0121603313589844
30
0
41
1
10
114.136811186084
20
-0.0761091233223112
30
0
41
1
10
114.16649614542
20
-0.268816951003856
30
0
41
1
10
114.186286118311
20
-0.397980013102341
30
0
41
1
10
114.245656036983
20
-0.7873592418469
30
0
41
1
10
114.285235982764
20
-1.04946972268039
30
0
41
1
10
114.403975820108
20
-1.8417508342493
30
0
41
1
10
114.483135711671
20
-2.37793309349715
30
0
41
1
10
114.641455494796
20
-3.4560544278321
30
0
41
1
10
114.720615386359
20
-3.99797663329375
30
0
41
1
10
114.799775277921
20
-4.53675962366009
30
0
0
SPLINE
5
D2
100
AcDbEntity
8
1
62
256
6
ByLayer
370
13
48
1
60
0
100
AcDbSpline
70
4
71
3
72
10
73
6
40
0
40
0
40
0
40
0
40
0.5
40
0.5
40
1
40
1
40
1
40
1
41
1
10
102.3
20
14.0155368642886
30
0
41
1
10
102.36938397967
20
14.1089742846564
30
0
41
1
10
102.438767959339
20
14.1770840584681
30
0
41
1
10
102.577535918679
20
14.2663404540949
30
0
41
1
10
102.646919898348
20
14.2875
30
0
41
1
10
102.716303878018
20
14.2875
30
0
0
SPLINE
5
D3
100
AcDbEntity
8
1
62
256
6
ByLayer
370
13
48
1
60
0
100
AcDbSpline
70
4
71
3
72
103
73
99
40
0
40
0
40
0
40
0
40
0.0312499999999977
40
0.0312499999999977
40
0.0624999999999954
40
0.0624999999999954
40
0.0937499999999932
40
0.0937499999999932
40
0.109374999999992
40
0.109374999999992
40
0.113281249999992
40
0.113281249999992
40
0.117187499999992
40
0.124999999999992
40
0.124999999999992
40
0.156249999999992
40
0.156249999999992
40
0.187499999999991
40
0.187499999999991
40
0.218749999999991
40
0.218749999999991
40
0.234374999999991
40
0.234374999999991
40
0.249999999999991
40
0.249999999999991
40
0.265624999999991
40
0.265624999999991
40
0.281249999999991
40
0.281249999999991
40
0.296874999999991
40
0.296874999999991
40
0.312499999999991
40
0.312499999999991
40
0.343749999999991
40
0.343749999999991
40
0.374999999999991
40
0.374999999999991
40
0.406249999999991
40
0.406249999999991
40
0.410156249999991
40
0.410156249999991
40
0.414062499999991
40
0.421874999999991
40
0.421874999999991
40
0.437499999999991
40
0.437499999999991
40
0.468749999999991
40
0.468749999999991
40
0.499999999999991
40
0.499999999999991
40
0.515624999999991
40
0.515624999999991
40
0.531249999999991
40
0.531249999999991
40
0.546874999999991
40
0.546874999999991
40
0.562499999999991
40
0.562499999999991
40
0.578124999999992
40
0.578124999999992
40
0.593749999999992
40
0.593749999999992
40
0.624999999999992
40
0.624999999999992
40
0.656249999999992
40
0.656249999999992
40
0.687499999999992
40
0.687499999999992
40
0.703124999999992
40
0.703124999999992
40
0.707031249999992
40
0.707031249999992
40
0.710937499999992
40
0.718749999999992
40
0.718749999999992
40
0.749999999999993
40
0.749999999999993
40
0.781249999999994
40
0.781249999999994
40
0.812499999999995
40
0.812499999999995
40
0.828124999999995
40
0.828124999999995
40
0.843749999999996
40
0.843749999999996
40
0.859374999999996
40
0.859374999999996
40
0.874999999999997
40
0.874999999999997
40
0.890624999999997
40
0.890624999999997
40
0.906249999999997
40
0.906249999999997
40
0.937499999999998
40
0.937499999999998
40
0.968749999999999
40
0.968749999999999
40
1
40
1
40
1
40
1
41
1
10
102.3
20
7.94170456811639
30
0
41
1
10
102.410066878947
20
7.25522831801638
30
0
41
1
10
102.520133757894
20
6.53474139151712
30
0
41
1
10
102.740267515789
20
5.06154609438619
30
0
41
1
10
102.850334394736
20
4.30900374694909
30
0
41
1
10
103.07046815263
20
2.80627568170448
30
0
41
1
10
103.180535031577
20
2.05619755955596
30
0
41
1
10
103.345635349998
20
0.954411603635407
30
0
41
1
10
103.400668789472
20
0.590982777749019
30
0
41
1
10
103.469460588814
20
0.143263609466032
30
0
41
1
10
103.483218948682
20
0.0541913806235357
30
0
41
1
10
103.510735668419
20
-0.123908050417612
30
0
41
1
10
103.552010748024
20
-0.392081824017481
30
0
41
1
10
103.593285827629
20
-0.663153665770949
30
0
41
1
10
103.730869426313
20
-1.57230916273522
30
0
41
1
10
103.84093630526
20
-2.31779909782054
30
0
41
1
10
104.061070063155
20
-3.81817480803329
30
0
41
1
10
104.171136942102
20
-4.57296820461613
30
0
41
1
10
104.391270699996
20
-6.05847001765065
30
0
41
1
10
104.501337578943
20
-6.78902259166452
30
0
41
1
10
104.666437897364
20
-7.83963230098408
30
0
41
1
10
104.721471336838
20
-8.18229338120511
30
0
41
1
10
104.831538215785
20
-8.84821008131431
30
0
41
1
10
104.886571655258
20
-9.17146005654769
30
0
41
1
10
104.996638534205
20
-9.79455736089358
30
0
41
1
10
105.051671973679
20
-10.0943996953758
30
0
41
1
10
105.161738852626
20
-10.6671815397478
30
0
41
1
10
105.2167722921
20
-10.9401171163539
30
0
41
1
10
105.326839171047
20
-11.4562177207809
30
0
41
1
10
105.381872610521
20
-11.6993801783459
30
0
41
1
10
105.491939489468
20
-12.1537978794356
30
0
41
1
10
105.546972928941
20
-12.365052068662
30
0
41
1
10
105.712073247362
20
-12.9489276245331
30
0
41
1
10
105.822140126309
20
-13.2712832496626
30
0
41
1
10
106.042273884203
20
-13.7808006294996
30
0
41
1
10
106.152340763151
20
-13.9680528817937
30
0
41
1
10
106.372474521045
20
-14.2170401832803
30
0
41
1
10
106.482541399992
20
-14.2789017026044
30
0
41
1
10
106.606366638808
20
-14.2876284502796
30
0
41
1
10
106.620124998676
20
-14.2877600402606
30
0
41
1
10
106.647641718413
20
-14.286356190877
30
0
41
1
10
106.688916798018
20
-14.2817338069507
30
0
41
1
10
106.730191877623
20
-14.2693897446351
30
0
41
1
10
106.812742036834
20
-14.2339716466919
30
0
41
1
10
106.867775476307
20
-14.1960407642225
30
0
41
1
10
107.032875794728
20
-14.0361951781447
30
0
41
1
10
107.142942673675
20
-13.8679367924492
30
0
41
1
10
107.363076431569
20
-13.3972082499037
30
0
41
1
10
107.473143310517
20
-13.0946396291352
30
0
41
1
10
107.638243628937
20
-12.5397327919905
30
0
41
1
10
107.693277068411
20
-12.3380137443132
30
0
41
1
10
107.803343947358
20
-11.9021936007653
30
0
41
1
10
107.858377386832
20
-11.6680931145316
30
0
41
1
10
107.968444265779
20
-11.1694195455001
30
0
41
1
10
108.023477705252
20
-10.9048486021806
30
0
41
1
10
108.1335445842
20
-10.3478954239412
30
0
41
1
10
108.188578023673
20
-10.0555167522787
30
0
41
1
10
108.29864490262
20
-9.44627516098538
30
0
41
1
10
108.353678342094
20
-9.12941696683191
30
0
41
1
10
108.463745221041
20
-8.47508361943414
30
0
41
1
10
108.518778660515
20
-8.13761396906457
30
0
41
1
10
108.683878978935
20
-7.10065834053552
30
0
41
1
10
108.793945857883
20
-6.37662363689378
30
0
41
1
10
109.014079615777
20
-4.89895255371937
30
0
41
1
10
109.124146494724
20
-4.14547900940946
30
0
41
1
10
109.344280252618
20
-2.64320651077307
30
0
41
1
10
109.454347131566
20
-1.89451012040172
30
0
41
1
10
109.619447449986
20
-0.796135096916402
30
0
41
1
10
109.67448088946
20
-0.434065012786505
30
0
41
1
10
109.743272688802
20
0.011725199416901
30
0
41
1
10
109.75703104867
20
0.100608565262121
30
0
41
1
10
109.784547768407
20
0.279486888441852
30
0
41
1
10
109.825822848012
20
0.548794721929823
30
0
41
1
10
109.867097927617
20
0.820892463235964
30
0
41
1
10
110.004681526301
20
1.73320387272719
30
0
41
1
10
110.114748405249
20
2.48036989272273
30
0
41
1
10
110.334882163143
20
3.98185670403967
30
0
41
1
10
110.44494904209
20
4.73608000760933
30
0
41
1
10
110.665082799985
20
6.21785271022861
30
0
41
1
10
110.775149678931
20
6.94524267134514
30
0
41
1
10
110.940249997352
20
7.98916402071424
30
0
41
1
10
110.995283436826
20
8.32927462545567
30
0
41
1
10
111.105350315773
20
8.98948633451735
30
0
41
1
10
111.160383755247
20
9.30958186018552
30
0
41
1
10
111.270450634194
20
9.92582872167262
30
0
41
1
10
111.325484073667
20
10.2219751932035
30
0
41
1
10
111.435550952614
20
10.7869077917667
30
0
41
1
10
111.490584392088
20
11.0556901675362
30
0
41
1
10
111.600651271035
20
11.5631276587091
30
0
41
1
10
111.655684710509
20
11.8017804178764
30
0
41
1
10
111.765751589456
20
12.2469335805781
30
0
41
1
10
111.82078502893
20
12.4534331525002
30
0
41
1
10
111.98588534735
20
13.0228506764765
30
0
41
1
10
112.095952226297
20
13.3353134584721
30
0
41
1
10
112.316085984192
20
13.8254088907482
30
0
41
1
10
112.426152863139
20
14.0031361360777
30
0
41
1
10
112.646286621033
20
14.2341179998398
30
0
41
1
10
112.75635349998
20
14.2875
30
0
41
1
10
112.866420378928
20
14.2875
30
0
0
SPLINE
5
D4
100
AcDbEntity
8
1
62
256
6
ByLayer
370
13
48
1
60
0
100
AcDbSpline
70
4
71
3
72
44
73
40
40
0
40
0
40
0
40
0
40
0.0625
40
0.0625
40
0.125
40
0.125
40
0.1875
40
0.1875
40
0.25
40
0.25
40
0.3125
40
0.3125
40
0.375
40
0.375
40
0.4375
40
0.4375
40
0.5
40
0.5
40
0.5625
40
0.5625
40
0.625
40
0.625
40
0.687500000000001
40
0.687500000000001
40
0.718750000000001
40
0.718750000000001
40
0.7265625
40
0.7265625
40
0.734375
40
0.734375
40
0.75
40
0.75
40
0.8125
40
0.8125
40
0.875
40
0.875
40
0.9375
40
0.9375
40
1
40
1
40
1
40
1
41
1
10
110.516761601916
20
14.2875
30
0
41
1
10
110.605991053499
20
14.2875
30
0
41
1
10
110.695220505083
20
14.2524688288606
30
0
41
1
10
110.87367940825
20
14.102766311161
30
0
41
1
10
110.962908859833
20
13.988049657421
30
0
41
1
10
111.141367763
20
13.6721429607271
30
0
41
1
10
111.230597214583
20
13.4709133592448
30
0
41
1
10
111.40905611775
20
12.9792863755803
30
0
41
1
10
111.498285569334
20
12.6888653428295
30
0
41
1
10
111.676744472501
20
12.0212876309966
30
0
41
1
10
111.765973924084
20
11.6441316091437
30
0
41
1
10
111.944432827251
20
10.811016495048
30
0
41
1
10
112.033662278834
20
10.3550854473279
30
0
41
1
10
112.212121182001
20
9.37742805424466
30
0
41
1
10
112.301350633585
20
8.85575289452532
30
0
41
1
10
112.479809536752
20
7.7634780384777
30
0
41
1
10
112.569038988335
20
7.19294203739571
30
0
41
1
10
112.747497891502
20
6.02190998697773
30
0
41
1
10
112.836727343086
20
5.42147678527894
30
0
41
1
10
113.015186246253
20
4.2097581403998
30
0
41
1
10
113.104415697836
20
3.59852314796095
30
0
41
1
10
113.282874601003
20
2.38271129673791
30
0
41
1
10
113.372104052586
20
1.77816594980754
30
0
41
1
10
113.505948229961
20
0.887339173103385
30
0
41
1
10
113.550562955753
20
0.593037037285029
30
0
41
1
10
113.606331362993
20
0.229400322234397
30
0
41
1
10
113.617485044441
20
0.156884482742811
30
0
41
1
10
113.639792407337
20
0.0122971446188274
30
0
41
1
10
113.650946088785
20
-0.0597271017050787
30
0
41
1
10
113.684407133129
20
-0.276898472481321
30
0
41
1
10
113.706714496024
20
-0.422559313581218
30
0
41
1
10
113.818251310504
20
-1.15482384793859
30
0
41
1
10
113.907480762087
20
-1.75344340333726
30
0
41
1
10
114.085939665254
20
-2.9628555900153
30
0
41
1
10
114.175169116837
20
-3.57362374864636
30
0
41
1
10
114.353628020004
20
-4.79074049571733
30
0
41
1
10
114.442857471588
20
-5.39704477711652
30
0
41
1
10
114.621316374755
20
-6.58653523172802
30
0
41
1
10
114.710545826338
20
-7.16966176776339
30
0
41
1
10
114.799775277922
20
-7.73161833525495
30
0
0
SPLINE
5
D5
100
AcDbEntity
8
1
62
256
6
ByLayer
370
13
48
1
60
0
100
AcDbSpline
70
4
71
3
72
85
73
81
40
0
40
0
40
0
40
0
40
0.03125
40
0.03125
40
0.0625
40
0.0625
40
0.0703124999999999
40
0.0703124999999999
40
0.0781249999999999
40
0.0781249999999999
40
0.09375
40
0.09375
40
0.125
40
0.125
40
0.156250000000001
40
0.156250000000001
40
0.187500000000001
40
0.187500000000001
40
0.218750000000002
40
0.218750000000002
40
0.250000000000002
40
0.250000000000002
40
0.281250000000002
40
0.281250000000002
40
0.312500000000003
40
0.312500000000003
40
0.343750000000003
40
0.343750000000003
40
0.375000000000004
40
0.375000000000004
40
0.378906250000004
40
0.378906250000004
40
0.382812500000004
40
0.382812500000004
40
0.390625000000004
40
0.390625000000004
40
0.406250000000004
40
0.406250000000004
40
0.437500000000005
40
0.437500000000005
40
0.468750000000006
40
0.468750000000006
40
0.500000000000007
40
0.500000000000007
40
0.531250000000007
40
0.531250000000007
40
0.562500000000008
40
0.562500000000008
40
0.593750000000009
40
0.593750000000009
40
0.62500000000001
40
0.62500000000001
40
0.65625000000001
40
0.65625000000001
40
0.687500000000011
40
0.687500000000011
40
0.691406250000011
40
0.691406250000011
40
0.695312500000011
40
0.703125000000011
40
0.703125000000011
40
0.71875000000001
40
0.71875000000001
40
0.750000000000009
40
0.750000000000009
40
0.781250000000008
40
0.781250000000008
40
0.812500000000007
40
0.812500000000007
40
0.843750000000006
40
0.843750000000006
40
0.875000000000005
40
0.875000000000005
40
0.906250000000003
40
0.906250000000003
40
0.937500000000002
40
0.937500000000002
40
0.968750000000001
40
0.968750000000001
40
1
40
1
40
1
40
1
41
1
10
102.3
20
4.76469011834791
30
0
41
1
10
102.405032098937
20
4.05118040722147
30
0
41
1
10
102.510064197874
20
3.33063726229042
30
0
41
1
10
102.720128395747
20
1.90341150923192
30
0
41
1
10
102.825160494684
20
1.19679073239101
30
0
41
1
10
102.956450618355
20
0.336140478317674
30
0
41
1
10
102.982708643089
20
0.165170617090069
30
0
41
1
10
103.035224692558
20
-0.174438534555151
30
0
41
1
10
103.061482717292
20
-0.345496564882666
30
0
41
1
10
103.140256791494
20
-0.862008190934745
30
0
41
1
10
103.192772840963
20
-1.21081248268777
30
0
41
1
10
103.350320989368
20
-2.26675150967
30
0
41
1
10
103.455353088305
20
-2.98359062534343
30
0
41
1
10
103.665417286178
20
-4.41769808808959
30
0
41
1
10
103.770449385115
20
-5.13487780507978
30
0
41
1
10
103.980513582989
20
-6.53958731167046
30
0
41
1
10
104.085545681925
20
-7.22698499818904
30
0
41
1
10
104.295609879799
20
-8.5407425720017
30
0
41
1
10
104.400641978736
20
-9.16695669191844
30
0
41
1
10
104.610706176609
20
-10.3299520132553
30
0
41
1
10
104.715738275546
20
-10.8666147281107
30
0
41
1
10
104.92580247342
20
-11.8292298484289
30
0
41
1
10
105.030834572356
20
-12.2551248947632
30
0
41
1
10
105.24089877023
20
-12.9847974166674
30
0
41
1
10
105.345930869167
20
-13.288589593084
30
0
41
1
10
105.55599506704
20
-13.7731754541436
30
0
41
1
10
105.661027165977
20
-13.9540411835397
30
0
41
1
10
105.871091363851
20
-14.2010406756025
30
0
41
1
10
105.976123462788
20
-14.2672741882147
30
0
41
1
10
106.094284574092
20
-14.2855277703953
30
0
41
1
10
106.107413586459
20
-14.2867775110021
30
0
41
1
10
106.133671611193
20
-14.2877530313973
30
0
41
1
10
106.14680062356
20
-14.28748377364
30
0
41
1
10
106.186187660661
20
-14.2843793216482
30
0
41
1
10
106.212445685395
20
-14.2792376257122
30
0
41
1
10
106.291219759598
20
-14.2542098750246
30
0
41
1
10
106.343735809067
20
-14.2247118268629
30
0
41
1
10
106.501283957472
20
-14.0949748456145
30
0
41
1
10
106.606316056408
20
-13.9532670755576
30
0
41
1
10
106.816380254282
20
-13.5488556159524
30
0
41
1
10
106.921412353219
20
-13.2860671706187
30
0
41
1
10
107.131476551092
20
-12.6370208757147
30
0
41
1
10
107.236508650029
20
-12.2507267147888
30
0
41
1
10
107.446572847903
20
-11.3624237863943
30
0
41
1
10
107.55160494684
20
-10.8604484314018
30
0
41
1
10
107.761669144713
20
-9.75887432728035
30
0
41
1
10
107.86670124365
20
-9.15937672293424
30
0
41
1
10
108.076765441524
20
-7.88913294532949
30
0
41
1
10
108.18179754046
20
-7.21852811783091
30
0
41
1
10
108.391861738334
20
-5.83696346976635
30
0
41
1
10
108.496893837271
20
-5.12614441791621
30
0
41
1
10
108.706958035144
20
-3.69517060135414
30
0
41
1
10
108.811990134081
20
-2.97512091594154
30
0
41
1
10
109.022054331955
20
-1.55302061124337
30
0
41
1
10
109.127086430891
20
-0.851022990401418
30
0
41
1
10
109.245247542195
20
-0.0833450967375882
30
0
41
1
10
109.258376554562
20
0.0014414047577986
30
0
41
1
10
109.284634579297
20
0.1716447535334
30
0
41
1
10
109.324021616398
20
0.427872521965895
30
0
41
1
10
109.363408653499
20
0.686714253006699
30
0
41
1
10
109.442182727702
20
1.20743378116899
30
0
41
1
10
109.49469877717
20
1.5586411006035
30
0
41
1
10
109.652246925575
20
2.62037555303726
30
0
41
1
10
109.757279024512
20
3.33918231206289
30
0
41
1
10
109.967343222386
20
4.77250691354868
30
0
41
1
10
110.072375321322
20
5.4869277273861
30
0
41
1
10
110.282439519196
20
6.88091729931472
30
0
41
1
10
110.387471618133
20
7.56034916358203
30
0
41
1
10
110.597535816006
20
8.85315989753639
30
0
41
1
10
110.702567914943
20
9.46639462692067
30
0
41
1
10
110.912632112817
20
10.5993303491754
30
0
41
1
10
111.017664211754
20
11.1189210877345
30
0
41
1
10
111.227728409627
20
12.0447828570476
30
0
41
1
10
111.332760508564
20
12.4510084139595
30
0
41
1
10
111.542824706438
20
13.1404852949048
30
0
41
1
10
111.647856805374
20
13.42376238814
30
0
41
1
10
111.857921003248
20
13.8681137352985
30
0
41
1
10
111.962953102185
20
14.029266824635
30
0
41
1
10
112.173017300058
20
14.2389093082363
30
0
41
1
10
112.278049398995
20
14.2875
30
0
41
1
10
112.383081497932
20
14.2875
30
0
0
SPLINE
5
D6
100
AcDbEntity
8
1
62
256
6
ByLayer
370
13
48
1
60
0
100
AcDbSpline
70
4
71
3
72
42
73
38
40
0
40
0
40
0
40
0
40
0.0625000000000002
40
0.0625000000000002
40
0.125
40
0.125
40
0.187500000000001
40
0.187500000000001
40
0.250000000000001
40
0.250000000000001
40
0.312500000000001
40
0.312500000000001
40
0.375000000000001
40
0.375000000000001
40
0.437500000000001
40
0.437500000000001
40
0.500000000000001
40
0.500000000000001
40
0.562500000000001
40
0.562500000000001
40
0.625000000000001
40
0.625000000000001
40
0.640625000000001
40
0.640625000000001
40
0.656250000000001
40
0.656250000000001
40
0.687500000000001
40
0.687500000000001
40
0.750000000000001
40
0.750000000000001
40
0.812500000000001
40
0.812500000000001
40
0.875000000000001
40
0.875000000000001
40
0.9375
40
0.9375
40
1
40
1
40
1
40
1
41
1
10
110.03342272092
20
14.2875
30
0
41
1
10
110.132721732524
20
14.2875
30
0
41
1
10
110.232020744128
20
14.2440873920474
30
0
41
1
10
110.430618767337
20
14.0574185740258
30
0
41
1
10
110.529917778941
20
13.9140854921749
30
0
41
1
10
110.728515802149
20
13.5189845787556
30
0
41
1
10
110.827814813753
20
13.2671540493049
30
0
41
1
10
111.026412836962
20
12.6532111366602
30
0
41
1
10
111.125711848566
20
12.2910713069222
30
0
41
1
10
111.324309871775
20
11.4628388717848
30
0
41
1
10
111.423608883379
20
10.9967685572421
30
0
41
1
10
111.622206906587
20
9.9753025588997
30
0
41
1
10
111.721505918191
20
9.41997855638405
30
0
41
1
10
111.9201039414
20
8.24150291336576
30
0
41
1
10
112.019402953004
20
7.61845526187236
30
0
41
1
10
112.218000976212
20
6.33018476570416
30
0
41
1
10
112.317299987817
20
5.66507109480187
30
0
41
1
10
112.515898011025
20
4.31916886033838
30
0
41
1
10
112.615197022629
20
3.63846897440948
30
0
41
1
10
112.813795045837
20
2.28568187436417
30
0
41
1
10
112.913094057442
20
1.61364789248282
30
0
41
1
10
113.037217821947
20
0.791426258448894
30
0
41
1
10
113.062042574848
20
0.62786052777318
30
0
41
1
10
113.11169208065
20
0.302744248657604
30
0
41
1
10
113.136516833551
20
0.141362012830626
30
0
41
1
10
113.210991092254
20
-0.340449152380643
30
0
41
1
10
113.260640598056
20
-0.666134540177325
30
0
41
1
10
113.409589115463
20
-1.65363683563257
30
0
41
1
10
113.508888127067
20
-2.32605537178227
30
0
41
1
10
113.707486150275
20
-3.67916554679547
30
0
41
1
10
113.80678516188
20
-4.35980318789245
30
0
41
1
10
114.005383185088
20
-5.70506544939394
30
0
41
1
10
114.104682196692
20
-6.36960079154301
30
0
41
1
10
114.303280219901
20
-7.65618316905088
30
0
41
1
10
114.402579231505
20
-8.27812085908556
30
0
41
1
10
114.601177254713
20
-9.45389516409747
30
0
41
1
10
114.700476266317
20
-10.007628185324
30
0
41
1
10
114.799775277922
20
-10.5165860212526
30
0
0
SPLINE
5
D7
100
AcDbEntity
8
1
62
256
6
ByLayer
370
13
48
1
60
0
100
AcDbSpline
70
4
71
3
72
85
73
81
40
0
40
0
40
0
40
0
40
0.0156250000000002
40
0.0156250000000002
40
0.0234375000000003
40
0.0234375000000003
40
0.0312500000000004
40
0.0312500000000004
40
0.0625000000000007
40
0.0625000000000007
40
0.0937500000000011
40
0.0937500000000011
40
0.125000000000001
40
0.125000000000001
40
0.156250000000002
40
0.156250000000002
40
0.187500000000002
40
0.187500000000002
40
0.218750000000003
40
0.218750000000003
40
0.250000000000003
40
0.250000000000003
40
0.281250000000003
40
0.281250000000003
40
0.312500000000004
40
0.312500000000004
40
0.343750000000004
40
0.343750000000004
40
0.347656250000004
40
0.347656250000004
40
0.351562500000004
40
0.351562500000004
40
0.359375000000004
40
0.359375000000004
40
0.375000000000004
40
0.375000000000004
40
0.406250000000004
40
0.406250000000004
40
0.437500000000004
40
0.437500000000004
40
0.468750000000004
40
0.468750000000004
40
0.500000000000004
40
0.500000000000004
40
0.531250000000004
40
0.531250000000004
40
0.562500000000004
40
0.562500000000004
40
0.593750000000004
40
0.593750000000004
40
0.625000000000004
40
0.625000000000004
40
0.656250000000003
40
0.656250000000003
40
0.671875000000003
40
0.671875000000003
40
0.675781250000003
40
0.675781250000003
40
0.679687500000003
40
0.687500000000003
40
0.687500000000003
40
0.718750000000003
40
0.718750000000003
40
0.750000000000003
40
0.750000000000003
40
0.781250000000002
40
0.781250000000002
40
0.812500000000002
40
0.812500000000002
40
0.843750000000002
40
0.843750000000002
40
0.875000000000001
40
0.875000000000001
40
0.906250000000001
40
0.906250000000001
40
0.937500000000001
40
0.937500000000001
40
0.96875
40
0.96875
40
1
40
1
40
1
40
1
41
1
10
102.3
20
1.48156518211633
30
0
41
1
10
102.349998659463
20
1.14692856962449
30
0
41
1
10
102.399997318926
20
0.815265354944898
30
0
41
1
10
102.474995308121
20
0.323883217782253
30
0
41
1
10
102.499994637853
20
0.161110251893632
30
0
41
1
10
102.549993297316
20
-0.162181130895448
30
0
41
1
10
102.574992627048
20
-0.324963869708483
30
0
41
1
10
102.699989275706
20
-1.14395651270974
30
0
41
1
10
102.799986594632
20
-1.81561572896749
30
0
41
1
10
102.999981232485
20
-3.17287769146577
30
0
41
1
10
103.099978551411
20
-3.85843448618786
30
0
41
1
10
103.299973189264
20
-5.21962771700353
30
0
41
1
10
103.399970508191
20
-5.89517969640093
30
0
41
1
10
103.599965146043
20
-7.20960325769707
30
0
41
1
10
103.69996246497
20
-7.84836441024967
30
0
41
1
10
103.899957102823
20
-9.06253658857386
30
0
41
1
10
103.999954421749
20
-9.63783634623636
30
0
41
1
10
104.199949059602
20
-10.7019386685581
30
0
41
1
10
104.299946378528
20
-11.1906583040067
30
0
41
1
10
104.499941016381
20
-12.0649999341445
30
0
41
1
10
104.599938335308
20
-12.4505882300145
30
0
41
1
10
104.79993297316
20
-13.1104301911774
30
0
41
1
10
104.899930292087
20
-13.384703325681
30
0
41
1
10
105.09992492994
20
-13.8222524054057
30
0
41
1
10
105.199922248866
20
-13.9855881932442
30
0
41
1
10
105.399916886719
20
-14.2089223261058
30
0
41
1
10
105.499914205645
20
-14.2689992727774
30
0
41
1
10
105.612411189438
20
-14.2856687700899
30
0
41
1
10
105.624910854303
20
-14.2868161292563
30
0
41
1
10
105.649910184035
20
-14.2877296530043
30
0
41
1
10
105.662409848901
20
-14.2875001041836
30
0
41
1
10
105.699908843498
20
-14.2847316145252
30
0
41
1
10
105.72490817323
20
-14.2801039644031
30
0
41
1
10
105.799906162425
20
-14.2575407173592
30
0
41
1
10
105.849904821888
20
-14.2309173148522
30
0
41
1
10
105.999900800278
20
-14.1138614241761
30
0
41
1
10
106.099898119204
20
-13.986062921468
30
0
41
1
10
106.299892757057
20
-13.6214378453587
30
0
41
1
10
106.399890075983
20
-13.3845426454581
30
0
41
1
10
106.599884713836
20
-12.7986835104535
30
0
41
1
10
106.699882032763
20
-12.4496845980779
30
0
41
1
10
106.899876670615
20
-11.644842383252
30
0
41
1
10
106.999873989542
20
-11.1890145908557
30
0
41
1
10
107.199868627394
20
-10.1843506382663
30
0
41
1
10
107.299865946321
20
-9.6355826024224
30
0
41
1
10
107.499860584174
20
-8.46622190905043
30
0
41
1
10
107.5998579031
20
-7.84573416696853
30
0
41
1
10
107.799852540953
20
-6.55879253034388
30
0
41
1
10
107.899849859879
20
-5.89245257499837
30
0
41
1
10
108.099844497732
20
-4.5409431939303
30
0
41
1
10
108.199841816659
20
-3.8558689825162
30
0
41
1
10
108.399836454512
20
-2.49206706562495
30
0
41
1
10
108.499833773438
20
-1.81339862298006
30
0
41
1
10
108.649829751828
20
-0.815788989962414
30
0
41
1
10
108.699828411291
20
-0.486612079094329
30
0
41
1
10
108.76232673562
20
-0.0806448717013666
30
0
41
1
10
108.774826400486
20
8.4872634261E-05
30
0
41
1
10
108.799825730217
20
0.162104396334087
30
0
41
1
10
108.837324724814
20
0.405971088745133
30
0
41
1
10
108.874823719412
20
0.652217045440608
30
0
41
1
10
108.99982036807
20
1.47768141932087
30
0
41
1
10
109.099817686997
20
2.15312261530983
30
0
41
1
10
109.299812324849
20
3.5142746405225
30
0
41
1
10
109.399809643776
20
4.19993285492879
30
0
41
1
10
109.599804281629
20
5.55700480564201
30
0
41
1
10
109.699801600555
20
6.2283284974427
30
0
41
1
10
109.899796238408
20
7.52975790564483
30
0
41
1
10
109.999793557334
20
8.15975105788897
30
0
41
1
10
110.199788195187
20
9.35219773698361
30
0
41
1
10
110.299785514113
20
9.91454275992911
30
0
41
1
10
110.499780151966
20
10.949450293575
30
0
41
1
10
110.599777470893
20
11.4219370125493
30
0
41
1
10
110.799772108746
20
12.2618350676824
30
0
41
1
10
110.899769427672
20
12.629221789642
30
0
41
1
10
111.099764065525
20
13.2521397627066
30
0
41
1
10
111.199761384451
20
13.5076984549615
30
0
41
1
10
111.399756022304
20
13.9086365708814
30
0
41
1
10
111.499753341231
20
14.0540805466409
30
0
41
1
10
111.699747979083
20
14.2434724755043
30
0
41
1
10
111.79974529801
20
14.2875
30
0
41
1
10
111.899742616936
20
14.2875
30
0
0
SPLINE
5
D8
100
AcDbEntity
8
1
62
256
6
ByLayer
370
13
48
1
60
0
100
AcDbSpline
70
4
71
3
72
51
73
47
40
0
40
0
40
0
40
0
40
0.0624999999999998
40
0.0624999999999998
40
0.125
40
0.125
40
0.187499999999999
40
0.187499999999999
40
0.249999999999999
40
0.249999999999999
40
0.281249999999999
40
0.281249999999999
40
0.312499999999999
40
0.312499999999999
40
0.343749999999999
40
0.343749999999999
40
0.374999999999999
40
0.374999999999999
40
0.437499999999999
40
0.437499999999999
40
0.499999999999998
40
0.499999999999998
40
0.562499999999998
40
0.562499999999998
40
0.593749999999998
40
0.593749999999998
40
0.601562499999998
40
0.601562499999998
40
0.609374999999998
40
0.624999999999998
40
0.624999999999998
40
0.687499999999999
40
0.687499999999999
40
0.749999999999999
40
0.749999999999999
40
0.8125
40
0.8125
40
0.84375
40
0.84375
40
0.875
40
0.875
40
0.90625
40
0.90625
40
0.9375
40
0.9375
40
1
40
1
40
1
40
1
41
1
10
109.550083839924
20
14.2875
30
0
41
1
10
109.659452411549
20
14.2875
30
0
41
1
10
109.768820983174
20
14.2347961898303
30
0
41
1
10
109.987558126424
20
14.0068393256052
30
0
41
1
10
110.096926698049
20
13.83146278851
30
0
41
1
10
110.315663841299
20
13.3478510630903
30
0
41
1
10
110.425032412924
20
13.039523544648
30
0
41
1
10
110.643769556174
20
12.2901608349736
30
0
41
1
10
110.753138127799
20
11.8491042874632
30
0
41
1
10
110.917190985236
20
11.0973355846705
30
0
41
1
10
110.971875271049
20
10.8318134237128
30
0
41
1
10
111.081243842673
20
10.2735740020037
30
0
41
1
10
111.135928128486
20
9.98086030408777
30
0
41
1
10
111.245296700111
20
9.37155199589211
30
0
41
1
10
111.299980985923
20
9.05496203989597
30
0
41
1
10
111.409349557548
20
8.40173067311812
30
0
41
1
10
111.464033843361
20
8.06509463234943
30
0
41
1
10
111.628086700798
20
7.03139853731955
30
0
41
1
10
111.737455272423
20
6.31055362376301
30
0
41
1
10
111.956192415673
20
4.84063597815174
30
0
41
1
10
112.065560987298
20
4.09171975356111
30
0
41
1
10
112.284298130548
20
2.5991778702749
30
0
41
1
10
112.393666702173
20
1.85565009892284
30
0
41
1
10
112.55771955961
20
0.764986318307479
30
0
41
1
10
112.612403845423
20
0.4054808174063
30
0
41
1
10
112.680759202688
20
-0.0371523734945072
30
0
41
1
10
112.694430274141
20
-0.125572711323912
30
0
41
1
10
112.721772417048
20
-0.303435412544132
30
0
41
1
10
112.762785631407
20
-0.571201877254168
30
0
41
1
10
112.803798845766
20
-0.841707054319585
30
0
41
1
10
112.940509560298
20
-1.74860970682721
30
0
41
1
10
113.049878131922
20
-2.49112020556302
30
0
41
1
10
113.268615275172
20
-3.98311548313913
30
0
41
1
10
113.377983846797
20
-4.73250564249224
30
0
41
1
10
113.596720990047
20
-6.20507442260509
30
0
41
1
10
113.706089561672
20
-6.92809874962259
30
0
41
1
10
113.87014241911
20
-7.96633286330996
30
0
41
1
10
113.924826704922
20
-8.30469106637463
30
0
41
1
10
114.034195276547
20
-8.96175939636316
30
0
41
1
10
114.088879562359
20
-9.28046410674571
30
0
41
1
10
114.198248133984
20
-9.89435249184879
30
0
41
1
10
114.252932419797
20
-10.1895314251546
30
0
41
1
10
114.362300991422
20
-10.7529961130275
30
0
41
1
10
114.416985277234
20
-11.0212781855214
30
0
41
1
10
114.581038134672
20
-11.7816693040084
30
0
41
1
10
114.690406706297
20
-12.2289318038973
30
0
41
1
10
114.799775277922
20
-12.6099803644478
30
0
0
SPLINE
5
D9
100
AcDbEntity
8
1
62
256
6
ByLayer
370
13
48
1
60
0
100
AcDbSpline
70
4
71
3
72
80
73
76
40
0
40
0
40
0
40
0
40
0.0312499999999989
40
0.0312499999999989
40
0.0624999999999978
40
0.0624999999999978
40
0.0937499999999967
40
0.0937499999999967
40
0.124999999999996
40
0.124999999999996
40
0.156249999999995
40
0.156249999999995
40
0.187499999999993
40
0.187499999999993
40
0.218749999999992
40
0.218749999999992
40
0.249999999999991
40
0.249999999999991
40
0.28124999999999
40
0.28124999999999
40
0.312499999999989
40
0.312499999999989
40
0.316406249999989
40
0.316406249999989
40
0.320312499999989
40
0.328124999999989
40
0.328124999999989
40
0.343749999999989
40
0.343749999999989
40
0.37499999999999
40
0.37499999999999
40
0.406249999999991
40
0.406249999999991
40
0.437499999999991
40
0.437499999999991
40
0.468749999999992
40
0.468749999999992
40
0.499999999999992
40
0.499999999999992
40
0.531249999999993
40
0.531249999999993
40
0.562499999999993
40
0.562499999999993
40
0.593749999999994
40
0.593749999999994
40
0.624999999999994
40
0.624999999999994
40
0.656249999999995
40
0.656249999999995
40
0.660156249999995
40
0.660156249999995
40
0.664062499999995
40
0.671874999999995
40
0.671874999999995
40
0.687499999999995
40
0.687499999999995
40
0.718749999999996
40
0.718749999999996
40
0.749999999999996
40
0.749999999999996
40
0.781249999999997
40
0.781249999999997
40
0.812499999999997
40
0.812499999999997
40
0.843749999999997
40
0.843749999999997
40
0.874999999999998
40
0.874999999999998
40
0.906249999999998
40
0.906249999999998
40
0.937499999999999
40
0.937499999999999
40
0.968749999999999
40
0.968749999999999
40
1
40
1
40
1
40
1
41
1
10
102.3
20
-1.70631845461622
30
0
41
1
10
102.394962538916
20
-2.34429210351917
30
0
41
1
10
102.489925077832
20
-2.99213193375567
30
0
41
1
10
102.679850155664
20
-4.28873171189343
30
0
41
1
10
102.77481269458
20
-4.93743894510536
30
0
41
1
10
102.964737772412
20
-6.21373910698475
30
0
41
1
10
103.059700311328
20
-6.84125458033338
30
0
41
1
10
103.24962538916
20
-8.05194074049535
30
0
41
1
10
103.344587928077
20
-8.63502291957909
30
0
41
1
10
103.534513005909
20
-9.73496716907204
30
0
41
1
10
103.629475544825
20
-10.2517495926436
30
0
41
1
10
103.819400622657
20
-11.2011768812055
30
0
41
1
10
103.914363161573
20
-11.6337700471582
30
0
41
1
10
104.104288239405
20
-12.4028986775047
30
0
41
1
10
104.199250778321
20
-12.7394211625885
30
0
41
1
10
104.389175856153
20
-13.3114868298273
30
0
41
1
10
104.484138395069
20
-13.5470545371029
30
0
41
1
10
104.674063472901
20
-13.9190983120212
30
0
41
1
10
104.769026011817
20
-14.0556251588452
30
0
41
1
10
104.958951089649
20
-14.2371038748726
30
0
41
1
10
105.053913628565
20
-14.2821172479099
30
0
41
1
10
105.160746484846
20
-14.2876589798221
30
0
41
1
10
105.17261680221
20
-14.2876532581129
30
0
41
1
10
105.196357436939
20
-14.2863985320584
30
0
41
1
10
105.231968389033
20
-14.2826424659026
30
0
41
1
10
105.267579341126
20
-14.273154163325
30
0
41
1
10
105.338801245313
20
-14.2462533787816
30
0
41
1
10
105.386282514771
20
-14.2177475824032
30
0
41
1
10
105.528726323146
20
-14.0984655550023
30
0
41
1
10
105.623688862062
20
-13.9737764136474
30
0
41
1
10
105.813613939894
20
-13.6260699410085
30
0
41
1
10
105.90857647881
20
-13.4029996437645
30
0
41
1
10
106.098501556642
20
-12.8558171592698
30
0
41
1
10
106.193464095558
20
-12.5316764355052
30
0
41
1
10
106.38338917339
20
-11.7863247574932
30
0
41
1
10
106.478351712306
20
-11.3651218278753
30
0
41
1
10
106.668276790138
20
-10.4366507822523
30
0
41
1
10
106.763239329054
20
-9.92942992353267
30
0
41
1
10
106.953164406886
20
-8.84613107198479
30
0
41
1
10
107.048126945802
20
-8.27013019479762
30
0
41
1
10
107.238052023634
20
-7.07076913633392
30
0
41
1
10
107.333014562551
20
-6.44749750680663
30
0
41
1
10
107.522939640383
20
-5.17682043834336
30
0
41
1
10
107.617902179299
20
-4.52949474217436
30
0
41
1
10
107.807827257131
20
-3.23306188558709
30
0
41
1
10
107.902789796047
20
-2.58401093179484
30
0
41
1
10
108.092714873879
20
-1.30351809786822
30
0
41
1
10
108.187677412795
20
-0.672103397672032
30
0
41
1
10
108.294510269075
20
0.0198024568154835
30
0
41
1
10
108.30638058644
20
0.0965268670721571
30
0
41
1
10
108.330121221169
20
0.250788188145435
30
0
41
1
10
108.365732173263
20
0.482920132145495
30
0
41
1
10
108.401343125356
20
0.717156089764217
30
0
41
1
10
108.472565029543
20
1.18809911311922
30
0
41
1
10
108.520046299001
20
1.5053645693925
30
0
41
1
10
108.662490107375
20
2.46407865538222
30
0
41
1
10
108.757452646291
20
3.11256090502053
30
0
41
1
10
108.947377724123
20
4.40915697208843
30
0
41
1
10
109.042340263039
20
5.05721631967333
30
0
41
1
10
109.232265340871
20
6.33079280697109
30
0
41
1
10
109.327227879788
20
6.95623131983356
30
0
41
1
10
109.51715295762
20
8.1613419402351
30
0
41
1
10
109.612115496536
20
8.7409254782836
30
0
41
1
10
109.802040574368
20
9.83262307758764
30
0
41
1
10
109.897003113284
20
10.3446587203491
30
0
41
1
10
110.086928191116
20
11.2836640348052
30
0
41
1
10
110.181890730032
20
11.7105842084467
30
0
41
1
10
110.371815807864
20
12.4678549583462
30
0
41
1
10
110.46677834678
20
12.7981950367818
30
0
41
1
10
110.656703424612
20
13.3578229403416
30
0
41
1
10
110.751665963528
20
13.5871373197402
30
0
41
1
10
110.94159104136
20
13.9469925067682
30
0
41
1
10
111.036553580276
20
14.077585217827
30
0
41
1
10
111.226478658108
20
14.2478081294474
30
0
41
1
10
111.321441197024
20
14.2875
30
0
41
1
10
111.41640373594
20
14.2875
30
0
0
SPLINE
5
DA
100
AcDbEntity
8
1
62
256
6
ByLayer
370
13
48
1
60
0
100
AcDbSpline
70
4
71
3
72
74
73
70
40
0
40
0
40
0
40
0
40
0.0312499999999998
40
0.0312499999999998
40
0.0624999999999997
40
0.0624999999999997
40
0.0937499999999995
40
0.0937499999999995
40
0.124999999999999
40
0.124999999999999
40
0.156249999999999
40
0.156249999999999
40
0.187499999999999
40
0.187499999999999
40
0.218749999999999
40
0.218749999999999
40
0.249999999999999
40
0.249999999999999
40
0.281249999999999
40
0.281249999999999
40
0.312499999999999
40
0.312499999999999
40
0.343749999999999
40
0.343749999999999
40
0.374999999999998
40
0.374999999999998
40
0.406249999999998
40
0.406249999999998
40
0.437499999999998
40
0.437499999999998
40
0.468749999999998
40
0.468749999999998
40
0.499999999999998
40
0.499999999999998
40
0.531249999999998
40
0.531249999999998
40
0.539062499999998
40
0.539062499999998
40
0.546874999999997
40
0.546874999999997
40
0.562499999999998
40
0.562499999999998
40
0.593749999999998
40
0.593749999999998
40
0.624999999999998
40
0.624999999999998
40
0.656249999999998
40
0.656249999999998
40
0.687499999999998
40
0.687499999999998
40
0.718749999999998
40
0.718749999999998
40
0.749999999999999
40
0.749999999999999
40
0.781249999999999
40
0.781249999999999
40
0.812499999999999
40
0.812499999999999
40
0.843749999999999
40
0.843749999999999
40
0.874999999999999
40
0.874999999999999
40
0.906249999999999
40
0.906249999999999
40
0.9375
40
0.9375
40
0.96875
40
0.96875
40
1
40
1
40
1
40
1
41
1
10
109.066744958929
20
14.2875
30
0
41
1
10
109.126464024751
20
14.2875
30
0
41
1
10
109.186183090574
20
14.2718308140981
30
0
41
1
10
109.30562122222
20
14.2061758737441
30
0
41
1
10
109.365340288043
20
14.1561840274217
30
0
41
1
10
109.484778419688
20
14.0193719634467
30
0
41
1
10
109.544497485511
20
13.9325457413229
30
0
41
1
10
109.663935617157
20
13.7202143484387
30
0
41
1
10
109.72365468298
20
13.5947038399259
30
0
41
1
10
109.843092814625
20
13.3039870053177
30
0
41
1
10
109.902811880448
20
13.1387766341257
30
0
41
1
10
110.022250012094
20
12.7686201087121
30
0
41
1
10
110.081969077917
20
12.5636717830106
30
0
41
1
10
110.201407209563
20
12.1150717112218
30
0
41
1
10
110.261126275385
20
11.8714200988807
30
0
41
1
10
110.380564407031
20
11.3475502007098
30
0
41
1
10
110.440283472854
20
11.0673345421657
30
0
41
1
10
110.5597216045
20
10.4735367284758
30
0
41
1
10
110.619440670322
20
10.1599595811445
30
0
41
1
10
110.738878801968
20
9.50358712287186
30
0
41
1
10
110.798597867791
20
9.16079878309597
30
0
41
1
10
110.918035999437
20
8.45091883671725
30
0
41
1
10
110.97775506526
20
8.08383550100248
30
0
41
1
10
111.097193196905
20
7.33081560571338
30
0
41
1
10
111.156912262728
20
6.94488781322295
30
0
41
1
10
111.276350394374
20
6.15990540989904
30
0
41
1
10
111.336069460196
20
5.76085924869719
30
0
41
1
10
111.455507591842
20
4.95538149734563
30
0
41
1
10
111.515226657665
20
4.54895733763317
30
0
41
1
10
111.634664789311
20
3.73423917393629
30
0
41
1
10
111.694383855134
20
3.32595107941222
30
0
41
1
10
111.813821986779
20
2.51259298243397
30
0
41
1
10
111.873541052602
20
2.10752710667651
30
0
41
1
10
111.992979184248
20
1.30512239888236
30
0
41
1
10
112.052698250071
20
0.907785881293108
30
0
41
1
10
112.127347082349
20
0.418340534289626
30
0
41
1
10
112.142276848805
20
0.320811007068613
30
0
41
1
10
112.172136381716
20
0.126523907078109
30
0
41
1
10
112.187066148172
20
0.0300105917103224
30
0
41
1
10
112.231855447539
20
-0.260148185236801
30
0
41
1
10
112.261714980451
20
-0.455187417394939
30
0
41
1
10
112.351293579185
20
-1.0444721708578
30
0
41
1
10
112.411012645008
20
-1.44290648853036
30
0
41
1
10
112.530450776653
20
-2.24702144504258
30
0
41
1
10
112.590169842476
20
-2.65269956596254
30
0
41
1
10
112.709607974122
20
-3.46672424266526
30
0
41
1
10
112.769327039945
20
-3.87506646100857
30
0
41
1
10
112.888765171591
20
-4.6892769942674
30
0
41
1
10
112.948484237413
20
-5.09513920674831
30
0
41
1
10
113.067922369059
20
-5.89883996835229
30
0
41
1
10
113.127641434882
20
-6.29667093988789
30
0
41
1
10
113.247079566528
20
-7.07855861381668
30
0
41
1
10
113.306798632351
20
-7.46260679125643
30
0
41
1
10
113.426236763996
20
-8.21122124777895
30
0
41
1
10
113.485955829819
20
-8.57577877446627
30
0
41
1
10
113.605393961465
20
-9.28000940178327
30
0
41
1
10
113.665113027288
20
-9.61967434168713
30
0
41
1
10
113.784551158933
20
-10.2692793075258
30
0
41
1
10
113.844270224756
20
-10.5792125582764
30
0
41
1
10
113.963708356402
20
-11.1653027504284
30
0
41
1
10
114.023427422225
20
-11.4414549421475
30
0
41
1
10
114.14286555387
20
-11.9568958826065
30
0
41
1
10
114.202584619693
20
-12.1961822911789
30
0
41
1
10
114.322022751339
20
-12.6358763613221
30
0
41
1
10
114.381741817162
20
-12.8362841692795
30
0
41
1
10
114.501179948807
20
-13.1973104722708
30
0
41
1
10
114.56089901463
20
-13.3579313800923
30
0
41
1
10
114.680337146276
20
-13.6395385463753
30
0
41
1
10
114.740056212099
20
-13.7605290300178
30
0
41
1
10
114.799775277922
20
-13.8622613737156
30
0
0
SPLINE
5
DB
100
AcDbEntity
8
1
62
256
6
ByLayer
370
13
48
1
60
0
100
AcDbSpline
70
4
71
3
72
81
73
77
40
0
40
0
40
0
40
0
40
0.0312500000000005
40
0.0312500000000005
40
0.062500000000001
40
0.062500000000001
40
0.0937500000000015
40
0.0937500000000015
40
0.125000000000002
40
0.125000000000002
40
0.156250000000002
40
0.156250000000002
40
0.187500000000003
40
0.187500000000003
40
0.218750000000003
40
0.218750000000003
40
0.250000000000004
40
0.250000000000004
40
0.265625000000004
40
0.265625000000004
40
0.273437500000004
40
0.273437500000004
40
0.277343750000004
40
0.277343750000004
40
0.281250000000004
40
0.281250000000004
40
0.312500000000004
40
0.312500000000004
40
0.343750000000004
40
0.343750000000004
40
0.375000000000004
40
0.375000000000004
40
0.406250000000003
40
0.406250000000003
40
0.437500000000003
40
0.437500000000003
40
0.468750000000003
40
0.468750000000003
40
0.500000000000003
40
0.500000000000003
40
0.531250000000003
40
0.531250000000003
40
0.562500000000003
40
0.562500000000003
40
0.593750000000002
40
0.593750000000002
40
0.625000000000002
40
0.625000000000002
40
0.632812500000002
40
0.636718750000002
40
0.636718750000002
40
0.640625000000002
40
0.640625000000002
40
0.656250000000002
40
0.656250000000002
40
0.687500000000002
40
0.687500000000002
40
0.718750000000002
40
0.718750000000002
40
0.750000000000002
40
0.750000000000002
40
0.781250000000001
40
0.781250000000001
40
0.812500000000001
40
0.812500000000001
40
0.843750000000001
40
0.843750000000001
40
0.875000000000001
40
0.875000000000001
40
0.906250000000001
40
0.906250000000001
40
0.9375
40
0.9375
40
0.96875
40
0.96875
40
1
40
1
40
1
40
1
41
1
10
102.3
20
-4.99211362423046
30
0
41
1
10
102.389927758906
20
-5.60155564494636
30
0
41
1
10
102.479855517811
20
-6.20456636259118
30
0
41
1
10
102.659711035623
20
-7.3782234813572
30
0
41
1
10
102.749638794528
20
-7.94880382165863
30
0
41
1
10
102.92949431234
20
-9.03832085798169
30
0
41
1
10
103.019422071245
20
-9.55719212054677
30
0
41
1
10
103.199277589057
20
-10.5263672030374
30
0
41
1
10
103.289205347962
20
-10.9766202326511
30
0
41
1
10
103.469060865774
20
-11.7957873961817
30
0
41
1
10
103.55898862468
20
-12.1646759503909
30
0
41
1
10
103.738844142491
20
-12.8136761172073
30
0
41
1
10
103.828771901396
20
-13.0937908335729
30
0
41
1
10
104.008627419208
20
-13.5634816509807
30
0
41
1
10
104.098555178114
20
-13.7530853444675
30
0
41
1
10
104.278410695925
20
-14.0451855891872
30
0
41
1
10
104.368338454831
20
-14.147724846638
30
0
41
1
10
104.503230093189
20
-14.241851355713
30
0
41
1
10
104.548193972642
20
-14.2633075431652
30
0
41
1
10
104.615639791821
20
-14.281515690462
30
0
41
1
10
104.638121731548
20
-14.2852568960808
30
0
41
1
10
104.671844641137
20
-14.2874985231618
30
0
41
1
10
104.683085611
20
-14.2876856311183
30
0
41
1
10
104.705567550727
20
-14.2869498605577
30
0
41
1
10
104.71680852059
20
-14.2860238647191
30
0
41
1
10
104.817977249359
20
-14.2725737166472
30
0
41
1
10
104.907905008265
20
-14.2241406153411
30
0
41
1
10
105.087760526076
20
-14.0449145813583
30
0
41
1
10
105.177688284982
20
-13.9140748666435
30
0
41
1
10
105.357543802793
20
-13.5637063805036
30
0
41
1
10
105.447471561699
20
-13.3441387293161
30
0
41
1
10
105.62732707951
20
-12.8144759037488
30
0
41
1
10
105.717254838416
20
-12.5043604223319
30
0
41
1
10
105.897110356227
20
-11.797182898372
30
0
41
1
10
105.987038115133
20
-11.4001271797077
30
0
41
1
10
106.166893632944
20
-10.5283060261555
30
0
41
1
10
106.25682139185
20
-10.0535753382049
30
0
41
1
10
106.436676909661
20
-9.04068038399868
30
0
41
1
10
106.526604668567
20
-8.5025732196288
30
0
41
1
10
106.706460186378
20
-7.38083201861059
30
0
41
1
10
106.796387945284
20
-6.79726520764876
30
0
41
1
10
106.976243463095
20
-5.60422542628396
30
0
41
1
10
107.066171222001
20
-4.99481573675351
30
0
41
1
10
107.246026739812
20
-3.76941333492005
30
0
41
1
10
107.335954498718
20
-3.15346877342654
30
0
41
1
10
107.515810016529
20
-1.93231177475218
30
0
41
1
10
107.605737775435
20
-1.32712692084416
30
0
41
1
10
107.718147474067
20
-0.586200853325266
30
0
41
1
10
107.751870383656
20
-0.365076769588399
30
0
41
1
10
107.785593293246
20
-0.145891546558658
30
0
41
1
10
107.808075232972
20
-0.0002203658320639
30
0
41
1
10
107.819316202836
20
0.0723877977717393
30
0
41
1
10
107.875521052152
20
0.437307706480169
30
0
41
1
10
107.920484931605
20
0.732815427374533
30
0
41
1
10
108.055376569963
20
1.62780289981057
30
0
41
1
10
108.145304328869
20
2.23585224997581
30
0
41
1
10
108.32515984668
20
3.46006121190254
30
0
41
1
10
108.415087605586
20
4.07618970791265
30
0
41
1
10
108.594943123397
20
5.29885124943894
30
0
41
1
10
108.684870882303
20
5.90533307963821
30
0
41
1
10
108.864726400114
20
7.08922505847858
30
0
41
1
10
108.95465415902
20
7.66657036734784
30
0
41
1
10
109.134509676831
20
8.77271479558266
30
0
41
1
10
109.224437435737
20
9.30144738436354
30
0
41
1
10
109.404292953548
20
10.2929147347706
30
0
41
1
10
109.494220712454
20
10.7555953869672
30
0
41
1
10
109.674076230265
20
11.6013943646958
30
0
41
1
10
109.764003989171
20
11.9844824593686
30
0
41
1
10
109.943859506982
20
12.6627236752164
30
0
41
1
10
110.033787265888
20
12.9578752307236
30
0
41
1
10
110.213642783699
20
13.4575505734258
30
0
41
1
10
110.303570542605
20
13.6620984362873
30
0
41
1
10
110.483426060417
20
13.9831971681045
30
0
41
1
10
110.573353819322
20
14.099788982481
30
0
41
1
10
110.753209337133
20
14.251916851911
30
0
41
1
10
110.843137096039
20
14.2875
30
0
41
1
10
110.933064854945
20
14.2875
30
0
0
SPLINE
5
DC
100
AcDbEntity
8
1
62
256
6
ByLayer
370
13
48
1
60
0
100
AcDbSpline
70
4
71
3
72
73
73
69
40
0
40
0
40
0
40
0
40
0.0312500000000007
40
0.0312500000000007
40
0.0625000000000013
40
0.0625000000000013
40
0.093750000000002
40
0.093750000000002
40
0.125000000000003
40
0.125000000000003
40
0.156250000000003
40
0.156250000000003
40
0.187500000000004
40
0.187500000000004
40
0.218750000000005
40
0.218750000000005
40
0.250000000000005
40
0.250000000000005
40
0.281250000000006
40
0.281250000000006
40
0.312500000000006
40
0.312500000000006
40
0.343750000000007
40
0.343750000000007
40
0.375000000000008
40
0.375000000000008
40
0.406250000000008
40
0.406250000000008
40
0.437500000000009
40
0.437500000000009
40
0.468750000000009
40
0.468750000000009
40
0.50000000000001
40
0.50000000000001
40
0.50781250000001
40
0.50781250000001
40
0.51562500000001
40
0.53125000000001
40
0.53125000000001
40
0.562500000000009
40
0.562500000000009
40
0.593750000000008
40
0.593750000000008
40
0.625000000000008
40
0.625000000000008
40
0.656250000000007
40
0.656250000000007
40
0.687500000000006
40
0.687500000000006
40
0.718750000000006
40
0.718750000000006
40
0.750000000000005
40
0.750000000000005
40
0.781250000000005
40
0.781250000000005
40
0.812500000000004
40
0.812500000000004
40
0.843750000000003
40
0.843750000000003
40
0.875000000000003
40
0.875000000000003
40
0.906250000000002
40
0.906250000000002
40
0.937500000000001
40
0.937500000000001
40
0.968750000000001
40
0.968750000000001
40
1
40
1
40
1
40
1
41
1
10
108.583406077933
20
14.2875
30
0
41
1
10
108.648159923766
20
14.2875
30
0
41
1
10
108.712913769599
20
14.269073841247
30
0
41
1
10
108.842421461266
20
14.1915945095276
30
0
41
1
10
108.907175307099
20
14.1325321928781
30
0
41
1
10
109.036682998765
20
13.9706704629983
30
0
41
1
10
109.101436844599
20
13.867862161651
30
0
41
1
10
109.230944536265
20
13.6163541266767
30
0
41
1
10
109.295698382098
20
13.4676468018541
30
0
41
1
10
109.425206073765
20
13.123393527726
30
0
41
1
10
109.489959919598
20
12.9278423799082
30
0
41
1
10
109.619467611264
20
12.4903575003075
30
0
41
1
10
109.684221457097
20
12.2484219140253
30
0
41
1
10
109.813729148764
20
11.720136691858
30
0
41
1
10
109.878482994597
20
11.43378913946
30
0
41
1
10
110.007990686264
20
10.82015945128
30
0
41
1
10
110.072744532097
20
10.4928834061221
30
0
41
1
10
110.202252223763
20
9.80226422207647
30
0
41
1
10
110.267006069597
20
9.43893066045746
30
0
41
1
10
110.396513761263
20
8.68221434182624
30
0
41
1
10
110.461267607096
20
8.2888436073045
30
0
41
1
10
110.590775298762
20
7.47889275752237
30
0
41
1
10
110.655529144596
20
7.06232573840919
30
0
41
1
10
110.785036836262
20
6.21326171672075
30
0
41
1
10
110.849790682095
20
5.78077744287413
30
0
41
1
10
110.979298373762
20
4.90720495400143
30
0
41
1
10
111.044052219595
20
4.46612784691919
30
0
41
1
10
111.173559911261
20
3.58238021705813
30
0
41
1
10
111.238313757095
20
3.13971830347938
30
0
41
1
10
111.367821448761
20
2.25919729476831
30
0
41
1
10
111.432575294594
20
1.82134388933315
30
0
41
1
10
111.562082986261
20
0.956006146552937
30
0
41
1
10
111.626836832094
20
0.528524592402022
30
0
41
1
10
111.707779139385
20
0.0035343113119666
30
0
41
1
10
111.723967600844
20
-0.100976260016324
30
0
41
1
10
111.75634452376
20
-0.311543079771468
30
0
41
1
10
111.804909908135
20
-0.628759243232139
30
0
41
1
10
111.85347529251
20
-0.94977690475335
30
0
41
1
10
111.95060606126
20
-1.59600381442988
30
0
41
1
10
112.015359907093
20
-2.0324392166211
30
0
41
1
10
112.14486759876
20
-2.91114752168804
30
0
41
1
10
112.209621444593
20
-3.35341524819091
30
0
41
1
10
112.339129136259
20
-4.23752815174336
30
0
41
1
10
112.403882982093
20
-4.67936520621828
30
0
41
1
10
112.533390673759
20
-5.55569825750337
30
0
41
1
10
112.598144519592
20
-5.99018352717667
30
0
41
1
10
112.727652211259
20
-6.84452057657626
30
0
41
1
10
112.792406057092
20
-7.26435982637361
30
0
41
1
10
112.921913748758
20
-8.08209091161095
30
0
41
1
10
112.986667594591
20
-8.47996961362338
30
0
41
1
10
113.116175286258
20
-9.24683414631812
30
0
41
1
10
113.180929132091
20
-9.61580766590603
30
0
41
1
10
113.310436823758
20
-10.31867218967
30
0
41
1
10
113.375190669591
20
-10.6525531081227
30
0
41
1
10
113.504698361257
20
-11.2801398751374
30
0
41
1
10
113.569452207091
20
-11.573838978153
30
0
41
1
10
113.698959898757
20
-12.1173230770059
30
0
41
1
10
113.76371374459
20
-12.3671052865605
30
0
41
1
10
113.893221436256
20
-12.8205149298805
30
0
41
1
10
113.95797528209
20
-13.0241435681294
30
0
41
1
10
114.087482973756
20
-13.3845270558518
30
0
41
1
10
114.152236819589
20
-13.5412865874217
30
0
41
1
10
114.281744511256
20
-13.8086437424905
30
0
41
1
10
114.346498357089
20
-13.9192486212881
30
0
41
1
10
114.476006048756
20
-14.096256377216
30
0
41
1
10
114.540759894589
20
-14.1626679967486
30
0
41
1
10
114.670267586255
20
-14.2542528891737
30
0
41
1
10
114.735021432088
20
-14.2794353287237
30
0
41
1
10
114.799775277922
20
-14.2858459550828
30
0
0
SPLINE
5
DD
100
AcDbEntity
8
1
62
256
6
ByLayer
370
13
48
1
60
0
100
AcDbSpline
70
4
71
3
72
79
73
75
40
0
40
0
40
0
40
0
40
0.0312500000000003
40
0.0312500000000003
40
0.0625000000000006
40
0.0625000000000006
40
0.0937500000000009
40
0.0937500000000009
40
0.125000000000001
40
0.125000000000001
40
0.156250000000002
40
0.156250000000002
40
0.187500000000002
40
0.187500000000002
40
0.218750000000002
40
0.218750000000002
40
0.226562500000002
40
0.230468750000002
40
0.230468750000002
40
0.234375000000002
40
0.234375000000002
40
0.250000000000002
40
0.250000000000002
40
0.281250000000003
40
0.281250000000003
40
0.312500000000003
40
0.312500000000003
40
0.343750000000003
40
0.343750000000003
40
0.375000000000004
40
0.375000000000004
40
0.406250000000004
40
0.406250000000004
40
0.437500000000004
40
0.437500000000004
40
0.468750000000005
40
0.468750000000005
40
0.500000000000005
40
0.500000000000005
40
0.531250000000005
40
0.531250000000005
40
0.562500000000006
40
0.562500000000006
40
0.593750000000006
40
0.593750000000006
40
0.609375000000006
40
0.609375000000006
40
0.617187500000006
40
0.617187500000006
40
0.625000000000006
40
0.625000000000006
40
0.656250000000006
40
0.656250000000006
40
0.687500000000005
40
0.687500000000005
40
0.718750000000005
40
0.718750000000005
40
0.750000000000004
40
0.750000000000004
40
0.781250000000003
40
0.781250000000003
40
0.812500000000003
40
0.812500000000003
40
0.843750000000003
40
0.843750000000003
40
0.875000000000002
40
0.875000000000002
40
0.906250000000002
40
0.906250000000002
40
0.937500000000001
40
0.937500000000001
40
0.968750000000001
40
0.968750000000001
40
1
40
1
40
1
40
1
41
1
10
102.3
20
-8.14967675773741
30
0
41
1
10
102.384892978895
20
-8.67369344725248
30
0
41
1
10
102.469785957791
20
-9.17638531105027
30
0
41
1
10
102.639571915581
20
-10.1243721031335
30
0
41
1
10
102.724464894476
20
-10.5696250637337
30
0
41
1
10
102.894250852267
20
-11.3908451844716
30
0
41
1
10
102.979143831162
20
-11.7667865163836
30
0
41
1
10
103.148929788953
20
-12.4414983790498
30
0
41
1
10
103.233822767848
20
-12.7402632294854
30
0
41
1
10
103.403608725639
20
-13.2572245517864
30
0
41
1
10
103.488501704534
20
-13.4754345005946
30
0
41
1
10
103.658287662325
20
-13.8322504399764
30
0
41
1
10
103.74318064122
20
-13.9708839650487
30
0
41
1
10
103.912966599011
20
-14.173235489315
30
0
41
1
10
103.997859577906
20
-14.2369880095662
30
0
41
1
10
104.103975801525
20
-14.2745148289636
30
0
41
1
10
104.135810668611
20
-14.2826184802119
30
0
41
1
10
104.167645535697
20
-14.2861416397704
30
0
41
1
10
104.188868780421
20
-14.2874900001968
30
0
41
1
10
104.199480402782
20
-14.2876651873693
30
0
41
1
10
104.252538514592
20
-14.2860686398521
30
0
41
1
10
104.29498500404
20
-14.2768339229864
30
0
41
1
10
104.422324472383
20
-14.2236341695567
30
0
41
1
10
104.507217451278
20
-14.154097983091
30
0
41
1
10
104.677003409068
20
-13.9396846382005
30
0
41
1
10
104.761896387964
20
-13.7947732542616
30
0
41
1
10
104.931682345754
20
-13.4251731743921
30
0
41
1
10
105.01657532465
20
-13.2004578247925
30
0
41
1
10
105.18636128244
20
-12.6705896403207
30
0
41
1
10
105.271254261336
20
-12.3654247253626
30
0
41
1
10
105.441040219126
20
-11.6783807047113
30
0
41
1
10
105.525933198022
20
-11.2965089306578
30
0
41
1
10
105.695719155812
20
-10.4642446817531
30
0
41
1
10
105.780612134707
20
-10.0138795480232
30
0
41
1
10
105.950398092498
20
-9.05676964643496
30
0
41
1
10
106.035291071393
20
-8.55006783589238
30
0
41
1
10
106.205077029184
20
-7.49529703299783
30
0
41
1
10
106.289970008079
20
-6.94727837655134
30
0
41
1
10
106.45975596587
20
-5.8263236825411
30
0
41
1
10
106.544648944765
20
-5.2534358944458
30
0
41
1
10
106.714434902556
20
-4.09911477520728
30
0
41
1
10
106.799327881451
20
-3.51771978316268
30
0
41
1
10
106.969113839242
20
-2.36135155461309
30
0
41
1
10
107.054006818137
20
-1.78640244140834
30
0
41
1
10
107.18134628648
20
-0.938254670503568
30
0
41
1
10
107.223792775928
20
-0.657897491945931
30
0
41
1
10
107.287462510099
20
-0.241881478381913
30
0
41
1
10
107.308685754823
20
-0.104193251441899
30
0
41
1
10
107.351132244271
20
0.170524377830873
30
0
41
1
10
107.372355488994
20
0.308696872917608
30
0
41
1
10
107.478471712614
20
1.00325706797071
30
0
41
1
10
107.563364691509
20
1.57084952785016
30
0
41
1
10
107.733150649299
20
2.71862245025872
30
0
41
1
10
107.818043628195
20
3.29878568604158
30
0
41
1
10
107.987829585985
20
4.4577538485789
30
0
41
1
10
108.072722564881
20
5.03652667952343
30
0
41
1
10
108.242508522671
20
6.17686760593912
30
0
41
1
10
108.327401501566
20
6.73839122261688
30
0
41
1
10
108.497187459357
20
7.8276494211639
30
0
41
1
10
108.582080438252
20
8.35533348975281
30
0
41
1
10
108.751866396043
20
9.36104354158849
30
0
41
1
10
108.836759374938
20
9.83902200740889
30
0
41
1
10
109.006545332729
20
10.7316742072698
30
0
41
1
10
109.091438311624
20
11.1463125948094
30
0
41
1
10
109.261224269415
20
11.9021377037144
30
0
41
1
10
109.34611724831
20
12.243307663268
30
0
41
1
10
109.515903206101
20
12.8463513827354
30
0
41
1
10
109.600796184996
20
13.1082286809963
30
0
41
1
10
109.770582142787
20
13.5513450875054
30
0
41
1
10
109.855475121682
20
13.7326049447814
30
0
41
1
10
110.025261079473
20
14.0172666778458
30
0
41
1
10
110.110154058368
20
14.1207002072166
30
0
41
1
10
110.279940016159
20
14.2557991803152
30
0
41
1
10
110.364832995054
20
14.2875
30
0
41
1
10
110.449725973949
20
14.2875
30
0
0
SPLINE
5
DE
100
AcDbEntity
8
1
62
256
6
ByLayer
370
13
48
1
60
0
100
AcDbSpline
70
4
71
3
72
79
73
75
40
0
40
0
40
0
40
0
40
0.031249999999999
40
0.031249999999999
40
0.062499999999998
40
0.062499999999998
40
0.093749999999997
40
0.093749999999997
40
0.124999999999996
40
0.124999999999996
40
0.156249999999995
40
0.156249999999995
40
0.187499999999994
40
0.187499999999994
40
0.218749999999993
40
0.218749999999993
40
0.249999999999992
40
0.249999999999992
40
0.281249999999991
40
0.281249999999991
40
0.31249999999999
40
0.31249999999999
40
0.343749999999989
40
0.343749999999989
40
0.374999999999988
40
0.374999999999988
40
0.406249999999987
40
0.406249999999987
40
0.437499999999986
40
0.437499999999986
40
0.453124999999985
40
0.453124999999985
40
0.460937499999985
40
0.464843749999985
40
0.464843749999985
40
0.468749999999985
40
0.468749999999985
40
0.499999999999985
40
0.499999999999985
40
0.531249999999986
40
0.531249999999986
40
0.562499999999987
40
0.562499999999987
40
0.593749999999987
40
0.593749999999987
40
0.624999999999988
40
0.624999999999988
40
0.656249999999989
40
0.656249999999989
40
0.68749999999999
40
0.68749999999999
40
0.71874999999999
40
0.71874999999999
40
0.749999999999991
40
0.749999999999991
40
0.781249999999992
40
0.781249999999992
40
0.812499999999993
40
0.812499999999993
40
0.843749999999994
40
0.843749999999994
40
0.874999999999994
40
0.874999999999994
40
0.906249999999995
40
0.906249999999995
40
0.921874999999996
40
0.921874999999996
40
0.929687499999996
40
0.929687499999996
40
0.937499999999996
40
0.937499999999996
40
0.968749999999998
40
0.968749999999998
40
1
40
1
40
1
40
1
41
1
10
108.100067196937
20
14.2875
30
0
41
1
10
108.169855822781
20
14.2875
30
0
41
1
10
108.239644448624
20
14.2660925495746
30
0
41
1
10
108.379221700311
20
14.1757655541283
30
0
41
1
10
108.449010326155
20
14.1068327032502
30
0
41
1
10
108.588587577842
20
13.9176812800604
30
0
41
1
10
108.658376203686
20
13.7974499844264
30
0
41
1
10
108.797953455373
20
13.5032730336292
30
0
41
1
10
108.867742081217
20
13.3293170240664
30
0
41
1
10
109.007319332904
20
12.926960343043
30
0
41
1
10
109.077107958747
20
12.6985535047782
30
0
41
1
10
109.216685210435
20
12.1885179597066
30
0
41
1
10
109.286473836278
20
11.9068887222936
30
0
41
1
10
109.426051087965
20
11.2936898070994
30
0
41
1
10
109.495839713809
20
10.962125914515
30
0
41
1
10
109.635416965496
20
10.2543206660394
30
0
41
1
10
109.70520559134
20
9.87809106351915
30
0
41
1
10
109.844782843027
20
9.0879334301427
30
0
41
1
10
109.914571468871
20
8.67402173901183
30
0
41
1
10
110.054148720558
20
7.8167673174828
30
0
41
1
10
110.123937346401
20
7.37344336829148
30
0
41
1
10
110.263514598088
20
6.46638446094633
30
0
41
1
10
110.333303223932
20
6.00266828811164
30
0
41
1
10
110.472880475619
20
5.06402457200295
30
0
41
1
10
110.542669101463
20
4.58911360527728
30
0
41
1
10
110.68224635315
20
3.63692092147522
30
0
41
1
10
110.752034978994
20
3.15965198798992
30
0
41
1
10
110.891612230681
20
2.21077911152389
30
0
41
1
10
110.961400856524
20
1.73918339553836
30
0
41
1
10
111.06608379529
20
1.04122369739875
30
0
41
1
10
111.100978108211
20
0.810133267666714
30
0
41
1
10
111.153319577594
20
0.466398654262008
30
0
41
1
10
111.179490312285
20
0.295255637871037
30
0
41
1
10
111.205661046977
20
0.125294627585873
30
0
41
1
10
111.223108203438
20
0.0122599583154965
30
0
41
1
10
111.231831781668
20
-0.0440851758238523
30
0
41
1
10
111.310343985742
20
-0.553200804643978
30
0
41
1
10
111.380132611586
20
-1.0144698493948
30
0
41
1
10
111.519709863273
20
-1.94864796585486
30
0
41
1
10
111.589498489116
20
-2.42155269660097
30
0
41
1
10
111.729075740804
20
-3.37191659283471
30
0
41
1
10
111.798864366647
20
-3.84936683881693
30
0
41
1
10
111.938441618334
20
-4.80065208956634
30
0
41
1
10
112.008230244178
20
-5.27447367875254
30
0
41
1
10
112.147807495865
20
-6.20958394595783
30
0
41
1
10
112.217596121709
20
-6.67085560079065
30
0
41
1
10
112.357173373396
20
-7.57166122427708
30
0
41
1
10
112.42696199924
20
-8.01117625750433
30
0
41
1
10
112.566539250927
20
-8.85952348033192
30
0
41
1
10
112.63632787677
20
-9.26833709828438
30
0
41
1
10
112.775905128457
20
-10.0471678263879
30
0
41
1
10
112.845693754301
20
-10.4171691560944
30
0
41
1
10
112.985271005988
20
-11.1116177855686
30
0
41
1
10
113.055059631832
20
-11.4360541540756
30
0
41
1
10
113.194636883519
20
-12.0343795831614
30
0
41
1
10
113.264425509363
20
-12.3082638007174
30
0
41
1
10
113.40400276105
20
-12.8024963961037
30
0
41
1
10
113.473791386893
20
-13.0228462069177
30
0
41
1
10
113.61336863858
20
-13.4090770571964
30
0
41
1
10
113.683157264424
20
-13.5749649906102
30
0
41
1
10
113.822734516111
20
-13.853265823281
30
0
41
1
10
113.892523141955
20
-13.9656895470928
30
0
41
1
10
114.032100393642
20
-14.1397101270392
30
0
41
1
10
114.101889019486
20
-14.2013199005818
30
0
41
1
10
114.206571958251
20
-14.2585688122419
30
0
41
1
10
114.241466271173
20
-14.2717996576726
30
0
41
1
10
114.293807740556
20
-14.2833014519702
30
0
41
1
10
114.311254897016
20
-14.2857450333741
30
0
41
1
10
114.346149209938
20
-14.2879280145185
30
0
41
1
10
114.363596366399
20
-14.2876786914333
30
0
41
1
10
114.450832148704
20
-14.2796737605649
30
0
41
1
10
114.520620774547
20
-14.2514893778215
30
0
41
1
10
114.660198026234
20
-14.1469784707852
30
0
41
1
10
114.729986652078
20
-14.0706386247092
30
0
41
1
10
114.799775277922
20
-13.9684284396166
30
0
0
SPLINE
5
DF
100
AcDbEntity
8
1
62
256
6
ByLayer
370
13
48
1
60
0
100
AcDbSpline
70
4
71
3
72
80
73
76
40
0
40
0
40
0
40
0
40
0.0312499999999986
40
0.0312499999999986
40
0.0624999999999972
40
0.0624999999999972
40
0.0937499999999957
40
0.0937499999999957
40
0.124999999999994
40
0.124999999999994
40
0.156249999999993
40
0.156249999999993
40
0.171874999999992
40
0.171874999999992
40
0.179687499999992
40
0.183593749999991
40
0.183593749999991
40
0.187499999999991
40
0.187499999999991
40
0.218749999999991
40
0.218749999999991
40
0.249999999999991
40
0.249999999999991
40
0.281249999999991
40
0.281249999999991
40
0.312499999999992
40
0.312499999999992
40
0.343749999999992
40
0.343749999999992
40
0.374999999999992
40
0.374999999999992
40
0.406249999999992
40
0.406249999999992
40
0.437499999999992
40
0.437499999999992
40
0.468749999999992
40
0.468749999999992
40
0.499999999999992
40
0.499999999999992
40
0.531249999999992
40
0.531249999999992
40
0.562499999999992
40
0.562499999999992
40
0.578124999999992
40
0.578124999999992
40
0.585937499999992
40
0.589843749999992
40
0.589843749999992
40
0.593749999999993
40
0.593749999999993
40
0.624999999999993
40
0.624999999999993
40
0.656249999999994
40
0.656249999999994
40
0.687499999999994
40
0.687499999999994
40
0.718749999999995
40
0.718749999999995
40
0.749999999999995
40
0.749999999999995
40
0.781249999999996
40
0.781249999999996
40
0.812499999999997
40
0.812499999999997
40
0.843749999999997
40
0.843749999999997
40
0.874999999999998
40
0.874999999999998
40
0.906249999999998
40
0.906249999999998
40
0.937499999999999
40
0.937499999999999
40
0.968749999999999
40
0.968749999999999
40
1
40
1
40
1
40
1
41
1
10
102.3
20
-10.8533119060171
30
0
41
1
10
102.379858198885
20
-11.2461498443814
30
0
41
1
10
102.45971639777
20
-11.6087880631742
30
0
41
1
10
102.61943279554
20
-12.2666737592261
30
0
41
1
10
102.699290994425
20
-12.5619146109334
30
0
41
1
10
102.859007392194
20
-13.0814591823282
30
0
41
1
10
102.938865591079
20
-13.305769969953
30
0
41
1
10
103.098581988849
20
-13.6833837471927
30
0
41
1
10
103.178440187734
20
-13.8367046429713
30
0
41
1
10
103.338156585504
20
-14.0753558480276
30
0
41
1
10
103.418014784389
20
-14.1607104691898
30
0
41
1
10
103.537802082716
20
-14.2418397613752
30
0
41
1
10
103.577731182159
20
-14.2610823907104
30
0
41
1
10
103.637624831323
20
-14.278877279131
30
0
41
1
10
103.667571655904
20
-14.2850085586754
30
0
41
1
10
103.697518480486
20
-14.2871178082807
30
0
41
1
10
103.717483030208
20
-14.2876448400322
30
0
41
1
10
103.727465305068
20
-14.2874709308782
30
0
41
1
10
103.817305778814
20
-14.2819315650883
30
0
41
1
10
103.897163977699
20
-14.2486326081354
30
0
41
1
10
104.056880375468
20
-14.1184538662297
30
0
41
1
10
104.136738574353
20
-14.0215480056821
30
0
41
1
10
104.296454972123
20
-13.759068557968
30
0
41
1
10
104.376313171008
20
-13.5934714336504
30
0
41
1
10
104.536029568778
20
-13.1910764501309
30
0
41
1
10
104.615887767663
20
-12.9542622869123
30
0
41
1
10
104.775604165433
20
-12.4100702358883
30
0
41
1
10
104.855462364318
20
-12.1026875340415
30
0
41
1
10
105.015178762088
20
-11.4214976630411
30
0
41
1
10
105.095036960973
20
-11.0476996161072
30
0
41
1
10
105.254753358742
20
-10.2412630480004
30
0
41
1
10
105.334611557627
20
-9.80864717939102
30
0
41
1
10
105.494327955397
20
-8.89512242795672
30
0
41
1
10
105.574186154282
20
-8.41424628947206
30
0
41
1
10
105.733902552052
20
-7.41686488916022
30
0
41
1
10
105.813760750937
20
-6.90039685742303
30
0
41
1
10
105.973477148707
20
-5.84553915784406
30
0
41
1
10
106.053335347592
20
-5.30718502390036
30
0
41
1
10
106.213051745362
20
-4.2221909670881
30
0
41
1
10
106.292909944247
20
-3.67557977832024
30
0
41
1
10
106.452626342017
20
-2.58665359348521
30
0
41
1
10
106.532484540901
20
-2.04435759062579
30
0
41
1
10
106.652271839229
20
-1.2422380034343
30
0
41
1
10
106.692200938671
20
-0.976736585424533
30
0
41
1
10
106.752094587835
20
-0.582150903694156
30
0
41
1
10
106.782041412417
20
-0.385773031037047
30
0
41
1
10
106.811988236999
20
-0.190913566380203
30
0
41
1
10
106.83195278672
20
-0.0613598433412221
30
0
41
1
10
106.84193506158
20
0.0031201998607742
30
0
41
1
10
106.931775535326
20
0.585152179103744
30
0
41
1
10
107.011633734211
20
1.11403769709798
30
0
41
1
10
107.171350131981
20
2.18606620202229
30
0
41
1
10
107.251208330866
20
2.7291996161081
30
0
41
1
10
107.410924728636
20
3.81876486323969
30
0
41
1
10
107.49078292752
20
4.36517679665235
30
0
41
1
10
107.65049932529
20
5.44861089138541
30
0
41
1
10
107.730357524175
20
5.98560357131996
30
0
41
1
10
107.890073921945
20
7.03652774479397
30
0
41
1
10
107.96993212083
20
7.55042332709587
30
0
41
1
10
108.1296485186
20
8.54149423470355
30
0
41
1
10
108.209506717485
20
9.0186324715508
30
0
41
1
10
108.369223115255
20
9.92365905629825
30
0
41
1
10
108.44908131414
20
10.3515153402295
30
0
41
1
10
108.60879771191
20
11.1476394101155
30
0
41
1
10
108.688655910794
20
11.5158856301515
30
0
41
1
10
108.848372308564
20
12.1854661978639
30
0
41
1
10
108.928230507449
20
12.4867926712379
30
0
41
1
10
109.087946905219
20
13.0186768981653
30
0
41
1
10
109.167805104104
20
13.2492406032294
30
0
41
1
10
109.327521501874
20
13.6392353730113
30
0
41
1
10
109.407379700759
20
13.798683559907
30
0
41
1
10
109.567096098529
20
14.0492176393922
30
0
41
1
10
109.646954297414
20
14.1403274747235
30
0
41
1
10
109.806670695184
20
14.2594556092031
30
0
41
1
10
109.886528894069
20
14.2875
30
0
41
1
10
109.966387092953
20
14.2875
30
0
0
SPLINE
5
E0
100
AcDbEntity
8
1
62
256
6
ByLayer
370
13
48
1
60
0
100
AcDbSpline
70
4
71
3
72
79
73
75
40
0
40
0
40
0
40
0
40
0.03125
40
0.03125
40
0.0625
40
0.0625
40
0.09375
40
0.09375
40
0.125
40
0.125
40
0.15625
40
0.15625
40
0.1875
40
0.1875
40
0.21875
40
0.21875
40
0.25
40
0.25
40
0.28125
40
0.28125
40
0.3125
40
0.3125
40
0.34375
40
0.34375
40
0.375
40
0.375
40
0.40625
40
0.40625
40
0.421875
40
0.421875
40
0.4296875
40
0.43359375
40
0.43359375
40
0.4375
40
0.4375
40
0.46875
40
0.46875
40
0.5
40
0.5
40
0.53125
40
0.53125
40
0.5625
40
0.5625
40
0.59375
40
0.59375
40
0.625
40
0.625
40
0.65625
40
0.65625
40
0.6875
40
0.6875
40
0.71875
40
0.71875
40
0.75
40
0.75
40
0.78125
40
0.78125
40
0.8125
40
0.8125
40
0.84375
40
0.84375
40
0.859375
40
0.859375
40
0.8671875
40
0.8671875
40
0.875
40
0.875
40
0.90625
40
0.90625
40
0.9375
40
0.9375
40
0.96875
40
0.96875
40
1
40
1
40
1
40
1
41
1
10
107.616728315941
20
14.2875
30
0
41
1
10
107.691551721796
20
14.2875
30
0
41
1
10
107.766375127649
20
14.2628866003803
30
0
41
1
10
107.916021939357
20
14.1586796233192
30
0
41
1
10
107.990845345211
20
14.0790671943771
30
0
41
1
10
108.140492156919
20
13.8603646081078
30
0
41
1
10
108.215315562773
20
13.7212567661432
30
0
41
1
10
108.364962374481
20
13.3809150389261
30
0
41
1
10
108.439785780335
20
13.1796675775425
30
0
41
1
10
108.589432592043
20
12.7147281958241
30
0
41
1
10
108.664255997897
20
12.451029684139
30
0
41
1
10
108.813902809605
20
11.8635129803686
30
0
41
1
10
108.888726215459
20
11.539697227857
30
0
41
1
10
109.038373027167
20
10.8369830681012
30
0
41
1
10
109.113196433021
20
10.4580966586535
30
0
41
1
10
109.262843244729
20
9.65277421589732
30
0
41
1
10
109.337666650583
20
9.22635842119357
30
0
41
1
10
109.48731346229
20
8.33551577197949
30
0
41
1
10
109.562136868144
20
7.87111445147542
30
0
41
1
10
109.711783679852
20
6.91514548259892
30
0
41
1
10
109.786607085706
20
6.42360480821242
30
0
41
1
10
109.936253897414
20
5.42470496154309
30
0
41
1
10
110.011077303268
20
4.91737039737848
30
0
41
1
10
110.160724114976
20
3.8979456325568
30
0
41
1
10
110.23554752083
20
3.38587476970736
30
0
41
1
10
110.385194332538
20
2.36708594215804
30
0
41
1
10
110.460017738392
20
1.86038051891893
30
0
41
1
10
110.572252847173
20
1.11084064025763
30
0
41
1
10
110.6096645501
20
0.86273469481381
30
0
41
1
10
110.66578210449
20
0.493879762878606
30
0
41
1
10
110.693840881686
20
0.310277018884051
30
0
41
1
10
110.721899658881
20
0.128029633391378
30
0
41
1
10
110.740605510344
20
0.0068448951003859
30
0
41
1
10
110.749958436076
20
-0.0535678932921826
30
0
41
1
10
110.834134767662
20
-0.599621660103423
30
0
41
1
10
110.908958173516
20
-1.09500828815908
30
0
41
1
10
111.058604985224
20
-2.09856509517101
30
0
41
1
10
111.133428391078
20
-2.60672860569727
30
0
41
1
10
111.283075202785
20
-3.62693244833491
30
0
41
1
10
111.357898608639
20
-4.13895912933015
30
0
41
1
10
111.507545420347
20
-5.15660685168689
30
0
41
1
10
111.582368826201
20
-5.66220758815811
30
0
41
1
10
111.732015637909
20
-6.65585719039748
30
0
41
1
10
111.806839043763
20
-7.14388085289306
30
0
41
1
10
111.956485855471
20
-8.09105722634067
30
0
41
1
10
112.031309261325
20
-8.55018292489819
30
0
41
1
10
112.180956073033
20
-9.4288678451058
30
0
41
1
10
112.255779478887
20
-9.8484021219862
30
0
41
1
10
112.405426290595
20
-10.6386270739143
30
0
41
1
10
112.480249696449
20
-11.0092986456853
30
0
41
1
10
112.629896508157
20
-11.6946143109641
30
0
41
1
10
112.704719914011
20
-12.0092478691269
30
0
41
1
10
112.854366725719
20
-12.5778506808877
30
0
41
1
10
112.929190131573
20
-12.8318189942721
30
0
41
1
10
113.07883694328
20
-13.2771758894241
30
0
41
1
10
113.153660349134
20
-13.4685723262293
30
0
41
1
10
113.303307160842
20
-13.7894829764048
30
0
41
1
10
113.378130566696
20
-13.9190116123924
30
0
41
1
10
113.527777378404
20
-14.1191532195182
30
0
41
1
10
113.602600784258
20
-14.1897842456614
30
0
41
1
10
113.714835893039
20
-14.2550965679105
30
0
41
1
10
113.752247595966
20
-14.2701070382994
30
0
41
1
10
113.808365150357
20
-14.2830136203609
30
0
41
1
10
113.82707100182
20
-14.2857148261457
30
0
41
1
10
113.864482704747
20
-14.2880094746457
30
0
41
1
10
113.883188556211
20
-14.2876171570823
30
0
41
1
10
113.976717813528
20
-14.2778668495671
30
0
41
1
10
114.051541219382
20
-14.2449667762841
30
0
41
1
10
114.20118803109
20
-14.1233795119154
30
0
41
1
10
114.276011436944
20
-14.0346734742233
30
0
41
1
10
114.425658248652
20
-13.7972313266865
30
0
41
1
10
114.500481654506
20
-13.6484779764526
30
0
41
1
10
114.650128466214
20
-13.2886304560731
30
0
41
1
10
114.724951872068
20
-13.0775236289325
30
0
41
1
10
114.799775277922
20
-12.8352872474763
30
0
0
SPLINE
5
E1
100
AcDbEntity
8
1
62
256
6
ByLayer
370
13
48
1
60
0
100
AcDbSpline
70
4
71
3
72
79
73
75
40
0
40
0
40
0
40
0
40
0.0312499999999991
40
0.0312499999999991
40
0.0624999999999983
40
0.0624999999999983
40
0.0937499999999974
40
0.0937499999999974
40
0.124999999999997
40
0.124999999999997
40
0.132812499999997
40
0.132812499999997
40
0.140624999999997
40
0.140624999999997
40
0.156249999999997
40
0.156249999999997
40
0.187499999999997
40
0.187499999999997
40
0.218749999999997
40
0.218749999999997
40
0.249999999999997
40
0.249999999999997
40
0.281249999999997
40
0.281249999999997
40
0.312499999999998
40
0.312499999999998
40
0.343749999999998
40
0.343749999999998
40
0.374999999999998
40
0.374999999999998
40
0.406249999999998
40
0.406249999999998
40
0.437499999999999
40
0.437499999999999
40
0.468749999999999
40
0.468749999999999
40
0.499999999999999
40
0.499999999999999
40
0.531249999999999
40
0.531249999999999
40
0.562499999999999
40
0.562499999999999
40
0.56640625
40
0.56640625
40
0.5703125
40
0.578125
40
0.578125
40
0.59375
40
0.59375
40
0.625
40
0.625
40
0.65625
40
0.65625
40
0.6875
40
0.6875
40
0.71875
40
0.71875
40
0.75
40
0.75
40
0.78125
40
0.78125
40
0.8125
40
0.8125
40
0.84375
40
0.84375
40
0.875
40
0.875
40
0.90625
40
0.90625
40
0.9375
40
0.9375
40
0.96875
40
0.96875
40
1
40
1
40
1
40
1
41
1
10
102.3
20
-12.8352832007447
30
0
41
1
10
102.374823418875
20
-13.0775199698487
30
0
41
1
10
102.449646837749
20
-13.2886271776372
30
0
41
1
10
102.599293675498
20
-13.6484754312373
30
0
41
1
10
102.674117094373
20
-13.7972291340219
30
0
41
1
10
102.823763932122
20
-14.0346719481602
30
0
41
1
10
102.898587350996
20
-14.1233782999018
30
0
41
1
10
103.048234188746
20
-14.2449661475179
30
0
41
1
10
103.12305760762
20
-14.2778664900139
30
0
41
1
10
103.216586881213
20
-14.2876171044434
30
0
41
1
10
103.235292735932
20
-14.2880094813045
30
0
41
1
10
103.272704445369
20
-14.2857149524534
30
0
41
1
10
103.291410300088
20
-14.2830138068783
30
0
41
1
10
103.347527864244
20
-14.2701074064308
30
0
41
1
10
103.384939573681
20
-14.2550970584352
30
0
41
1
10
103.497174701993
20
-14.189785105818
30
0
41
1
10
103.571998120868
20
-14.1191543294137
30
0
41
1
10
103.721644958617
20
-13.9190132190919
30
0
41
1
10
103.796468377491
20
-13.7894848301441
30
0
41
1
10
103.94611521524
20
-13.4685746607972
30
0
41
1
10
104.020938634115
20
-13.277178457746
30
0
41
1
10
104.170585471864
20
-12.8318220059466
30
0
41
1
10
104.245408890739
20
-12.5778539021212
30
0
41
1
10
104.395055728488
20
-12.0092514752313
30
0
41
1
10
104.469879147362
20
-11.6946180923436
30
0
41
1
10
104.619525985111
20
-11.0093027352703
30
0
41
1
10
104.694349403986
20
-10.6386312964031
30
0
41
1
10
104.843996241735
20
-9.84840656282384
30
0
41
1
10
104.91881966061
20
-9.42887237137779
30
0
41
1
10
105.068466498359
20
-8.55018757302994
30
0
41
1
10
105.143289917233
20
-8.09106191090544
30
0
41
1
10
105.292936754982
20
-7.14388556337971
30
0
41
1
10
105.367760173857
20
-6.6558618903963
30
0
41
1
10
105.517407011606
20
-5.66221222544166
30
0
41
1
10
105.592230430481
20
-5.15661143677605
30
0
41
1
10
105.74187726823
20
-4.13896357576675
30
0
41
1
10
105.816700687104
20
-3.62693680834883
30
0
41
1
10
105.966347524854
20
-2.60673276729403
30
0
41
1
10
106.041170943728
20
-2.09856914480477
30
0
41
1
10
106.190817781477
20
-1.09501209717592
30
0
41
1
10
106.265641200352
20
-0.599625340489723
30
0
41
1
10
106.349817546585
20
-0.053571424211583
30
0
41
1
10
106.359170473945
20
0.0068413794122932
30
0
41
1
10
106.377876328664
20
0.12802612667835
30
0
41
1
10
106.405935110741
20
0.310273526153026
30
0
41
1
10
106.433993892819
20
0.493876285696672
30
0
41
1
10
106.490111456975
20
0.862731250835964
30
0
41
1
10
106.527523166413
20
1.11083722122649
30
0
41
1
10
106.639758294725
20
1.86037718318988
30
0
41
1
10
106.714581713599
20
2.36708267330045
30
0
41
1
10
106.864228551348
20
3.38587165622164
30
0
41
1
10
106.939051970223
20
3.89794260757537
30
0
41
1
10
107.088698807972
20
4.9173675682265
30
0
41
1
10
107.163522226846
20
5.42470223971145
30
0
41
1
10
107.313169064595
20
6.42360231525549
30
0
41
1
10
107.38799248347
20
6.91514311118195
30
0
41
1
10
107.537639321219
20
7.87111233129241
30
0
41
1
10
107.612462740094
20
8.33551378146788
30
0
41
1
10
107.762109577843
20
9.22635669116704
30
0
41
1
10
107.836932996717
20
9.65277261665753
30
0
41
1
10
107.986579834466
20
10.4580953149451
30
0
41
1
10
108.061403253341
20
10.8369818491114
30
0
41
1
10
108.21105009109
20
11.5396962457217
30
0
41
1
10
108.285873509965
20
11.8635121103493
30
0
41
1
10
108.435520347714
20
12.4510290205834
30
0
41
1
10
108.510343766588
20
12.7147276266057
30
0
41
1
10
108.659990604338
20
13.1796671758685
30
0
41
1
10
108.734814023212
20
13.3809147104592
30
0
41
1
10
108.884460860961
20
13.7212565615806
30
0
41
1
10
108.959284279836
20
13.8603644542514
30
0
41
1
10
109.108931117585
20
14.0790671198848
30
0
41
1
10
109.183754536459
20
14.1586795774995
30
0
41
1
10
109.333401374209
20
14.2628865917984
30
0
41
1
10
109.408224793083
20
14.2875
30
0
41
1
10
109.483048211958
20
14.2875
30
0
0
SPLINE
5
E2
100
AcDbEntity
8
1
62
256
6
ByLayer
370
13
48
1
60
0
100
AcDbSpline
70
4
71
3
72
80
73
76
40
0
40
0
40
0
40
0
40
0.0312500000000003
40
0.0312500000000003
40
0.0625000000000006
40
0.0625000000000006
40
0.0937500000000009
40
0.0937500000000009
40
0.125000000000001
40
0.125000000000001
40
0.156250000000001
40
0.156250000000001
40
0.187500000000002
40
0.187500000000002
40
0.218750000000002
40
0.218750000000002
40
0.250000000000002
40
0.250000000000002
40
0.281250000000003
40
0.281250000000003
40
0.312500000000003
40
0.312500000000003
40
0.343750000000003
40
0.343750000000003
40
0.375000000000003
40
0.375000000000003
40
0.406250000000004
40
0.406250000000004
40
0.410156250000004
40
0.410156250000004
40
0.414062500000004
40
0.421875000000004
40
0.421875000000004
40
0.437500000000004
40
0.437500000000004
40
0.468750000000004
40
0.468750000000004
40
0.500000000000003
40
0.500000000000003
40
0.531250000000003
40
0.531250000000003
40
0.562500000000003
40
0.562500000000003
40
0.593750000000003
40
0.593750000000003
40
0.625000000000003
40
0.625000000000003
40
0.656250000000003
40
0.656250000000003
40
0.687500000000003
40
0.687500000000003
40
0.718750000000002
40
0.718750000000002
40
0.750000000000002
40
0.750000000000002
40
0.781250000000002
40
0.781250000000002
40
0.812500000000002
40
0.812500000000002
40
0.816406250000002
40
0.816406250000002
40
0.820312500000002
40
0.828125000000002
40
0.828125000000002
40
0.843750000000002
40
0.843750000000002
40
0.875000000000002
40
0.875000000000002
40
0.906250000000001
40
0.906250000000001
40
0.937500000000001
40
0.937500000000001
40
0.96875
40
0.96875
40
1
40
1
40
1
40
1
41
1
10
107.133389434946
20
14.2875
30
0
41
1
10
107.21324762081
20
14.2875
30
0
41
1
10
107.293105806674
20
14.2594556183673
30
0
41
1
10
107.452822178403
20
14.1403275238295
30
0
41
1
10
107.532680364267
20
14.0492177192968
30
0
41
1
10
107.692396735996
20
13.7986837250947
30
0
41
1
10
107.77225492186
20
13.6392355927015
30
0
41
1
10
107.931971293589
20
13.2492409558247
30
0
41
1
10
108.011829479453
20
13.0186773291726
30
0
41
1
10
108.171545851182
20
12.4867932808928
30
0
41
1
10
108.251404037046
20
12.1854669077507
30
0
41
1
10
108.411120408775
20
11.515886557856
30
0
41
1
10
108.490978594639
20
11.1476404553877
30
0
41
1
10
108.650694966368
20
10.3515166314513
30
0
41
1
10
108.730553152232
20
9.92366047587217
30
0
41
1
10
108.890269523961
20
9.01863415076627
30
0
41
1
10
108.970127709825
20
8.54149604517332
30
0
41
1
10
109.129844081554
20
7.55042539480115
30
0
41
1
10
109.209702267418
20
7.03652993844784
30
0
41
1
10
109.369418639147
20
5.98560600410238
30
0
41
1
10
109.449276825011
20
5.44861343732461
30
0
41
1
10
109.60899319674
20
4.36517955021688
30
0
41
1
10
109.688851382604
20
3.81876771126258
30
0
41
1
10
109.848567754333
20
2.72920263052831
30
0
41
1
10
109.928425940197
20
2.18606928838381
30
0
41
1
10
110.088142311926
20
1.11404090319414
30
0
41
1
10
110.16800049779
20
0.585155433004957
30
0
41
1
10
110.257840956888
20
0.0031234941558864
30
0
41
1
10
110.267823230121
20
-0.0613565330234849
30
0
41
1
10
110.287787776587
20
-0.190910222865085
30
0
41
1
10
110.317734596286
20
-0.385769637941195
30
0
41
1
10
110.347681415985
20
-0.582147461740334
30
0
41
1
10
110.407575055383
20
-0.976733046931258
30
0
41
1
10
110.447504148315
20
-1.24223440214797
30
0
41
1
10
110.567291427112
20
-2.04435380744494
30
0
41
1
10
110.647149612976
20
-2.5866496976794
30
0
41
1
10
110.806865984705
20
-3.67557568457443
30
0
41
1
10
110.886724170569
20
-4.22218678806814
30
0
41
1
10
111.046440542298
20
-5.30718071150542
30
0
41
1
10
111.126298728162
20
-5.84553479739432
30
0
41
1
10
111.286015099891
20
-6.90039244633911
30
0
41
1
10
111.365873285755
20
-7.41686047553844
30
0
41
1
10
111.525589657484
20
-8.41424192163797
30
0
41
1
10
111.605447843348
20
-8.89511810847452
30
0
41
1
10
111.765164215077
20
-9.80864300889257
30
0
41
1
10
111.845022400941
20
-10.2412589781372
30
0
41
1
10
112.00473877267
20
-11.0476957967695
30
0
41
1
10
112.084596958534
20
-11.4214939935721
30
0
41
1
10
112.244313330263
20
-12.1026842063742
30
0
41
1
10
112.324171516127
20
-12.4100671001125
30
0
41
1
10
112.483887887856
20
-12.9542595665976
30
0
41
1
10
112.56374607372
20
-13.1910739533347
30
0
41
1
10
112.723462445449
20
-13.5934694034165
30
0
41
1
10
112.803320631313
20
-13.7590667707286
30
0
41
1
10
112.963037003042
20
-14.0215467115809
30
0
41
1
10
113.042895188906
20
-14.118452822234
30
0
41
1
10
113.202611560635
20
-14.2486320602388
30
0
41
1
10
113.282469746499
20
-14.2819312631627
30
0
41
1
10
113.372310205597
20
-14.2874708981696
30
0
41
1
10
113.38229247883
20
-14.287644836968
30
0
41
1
10
113.402257025296
20
-14.2871178652204
30
0
41
1
10
113.432203844995
20
-14.2850087068
30
0
41
1
10
113.462150664694
20
-14.2788775219735
30
0
41
1
10
113.522044304092
20
-14.2610828276638
30
0
41
1
10
113.561973397024
20
-14.2418403339781
30
0
41
1
10
113.681760675821
20
-14.1607114668897
30
0
41
1
10
113.761618861685
20
-14.0753571534761
30
0
41
1
10
113.921335233414
20
-13.8367066060628
30
0
41
1
10
114.001193419278
20
-13.6833860601801
30
0
41
1
10
114.160909791007
20
-13.3057730134292
30
0
41
1
10
114.240767976871
20
-13.0814626063706
30
0
41
1
10
114.4004843486
20
-12.5619188107787
30
0
41
1
10
114.480342534464
20
-12.2666783542519
30
0
41
1
10
114.640058906193
20
-11.6087934438769
30
0
41
1
10
114.719917092057
20
-11.246155615503
30
0
41
1
10
114.799775277921
20
-10.8533180548959
30
0
0
SPLINE
5
E3
100
AcDbEntity
8
1
62
256
6
ByLayer
370
13
48
1
60
0
100
AcDbSpline
70
4
71
3
72
77
73
73
40
0
40
0
40
0
40
0
40
0.0312499999999996
40
0.0312499999999996
40
0.0624999999999993
40
0.0624999999999993
40
0.0703124999999992
40
0.0703124999999992
40
0.0781249999999992
40
0.0937499999999992
40
0.0937499999999992
40
0.124999999999999
40
0.124999999999999
40
0.156249999999999
40
0.156249999999999
40
0.187499999999999
40
0.187499999999999
40
0.218749999999999
40
0.218749999999999
40
0.249999999999999
40
0.249999999999999
40
0.281249999999999
40
0.281249999999999
40
0.312499999999999
40
0.312499999999999
40
0.343749999999998
40
0.343749999999998
40
0.374999999999998
40
0.374999999999998
40
0.406249999999998
40
0.406249999999998
40
0.437499999999998
40
0.437499999999998
40
0.468749999999998
40
0.468749999999998
40
0.499999999999998
40
0.499999999999998
40
0.531249999999998
40
0.531249999999998
40
0.535156249999997
40
0.535156249999997
40
0.539062499999997
40
0.546874999999997
40
0.562499999999997
40
0.562499999999997
40
0.593749999999998
40
0.593749999999998
40
0.624999999999998
40
0.624999999999998
40
0.656249999999998
40
0.656249999999998
40
0.687499999999998
40
0.687499999999998
40
0.718749999999998
40
0.718749999999998
40
0.749999999999998
40
0.749999999999998
40
0.781249999999999
40
0.781249999999999
40
0.812499999999999
40
0.812499999999999
40
0.843749999999999
40
0.843749999999999
40
0.874999999999999
40
0.874999999999999
40
0.906249999999999
40
0.906249999999999
40
0.9375
40
0.9375
40
0.96875
40
0.96875
40
1
40
1
40
1
40
1
41
1
10
102.3
20
-13.9684266089369
30
0
41
1
10
102.369788638864
20
-14.0706371213855
30
0
41
1
10
102.439577277728
20
-14.1469772763073
30
0
41
1
10
102.579154555457
20
-14.251488758906
30
0
41
1
10
102.648943194321
20
-14.2796734083785
30
0
41
1
10
102.736178992901
20
-14.2876786450627
30
0
41
1
10
102.753626152617
20
-14.2879280273863
30
0
41
1
10
102.788520472049
20
-14.2857451659023
30
0
41
1
10
102.840861951198
20
-14.2784153934815
30
0
41
1
10
102.893203430346
20
-14.2585693086925
30
0
41
1
10
102.997886388642
20
-14.2013207661754
30
0
41
1
10
103.067675027506
20
-14.1397112420066
30
0
41
1
10
103.207252305234
20
-13.9656911593791
30
0
41
1
10
103.277040944099
20
-13.8532676834942
30
0
41
1
10
103.416618221827
20
-13.5749673361662
30
0
41
1
10
103.486406860691
20
-13.409079640143
30
0
41
1
10
103.62598413842
20
-13.0228492446346
30
0
41
1
10
103.695772777284
20
-12.8024996511707
30
0
41
1
10
103.835350055012
20
-12.3082674613919
30
0
41
1
10
103.905138693876
20
-12.034383432064
30
0
41
1
10
104.044715971605
20
-11.4360583425828
30
0
41
1
10
104.114504610469
20
-11.1116221254283
30
0
41
1
10
104.254081888197
20
-10.4171737561914
30
0
41
1
10
104.323870527061
20
-10.0471725353557
30
0
41
1
10
104.46344780479
20
-9.26834197963973
30
0
41
1
10
104.533236443654
20
-8.85952842520248
30
0
41
1
10
104.672813721382
20
-8.01118128413279
30
0
41
1
10
104.742602360247
20
-7.57166626915924
30
0
41
1
10
104.882179637975
20
-6.67086063981054
30
0
41
1
10
104.951968276839
20
-6.20958896088251
30
0
41
1
10
105.091545554567
20
-5.27447860835139
30
0
41
1
10
105.161334193432
20
-4.8006569579606
30
0
41
1
10
105.30091147116
20
-3.84937155451163
30
0
41
1
10
105.370700110024
20
-3.37192121706104
30
0
41
1
10
105.510277387753
20
-2.42155711524768
30
0
41
1
10
105.580066026617
20
-1.94865227041342
30
0
41
1
10
105.719643304345
20
-1.01447391082473
30
0
41
1
10
105.789431943209
20
-0.553204737050578
30
0
41
1
10
105.867944161932
20
-0.0440889586742514
30
0
41
1
10
105.87666774179
20
0.0122561894217768
30
0
41
1
10
105.894114901506
20
0.125290867672334
30
0
41
1
10
105.92028564108
20
0.295251891912216
30
0
41
1
10
105.981350700086
20
0.694584342811197
30
0
41
1
10
106.033692179234
20
1.04122002413328
30
0
41
1
10
106.13837513753
20
1.73917980361551
30
0
41
1
10
106.208163776395
20
2.21077558439893
30
0
41
1
10
106.347741054123
20
3.15964861082603
30
0
41
1
10
106.417529692987
20
3.63691762947812
30
0
41
1
10
106.557106970715
20
4.58911050178676
30
0
41
1
10
106.62689560958
20
5.06402157185002
30
0
41
1
10
106.766472887308
20
6.00266550915345
30
0
41
1
10
106.836261526172
20
6.46638179983626
30
0
41
1
10
106.975838803901
20
7.37344095244922
30
0
41
1
10
107.045627442765
20
7.81676502904497
30
0
41
1
10
107.185204720493
20
8.67401970907974
30
0
41
1
10
107.254993359357
20
9.08793153129236
30
0
41
1
10
107.394570637086
20
9.87808942425949
30
0
41
1
10
107.46435927595
20
10.2543191552681
30
0
41
1
10
107.603936553678
20
10.9621246520976
30
0
41
1
10
107.673725192543
20
11.2936886645297
30
0
41
1
10
107.813302470271
20
11.9068878055604
30
0
41
1
10
107.883091109135
20
12.1885171489497
30
0
41
1
10
108.022668386863
20
12.6985528881602
30
0
41
1
10
108.092457025728
20
12.9269598145826
30
0
41
1
10
108.232034303456
20
13.3293166517052
30
0
41
1
10
108.30182294232
20
13.5032727292116
30
0
41
1
10
108.441400220048
20
13.7974497948774
30
0
41
1
10
108.511188858913
20
13.9176811374442
30
0
41
1
10
108.650766136641
20
14.1068326341242
30
0
41
1
10
108.720554775505
20
14.1757655115712
30
0
41
1
10
108.860132053234
20
14.2660925415742
30
0
41
1
10
108.929920692098
20
14.2875
30
0
41
1
10
108.999709330962
20
14.2875
30
0
0
SPLINE
5
E4
100
AcDbEntity
8
1
62
256
6
ByLayer
370
13
48
1
60
0
100
AcDbSpline
70
4
71
3
72
79
73
75
40
0
40
0
40
0
40
0
40
0.0312500000000003
40
0.0312500000000003
40
0.0625000000000006
40
0.0625000000000006
40
0.0937500000000009
40
0.0937500000000009
40
0.125000000000001
40
0.125000000000001
40
0.156250000000001
40
0.156250000000001
40
0.187500000000002
40
0.187500000000002
40
0.218750000000002
40
0.218750000000002
40
0.250000000000002
40
0.250000000000002
40
0.281250000000003
40
0.281250000000003
40
0.312500000000003
40
0.312500000000003
40
0.343750000000003
40
0.343750000000003
40
0.375000000000004
40
0.375000000000004
40
0.382812500000004
40
0.382812500000004
40
0.390625000000004
40
0.390625000000004
40
0.406250000000004
40
0.406250000000004
40
0.437500000000005
40
0.437500000000005
40
0.468750000000005
40
0.468750000000005
40
0.500000000000006
40
0.500000000000006
40
0.531250000000006
40
0.531250000000006
40
0.562500000000007
40
0.562500000000007
40
0.593750000000007
40
0.593750000000007
40
0.625000000000008
40
0.625000000000008
40
0.656250000000008
40
0.656250000000008
40
0.687500000000009
40
0.687500000000009
40
0.718750000000009
40
0.718750000000009
40
0.75000000000001
40
0.75000000000001
40
0.76562500000001
40
0.76562500000001
40
0.76953125000001
40
0.76953125000001
40
0.77343750000001
40
0.78125000000001
40
0.78125000000001
40
0.812500000000008
40
0.812500000000008
40
0.843750000000007
40
0.843750000000007
40
0.875000000000006
40
0.875000000000006
40
0.906250000000004
40
0.906250000000004
40
0.937500000000003
40
0.937500000000003
40
0.968750000000001
40
0.968750000000001
40
1
40
1
40
1
40
1
41
1
10
106.65005055395
20
14.2875
30
0
41
1
10
106.734943519825
20
14.2875
30
0
41
1
10
106.819836485699
20
14.2557991900631
30
0
41
1
10
106.989622417449
20
14.1207002596318
30
0
41
1
10
107.074515383324
20
14.0172667632073
30
0
41
1
10
107.244301315073
20
13.7326051213826
30
0
41
1
10
107.329194280948
20
13.5513453224219
30
0
41
1
10
107.498980212697
20
13.1082290577531
30
0
41
1
10
107.583873178572
20
12.8463518430264
30
0
41
1
10
107.753659110321
20
12.2433083128907
30
0
41
1
10
107.838552076196
20
11.9021384591253
30
0
41
1
10
108.008338007945
20
11.146313578287
30
0
41
1
10
108.09323097382
20
10.7316753129975
30
0
41
1
10
108.263016905569
20
9.83902336609671
30
0
41
1
10
108.347909871444
20
9.36104503094444
30
0
41
1
10
108.517695803194
20
8.35533523969747
30
0
41
1
10
108.602588769068
20
7.82765130098446
30
0
41
1
10
108.772374700817
20
6.73839335239825
30
0
41
1
10
108.857267666692
20
6.17686985576896
30
0
41
1
10
109.027053598442
20
5.03652915203801
30
0
41
1
10
109.111946564316
20
4.45775642370924
30
0
41
1
10
109.281732496066
20
3.29878844367016
30
0
41
1
10
109.366625461941
20
2.71862528776711
30
0
41
1
10
109.53641139369
20
1.57085249971283
30
0
41
1
10
109.621304359565
20
1.00326009431964
30
0
41
1
10
109.727420566908
20
0.308699951385421
30
0
41
1
10
109.748643808377
20
0.170527465928444
30
0
41
1
10
109.791090291314
20
-0.104190145655338
30
0
41
1
10
109.812313532783
20
-0.241878320818955
30
0
41
1
10
109.875983257189
20
-0.657894236002051
30
0
41
1
10
109.918429740126
20
-0.938251350380597
30
0
41
1
10
110.045769188938
20
-1.78639893494295
30
0
41
1
10
110.130662154813
20
-2.36134793216354
30
0
41
1
10
110.300448086562
20
-3.51771595649811
30
0
41
1
10
110.385341052437
20
-4.09911086036271
30
0
41
1
10
110.555126984186
20
-5.2534318422255
30
0
41
1
10
110.640019950061
20
-5.82631958118372
30
0
41
1
10
110.809805881811
20
-6.94727422535209
30
0
41
1
10
110.894698847685
20
-7.49529288114655
30
0
41
1
10
111.064484779435
20
-8.55006373710603
30
0
41
1
10
111.149377745309
20
-9.05676560139719
30
0
41
1
10
111.319163677059
20
-10.013875665952
30
0
41
1
10
111.404056642933
20
-10.4642409088995
30
0
41
1
10
111.573842574683
20
-11.2965054274661
30
0
41
1
10
111.658735540558
20
-11.6783773619304
30
0
41
1
10
111.828521472307
20
-12.3654217455516
30
0
41
1
10
111.913414438182
20
-12.6705868630115
30
0
41
1
10
112.083200369931
20
-13.2004554821272
30
0
41
1
10
112.168093335806
20
-13.4251710638032
30
0
41
1
10
112.337879267555
20
-13.7947716234388
30
0
41
1
10
112.42277223343
20
-13.9396832550088
30
0
41
1
10
112.592558165179
20
-14.1540970971461
30
0
41
1
10
112.677451131054
20
-14.2236335331873
30
0
41
1
10
112.804790579866
20
-14.276833653678
30
0
41
1
10
112.847237062803
20
-14.2860684916988
30
0
41
1
10
112.900295166475
20
-14.2876651884096
30
0
41
1
10
112.910906787209
20
-14.2874900309747
30
0
41
1
10
112.932130028678
20
-14.2861417312127
30
0
41
1
10
112.963964890881
20
-14.2826186639035
30
0
41
1
10
112.995799753084
20
-14.2745151086551
30
0
41
1
10
113.101915960428
20
-14.2369886175138
30
0
41
1
10
113.186808926302
20
-14.1732363865022
30
0
41
1
10
113.356594858052
20
-13.9708854886655
30
0
41
1
10
113.441487823926
20
-13.8322523007959
30
0
41
1
10
113.611273755676
20
-13.4754370726765
30
0
41
1
10
113.69616672155
20
-13.2572274979048
30
0
41
1
10
113.8659526533
20
-12.7402669437045
30
0
41
1
10
113.950845619175
20
-12.4415024872696
30
0
41
1
10
114.120631550924
20
-11.766791411357
30
0
41
1
10
114.205524516799
20
-11.3908504721023
30
0
41
1
10
114.375310448548
20
-10.5696311121364
30
0
41
1
10
114.460203414423
20
-10.1243785195438
30
0
41
1
10
114.629989346172
20
-9.1763924167449
30
0
41
1
10
114.714882312047
20
-8.6737008741317
30
0
41
1
10
114.799775277922
20
-8.14968447343963
30
0
0
SPLINE
5
E5
100
AcDbEntity
8
1
62
256
6
ByLayer
370
13
48
1
60
0
100
AcDbSpline
70
4
71
3
72
74
73
70
40
0
40
0
40
0
40
0
40
0.0312500000000002
40
0.0312500000000002
40
0.0625000000000005
40
0.0625000000000005
40
0.0937500000000007
40
0.0937500000000007
40
0.125000000000001
40
0.125000000000001
40
0.156250000000001
40
0.156250000000001
40
0.187500000000001
40
0.187500000000001
40
0.218750000000002
40
0.218750000000002
40
0.250000000000002
40
0.250000000000002
40
0.281250000000002
40
0.281250000000002
40
0.312500000000002
40
0.312500000000002
40
0.343750000000003
40
0.343750000000003
40
0.375000000000003
40
0.375000000000003
40
0.406250000000003
40
0.406250000000003
40
0.437500000000003
40
0.437500000000003
40
0.468750000000004
40
0.468750000000004
40
0.484375000000004
40
0.484375000000004
40
0.492187500000004
40
0.492187500000004
40
0.500000000000004
40
0.500000000000004
40
0.531250000000004
40
0.531250000000004
40
0.562500000000003
40
0.562500000000003
40
0.593750000000003
40
0.593750000000003
40
0.625000000000003
40
0.625000000000003
40
0.656250000000002
40
0.656250000000002
40
0.687500000000002
40
0.687500000000002
40
0.718750000000002
40
0.718750000000002
40
0.750000000000002
40
0.750000000000002
40
0.781250000000001
40
0.781250000000001
40
0.812500000000001
40
0.812500000000001
40
0.843750000000001
40
0.843750000000001
40
0.875000000000001
40
0.875000000000001
40
0.906250000000001
40
0.906250000000001
40
0.9375
40
0.9375
40
0.96875
40
0.96875
40
1
40
1
40
1
40
1
41
1
10
102.3
20
-14.2858460788282
30
0
41
1
10
102.364753858854
20
-14.2794356924513
30
0
41
1
10
102.429507717708
20
-14.2542534980913
30
0
41
1
10
102.559015435415
20
-14.1626691004902
30
0
41
1
10
102.623769294269
20
-14.0962577305827
30
0
41
1
10
102.753277011977
20
-13.9192504712358
30
0
41
1
10
102.81803087083
20
-13.8086458393796
30
0
41
1
10
102.947538588538
20
-13.5412891676259
30
0
41
1
10
103.012292447392
20
-13.3845298724105
30
0
41
1
10
103.1418001651
20
-13.024146838654
30
0
41
1
10
103.206554023953
20
-12.8205184179945
30
0
41
1
10
103.336061741661
20
-12.3671091832838
30
0
41
1
10
103.400815600515
20
-12.1173271647273
30
0
41
1
10
103.530323318223
20
-11.5738434144949
30
0
41
1
10
103.595077177076
20
-11.2801444690832
30
0
41
1
10
103.724584894784
20
-10.6525579787341
30
0
41
1
10
103.789338753638
20
-10.3186771793309
30
0
41
1
10
103.918846471345
20
-9.61581285206515
30
0
41
1
10
103.983600330199
20
-9.24683940992239
30
0
41
1
10
104.113108047907
20
-8.47997498980939
30
0
41
1
10
104.177861906761
20
-8.0820963229387
30
0
41
1
10
104.307369624468
20
-7.26436526729586
30
0
41
1
10
104.372123483322
20
-6.84452601196398
30
0
41
1
10
104.50163120103
20
-5.99018891447744
30
0
41
1
10
104.566385059884
20
-5.55570360226963
30
0
41
1
10
104.695892777591
20
-4.67937043415003
30
0
41
1
10
104.760646636445
20
-4.23753330539506
30
0
41
1
10
104.890154354153
20
-3.35342022777115
30
0
41
1
10
104.954908213006
20
-2.91115240149594
30
0
41
1
10
105.084415930714
20
-2.03244387803301
30
0
41
1
10
105.149169789568
20
-1.59600835723404
30
0
41
1
10
105.246300577849
20
-0.949781260407178
30
0
41
1
10
105.278677507276
20
-0.735769422133956
30
0
41
1
10
105.327242901416
20
-0.417286314903521
30
0
41
1
10
105.343431366129
20
-0.311547241040586
30
0
41
1
10
105.375808295556
20
-0.100980355132919
30
0
41
1
10
105.39199676027
20
0.0035302485152329
30
0
41
1
10
105.472939083837
20
0.528520575263542
30
0
41
1
10
105.537692942691
20
0.956002175581546
30
0
41
1
10
105.667200660398
20
1.82134003027235
30
0
41
1
10
105.731954519252
20
2.25919350145662
30
0
41
1
10
105.86146223696
20
3.1397146605338
30
0
41
1
10
105.926216095814
20
3.58237665873227
30
0
41
1
10
106.055723813521
20
4.46612447484551
30
0
41
1
10
106.120477672375
20
4.90720168355884
30
0
41
1
10
106.249985390083
20
5.78077438968077
30
0
41
1
10
106.314739248937
20
6.21325877913952
30
0
41
1
10
106.444246966644
20
7.06232304195208
30
0
41
1
10
106.509000825498
20
7.47889018656673
30
0
41
1
10
106.638508543206
20
8.28884129235141
30
0
41
1
10
106.703262402059
20
8.6822121573604
30
0
41
1
10
106.832770119767
20
9.4389287366219
30
0
41
1
10
106.897523978621
20
9.80226242836866
30
0
41
1
10
107.027031696329
20
10.4928818669833
30
0
41
1
10
107.091785555182
20
10.8201580365681
30
0
41
1
10
107.22129327289
20
11.4337879630306
30
0
41
1
10
107.286047131744
20
11.7201356292728
30
0
41
1
10
107.415554849451
20
12.2484210645289
30
0
41
1
10
107.480308708305
20
12.4903567500486
30
0
41
1
10
107.609816426013
20
12.9278418106356
30
0
41
1
10
107.674570284867
20
13.1233930402001
30
0
41
1
10
107.804078002574
20
13.4676464587172
30
0
41
1
10
107.868831861428
20
13.6163538461851
30
0
41
1
10
107.998339579136
20
13.8678619869871
30
0
41
1
10
108.06309343799
20
13.9706703315234
30
0
41
1
10
108.192601155697
20
14.1325321290716
30
0
41
1
10
108.257355014551
20
14.1915944702092
30
0
41
1
10
108.386862732259
20
14.2690738338271
30
0
41
1
10
108.451616591112
20
14.2875
30
0
41
1
10
108.516370449966
20
14.2875
30
0
0
SPLINE
5
E6
100
AcDbEntity
8
1
62
256
6
ByLayer
370
13
48
1
60
0
100
AcDbSpline
70
4
71
3
72
81
73
77
40
0
40
0
40
0
40
0
40
0.0312500000000003
40
0.0312500000000003
40
0.0625000000000007
40
0.0625000000000007
40
0.093750000000001
40
0.093750000000001
40
0.125000000000001
40
0.125000000000001
40
0.156250000000002
40
0.156250000000002
40
0.187500000000002
40
0.187500000000002
40
0.218750000000002
40
0.218750000000002
40
0.250000000000003
40
0.250000000000003
40
0.281250000000003
40
0.281250000000003
40
0.312500000000003
40
0.312500000000003
40
0.343750000000004
40
0.343750000000004
40
0.359375000000004
40
0.359375000000004
40
0.363281250000004
40
0.363281250000004
40
0.367187500000004
40
0.375000000000004
40
0.375000000000004
40
0.406250000000003
40
0.406250000000003
40
0.437500000000003
40
0.437500000000003
40
0.468750000000002
40
0.468750000000002
40
0.500000000000001
40
0.500000000000001
40
0.531250000000001
40
0.531250000000001
40
0.5625
40
0.5625
40
0.59375
40
0.59375
40
0.624999999999999
40
0.624999999999999
40
0.656249999999998
40
0.656249999999998
40
0.687499999999998
40
0.687499999999998
40
0.718749999999997
40
0.718749999999997
40
0.722656249999997
40
0.722656249999997
40
0.726562499999997
40
0.726562499999997
40
0.734374999999997
40
0.734374999999997
40
0.749999999999997
40
0.749999999999997
40
0.781249999999998
40
0.781249999999998
40
0.812499999999998
40
0.812499999999998
40
0.843749999999998
40
0.843749999999998
40
0.874999999999999
40
0.874999999999999
40
0.906249999999999
40
0.906249999999999
40
0.937499999999999
40
0.937499999999999
40
0.96875
40
0.96875
40
1
40
1
40
1
40
1
41
1
10
106.166711672954
20
14.2875
30
0
41
1
10
106.256639418839
20
14.2875
30
0
41
1
10
106.346567164725
20
14.2519168622437
30
0
41
1
10
106.526422656495
20
14.0997890382278
30
0
41
1
10
106.61635040238
20
13.9831972589665
30
0
41
1
10
106.79620589415
20
13.6620986243757
30
0
41
1
10
106.886133640035
20
13.4575508236515
30
0
41
1
10
107.065989131805
20
12.9578756316278
30
0
41
1
10
107.15591687769
20
12.6627241646695
30
0
41
1
10
107.33577236946
20
11.9844831483423
30
0
41
1
10
107.425700115345
20
11.6013951646235
30
0
41
1
10
107.605555607116
20
10.7555964239821
30
0
41
1
10
107.695483353001
20
10.2929158978769
30
0
41
1
10
107.875338844771
20
9.30144880523102
30
0
41
1
10
107.965266590656
20
8.77271634806442
30
0
41
1
10
108.145122082426
20
7.66657217818698
30
0
41
1
10
108.235049828311
20
7.08922699600737
30
0
41
1
10
108.414905320081
20
5.90533525607358
30
0
41
1
10
108.504833065966
20
5.2988535380542
30
0
41
1
10
108.684688557736
20
4.07619219906968
30
0
41
1
10
108.774616303622
20
3.46006379340784
30
0
41
1
10
108.954471795392
20
2.23585498605024
30
0
41
1
10
109.044399541277
20
1.62780570011415
30
0
41
1
10
109.179291160104
20
0.73281830352218
30
0
41
1
10
109.224255033047
20
0.437310604515744
30
0
41
1
10
109.280459874225
20
0.0723907189874637
30
0
41
1
10
109.291700842461
20
-0.0002174401823822
30
0
41
1
10
109.314182778932
20
-0.14588858763446
30
0
41
1
10
109.347905683639
20
-0.365073760986974
30
0
41
1
10
109.381628588346
20
-0.586197795847454
30
0
41
1
10
109.494038270702
20
-1.3271237026741
30
0
41
1
10
109.583966016587
20
-1.93230843511461
30
0
41
1
10
109.763821508357
20
-3.15346521744445
30
0
41
1
10
109.853749254243
20
-3.76940968412086
30
0
41
1
10
110.033604746013
20
-4.9948119356836
30
0
41
1
10
110.123532491898
20
-5.60422156983356
30
0
41
1
10
110.303387983668
20
-6.79726129081303
30
0
41
1
10
110.393315729553
20
-7.38082809683814
30
0
41
1
10
110.573171221323
20
-8.50256934541358
30
0
41
1
10
110.663098967208
20
-9.04067656231905
30
0
41
1
10
110.842954458978
20
-10.0535716803969
30
0
41
1
10
110.932882204863
20
-10.5283024796831
30
0
41
1
10
111.112737696634
20
-11.4001239097269
30
0
41
1
10
111.202665442519
20
-11.7971797935026
30
0
41
1
10
111.382520934289
20
-12.5043576908604
30
0
41
1
10
111.472448680174
20
-12.814473380489
30
0
41
1
10
111.652304171944
20
-13.3441366511953
30
0
41
1
10
111.742231917829
20
-13.563704539228
30
0
41
1
10
111.922087409599
20
-13.914073511946
30
0
41
1
10
112.012015155484
20
-14.0449134763253
30
0
41
1
10
112.191870647254
20
-14.2241400076679
30
0
41
1
10
112.281798393139
20
-14.2725733566272
30
0
41
1
10
112.38296710726
20
-14.2860237753468
30
0
41
1
10
112.394208075496
20
-14.2869498011489
30
0
41
1
10
112.416690011967
20
-14.2876856313995
30
0
41
1
10
112.427930980203
20
-14.2874985531714
30
0
41
1
10
112.46165388491
20
-14.2852570171649
30
0
41
1
10
112.484135821381
20
-14.2815158740331
30
0
41
1
10
112.551581630795
20
-14.2633079194698
30
0
41
1
10
112.596545503737
20
-14.2418518675494
30
0
41
1
10
112.731437122565
20
-14.1477257854698
30
0
41
1
10
112.82136486845
20
-14.0451868401027
30
0
41
1
10
113.00122036022
20
-13.753087265528
30
0
41
1
10
113.091148106105
20
-13.5634839300982
30
0
41
1
10
113.271003597875
20
-13.0937938589444
30
0
41
1
10
113.36093134376
20
-12.8136795307192
30
0
41
1
10
113.54078683553
20
-12.1646801483184
30
0
41
1
10
113.630714581416
20
-11.7957919902783
30
0
41
1
10
113.810570073186
20
-10.9766256015249
30
0
41
1
10
113.900497819071
20
-10.5263729503859
30
0
41
1
10
114.080353310841
20
-9.5571985815929
30
0
41
1
10
114.170281056726
20
-9.03832765412639
30
0
41
1
10
114.350136548496
20
-7.94881122307157
30
0
41
1
10
114.440064294381
20
-7.37823115285877
30
0
41
1
10
114.619919786151
20
-6.20457449488239
30
0
41
1
10
114.709847532037
20
-5.60156396791913
30
0
41
1
10
114.799775277922
20
-4.99212209534983
30
0
0
SPLINE
5
E7
100
AcDbEntity
8
1
62
256
6
ByLayer
370
13
48
1
60
0
100
AcDbSpline
70
4
71
3
72
74
73
70
40
0
40
0
40
0
40
0
40
0.0312499999999993
40
0.0312499999999993
40
0.0624999999999985
40
0.0624999999999985
40
0.0937499999999978
40
0.0937499999999978
40
0.124999999999997
40
0.124999999999997
40
0.156249999999996
40
0.156249999999996
40
0.187499999999996
40
0.187499999999996
40
0.218749999999995
40
0.218749999999995
40
0.249999999999994
40
0.249999999999994
40
0.281249999999993
40
0.281249999999993
40
0.312499999999993
40
0.312499999999993
40
0.343749999999992
40
0.343749999999992
40
0.374999999999991
40
0.374999999999991
40
0.40624999999999
40
0.40624999999999
40
0.43749999999999
40
0.43749999999999
40
0.453124999999989
40
0.453124999999989
40
0.460937499999989
40
0.460937499999989
40
0.468749999999989
40
0.468749999999989
40
0.49999999999999
40
0.49999999999999
40
0.53124999999999
40
0.53124999999999
40
0.562499999999991
40
0.562499999999991
40
0.593749999999992
40
0.593749999999992
40
0.624999999999992
40
0.624999999999992
40
0.656249999999993
40
0.656249999999993
40
0.687499999999993
40
0.687499999999993
40
0.718749999999994
40
0.718749999999994
40
0.749999999999995
40
0.749999999999995
40
0.781249999999995
40
0.781249999999995
40
0.812499999999996
40
0.812499999999996
40
0.843749999999996
40
0.843749999999996
40
0.874999999999997
40
0.874999999999997
40
0.906249999999998
40
0.906249999999998
40
0.937499999999999
40
0.937499999999999
40
0.968749999999999
40
0.968749999999999
40
1
40
1
40
1
40
1
41
1
10
102.3
20
-13.8622635030686
30
0
41
1
10
102.359719078844
20
-13.7605314054071
30
0
41
1
10
102.419438157687
20
-13.6395411648075
30
0
41
1
10
102.538876315374
20
-13.3579344717664
30
0
41
1
10
102.598595394217
20
-13.1973137941289
30
0
41
1
10
102.718033551904
20
-12.836287931755
30
0
41
1
10
102.777752630748
20
-12.6358803342151
30
0
41
1
10
102.897190788434
20
-12.1961866586994
30
0
41
1
10
102.956909867278
20
-11.9569004343215
30
0
41
1
10
103.076348024965
20
-11.4414598305188
30
0
41
1
10
103.136067103808
20
-11.1653077912487
30
0
41
1
10
103.255505261495
20
-10.5792178680982
30
0
41
1
10
103.315224340339
20
-10.2692847338919
30
0
41
1
10
103.434662498026
20
-9.61967996276442
30
0
41
1
10
103.494381576869
20
-9.28001510102482
30
0
41
1
10
103.613819734556
20
-8.57578459102302
30
0
41
1
10
103.673538813399
20
-8.21122710349007
30
0
41
1
10
103.792976971086
20
-7.4626126874594
30
0
41
1
10
103.85269604993
20
-7.07856451136573
30
0
41
1
10
103.972134207617
20
-6.29667680515689
30
0
41
1
10
104.03185328646
20
-5.89884580000748
30
0
41
1
10
104.151291444147
20
-5.09514494037586
30
0
41
1
10
104.21101052299
20
-4.68928266349536
30
0
41
1
10
104.330448680677
20
-3.87507197573072
30
0
41
1
10
104.39016775952
20
-3.46672966729545
30
0
41
1
10
104.509605917207
20
-2.65270479028234
30
0
41
1
10
104.569324996051
20
-2.24702655915667
30
0
41
1
10
104.688763153738
20
-1.4429113677634
30
0
41
1
10
104.748482232581
20
-1.04447692542559
30
0
41
1
10
104.838060850846
20
-0.455191978153465
30
0
41
1
10
104.867920390268
20
-0.260152680253952
30
0
41
1
10
104.912709699401
20
0.0300061965439795
30
0
41
1
10
104.927639469112
20
0.126519513187617
30
0
41
1
10
104.957499008533
20
0.320806632318977
30
0
41
1
10
104.972428778244
20
0.418336169665878
30
0
41
1
10
105.047077626798
20
0.907781570094812
30
0
41
1
10
105.106796705642
20
1.3051181394014
30
0
41
1
10
105.226234863329
20
2.10752296860645
30
0
41
1
10
105.285953942172
20
2.51258891406115
30
0
41
1
10
105.405392099859
20
3.32594716761284
30
0
41
1
10
105.465111178703
20
3.73423534901463
30
0
41
1
10
105.584549336389
20
4.54895370193938
30
0
41
1
10
105.644268415233
20
4.95537796400075
30
0
41
1
10
105.76370657292
20
5.76085593290077
30
0
41
1
10
105.823425651763
20
6.15990220929783
30
0
41
1
10
105.94286380945
20
6.94488485240998
30
0
41
1
10
106.002582888294
20
7.3308127694861
30
0
41
1
10
106.12202104598
20
8.08383291923752
30
0
41
1
10
106.181740124824
20
8.45091638481921
30
0
41
1
10
106.301178282511
20
9.16079659172166
30
0
41
1
10
106.360897361354
20
9.50358506214334
30
0
41
1
10
106.480335519041
20
10.1599577779175
30
0
41
1
10
106.540054597885
20
10.4735350520936
30
0
41
1
10
106.659492755571
20
11.0673331113576
30
0
41
1
10
106.719211834415
20
11.3475488886214
30
0
41
1
10
106.838649992102
20
11.8714190123529
30
0
41
1
10
106.898369070945
20
12.115070731528
30
0
41
1
10
107.017807228632
20
12.5636710021484
30
0
41
1
10
107.077526307475
20
12.7686194198441
30
0
41
1
10
107.196964465162
20
13.1387761124105
30
0
41
1
10
107.256683544006
20
13.3039865587611
30
0
41
1
10
107.376121701693
20
13.5947035258596
30
0
41
1
10
107.435840780536
20
13.7202140917069
30
0
41
1
10
107.555278938223
20
13.9325455814015
30
0
41
1
10
107.614998017066
20
14.0193718430062
30
0
41
1
10
107.734436174753
20
14.1561839688867
30
0
41
1
10
107.794155253597
20
14.2061758376397
30
0
41
1
10
107.913593411284
20
14.2718308072579
30
0
41
1
10
107.973312490127
20
14.2875
30
0
41
1
10
108.033031568971
20
14.2875
30
0
0
SPLINE
5
E8
100
AcDbEntity
8
1
62
256
6
ByLayer
370
13
48
1
60
0
100
AcDbSpline
70
4
71
3
72
80
73
76
40
0
40
0
40
0
40
0
40
0.0312500000000002
40
0.0312500000000002
40
0.0625000000000004
40
0.0625000000000004
40
0.0937500000000006
40
0.0937500000000006
40
0.125000000000001
40
0.125000000000001
40
0.156250000000001
40
0.156250000000001
40
0.187500000000001
40
0.187500000000001
40
0.218750000000002
40
0.218750000000002
40
0.250000000000002
40
0.250000000000002
40
0.281250000000002
40
0.281250000000002
40
0.312500000000002
40
0.312500000000002
40
0.328125000000002
40
0.328125000000002
40
0.335937500000002
40
0.339843750000002
40
0.339843750000002
40
0.343750000000002
40
0.343750000000002
40
0.375000000000002
40
0.375000000000002
40
0.406250000000002
40
0.406250000000002
40
0.437500000000002
40
0.437500000000002
40
0.468750000000002
40
0.468750000000002
40
0.500000000000002
40
0.500000000000002
40
0.531250000000002
40
0.531250000000002
40
0.562500000000001
40
0.562500000000001
40
0.593750000000001
40
0.593750000000001
40
0.625000000000001
40
0.625000000000001
40
0.656250000000001
40
0.656250000000001
40
0.671875000000001
40
0.671875000000001
40
0.679687500000001
40
0.683593750000001
40
0.683593750000001
40
0.687500000000001
40
0.687500000000001
40
0.718750000000001
40
0.718750000000001
40
0.750000000000001
40
0.750000000000001
40
0.781250000000001
40
0.781250000000001
40
0.812500000000001
40
0.812500000000001
40
0.843750000000001
40
0.843750000000001
40
0.875000000000001
40
0.875000000000001
40
0.90625
40
0.90625
40
0.9375
40
0.9375
40
0.96875
40
0.96875
40
1
40
1
40
1
40
1
41
1
10
105.683372791959
20
14.2875
30
0
41
1
10
105.778335317854
20
14.2875
30
0
41
1
10
105.873297843749
20
14.2478081403663
30
0
41
1
10
106.06322289554
20
14.0775852769275
30
0
41
1
10
106.158185421436
20
13.9469926031731
30
0
41
1
10
106.348110473227
20
13.5871375193803
30
0
41
1
10
106.443072999122
20
13.3578232059429
30
0
41
1
10
106.632998050913
20
12.7981954617708
30
0
41
1
10
106.727960576808
20
12.4678554767663
30
0
41
1
10
106.917885628599
20
11.7105849360066
30
0
41
1
10
107.012848154495
20
11.2836648780445
30
0
41
1
10
107.202773206286
20
10.3446598083572
30
0
41
1
10
107.297735732181
20
9.83262429462664
30
0
41
1
10
107.487660783972
20
8.74092695559139
30
0
41
1
10
107.582623309868
20
8.16134354871053
30
0
41
1
10
107.772548361658
20
6.95623318132115
30
0
41
1
10
107.867510887554
20
6.33079479024309
30
0
41
1
10
108.057435939345
20
5.05721852737483
30
0
41
1
10
108.15239846524
20
4.40915928240153
30
0
41
1
10
108.342323517031
20
3.11256339477237
30
0
41
1
10
108.437286042927
20
2.46408122195865
30
0
41
1
10
108.57972983177
20
1.50536722966945
30
0
41
1
10
108.627211094718
20
1.1881018010692
30
0
41
1
10
108.698432989139
20
0.717158813851398
30
0
41
1
10
108.73404393635
20
0.482922872960558
30
0
41
1
10
108.769654883561
20
0.250790943691555
30
0
41
1
10
108.793395515035
20
0.0965296319981235
30
0
41
1
10
108.805265830772
20
0.0198052229992527
30
0
41
1
10
108.912098672404
20
-0.672100481650403
30
0
41
1
10
109.007061198299
20
-1.30351505380497
30
0
41
1
10
109.19698625009
20
-2.58400765525829
30
0
41
1
10
109.291948775986
20
-3.23305850468483
30
0
41
1
10
109.481873827777
20
-4.52949119052224
30
0
41
1
10
109.576836353672
20
-5.17681682039529
30
0
41
1
10
109.766761405463
20
-6.44749380724767
30
0
41
1
10
109.861723931358
20
-7.0707654215482
30
0
41
1
10
110.051648983149
20
-8.27012650942279
30
0
41
1
10
110.146611509045
20
-8.84612743130609
30
0
41
1
10
110.336536560836
20
-9.92942643456107
30
0
41
1
10
110.431499086731
20
-10.4366474002968
30
0
41
1
10
110.621424138522
20
-11.3651187172512
30
0
41
1
10
110.716386664417
20
-11.7863218111315
30
0
41
1
10
110.906311716208
20
-12.531673863205
30
0
41
1
10
111.001274242104
20
-12.855814796676
30
0
41
1
10
111.191199293895
20
-13.4029977298837
30
0
41
1
10
111.28616181979
20
-13.6260682660326
30
0
41
1
10
111.476086871581
20
-13.9737752281164
30
0
41
1
10
111.571049397477
20
-14.0984646199293
30
0
41
1
10
111.71349318632
20
-14.2177470195656
30
0
41
1
10
111.760974449267
20
-14.2462529394661
30
0
41
1
10
111.832196343689
20
-14.2731539071714
30
0
41
1
10
111.8678072909
20
-14.2826423008023
30
0
41
1
10
111.903418238111
20
-14.2863984570045
30
0
41
1
10
111.927158869584
20
-14.287653242844
30
0
41
1
10
111.939029185321
20
-14.2876589941698
30
0
41
1
10
112.045862026954
20
-14.2821175343163
30
0
41
1
10
112.140824552849
20
-14.2371044333138
30
0
41
1
10
112.33074960464
20
-14.0556263173347
30
0
41
1
10
112.425712130535
20
-13.9190997985562
30
0
41
1
10
112.615637182326
20
-13.5470567234316
30
0
41
1
10
112.710599708222
20
-13.3114893878772
30
0
41
1
10
112.900524760013
20
-12.7394244873583
30
0
41
1
10
112.995487285908
20
-12.4029023971762
30
0
41
1
10
113.185412337699
20
-11.633774553171
30
0
41
1
10
113.280374863595
20
-11.201181778506
30
0
41
1
10
113.470299915385
20
-10.2517552398248
30
0
41
1
10
113.565262441281
20
-9.73497317468065
30
0
41
1
10
113.755187493072
20
-8.63502958256709
30
0
41
1
10
113.850150018967
20
-8.05194770230713
30
0
41
1
10
114.040075070758
20
-6.84126206059062
30
0
41
1
10
114.135037596653
20
-6.21374680680978
30
0
41
1
10
114.324962648444
20
-4.93744699504074
30
0
41
1
10
114.41992517434
20
-4.28873989239813
30
0
41
1
10
114.609850226131
20
-2.99214028685535
30
0
41
1
10
114.704812752026
20
-2.3443004987295
30
0
41
1
10
114.799775277922
20
-1.70632685216728
30
0
0
SPLINE
5
E9
100
AcDbEntity
8
1
62
256
6
ByLayer
370
13
48
1
60
0
100
AcDbSpline
70
4
71
3
72
52
73
48
40
0
40
0
40
0
40
0
40
0.062499999999999
40
0.062499999999999
40
0.0937499999999986
40
0.0937499999999986
40
0.124999999999998
40
0.124999999999998
40
0.156249999999998
40
0.156249999999998
40
0.187499999999997
40
0.187499999999997
40
0.249999999999996
40
0.249999999999996
40
0.312499999999996
40
0.312499999999996
40
0.374999999999995
40
0.374999999999995
40
0.390624999999994
40
0.390624999999994
40
0.398437499999994
40
0.398437499999994
40
0.406249999999994
40
0.406249999999994
40
0.437499999999995
40
0.437499999999995
40
0.499999999999995
40
0.499999999999995
40
0.562499999999996
40
0.562499999999996
40
0.624999999999996
40
0.624999999999996
40
0.656249999999997
40
0.656249999999997
40
0.687499999999997
40
0.687499999999997
40
0.718749999999997
40
0.718749999999997
40
0.749999999999998
40
0.749999999999998
40
0.812499999999998
40
0.812499999999998
40
0.874999999999999
40
0.874999999999999
40
0.937499999999999
40
0.937499999999999
40
1
40
1
40
1
40
1
41
1
10
102.3
20
-12.6099847194632
30
0
41
1
10
102.409368597666
20
-12.2289365687814
30
0
41
1
10
102.518737195332
20
-11.7816744337141
30
0
41
1
10
102.682790091832
20
-11.0212837680452
30
0
41
1
10
102.737474390665
20
-10.7530018308654
30
0
41
1
10
102.846842988331
20
-10.1895373795575
30
0
41
1
10
102.901527287164
20
-9.89435854749837
30
0
41
1
10
103.01089588483
20
-9.28047032936146
30
0
41
1
10
103.065580183663
20
-8.96176568469815
30
0
41
1
10
103.174948781329
20
-8.30469745058616
30
0
41
1
10
103.229633080162
20
-7.9663392776823
30
0
41
1
10
103.393685976662
20
-6.9281052031524
30
0
41
1
10
103.503054574328
20
-6.20508083333263
30
0
41
1
10
103.72179176966
20
-4.73251185429697
30
0
41
1
10
103.831160367326
20
-3.98312153913938
30
0
41
1
10
104.049897562658
20
-2.49112587286112
30
0
41
1
10
104.159266160325
20
-1.74861514151738
30
0
41
1
10
104.295976907407
20
-0.84171217378767
30
0
41
1
10
104.323319056824
20
-0.66137532480289
30
0
41
1
10
104.364332280949
20
-0.392696021415361
30
0
41
1
10
104.378003355657
20
-0.303440337031702
30
0
41
1
10
104.405345505073
20
-0.125577569684538
30
0
41
1
10
104.419016579782
20
-0.0371571883358399
30
0
41
1
10
104.487371953323
20
0.405476047134243
30
0
41
1
10
104.542056252156
20
0.764981591808009
30
0
41
1
10
104.706109148655
20
1.85564552853046
30
0
41
1
10
104.815477746321
20
2.59917343735043
30
0
41
1
10
105.034214941654
20
4.09171565732703
30
0
41
1
10
105.14358353932
20
4.84063208115205
30
0
41
1
10
105.362320734652
20
6.31055017087448
30
0
41
1
10
105.471689332318
20
7.03139532919701
30
0
41
1
10
105.635742228817
20
8.0650918061036
30
0
41
1
10
105.690426527651
20
8.40172797655345
30
0
41
1
10
105.799795125317
20
9.05495960371871
30
0
41
1
10
105.85447942415
20
9.37154969041347
30
0
41
1
10
105.963848021816
20
9.9808582571863
30
0
41
1
10
106.018532320649
20
10.2735720829731
30
0
41
1
10
106.127900918315
20
10.8318117539146
30
0
41
1
10
106.182585217148
20
11.097334036227
30
0
41
1
10
106.346638113647
20
11.8491030883533
30
0
41
1
10
106.456006711314
20
12.2901598487475
30
0
41
1
10
106.674743906646
20
13.039522925031
30
0
41
1
10
106.784112504312
20
13.3478505971621
30
0
41
1
10
107.002849699644
20
13.8314625635361
30
0
41
1
10
107.11221829731
20
14.0068391879812
30
0
41
1
10
107.330955492643
20
14.2347961646213
30
0
41
1
10
107.440324090309
20
14.2875
30
0
41
1
10
107.549692687975
20
14.2875
30
0
0
SPLINE
5
EA
100
AcDbEntity
8
1
62
256
6
ByLayer
370
13
48
1
60
0
100
AcDbSpline
70
4
71
3
72
85
73
81
40
0
40
0
40
0
40
0
40
0.0312499999999996
40
0.0312499999999996
40
0.0624999999999991
40
0.0624999999999991
40
0.0937499999999987
40
0.0937499999999987
40
0.124999999999998
40
0.124999999999998
40
0.156249999999998
40
0.156249999999998
40
0.187499999999997
40
0.187499999999997
40
0.218749999999997
40
0.218749999999997
40
0.249999999999996
40
0.249999999999996
40
0.281249999999996
40
0.281249999999996
40
0.312499999999995
40
0.312499999999995
40
0.320312499999995
40
0.324218749999995
40
0.324218749999995
40
0.328124999999995
40
0.328124999999995
40
0.343749999999996
40
0.343749999999996
40
0.374999999999997
40
0.374999999999997
40
0.406249999999998
40
0.406249999999998
40
0.437499999999999
40
0.437499999999999
40
0.46875
40
0.46875
40
0.500000000000001
40
0.500000000000001
40
0.531250000000002
40
0.531250000000002
40
0.562500000000003
40
0.562500000000003
40
0.593750000000004
40
0.593750000000004
40
0.625000000000005
40
0.625000000000005
40
0.640625000000005
40
0.640625000000005
40
0.648437500000006
40
0.648437500000006
40
0.652343750000006
40
0.652343750000006
40
0.656250000000006
40
0.656250000000006
40
0.687500000000005
40
0.687500000000005
40
0.718750000000005
40
0.718750000000005
40
0.750000000000004
40
0.750000000000004
40
0.781250000000004
40
0.781250000000004
40
0.812500000000003
40
0.812500000000003
40
0.843750000000003
40
0.843750000000003
40
0.875000000000002
40
0.875000000000002
40
0.906250000000001
40
0.906250000000001
40
0.937500000000001
40
0.937500000000001
40
0.96875
40
0.96875
40
0.9765625
40
0.9765625
40
0.984375
40
0.984375
40
1
40
1
40
1
40
1
41
1
10
105.200033910963
20
14.2875
30
0
41
1
10
105.300031216869
20
14.2875
30
0
41
1
10
105.400028522775
20
14.2434724870108
30
0
41
1
10
105.600023134586
20
14.0540806091163
30
0
41
1
10
105.700020440492
20
13.9086366728702
30
0
41
1
10
105.900015052304
20
13.5076986662084
30
0
41
1
10
106.00001235821
20
13.252140043733
30
0
41
1
10
106.200006970021
20
12.629222238604
30
0
41
1
10
106.300004275927
20
12.2618356147997
30
0
41
1
10
106.499998887739
20
11.4219377777842
30
0
41
1
10
106.599996193644
20
10.9494511787275
30
0
41
1
10
106.799990805456
20
9.91454389609817
30
0
41
1
10
106.899988111362
20
9.3521990041736
30
0
41
1
10
107.099982723173
20
8.15975258552041
30
0
41
1
10
107.199980029079
20
7.52975956261159
30
0
41
1
10
107.399974640891
20
6.22833039910324
30
0
41
1
10
107.499971946797
20
5.55700682259769
30
0
41
1
10
107.699966558608
20
4.19993507886031
30
0
41
1
10
107.799963864514
20
3.51427695611002
30
0
41
1
10
107.999958476326
20
2.15312508506466
30
0
41
1
10
108.099955782232
20
1.47768395159966
30
0
41
1
10
108.224952414614
20
0.65221963686966
30
0
41
1
10
108.262451404329
20
0.405973696508113
30
0
41
1
10
108.299950394043
20
0.162107018332165
30
0
41
1
10
108.32494972052
20
8.75036594437E-05
30
0
41
1
10
108.337449383758
20
-0.0806422240902123
30
0
41
1
10
108.399947699949
20
-0.486609348622977
30
0
41
1
10
108.449946352902
20
-0.815786194665151
30
0
41
1
10
108.599942311761
20
-1.81339564029145
30
0
41
1
10
108.699939617667
20
-2.49206396743568
30
0
41
1
10
108.899934229478
20
-3.85586568782767
30
0
41
1
10
108.999931535384
20
-4.5409398183439
30
0
41
1
10
109.199926147196
20
-5.8924490873905
30
0
41
1
10
109.299923453101
20
-6.55878901172449
30
0
41
1
10
109.499918064913
20
-7.84573064756333
30
0
41
1
10
109.599915370819
20
-8.4662184199556
30
0
41
1
10
109.799909982631
20
-9.6355792397332
30
0
41
1
10
109.899907288536
20
-10.1843473716935
30
0
41
1
10
110.099901900348
20
-11.1890115782222
30
0
41
1
10
110.199899206254
20
-11.6448395283866
30
0
41
1
10
110.399893818066
20
-12.4496821082392
30
0
41
1
10
110.499891123971
20
-12.7986812277628
30
0
41
1
10
110.699885735783
20
-13.3845408087886
30
0
41
1
10
110.799883041689
20
-13.6214362474372
30
0
41
1
10
110.999877653501
20
-13.986061813162
30
0
41
1
10
111.099874959406
20
-14.1138605666374
30
0
41
1
10
111.249870918265
20
-14.2309168291128
30
0
41
1
10
111.299869571218
20
-14.2575403548504
30
0
41
1
10
111.374867550647
20
-14.2801037842883
30
0
41
1
10
111.399866877124
20
-14.284731494802
30
0
41
1
10
111.437365866838
20
-14.2875000742834
30
0
41
1
10
111.449865530077
20
-14.2877296527077
30
0
41
1
10
111.474864856553
20
-14.2868161891446
30
0
41
1
10
111.487364519791
20
-14.2856688605628
30
0
41
1
10
111.599861488935
20
-14.2689996429305
30
0
41
1
10
111.699858794841
20
-14.2089229766363
30
0
41
1
10
111.899853406653
20
-13.9855894620058
30
0
41
1
10
111.999850712559
20
-13.8222540120501
30
0
41
1
10
112.19984532437
20
-13.3847056501733
30
0
41
1
10
112.299842630276
20
-13.1104328955829
30
0
41
1
10
112.499837242088
20
-12.4505917116787
30
0
41
1
10
112.599834547994
20
-12.0650038130132
30
0
41
1
10
112.799829159805
20
-11.1906629637025
30
0
41
1
10
112.899826465711
20
-10.7019437116777
30
0
41
1
10
113.099821077523
20
-9.63784211049841
30
0
41
1
10
113.199818383428
20
-9.06254269036171
30
0
41
1
10
113.39981299524
20
-7.84837111429459
30
0
41
1
10
113.499810301146
20
-7.20961022635163
30
0
41
1
10
113.699804912958
20
-5.8951871043794
30
0
41
1
10
113.799802218863
20
-5.21963529967945
30
0
41
1
10
113.999796830675
20
-3.85844232341452
30
0
41
1
10
114.099794136581
20
-3.17288560862187
30
0
41
1
10
114.299788748392
20
-1.81562371736587
30
0
41
1
10
114.399786054298
20
-1.1439644925471
30
0
41
1
10
114.524782686681
20
-0.324971792326608
30
0
41
1
10
114.549782013157
20
-0.162189039757635
30
0
41
1
10
114.59978066611
20
0.161102374902754
30
0
41
1
10
114.624779992586
20
0.323875210611135
30
0
41
1
10
114.699777972016
20
0.815257183861746
30
0
41
1
10
114.749776624969
20
1.14692029652591
30
0
41
1
10
114.799775277922
20
1.48155681612783
30
0
0
SPLINE
5
EB
100
AcDbEntity
8
1
62
256
6
ByLayer
370
13
48
1
60
0
100
AcDbSpline
70
4
71
3
72
42
73
38
40
0
40
0
40
0
40
0
40
0.0625000000000003
40
0.0625000000000003
40
0.125000000000001
40
0.125000000000001
40
0.187500000000001
40
0.187500000000001
40
0.250000000000001
40
0.250000000000001
40
0.312500000000001
40
0.312500000000001
40
0.343750000000001
40
0.343750000000001
40
0.359375000000001
40
0.359375000000001
40
0.375000000000001
40
0.375000000000001
40
0.437500000000001
40
0.437500000000001
40
0.500000000000001
40
0.500000000000001
40
0.562500000000001
40
0.562500000000001
40
0.625000000000001
40
0.625000000000001
40
0.687500000000001
40
0.687500000000001
40
0.750000000000001
40
0.750000000000001
40
0.812500000000001
40
0.812500000000001
40
0.875
40
0.875
40
0.9375
40
0.9375
40
1
40
1
40
1
40
1
41
1
10
102.3
20
-10.5165924280195
30
0
41
1
10
102.399299037645
20
-10.0076348323005
30
0
41
1
10
102.498598075291
20
-9.45390198913515
30
0
41
1
10
102.697196150582
20
-8.27812790966851
30
0
41
1
10
102.796495188227
20
-7.656190267174
30
0
41
1
10
102.995093263518
20
-6.3696078644974
30
0
41
1
10
103.094392301163
20
-5.70507244981266
30
0
41
1
10
103.292990376454
20
-4.3598099464964
30
0
41
1
10
103.392289414099
20
-3.67917213633902
30
0
41
1
10
103.59088748939
20
-2.32606155696806
30
0
41
1
10
103.690186527036
20
-1.65364278571232
30
0
41
1
10
103.839135083504
20
-0.666140111240367
30
0
41
1
10
103.888784602326
20
-0.340454592697995
30
0
41
1
10
103.96325888056
20
0.141356772615154
30
0
41
1
10
103.988083639972
20
0.302738984071851
30
0
41
1
10
104.037733158794
20
0.627855305152025
30
0
41
1
10
104.062557918206
20
0.791421058668561
30
0
41
1
10
104.186681715263
20
1.61364281625859
30
0
41
1
10
104.285980752908
20
2.28567692721268
30
0
41
1
10
104.484578828199
20
3.63846434280191
30
0
41
1
10
104.583877865844
20
4.31916441522279
30
0
41
1
10
104.782475941135
20
5.66506706879807
30
0
41
1
10
104.88177497878
20
6.33018097226773
30
0
41
1
10
105.080373054071
20
7.61845196047184
30
0
41
1
10
105.179672091717
20
8.24149987130755
30
0
41
1
10
105.378270167007
20
9.41997603544056
30
0
41
1
10
105.477569204653
20
9.97530029956226
30
0
41
1
10
105.676167279944
20
10.9967667983822
30
0
41
1
10
105.775466317589
20
11.462837351646
30
0
41
1
10
105.97406439288
20
12.2910702206099
30
0
41
1
10
106.073363430525
20
12.653210245369
30
0
41
1
10
106.271961505816
20
13.2671534915354
30
0
41
1
10
106.371260543461
20
13.5189841594873
30
0
41
1
10
106.569858618752
20
13.9140852897511
30
0
41
1
10
106.669157656398
20
14.0574184500137
30
0
41
1
10
106.867755731689
20
14.2440873691976
30
0
41
1
10
106.967054769334
20
14.2875
30
0
41
1
10
107.066353806979
20
14.2875
30
0
0
SPLINE
5
EC
100
AcDbEntity
8
1
62
256
6
ByLayer
370
13
48
1
60
0
100
AcDbSpline
70
4
71
3
72
86
73
82
40
0
40
0
40
0
40
0
40
0.0312500000000007
40
0.0312500000000007
40
0.0625000000000013
40
0.0625000000000013
40
0.093750000000002
40
0.093750000000002
40
0.125000000000003
40
0.125000000000003
40
0.156250000000003
40
0.156250000000003
40
0.187500000000004
40
0.187500000000004
40
0.218750000000005
40
0.218750000000005
40
0.250000000000005
40
0.250000000000005
40
0.281250000000006
40
0.281250000000006
40
0.296875000000006
40
0.296875000000006
40
0.304687500000007
40
0.304687500000007
40
0.308593750000007
40
0.308593750000007
40
0.312500000000007
40
0.312500000000007
40
0.343750000000006
40
0.343750000000006
40
0.375000000000006
40
0.375000000000006
40
0.406250000000005
40
0.406250000000005
40
0.437500000000005
40
0.437500000000005
40
0.468750000000004
40
0.468750000000004
40
0.500000000000003
40
0.500000000000003
40
0.531250000000003
40
0.531250000000003
40
0.562500000000002
40
0.562500000000002
40
0.593750000000002
40
0.593750000000002
40
0.609375000000002
40
0.609375000000002
40
0.617187500000001
40
0.617187500000001
40
0.621093750000001
40
0.621093750000001
40
0.625000000000001
40
0.625000000000001
40
0.656250000000001
40
0.656250000000001
40
0.687500000000001
40
0.687500000000001
40
0.718750000000001
40
0.718750000000001
40
0.750000000000001
40
0.750000000000001
40
0.781250000000001
40
0.781250000000001
40
0.8125
40
0.8125
40
0.84375
40
0.84375
40
0.875
40
0.875
40
0.90625
40
0.90625
40
0.921875
40
0.921875
40
0.9296875
40
0.9296875
40
0.9375
40
0.9375
40
0.96875
40
0.96875
40
1
40
1
40
1
40
1
41
1
10
104.716695029967
20
14.2875
30
0
41
1
10
104.821727115883
20
14.2875
30
0
41
1
10
104.9267592018
20
14.238909320332
30
0
41
1
10
105.136823373632
20
14.0292668905061
30
0
41
1
10
105.241855459548
20
13.8681138429109
30
0
41
1
10
105.451919631381
20
13.4237626110391
30
0
41
1
10
105.556951717297
20
13.1404855913882
30
0
41
1
10
105.767015889129
20
12.4510088867325
30
0
41
1
10
105.872047975045
20
12.0447834325171
30
0
41
1
10
106.082112146878
20
11.1189218895895
30
0
41
1
10
106.187144232794
20
10.5993312746553
30
0
41
1
10
106.397208404626
20
9.46639580815406
30
0
41
1
10
106.502240490543
20
8.85316121079785
30
0
41
1
10
106.712304662375
20
7.56035073512487
30
0
41
1
10
106.817336748291
20
6.880918997012
30
0
41
1
10
107.027400920123
20
5.48692965869517
30
0
41
1
10
107.13243300604
20
4.77250895225342
30
0
41
1
10
107.342497177872
20
3.33918453782473
30
0
41
1
10
107.447529263788
20
2.62037785844998
30
0
41
1
10
107.605077392662
20
1.55864350166129
30
0
41
1
10
107.657593435621
20
1.2074362101761
30
0
41
1
10
107.736367500058
20
0.686716717993363
30
0
41
1
10
107.762625521537
20
0.514155574970744
30
0
41
1
10
107.802012553755
20
0.257056640292575
30
0
41
1
10
107.815141564495
20
0.17164724932826
30
0
41
1
10
107.841399585974
20
0.001443909600539
30
0
41
1
10
107.854528596713
20
-0.0833425755087092
30
0
41
1
10
107.972689693369
20
-0.851020320070404
30
0
41
1
10
108.077721779285
20
-1.55301781447037
30
0
41
1
10
108.287785951118
20
-2.97511789499097
30
0
41
1
10
108.392818037034
20
-3.69516748277351
30
0
41
1
10
108.602882208866
20
-5.12614115028805
30
0
41
1
10
108.707914294782
20
-5.83696015085627
30
0
41
1
10
108.917978466615
20
-7.21852475722858
30
0
41
1
10
109.023010552531
20
-7.8891295944367
30
0
41
1
10
109.233074724363
20
-9.15937346011427
30
0
41
1
10
109.33810681028
20
-9.75887114287531
30
0
41
1
10
109.548170982112
20
-10.8604454706181
30
0
41
1
10
109.653203068028
20
-11.3624209707724
30
0
41
1
10
109.863267239861
20
-12.250724244603
30
0
41
1
10
109.968299325777
20
-12.6370186056787
30
0
41
1
10
110.178363497609
20
-13.28606533715
30
0
41
1
10
110.283395583525
20
-13.5488540187482
30
0
41
1
10
110.493459755358
20
-13.9532659655239
30
0
41
1
10
110.598491841274
20
-14.0949739863607
30
0
41
1
10
110.756039970148
20
-14.2247113397455
30
0
41
1
10
110.808556013106
20
-14.2542095113052
30
0
41
1
10
110.887330077543
20
-14.2792374445622
30
0
41
1
10
110.913588099023
20
-14.284379200936
30
0
41
1
10
110.952975131241
20
-14.2874837427848
30
0
41
1
10
110.966104141981
20
-14.2877530301412
30
0
41
1
10
110.99236216346
20
-14.2867775699415
30
0
41
1
10
111.005491174199
20
-14.2855278599497
30
0
41
1
10
111.123652270855
20
-14.2672745579428
30
0
41
1
10
111.228684356771
20
-14.2010413277807
30
0
41
1
10
111.438748528604
20
-13.9540424604183
30
0
41
1
10
111.54378061452
20
-13.7731770733029
30
0
41
1
10
111.753844786352
20
-13.2885919387429
30
0
41
1
10
111.858876872268
20
-12.9848001464702
30
0
41
1
10
112.068941044101
20
-12.2551284064148
30
0
41
1
10
112.173973130017
20
-11.8292337575991
30
0
41
1
10
112.384037301849
20
-10.8666194109341
30
0
41
1
10
112.489069387765
20
-10.3299570719659
30
0
41
1
10
112.699133559598
20
-9.16696244625379
30
0
41
1
10
112.804165645514
20
-8.54074864585587
30
0
41
1
10
113.014229817346
20
-7.22699162769734
30
0
41
1
10
113.119261903263
20
-6.53959417720384
30
0
41
1
10
113.329326075095
20
-5.13488504478474
30
0
41
1
10
113.434358161011
20
-4.41770546596538
30
0
41
1
10
113.644422332844
20
-2.98359818125286
30
0
41
1
10
113.74945441876
20
-2.26675910556693
30
0
41
1
10
113.907002547634
20
-1.21082007325282
30
0
41
1
10
113.959518590592
20
-0.862015768914631
30
0
41
1
10
114.038292655029
20
-0.345504109347814
30
0
41
1
10
114.064550676508
20
-0.174446065412212
30
0
41
1
10
114.117066719466
20
0.16516311803062
30
0
41
1
10
114.143324740945
20
0.336132850912634
30
0
41
1
10
114.274614848341
20
1.19678283256192
30
0
41
1
10
114.379646934257
20
1.90340342214239
30
0
41
1
10
114.589711106089
20
3.33062889488616
30
0
41
1
10
114.694743192006
20
4.05117194700745
30
0
41
1
10
114.799775277922
20
4.76468162693305
30
0
0
SPLINE
5
ED
100
AcDbEntity
8
1
62
256
6
ByLayer
370
13
48
1
60
0
100
AcDbSpline
70
4
71
3
72
43
73
39
40
0
40
0
40
0
40
0
40
0.0625000000000013
40
0.0625000000000013
40
0.125000000000003
40
0.125000000000003
40
0.187500000000004
40
0.187500000000004
40
0.250000000000005
40
0.250000000000005
40
0.265625000000005
40
0.265625000000005
40
0.273437500000005
40
0.273437500000005
40
0.281250000000005
40
0.312500000000005
40
0.312500000000005
40
0.375000000000004
40
0.375000000000004
40
0.437500000000004
40
0.437500000000004
40
0.500000000000003
40
0.500000000000003
40
0.562500000000003
40
0.562500000000003
40
0.625000000000003
40
0.625000000000003
40
0.687500000000002
40
0.687500000000002
40
0.750000000000002
40
0.750000000000002
40
0.812500000000001
40
0.812500000000001
40
0.875000000000001
40
0.875000000000001
40
0.9375
40
0.9375
40
1
40
1
40
1
40
1
41
1
10
102.3
20
-7.73162620746459
30
0
41
1
10
102.389229477625
20
-7.16966967343532
30
0
41
1
10
102.478458955249
20
-6.58654311447299
30
0
41
1
10
102.656917910499
20
-5.39705251599545
30
0
41
1
10
102.746147388123
20
-4.7907481137926
30
0
41
1
10
102.924606343373
20
-3.57363104938378
30
0
41
1
10
103.013835820997
20
-2.96286269435896
30
0
41
1
10
103.192294776247
20
-1.7534500644845
30
0
41
1
10
103.281524253871
20
-1.15483026239542
30
0
41
1
10
103.393061100902
20
-0.422565403454883
30
0
41
1
10
103.415368470308
20
-0.276904496621057
30
0
41
1
10
103.448829524417
20
-0.0597330262793037
30
0
41
1
10
103.459983209121
20
0.0122912490780607
30
0
41
1
10
103.482290578527
20
0.156878605282884
30
0
41
1
10
103.538059002042
20
0.519455673135923
30
0
41
1
10
103.593827425558
20
0.887333400586385
30
0
41
1
10
103.727671641995
20
1.77816033592293
30
0
41
1
10
103.816901119619
20
2.38270581573371
30
0
41
1
10
103.995360074869
20
3.5985179840952
30
0
41
1
10
104.084589552493
20
4.20975316080524
30
0
41
1
10
104.263048507742
20
5.42147221674392
30
0
41
1
10
104.352277985367
20
6.02190564520143
30
0
41
1
10
104.530736940616
20
7.19293817692602
30
0
41
1
10
104.619966418241
20
7.76347443248153
30
0
41
1
10
104.79842537349
20
8.8557498062394
30
0
41
1
10
104.887654851115
20
9.37742522909087
30
0
41
1
10
105.066113806364
20
10.3550831366358
30
0
41
1
10
105.155343283989
20
10.8110144355783
30
0
41
1
10
105.333802239238
20
11.6441300215015
30
0
41
1
10
105.423031716863
20
12.02128626388
30
0
41
1
10
105.601490672112
20
12.6888643719926
30
0
41
1
10
105.690720149737
20
12.9792855804649
30
0
41
1
10
105.869179104986
20
13.4709128630487
30
0
41
1
10
105.958408582611
20
13.6721425877449
30
0
41
1
10
106.13686753786
20
13.9880494772279
30
0
41
1
10
106.226097015485
20
14.1027662005941
30
0
41
1
10
106.404555970734
20
14.2524688083576
30
0
41
1
10
106.493785448359
20
14.2875
30
0
41
1
10
106.583014925984
20
14.2875
30
0
0
SPLINE
5
EE
100
AcDbEntity
8
1
62
256
6
ByLayer
370
13
48
1
60
0
100
AcDbSpline
70
4
71
3
72
106
73
102
40
0
40
0
40
0
40
0
40
0.0312500000000007
40
0.0312500000000007
40
0.0625000000000015
40
0.0625000000000015
40
0.0937500000000022
40
0.0937500000000022
40
0.109375000000003
40
0.109375000000003
40
0.125000000000003
40
0.125000000000003
40
0.140625000000003
40
0.140625000000003
40
0.156250000000004
40
0.156250000000004
40
0.171875000000004
40
0.171875000000004
40
0.187500000000004
40
0.187500000000004
40
0.218750000000005
40
0.218750000000005
40
0.250000000000006
40
0.250000000000006
40
0.281250000000006
40
0.281250000000006
40
0.289062500000006
40
0.289062500000006
40
0.292968750000006
40
0.292968750000006
40
0.296875000000006
40
0.296875000000006
40
0.312500000000006
40
0.312500000000006
40
0.343750000000006
40
0.343750000000006
40
0.375000000000006
40
0.375000000000006
40
0.406250000000006
40
0.406250000000006
40
0.421875000000006
40
0.421875000000006
40
0.437500000000005
40
0.437500000000005
40
0.453125000000005
40
0.453125000000005
40
0.468750000000005
40
0.468750000000005
40
0.484375000000005
40
0.484375000000005
40
0.500000000000005
40
0.500000000000005
40
0.531250000000004
40
0.531250000000004
40
0.562500000000004
40
0.562500000000004
40
0.578125000000004
40
0.578125000000004
40
0.585937500000004
40
0.585937500000004
40
0.589843750000004
40
0.589843750000004
40
0.593750000000004
40
0.593750000000004
40
0.625000000000003
40
0.625000000000003
40
0.656250000000003
40
0.656250000000003
40
0.687500000000003
40
0.687500000000003
40
0.703125000000002
40
0.703125000000002
40
0.718750000000002
40
0.718750000000002
40
0.734375000000002
40
0.734375000000002
40
0.750000000000002
40
0.750000000000002
40
0.765625000000002
40
0.765625000000002
40
0.781250000000001
40
0.781250000000001
40
0.812500000000001
40
0.812500000000001
40
0.843750000000001
40
0.843750000000001
40
0.875000000000001
40
0.875000000000001
40
0.8828125
40
0.8828125
40
0.88671875
40
0.88671875
40
0.890625
40
0.890625
40
0.90625
40
0.90625
40
0.9375
40
0.9375
40
0.96875
40
0.96875
40
1
40
1
40
1
40
1
41
1
10
104.233356148972
20
14.2875
30
0
41
1
10
104.343423014898
20
14.2875
30
0
41
1
10
104.453489880825
20
14.2341180125263
30
0
41
1
10
104.673623612678
20
14.0031362053647
30
0
41
1
10
104.783690478604
20
13.8254090040227
30
0
41
1
10
105.003824210457
20
13.335313693059
30
0
41
1
10
105.113891076384
20
13.0228509884308
30
0
41
1
10
105.278991375274
20
12.4534336027673
30
0
41
1
10
105.334024808237
20
12.2469340806104
30
0
41
1
10
105.444091674164
20
11.8017810237115
30
0
41
1
10
105.499125107127
20
11.56312832058
30
0
41
1
10
105.609191973054
20
11.0556909463472
30
0
41
1
10
105.664225406017
20
10.7869086314791
30
0
41
1
10
105.774292271943
20
10.221976157899
30
0
41
1
10
105.829325704907
20
9.92582975044607
30
0
41
1
10
105.939392570833
20
9.30958301841954
30
0
41
1
10
105.994426003797
20
8.98948755812995
30
0
41
1
10
106.104492869723
20
8.32927597918155
30
0
41
1
10
106.159526302686
20
7.9891654391709
30
0
41
1
10
106.324626601576
20
6.94524428017715
30
0
41
1
10
106.434693467503
20
6.21785444075093
30
0
41
1
10
106.654827199356
20
4.73608195816647
30
0
41
1
10
106.764894065283
20
3.98185875288741
30
0
41
1
10
106.985027797136
20
2.48037210679402
30
0
41
1
10
107.095094663062
20
1.73320615374041
30
0
41
1
10
107.23267824547
20
0.820894806926646
30
0
41
1
10
107.260194961952
20
0.639496324221
30
0
41
1
10
107.301470036675
20
0.369258704792628
30
0
41
1
10
107.315228394915
20
0.279489264310484
30
0
41
1
10
107.342745111397
20
0.100610950573071
30
0
41
1
10
107.356503469638
20
0.0117275875313112
30
0
41
1
10
107.425295260842
20
-0.434062541501419
30
0
41
1
10
107.480328693805
20
-0.796132560621004
30
0
41
1
10
107.645428992695
20
-1.89450739691398
30
0
41
1
10
107.755495858622
20
-2.64320367292012
30
0
41
1
10
107.975629590475
20
-4.14547598268169
30
0
41
1
10
108.085696456401
20
-4.89894945263339
30
0
41
1
10
108.305830188254
20
-6.37662044502514
30
0
41
1
10
108.415897054181
20
-7.10065513240284
30
0
41
1
10
108.580997353071
20
-8.13761078904329
30
0
41
1
10
108.636030786034
20
-8.47508045747134
30
0
41
1
10
108.746097651961
20
-9.12941385892626
30
0
41
1
10
108.801131084924
20
-9.44627208907991
30
0
41
1
10
108.91119795085
20
-10.0555137701732
30
0
41
1
10
108.966231383814
20
-10.3478924956351
30
0
41
1
10
109.07629824974
20
-10.9048457984056
30
0
41
1
10
109.131331682704
20
-11.1694168124544
30
0
41
1
10
109.24139854863
20
-11.6680905383263
30
0
41
1
10
109.296431981594
20
-11.9021911106669
30
0
41
1
10
109.40649884752
20
-12.3380114396758
30
0
41
1
10
109.461532280483
20
-12.5397305867017
30
0
41
1
10
109.626632579373
20
-13.094637737896
30
0
41
1
10
109.7366994453
20
-13.3972065894016
30
0
41
1
10
109.956833177153
20
-13.8679356129714
30
0
41
1
10
110.066900043079
20
-14.0361942487923
30
0
41
1
10
110.232000341969
20
-14.1960402077964
30
0
41
1
10
110.287033774932
20
-14.2339712142213
30
0
41
1
10
110.369583924377
20
-14.2693894957946
30
0
41
1
10
110.397100640859
20
-14.2776189315007
30
0
41
1
10
110.438375715582
20
-14.284815203398
30
0
41
1
10
110.452134073822
20
-14.2863561233728
30
0
41
1
10
110.479650790304
20
-14.2877600325329
30
0
41
1
10
110.493409148545
20
-14.2876284721908
30
0
41
1
10
110.617234372712
20
-14.2789019980585
30
0
41
1
10
110.727301238639
20
-14.2170407570072
30
0
41
1
10
110.947434970492
20
-13.9680540753341
30
0
41
1
10
111.057501836418
20
-13.7808021646219
30
0
41
1
10
111.277635568272
20
-13.2712855118288
30
0
41
1
10
111.387702434198
20
-12.94893027207
30
0
41
1
10
111.552802733088
20
-12.3650553035656
30
0
41
1
10
111.607836166051
20
-12.1538013115948
30
0
41
1
10
111.717903031978
20
-11.6993840032875
30
0
41
1
10
111.772936464941
20
-11.4562217412403
30
0
41
1
10
111.883003330868
20
-10.9401215212382
30
0
41
1
10
111.938036763831
20
-10.6671861335298
30
0
41
1
10
112.048103629758
20
-10.0944046555348
30
0
41
1
10
112.103137062721
20
-9.79456249852262
30
0
41
1
10
112.213203928647
20
-9.17146553324866
30
0
41
1
10
112.268237361611
20
-8.8482157196093
30
0
41
1
10
112.378304227537
20
-8.18229932298806
30
0
41
1
10
112.4333376605
20
-7.83963838465525
30
0
41
1
10
112.59843795939
20
-6.78902906694134
30
0
41
1
10
112.708504825317
20
-6.05847670806867
30
0
41
1
10
112.92863855717
20
-4.57297522118765
30
0
41
1
10
113.038705423097
20
-3.81818193568196
30
0
41
1
10
113.25883915495
20
-2.31780634687704
30
0
41
1
10
113.368906020876
20
-1.5723164222936
30
0
41
1
10
113.506489603285
20
-0.663160885125109
30
0
41
1
10
113.534006319766
20
-0.482446313270032
30
0
41
1
10
113.575281394489
20
-0.21330666565791
30
0
41
1
10
113.589039752729
20
-0.123915232109283
30
0
41
1
10
113.616556469211
20
0.0541842145585179
30
0
41
1
10
113.630314827452
20
0.143256392236737
30
0
41
1
10
113.699106618656
20
0.590975419358301
30
0
41
1
10
113.754140051619
20
0.954404139777097
30
0
41
1
10
113.919240350509
20
2.05618980843639
30
0
41
1
10
114.029307216436
20
2.8062677780855
30
0
41
1
10
114.249440948289
20
4.30899565140666
30
0
41
1
10
114.359507814215
20
5.06153795972836
30
0
41
1
10
114.579641546068
20
6.53473331861554
30
0
41
1
10
114.689708411995
20
7.25522034624007
30
0
41
1
10
114.799775277922
20
7.94169677212869
30
0
0
SPLINE
5
EF
100
AcDbEntity
8
1
62
256
6
ByLayer
370
13
48
1
60
0
100
AcDbSpline
70
4
71
3
72
10
73
6
40
0
40
0
40
0
40
0
40
0.5
40
0.5
40
1
40
1
40
1
40
1
41
1
10
114.383472649881
20
14.2875
30
0
41
1
10
114.452856421221
20
14.2875
30
0
41
1
10
114.522240192561
20
14.2663405813533
30
0
41
1
10
114.661007735241
20
14.1770847352015
30
0
41
1
10
114.730391506582
20
14.1089753838008
30
0
41
1
10
114.799775277922
20
14.0155385475948
30
0
0
SPLINE
5
F0
100
AcDbEntity
8
1
62
256
6
ByLayer
370
13
48
1
60
0
100
AcDbSpline
70
4
71
3
72
44
73
40
40
0
40
0
40
0
40
0
40
0.0625000000000005
40
0.0625000000000005
40
0.125000000000001
40
0.125000000000001
40
0.156250000000001
40
0.156250000000001
40
0.171875000000001
40
0.171875000000001
40
0.179687500000001
40
0.179687500000001
40
0.187500000000001
40
0.187500000000001
40
0.25
40
0.25
40
0.3125
40
0.3125
40
0.375
40
0.375
40
0.4375
40
0.4375
40
0.5
40
0.5
40
0.5625
40
0.5625
40
0.625
40
0.625
40
0.6875
40
0.6875
40
0.75
40
0.75
40
0.8125
40
0.8125
40
0.875
40
0.875
40
0.9375
40
0.9375
40
1
40
1
40
1
40
1
41
1
10
102.3
20
-4.53676813133472
30
0
41
1
10
102.379159917604
20
-3.99798499739725
30
0
41
1
10
102.458319835208
20
-3.45606261282345
30
0
41
1
10
102.616639670416
20
-2.37794086861797
30
0
41
1
10
102.69579958802
20
-1.8417583786883
30
0
41
1
10
102.814539464425
20
-1.0494768971906
30
0
41
1
10
102.854119423227
20
-0.787366289057161
30
0
41
1
10
102.91348936143
20
-0.397986865106532
30
0
41
1
10
102.933279340831
20
-0.268823737228956
30
0
41
1
10
102.962964309933
20
-0.0761158100185639
30
0
41
1
10
102.972859299633
20
-0.012166980145679
30
0
41
1
10
102.992649279034
20
0.115984432327366
30
0
41
1
10
103.002544268735
20
0.18023622404678
30
0
41
1
10
103.091599176039
20
0.760020660925306
30
0
41
1
10
103.170759093643
20
1.28627130602396
30
0
41
1
10
103.329078928851
20
2.3517437920481
30
0
41
1
10
103.408238846455
20
2.89095546349759
30
0
41
1
10
103.566558681663
20
3.97148223660187
30
0
41
1
10
103.645718599267
20
4.51277734458139
30
0
41
1
10
103.804038434474
20
5.58499049909418
30
0
41
1
10
103.883198352078
20
6.1158796361797
30
0
41
1
10
104.041518187286
20
7.1539269010608
30
0
41
1
10
104.12067810489
20
7.66105036451424
30
0
41
1
10
104.278997940098
20
8.63830700881235
30
0
41
1
10
104.358157857702
20
9.10840483142482
30
0
41
1
10
104.51647769291
20
9.99951709043705
30
0
41
1
10
104.595637610513
20
10.4205013163181
30
0
41
1
10
104.753957445721
20
11.2034657564356
30
0
41
1
10
104.833117363325
20
11.5654259643624
30
0
41
1
10
104.991437198533
20
12.2233656324492
30
0
41
1
10
105.070597116137
20
12.5193381542166
30
0
41
1
10
105.228916951345
20
13.0416823289992
30
0
41
1
10
105.308076868949
20
13.2680601099851
30
0
41
1
10
105.466396704156
20
13.6509606957258
30
0
41
1
10
105.54555662176
20
13.8075001191863
30
0
41
1
10
105.703876456968
20
14.053482634175
30
0
41
1
10
105.783036374572
20
14.1429487170383
30
0
41
1
10
105.94135620978
20
14.259944913077
30
0
41
1
10
106.020516127384
20
14.2875
30
0
41
1
10
106.099676044988
20
14.2875
30
0
0
SPLINE
5
F1
100
AcDbEntity
8
1
62
256
6
ByLayer
370
13
48
1
60
0
100
AcDbSpline
70
4
71
3
72
136
73
132
40
0
40
0
40
0
40
0
40
0.0312499999999992
40
0.0312499999999992
40
0.0468749999999988
40
0.0468749999999988
40
0.0624999999999984
40
0.0624999999999984
40
0.078124999999998
40
0.078124999999998
40
0.0937499999999976
40
0.0937499999999976
40
0.109374999999997
40
0.109374999999997
40
0.124999999999997
40
0.124999999999997
40
0.140624999999996
40
0.140624999999996
40
0.156249999999996
40
0.156249999999996
40
0.171874999999996
40
0.171874999999996
40
0.187499999999995
40
0.187499999999995
40
0.203124999999995
40
0.203124999999995
40
0.218749999999994
40
0.218749999999994
40
0.234374999999994
40
0.234374999999994
40
0.249999999999994
40
0.249999999999994
40
0.281249999999993
40
0.281249999999993
40
0.285156249999993
40
0.285156249999993
40
0.289062499999993
40
0.296874999999993
40
0.296874999999993
40
0.312499999999994
40
0.312499999999994
40
0.328124999999994
40
0.328124999999994
40
0.343749999999994
40
0.343749999999994
40
0.359374999999994
40
0.359374999999994
40
0.374999999999995
40
0.374999999999995
40
0.390624999999995
40
0.390624999999995
40
0.406249999999995
40
0.406249999999995
40
0.421874999999995
40
0.421874999999995
40
0.437499999999996
40
0.437499999999996
40
0.453124999999996
40
0.453124999999996
40
0.468749999999996
40
0.468749999999996
40
0.484374999999996
40
0.484374999999996
40
0.499999999999997
40
0.499999999999997
40
0.515624999999997
40
0.515624999999997
40
0.531249999999997
40
0.531249999999997
40
0.562499999999998
40
0.562499999999998
40
0.566406249999998
40
0.566406249999998
40
0.570312499999998
40
0.578124999999998
40
0.578124999999998
40
0.593749999999998
40
0.593749999999998
40
0.609374999999999
40
0.609374999999999
40
0.624999999999999
40
0.624999999999999
40
0.640624999999999
40
0.640624999999999
40
0.656249999999999
40
0.656249999999999
40
0.671875
40
0.671875
40
0.6875
40
0.6875
40
0.703125
40
0.703125
40
0.71875
40
0.71875
40
0.734375000000001
40
0.734375000000001
40
0.750000000000001
40
0.750000000000001
40
0.765625000000001
40
0.765625000000001
40
0.781250000000001
40
0.781250000000001
40
0.796875000000002
40
0.796875000000002
40
0.812500000000002
40
0.812500000000002
40
0.843750000000003
40
0.843750000000003
40
0.847656250000003
40
0.847656250000003
40
0.851562500000003
40
0.851562500000003
40
0.859375000000003
40
0.859375000000003
40
0.875000000000002
40
0.875000000000002
40
0.890625000000002
40
0.890625000000002
40
0.906250000000002
40
0.906250000000002
40
0.921875000000002
40
0.921875000000002
40
0.937500000000001
40
0.937500000000001
40
0.953125000000001
40
0.953125000000001
40
0.968750000000001
40
0.968750000000001
40
0.984375
40
0.984375
40
1
40
1
40
1
40
1
41
1
10
103.750017267976
20
14.2875
30
0
41
1
10
103.865118913913
20
14.2875
30
0
41
1
10
103.98022055985
20
14.2290978883133
30
0
41
1
10
104.152873028755
20
14.039035126617
30
0
41
1
10
104.210423851724
20
13.9586514047719
30
0
41
1
10
104.325525497661
20
13.7621189646833
30
0
41
1
10
104.383076320629
20
13.6459657225536
30
0
41
1
10
104.498177966566
20
13.376882004453
30
0
41
1
10
104.555728789534
20
13.2239479767572
30
0
41
1
10
104.670830435471
20
12.881117333859
30
0
41
1
10
104.72838125844
20
12.6912185982943
30
0
41
1
10
104.843482904377
20
12.2751868874718
30
0
41
1
10
104.901033727345
20
12.0490535839239
30
0
41
1
10
105.016135373282
20
11.5622327931713
30
0
41
1
10
105.073686196251
20
11.3015469615869
30
0
41
1
10
105.188787842188
20
10.7482335247263
30
0
41
1
10
105.246338665156
20
10.4556095330661
30
0
41
1
10
105.361440311093
20
9.8418851742359
30
0
41
1
10
105.418991134062
20
9.52079012197513
30
0
41
1
10
105.534092779998
20
8.85430687954087
30
0
41
1
10
105.591643602967
20
8.50892524724713
30
0
41
1
10
105.706745248904
20
7.79858986980787
30
0
41
1
10
105.764296071872
20
7.43364333239444
30
0
41
1
10
105.879397717809
20
6.6892280652055
30
0
41
1
10
105.936948540778
20
6.30976655495809
30
0
41
1
10
106.052050186714
20
5.54148125685521
30
0
41
1
10
106.109601009683
20
5.15266410995611
30
0
41
1
10
106.22470265562
20
4.37072731756101
30
0
41
1
10
106.282253478589
20
3.97761326756336
30
0
41
1
10
106.397355124525
20
3.19185708409776
30
0
41
1
10
106.454905947494
20
2.79921920287237
30
0
41
1
10
106.627558416399
20
1.62852394552542
30
0
41
1
10
106.742660062336
20
0.857994434163743
30
0
41
1
10
106.872149414015
20
0.0180614641727459
30
0
41
1
10
106.886537119757
20
-0.074808461877808
30
0
41
1
10
106.915312531241
20
-0.261756831512344
30
0
41
1
10
106.958475648468
20
-0.543267699680001
30
0
41
1
10
107.001638765694
20
-0.827837152384319
30
0
41
1
10
107.087965000147
20
-1.40044949526043
30
0
41
1
10
107.145515823115
20
-1.78684057470417
30
0
41
1
10
107.260617469052
20
-2.56524283656225
30
0
41
1
10
107.318168292021
20
-2.95725151786468
30
0
41
1
10
107.433269937958
20
-3.74265212327825
30
0
41
1
10
107.490820760926
20
-4.13604008239219
30
0
41
1
10
107.605922406863
20
-4.91950351946639
30
0
41
1
10
107.663473229832
20
-5.30957365159961
30
0
41
1
10
107.778574875768
20
-6.08138700375147
30
0
41
1
10
107.836125698737
20
-6.46312375881874
30
0
41
1
10
107.951227344674
20
-7.21311558413959
30
0
41
1
10
108.008778167642
20
-7.58136350605608
30
0
41
1
10
108.123879813579
20
-8.29928861241373
30
0
41
1
10
108.181430636548
20
-8.64895853611924
30
0
41
1
10
108.296532282485
20
-9.32492278525737
30
0
41
1
10
108.354083105453
20
-9.65121037321862
30
0
41
1
10
108.46918475139
20
-10.2761017616404
30
0
41
1
10
108.526735574359
20
-10.5746999575275
30
0
41
1
10
108.641837220296
20
-11.1405884870394
30
0
41
1
10
108.699388043264
20
-11.4078748404957
30
0
41
1
10
108.814489689201
20
-11.9083452634902
30
0
41
1
10
108.87204051217
20
-12.1415272778019
30
0
41
1
10
108.987142158106
20
-12.5719157513023
30
0
41
1
10
109.044692981075
20
-12.7691221523821
30
0
41
1
10
109.159794627012
20
-13.1266390374126
30
0
41
1
10
109.21734544998
20
-13.2869513089928
30
0
41
1
10
109.332447095917
20
-13.5706857492721
30
0
41
1
10
109.389997918886
20
-13.6941112191006
30
0
41
1
10
109.505099564823
20
-13.9049262734674
30
0
41
1
10
109.562650387791
20
-13.9923202269954
30
0
41
1
10
109.735302856697
20
-14.2028268920248
30
0
41
1
10
109.850404502633
20
-14.2740604844433
30
0
41
1
10
109.979893854312
20
-14.2872197938063
30
0
41
1
10
109.994281560055
20
-14.2877573265882
30
0
41
1
10
110.023056971539
20
-14.2870175326096
30
0
41
1
10
110.066220088765
20
-14.2831688180347
30
0
41
1
10
110.109383205992
20
-14.2709055360446
30
0
41
1
10
110.195709440444
20
-14.2346609918005
30
0
41
1
10
110.253260263413
20
-14.1948593713401
30
0
41
1
10
110.36836190935
20
-14.0816207485157
30
0
41
1
10
110.425912732318
20
-14.0081786907684
30
0
41
1
10
110.541014378255
20
-13.8258197384824
30
0
41
1
10
110.598565201223
20
-13.7168981845422
30
0
41
1
10
110.71366684716
20
-13.4624170488619
30
0
41
1
10
110.771217670129
20
-13.3168536832735
30
0
41
1
10
110.886319316066
20
-12.9887305454558
30
0
41
1
10
110.943870139034
20
-12.806168334681
30
0
41
1
10
111.058971784971
20
-12.4045890682544
30
0
41
1
10
111.11652260794
20
-12.1855713056901
30
0
41
1
10
111.231624253877
20
-11.7125710113651
30
0
41
1
10
111.289175076845
20
-11.458589734634
30
0
41
1
10
111.404276722782
20
-10.9180934961572
30
0
41
1
10
111.46182754575
20
-10.6315817711906
30
0
41
1
10
111.576929191687
20
-10.0293292066736
30
0
41
1
10
111.634480014656
20
-9.71359337395651
30
0
41
1
10
111.749581660593
20
-9.05694594639257
30
0
41
1
10
111.807132483561
20
-8.71604070599545
30
0
41
1
10
111.922234129498
20
-8.01368434583085
30
0
41
1
10
111.979784952467
20
-7.65224035516113
30
0
41
1
10
112.094886598404
20
-6.91380830782308
30
0
41
1
10
112.152437421372
20
-6.53682751819238
30
0
41
1
10
112.267539067309
20
-5.77247716973764
30
0
41
1
10
112.325089890277
20
-5.38511440919504
30
0
41
1
10
112.440191536214
20
-4.60509561776885
30
0
41
1
10
112.497742359183
20
-4.2124454202002
30
0
41
1
10
112.61284400512
20
-3.4266961764913
30
0
41
1
10
112.670394828088
20
-3.03360166523808
30
0
41
1
10
112.843047296994
20
-1.86029988699278
30
0
41
1
10
112.958148942931
20
-1.08638022816334
30
0
41
1
10
113.08763829461
20
-0.241306538097092
30
0
41
1
10
113.102026000352
20
-0.147758684910087
30
0
41
1
10
113.130801411836
20
0.0385927702796209
30
0
41
1
10
113.145189117578
20
0.131647104780882
30
0
41
1
10
113.188352234804
20
0.412508919748404
30
0
41
1
10
113.217127646289
20
0.601184619154481
30
0
41
1
10
113.303453880741
20
1.17093320779236
30
0
41
1
10
113.36100470371
20
1.55574618598297
30
0
41
1
10
113.476106349647
20
2.33177230934737
30
0
41
1
10
113.533657172615
20
2.72298324077033
30
0
41
1
10
113.648758818552
20
3.50767281368454
30
0
41
1
10
113.706309641521
20
3.90114778064057
30
0
41
1
10
113.821411287458
20
4.68575128494066
30
0
41
1
10
113.878962110426
20
5.07687473652939
30
0
41
1
10
113.994063756363
20
5.85181115019859
30
0
41
1
10
114.051614579332
20
6.23561784075349
30
0
41
1
10
114.166716225268
20
6.99077817353685
30
0
41
1
10
114.224267048237
20
7.36212476151402
30
0
41
1
10
114.339368694174
20
8.087245459749
30
0
41
1
10
114.396919517142
20
8.44101228179693
30
0
41
1
10
114.512021163079
20
9.12609454753036
30
0
41
1
10
114.569571986048
20
9.45740309865425
30
0
41
1
10
114.684673631984
20
10.0931456629322
30
0
41
1
10
114.742224454953
20
10.397573801598
30
0
41
1
10
114.799775277922
20
10.6866779051559
30
0
0
SPLINE
5
F2
100
AcDbEntity
8
1
62
256
6
ByLayer
370
13
48
1
60
0
100
AcDbSpline
70
4
71
3
72
14
73
10
40
0
40
0
40
0
40
0
40
0.25
40
0.25
40
0.5
40
0.5
40
0.75
40
0.75
40
1
40
1
40
1
40
1
41
1
10
113.900133768885
20
14.2875
30
0
41
1
10
113.975103894638
20
14.2875
30
0
41
1
10
114.050074020392
20
14.2627898024311
30
0
41
1
10
114.200014271897
20
14.1581627751698
30
0
41
1
10
114.27498439765
20
14.0782269085641
30
0
41
1
10
114.424924649156
20
13.8586290553303
30
0
41
1
10
114.49989477491
20
13.7189492208439
30
0
41
1
10
114.649835026416
20
13.3772098219288
30
0
41
1
10
114.724805152169
20
13.1751365817269
30
0
41
1
10
114.799775277922
20
12.9417219953258
30
0
0
SPLINE
5
F3
100
AcDbEntity
8
1
62
256
6
ByLayer
370
13
48
1
60
0
100
AcDbSpline
70
4
71
3
72
42
73
38
40
0
40
0
40
0
40
0
40
0.03125
40
0.03125
40
0.046875
40
0.046875
40
0.0625
40
0.0625
40
0.125
40
0.125
40
0.1875
40
0.1875
40
0.25
40
0.25
40
0.3125
40
0.3125
40
0.375
40
0.375
40
0.4375
40
0.4375
40
0.5
40
0.5
40
0.5625
40
0.5625
40
0.625
40
0.625
40
0.6875
40
0.6875
40
0.75
40
0.75
40
0.8125
40
0.8125
40
0.875
40
0.875
40
0.9375
40
0.9375
40
1
40
1
40
1
40
1
41
1
10
102.3
20
-1.25768981826465
30
0
41
1
10
102.334545178792
20
-1.02743621722186
30
0
41
1
10
102.369090357583
20
-0.798723132792873
30
0
41
1
10
102.420908125771
20
-0.458503466733873
30
0
41
1
10
102.438180715166
20
-0.345571284888536
30
0
41
1
10
102.472725893958
20
-0.120738021854947
30
0
41
1
10
102.489998483354
20
-0.0091961561128358
30
0
41
1
10
102.576361430333
20
0.550862085235735
30
0
41
1
10
102.645451787916
20
1.00745175380652
30
0
41
1
10
102.783632503082
20
1.93209045882938
30
0
41
1
10
102.852722860665
20
2.40013540279895
30
0
41
1
10
102.990903575832
20
3.34082537346461
30
0
41
1
10
103.059993933415
20
3.81346199964511
30
0
41
1
10
103.198174648581
20
4.75542999704459
30
0
41
1
10
103.267265006164
20
5.22474872343969
30
0
41
1
10
103.405445721331
20
6.15144614108883
30
0
41
1
10
103.474536078914
20
6.60880874895926
30
0
41
1
10
103.61271679408
20
7.50266455016231
30
0
41
1
10
103.681807151663
20
7.93913977581681
30
0
41
1
10
103.81998786683
20
8.78251434564493
30
0
41
1
10
103.889078224413
20
9.18939594198432
30
0
41
1
10
104.027258939579
20
9.96564402097289
30
0
41
1
10
104.096349297162
20
10.3349952443233
30
0
41
1
10
104.234530012329
20
11.0295144724529
30
0
41
1
10
104.303620369912
20
11.3546716642604
30
0
41
1
10
104.441801085078
20
11.9558040473324
30
0
41
1
10
104.510891442661
20
12.2317740983823
30
0
41
1
10
104.649072157828
20
12.7314459673571
30
0
41
1
10
104.718162515411
20
12.955148581448
30
0
41
1
10
104.856343230577
20
13.3491771286802
30
0
41
1
10
104.92543358816
20
13.5195091171002
30
0
41
1
10
105.063614303327
20
13.8075595275137
30
0
41
1
10
105.13270466091
20
13.9252878913704
30
0
41
1
10
105.270885376076
20
14.1105199234779
30
0
41
1
10
105.33997573366
20
14.1780357198507
30
0
41
1
10
105.478156448826
20
14.2665194318289
30
0
41
1
10
105.547246806409
20
14.2875
30
0
41
1
10
105.616337163992
20
14.2875
30
0
0
SPLINE
5
F4
100
AcDbEntity
8
1
62
256
6
ByLayer
370
13
48
1
60
0
100
AcDbSpline
70
4
71
3
72
145
73
141
40
0
40
0
40
0
40
0
40
0.0156250000000002
40
0.0156250000000002
40
0.0312500000000003
40
0.0312500000000003
40
0.0468750000000005
40
0.0468750000000005
40
0.0625000000000006
40
0.0625000000000006
40
0.0781250000000008
40
0.0781250000000008
40
0.0937500000000009
40
0.0937500000000009
40
0.109375000000001
40
0.109375000000001
40
0.125000000000001
40
0.125000000000001
40
0.140625000000001
40
0.140625000000001
40
0.156250000000002
40
0.156250000000002
40
0.171875000000002
40
0.171875000000002
40
0.187500000000002
40
0.187500000000002
40
0.203125000000002
40
0.203125000000002
40
0.218750000000002
40
0.218750000000002
40
0.234375000000002
40
0.234375000000002
40
0.250000000000002
40
0.250000000000002
40
0.265625000000003
40
0.265625000000003
40
0.269531250000002
40
0.269531250000002
40
0.273437500000002
40
0.273437500000002
40
0.281250000000002
40
0.281250000000002
40
0.296875000000002
40
0.296875000000002
40
0.312500000000001
40
0.312500000000001
40
0.328125000000001
40
0.328125000000001
40
0.343750000000001
40
0.343750000000001
40
0.359375
40
0.359375
40
0.375
40
0.375
40
0.390625
40
0.390625
40
0.406249999999999
40
0.406249999999999
40
0.421874999999999
40
0.421874999999999
40
0.437499999999999
40
0.437499999999999
40
0.453124999999998
40
0.453124999999998
40
0.468749999999998
40
0.468749999999998
40
0.484374999999998
40
0.484374999999998
40
0.499999999999997
40
0.499999999999997
40
0.515624999999997
40
0.515624999999997
40
0.531249999999997
40
0.531249999999997
40
0.539062499999996
40
0.539062499999996
40
0.542968749999996
40
0.542968749999996
40
0.546874999999996
40
0.546874999999996
40
0.562499999999996
40
0.562499999999996
40
0.578124999999997
40
0.578124999999997
40
0.593749999999997
40
0.593749999999997
40
0.609374999999997
40
0.609374999999997
40
0.624999999999997
40
0.624999999999997
40
0.640624999999997
40
0.640624999999997
40
0.656249999999997
40
0.656249999999997
40
0.671874999999997
40
0.671874999999997
40
0.687499999999998
40
0.687499999999998
40
0.703124999999998
40
0.703124999999998
40
0.718749999999998
40
0.718749999999998
40
0.734374999999998
40
0.734374999999998
40
0.749999999999998
40
0.749999999999998
40
0.765624999999998
40
0.765624999999998
40
0.781249999999998
40
0.781249999999998
40
0.796874999999998
40
0.796874999999998
40
0.812499999999998
40
0.812499999999998
40
0.816406249999998
40
0.816406249999998
40
0.820312499999999
40
0.828124999999999
40
0.828124999999999
40
0.843749999999999
40
0.843749999999999
40
0.859374999999999
40
0.859374999999999
40
0.874999999999999
40
0.874999999999999
40
0.890624999999999
40
0.890624999999999
40
0.906249999999999
40
0.906249999999999
40
0.921874999999999
40
0.921874999999999
40
0.937499999999999
40
0.937499999999999
40
0.953125
40
0.953125
40
0.96875
40
0.96875
40
0.984375
40
0.984375
40
1
40
1
40
1
40
1
41
1
10
103.26667838698
20
14.2875
30
0
41
1
10
103.326746599954
20
14.2875
30
0
41
1
10
103.386814812927
20
14.2716468582111
30
0
41
1
10
103.506951238875
20
14.2052047599562
30
0
41
1
10
103.567019451848
20
14.1546095307069
30
0
41
1
10
103.687155877796
20
14.0161321452502
30
0
41
1
10
103.747224090769
20
13.928243811729
30
0
41
1
10
103.867360516717
20
13.7133080848163
30
0
41
1
10
103.92742872969
20
13.5862552139424
30
0
41
1
10
104.047565155638
20
13.2919745312634
30
0
41
1
10
104.107633368611
20
13.124742593733
30
0
41
1
10
104.227769794559
20
12.7500907490333
30
0
41
1
10
104.287838007532
20
12.5426686704959
30
0
41
1
10
104.40797443348
20
12.0887230770901
30
0
41
1
10
104.468042646453
20
11.8421997885034
30
0
41
1
10
104.588179072401
20
11.31226857007
30
0
41
1
10
104.648247285374
20
11.0288634499401
30
0
41
1
10
104.768383711322
20
10.4284705213979
30
0
41
1
10
104.828451924295
20
10.1114879750753
30
0
41
1
10
104.948588350242
20
9.44820539547527
30
0
41
1
10
105.008656563216
20
9.10191262838867
30
0
41
1
10
105.128792989163
20
8.38504809346853
30
0
41
1
10
105.188861202137
20
8.01448489405777
30
0
41
1
10
105.308997628084
20
7.25465080701466
30
0
41
1
10
105.369065841058
20
6.86538894884549
30
0
41
1
10
105.489202267005
20
6.07399435810885
30
0
41
1
10
105.549270479979
20
5.67187027263498
30
0
41
1
10
105.669406905926
20
4.86058516038617
30
0
41
1
10
105.7294751189
20
4.45143167965966
30
0
41
1
10
105.849611544847
20
3.63167329196162
30
0
41
1
10
105.909679757821
20
3.22107432556916
30
0
41
1
10
106.029816183768
20
2.40355802177797
30
0
41
1
10
106.089884396742
20
1.99664476749859
30
0
41
1
10
106.210020822689
20
1.19102938213737
30
0
41
1
10
106.270089035663
20
0.79232946538653
30
0
41
1
10
106.34517430188
20
0.301481292900633
30
0
41
1
10
106.360191355123
20
0.203686221978614
30
0
41
1
10
106.39022546161
20
0.0088978611054813
30
0
41
1
10
106.405242514853
20
-0.0880470767568511
30
0
41
1
10
106.450293674584
20
-0.380876371122667
30
0
41
1
10
106.480327781071
20
-0.577672899746489
30
0
41
1
10
106.570430100531
20
-1.17213496595841
30
0
41
1
10
106.630498313505
20
-1.57389503990123
30
0
41
1
10
106.750634739452
20
-2.38426458240988
30
0
41
1
10
106.810702952426
20
-2.79287125438114
30
0
41
1
10
106.930839378373
20
-3.61220351819205
30
0
41
1
10
106.990907591347
20
-4.02292442456829
30
0
41
1
10
107.111044017294
20
-4.84119285821464
30
0
41
1
10
107.171112230268
20
-5.24873389510662
30
0
41
1
10
107.291248656215
20
-6.05495666677194
30
0
41
1
10
107.351316869189
20
-6.45363043939946
30
0
41
1
10
107.471453295136
20
-7.23625747955055
30
0
41
1
10
107.53152150811
20
-7.62020189237299
30
0
41
1
10
107.651657934057
20
-8.36758847170918
30
0
41
1
10
107.711726147031
20
-8.73102166119651
30
0
41
1
10
107.831862572978
20
-9.43195414510822
30
0
41
1
10
107.891930785952
20
-9.76944519777285
30
0
41
1
10
108.012067211899
20
-10.4136735085922
30
0
41
1
10
108.072135424872
20
-10.7204040715994
30
0
41
1
10
108.19227185082
20
-11.2991303651505
30
0
41
1
10
108.252340063793
20
-11.5711215788563
30
0
41
1
10
108.372476489741
20
-12.0773974157623
30
0
41
1
10
108.432544702714
20
-12.3116800518343
30
0
41
1
10
108.552681128662
20
-12.7406748868151
30
0
41
1
10
108.612749341635
20
-12.9353876555492
30
0
41
1
10
108.732885767583
20
-13.2845078758733
30
0
41
1
10
108.792953980556
20
-13.4389181778221
30
0
41
1
10
108.913090406504
20
-13.7077749071864
30
0
41
1
10
108.973158619477
20
-13.8222259598047
30
0
41
1
10
109.093295045425
20
-14.012467675445
30
0
41
1
10
109.153363258398
20
-14.088264108501
30
0
41
1
10
109.273499684346
20
-14.2033036563202
30
0
41
1
10
109.333567897319
20
-14.2425530398068
30
0
41
1
10
109.42367021678
20
-14.2760578122824
30
0
41
1
10
109.453704323267
20
-14.2830021000359
30
0
41
1
10
109.498755482997
20
-14.2873694058395
30
0
41
1
10
109.51377253624
20
-14.2878198694516
30
0
41
1
10
109.543806642727
20
-14.286741912915
30
0
41
1
10
109.55882369597
20
-14.2852062636383
30
0
41
1
10
109.633908962187
20
-14.272421724378
30
0
41
1
10
109.693977175161
20
-14.2458366156514
30
0
41
1
10
109.814113601108
20
-14.1570575917861
30
0
41
1
10
109.874181814082
20
-14.09485737471
30
0
41
1
10
109.994318240029
20
-13.93249254044
30
0
41
1
10
110.054386453003
20
-13.8323218989091
30
0
41
1
10
110.17452287895
20
-13.5923980734747
30
0
41
1
10
110.234591091924
20
-13.4526397712451
30
0
41
1
10
110.354727517871
20
-13.1328295946887
30
0
41
1
10
110.414795730845
20
-12.9527741558448
30
0
41
1
10
110.534932156792
20
-12.5526985355444
30
0
41
1
10
110.595000369766
20
-12.3326769072619
30
0
41
1
10
110.715136795713
20
-11.8541148336461
30
0
41
1
10
110.775205008687
20
-11.5955754299392
30
0
41
1
10
110.895341434634
20
-11.0425481152127
30
0
41
1
10
110.955409647608
20
-10.7480638232674
30
0
41
1
10
111.075546073555
20
-10.1267715572897
30
0
41
1
10
111.135614286529
20
-9.79996954482075
30
0
41
1
10
111.255750712476
20
-9.11857623391572
30
0
41
1
10
111.31581892545
20
-8.7639927009196
30
0
41
1
10
111.435955351397
20
-8.03227204197563
30
0
41
1
10
111.496023564371
20
-7.65514372506712
30
0
41
1
10
111.616159990318
20
-6.88401874128547
30
0
41
1
10
111.676228203292
20
-6.49003107012473
30
0
41
1
10
111.796364629239
20
-5.69105172423366
30
0
41
1
10
111.856432842212
20
-5.28606841569967
30
0
41
1
10
111.97656926816
20
-4.47087772664531
30
0
41
1
10
112.036637481133
20
-4.06067742483373
30
0
41
1
10
112.156773907081
20
-3.24051421417727
30
0
41
1
10
112.216842120054
20
-2.83055667076025
30
0
41
1
10
112.336978546002
20
-2.01583388659694
30
0
41
1
10
112.397046758976
20
-1.61107212586862
30
0
41
1
10
112.517183184923
20
-0.811056139951461
30
0
41
1
10
112.577251397897
20
-0.415803565610162
30
0
41
1
10
112.652336664114
20
0.0700705653208331
30
0
41
1
10
112.667353717357
20
0.167374047256146
30
0
41
1
10
112.697387823844
20
0.363017090254374
30
0
41
1
10
112.742438983574
20
0.657641293785304
30
0
41
1
10
112.787490143304
20
0.955505399092488
30
0
41
1
10
112.877592462765
20
1.55485177512745
30
0
41
1
10
112.937660675738
20
1.95926160736062
30
0
41
1
10
113.057797101686
20
2.77349602519979
30
0
41
1
10
113.117865314659
20
3.18331721867688
30
0
41
1
10
113.238001740607
20
4.00345046340433
30
0
41
1
10
113.29806995358
20
4.41375723501611
30
0
41
1
10
113.418206379528
20
5.22942341524066
30
0
41
1
10
113.478274592501
20
5.63477581734256
30
0
41
1
10
113.598411018449
20
6.43476587791656
30
0
41
1
10
113.658479231422
20
6.82939521707516
30
0
41
1
10
113.77861565737
20
7.6020743676477
30
0
41
1
10
113.838683870343
20
7.98011519536263
30
0
41
1
10
113.95882029629
20
8.71391741985889
30
0
41
1
10
114.018888509264
20
9.0696699797241
30
0
41
1
10
114.139024935211
20
9.75363123512224
30
0
41
1
10
114.199093148185
20
10.0818320985614
30
0
41
1
10
114.319229574133
20
10.7061143663963
30
0
41
1
10
114.379297787106
20
11.002189711287
30
0
41
1
10
114.499434213053
20
11.5585454073031
30
0
41
1
10
114.559502426027
20
11.8188220226795
30
0
41
1
10
114.679638851974
20
12.3009536089115
30
0
41
1
10
114.739707064948
20
12.5228074178135
30
0
41
1
10
114.799775277921
20
12.7246985867965
30
0
0
SPLINE
5
F5
100
AcDbEntity
8
1
62
256
6
ByLayer
370
13
48
1
60
0
100
AcDbSpline
70
4
71
3
72
20
73
16
40
0
40
0
40
0
40
0
40
0.25
40
0.25
40
0.375
40
0.375
40
0.5
40
0.5
40
0.625
40
0.625
40
0.75
40
0.75
40
0.875
40
0.875
40
1
40
1
40
1
40
1
41
1
10
113.41679488789
20
14.2875
30
0
41
1
10
113.532043253726
20
14.2875
30
0
41
1
10
113.647291619562
20
14.2289481571221
30
0
41
1
10
113.820164168316
20
14.0383826767042
30
0
41
1
10
113.877788351234
20
13.9577852893872
30
0
41
1
10
113.99303671707
20
13.7607288367941
30
0
41
1
10
114.050660899988
20
13.6442652215932
30
0
41
1
10
114.165909265824
20
13.3744636345953
30
0
41
1
10
114.223533448742
20
13.2211220946603
30
0
41
1
10
114.338781814578
20
12.8773836348275
30
0
41
1
10
114.396405997496
20
12.6869845915548
30
0
41
1
10
114.511654363332
20
12.2698688797885
30
0
41
1
10
114.56927854625
20
12.0431518957242
30
0
41
1
10
114.684526912086
20
11.5550947036463
30
0
41
1
10
114.742151095004
20
11.2937561798746
30
0
41
1
10
114.799775277921
20
11.0164215799698
30
0
0
SPLINE
5
F6
100
AcDbEntity
8
1
62
256
6
ByLayer
370
13
48
1
60
0
100
AcDbSpline
70
4
71
3
72
38
73
34
40
0
40
0
40
0
40
0
40
0.0625000000000001
40
0.0625000000000001
40
0.125
40
0.125
40
0.1875
40
0.1875
40
0.25
40
0.25
40
0.3125
40
0.3125
40
0.375
40
0.375
40
0.4375
40
0.4375
40
0.5
40
0.5
40
0.5625
40
0.5625
40
0.625
40
0.625
40
0.6875
40
0.6875
40
0.75
40
0.75
40
0.8125
40
0.8125
40
0.875
40
0.875
40
0.9375
40
0.9375
40
1
40
1
40
1
40
1
41
1
10
102.3
20
1.93188563500263
30
0
41
1
10
102.359020797563
20
2.32974275726434
30
0
41
1
10
102.418041595125
20
2.73098507845981
30
0
41
1
10
102.53608319025
20
3.53578627804913
30
0
41
1
10
102.595103987812
20
3.9393409627088
30
0
41
1
10
102.713145582937
20
4.74377712244146
30
0
41
1
10
102.772166380499
20
5.14465276744431
30
0
41
1
10
102.890207975624
20
5.93836094762344
30
0
41
1
10
102.949228773187
20
6.33118629426269
30
0
41
1
10
103.067270368311
20
7.10324043024863
30
0
41
1
10
103.126291165874
20
7.48246116637392
30
0
41
1
10
103.244332760999
20
8.22179984324859
30
0
41
1
10
103.303353558561
20
8.58190953290969
30
0
41
1
10
103.421395153686
20
9.27781439461484
30
0
41
1
10
103.480415951249
20
9.61360187292814
30
0
41
1
10
103.598457546373
20
10.2561872648409
30
0
41
1
10
103.657478343936
20
10.5629787734101
30
0
41
1
10
103.775519939061
20
11.1436481130644
30
0
41
1
10
103.834540736623
20
11.4175214194094
30
0
41
1
10
103.952582331748
20
11.9293472493811
30
0
41
1
10
104.01160312931
20
12.1672974881349
30
0
41
1
10
104.129644724435
20
12.60529038022
30
0
41
1
10
104.188665521998
20
12.805333069026
30
0
41
1
10
104.306707117123
20
13.1665781436723
30
0
41
1
10
104.365727914685
20
13.3277826937569
30
0
41
1
10
104.48376950981
20
13.6114388740855
30
0
41
1
10
104.542790307372
20
13.7338943889411
30
0
41
1
10
104.660831902497
20
13.9410674849792
30
0
41
1
10
104.719852700059
20
14.0257901317344
30
0
41
1
10
104.837894295184
20
14.159303640247
30
0
41
1
10
104.896915092747
20
14.2081001720108
30
0
41
1
10
105.014956687872
20
14.2721954806121
30
0
41
1
10
105.073977485434
20
14.2875
30
0
41
1
10
105.132998282996
20
14.2875
30
0
0
SPLINE
5
F7
100
AcDbEntity
8
1
62
256
6
ByLayer
370
13
48
1
60
0
100
AcDbSpline
70
4
71
3
72
146
73
142
40
0
40
0
40
0
40
0
40
0.0156250000000005
40
0.0156250000000005
40
0.0312500000000009
40
0.0312500000000009
40
0.0468750000000014
40
0.0468750000000014
40
0.0625000000000019
40
0.0625000000000019
40
0.0781250000000024
40
0.0781250000000024
40
0.0937500000000029
40
0.0937500000000029
40
0.109375000000003
40
0.109375000000003
40
0.125000000000004
40
0.125000000000004
40
0.140625000000004
40
0.140625000000004
40
0.156250000000005
40
0.156250000000005
40
0.171875000000005
40
0.171875000000005
40
0.187500000000006
40
0.187500000000006
40
0.203125000000007
40
0.203125000000007
40
0.218750000000007
40
0.218750000000007
40
0.234375000000008
40
0.234375000000008
40
0.250000000000008
40
0.250000000000008
40
0.257812500000008
40
0.257812500000008
40
0.261718750000008
40
0.261718750000008
40
0.265625000000008
40
0.265625000000008
40
0.281250000000008
40
0.281250000000008
40
0.296875000000008
40
0.296875000000008
40
0.312500000000008
40
0.312500000000008
40
0.328125000000008
40
0.328125000000008
40
0.343750000000008
40
0.343750000000008
40
0.359375000000008
40
0.359375000000008
40
0.375000000000007
40
0.375000000000007
40
0.390625000000007
40
0.390625000000007
40
0.406250000000007
40
0.406250000000007
40
0.421875000000007
40
0.421875000000007
40
0.437500000000007
40
0.437500000000007
40
0.453125000000007
40
0.453125000000007
40
0.468750000000007
40
0.468750000000007
40
0.484375000000006
40
0.484375000000006
40
0.500000000000006
40
0.500000000000006
40
0.515625000000006
40
0.515625000000006
40
0.519531250000006
40
0.519531250000006
40
0.523437500000006
40
0.523437500000006
40
0.531250000000006
40
0.531250000000006
40
0.546875000000006
40
0.546875000000006
40
0.562500000000006
40
0.562500000000006
40
0.578125000000005
40
0.578125000000005
40
0.593750000000005
40
0.593750000000005
40
0.609375000000005
40
0.609375000000005
40
0.625000000000005
40
0.625000000000005
40
0.640625000000005
40
0.640625000000005
40
0.656250000000004
40
0.656250000000004
40
0.671875000000004
40
0.671875000000004
40
0.687500000000004
40
0.687500000000004
40
0.703125000000004
40
0.703125000000004
40
0.718750000000004
40
0.718750000000004
40
0.734375000000004
40
0.734375000000004
40
0.750000000000003
40
0.750000000000003
40
0.765625000000003
40
0.765625000000003
40
0.773437500000003
40
0.773437500000003
40
0.777343750000003
40
0.777343750000003
40
0.781250000000003
40
0.781250000000003
40
0.796875000000003
40
0.796875000000003
40
0.812500000000002
40
0.812500000000002
40
0.828125000000002
40
0.828125000000002
40
0.843750000000002
40
0.843750000000002
40
0.859375000000002
40
0.859375000000002
40
0.875000000000002
40
0.875000000000002
40
0.890625000000001
40
0.890625000000001
40
0.906250000000001
40
0.906250000000001
40
0.921875000000001
40
0.921875000000001
40
0.937500000000001
40
0.937500000000001
40
0.953125000000001
40
0.953125000000001
40
0.96875
40
0.96875
40
0.984375
40
0.984375
40
1
40
1
40
1
40
1
41
1
10
102.783339505985
20
14.2875
30
0
41
1
10
102.845925108963
20
14.2875
30
0
41
1
10
102.908510711942
20
14.2702886216693
30
0
41
1
10
103.0336819179
20
14.1980264108018
30
0
41
1
10
103.096267520879
20
14.1429678703308
30
0
41
1
10
103.221438726836
20
13.9921671246389
30
0
41
1
10
103.284024329815
20
13.8964173796887
30
0
41
1
10
103.409195535773
20
13.662208416562
30
0
41
1
10
103.471781138752
20
13.5237426407773
30
0
41
1
10
103.59695234471
20
13.2031089638177
30
0
41
1
10
103.659537947688
20
13.0209363540746
30
0
41
1
10
103.784709153646
20
12.6131018812622
30
0
41
1
10
103.847294756625
20
12.3874379348725
30
0
41
1
10
103.972465962582
20
11.8941439282601
30
0
41
1
10
104.035051565561
20
11.6265149371334
30
0
41
1
10
104.160222771519
20
11.0521412027554
30
0
41
1
10
104.222808374498
20
10.7454008264407
30
0
41
1
10
104.347979580456
20
10.0969005127939
30
0
41
1
10
104.410565183434
20
9.75514793793576
30
0
41
1
10
104.535736389392
20
9.04178768573354
30
0
41
1
10
104.598321992371
20
8.67018964342822
30
0
41
1
10
104.723493198328
20
7.90311303147209
30
0
41
1
10
104.786078801307
20
7.50764534528969
30
0
41
1
10
104.911250007265
20
6.69930214963176
30
0
41
1
10
104.973835610244
20
6.28643762920427
30
0
41
1
10
105.099006816202
20
5.44993902809549
30
0
41
1
10
105.16159241918
20
5.02631497750971
30
0
41
1
10
105.286763625138
20
4.17478185307201
30
0
41
1
10
105.349349228117
20
3.7468810261922
30
0
41
1
10
105.474520434075
20
2.89284806870066
30
0
41
1
10
105.537106037053
20
2.46672191123273
30
0
41
1
10
105.662277243011
20
1.62164630895299
30
0
41
1
10
105.72486284599
20
1.20270042080313
30
0
41
1
10
105.818741250458
20
0.583128462953965
30
0
41
1
10
105.850034051948
20
0.378072476916088
30
0
41
1
10
105.896973254182
20
0.0730630004762531
30
0
41
1
10
105.912619654926
20
-0.027904290376739
30
0
41
1
10
105.943912456416
20
-0.230987990529087
30
0
41
1
10
105.959558857161
20
-0.332962841180546
30
0
41
1
10
106.037790860884
20
-0.844852391675204
30
0
41
1
10
106.100376463863
20
-1.26084631986092
30
0
41
1
10
106.225547669821
20
-2.10142818852029
30
0
41
1
10
106.288133272799
20
-2.52601324863784
30
0
41
1
10
106.413304478757
20
-3.37858924759624
30
0
41
1
10
106.475890081736
20
-3.80657490702518
30
0
41
1
10
106.601061287694
20
-4.66006956060286
30
0
41
1
10
106.663646890672
20
-5.08557092612759
30
0
41
1
10
106.78881809663
20
-5.92771416606087
30
0
41
1
10
106.851403699609
20
-6.3443464516109
30
0
41
1
10
106.976574905567
20
-7.16212855823457
30
0
41
1
10
107.039160508546
20
-7.56326756467567
30
0
41
1
10
107.164331714503
20
-8.34350923498934
30
0
41
1
10
107.226917317482
20
-8.72260086797007
30
0
41
1
10
107.35208852344
20
-9.45259484647593
30
0
41
1
10
107.414674126419
20
-9.80348708469367
30
0
41
1
10
107.539845332376
20
-10.4716518267535
30
0
41
1
10
107.602430935355
20
-10.7889162254036
30
0
41
1
10
107.727602141313
20
-11.3853945832468
30
0
41
1
10
107.790187744292
20
-11.6646032645834
30
0
41
1
10
107.915358950249
20
-12.1817428685189
30
0
41
1
10
107.977944553228
20
-12.4196717707962
30
0
41
1
10
108.103115759186
20
-12.8523386139854
30
0
41
1
10
108.165701362165
20
-13.0470777722834
30
0
41
1
10
108.290872568122
20
-13.3927775823273
30
0
41
1
10
108.353458171101
20
-13.543742260255
30
0
41
1
10
108.478629377059
20
-13.8025505496777
30
0
41
1
10
108.541214980038
20
-13.9104002755504
30
0
41
1
10
108.666386185995
20
-14.0847259574337
30
0
41
1
10
108.728971788974
20
-14.1512092591379
30
0
41
1
10
108.854142994932
20
-14.2454339431133
30
0
41
1
10
108.916728597911
20
-14.2731830606652
30
0
41
1
10
108.994960601634
20
-14.2857101179935
30
0
41
1
10
109.010607002379
20
-14.2871088394088
30
0
41
1
10
109.041899803868
20
-14.2877486653434
30
0
41
1
10
109.057546204613
20
-14.2869958823199
30
0
41
1
10
109.104485406847
20
-14.2814452768933
30
0
41
1
10
109.135778208337
20
-14.2733500053962
30
0
41
1
10
109.229656612805
20
-14.2352348973839
30
0
41
1
10
109.292242215784
20
-14.1913651456127
30
0
41
1
10
109.417413421742
20
-14.0636849714411
30
0
41
1
10
109.47999902472
20
-13.9798668830331
30
0
41
1
10
109.605170230678
20
-13.7700060494072
30
0
41
1
10
109.667755833657
20
-13.6439563757579
30
0
41
1
10
109.792927039614
20
-13.348323058786
30
0
41
1
10
109.855512642593
20
-13.1787340895407
30
0
41
1
10
109.980683848551
20
-12.7958747650932
30
0
41
1
10
110.04326945153
20
-12.5826015049747
30
0
41
1
10
110.168440657487
20
-12.113514617791
30
0
41
1
10
110.231026260466
20
-11.8577011210258
30
0
41
1
10
110.356197466424
20
-11.3060069557294
30
0
41
1
10
110.418783069403
20
-11.010129718119
30
0
41
1
10
110.543954275361
20
-10.3820606626919
30
0
41
1
10
110.606539878339
20
-10.0498754042423
30
0
41
1
10
110.731711084297
20
-9.35407132410839
30
0
41
1
10
110.794296687276
20
-8.99046157956082
30
0
41
1
10
110.919467893234
20
-8.23758064145301
30
0
41
1
10
110.982053496212
20
-7.84832008842341
30
0
41
1
10
111.10722470217
20
-7.05050099191988
30
0
41
1
10
111.169810305149
20
-6.64195352308718
30
0
41
1
10
111.294981511107
20
-5.81218518526561
30
0
41
1
10
111.357567114085
20
-5.39097471906126
30
0
41
1
10
111.482738320043
20
-4.54243974027685
30
0
41
1
10
111.545323923022
20
-4.11512405247819
30
0
41
1
10
111.67049512898
20
-3.2605810504443
30
0
41
1
10
111.733080731958
20
-2.83336039166696
30
0
41
1
10
111.858251937916
20
-1.98461874700723
30
0
41
1
10
111.920837540895
20
-1.56310200742487
30
0
41
1
10
112.014715945363
20
-0.938743681931015
30
0
41
1
10
112.046008746853
20
-0.731937421732169
30
0
41
1
10
112.092947949087
20
-0.424093555435974
30
0
41
1
10
112.108594349831
20
-0.321872768493392
30
0
41
1
10
112.139887151321
20
-0.1182797574765
30
0
41
1
10
112.155533552066
20
-0.0171958091230522
30
0
41
1
10
112.233765555789
20
0.489867143222057
30
0
41
1
10
112.296351158768
20
0.902548136853653
30
0
41
1
10
112.421522364726
20
1.73784658651007
30
0
41
1
10
112.484107967705
20
2.16046181937122
30
0
41
1
10
112.609279173662
20
3.01066568112617
30
0
41
1
10
112.671864776641
20
3.43824972801474
30
0
41
1
10
112.797035982599
20
4.29269134685904
30
0
41
1
10
112.859621585578
20
4.71954194055394
30
0
41
1
10
112.984792791535
20
5.56625352758459
30
0
41
1
10
113.047378394514
20
5.98610543430109
30
0
41
1
10
113.172549600472
20
6.81223571298716
30
0
41
1
10
113.235135203451
20
7.21850352891056
30
0
41
1
10
113.360306409408
20
8.01085835696384
30
0
41
1
10
113.422892012387
20
8.39693428600791
30
0
41
1
10
113.548063218345
20
9.14260325554955
30
0
41
1
10
113.610648821324
20
9.5021858066514
30
0
41
1
10
113.735820027281
20
10.1891991781578
30
0
41
1
10
113.79840563026
20
10.5166212196176
30
0
41
1
10
113.923576836218
20
11.1345712588464
30
0
41
1
10
113.986162439197
20
11.4250931036641
30
0
41
1
10
114.111333645154
20
11.9656542380085
30
0
41
1
10
114.173919248133
20
12.2156905540775
30
0
41
1
10
114.299090454091
20
12.6729845753871
30
0
41
1
10
114.36167605707
20
12.8802425959414
30
0
41
1
10
114.486847263027
20
13.2510162913078
30
0
41
1
10
114.549432866006
20
13.4145352494849
30
0
41
1
10
114.674604071964
20
13.6981437985899
30
0
41
1
10
114.737189674943
20
13.8182389890326
30
0
41
1
10
114.799775277922
20
13.9173463227751
30
0
0
SPLINE
5
F8
100
AcDbEntity
8
1
62
256
6
ByLayer
370
13
48
1
60
0
100
AcDbSpline
70
4
71
3
72
22
73
18
40
0
40
0
40
0
40
0
40
0.125
40
0.125
40
0.25
40
0.25
40
0.375
40
0.375
40
0.5
40
0.5
40
0.625
40
0.625
40
0.75
40
0.75
40
0.875
40
0.875
40
1
40
1
40
1
40
1
41
1
10
112.933456006894
20
14.2875
30
0
41
1
10
113.011219309854
20
14.2875
30
0
41
1
10
113.088982612813
20
14.2609105516696
30
0
41
1
10
113.244509218732
20
14.1481179021345
30
0
41
1
10
113.322272521692
20
14.0618918491797
30
0
41
1
10
113.47779912761
20
13.8248804327288
30
0
41
1
10
113.55556243057
20
13.6740738983982
30
0
41
1
10
113.711089036489
20
13.3051617177101
30
0
41
1
10
113.788852339448
20
13.0870404512122
30
0
41
1
10
113.944378945367
20
12.5835320203758
30
0
41
1
10
114.022142248327
20
12.2981384680783
30
0
41
1
10
114.177668854246
20
11.6632354466496
30
0
41
1
10
114.255432157205
20
11.3137312313621
30
0
41
1
10
114.410958763124
20
10.5568982529502
30
0
41
1
10
114.488722066084
20
10.1495866112401
30
0
41
1
10
114.644248672003
20
9.28623435499492
30
0
41
1
10
114.722011974962
20
8.83022045312327
30
0
41
1
10
114.799775277922
20
8.35545759806274
30
0
0
SPLINE
5
F9
100
AcDbEntity
8
1
62
256
6
ByLayer
370
13
48
1
60
0
100
AcDbSpline
70
4
71
3
72
22
73
18
40
0
40
0
40
0
40
0
40
0.125
40
0.125
40
0.25
40
0.25
40
0.375
40
0.375
40
0.5
40
0.5
40
0.625
40
0.625
40
0.75
40
0.75
40
0.875
40
0.875
40
1
40
1
40
1
40
1
41
1
10
102.3
20
5.21894681356963
30
0
41
1
10
102.397902475083
20
5.8805245841321
30
0
41
1
10
102.495804950167
20
6.53306358483172
30
0
41
1
10
102.691609900333
20
7.79481192264984
30
0
41
1
10
102.789512375417
20
8.40391882504196
30
0
41
1
10
102.985317325583
20
9.55444134624369
30
0
41
1
10
103.083219800667
20
10.0957616778348
30
0
41
1
10
103.279024750834
20
11.0904751236805
30
0
41
1
10
103.376927225917
20
11.5438043164035
30
0
41
1
10
103.572732176084
20
12.3489023659053
30
0
41
1
10
103.670634651167
20
12.700653207406
30
0
41
1
10
103.866439601334
20
13.2968364768203
30
0
41
1
10
103.964342076417
20
13.5412962268882
30
0
41
1
10
104.160147026584
20
13.9248578465245
30
0
41
1
10
104.258049501667
20
14.0640188015389
30
0
41
1
10
104.453854451834
20
14.2453040343139
30
0
41
1
10
104.551756926917
20
14.2875
30
0
41
1
10
104.649659402001
20
14.2875
30
0
0
SPLINE
5
FA
100
AcDbEntity
8
1
62
256
6
ByLayer
370
13
48
1
60
0
100
AcDbSpline
70
4
71
3
72
134
73
130
40
0
40
0
40
0
40
0
40
0.0156250000000001
40
0.0156250000000001
40
0.0312500000000001
40
0.0312500000000001
40
0.0468750000000002
40
0.0468750000000002
40
0.0625000000000002
40
0.0625000000000002
40
0.0781250000000003
40
0.0781250000000003
40
0.0937500000000004
40
0.0937500000000004
40
0.109375
40
0.109375
40
0.125000000000001
40
0.125000000000001
40
0.140625000000001
40
0.140625000000001
40
0.156250000000001
40
0.156250000000001
40
0.171875000000001
40
0.171875000000001
40
0.187500000000001
40
0.187500000000001
40
0.203125000000001
40
0.203125000000001
40
0.218750000000001
40
0.218750000000001
40
0.234375000000001
40
0.234375000000001
40
0.250000000000001
40
0.250000000000001
40
0.265625000000001
40
0.265625000000001
40
0.281250000000001
40
0.281250000000001
40
0.296875000000001
40
0.296875000000001
40
0.312500000000001
40
0.312500000000001
40
0.328125000000001
40
0.328125000000001
40
0.343750000000001
40
0.343750000000001
40
0.359375000000001
40
0.359375000000001
40
0.375000000000001
40
0.375000000000001
40
0.390625000000001
40
0.390625000000001
40
0.406250000000002
40
0.406250000000002
40
0.421875000000002
40
0.421875000000002
40
0.437500000000002
40
0.437500000000002
40
0.453125000000002
40
0.453125000000002
40
0.468750000000002
40
0.468750000000002
40
0.484375000000002
40
0.484375000000002
40
0.500000000000002
40
0.500000000000002
40
0.515625000000002
40
0.515625000000002
40
0.531250000000002
40
0.531250000000002
40
0.546875000000002
40
0.546875000000002
40
0.562500000000002
40
0.562500000000002
40
0.578125000000002
40
0.578125000000002
40
0.593750000000002
40
0.593750000000002
40
0.609375000000001
40
0.609375000000001
40
0.625000000000001
40
0.625000000000001
40
0.640625000000001
40
0.640625000000001
40
0.656250000000001
40
0.656250000000001
40
0.671875000000001
40
0.671875000000001
40
0.687500000000001
40
0.687500000000001
40
0.703125000000001
40
0.703125000000001
40
0.718750000000001
40
0.718750000000001
40
0.734375000000001
40
0.734375000000001
40
0.750000000000001
40
0.750000000000001
40
0.765625000000001
40
0.765625000000001
40
0.781250000000001
40
0.781250000000001
40
0.796875000000001
40
0.796875000000001
40
0.812500000000001
40
0.812500000000001
40
0.828125000000001
40
0.828125000000001
40
0.843750000000001
40
0.843750000000001
40
0.859375000000001
40
0.859375000000001
40
0.875000000000001
40
0.875000000000001
40
0.890625
40
0.890625
40
0.90625
40
0.90625
40
0.921875
40
0.921875
40
0.9375
40
0.9375
40
0.953125
40
0.953125
40
0.96875
40
0.96875
40
0.984375
40
0.984375
40
1
40
1
40
1
40
1
41
1
10
102.300000624989
20
14.2875
30
0
41
1
10
102.365103617973
20
14.2875
30
0
41
1
10
102.430206610957
20
14.2688743397047
30
0
41
1
10
102.560412596925
20
14.1905371856589
30
0
41
1
10
102.625515589909
20
14.1308162983555
30
0
41
1
10
102.755721575877
20
13.9671346532527
30
0
41
1
10
102.820824568861
20
13.8631647740807
30
0
41
1
10
102.951030554829
20
13.6088105705731
30
0
41
1
10
103.016133547813
20
13.4584184796625
30
0
41
1
10
103.146339533781
20
13.1102824320781
30
0
41
1
10
103.211442526765
20
12.9125332004508
30
0
41
1
10
103.341648512733
20
12.4701826264723
30
0
41
1
10
103.406751505717
20
12.225579482567
30
0
41
1
10
103.536957491685
20
11.6915677311165
30
0
41
1
10
103.602060484669
20
11.4021613991508
30
0
41
1
10
103.732266470637
20
10.7821315868316
30
0
41
1
10
103.797369463621
20
10.4515145114427
30
0
41
1
10
103.927575449589
20
9.7540625979052
30
0
41
1
10
103.992678442573
20
9.38723773115419
30
0
41
1
10
104.122884428541
20
8.62353226170626
30
0
41
1
10
104.187987421526
20
8.22666409612685
30
0
41
1
10
104.318193407493
20
7.40985583206603
30
0
41
1
10
104.383296400478
20
6.98992920260807
30
0
41
1
10
104.513502386446
20
6.13441520556535
30
0
41
1
10
104.57860537943
20
5.69884084702454
30
0
41
1
10
104.708811365398
20
4.81946706157882
30
0
41
1
10
104.773914358382
20
4.3756789012279
30
0
41
1
10
104.90412034435
20
3.48696882096323
30
0
41
1
10
104.969223337334
20
3.04205554298917
30
0
41
1
10
105.099429323302
20
2.15754053716938
30
0
41
1
10
105.164532316286
20
1.71794442320171
30
0
41
1
10
105.294738302254
20
0.84964809339192
30
0
41
1
10
105.359841295238
20
0.420950507235745
30
0
41
1
10
105.490047281206
20
-0.420948486678185
30
0
41
1
10
105.55515027419
20
-0.849646026788378
30
0
41
1
10
105.685356260158
20
-1.71794232198295
30
0
41
1
10
105.750459253142
20
-2.15753842272727
30
0
41
1
10
105.88066523911
20
-3.04205341175927
30
0
41
1
10
105.945768232094
20
-3.48696668617379
30
0
41
1
10
106.075974218062
20
-4.37567677020888
30
0
41
1
10
106.141077211046
20
-4.81946493789445
30
0
41
1
10
106.271283197014
20
-5.69883874971464
30
0
41
1
10
106.336386189998
20
-6.13441312729884
30
0
41
1
10
106.466592175966
20
-6.98992717440723
30
0
41
1
10
106.53169516895
20
-7.40985383488922
30
0
41
1
10
106.661901154918
20
-8.22666217262378
30
0
41
1
10
106.727004147902
20
-8.6235303808524
30
0
41
1
10
106.85721013387
20
-9.38723594622152
30
0
41
1
10
106.922313126855
20
-9.75406086624164
30
0
41
1
10
107.052519112823
20
-10.4515128953368
30
0
41
1
10
107.117622105807
20
-10.7821300330093
30
0
41
1
10
107.247828091775
20
-11.4021599768298
30
0
41
1
10
107.312931084759
20
-11.691566378007
30
0
41
1
10
107.443137070727
20
-12.2255782724198
30
0
41
1
10
107.508240063711
20
-12.4701814900693
30
0
41
1
10
107.638446049679
20
-12.9125322135707
30
0
41
1
10
107.703549042663
20
-13.1102815209706
30
0
41
1
10
107.833755028631
20
-13.4584177197166
30
0
41
1
10
107.898858021615
20
-13.6088098860116
30
0
41
1
10
108.029064007583
20
-13.8631642377417
30
0
41
1
10
108.094167000567
20
-13.9671341897486
30
0
41
1
10
108.224372986535
20
-14.1308159761873
30
0
41
1
10
108.289475979519
20
-14.1905369319905
30
0
41
1
10
108.419681965487
20
-14.2688742173544
30
0
41
1
10
108.484784958471
20
-14.2874999404686
30
0
41
1
10
108.614990944439
20
-14.2875000595311
30
0
41
1
10
108.680093937423
20
-14.2688744620546
30
0
41
1
10
108.810299923391
20
-14.190537439327
30
0
41
1
10
108.875402916375
20
-14.1308166205233
30
0
41
1
10
109.005608902343
20
-13.9671351167564
30
0
41
1
10
109.070711895327
20
-13.8631653104195
30
0
41
1
10
109.200917881295
20
-13.6088112551342
30
0
41
1
10
109.266020874279
20
-13.4584192396079
30
0
41
1
10
109.396226860248
20
-13.1102833431853
30
0
41
1
10
109.461329853232
20
-12.9125341873306
30
0
41
1
10
109.5915358392
20
-12.470183762875
30
0
41
1
10
109.656638832184
20
-12.2255806927139
30
0
41
1
10
109.786844818152
20
-11.6915690842258
30
0
41
1
10
109.851947811136
20
-11.4021628214716
30
0
41
1
10
109.982153797104
20
-10.7821331406537
30
0
41
1
10
110.047256790088
20
-10.4515161275484
30
0
41
1
10
110.177462776056
20
-9.75406432956848
30
0
41
1
10
110.24256576904
20
-9.38723951608659
30
0
41
1
10
110.372771755008
20
-8.62353414255989
30
0
41
1
10
110.437874747992
20
-8.22666601962973
30
0
41
1
10
110.56808073396
20
-7.40985782924267
30
0
41
1
10
110.633183726944
20
-6.98993123080879
30
0
41
1
10
110.763389712912
20
-6.13441728383174
30
0
41
1
10
110.828492705896
20
-5.69884294433439
30
0
41
1
10
110.958698691864
20
-4.81946918526313
30
0
41
1
10
111.023801684848
20
-4.37568103224686
30
0
41
1
10
111.154007670816
20
-3.48697095575267
30
0
41
1
10
111.2191106638
20
-3.04205767421911
30
0
41
1
10
111.349316649768
20
-2.15754265161158
30
0
41
1
10
111.414419642752
20
-1.7179465244206
30
0
41
1
10
111.54462562872
20
-0.849650159995576
30
0
41
1
10
111.609728621704
20
-0.420952552452064
30
0
41
1
10
111.739934607672
20
0.42094649077913
30
0
41
1
10
111.805037600657
20
0.84964396018492
30
0
41
1
10
111.935243586625
20
1.71794022076421
30
0
41
1
10
112.000346579609
20
2.15753630828519
30
0
41
1
10
112.130552565577
20
3.04205128052936
30
0
41
1
10
112.195655558561
20
3.48696455138435
30
0
41
1
10
112.325861544529
20
4.37567463918987
30
0
41
1
10
112.390964537513
20
4.81946281421006
30
0
41
1
10
112.521170523481
20
5.69883665240462
30
0
41
1
10
112.586273516465
20
6.13441104903228
30
0
41
1
10
112.716479502433
20
6.98992514620622
30
0
41
1
10
112.781582495417
20
7.40985183771227
30
0
41
1
10
112.911788481385
20
8.22666024912047
30
0
41
1
10
112.976891474369
20
8.62352849999832
30
0
41
1
10
113.107097460337
20
9.3872341612886
30
0
41
1
10
113.172200453321
20
9.75405913457783
30
0
41
1
10
113.302406439289
20
10.4515112792305
30
0
41
1
10
113.367509432273
20
10.7821284791866
30
0
41
1
10
113.497715418241
20
11.4021585545084
30
0
41
1
10
113.562818411225
20
11.6915650248971
30
0
41
1
10
113.693024397193
20
12.2255770622723
30
0
41
1
10
113.758127390177
20
12.470180353666
30
0
41
1
10
113.888333376145
20
12.9125312266902
30
0
41
1
10
113.953436369129
20
13.1102806098626
30
0
41
1
10
114.083642355097
20
13.4584169597704
30
0
41
1
10
114.148745348081
20
13.6088092014498
30
0
41
1
10
114.278951334049
20
13.8631637014022
30
0
41
1
10
114.344054327033
20
13.9671337262441
30
0
41
1
10
114.474260313001
20
14.1308156540188
30
0
41
1
10
114.539363305985
20
14.1905366783217
30
0
41
1
10
114.669569291953
20
14.2688740950039
30
0
41
1
10
114.734672284938
20
14.2874998809369
30
0
41
1
10
114.799775277921
20
14.2874999999994
30
0
0
SPLINE
5
FB
100
AcDbEntity
8
1
62
256
6
ByLayer
370
13
48
1
60
0
100
AcDbSpline
70
4
71
3
72
22
73
18
40
0
40
0
40
0
40
0
40
0.125
40
0.125
40
0.25
40
0.25
40
0.375
40
0.375
40
0.5
40
0.5
40
0.625
40
0.625
40
0.75
40
0.75
40
0.875
40
0.875
40
1
40
1
40
1
40
1
41
1
10
112.450117125898
20
14.2875
30
0
41
1
10
112.548019548899
20
14.2875
30
0
41
1
10
112.6459219719
20
14.2453040793611
30
0
41
1
10
112.841726817902
20
14.0640190458132
30
0
41
1
10
112.939629240903
20
13.9248582451666
30
0
41
1
10
113.135434086905
20
13.541297052534
30
0
41
1
10
113.233336509906
20
13.2968375752343
30
0
41
1
10
113.429141355908
20
12.7006549634225
30
0
41
1
10
113.527043778909
20
12.3489045067638
30
0
41
1
10
113.722848624911
20
11.5438073151199
30
0
41
1
10
113.820751047912
20
11.090478595262
30
0
41
1
10
114.016555893914
20
10.0957661438025
30
0
41
1
10
114.114458316915
20
9.55444633345431
30
0
41
1
10
114.310263162917
20
8.4039248548691
30
0
41
1
10
114.408165585918
20
7.79481847353426
30
0
41
1
10
114.60397043192
20
6.53307112973243
30
0
41
1
10
114.701872854921
20
5.88053260174183
30
0
41
1
10
114.799775277922
20
5.21895526031514
30
0
0
SPLINE
5
FC
100
AcDbEntity
8
1
62
256
6
ByLayer
370
13
48
1
60
0
100
AcDbSpline
70
4
71
3
72
22
73
18
40
0
40
0
40
0
40
0
40
0.125
40
0.125
40
0.25
40
0.25
40
0.375
40
0.375
40
0.5
40
0.5
40
0.625
40
0.625
40
0.75
40
0.75
40
0.875
40
0.875
40
1
40
1
40
1
40
1
41
1
10
102.3
20
8.35544996666079
30
0
41
1
10
102.377763355042
20
8.83021333989407
30
0
41
1
10
102.455526710084
20
9.28622776690307
30
0
41
1
10
102.611053420167
20
10.1495810563961
30
0
41
1
10
102.688816775209
20
10.5568932060914
30
0
41
1
10
102.844343485293
20
11.3137271541437
30
0
41
1
10
102.922106840335
20
11.6632318309847
30
0
41
1
10
103.077633550419
20
12.2981357052946
30
0
41
1
10
103.155396905461
20
12.5835296488615
30
0
41
1
10
103.310923615544
20
13.0870387759948
30
0
41
1
10
103.388686970586
20
13.3051603475128
30
0
41
1
10
103.54421368067
20
13.6740730448661
30
0
41
1
10
103.621977035712
20
13.8248797908789
30
0
41
1
10
103.777503745796
20
14.0618915385912
30
0
41
1
10
103.855267100838
20
14.1481177111912
30
0
41
1
10
104.010793810921
20
14.2609105159824
30
0
41
1
10
104.088557165963
20
14.2875
30
0
41
1
10
104.166320521005
20
14.2875
30
0
0
SPLINE
5
FD
100
AcDbEntity
8
1
62
256
6
ByLayer
370
13
48
1
60
0
100
AcDbSpline
70
4
71
3
72
145
73
141
40
0
40
0
40
0
40
0
40
0.015625
40
0.015625
40
0.0312499999999999
40
0.0312499999999999
40
0.0468749999999999
40
0.0468749999999999
40
0.0624999999999998
40
0.0624999999999998
40
0.0781249999999998
40
0.0781249999999998
40
0.0937499999999997
40
0.0937499999999997
40
0.109375
40
0.109375
40
0.125
40
0.125
40
0.140625
40
0.140625
40
0.15625
40
0.15625
40
0.171875
40
0.171875
40
0.187499999999999
40
0.187499999999999
40
0.203124999999999
40
0.203124999999999
40
0.218749999999999
40
0.218749999999999
40
0.222656249999999
40
0.222656249999999
40
0.226562499999999
40
0.234374999999999
40
0.234374999999999
40
0.249999999999999
40
0.249999999999999
40
0.265624999999999
40
0.265624999999999
40
0.281249999999999
40
0.281249999999999
40
0.296874999999999
40
0.296874999999999
40
0.312499999999999
40
0.312499999999999
40
0.328124999999999
40
0.328124999999999
40
0.343749999999999
40
0.343749999999999
40
0.359374999999999
40
0.359374999999999
40
0.374999999999998
40
0.374999999999998
40
0.390624999999998
40
0.390624999999998
40
0.406249999999998
40
0.406249999999998
40
0.421874999999998
40
0.421874999999998
40
0.437499999999998
40
0.437499999999998
40
0.453124999999998
40
0.453124999999998
40
0.468749999999998
40
0.468749999999998
40
0.476562499999998
40
0.476562499999998
40
0.480468749999998
40
0.480468749999998
40
0.484374999999998
40
0.484374999999998
40
0.499999999999998
40
0.499999999999998
40
0.515624999999998
40
0.515624999999998
40
0.531249999999998
40
0.531249999999998
40
0.546874999999998
40
0.546874999999998
40
0.562499999999998
40
0.562499999999998
40
0.578124999999998
40
0.578124999999998
40
0.593749999999998
40
0.593749999999998
40
0.609374999999998
40
0.609374999999998
40
0.624999999999998
40
0.624999999999998
40
0.640624999999998
40
0.640624999999998
40
0.656249999999999
40
0.656249999999999
40
0.671874999999999
40
0.671874999999999
40
0.687499999999999
40
0.687499999999999
40
0.703124999999999
40
0.703124999999999
40
0.718749999999999
40
0.718749999999999
40
0.734374999999999
40
0.734374999999999
40
0.738281249999999
40
0.738281249999999
40
0.742187499999999
40
0.742187499999999
40
0.749999999999999
40
0.749999999999999
40
0.765624999999999
40
0.765624999999999
40
0.781249999999999
40
0.781249999999999
40
0.796874999999999
40
0.796874999999999
40
0.812499999999999
40
0.812499999999999
40
0.828124999999999
40
0.828124999999999
40
0.843749999999999
40
0.843749999999999
40
0.859374999999999
40
0.859374999999999
40
0.874999999999999
40
0.874999999999999
40
0.890625
40
0.890625
40
0.90625
40
0.90625
40
0.921875
40
0.921875
40
0.9375
40
0.9375
40
0.953125
40
0.953125
40
0.96875
40
0.96875
40
0.984375
40
0.984375
40
1
40
1
40
1
40
1
41
1
10
102.3
20
13.9173483021722
30
0
41
1
10
102.362585609489
20
13.8182412370003
30
0
41
1
10
102.425171218978
20
13.6981463172866
30
0
41
1
10
102.550342437957
20
13.4145383065886
30
0
41
1
10
102.612928047446
20
13.2510196160737
30
0
41
1
10
102.738099266424
20
12.8802464449556
30
0
41
1
10
102.800684875913
20
12.6729886809682
30
0
41
1
10
102.925856094891
20
12.2156951535788
30
0
41
1
10
102.988441704381
20
11.9656590748426
30
0
41
1
10
103.113612923359
20
11.4250983883013
30
0
41
1
10
103.176198532848
20
11.134576753935
30
0
41
1
10
103.301369751826
20
10.5166271021903
30
0
41
1
10
103.363955361315
20
10.1892052377484
30
0
41
1
10
103.489126580294
20
9.50219218191921
30
0
41
1
10
103.551712189783
20
9.14260976946778
30
0
41
1
10
103.676883408761
20
8.39694103590963
30
0
41
1
10
103.73946901825
20
8.0108652041971
30
0
41
1
10
103.864640237229
20
7.21851052866975
30
0
41
1
10
103.927225846718
20
6.8122427679464
30
0
41
1
10
104.052397065696
20
5.98611255877836
30
0
41
1
10
104.114982675185
20
5.56626066639132
30
0
41
1
10
104.240153894163
20
4.71954907020475
30
0
41
1
10
104.302739503652
20
4.29269845303961
30
0
41
1
10
104.427910722631
20
3.43825675391284
30
0
41
1
10
104.49049633212
20
3.01067265022843
30
0
41
1
10
104.615667551098
20
2.16046864693701
30
0
41
1
10
104.678253160587
20
1.7378533293508
30
0
41
1
10
104.803424379565
20
0.902554688135041
30
0
41
1
10
104.866009989055
20
0.489873587682297
30
0
41
1
10
104.944242000916
20
-0.0171895083578022
30
0
41
1
10
104.959888403289
20
-0.118273442749938
30
0
41
1
10
104.991181208033
20
-0.321866439825499
30
0
41
1
10
105.03812041515
20
-0.628527944155138
30
0
41
1
10
105.085059622267
20
-0.938737322184863
30
0
41
1
10
105.1789380365
20
-1.56309563244136
30
0
41
1
10
105.24152364599
20
-1.984612374291
30
0
41
1
10
105.366694864968
20
-2.83335405090099
30
0
41
1
10
105.429280474457
20
-3.26057473937121
30
0
41
1
10
105.554451693435
20
-4.11511782984351
30
0
41
1
10
105.617037302924
20
-4.54243357639575
30
0
41
1
10
105.742208521903
20
-5.39096870215445
30
0
41
1
10
105.804794131392
20
-5.81217925658424
30
0
41
1
10
105.92996535037
20
-6.64194779932015
30
0
41
1
10
105.992550959859
20
-7.05049538484181
30
0
41
1
10
106.117722178837
20
-7.84831474068932
30
0
41
1
10
106.180307788327
20
-8.23757543636879
30
0
41
1
10
106.305479007305
20
-8.99045668182521
30
0
41
1
10
106.368064616794
20
-9.35406659106147
30
0
41
1
10
106.493235835772
20
-10.049871017514
30
0
41
1
10
106.555821445261
20
-10.3820564575798
30
0
41
1
10
106.68099266424
20
-11.0101258872456
30
0
41
1
10
106.743578273729
20
-11.306003317463
30
0
41
1
10
106.868749492707
20
-11.8576978726694
30
0
41
1
10
106.931335102196
20
-12.1135115667221
30
0
41
1
10
107.056506321175
20
-12.5825988469673
30
0
41
1
10
107.119091930664
20
-12.7958723028466
30
0
41
1
10
107.244263149642
20
-13.1787320116309
30
0
41
1
10
107.306848759131
20
-13.3483211694429
30
0
41
1
10
107.432019978109
20
-13.6439548515757
30
0
41
1
10
107.494605587599
20
-13.7700047018141
30
0
41
1
10
107.619776806577
20
-13.9798658729617
30
0
41
1
10
107.682362416066
20
-14.0636841223013
30
0
41
1
10
107.807533635044
20
-14.1913646001843
30
0
41
1
10
107.870119244533
20
-14.2352344947381
30
0
41
1
10
107.963997658767
20
-14.2733498023062
30
0
41
1
10
107.995290463512
20
-14.2814451378943
30
0
41
1
10
108.042229670629
20
-14.2869958357637
30
0
41
1
10
108.057876073001
20
-14.2877486488052
30
0
41
1
10
108.089168877745
20
-14.2871088825016
30
0
41
1
10
108.104815280118
20
-14.2857101910685
30
0
41
1
10
108.183047291979
20
-14.2731832843871
30
0
41
1
10
108.245632901468
20
-14.2454342897305
30
0
41
1
10
108.370804120447
20
-14.1512098534606
30
0
41
1
10
108.433389729936
20
-14.0847266765627
30
0
41
1
10
108.558560948914
20
-13.91040124286
30
0
41
1
10
108.621146558403
20
-13.8025516403551
30
0
41
1
10
108.746317777381
20
-13.5437435925418
30
0
41
1
10
108.80890338687
20
-13.3927790328473
30
0
41
1
10
108.934074605848
20
-13.0470794503254
30
0
41
1
10
108.996660215338
20
-12.8523404013066
30
0
41
1
10
109.121831434316
20
-12.4196737640626
30
0
41
1
10
109.184417043805
20
-12.1817449584417
30
0
41
1
10
109.309588262784
20
-11.6646055319786
30
0
41
1
10
109.372173872273
20
-11.3853969314498
30
0
41
1
10
109.497345091251
20
-10.7889187168707
30
0
41
1
10
109.55993070074
20
-10.4716543806709
30
0
41
1
10
109.685101919718
20
-9.80348974357892
30
0
41
1
10
109.747687529207
20
-9.45259754787628
30
0
41
1
10
109.872858748186
20
-8.72260363393715
30
0
41
1
10
109.935444357675
20
-8.34351202300962
30
0
41
1
10
110.060615576653
20
-7.5632703768708
30
0
41
1
10
110.123201186142
20
-7.1621313725563
30
0
41
1
10
110.248372405121
20
-6.34434925174995
30
0
41
1
10
110.31095801461
20
-5.92771694989801
30
0
41
1
10
110.436129233588
20
-5.08557366119695
30
0
41
1
10
110.498714843077
20
-4.66007226321489
30
0
41
1
10
110.623886062056
20
-3.80657753136271
30
0
41
1
10
110.686471671545
20
-3.37859182612513
30
0
41
1
10
110.811642890523
20
-2.52601572526413
30
0
41
1
10
110.874228500012
20
-2.10143060906012
30
0
41
1
10
110.99939971899
20
-1.26084862104201
30
0
41
1
10
111.061985328479
20
-0.844854629589861
30
0
41
1
10
111.140217340341
20
-0.332964997346778
30
0
41
1
10
111.155863742713
20
-0.230990130211751
30
0
41
1
10
111.187156547458
20
-0.0279063968669391
30
0
41
1
10
111.20280294983
20
0.0730609017500115
30
0
41
1
10
111.249742156947
20
0.378070392265755
30
0
41
1
10
111.281034961691
20
0.583126388851014
30
0
41
1
10
111.374913375925
20
1.20269838187522
30
0
41
1
10
111.437498985414
20
1.62164429820035
30
0
41
1
10
111.562670204393
20
2.46671996618284
30
0
41
1
10
111.625255813882
20
2.8928461611801
30
0
41
1
10
111.75042703286
20
3.74687920249622
30
0
41
1
10
111.813012642349
20
4.17478007567166
30
0
41
1
10
111.938183861327
20
5.02631330035049
30
0
41
1
10
112.000769470816
20
5.44993740488033
30
0
41
1
10
112.125940689795
20
6.28643611989648
30
0
41
1
10
112.188526299284
20
6.69930070028383
30
0
41
1
10
112.313697518262
20
7.50764401980834
30
0
41
1
10
112.376283127751
20
7.90311176989232
30
0
41
1
10
112.50145434673
20
8.67018851121523
30
0
41
1
10
112.564039956219
20
9.04178661897942
30
0
41
1
10
112.689211175197
20
9.75514700114431
30
0
41
1
10
112.751796784686
20
10.0968996404997
30
0
41
1
10
112.876968003665
20
10.7454000797307
30
0
41
1
10
112.939553613154
20
11.0521405171267
30
0
41
1
10
113.064724832132
20
11.6265143680607
30
0
41
1
10
113.127310441621
20
11.8941434146578
30
0
41
1
10
113.252481660599
20
12.3874375248303
30
0
41
1
10
113.315067270088
20
12.6131015193071
30
0
41
1
10
113.440238489067
20
13.0209360796713
30
0
41
1
10
113.502824098556
20
13.2031087288784
30
0
41
1
10
113.627995317534
20
13.5237424754798
30
0
41
1
10
113.690580927023
20
13.6622082814436
30
0
41
1
10
113.815752146002
20
13.8964172955404
30
0
41
1
10
113.878337755491
20
13.9921670612842
30
0
41
1
10
114.003508974469
20
14.1429678395656
30
0
41
1
10
114.066094583958
20
14.1980263918362
30
0
41
1
10
114.191265802936
20
14.2702886180843
30
0
41
1
10
114.253851412426
20
14.2875
30
0
41
1
10
114.316437021915
20
14.2875
30
0
0
SPLINE
5
FE
100
AcDbEntity
8
1
62
256
6
ByLayer
370
13
48
1
60
0
100
AcDbSpline
70
4
71
3
72
38
73
34
40
0
40
0
40
0
40
0
40
0.0625
40
0.0625
40
0.125
40
0.125
40
0.1875
40
0.1875
40
0.25
40
0.25
40
0.3125
40
0.3125
40
0.375
40
0.375
40
0.4375
40
0.4375
40
0.5
40
0.5
40
0.5625
40
0.5625
40
0.625
40
0.625
40
0.6875
40
0.6875
40
0.75
40
0.75
40
0.8125
40
0.8125
40
0.875
40
0.875
40
0.9375
40
0.9375
40
1
40
1
40
1
40
1
41
1
10
111.966778244903
20
14.2875
30
0
41
1
10
112.025799016424
20
14.2875
30
0
41
1
10
112.084819787945
20
14.2721954941317
30
0
41
1
10
112.202861330988
20
14.2081002433318
30
0
41
1
10
112.261882102509
20
14.1593037558627
30
0
41
1
10
112.379923645551
20
14.0257903695722
30
0
41
1
10
112.438944417073
20
13.9410678007567
30
0
41
1
10
112.556985960115
20
13.733894895845
30
0
41
1
10
112.616006731636
20
13.611439494186
30
0
41
1
10
112.734048274679
20
13.3277835755159
30
0
41
1
10
112.7930690462
20
13.1665791738992
30
0
41
1
10
112.911110589242
20
12.8053344296307
30
0
41
1
10
112.970131360764
20
12.6052919227351
30
0
41
1
10
113.088172903806
20
12.1672994241467
30
0
41
1
10
113.147193675327
20
11.929349396973
30
0
41
1
10
113.26523521837
20
11.4175240142077
30
0
41
1
10
113.324255989891
20
11.1436509434766
30
0
41
1
10
113.442297532933
20
10.5629820918768
30
0
41
1
10
113.501318304455
20
10.2561908357305
30
0
41
1
10
113.619359847497
20
9.61360595713074
30
0
41
1
10
113.678380619018
20
9.27781873968684
30
0
41
1
10
113.796422162061
20
8.58191439926546
30
0
41
1
10
113.855442933582
20
8.22180496999761
30
0
41
1
10
113.973484476624
20
7.48246680460429
30
0
41
1
10
114.032505248146
20
7.10324631954805
30
0
41
1
10
114.150546791188
20
6.33119266822806
30
0
41
1
10
114.209567562709
20
5.93836755517088
30
0
41
1
10
114.327609105752
20
5.14465981771511
30
0
41
1
10
114.386629877273
20
4.74378438184419
30
0
41
1
10
114.504671420315
20
3.93934861052935
30
0
41
1
10
114.563692191837
20
3.53579410515218
30
0
41
1
10
114.681733734879
20
2.73099323063016
30
0
41
1
10
114.7407545064
20
2.32975105522155
30
0
41
1
10
114.799775277922
20
1.93189406105765
30
0
0
SPLINE
5
FF
100
AcDbEntity
8
1
62
256
6
ByLayer
370
13
48
1
60
0
100
AcDbSpline
70
4
71
3
72
20
73
16
40
0
40
0
40
0
40
0
40
0.125
40
0.125
40
0.25
40
0.25
40
0.375
40
0.375
40
0.5
40
0.5
40
0.625
40
0.625
40
0.75
40
0.75
40
1
40
1
40
1
40
1
41
1
10
102.3
20
11.0164155640553
30
0
41
1
10
102.357624235
20
11.2937506454077
30
0
41
1
10
102.415248470001
20
11.5550896327694
30
0
41
1
10
102.530496940001
20
12.0431477030737
30
0
41
1
10
102.588121175002
20
12.2698651017539
30
0
41
1
10
102.703369645003
20
12.6869815835646
30
0
41
1
10
102.760993880003
20
12.8773809822566
30
0
41
1
10
102.876242350004
20
13.2211200870181
30
0
41
1
10
102.933866585004
20
13.3744619164649
30
0
41
1
10
103.049115055005
20
13.6442640134689
30
0
41
1
10
103.106739290006
20
13.760727849176
30
0
41
1
10
103.221987760006
20
13.9577846740569
30
0
41
1
10
103.279611995007
20
14.0383822131742
30
0
41
1
10
103.452484700008
20
14.2289480507502
30
0
41
1
10
103.567733170009
20
14.2875
30
0
41
1
10
103.682981640009
20
14.2875
30
0
0
SPLINE
5
100
100
AcDbEntity
8
1
62
256
6
ByLayer
370
13
48
1
60
0
100
AcDbSpline
70
4
71
3
72
146
73
142
40
0
40
0
40
0
40
0
40
0.0156249999999994
40
0.0156249999999994
40
0.0312499999999988
40
0.0312499999999988
40
0.0468749999999982
40
0.0468749999999982
40
0.0624999999999976
40
0.0624999999999976
40
0.0781249999999971
40
0.0781249999999971
40
0.0937499999999965
40
0.0937499999999965
40
0.109374999999996
40
0.109374999999996
40
0.124999999999995
40
0.124999999999995
40
0.140624999999995
40
0.140624999999995
40
0.156249999999994
40
0.156249999999994
40
0.171874999999994
40
0.171874999999994
40
0.179687499999993
40
0.179687499999993
40
0.183593749999993
40
0.183593749999993
40
0.187499999999993
40
0.187499999999993
40
0.203124999999993
40
0.203124999999993
40
0.218749999999993
40
0.218749999999993
40
0.234374999999993
40
0.234374999999993
40
0.249999999999993
40
0.249999999999993
40
0.265624999999994
40
0.265624999999994
40
0.281249999999994
40
0.281249999999994
40
0.296874999999994
40
0.296874999999994
40
0.312499999999994
40
0.312499999999994
40
0.328124999999994
40
0.328124999999994
40
0.343749999999994
40
0.343749999999994
40
0.359374999999994
40
0.359374999999994
40
0.374999999999994
40
0.374999999999994
40
0.390624999999994
40
0.390624999999994
40
0.406249999999994
40
0.406249999999994
40
0.421874999999994
40
0.421874999999994
40
0.437499999999994
40
0.437499999999994
40
0.453124999999995
40
0.453124999999995
40
0.457031249999995
40
0.457031249999995
40
0.460937499999995
40
0.460937499999995
40
0.468749999999995
40
0.468749999999995
40
0.484374999999995
40
0.484374999999995
40
0.499999999999995
40
0.499999999999995
40
0.515624999999995
40
0.515624999999995
40
0.531249999999995
40
0.531249999999995
40
0.546874999999996
40
0.546874999999996
40
0.562499999999996
40
0.562499999999996
40
0.578124999999996
40
0.578124999999996
40
0.593749999999996
40
0.593749999999996
40
0.609374999999996
40
0.609374999999996
40
0.624999999999997
40
0.624999999999997
40
0.640624999999997
40
0.640624999999997
40
0.656249999999997
40
0.656249999999997
40
0.671874999999997
40
0.671874999999997
40
0.687499999999997
40
0.687499999999997
40
0.703124999999998
40
0.703124999999998
40
0.718749999999998
40
0.718749999999998
40
0.726562499999998
40
0.726562499999998
40
0.730468749999998
40
0.730468749999998
40
0.734374999999998
40
0.734374999999998
40
0.749999999999998
40
0.749999999999998
40
0.765624999999998
40
0.765624999999998
40
0.781249999999998
40
0.781249999999998
40
0.796874999999998
40
0.796874999999998
40
0.812499999999998
40
0.812499999999998
40
0.828124999999998
40
0.828124999999998
40
0.843749999999998
40
0.843749999999998
40
0.859374999999998
40
0.859374999999998
40
0.874999999999999
40
0.874999999999999
40
0.890624999999999
40
0.890624999999999
40
0.906249999999999
40
0.906249999999999
40
0.921874999999999
40
0.921874999999999
40
0.937499999999999
40
0.937499999999999
40
0.953125
40
0.953125
40
0.96875
40
0.96875
40
0.984375
40
0.984375
40
1
40
1
40
1
40
1
41
1
10
102.3
20
12.7247027880077
30
0
41
1
10
102.360068219484
20
12.5228118734302
30
0
41
1
10
102.420136438968
20
12.3009583113467
30
0
41
1
10
102.540272877936
20
11.8188271962972
30
0
41
1
10
102.60034109742
20
11.5585508052677
30
0
41
1
10
102.720477536388
20
11.0021955288975
30
0
41
1
10
102.780545755872
20
10.7061203792913
30
0
41
1
10
102.90068219484
20
10.0818384675924
30
0
41
1
10
102.960750414323
20
9.75363776499427
30
0
41
1
10
103.080886853291
20
9.06967679305677
30
0
41
1
10
103.140955072775
20
8.71392435580614
30
0
41
1
10
103.261091511743
20
7.98012233636197
30
0
41
1
10
103.321159731227
20
7.60208159108558
30
0
41
1
10
103.441296170195
20
6.82940256515005
30
0
41
1
10
103.501364389679
20
6.43477326819649
30
0
41
1
10
103.621500828647
20
5.63478325350397
30
0
41
1
10
103.681569048131
20
5.2294308550893
30
0
41
1
10
103.801705487099
20
4.41376464692939
30
0
41
1
10
103.861773706583
20
4.0034578437083
30
0
41
1
10
103.981910145551
20
3.18332450480989
30
0
41
1
10
104.041978365035
20
2.773503248785
30
0
41
1
10
104.162114804002
20
1.95926867997969
30
0
41
1
10
104.222183023486
20
1.55485875934105
30
0
41
1
10
104.312285352712
20
0.955512235343974
30
0
41
1
10
104.342319462454
20
0.756936113260764
30
0
41
1
10
104.387370627067
20
0.461232098064556
30
0
41
1
10
104.402387681938
20
0.363023765872214
30
0
41
1
10
104.43242179168
20
0.167380666635438
30
0
41
1
10
104.447438846551
20
0.0700771294274887
30
0
41
1
10
104.522524120906
20
-0.415796962261965
30
0
41
1
10
104.58259234039
20
-0.811049515735562
30
0
41
1
10
104.702728779358
20
-1.61106548389108
30
0
41
1
10
104.762796998842
20
-2.01582724773419
30
0
41
1
10
104.88293343781
20
-2.83055006445829
30
0
41
1
10
104.943001657294
20
-3.24050763732964
30
0
41
1
10
105.063138096262
20
-4.06067093474198
30
0
41
1
10
105.123206315746
20
-4.47087129386193
30
0
41
1
10
105.243342754714
20
-5.2860621258215
30
0
41
1
10
105.303410974198
20
-5.6910455199565
30
0
41
1
10
105.423547413166
20
-6.49002506453431
30
0
41
1
10
105.48361563265
20
-6.88401284878128
30
0
41
1
10
105.603752071618
20
-7.65513808409668
30
0
41
1
10
105.663820291101
20
-8.03226653944904
30
0
41
1
10
105.783956730069
20
-8.76398749724478
30
0
41
1
10
105.844024949553
20
-9.11857119064106
30
0
41
1
10
105.964161388521
20
-9.79996483981219
30
0
41
1
10
106.024229608005
20
-10.126767030136
30
0
41
1
10
106.144366046973
20
-10.7480596639772
30
0
41
1
10
106.204434266457
20
-11.0425441459182
30
0
41
1
10
106.324570705425
20
-11.5955718470333
30
0
41
1
10
106.384638924909
20
-11.8541114471197
30
0
41
1
10
106.504775363877
20
-12.332673914095
30
0
41
1
10
106.564843583361
20
-12.5526957393454
30
0
41
1
10
106.684980022329
20
-12.9527717487328
30
0
41
1
10
106.745048241812
20
-13.1328273796865
30
0
41
1
10
106.865184680781
20
-13.4526379308386
30
0
41
1
10
106.925252900264
20
-13.5923964155481
30
0
41
1
10
107.045389339232
20
-13.8323205924495
30
0
41
1
10
107.105457558716
20
-13.9324914029652
30
0
41
1
10
107.225593997684
20
-14.0948565588729
30
0
41
1
10
107.285662217168
20
-14.1570569286028
30
0
41
1
10
107.405798656136
20
-14.2458362396541
30
0
41
1
10
107.46586687562
20
-14.2724214829162
30
0
41
1
10
107.540952149975
20
-14.2852061785137
30
0
41
1
10
107.555969204846
20
-14.2867418584684
30
0
41
1
10
107.586003314588
20
-14.2878198751783
30
0
41
1
10
107.601020369459
20
-14.287369441166
30
0
41
1
10
107.646071534072
20
-14.283002225342
30
0
41
1
10
107.676105643814
20
-14.2760579981751
30
0
41
1
10
107.76620797304
20
-14.2425534088058
30
0
41
1
10
107.826276192524
20
-14.2033041491995
30
0
41
1
10
107.946412631491
20
-14.0882648499712
30
0
41
1
10
108.006480850976
20
-14.0124685416217
30
0
41
1
10
108.126617289943
20
-13.8222270730252
30
0
41
1
10
108.186685509427
20
-13.7077761427382
30
0
41
1
10
108.306821948395
20
-13.4389196522118
30
0
41
1
10
108.366890167879
20
-13.2845094667621
30
0
41
1
10
108.487026606847
20
-12.9353894701032
30
0
41
1
10
108.547094826331
20
-12.740676808527
30
0
41
1
10
108.667231265299
20
-12.3116821752055
30
0
41
1
10
108.727299484783
20
-12.0773996336268
30
0
41
1
10
108.847435923751
20
-11.571123970161
30
0
41
1
10
108.907504143235
20
-11.2991328353952
30
0
41
1
10
109.027640582203
20
-10.7204066819479
30
0
41
1
10
109.087708801687
20
-10.4136761800998
30
0
41
1
10
109.207845240655
20
-9.76944797242788
30
0
41
1
10
109.267913460139
20
-9.43195696174973
30
0
41
1
10
109.388049899107
20
-8.73102454217744
30
0
41
1
10
109.448118118591
20
-8.36759137504436
30
0
41
1
10
109.568254557558
20
-7.62020482125945
30
0
41
1
10
109.628322777042
20
-7.23626041163806
30
0
41
1
10
109.74845921601
20
-6.45363336006466
30
0
41
1
10
109.808527435494
20
-6.05495957281988
30
0
41
1
10
109.928663874462
20
-5.24873675612895
30
0
41
1
10
109.988732093946
20
-4.84119568883582
30
0
41
1
10
110.108868532914
20
-4.02292718112631
30
0
41
1
10
110.168936752398
20
-3.61220623109537
30
0
41
1
10
110.289073191366
20
-2.79287386951893
30
0
41
1
10
110.34914141085
20
-2.38426714344348
30
0
41
1
10
110.469277849818
20
-1.57389748513719
30
0
41
1
10
110.529346069301
20
-1.17213734950624
30
0
41
1
10
110.619448398527
20
-0.577675187130779
30
0
41
1
10
110.649482508269
20
-0.380878625845753
30
0
41
1
10
110.694533672882
20
-0.0880492818180585
30
0
41
1
10
110.709550727753
20
0.0088956715028985
30
0
41
1
10
110.739584837495
20
0.203684041499145
30
0
41
1
10
110.754601892366
20
0.301479117261124
30
0
41
1
10
110.829687166721
20
0.792327315349695
30
0
41
1
10
110.889755386205
20
1.19102725708655
30
0
41
1
10
111.009891825173
20
1.99664270147625
30
0
41
1
10
111.069960044657
20
2.4035559898
30
0
41
1
10
111.190096483625
20
3.22107237037312
30
0
41
1
10
111.250164703109
20
3.63167137950404
30
0
41
1
10
111.370301142077
20
4.45142986054873
30
0
41
1
10
111.430369361561
20
4.86058339188284
30
0
41
1
10
111.550505800529
20
5.67186861192599
30
0
41
1
10
111.610574020013
20
6.07399275458439
30
0
41
1
10
111.730710458981
20
6.86538746455082
30
0
41
1
10
111.790778678465
20
7.25464938476151
30
0
41
1
10
111.910915117432
20
8.01448359868928
30
0
41
1
10
111.970983336916
20
8.38504686293828
30
0
41
1
10
112.091119775884
20
9.10191152806732
30
0
41
1
10
112.151187995368
20
9.44820436051899
30
0
41
1
10
112.271324434336
20
10.1114870690625
30
0
41
1
10
112.33139265382
20
10.4284696789578
30
0
41
1
10
112.451529092788
20
11.0288627306604
30
0
41
1
10
112.511597312272
20
11.3122679103731
30
0
41
1
10
112.63173375124
20
11.8421992420676
30
0
41
1
10
112.691801970724
20
12.0887225843292
30
0
41
1
10
112.811938409692
20
12.542668277667
30
0
41
1
10
112.872006629176
20
12.7500904024598
30
0
41
1
10
112.992143068144
20
13.1247423312249
30
0
41
1
10
113.052211287628
20
13.2919743065654
30
0
41
1
10
113.172347726596
20
13.5862550559044
30
0
41
1
10
113.232415946079
20
13.7133079556297
30
0
41
1
10
113.352552385047
20
13.9282437312595
30
0
41
1
10
113.412620604531
20
14.0161320846492
30
0
41
1
10
113.532757043499
20
14.1546095012574
30
0
41
1
10
113.592825262983
20
14.205204741793
30
0
41
1
10
113.712961701951
20
14.2716468547709
30
0
41
1
10
113.773029921435
20
14.2875
30
0
41
1
10
113.833098140919
20
14.2875
30
0
0
SPLINE
5
101
100
AcDbEntity
8
1
62
256
6
ByLayer
370
13
48
1
60
0
100
AcDbSpline
70
4
71
3
72
41
73
37
40
0
40
0
40
0
40
0
40
0.0625000000000001
40
0.0625000000000001
40
0.125
40
0.125
40
0.1875
40
0.1875
40
0.25
40
0.25
40
0.312500000000001
40
0.312500000000001
40
0.375000000000001
40
0.375000000000001
40
0.437500000000001
40
0.437500000000001
40
0.500000000000001
40
0.500000000000001
40
0.562500000000001
40
0.562500000000001
40
0.625000000000001
40
0.625000000000001
40
0.687500000000001
40
0.687500000000001
40
0.750000000000001
40
0.750000000000001
40
0.812500000000001
40
0.812500000000001
40
0.875000000000001
40
0.875000000000001
40
0.937500000000001
40
0.937500000000001
40
0.953125000000001
40
0.953125000000001
40
0.968750000000001
40
1
40
1
40
1
40
1
41
1
10
111.483439363907
20
14.2875
30
0
41
1
10
111.552529695449
20
14.2875
30
0
41
1
10
111.621620026991
20
14.2665194476684
30
0
41
1
10
111.759800690075
20
14.1780358040636
30
0
41
1
10
111.828891021617
20
14.1105200602485
30
0
41
1
10
111.967071684701
20
13.9252881735001
30
0
41
1
10
112.036162016243
20
13.8075599024667
30
0
41
1
10
112.174342679327
20
13.5195097192819
30
0
41
1
10
112.243433010869
20
13.3491778652827
30
0
41
1
10
112.381613673953
20
12.9551496270289
30
0
41
1
10
112.450704005495
20
12.7314471874998
30
0
41
1
10
112.588884668579
20
12.231775703247
30
0
41
1
10
112.657975000121
20
11.9558058623478
30
0
41
1
10
112.796155663204
20
11.3546739276098
30
0
41
1
10
112.865245994746
20
11.0295169739624
30
0
41
1
10
113.00342665783
20
10.3349982400832
30
0
41
1
10
113.072516989372
20
9.96564727278911
30
0
41
1
10
113.210697652456
20
9.18939971207783
30
0
41
1
10
113.279787983998
20
8.78251837792004
30
0
41
1
10
113.417968647082
20
7.93914432631695
30
0
41
1
10
113.487058978624
20
7.50266935666784
30
0
41
1
10
113.625239641708
20
6.60881404968504
30
0
41
1
10
113.69432997325
20
6.15145167999901
30
0
41
1
10
113.832510636334
20
5.22475471097482
30
0
41
1
10
113.901600967876
20
4.75543619500152
30
0
41
1
10
114.03978163096
20
3.81346858319824
30
0
41
1
10
114.108871962502
20
3.34083213218625
30
0
41
1
10
114.247052625586
20
2.40014247192715
30
0
41
1
10
114.316142957128
20
1.93209766320126
30
0
41
1
10
114.454323620212
20
1.00745918686735
30
0
41
1
10
114.523413951754
20
0.5508696117559
30
0
41
1
10
114.609776866181
20
-0.0091885384937882
30
0
41
1
10
114.627049449067
20
-0.120730333935484
30
0
41
1
10
114.661594614838
20
-0.345563464831599
30
0
41
1
10
114.713412363494
20
-0.684358573903381
30
0
41
1
10
114.765230112151
20
-1.02742800962881
30
0
41
1
10
114.799775277921
20
-1.25768148680388
30
0
0
SPLINE
5
102
100
AcDbEntity
8
1
62
256
6
ByLayer
370
13
48
1
60
0
100
AcDbSpline
70
4
71
3
72
14
73
10
40
0
40
0
40
0
40
0
40
0.25
40
0.25
40
0.5
40
0.5
40
0.75
40
0.75
40
1
40
1
40
1
40
1
41
1
10
102.3
20
12.9417181035996
30
0
41
1
10
102.374970229918
20
13.1751333614936
30
0
41
1
10
102.449940459836
20
13.3772071885738
30
0
41
1
10
102.599880919671
20
13.7189475808278
30
0
41
1
10
102.674851149589
20
13.8586278218459
30
0
41
1
10
102.824791609425
20
14.0782263113687
30
0
41
1
10
102.899761839343
20
14.1581624078479
30
0
41
1
10
103.049702299178
20
14.2627897336409
30
0
41
1
10
103.124672529096
20
14.2875
30
0
41
1
10
103.199642759014
20
14.2875
30
0
0
SPLINE
5
103
100
AcDbEntity
8
1
62
256
6
ByLayer
370
13
48
1
60
0
100
AcDbSpline
70
4
71
3
72
8
73
4
40
0
40
0
40
0
40
0
40
1
40
1
40
1
40
1
41
1
10
114.799775277922
20
10.0554998149214
30
0
41
1
10
116.533183518614
20
6.7212603875609
30
0
41
1
10
118.266591759307
20
3.36938171602353
30
0
41
1
10
120
20
0
30
0
0
SPLINE
5
104
100
AcDbEntity
8
1
62
256
6
ByLayer
370
13
48
1
60
0
100
AcDbSpline
70
4
71
3
72
8
73
4
40
0
40
0
40
0
40
0
40
1
40
1
40
1
40
1
41
1
10
114.799775277921
20
-6.70028228404246
30
0
41
1
10
116.533183518615
20
-4.44498099718069
30
0
41
1
10
118.266591759307
20
-2.21152346927229
30
0
41
1
10
120
20
3.695E-13
30
0
0
SPLINE
5
105
100
AcDbEntity
8
1
62
256
6
ByLayer
370
13
48
1
60
0
100
AcDbSpline
70
4
71
3
72
8
73
4
40
0
40
0
40
0
40
0
40
1
40
1
40
1
40
1
41
1
10
114.799775277921
20
-4.47992597981471
30
0
41
1
10
116.533183518614
20
-2.96310020665877
30
0
41
1
10
118.266591759307
20
-1.46977146148072
30
0
41
1
10
120
20
-5.68E-14
30
0
0
SPLINE
5
106
100
AcDbEntity
8
1
62
256
6
ByLayer
370
13
48
1
60
0
100
AcDbSpline
70
4
71
3
72
8
73
4
40
0
40
0
40
0
40
0
40
1
40
1
40
1
40
1
41
1
10
114.799775277922
20
8.20297774841379
30
0
41
1
10
116.533183518614
20
5.48892928694502
30
0
41
1
10
118.266591759307
20
2.75456630821722
30
0
41
1
10
120
20
0
30
0
0
SPLINE
5
107
100
AcDbEntity
8
1
62
256
6
ByLayer
370
13
48
1
60
0
100
AcDbSpline
70
4
71
3
72
8
73
4
40
0
40
0
40
0
40
0
40
1
40
1
40
1
40
1
41
1
10
114.799775277922
20
8.59546813260562
30
0
41
1
10
116.533183518614
20
5.71052915467249
30
0
41
1
10
118.266591759307
20
2.84533445946303
30
0
41
1
10
119.999999999999
20
1.0232E-12
30
0
0
SPLINE
5
108
100
AcDbEntity
8
1
62
256
6
ByLayer
370
13
48
1
60
0
100
AcDbSpline
70
4
71
3
72
8
73
4
40
0
40
0
40
0
40
0
40
1
40
1
40
1
40
1
41
1
10
114.799775277921
20
-13.3949379846036
30
0
41
1
10
116.533183518614
20
-8.93857498444333
30
0
41
1
10
118.266591759307
20
-4.47353524580569
30
0
41
1
10
120
20
1.421E-13
30
0
0
SPLINE
5
109
100
AcDbEntity
8
1
62
256
6
ByLayer
370
13
48
1
60
0
100
AcDbSpline
70
4
71
3
72
8
73
4
40
0
40
0
40
0
40
0
40
1
40
1
40
1
40
1
41
1
10
114.799775277921
20
-14.0406425839119
30
0
41
1
10
116.533183518614
20
-9.36501226670228
30
0
41
1
10
118.266591759307
20
-4.68473476958269
30
0
41
1
10
120
20
1.421E-13
30
0
0
SPLINE
5
10A
100
AcDbEntity
8
1
62
256
6
ByLayer
370
13
48
1
60
0
100
AcDbSpline
70
4
71
3
72
8
73
4
40
0
40
0
40
0
40
0
40
1
40
1
40
1
40
1
41
1
10
114.799775277922
20
10.394351875507
30
0
41
1
10
116.533183518615
20
6.91257608554767
30
0
41
1
10
118.266591759308
20
3.44774535580578
30
0
41
1
10
120
20
-5.684E-13
30
0
0
SPLINE
5
10B
100
AcDbEntity
8
1
62
256
6
ByLayer
370
13
48
1
60
0
100
AcDbSpline
70
4
71
3
72
8
73
4
40
0
40
0
40
0
40
0
40
1
40
1
40
1
40
1
41
1
10
114.799775277921
20
-8.72932319029775
30
0
41
1
10
116.533183518614
20
-5.79994276065216
30
0
41
1
10
118.266591759307
20
-2.89012910879012
30
0
41
1
10
120
20
8.53E-14
30
0
0
SPLINE
5
10C
100
AcDbEntity
8
1
62
256
6
ByLayer
370
13
48
1
60
0
100
AcDbSpline
70
4
71
3
72
8
73
4
40
0
40
0
40
0
40
0
40
1
40
1
40
1
40
1
41
1
10
114.799775277922
20
13.3354489252919
30
0
41
1
10
116.533183518614
20
8.89918855155011
30
0
41
1
10
118.266591759307
20
4.45397876623954
30
0
41
1
10
120
20
0
30
0
0
SPLINE
5
10D
100
AcDbEntity
8
1
62
256
6
ByLayer
370
13
48
1
60
0
100
AcDbSpline
70
4
71
3
72
8
73
4
40
0
40
0
40
0
40
0
40
1
40
1
40
1
40
1
41
1
10
114.799775277922
20
14.0085146221548
30
0
41
1
10
116.533183518614
20
9.34388003127836
30
0
41
1
10
118.266591759307
20
4.67431199825583
30
0
41
1
10
120
20
0
30
0
0
SPLINE
5
10E
100
AcDbEntity
8
1
62
256
6
ByLayer
370
13
48
1
60
0
100
AcDbSpline
70
4
71
3
72
8
73
4
40
0
40
0
40
0
40
0
40
1
40
1
40
1
40
1
41
1
10
114.799775277922
20
3.15370373897329
30
0
41
1
10
116.533183518615
20
2.0783139547685
30
0
41
1
10
118.266591759307
20
1.02706527009156
30
0
41
1
10
120
20
1.137E-13
30
0
0
SPLINE
5
10F
100
AcDbEntity
8
1
62
256
6
ByLayer
370
13
48
1
60
0
100
AcDbSpline
70
4
71
3
72
8
73
4
40
0
40
0
40
0
40
0
40
1
40
1
40
1
40
1
41
1
10
114.799775277921
20
-12.3667632470679
30
0
41
1
10
116.533183518614
20
-8.25691158514027
30
0
41
1
10
118.266591759307
20
-4.13460137597983
30
0
41
1
10
120
20
1.137E-13
30
0
0
SPLINE
5
110
100
AcDbEntity
8
1
62
256
6
ByLayer
370
13
48
1
60
0
100
AcDbSpline
70
4
71
3
72
8
73
4
40
0
40
0
40
0
40
0
40
1
40
1
40
1
40
1
41
1
10
114.799775277921
20
-3.31765187652576
30
0
41
1
10
116.533183518615
20
-2.18767879118065
30
0
41
1
10
118.266591759307
20
-1.08177998809984
30
0
41
1
10
120
20
1.137E-13
30
0
0
SPLINE
5
111
100
AcDbEntity
8
1
62
256
6
ByLayer
370
13
48
1
60
0
100
AcDbSpline
70
4
71
3
72
8
73
4
40
0
40
0
40
0
40
0
40
1
40
1
40
1
40
1
41
1
10
114.799775277922
20
0.762384188705113
30
0
41
1
10
116.533183518615
20
0.483525339080302
30
0
41
1
10
118.266591759307
20
0.229393951540857
30
0
41
1
10
120
20
2.84E-14
30
0
0
SPLINE
5
112
100
AcDbEntity
8
1
62
256
6
ByLayer
370
13
48
1
60
0
100
AcDbSpline
70
4
71
3
72
8
73
4
40
0
40
0
40
0
40
0
40
1
40
1
40
1
40
1
41
1
10
114.799775277921
20
-14.2138638144702
30
0
41
1
10
116.533183518614
20
-9.47842039817925
30
0
41
1
10
118.266591759307
20
-4.74040171949915
30
0
41
1
10
120
20
1.421E-13
30
0
0
SPLINE
5
113
100
AcDbEntity
8
1
62
256
6
ByLayer
370
13
48
1
60
0
100
AcDbSpline
70
4
71
3
72
8
73
4
40
0
40
0
40
0
40
0
40
1
40
1
40
1
40
1
41
1
10
114.799775277922
20
12.2816117011816
30
0
41
1
10
116.533183518614
20
8.20039556875142
30
0
41
1
10
118.266591759307
20
4.10646959086745
30
0
41
1
10
120
20
1.421E-13
30
0
0
SPLINE
5
114
100
AcDbEntity
8
1
62
256
6
ByLayer
370
13
48
1
60
0
100
AcDbSpline
70
4
71
3
72
8
73
4
40
0
40
0
40
0
40
0
40
1
40
1
40
1
40
1
41
1
10
114.799775277922
20
-0.445753710336675
30
0
41
1
10
116.533183518615
20
-0.32192315426812
30
0
41
1
10
118.266591759307
20
-0.173336463555813
30
0
41
1
10
120
20
-2.84E-14
30
0
0
SPLINE
5
115
100
AcDbEntity
8
1
62
256
6
ByLayer
370
13
48
1
60
0
100
AcDbSpline
70
4
71
3
72
8
73
4
40
0
40
0
40
0
40
0
40
1
40
1
40
1
40
1
41
1
10
114.799775277921
20
-0.930410127676652
30
0
41
1
10
116.533183518614
20
-0.595559916597438
30
0
41
1
10
118.266591759307
20
-0.285419125355588
30
0
41
1
10
120
20
0
30
0
0
SPLINE
5
116
100
AcDbEntity
8
1
62
256
6
ByLayer
370
13
48
1
60
0
100
AcDbSpline
70
4
71
3
72
8
73
4
40
0
40
0
40
0
40
0
40
1
40
1
40
1
40
1
41
1
10
114.799775277921
20
0.277486070148314
30
0
41
1
10
116.533183518615
20
0.209752112369046
30
0
41
1
10
118.266591759307
20
0.117255393409579
30
0
41
1
10
120
20
0
30
0
0
SPLINE
5
117
100
AcDbEntity
8
1
62
256
6
ByLayer
370
13
48
1
60
0
100
AcDbSpline
70
4
71
3
72
8
73
4
40
0
40
0
40
0
40
0
40
1
40
1
40
1
40
1
41
1
10
114.799775277922
20
5.45497453303517
30
0
41
1
10
116.533183518615
20
3.61375977794251
30
0
41
1
10
118.266591759307
20
1.79541045094214
30
0
41
1
10
120
20
1.705E-13
30
0
0
SPLINE
5
118
100
AcDbEntity
8
1
62
256
6
ByLayer
370
13
48
1
60
0
100
AcDbSpline
70
4
71
3
72
8
73
4
40
0
40
0
40
0
40
0
40
1
40
1
40
1
40
1
41
1
10
114.799775277922
20
14.2815905221216
30
0
41
1
10
116.533183518614
20
9.52177258358699
30
0
41
1
10
118.266591759307
20
4.76117803855044
30
0
41
1
10
120
20
0
30
0
0
SPLINE
5
119
100
AcDbEntity
8
1
62
256
6
ByLayer
370
13
48
1
60
0
100
AcDbSpline
70
4
71
3
72
8
73
4
40
0
40
0
40
0
40
0
40
1
40
1
40
1
40
1
41
1
10
114.799775277922
20
14.2424990919346
30
0
41
1
10
116.533183518615
20
9.49303530014581
30
0
41
1
10
118.266591759307
20
4.74547142008763
30
0
41
1
10
120
20
4.832E-13
30
0
0
SPLINE
5
11A
100
AcDbEntity
8
1
62
256
6
ByLayer
370
13
48
1
60
0
100
AcDbSpline
70
4
71
3
72
8
73
4
40
0
40
0
40
0
40
0
40
1
40
1
40
1
40
1
41
1
10
114.799775277921
20
-5.61016360323782
30
0
41
1
10
116.533183518614
20
-3.71733214254746
30
0
41
1
10
118.266591759307
20
-1.84725242552599
30
0
41
1
10
120
20
-5.68E-14
30
0
0
SPLINE
5
11B
100
AcDbEntity
8
1
62
256
6
ByLayer
370
13
48
1
60
0
100
AcDbSpline
70
4
71
3
72
8
73
4
40
0
40
0
40
0
40
0
40
1
40
1
40
1
40
1
41
1
10
114.799775277921
20
-14.2548593682617
30
0
41
1
10
116.533183518614
20
-9.501566466627
30
0
41
1
10
118.266591759307
20
-4.74988243743977
30
0
41
1
10
120
20
1.421E-13
30
0
0
SPLINE
5
11C
100
AcDbEntity
8
1
62
256
6
ByLayer
370
13
48
1
60
0
100
AcDbSpline
70
4
71
3
72
8
73
4
40
0
40
0
40
0
40
0
40
1
40
1
40
1
40
1
41
1
10
114.799775277921
20
-13.7670150597072
30
0
41
1
10
116.533183518614
20
-9.18463382627905
30
0
41
1
10
118.266591759307
20
-4.59556672795242
30
0
41
1
10
120
20
-4.547E-13
30
0
0
SPLINE
5
11D
100
AcDbEntity
8
1
62
256
6
ByLayer
370
13
48
1
60
0
100
AcDbSpline
70
4
71
3
72
8
73
4
40
0
40
0
40
0
40
0
40
1
40
1
40
1
40
1
41
1
10
114.799775277922
20
-2.84384985445701
30
0
41
1
10
116.533183518614
20
-1.92017041480241
30
0
41
1
10
118.266591759307
20
-0.972207536566231
30
0
41
1
10
119.999999999999
20
-3.411E-13
30
0
0
SPLINE
5
11E
100
AcDbEntity
8
1
62
256
6
ByLayer
370
13
48
1
60
0
100
AcDbSpline
70
4
71
3
72
8
73
4
40
0
40
0
40
0
40
0
40
1
40
1
40
1
40
1
41
1
10
114.799775277922
20
13.7210421703918
30
0
41
1
10
116.533183518614
20
9.15426590984146
30
0
41
1
10
118.266591759307
20
4.58052331389001
30
0
41
1
10
120
20
-5.68E-14
30
0
0
SPLINE
5
11F
100
AcDbEntity
8
1
62
256
6
ByLayer
370
13
48
1
60
0
100
AcDbSpline
70
4
71
3
72
8
73
4
40
0
40
0
40
0
40
0
40
1
40
1
40
1
40
1
41
1
10
114.799775277921
20
2.67870184062977
30
0
41
1
10
116.533183518614
20
1.81012812886649
30
0
41
1
10
118.266591759307
20
0.917215332648169
30
0
41
1
10
120
20
-2.84E-14
30
0
0
SPLINE
5
120
100
AcDbEntity
8
1
62
256
6
ByLayer
370
13
48
1
60
0
100
AcDbSpline
70
4
71
3
72
8
73
4
40
0
40
0
40
0
40
0
40
1
40
1
40
1
40
1
41
1
10
114.799775277921
20
-9.65373550455053
30
0
41
1
10
116.533183518614
20
-6.41756617786689
30
0
41
1
10
118.266591759307
20
-3.19961091547375
30
0
41
1
10
120
20
8.53E-14
30
0
0
SPLINE
5
121
100
AcDbEntity
8
1
62
256
6
ByLayer
370
13
48
1
60
0
100
AcDbSpline
70
4
71
3
72
8
73
4
40
0
40
0
40
0
40
0
40
1
40
1
40
1
40
1
41
1
10
114.799775277922
20
13.5018930692899
30
0
41
1
10
116.533183518614
20
8.99316282908575
30
0
41
1
10
118.266591759307
20
4.49247098883959
30
0
41
1
10
119.999999999999
20
1.62E-12
30
0
0
SPLINE
5
122
100
AcDbEntity
8
1
62
256
6
ByLayer
370
13
48
1
60
0
100
AcDbSpline
70
4
71
3
72
8
73
4
40
0
40
0
40
0
40
0
40
1
40
1
40
1
40
1
41
1
10
114.799775277921
20
-2.13165285277535
30
0
41
1
10
116.533183518614
20
-1.39661302625078
30
0
41
1
10
118.266591759307
20
-0.686052578240691
30
0
41
1
10
120
20
2.84E-14
30
0
0
SPLINE
5
123
100
AcDbEntity
8
1
62
256
6
ByLayer
370
13
48
1
60
0
100
AcDbSpline
70
4
71
3
72
8
73
4
40
0
40
0
40
0
40
0
40
1
40
1
40
1
40
1
41
1
10
114.799775277921
20
-13.5560011230049
30
0
41
1
10
116.533183518614
20
-9.02951114900424
30
0
41
1
10
118.266591759307
20
-4.51078304573977
30
0
41
1
10
120
20
1.421E-13
30
0
0
SPLINE
5
124
100
AcDbEntity
8
1
62
256
6
ByLayer
370
13
48
1
60
0
100
AcDbSpline
70
4
71
3
72
8
73
4
40
0
40
0
40
0
40
0
40
1
40
1
40
1
40
1
41
1
10
114.799775277922
20
-1.65070397194194
30
0
41
1
10
116.533183518615
20
-1.12506953711369
30
0
41
1
10
118.266591759307
20
-0.574827329126521
30
0
41
1
10
120
20
-5.68E-14
30
0
0
SPLINE
5
125
100
AcDbEntity
8
1
62
256
6
ByLayer
370
13
48
1
60
0
100
AcDbSpline
70
4
71
3
72
8
73
4
40
0
40
0
40
0
40
0
40
1
40
1
40
1
40
1
41
1
10
114.799775277922
20
14.195810531121
30
0
41
1
10
116.533183518614
20
9.46667496288046
30
0
41
1
10
118.266591759307
20
4.73467412537636
30
0
41
1
10
120
20
0
30
0
0
SPLINE
5
126
100
AcDbEntity
8
1
62
256
6
ByLayer
370
13
48
1
60
0
100
AcDbSpline
70
4
71
3
72
8
73
4
40
0
40
0
40
0
40
0
40
1
40
1
40
1
40
1
41
1
10
114.799775277922
20
-6.26792508265137
30
0
41
1
10
116.533183518615
20
-4.2008723451014
30
0
41
1
10
118.266591759308
20
-2.1115356340834
30
0
41
1
10
120
20
3.411E-13
30
0
0
SPLINE
5
127
100
AcDbEntity
8
1
62
256
6
ByLayer
370
13
48
1
60
0
100
AcDbSpline
70
4
71
3
72
8
73
4
40
0
40
0
40
0
40
0
40
1
40
1
40
1
40
1
41
1
10
114.799775277921
20
-14.1223405274471
30
0
41
1
10
116.533183518614
20
-9.41113888332822
30
0
41
1
10
118.266591759307
20
-4.70362840773001
30
0
41
1
10
120
20
1.421E-13
30
0
0
SPLINE
5
128
100
AcDbEntity
8
1
62
256
6
ByLayer
370
13
48
1
60
0
100
AcDbSpline
70
4
71
3
72
8
73
4
40
0
40
0
40
0
40
0
40
1
40
1
40
1
40
1
41
1
10
114.799775277921
20
1.48339793230801
30
0
41
1
10
116.533183518614
20
1.01356417920334
30
0
41
1
10
118.266591759307
20
0.519091405005895
30
0
41
1
10
120
20
-2.84E-14
30
0
0
SPLINE
5
129
100
AcDbEntity
8
1
62
256
6
ByLayer
370
13
48
1
60
0
100
AcDbSpline
70
4
71
3
72
8
73
4
40
0
40
0
40
0
40
0
40
1
40
1
40
1
40
1
41
1
10
114.799775277922
20
-4.0166590307376
30
0
41
1
10
116.533183518615
20
-2.7015399270376
30
0
41
1
10
118.266591759307
20
-1.36263537307113
30
0
41
1
10
120
20
-1.421E-13
30
0
0
SPLINE
5
12A
100
AcDbEntity
8
1
62
256
6
ByLayer
370
13
48
1
60
0
100
AcDbSpline
70
4
71
3
72
8
73
4
40
0
40
0
40
0
40
0
40
1
40
1
40
1
40
1
41
1
10
114.799775277921
20
6.11623331843441
30
0
41
1
10
116.533183518614
20
4.09987095507864
30
0
41
1
10
118.266591759307
20
2.06109884857821
30
0
41
1
10
120
20
-5.68E-14
30
0
0
SPLINE
5
12B
100
AcDbEntity
8
1
62
256
6
ByLayer
370
13
48
1
60
0
100
AcDbSpline
70
4
71
3
72
8
73
4
40
0
40
0
40
0
40
0
40
1
40
1
40
1
40
1
41
1
10
114.799775277922
20
14.0958415774662
30
0
41
1
10
116.533183518615
20
9.39318478503915
30
0
41
1
10
118.266591759307
20
4.69450741349871
30
0
41
1
10
120
20
4.832E-13
30
0
0
SPLINE
5
12C
100
AcDbEntity
8
1
62
256
6
ByLayer
370
13
48
1
60
0
100
AcDbSpline
70
4
71
3
72
8
73
4
40
0
40
0
40
0
40
0
40
1
40
1
40
1
40
1
41
1
10
114.799775277922
20
13.8483830348283
30
0
41
1
10
116.533183518615
20
9.22616249597957
30
0
41
1
10
118.266591759307
20
4.6099724298646
30
0
41
1
10
120
20
4.547E-13
30
0
0
SPLINE
5
12D
100
AcDbEntity
8
1
62
256
6
ByLayer
370
13
48
1
60
0
100
AcDbSpline
70
4
71
3
72
8
73
4
40
0
40
0
40
0
40
0
40
1
40
1
40
1
40
1
41
1
10
114.799775277921
20
3.85485003567175
30
0
41
1
10
116.533183518615
20
2.59374763846157
30
0
41
1
10
118.266591759307
20
1.30878014510199
30
0
41
1
10
120
20
-1.137E-13
30
0
0
SPLINE
5
12E
100
AcDbEntity
8
1
62
256
6
ByLayer
370
13
48
1
60
0
100
AcDbSpline
70
4
71
3
72
8
73
4
40
0
40
0
40
0
40
0
40
1
40
1
40
1
40
1
41
1
10
114.799775277922
20
11.8964422175594
30
0
41
1
10
116.533183518615
20
7.91724592263003
30
0
41
1
10
118.266591759307
20
3.95171162744765
30
0
41
1
10
120
20
3.979E-13
30
0
0
SPLINE
5
12F
100
AcDbEntity
8
1
62
256
6
ByLayer
370
13
48
1
60
0
100
AcDbSpline
70
4
71
3
72
8
73
4
40
0
40
0
40
0
40
0
40
1
40
1
40
1
40
1
41
1
10
114.799775277921
20
-10.509112815878
30
0
41
1
10
116.533183518614
20
-6.98929682127877
30
0
41
1
10
118.266591759307
20
-3.48621192655187
30
0
41
1
10
120
20
1.137E-13
30
0
0
SPLINE
5
130
100
AcDbEntity
8
1
62
256
6
ByLayer
370
13
48
1
60
0
100
AcDbSpline
70
4
71
3
72
8
73
4
40
0
40
0
40
0
40
0
40
1
40
1
40
1
40
1
41
1
10
114.799775277921
20
-13.8888311613415
30
0
41
1
10
116.533183518614
20
-9.25341113419887
30
0
41
1
10
118.266591759307
20
-4.62373817566788
30
0
41
1
10
120
20
1.421E-13
30
0
0
SPLINE
5
131
100
AcDbEntity
8
1
62
256
6
ByLayer
370
13
48
1
60
0
100
AcDbSpline
70
4
71
3
72
8
73
4
40
0
40
0
40
0
40
0
40
1
40
1
40
1
40
1
41
1
10
114.799775277922
20
13.0588494715233
30
0
41
1
10
116.533183518615
20
8.69585199249718
30
0
41
1
10
118.266591759307
20
4.34284335710578
30
0
41
1
10
120
20
4.263E-13
30
0
0
SPLINE
5
132
100
AcDbEntity
8
1
62
256
6
ByLayer
370
13
48
1
60
0
100
AcDbSpline
70
4
71
3
72
8
73
4
40
0
40
0
40
0
40
0
40
1
40
1
40
1
40
1
41
1
10
114.799775277921
20
-11.9888322331484
30
0
41
1
10
116.533183518614
20
-7.97908315531942
30
0
41
1
10
118.266591759307
20
-3.9827517707686
30
0
41
1
10
120
20
1.137E-13
30
0
0
SPLINE
5
133
100
AcDbEntity
8
1
62
256
6
ByLayer
370
13
48
1
60
0
100
AcDbSpline
70
4
71
3
72
8
73
4
40
0
40
0
40
0
40
0
40
1
40
1
40
1
40
1
41
1
10
114.799775277921
20
-10.9854761879993
30
0
41
1
10
116.533183518615
20
-7.33948583151107
30
0
41
1
10
118.266591759307
20
-3.67761085209489
30
0
41
1
10
120
20
5.969E-13
30
0
0
SPLINE
5
134
100
AcDbEntity
8
1
62
256
6
ByLayer
370
13
48
1
60
0
100
AcDbSpline
70
4
71
3
72
8
73
4
40
0
40
0
40
0
40
0
40
1
40
1
40
1
40
1
41
1
10
114.799775277922
20
-5.16074460382788
30
0
41
1
10
116.533183518615
20
-3.46359040813948
30
0
41
1
10
118.266591759307
20
-1.7433188430642
30
0
41
1
10
120
20
-1.705E-13
30
0
0
SPLINE
5
135
100
AcDbEntity
8
1
62
256
6
ByLayer
370
13
48
1
60
0
100
AcDbSpline
70
4
71
3
72
8
73
4
40
0
40
0
40
0
40
0
40
1
40
1
40
1
40
1
41
1
10
114.799775277921
20
-13.1262305193565
30
0
41
1
10
116.533183518614
20
-8.74104006298634
30
0
41
1
10
118.266591759307
20
-4.36557077342246
30
0
41
1
10
120
20
1.421E-13
30
0
0
SPLINE
5
136
100
AcDbEntity
8
1
62
256
6
ByLayer
370
13
48
1
60
0
100
AcDbSpline
70
4
71
3
72
8
73
4
40
0
40
0
40
0
40
0
40
1
40
1
40
1
40
1
41
1
10
114.799775277921
20
-9.29051715814973
30
0
41
1
10
116.533183518614
20
-6.21249328752276
30
0
41
1
10
118.266591759307
20
-3.11561227721666
30
0
41
1
10
120
20
8.53E-14
30
0
0
SPLINE
5
137
100
AcDbEntity
8
1
62
256
6
ByLayer
370
13
48
1
60
0
100
AcDbSpline
70
4
71
3
72
8
73
4
40
0
40
0
40
0
40
0
40
1
40
1
40
1
40
1
41
1
10
114.799775277922
20
10.877093516069
30
0
41
1
10
116.533183518614
20
7.26745395231916
30
0
41
1
10
118.266591759307
20
3.64170701769282
30
0
41
1
10
120
20
0
30
0
0
SPLINE
5
138
100
AcDbEntity
8
1
62
256
6
ByLayer
370
13
48
1
60
0
100
AcDbSpline
70
4
71
3
72
8
73
4
40
0
40
0
40
0
40
0
40
1
40
1
40
1
40
1
41
1
10
114.799775277921
20
-14.2854400259011
30
0
41
1
10
116.533183518614
20
-9.52404722576537
30
0
41
1
10
118.266591759307
20
-4.76216949676703
30
0
41
1
10
120
20
1.421E-13
30
0
0
SPLINE
5
139
100
AcDbEntity
8
1
62
256
6
ByLayer
370
13
48
1
60
0
100
AcDbSpline
70
4
71
3
72
8
73
4
40
0
40
0
40
0
40
0
40
1
40
1
40
1
40
1
41
1
10
114.799775277922
20
-7.33028288882008
30
0
41
1
10
116.533183518615
20
-4.90811334770248
30
0
41
1
10
118.266591759307
20
-2.46465258436217
30
0
41
1
10
120
20
-2.558E-13
30
0
0
SPLINE
5
13A
100
AcDbEntity
8
1
62
256
6
ByLayer
370
13
48
1
60
0
100
AcDbSpline
70
4
71
3
72
8
73
4
40
0
40
0
40
0
40
0
40
1
40
1
40
1
40
1
41
1
10
114.799775277922
20
9.16199804680721
30
0
41
1
10
116.533183518614
20
6.12700229583294
30
0
41
1
10
118.266591759307
20
3.07296156770008
30
0
41
1
10
120
20
0
30
0
0
SPLINE
5
13B
100
AcDbEntity
8
1
62
256
6
ByLayer
370
13
48
1
60
0
100
AcDbSpline
70
4
71
3
72
8
73
4
40
0
40
0
40
0
40
0
40
1
40
1
40
1
40
1
41
1
10
114.799775277922
20
7.60048761727595
30
0
41
1
10
116.533183518615
20
5.04602071116938
30
0
41
1
10
118.266591759307
20
2.51249067751405
30
0
41
1
10
120
20
2.558E-13
30
0
0
SPLINE
5
13C
100
AcDbEntity
8
1
62
256
6
ByLayer
370
13
48
1
60
0
100
AcDbSpline
70
4
71
3
72
8
73
4
40
0
40
0
40
0
40
0
40
1
40
1
40
1
40
1
41
1
10
114.799775277921
20
5.00343174276054
30
0
41
1
10
116.533183518614
20
3.35881895231171
30
0
41
1
10
118.266591759307
20
1.69098571614072
30
0
41
1
10
120
20
-5.68E-14
30
0
0
SPLINE
5
13D
100
AcDbEntity
8
1
62
256
6
ByLayer
370
13
48
1
60
0
100
AcDbSpline
70
4
71
3
72
8
73
4
40
0
40
0
40
0
40
0
40
1
40
1
40
1
40
1
41
1
10
114.799775277921
20
7.18529698717771
30
0
41
1
10
116.533183518615
20
4.811604296355
30
0
41
1
10
118.266591759307
20
2.41647281968542
30
0
41
1
10
120
20
-2.274E-13
30
0
0
SPLINE
5
13E
100
AcDbEntity
8
1
62
256
6
ByLayer
370
13
48
1
60
0
100
AcDbSpline
70
4
71
3
72
8
73
4
40
0
40
0
40
0
40
0
40
1
40
1
40
1
40
1
41
1
10
114.799775277922
20
9.52898143999295
30
0
41
1
10
116.533183518615
20
6.33420092964278
30
0
41
1
10
118.266591759307
20
3.15783091859078
30
0
41
1
10
120
20
3.126E-13
30
0
0
SPLINE
5
13F
100
AcDbEntity
8
1
62
256
6
ByLayer
370
13
48
1
60
0
100
AcDbSpline
70
4
71
3
72
8
73
4
40
0
40
0
40
0
40
0
40
1
40
1
40
1
40
1
41
1
10
114.799775277921
20
-7.74248645477365
30
0
41
1
10
116.533183518614
20
-5.14084326764694
30
0
41
1
10
118.266591759307
20
-2.55997964745757
30
0
41
1
10
120
20
8.53E-14
30
0
0
SPLINE
5
140
100
AcDbEntity
8
1
62
256
6
ByLayer
370
13
48
1
60
0
100
AcDbSpline
70
4
71
3
72
8
73
4
40
0
40
0
40
0
40
0
40
1
40
1
40
1
40
1
41
1
10
114.799775277922
20
12.5224204986298
30
0
41
1
10
116.533183518615
20
8.33635609112653
30
0
41
1
10
118.266591759308
20
4.16215953953386
30
0
41
1
10
120
20
-6.821E-13
30
0
0
SPLINE
5
141
100
AcDbEntity
8
1
62
256
6
ByLayer
370
13
48
1
60
0
100
AcDbSpline
70
4
71
3
72
8
73
4
40
0
40
0
40
0
40
0
40
1
40
1
40
1
40
1
41
1
10
114.799775277922
20
11.1853910729428
30
0
41
1
10
116.533183518615
20
7.44151859332825
30
0
41
1
10
118.266591759307
20
3.71300455872313
30
0
41
1
10
120
20
3.695E-13
30
0
0
SPLINE
5
142
100
AcDbEntity
8
1
62
256
6
ByLayer
370
13
48
1
60
0
100
AcDbSpline
70
4
71
3
72
8
73
4
40
0
40
0
40
0
40
0
40
1
40
1
40
1
40
1
41
1
10
114.799775277921
20
-11.7180181836354
30
0
41
1
10
116.533183518614
20
-7.82618168316159
30
0
41
1
10
118.266591759307
20
-3.92012274443942
30
0
41
1
10
120
20
1.137E-13
30
0
0
SPLINE
5
143
100
AcDbEntity
8
1
62
256
6
ByLayer
370
13
48
1
60
0
100
AcDbSpline
70
4
71
3
72
8
73
4
40
0
40
0
40
0
40
0
40
1
40
1
40
1
40
1
41
1
10
114.799775277921
20
-12.9270721257163
30
0
41
1
10
116.533183518614
20
-8.62859533703917
30
0
41
1
10
118.266591759307
20
-4.31951298468772
30
0
41
1
10
120
20
-4.263E-13
30
0
0
SPLINE
5
144
100
AcDbEntity
8
1
62
256
6
ByLayer
370
13
48
1
60
0
100
AcDbSpline
70
4
71
3
72
8
73
4
40
0
40
0
40
0
40
0
40
1
40
1
40
1
40
1
41
1
10
114.799775277922
20
1.96507018835808
30
0
41
1
10
116.533183518615
20
1.28551608561327
30
0
41
1
10
118.266591759307
20
0.630483943393244
30
0
41
1
10
120
20
5.68E-14
30
0
0
SPLINE
5
145
100
AcDbEntity
8
1
62
256
6
ByLayer
370
13
48
1
60
0
100
AcDbSpline
70
4
71
3
72
8
73
4
40
0
40
0
40
0
40
0
40
1
40
1
40
1
40
1
41
1
10
114.799775277921
20
-11.2893382200867
30
0
41
1
10
116.533183518614
20
-7.51104617752208
30
0
41
1
10
118.266591759307
20
-3.74788262433992
30
0
41
1
10
120
20
1.137E-13
30
0
0
SPLINE
5
146
100
AcDbEntity
8
1
62
256
6
ByLayer
370
13
48
1
60
0
100
AcDbSpline
70
4
71
3
72
8
73
4
40
0
40
0
40
0
40
0
40
1
40
1
40
1
40
1
41
1
10
114.799775277922
20
11.6209038366437
30
0
41
1
10
116.533183518614
20
7.76167709540783
30
0
41
1
10
118.266591759307
20
3.88799004230771
30
0
41
1
10
120
20
0
30
0
0
SPLINE
5
147
100
AcDbEntity
8
1
62
256
6
ByLayer
370
13
48
1
60
0
100
AcDbSpline
70
4
71
3
72
8
73
4
40
0
40
0
40
0
40
0
40
1
40
1
40
1
40
1
41
1
10
114.799775277922
20
12.8544923096984
30
0
41
1
10
116.533183518614
20
8.58047204472399
30
0
41
1
10
118.266591759307
20
4.29558329031241
30
0
41
1
10
120
20
-5.68E-14
30
0
0
SPLINE
5
148
100
AcDbEntity
8
1
62
256
6
ByLayer
370
13
48
1
60
0
100
AcDbSpline
70
4
71
3
72
8
73
4
40
0
40
0
40
0
40
0
40
1
40
1
40
1
40
1
41
1
10
114.799775277921
20
-12.6025926907489
30
0
41
1
10
116.533183518614
20
-8.39006076695648
30
0
41
1
10
118.266591759307
20
-4.18913978882824
30
0
41
1
10
120
20
1.137E-13
30
0
0
SPLINE
5
149
100
AcDbEntity
8
1
62
256
6
ByLayer
370
13
48
1
60
0
100
AcDbSpline
70
4
71
3
72
8
73
4
40
0
40
0
40
0
40
0
40
1
40
1
40
1
40
1
41
1
10
114.799775277921
20
-10.1743757545007
30
0
41
1
10
116.533183518614
20
-6.80030444971473
30
0
41
1
10
118.266591759307
20
-3.40879993013598
30
0
41
1
10
120
20
-3.411E-13
30
0
0
SPLINE
5
14A
100
AcDbEntity
8
1
62
256
6
ByLayer
370
13
48
1
60
0
100
AcDbSpline
70
4
71
3
72
8
73
4
40
0
40
0
40
0
40
0
40
1
40
1
40
1
40
1
41
1
10
114.799775277922
20
6.55115511719953
30
0
41
1
10
116.533183518615
20
4.34542757750771
30
0
41
1
10
118.266591759307
20
2.16167977794666
30
0
41
1
10
120
20
2.274E-13
30
0
0
SPLINE
5
14B
100
AcDbEntity
8
1
62
256
6
ByLayer
370
13
48
1
60
0
100
AcDbSpline
70
4
71
3
72
8
73
4
40
0
40
0
40
0
40
0
40
1
40
1
40
1
40
1
41
1
10
114.799775277922
20
4.3197847816248
30
0
41
1
10
116.533183518615
20
2.85624955533547
30
0
41
1
10
118.266591759308
20
1.4163019317227
30
0
41
1
10
120
20
-2.274E-13
30
0
0
SPLINE
5
14C
100
AcDbEntity
8
1
62
256
6
ByLayer
370
13
48
1
60
0
100
AcDbSpline
70
4
71
3
72
8
73
4
40
0
40
0
40
0
40
0
40
1
40
1
40
1
40
1
41
1
10
114.799775277921
20
-8.34022097617307
30
0
41
1
10
116.533183518614
20
-5.58025585199093
30
0
41
1
10
118.266591759307
20
-2.80014451287647
30
0
41
1
10
120
20
8.53E-14
30
0
0
LINE
5
7D
100
AcDbEntity
8
80
62
256
6
ByLayer
370
18
48
1
60
0
100
AcDbLine
10
0
20
0
30
0
11
-5
21
0
31
0
39
0
210
0
220
0
230
1
0
LINE
5
7E
100
AcDbEntity
8
4
62
256
6
ByLayer
370
18
48
0.05
60
0
100
AcDbLine
10
-5
20
0
30
0
11
125
21
0
31
0
39
0
210
0
220
0
230
1
0
LINE
5
80
100
AcDbEntity
8
81
62
256
6
ByLayer
370
18
48
1
60
0
100
AcDbLine
10
120
20
0
30
0
11
125
21
0
31
0
39
0
210
0
220
0
230
1
0
LINE
5
81
100
AcDbEntity
8
SK4
62
256
6
ByLayer
370
18
48
0.05
60
0
100
AcDbLine
10
-65
20
0
30
0
11
125
21
0
31
0
39
0
210
0
220
0
230
1
0
LINE
5
83
100
AcDbEntity
8
1
62
256
6
ByLayer
370
18
48
1
60
0
100
AcDbLine
10
10
20
-13.8
30
0
11
47.01281
21
-13.8
31
0
39
0
210
0
220
0
230
1
0
LINE
5
84
100
AcDbEntity
8
1
62
256
6
ByLayer
370
18
48
1
60
0
100
AcDbLine
10
47.01281
20
13.8
30
0
11
10
21
13.8
31
0
39
0
210
0
220
0
230
1
0
LINE
5
85
100
AcDbEntity
8
1
62
256
6
ByLayer
370
18
48
1
60
0
100
AcDbLine
10
120
20
0
30
0
11
114.799775
21
14.2875
31
0
39
0
210
0
220
0
230
1
0
LINE
5
86
100
AcDbEntity
8
1
62
256
6
ByLayer
370
18
48
1
60
0
100
AcDbLine
10
114.799775
20
-14.2875
30
0
11
120
21
0
31
0
39
0
210
0
220
0
230
1
0
LINE
5
87
100
AcDbEntity
8
1
62
256
6
ByLayer
370
18
48
1
60
0
100
AcDbLine
10
10
20
13.8
30
0
11
0
21
15.875
31
0
39
0
210
0
220
0
230
1
0
LINE
5
88
100
AcDbEntity
8
1
62
256
6
ByLayer
370
18
48
1
60
0
100
AcDbLine
10
0
20
-15.875
30
0
11
10
21
-13.8
31
0
39
0
210
0
220
0
230
1
0
LINE
5
89
100
AcDbEntity
8
1
62
256
6
ByLayer
370
18
48
1
60
0
100
AcDbLine
10
120
20
0
30
0
11
114.799775
21
14.2875
31
0
39
0
210
0
220
0
230
1
0
LINE
5
8A
100
AcDbEntity
8
1
62
256
6
ByLayer
370
18
48
1
60
0
100
AcDbLine
10
114.799775
20
-14.2875
30
0
11
120
21
0
31
0
39
0
210
0
220
0
230
1
0
LINE
5
8B
100
AcDbEntity
8
1
62
256
6
ByLayer
370
18
48
1
60
0
100
AcDbLine
10
114.799775
20
14.2875
30
0
11
102.3
21
14.2875
31
0
39
0
210
0
220
0
230
1
0
LINE
5
8C
100
AcDbEntity
8
1
62
256
6
ByLayer
370
18
48
1
60
0
100
AcDbLine
10
102.3
20
-14.2875
30
0
11
114.799775
21
-14.2875
31
0
39
0
210
0
220
0
230
1
0
LINE
5
8D
100
AcDbEntity
8
SK1
62
256
6
ByLayer
370
18
48
1
60
0
100
AcDbLine
10
-60
20
-14.875
30
0
11
-59
21
-15.875
31
0
39
0
210
0
220
0
230
1
0
LINE
5
8F
100
AcDbEntity
8
SK1
62
256
6
ByLayer
370
18
48
1
60
0
100
AcDbLine
10
-59
20
15.875
30
0
11
-60
21
14.875
31
0
39
0
210
0
220
0
230
1
0
LINE
5
90
100
AcDbEntity
8
SK1
62
256
6
ByLayer
370
18
48
1
60
0
100
AcDbLine
10
-59
20
-15.875
30
0
11
0
21
-15.875
31
0
39
0
210
0
220
0
230
1
0
LINE
5
91
100
AcDbEntity
8
SK1
62
256
6
ByLayer
370
18
48
1
60
0
100
AcDbLine
10
0
20
15.875
30
0
11
-59
21
15.875
31
0
39
0
210
0
220
0
230
1
0
LINE
5
92
100
AcDbEntity
8
1
62
256
6
ByLayer
370
18
48
1
60
0
100
AcDbLine
10
0
20
15.875
30
0
11
0
21
-15.875
31
0
39
0
210
0
220
0
230
1
0
LINE
5
93
100
AcDbEntity
8
1
62
256
6
ByLayer
370
18
48
1
60
0
100
AcDbLine
10
114.799775
20
14.2875
30
0
11
114.799775
21
13.83382
31
0
39
0
210
0
220
0
230
1
0
LINE
5
94
100
AcDbEntity
8
1
62
256
6
ByLayer
370
18
48
1
60
0
100
AcDbLine
10
114.799775
20
-14.2875
30
0
11
114.799775
21
-2.039156
31
0
39
0
210
0
220
0
230
1
0
LINE
5
95
100
AcDbEntity
8
1
62
256
6
ByLayer
370
18
48
1
60
0
100
AcDbLine
10
10
20
-13.8
30
0
11
10
21
-7.770317
31
0
39
0
210
0
220
0
230
1
0
LINE
5
96
100
AcDbEntity
8
1
62
256
6
ByLayer
370
18
48
1
60
0
100
AcDbLine
10
10
20
13.8
30
0
11
10
21
8.093479
31
0
39
0
210
0
220
0
230
1
0
LINE
5
97
100
AcDbEntity
8
SK1
62
256
6
ByLayer
370
18
48
1
60
0
100
AcDbLine
10
-51.368099
20
-7.245688
30
0
11
-51.368099
21
7.245688
31
0
39
0
210
0
220
0
230
1
0
LINE
5
98
100
AcDbEntity
8
SK1
62
256
6
ByLayer
370
18
48
1
60
0
100
AcDbLine
10
-60
20
-14.875
30
0
11
-60
21
14.875
31
0
39
0
210
0
220
0
230
1
0
LINE
5
99
100
AcDbEntity
8
SK1
62
256
6
ByLayer
370
18
48
1
60
0
100
AcDbLine
10
0
20
15.875
30
0
11
0
21
-15.875
31
0
39
0
210
0
220
0
230
1
0
LINE
5
9A
100
AcDbEntity
8
SK1
62
256
6
ByLayer
370
18
48
1
60
0
100
AcDbLine
10
-59
20
-15.875
30
0
11
-59
21
15.875
31
0
39
0
210
0
220
0
230
1
0
LINE
5
9B
100
AcDbEntity
8
SK1
62
256
6
ByLayer
370
18
48
1
60
0
100
AcDbLine
10
-8.876645
20
-7.245688
30
0
11
-51.368099
21
-7.245688
31
0
39
0
210
0
220
0
230
1
0
LINE
5
9C
100
AcDbEntity
8
SK1
62
256
6
ByLayer
370
18
48
1
60
0
100
AcDbLine
10
-51.368099
20
7.245688
30
0
11
-8.876645
21
7.245688
31
0
39
0
210
0
220
0
230
1
0
LINE
5
9D
100
AcDbEntity
8
SK1
62
256
6
ByLayer
370
18
48
1
60
0
100
AcDbLine
10
-8.876645
20
-7.245688
30
0
11
-8.876645
21
7.245688
31
0
39
0
210
0
220
0
230
1
0
LINE
5
9E
100
AcDbEntity
8
1
62
256
6
ByLayer
370
18
48
1
60
0
100
AcDbLine
10
114.799775
20
14.2875
30
0
11
114.799775
21
-14.2875
31
0
39
0
210
0
220
0
230
1
0
LINE
5
9F
100
AcDbEntity
8
1
62
256
6
ByLayer
370
18
48
1
60
0
100
AcDbLine
10
114.799775
20
14.2875
30
0
11
114.799775
21
-14.2875
31
0
39
0
210
0
220
0
230
1
0
LINE
5
A0
100
AcDbEntity
8
1
62
256
6
ByLayer
370
18
48
1
60
0
100
AcDbLine
10
114.799775
20
14.2875
30
0
11
114.799775
21
-14.2875
31
0
39
0
210
0
220
0
230
1
0
LINE
5
A1
100
AcDbEntity
8
1
62
256
6
ByLayer
370
18
48
1
60
0
100
AcDbLine
10
102.3
20
14.2875
30
0
11
102.3
21
-14.2875
31
0
39
0
210
0
220
0
230
1
0
LINE
5
A2
100
AcDbEntity
8
1
62
256
6
ByLayer
370
18
48
1
60
0
100
AcDbLine
10
102.3
20
14.2875
30
0
11
102.3
21
-14.2875
31
0
39
0
210
0
220
0
230
1
0
LINE
5
A3
100
AcDbEntity
8
1
62
256
6
ByLayer
370
18
48
1
60
0
100
AcDbLine
10
114.799775
20
14.2875
30
0
11
114.799775
21
-14.2875
31
0
39
0
210
0
220
0
230
1
0
LINE
5
A4
100
AcDbEntity
8
1
62
256
6
ByLayer
370
18
48
1
60
0
100
AcDbLine
10
102.3
20
14.2875
30
0
11
102.3
21
-14.2875
31
0
39
0
210
0
220
0
230
1
0
LINE
5
A5
100
AcDbEntity
8
1
62
256
6
ByLayer
370
18
48
1
60
0
100
AcDbLine
10
114.799775
20
14.2875
30
0
11
114.799775
21
-14.2875
31
0
39
0
210
0
220
0
230
1
0
LINE
5
A6
100
AcDbEntity
8
SK2
62
256
6
ByLayer
370
13
48
1
60
0
100
AcDbLine
10
-66.5
20
-15.875
30
0
11
-66.5
21
44.149683
31
0
39
0
210
0
220
0
230
1
0
LINE
5
A8
100
AcDbEntity
8
SK2
62
256
6
ByLayer
370
13
48
1
60
0
100
AcDbLine
10
-61.5875
20
15.875
30
0
11
-68.5
21
15.875
31
0
39
0
210
0
220
0
230
1
0
LINE
5
A9
100
AcDbEntity
8
SK2
62
256
6
ByLayer
370
13
48
1
60
0
100
AcDbLine
10
-61.5875
20
-15.875
30
0
11
-68.5
21
-15.875
31
0
39
0
210
0
220
0
230
1
0
LINE
5
AA
100
AcDbEntity
8
1
62
256
6
ByLayer
370
18
48
1
60
1
100
AcDbLine
10
-66.5
20
15.875
30
0
11
-66.039216
21
12.375002
31
0
39
0
210
0
220
0
230
1
0
LINE
5
AB
100
AcDbEntity
8
1
62
256
6
ByLayer
370
18
48
1
60
1
100
AcDbLine
10
-66.039216
20
12.375002
30
0
11
-66.960784
21
12.374998
31
0
39
0
210
0
220
0
230
1
0
LINE
5
AC
100
AcDbEntity
8
1
62
256
6
ByLayer
370
18
48
1
60
1
100
AcDbLine
10
-66.960784
20
12.374998
30
0
11
-66.5
21
15.875
31
0
39
0
210
0
220
0
230
1
0
LINE
5
AD
100
AcDbEntity
8
1
62
256
6
ByLayer
370
18
48
1
60
1
100
AcDbLine
10
-66.5
20
-15.875
30
0
11
-66.960784
21
-12.375002
31
0
39
0
210
0
220
0
230
1
0
LINE
5
AE
100
AcDbEntity
8
1
62
256
6
ByLayer
370
18
48
1
60
1
100
AcDbLine
10
-66.960784
20
-12.375002
30
0
11
-66.039216
21
-12.374998
31
0
39
0
210
0
220
0
230
1
0
LINE
5
AF
100
AcDbEntity
8
1
62
256
6
ByLayer
370
18
48
1
60
1
100
AcDbLine
10
-66.039216
20
-12.374998
30
0
11
-66.5
21
-15.875
31
0
39
0
210
0
220
0
230
1
0
LINE
5
B0
100
AcDbEntity
8
2
62
256
6
ByLayer
370
13
48
1
60
0
100
AcDbLine
10
127.5
20
-14.2875
30
0
11
127.5
21
43.312069
31
0
39
0
210
0
220
0
230
1
0
LINE
5
B2
100
AcDbEntity
8
2
62
256
6
ByLayer
370
13
48
1
60
0
100
AcDbLine
10
116.387275
20
14.2875
30
0
11
129.5
21
14.2875
31
0
39
0
210
0
220
0
230
1
0
LINE
5
B3
100
AcDbEntity
8
2
62
256
6
ByLayer
370
13
48
1
60
0
100
AcDbLine
10
116.387275
20
-14.2875
30
0
11
129.5
21
-14.2875
31
0
39
0
210
0
220
0
230
1
0
LINE
5
B4
100
AcDbEntity
8
1
62
256
6
ByLayer
370
18
48
1
60
1
100
AcDbLine
10
127.5
20
14.2875
30
0
11
127.960784
21
10.787502
31
0
39
0
210
0
220
0
230
1
0
LINE
5
B5
100
AcDbEntity
8
1
62
256
6
ByLayer
370
18
48
1
60
1
100
AcDbLine
10
127.960784
20
10.787502
30
0
11
127.039216
21
10.787498
31
0
39
0
210
0
220
0
230
1
0
LINE
5
B6
100
AcDbEntity
8
1
62
256
6
ByLayer
370
18
48
1
60
1
100
AcDbLine
10
127.039216
20
10.787498
30
0
11
127.5
21
14.2875
31
0
39
0
210
0
220
0
230
1
0
LINE
5
B7
100
AcDbEntity
8
1
62
256
6
ByLayer
370
18
48
1
60
1
100
AcDbLine
10
127.5
20
-14.2875
30
0
11
127.039216
21
-10.787502
31
0
39
0
210
0
220
0
230
1
0
LINE
5
B8
100
AcDbEntity
8
1
62
256
6
ByLayer
370
18
48
1
60
1
100
AcDbLine
10
127.039216
20
-10.787502
30
0
11
127.960784
21
-10.787498
31
0
39
0
210
0
220
0
230
1
0
LINE
5
B9
100
AcDbEntity
8
1
62
256
6
ByLayer
370
18
48
1
60
1
100
AcDbLine
10
127.960784
20
-10.787498
30
0
11
127.5
21
-14.2875
31
0
39
0
210
0
220
0
230
1
0
LINE
5
BA
100
AcDbEntity
8
SK2
62
256
6
ByLayer
370
13
48
1
60
0
100
AcDbLine
10
120.542957
20
-1.491762
30
0
11
127.182423
21
-19.733545
31
0
39
0
210
0
220
0
230
1
0
LINE
5
BB
100
AcDbEntity
8
SK2
62
256
6
ByLayer
370
13
48
1
60
0
100
AcDbLine
10
120.542957
20
1.491762
30
0
11
127.182423
21
19.733545
31
0
39
0
210
0
220
0
230
1
0
LINE
5
BC
100
AcDbEntity
8
1
62
256
6
ByLayer
370
18
48
1
60
1
100
AcDbLine
10
126.498383
20
-17.85416
30
0
11
129.551575
21
-16.082064
31
0
39
0
210
0
220
0
230
1
0
LINE
5
BD
100
AcDbEntity
8
1
62
256
6
ByLayer
370
18
48
1
60
1
100
AcDbLine
10
129.551575
20
-16.082064
30
0
11
129.906196
21
-16.93267
31
0
39
0
210
0
220
0
230
1
0
LINE
5
BE
100
AcDbEntity
8
1
62
256
6
ByLayer
370
18
48
1
60
1
100
AcDbLine
10
129.906196
20
-16.93267
30
0
11
126.498383
21
-17.85416
31
0
39
0
210
0
220
0
230
1
0
LINE
5
BF
100
AcDbEntity
8
1
62
256
6
ByLayer
370
18
48
1
60
1
100
AcDbLine
10
126.498383
20
17.85416
30
0
11
129.906193
21
16.932671
31
0
39
0
210
0
220
0
230
1
0
LINE
5
C0
100
AcDbEntity
8
1
62
256
6
ByLayer
370
18
48
1
60
1
100
AcDbLine
10
129.906193
20
16.932671
30
0
11
129.551579
21
16.082063
31
0
39
0
210
0
220
0
230
1
0
LINE
5
C1
100
AcDbEntity
8
1
62
256
6
ByLayer
370
18
48
1
60
1
100
AcDbLine
10
129.551579
20
16.082063
30
0
11
126.498383
21
17.85416
31
0
39
0
210
0
220
0
230
1
0
LINE
5
151
100
AcDbEntity
8
1
62
256
6
ByLayer
370
18
48
1
60
1
100
AcDbLine
10
-66.5
20
15.875
30
0
11
-66.039216
21
12.375002
31
0
39
0
210
0
220
0
230
1
0
LINE
5
152
100
AcDbEntity
8
1
62
256
6
ByLayer
370
18
48
1
60
1
100
AcDbLine
10
-66.039216
20
12.375002
30
0
11
-66.960784
21
12.374998
31
0
39
0
210
0
220
0
230
1
0
LINE
5
153
100
AcDbEntity
8
1
62
256
6
ByLayer
370
18
48
1
60
1
100
AcDbLine
10
-66.960784
20
12.374998
30
0
11
-66.5
21
15.875
31
0
39
0
210
0
220
0
230
1
0
LINE
5
155
100
AcDbEntity
8
1
62
256
6
ByLayer
370
18
48
1
60
1
100
AcDbLine
10
-66.5
20
-15.875
30
0
11
-66.960784
21
-12.375002
31
0
39
0
210
0
220
0
230
1
0
LINE
5
156
100
AcDbEntity
8
1
62
256
6
ByLayer
370
18
48
1
60
1
100
AcDbLine
10
-66.960784
20
-12.375002
30
0
11
-66.039216
21
-12.374998
31
0
39
0
210
0
220
0
230
1
0
LINE
5
157
100
AcDbEntity
8
1
62
256
6
ByLayer
370
18
48
1
60
1
100
AcDbLine
10
-66.039216
20
-12.374998
30
0
11
-66.5
21
-15.875
31
0
39
0
210
0
220
0
230
1
0
LINE
5
15B
100
AcDbEntity
8
1
62
256
6
ByLayer
370
18
48
1
60
1
100
AcDbLine
10
127.5
20
14.2875
30
0
11
127.960784
21
10.787502
31
0
39
0
210
0
220
0
230
1
0
LINE
5
15C
100
AcDbEntity
8
1
62
256
6
ByLayer
370
18
48
1
60
1
100
AcDbLine
10
127.960784
20
10.787502
30
0
11
127.039216
21
10.787498
31
0
39
0
210
0
220
0
230
1
0
LINE
5
15D
100
AcDbEntity
8
1
62
256
6
ByLayer
370
18
48
1
60
1
100
AcDbLine
10
127.039216
20
10.787498
30
0
11
127.5
21
14.2875
31
0
39
0
210
0
220
0
230
1
0
LINE
5
15F
100
AcDbEntity
8
1
62
256
6
ByLayer
370
18
48
1
60
1
100
AcDbLine
10
127.5
20
-14.2875
30
0
11
127.039216
21
-10.787502
31
0
39
0
210
0
220
0
230
1
0
LINE
5
160
100
AcDbEntity
8
1
62
256
6
ByLayer
370
18
48
1
60
1
100
AcDbLine
10
127.039216
20
-10.787502
30
0
11
127.960784
21
-10.787498
31
0
39
0
210
0
220
0
230
1
0
LINE
5
161
100
AcDbEntity
8
1
62
256
6
ByLayer
370
18
48
1
60
1
100
AcDbLine
10
127.960784
20
-10.787498
30
0
11
127.5
21
-14.2875
31
0
39
0
210
0
220
0
230
1
0
LINE
5
164
100
AcDbEntity
8
1
62
256
6
ByLayer
370
18
48
1
60
1
100
AcDbLine
10
126.498383
20
-17.85416
30
0
11
129.551575
21
-16.082064
31
0
39
0
210
0
220
0
230
1
0
LINE
5
165
100
AcDbEntity
8
1
62
256
6
ByLayer
370
18
48
1
60
1
100
AcDbLine
10
129.551575
20
-16.082064
30
0
11
129.906196
21
-16.93267
31
0
39
0
210
0
220
0
230
1
0
LINE
5
166
100
AcDbEntity
8
1
62
256
6
ByLayer
370
18
48
1
60
1
100
AcDbLine
10
129.906196
20
-16.93267
30
0
11
126.498383
21
-17.85416
31
0
39
0
210
0
220
0
230
1
0
LINE
5
168
100
AcDbEntity
8
1
62
256
6
ByLayer
370
18
48
1
60
1
100
AcDbLine
10
126.498383
20
17.85416
30
0
11
129.906193
21
16.932671
31
0
39
0
210
0
220
0
230
1
0
LINE
5
169
100
AcDbEntity
8
1
62
256
6
ByLayer
370
18
48
1
60
1
100
AcDbLine
10
129.906193
20
16.932671
30
0
11
129.551579
21
16.082063
31
0
39
0
210
0
220
0
230
1
0
LINE
5
16A
100
AcDbEntity
8
1
62
256
6
ByLayer
370
18
48
1
60
1
100
AcDbLine
10
129.551579
20
16.082063
30
0
11
126.498383
21
17.85416
31
0
39
0
210
0
220
0
230
1
0
MTEXT
5
14D
100
AcDbEntity
8
SK2
62
256
6
ByLayer
370
18
48
1
60
0
100
AcDbMText
10
-67.841114
20
27.533438
30
0
210
0
220
0
230
1
1
%%c
40
3
41
0
44
1.084337
50
90
71
7
72
5
7
iso_b_vert
0
MTEXT
5
150
100
AcDbEntity
8
SK2
62
256
6
ByLayer
370
18
48
1
60
0
100
AcDbMText
10
-67.841114
20
33.51
30
0
210
0
220
0
230
1
1
\W0.7022;31.750
40
3
41
0
44
1.084337
50
90
71
7
72
5
7
iso_b_vert
0
MTEXT
5
159
100
AcDbEntity
8
2
62
256
6
ByLayer
370
18
48
1
60
0
100
AcDbMText
10
126.158886
20
25.945938
30
0
210
0
220
0
230
1
1
%%c
40
3
41
0
44
1.084337
50
90
71
7
72
5
7
iso_b_vert
0
MTEXT
5
15A
100
AcDbEntity
8
2
62
256
6
ByLayer
370
18
48
1
60
0
100
AcDbMText
10
126.158886
20
31.9225
30
0
210
0
220
0
230
1
1
\W0.7513;28.575
40
3
41
0
44
1.084337
50
90
71
7
72
5
7
iso_b_vert
0
MTEXT
5
163
100
AcDbEntity
8
SK2
62
256
6
ByLayer
370
18
48
1
60
0
100
AcDbMText
10
139.909114
20
3.734657
30
0
210
0
220
0
230
1
1
\W0.7071;140%%d
40
3
41
0
44
1.084337
50
270
71
7
72
5
7
iso_b_vert
0
MTEXT
5
16C
100
AcDbEntity
8
SK6
62
256
6
ByLayer
370
18
48
1
60
0
100
AcDbMText
10
4.29966
20
-67.114886
30
0
210
0
220
0
230
1
1
\W0.7299;H8531.1/8
40
3
41
0
44
1.084337
50
0
71
7
72
5
7
iso_b_vert
0
HATCH
5
154
100
AcDbEntity
8
SK2
62
256
6
ByLayer
370
13
48
1
60
0
100
AcDbHatch
10
0
20
0
30
0
210
0
220
0
230
1
2
ANSI31
70
0
71
0
91
1
92
5
93
3
72
1
10
-66.5
20
15.875
11
-66.0392162584472
21
12.3750016925532
72
1
10
-66.0392162584472
20
12.3750016925532
11
-66.9607837415528
21
12.3749983074468
72
1
10
-66.9607837415528
20
12.3749983074468
11
-66.5
21
15.875
97
0
75
0
76
1
52
0
41
0.0062
77
0
78
1
53
45
43
0
44
0
45
-0.0139193969876572
46
0.0139193969876572
79
0
47
0
98
1
10
0
20
0
0
HATCH
5
158
100
AcDbEntity
8
SK2
62
256
6
ByLayer
370
13
48
1
60
0
100
AcDbHatch
10
0
20
0
30
0
210
0
220
0
230
1
2
ANSI31
70
0
71
0
91
1
92
5
93
3
72
1
10
-66.5
20
-15.875
11
-66.9607837415528
21
-12.3750016925532
72
1
10
-66.9607837415528
20
-12.3750016925532
11
-66.0392162584472
21
-12.3749983074468
72
1
10
-66.0392162584472
20
-12.3749983074468
11
-66.5
21
-15.875
97
0
75
0
76
1
52
0
41
0.0062
77
0
78
1
53
45
43
0
44
0
45
-0.0139193969876572
46
0.0139193969876572
79
0
47
0
98
1
10
0
20
0
0
HATCH
5
15E
100
AcDbEntity
8
2
62
256
6
ByLayer
370
13
48
1
60
0
100
AcDbHatch
10
0
20
0
30
0
210
0
220
0
230
1
2
ANSI31
70
0
71
0
91
1
92
5
93
3
72
1
10
127.5
20
14.2875
11
127.960783741553
21
10.7875016925532
72
1
10
127.960783741553
20
10.7875016925532
11
127.039216258447
21
10.7874983074468
72
1
10
127.039216258447
20
10.7874983074468
11
127.5
21
14.2875
97
0
75
0
76
1
52
0
41
0.0062
77
0
78
1
53
45
43
0
44
0
45
-0.0139193969876572
46
0.0139193969876572
79
0
47
0
98
1
10
0
20
0
0
HATCH
5
162
100
AcDbEntity
8
2
62
256
6
ByLayer
370
13
48
1
60
0
100
AcDbHatch
10
0
20
0
30
0
210
0
220
0
230
1
2
ANSI31
70
0
71
0
91
1
92
5
93
3
72
1
10
127.5
20
-14.2875
11
127.039216258447
21
-10.7875016925532
72
1
10
127.039216258447
20
-10.7875016925532
11
127.960783741553
21
-10.7874983074468
72
1
10
127.960783741553
20
-10.7874983074468
11
127.5
21
-14.2875
97
0
75
0
76
1
52
0
41
0.0062
77
0
78
1
53
45
43
0
44
0
45
-0.0139193969876572
46
0.0139193969876572
79
0
47
0
98
1
10
0
20
0
0
HATCH
5
167
100
AcDbEntity
8
SK2
62
256
6
ByLayer
370
13
48
1
60
0
100
AcDbHatch
10
0
20
0
30
0
210
0
220
0
230
1
2
ANSI31
70
0
71
0
91
1
92
5
93
3
72
1
10
126.498382723188
20
-17.8541597949322
11
129.551575425693
21
-16.0820638240607
72
1
10
129.551575425693
20
-16.0820638240607
11
129.906195833975
21
-16.9326700737196
72
1
10
129.906195833975
20
-16.9326700737196
11
126.498382723188
21
-17.8541597949322
97
0
75
0
76
1
52
0
41
0.0062
77
0
78
1
53
45
43
0
44
0
45
-0.0139193969876572
46
0.0139193969876572
79
0
47
0
98
1
10
0
20
0
0
HATCH
5
16B
100
AcDbEntity
8
SK2
62
256
6
ByLayer
370
13
48
1
60
0
100
AcDbHatch
10
0
20
0
30
0
210
0
220
0
230
1
2
ANSI31
70
0
71
0
91
1
92
5
93
3
72
1
10
126.498382723188
20
17.8541597949322
11
129.906192709519
21
16.9326713763016
72
1
10
129.906192709519
20
16.9326713763016
11
129.551578550149
21
16.0820625214787
72
1
10
129.551578550149
20
16.0820625214787
11
126.498382723188
21
17.8541597949322
97
0
75
0
76
1
52
0
41
0.0062
77
0
78
1
53
45
43
0
44
0
45
-0.0139193969876572
46
0.0139193969876572
79
0
47
0
98
1
10
0
20
0
0
DIMENSION
5
16F
100
AcDbEntity
8
SK2
62
256
6
ByLayer
370
18
48
1
60
0
100
AcDbDimension
2
_U0
10
120
20
-45.952229
30
0
11
30
21
-45.952229
31
0
70
32
71
1
72
1
41
1
210
0
220
0
230
1
3
Standard
100
AcDbAlignedDimension
13
-60
23
-15.875
33
0
14
120
24
0
34
0
50
0
100
AcDbRotatedDimension
1001
ACAD
1000
DSTYLE
1002
{
1070
   371
1070
    13
1070
   372
1070
    13
1070
     3
1000

1070
   170
1070
     0
1070
   144
1040
1.0
1070
   277
1070
     2
1070
   284
1070
     8
1070
   278
1070
    46
1070
   146
1040
1.166667
1070
   345
1005
16
1070
   347
1005
16
1070
   346
1005
16
1070
   344
1005
0
1070
   343
1005
0
1070
   172
1070
     1
1070
    76
1070
     0
1070
    75
1070
     0
1070
   282
1070
     0
1070
   281
1070
     0
1070
    71
1070
     0
1070
    74
1070
     0
1070
   279
1070
     0
1070
   173
1070
     1
1070
   340
1005
14E
1070
   271
1070
     2
1070
   272
1070
     3
1070
    77
1070
     1
1070
    73
1070
     1
1070
   171
1070
     3
1070
   274
1070
     4
1070
   177
1070
     2
1070
   176
1070
     2
1070
   178
1070
     2
1070
    78
1070
     8
1070
    48
1040
-0.1
1070
    41
1040
3.5
1070
   147
1040
1.5
1070
    42
1040
1.5875
1070
    44
1040
2.0
1070
   140
1040
3.0
1002
}
1001
ACAD_DSTYLE_DIM_LINETYPE
1070
   380
1005
16
1001
ACAD_DSTYLE_DIM_EXT1_LINETYPE
1070
   381
1005
16
1001
ACAD_DSTYLE_DIM_EXT2_LINETYPE
1070
   382
1005
16
0
DIMENSION
5
188
100
AcDbEntity
8
SK2
62
256
6
ByLayer
370
18
48
1
60
0
100
AcDbDimension
2
_U1
10
3
20
-35.952229
30
0
11
61.5
21
-35.952229
31
0
70
32
71
1
72
1
41
1
210
0
220
0
230
1
3
Standard
100
AcDbAlignedDimension
13
120
23
0
33
0
14
3
24
-14.2875
34
0
50
0
100
AcDbRotatedDimension
1001
ACAD
1000
DSTYLE
1002
{
1070
   371
1070
    13
1070
   372
1070
    13
1070
     3
1000

1070
   170
1070
     0
1070
   144
1040
1.0
1070
   277
1070
     2
1070
   284
1070
     8
1070
   278
1070
    46
1070
   146
1040
1.166667
1070
   345
1005
16
1070
   347
1005
16
1070
   346
1005
16
1070
   344
1005
0
1070
   343
1005
0
1070
   172
1070
     1
1070
    76
1070
     0
1070
    75
1070
     0
1070
   282
1070
     0
1070
   281
1070
     0
1070
    71
1070
     0
1070
    74
1070
     0
1070
   279
1070
     0
1070
   173
1070
     1
1070
   340
1005
14E
1070
   271
1070
     2
1070
   272
1070
     3
1070
    77
1070
     1
1070
    73
1070
     1
1070
   171
1070
     3
1070
   274
1070
     4
1070
   177
1070
     2
1070
   176
1070
     2
1070
   178
1070
     2
1070
    78
1070
     8
1070
    48
1040
-0.1
1070
    41
1040
3.5
1070
   147
1040
1.5
1070
    42
1040
1.5875
1070
    44
1040
2.0
1070
   140
1040
3.0
1002
}
1001
ACAD_DSTYLE_DIM_LINETYPE
1070
   380
1005
16
1001
ACAD_DSTYLE_DIM_EXT1_LINETYPE
1070
   381
1005
16
1001
ACAD_DSTYLE_DIM_EXT2_LINETYPE
1070
   382
1005
16
0
DIMENSION
5
1A0
100
AcDbEntity
8
SK2
62
256
6
ByLayer
370
18
48
1
60
0
100
AcDbDimension
2
_U2
10
0
20
-35.952229
30
0
11
-30
21
-35.952229
31
0
70
32
71
1
72
1
41
1
210
0
220
0
230
1
3
Standard
100
AcDbAlignedDimension
13
-60
23
-15.875
33
0
14
0
24
-15.875
34
0
50
0
100
AcDbRotatedDimension
1001
ACAD
1000
DSTYLE
1002
{
1070
   371
1070
    13
1070
   372
1070
    13
1070
     3
1000

1070
   170
1070
     0
1070
   144
1040
1.0
1070
   277
1070
     2
1070
   284
1070
     8
1070
   278
1070
    46
1070
   146
1040
1.166667
1070
   345
1005
16
1070
   347
1005
16
1070
   346
1005
16
1070
   344
1005
0
1070
   343
1005
0
1070
   172
1070
     1
1070
    76
1070
     0
1070
    75
1070
     0
1070
   282
1070
     0
1070
   281
1070
     0
1070
    71
1070
     0
1070
    74
1070
     0
1070
   279
1070
     0
1070
   173
1070
     1
1070
   340
1005
14E
1070
   271
1070
     2
1070
   272
1070
     3
1070
    77
1070
     1
1070
    73
1070
     1
1070
   171
1070
     3
1070
   274
1070
     4
1070
   177
1070
     2
1070
   176
1070
     2
1070
   178
1070
     2
1070
    78
1070
     8
1070
    48
1040
-0.1
1070
    41
1040
3.5
1070
   147
1040
1.5
1070
    42
1040
1.5875
1070
    44
1040
2.0
1070
   140
1040
3.0
1002
}
1001
ACAD_DSTYLE_DIM_LINETYPE
1070
   380
1005
16
1001
ACAD_DSTYLE_DIM_EXT1_LINETYPE
1070
   381
1005
16
1001
ACAD_DSTYLE_DIM_EXT2_LINETYPE
1070
   382
1005
16
0
DIMENSION
5
1B8
100
AcDbEntity
8
SK2
62
256
6
ByLayer
370
18
48
1
60
0
100
AcDbDimension
2
_U3
10
23
20
32.952229
30
0
11
71.5
21
32.952229
31
0
70
32
71
1
72
1
41
1
210
0
220
0
230
1
3
Standard
100
AcDbAlignedDimension
13
120
23
0
33
0
14
23
24
14.2875
34
0
50
0
100
AcDbRotatedDimension
1001
ACAD
1000
DSTYLE
1002
{
1070
   371
1070
    13
1070
   372
1070
    13
1070
     3
1000

1070
   170
1070
     0
1070
   144
1040
1.0
1070
   277
1070
     2
1070
   284
1070
     8
1070
   278
1070
    46
1070
   146
1040
1.166667
1070
   345
1005
16
1070
   347
1005
16
1070
   346
1005
16
1070
   344
1005
0
1070
   343
1005
0
1070
   172
1070
     1
1070
    76
1070
     0
1070
    75
1070
     0
1070
   282
1070
     0
1070
   281
1070
     0
1070
    71
1070
     0
1070
    74
1070
     0
1070
   279
1070
     0
1070
   173
1070
     1
1070
   340
1005
14E
1070
   271
1070
     2
1070
   272
1070
     3
1070
    77
1070
     1
1070
    73
1070
     1
1070
   171
1070
     3
1070
   274
1070
     4
1070
   177
1070
     2
1070
   176
1070
     2
1070
   178
1070
     2
1070
    78
1070
     8
1070
    48
1040
-0.1
1070
    41
1040
3.5
1070
   147
1040
1.5
1070
    42
1040
1.5875
1070
    44
1040
2.0
1070
   140
1040
3.0
1002
}
1001
ACAD_DSTYLE_DIM_LINETYPE
1070
   380
1005
16
1001
ACAD_DSTYLE_DIM_EXT1_LINETYPE
1070
   381
1005
16
1001
ACAD_DSTYLE_DIM_EXT2_LINETYPE
1070
   382
1005
16
0
ENDSEC
0
SECTION
2
OBJECTS
0
DICTIONARY
5
240
330
0
100
AcDbDictionary
280
0
281
1
3
ACAD_GROUP
350
241
3
ACAD_MLINESTYLE
350
242
0
DICTIONARY
5
241
330
0
100
AcDbDictionary
280
0
281
1
0
DICTIONARY
5
242
330
0
100
AcDbDictionary
280
0
281
1
3
Standard
350
18
0
MLINESTYLE
5
18
330
242
100
AcDbMlineStyle
2
Standard
70
0
3

62
256
51
90
52
90
71
2
49
-0.5
62
256
6
ByLayer
49
0.5
62
256
6
ByLayer
0
RASTERVARIABLES
5
22e
330

100
AcDbRasterVariables
90
0
70
1
71
1
72
1
0
ENDSEC
0
EOF
