0
SECTION
2
HEADER
9
$ACADVER
1
AC1015
9
$DWGCODEPAGE
3
ANSI_1252
9
$HANDSEED
5
222
9
$ANGBASE
50
0
9
$ANGDIR
70
0
9
$ATTMODE
70
1
9
$AUNITS
70
0
9
$AUPREC
70
0
9
$CECOLOR
62
256
9
$CELTSCALE
40
1
9
$CELTYPE
6
ByLayer
9
$CELWEIGHT
370
18
9
$CLAYER
8
0
9
$CMLJUST
70
0
9
$CMLSCALE
40
1
9
$CMLSTYLE
2
Standard
9
$DIMSTYLE
2
Standard
9
$TEXTSIZE
40
0.2
9
$TEXTSTYLE
7
Standard
9
$LUNITS
70
2
9
$LUPREC
70
4
9
$EXTNAMES
290
1
9
$INSUNITS
70
4
9
$LTSCALE
40
1
9
$LWDISPLAY
290
1
9
$PDMODE
70
0
9
$PDSIZE
40
0
9
$PLINEGEN
70
0
0
ENDSEC
0
SECTION
2
CLASSES
0
CLASS
1
RASTERVARIABLES
2
AcDbRasterVariables
3
ISM
90
0
280
0
281
0
0
ENDSEC
0
SECTION
2
TABLES
0
TABLE
2
VPORT
5
218
100
AcDbSymbolTable
0
VPORT
5
1
100
AcDbSymbolTableRecord
100
AcDbViewportTableRecord
2
*Active
70
0
10
0
20
0
11
1
21
1
12
-1
22
1
13
0
23
0
14
0.5
24
0.5
15
10
25
10
16
0
26
0
36
1
17
0
27
0
37
0
0
ENDTAB
0
TABLE
2
LTYPE
5
219
100
AcDbSymbolTable
0
LTYPE
5
14
100
AcDbSymbolTableRecord
100
AcDbLinetypeTableRecord
70
0
2
ByBlock
3

72
65
73
0
40
0
0
LTYPE
5
15
100
AcDbSymbolTableRecord
100
AcDbLinetypeTableRecord
70
0
2
ByLayer
3

72
65
73
0
40
0
0
LTYPE
5
16
100
AcDbSymbolTableRecord
100
AcDbLinetypeTableRecord
70
0
2
Continuous
3
Solid line
72
65
73
0
40
0
0
LTYPE
5
6E
100
AcDbSymbolTableRecord
100
AcDbLinetypeTableRecord
70
0
2
CENTER
3
____ _ ____ _ ____ _ ____
72
65
73
4
40
47.5
49
22
74
0
49
-8.5
74
0
49
8.5
74
0
49
-8.5
74
0
0
LTYPE
5
6F
100
AcDbSymbolTableRecord
100
AcDbLinetypeTableRecord
70
0
2
DASHED
3
__ __ __ __ __ __ __ __ __
72
65
73
2
40
25.72
49
12.86
74
0
49
-12.86
74
0
0
ENDTAB
0
TABLE
2
LAYER
5
21a
100
AcDbSymbolTable
0
LAYER
5
10
100
AcDbSymbolTableRecord
100
AcDbLayerTableRecord
2
0
70
0
62
7
6
Continuous
290
1
370
-3
390
0
0
LAYER
5
71
100
AcDbSymbolTableRecord
100
AcDbLayerTableRecord
2
81
70
0
62
-3
6
Continuous
290
1
370
-3
390
0
0
LAYER
5
73
100
AcDbSymbolTableRecord
100
AcDbLayerTableRecord
2
80
70
0
62
-6
6
Continuous
290
1
370
-3
390
0
0
LAYER
5
75
100
AcDbSymbolTableRecord
100
AcDbLayerTableRecord
2
1
70
0
62
4
6
Continuous
290
1
370
-3
390
0
0
LAYER
5
7F
100
AcDbSymbolTableRecord
100
AcDbLayerTableRecord
2
4
70
0
62
-2
6
CENTER
290
1
370
-3
390
0
0
LAYER
5
B0
100
AcDbSymbolTableRecord
100
AcDbLayerTableRecord
2
2
70
0
62
7
6
Continuous
290
1
370
-3
390
0
0
LAYER
5
147
100
AcDbSymbolTableRecord
100
AcDbLayerTableRecord
2
Defpoints
70
0
62
7
6
Continuous
290
0
370
-3
390
0
0
LAYER
5
204
100
AcDbSymbolTableRecord
100
AcDbLayerTableRecord
2
SK4
70
0
62
2
6
CENTER
290
1
370
-3
390
0
0
LAYER
5
205
100
AcDbSymbolTableRecord
100
AcDbLayerTableRecord
2
SK1
70
0
62
4
6
Continuous
290
1
370
-3
390
0
0
LAYER
5
206
100
AcDbSymbolTableRecord
100
AcDbLayerTableRecord
2
SK2
70
0
62
7
6
Continuous
290
1
370
-3
390
0
0
LAYER
5
207
100
AcDbSymbolTableRecord
100
AcDbLayerTableRecord
2
SK6
70
0
62
5
6
Continuous
290
1
370
-3
390
0
0
ENDTAB
0
TABLE
2
STYLE
5
21b
100
AcDbSymbolTable
0
STYLE
5
11
100
AcDbSymbolTableRecord
100
AcDbTextStyleTableRecord
2
Standard
3
txt
70
0
71
0
40
0
41
1
42
0
50
0
0
STYLE
5
123
100
AcDbSymbolTableRecord
100
AcDbTextStyleTableRecord
2
iso_b_vert
3
simplex.shx
70
0
71
0
40
0
41
1
42
0
50
0
0
STYLE
5
124
100
AcDbSymbolTableRecord
100
AcDbTextStyleTableRecord
2
DWGDirectTextStyle
3
simplex
70
0
71
0
40
0
41
1
42
0
50
0
0
ENDTAB
0
TABLE
2
DIMSTYLE
5
21c
100
AcDbSymbolTable
100
AcDbDimStyleTable
0
DIMSTYLE
105
27
100
AcDbSymbolTableRecord
100
AcDbDimStyleTableRecord
2
Standard
70
0
3
<>
41
0.18
42
0.0625
44
0.18
140
0.18
147
0.09
73
0
74
0
77
1
271
2
275
0
278
52
280
0
340
11
0
ENDTAB
0
TABLE
2
VIEW
5
21d
100
AcDbSymbolTable
0
ENDTAB
0
TABLE
2
UCS
5
21e
100
AcDbSymbolTable
0
ENDTAB
0
TABLE
2
APPID
5
21f
100
AcDbSymbolTable
0
APPID
5
12
100
AcDbSymbolTableRecord
100
AcDbRegAppTableRecord
2
ACAD
70
0
0
APPID
5
143
100
AcDbSymbolTableRecord
100
AcDbRegAppTableRecord
2
ACAD_DSTYLE_DIMBREAK
70
0
0
APPID
5
1C3
100
AcDbSymbolTableRecord
100
AcDbRegAppTableRecord
2
ACAD_DSTYLE_DIM_LINETYPE
70
0
0
APPID
5
1C4
100
AcDbSymbolTableRecord
100
AcDbRegAppTableRecord
2
ACAD_DSTYLE_DIM_EXT1_LINETYPE
70
0
0
APPID
5
1C5
100
AcDbSymbolTableRecord
100
AcDbRegAppTableRecord
2
ACAD_DSTYLE_DIM_EXT2_LINETYPE
70
0
0
APPID
5
200
100
AcDbSymbolTableRecord
100
AcDbRegAppTableRecord
2
ACAD_MLEADERVER
70
0
0
ENDTAB
0
TABLE
2
BLOCK_RECORD
5
220
100
AcDbSymbolTable
0
BLOCK_RECORD
5
1F
100
AcDbSymbolTableRecord
100
AcDbBlockTableRecord
2
*Model_Space
340
0
70
0
0
BLOCK_RECORD
5
1B
100
AcDbSymbolTableRecord
100
AcDbBlockTableRecord
2
*Paper_Space
340
0
70
0
0
BLOCK_RECORD
5
23
100
AcDbSymbolTableRecord
100
AcDbBlockTableRecord
2
*Paper_Space0
340
0
70
0
0
BLOCK_RECORD
5
148
100
AcDbSymbolTableRecord
100
AcDbBlockTableRecord
2
*D1
340
0
70
0
0
BLOCK_RECORD
5
154
100
AcDbSymbolTableRecord
100
AcDbBlockTableRecord
2
_U0
340
0
70
0
0
BLOCK_RECORD
5
160
100
AcDbSymbolTableRecord
100
AcDbBlockTableRecord
2
*D3
340
0
70
0
0
BLOCK_RECORD
5
16C
100
AcDbSymbolTableRecord
100
AcDbBlockTableRecord
2
_U1
340
0
70
0
0
BLOCK_RECORD
5
178
100
AcDbSymbolTableRecord
100
AcDbBlockTableRecord
2
*D5
340
0
70
0
0
BLOCK_RECORD
5
184
100
AcDbSymbolTableRecord
100
AcDbBlockTableRecord
2
_U2
340
0
70
0
0
BLOCK_RECORD
5
190
100
AcDbSymbolTableRecord
100
AcDbBlockTableRecord
2
*D7
340
0
70
0
0
BLOCK_RECORD
5
19C
100
AcDbSymbolTableRecord
100
AcDbBlockTableRecord
2
_U3
340
0
70
0
0
ENDTAB
0
ENDSEC
0
SECTION
2
BLOCKS
0
BLOCK
5
20
100
AcDbEntity
8
0
100
AcDbBlockBegin
2
*Model_Space
70
0
10
0
20
0
30
0
3
*Model_Space
0
ENDBLK
5
21
100
AcDbEntity
8
0
100
AcDbBlockEnd
0
BLOCK
5
1C
100
AcDbEntity
8
0
100
AcDbBlockBegin
2
*Paper_Space
70
0
10
0
20
0
30
0
3
*Paper_Space
0
ENDBLK
5
1D
100
AcDbEntity
8
0
100
AcDbBlockEnd
0
BLOCK
5
24
100
AcDbEntity
8
0
100
AcDbBlockBegin
2
*Paper_Space0
70
0
10
0
20
0
30
0
3
*Paper_Space0
0
ENDBLK
5
25
100
AcDbEntity
8
0
100
AcDbBlockEnd
0
BLOCK
5
149
100
AcDbEntity
8
0
100
AcDbBlockBegin
2
*D1
70
1
10
0
20
0
30
0
3
*D1
0
LINE
5
14B
100
AcDbEntity
8
0
62
256
6
ByLayer
370
-2
48
1
60
0
100
AcDbLine
10
-50
20
-11.5875
30
0
11
-50
21
-47.952229
31
0
39
0
210
0
220
0
230
1
0
LINE
5
14C
100
AcDbEntity
8
0
62
256
6
ByLayer
370
-2
48
1
60
0
100
AcDbLine
10
81.5
20
-1.5875
30
0
11
81.5
21
-47.952229
31
0
39
0
210
0
220
0
230
1
0
LINE
5
14D
100
AcDbEntity
8
0
62
256
6
ByLayer
370
-2
48
1
60
0
100
AcDbLine
10
-46.5
20
-45.952229
30
0
11
78
21
-45.952229
31
0
39
0
210
0
220
0
230
1
0
SOLID
5
14E
100
AcDbEntity
8
0
62
256
6
ByLayer
370
-1
48
1
60
0
100
AcDbTrace
10
-46.5
20
-45.368896
30
0
11
-46.5
21
-46.535563
31
0
12
-50
22
-45.952229
32
0
13
-50
23
-45.952229
33
0
39
0
210
0
220
0
230
1
0
SOLID
5
14F
100
AcDbEntity
8
0
62
256
6
ByLayer
370
-1
48
1
60
0
100
AcDbTrace
10
78
20
-46.535563
30
0
11
78
21
-45.368896
31
0
12
81.5
22
-45.952229
32
0
13
81.5
23
-45.952229
33
0
39
0
210
0
220
0
230
1
0
MTEXT
5
150
100
AcDbEntity
8
0
62
256
6
ByLayer
370
18
48
1
60
0
100
AcDbMText
10
15.75
20
-39.952229
30
0
210
0
220
0
230
1
1
\A1;131.5
40
3
41
0
44
1
50
0
71
5
72
5
7
iso_b_vert
0
POINT
5
151
100
AcDbEntity
8
Defpoints
62
0
6
ByLayer
370
-1
48
1
60
0
100
AcDbPoint
10
-50
20
-10
30
0
39
0
210
0
220
0
230
1
50
360
0
POINT
5
152
100
AcDbEntity
8
Defpoints
62
0
6
ByLayer
370
-1
48
1
60
0
100
AcDbPoint
10
81.5
20
0
30
0
39
0
210
0
220
0
230
1
50
360
0
POINT
5
153
100
AcDbEntity
8
Defpoints
62
0
6
ByLayer
370
-1
48
1
60
0
100
AcDbPoint
10
81.5
20
-45.952229
30
0
39
0
210
0
220
0
230
1
50
360
0
ENDBLK
5
14A
100
AcDbEntity
8
0
100
AcDbBlockEnd
0
BLOCK
5
15B
100
AcDbEntity
8
0
100
AcDbBlockBegin
2
_U0
70
0
10
0
20
0
30
0
3
_U0
0
MTEXT
5
155
100
AcDbEntity
8
SK2
62
256
6
ByLayer
370
18
48
1
60
0
100
AcDbMText
10
10.896601
20
-45.067115
30
0
210
0
220
0
230
1
1
\W0.6532;131.50
40
3
41
0
44
1.084337
50
0
71
7
72
5
7
iso_b_vert
0
LINE
5
156
100
AcDbEntity
8
SK2
62
256
6
ByLayer
370
13
48
1
60
0
100
AcDbLine
10
-50
20
-11.5875
30
0
11
-50
21
-47.952229
31
0
39
0
210
0
220
0
230
1
0
LINE
5
157
100
AcDbEntity
8
SK2
62
256
6
ByLayer
370
13
48
1
60
0
100
AcDbLine
10
81.5
20
-1.5875
30
0
11
81.5
21
-47.952229
31
0
39
0
210
0
220
0
230
1
0
LINE
5
158
100
AcDbEntity
8
SK2
62
256
6
ByLayer
370
13
48
1
60
0
100
AcDbLine
10
-50
20
-45.952229
30
0
11
81.5
21
-45.952229
31
0
39
0
210
0
220
0
230
1
0
SOLID
5
159
100
AcDbEntity
8
SK2
62
256
6
ByLayer
370
18
48
1
60
0
100
AcDbTrace
10
-50
20
-45.952229
30
0
11
-46.500002
21
-45.491446
31
0
12
-46.499998
22
-46.413013
32
0
13
-46.499998
23
-46.413013
33
0
39
0
210
0
220
0
230
1
0
SOLID
5
15A
100
AcDbEntity
8
SK2
62
256
6
ByLayer
370
18
48
1
60
0
100
AcDbTrace
10
81.5
20
-45.952229
30
0
11
78.000002
21
-46.413013
31
0
12
77.999998
22
-45.491446
32
0
13
77.999998
23
-45.491446
33
0
39
0
210
0
220
0
230
1
0
ENDBLK
5
15C
100
AcDbEntity
8
0
100
AcDbBlockEnd
0
BLOCK
5
161
100
AcDbEntity
8
0
100
AcDbBlockBegin
2
*D3
70
1
10
0
20
0
30
0
3
*D3
0
LINE
5
163
100
AcDbEntity
8
0
62
256
6
ByLayer
370
-2
48
1
60
0
100
AcDbLine
10
81.5
20
-1.5875
30
0
11
81.5
21
-37.952229
31
0
39
0
210
0
220
0
230
1
0
LINE
5
164
100
AcDbEntity
8
0
62
256
6
ByLayer
370
-2
48
1
60
0
100
AcDbLine
10
3
20
-9.5875
30
0
11
3
21
-37.952229
31
0
39
0
210
0
220
0
230
1
0
LINE
5
165
100
AcDbEntity
8
0
62
256
6
ByLayer
370
-2
48
1
60
0
100
AcDbLine
10
78
20
-35.952229
30
0
11
6.5
21
-35.952229
31
0
39
0
210
0
220
0
230
1
0
SOLID
5
166
100
AcDbEntity
8
0
62
256
6
ByLayer
370
-1
48
1
60
0
100
AcDbTrace
10
78
20
-36.535563
30
0
11
78
21
-35.368896
31
0
12
81.5
22
-35.952229
32
0
13
81.5
23
-35.952229
33
0
39
0
210
0
220
0
230
1
0
SOLID
5
167
100
AcDbEntity
8
0
62
256
6
ByLayer
370
-1
48
1
60
0
100
AcDbTrace
10
6.5
20
-35.368896
30
0
11
6.5
21
-36.535563
31
0
12
3
22
-35.952229
32
0
13
3
23
-35.952229
33
0
39
0
210
0
220
0
230
1
0
MTEXT
5
168
100
AcDbEntity
8
0
62
256
6
ByLayer
370
18
48
1
60
0
100
AcDbMText
10
42.25
20
-29.952229
30
0
210
0
220
0
230
1
1
\A1;78.5
40
3
41
0
44
1
50
0
71
5
72
5
7
iso_b_vert
0
POINT
5
169
100
AcDbEntity
8
Defpoints
62
0
6
ByLayer
370
-1
48
1
60
0
100
AcDbPoint
10
81.5
20
0
30
0
39
0
210
0
220
0
230
1
50
360
0
POINT
5
16A
100
AcDbEntity
8
Defpoints
62
0
6
ByLayer
370
-1
48
1
60
0
100
AcDbPoint
10
3
20
-8
30
0
39
0
210
0
220
0
230
1
50
360
0
POINT
5
16B
100
AcDbEntity
8
Defpoints
62
0
6
ByLayer
370
-1
48
1
60
0
100
AcDbPoint
10
3
20
-35.952229
30
0
39
0
210
0
220
0
230
1
50
360
0
ENDBLK
5
162
100
AcDbEntity
8
0
100
AcDbBlockEnd
0
BLOCK
5
173
100
AcDbEntity
8
0
100
AcDbBlockBegin
2
_U1
70
0
10
0
20
0
30
0
3
_U1
0
MTEXT
5
16D
100
AcDbEntity
8
SK2
62
256
6
ByLayer
370
18
48
1
60
0
100
AcDbMText
10
37.76763
20
-35.067115
30
0
210
0
220
0
230
1
1
\W0.7468;78.50
40
3
41
0
44
1.084337
50
0
71
7
72
5
7
iso_b_vert
0
LINE
5
16E
100
AcDbEntity
8
SK2
62
256
6
ByLayer
370
13
48
1
60
0
100
AcDbLine
10
81.5
20
-1.5875
30
0
11
81.5
21
-37.952229
31
0
39
0
210
0
220
0
230
1
0
LINE
5
16F
100
AcDbEntity
8
SK2
62
256
6
ByLayer
370
13
48
1
60
0
100
AcDbLine
10
3
20
-9.5875
30
0
11
3
21
-37.952229
31
0
39
0
210
0
220
0
230
1
0
LINE
5
170
100
AcDbEntity
8
SK2
62
256
6
ByLayer
370
13
48
1
60
0
100
AcDbLine
10
81.5
20
-35.952229
30
0
11
3
21
-35.952229
31
0
39
0
210
0
220
0
230
1
0
SOLID
5
171
100
AcDbEntity
8
SK2
62
256
6
ByLayer
370
18
48
1
60
0
100
AcDbTrace
10
81.5
20
-35.952229
30
0
11
78.000002
21
-36.413013
31
0
12
77.999998
22
-35.491446
32
0
13
77.999998
23
-35.491446
33
0
39
0
210
0
220
0
230
1
0
SOLID
5
172
100
AcDbEntity
8
SK2
62
256
6
ByLayer
370
18
48
1
60
0
100
AcDbTrace
10
3
20
-35.952229
30
0
11
6.499998
21
-35.491446
31
0
12
6.500002
22
-36.413013
32
0
13
6.500002
23
-36.413013
33
0
39
0
210
0
220
0
230
1
0
ENDBLK
5
174
100
AcDbEntity
8
0
100
AcDbBlockEnd
0
BLOCK
5
179
100
AcDbEntity
8
0
100
AcDbBlockBegin
2
*D5
70
1
10
0
20
0
30
0
3
*D5
0
LINE
5
17B
100
AcDbEntity
8
0
62
256
6
ByLayer
370
-2
48
1
60
0
100
AcDbLine
10
-50
20
-11.5875
30
0
11
-50
21
-37.952229
31
0
39
0
210
0
220
0
230
1
0
LINE
5
17C
100
AcDbEntity
8
0
62
256
6
ByLayer
370
-2
48
1
60
0
100
AcDbLine
10
0
20
-11.5875
30
0
11
0
21
-37.952229
31
0
39
0
210
0
220
0
230
1
0
LINE
5
17D
100
AcDbEntity
8
0
62
256
6
ByLayer
370
-2
48
1
60
0
100
AcDbLine
10
-46.5
20
-35.952229
30
0
11
-3.5
21
-35.952229
31
0
39
0
210
0
220
0
230
1
0
SOLID
5
17E
100
AcDbEntity
8
0
62
256
6
ByLayer
370
-1
48
1
60
0
100
AcDbTrace
10
-46.5
20
-35.368896
30
0
11
-46.5
21
-36.535563
31
0
12
-50
22
-35.952229
32
0
13
-50
23
-35.952229
33
0
39
0
210
0
220
0
230
1
0
SOLID
5
17F
100
AcDbEntity
8
0
62
256
6
ByLayer
370
-1
48
1
60
0
100
AcDbTrace
10
-3.5
20
-36.535563
30
0
11
-3.5
21
-35.368896
31
0
12
0
22
-35.952229
32
0
13
0
23
-35.952229
33
0
39
0
210
0
220
0
230
1
0
MTEXT
5
180
100
AcDbEntity
8
0
62
256
6
ByLayer
370
18
48
1
60
0
100
AcDbMText
10
-25
20
-29.952229
30
0
210
0
220
0
230
1
1
\A1;50
40
3
41
0
44
1
50
0
71
5
72
5
7
iso_b_vert
0
POINT
5
181
100
AcDbEntity
8
Defpoints
62
0
6
ByLayer
370
-1
48
1
60
0
100
AcDbPoint
10
-50
20
-10
30
0
39
0
210
0
220
0
230
1
50
360
0
POINT
5
182
100
AcDbEntity
8
Defpoints
62
0
6
ByLayer
370
-1
48
1
60
0
100
AcDbPoint
10
0
20
-10
30
0
39
0
210
0
220
0
230
1
50
360
0
POINT
5
183
100
AcDbEntity
8
Defpoints
62
0
6
ByLayer
370
-1
48
1
60
0
100
AcDbPoint
10
0
20
-35.952229
30
0
39
0
210
0
220
0
230
1
50
360
0
ENDBLK
5
17A
100
AcDbEntity
8
0
100
AcDbBlockEnd
0
BLOCK
5
18B
100
AcDbEntity
8
0
100
AcDbBlockBegin
2
_U2
70
0
10
0
20
0
30
0
3
_U2
0
MTEXT
5
185
100
AcDbEntity
8
SK2
62
256
6
ByLayer
370
18
48
1
60
0
100
AcDbMText
10
-29.48237
20
-35.067115
30
0
210
0
220
0
230
1
1
\W0.7468;50.00
40
3
41
0
44
1.084337
50
0
71
7
72
5
7
iso_b_vert
0
LINE
5
186
100
AcDbEntity
8
SK2
62
256
6
ByLayer
370
13
48
1
60
0
100
AcDbLine
10
-50
20
-11.5875
30
0
11
-50
21
-37.952229
31
0
39
0
210
0
220
0
230
1
0
LINE
5
187
100
AcDbEntity
8
SK2
62
256
6
ByLayer
370
13
48
1
60
0
100
AcDbLine
10
0
20
-11.5875
30
0
11
0
21
-37.952229
31
0
39
0
210
0
220
0
230
1
0
LINE
5
188
100
AcDbEntity
8
SK2
62
256
6
ByLayer
370
13
48
1
60
0
100
AcDbLine
10
-50
20
-35.952229
30
0
11
0
21
-35.952229
31
0
39
0
210
0
220
0
230
1
0
SOLID
5
189
100
AcDbEntity
8
SK2
62
256
6
ByLayer
370
18
48
1
60
0
100
AcDbTrace
10
-50
20
-35.952229
30
0
11
-46.500002
21
-35.491446
31
0
12
-46.499998
22
-36.413013
32
0
13
-46.499998
23
-36.413013
33
0
39
0
210
0
220
0
230
1
0
SOLID
5
18A
100
AcDbEntity
8
SK2
62
256
6
ByLayer
370
18
48
1
60
0
100
AcDbTrace
10
0
20
-35.952229
30
0
11
-3.499998
21
-36.413013
31
0
12
-3.500002
22
-35.491446
32
0
13
-3.500002
23
-35.491446
33
0
39
0
210
0
220
0
230
1
0
ENDBLK
5
18C
100
AcDbEntity
8
0
100
AcDbBlockEnd
0
BLOCK
5
191
100
AcDbEntity
8
0
100
AcDbBlockBegin
2
*D7
70
1
10
0
20
0
30
0
3
*D7
0
LINE
5
193
100
AcDbEntity
8
0
62
256
6
ByLayer
370
-2
48
1
60
0
100
AcDbLine
10
81.5
20
1.5875
30
0
11
81.5
21
34.952229
31
0
39
0
210
0
220
0
230
1
0
LINE
5
194
100
AcDbEntity
8
0
62
256
6
ByLayer
370
-2
48
1
60
0
100
AcDbLine
10
22
20
9.5875
30
0
11
22
21
34.952229
31
0
39
0
210
0
220
0
230
1
0
LINE
5
195
100
AcDbEntity
8
0
62
256
6
ByLayer
370
-2
48
1
60
0
100
AcDbLine
10
78
20
32.952229
30
0
11
25.5
21
32.952229
31
0
39
0
210
0
220
0
230
1
0
SOLID
5
196
100
AcDbEntity
8
0
62
256
6
ByLayer
370
-1
48
1
60
0
100
AcDbTrace
10
78
20
32.368896
30
0
11
78
21
33.535563
31
0
12
81.5
22
32.952229
32
0
13
81.5
23
32.952229
33
0
39
0
210
0
220
0
230
1
0
SOLID
5
197
100
AcDbEntity
8
0
62
256
6
ByLayer
370
-1
48
1
60
0
100
AcDbTrace
10
25.5
20
33.535563
30
0
11
25.5
21
32.368896
31
0
12
22
22
32.952229
32
0
13
22
23
32.952229
33
0
39
0
210
0
220
0
230
1
0
MTEXT
5
198
100
AcDbEntity
8
0
62
256
6
ByLayer
370
18
48
1
60
0
100
AcDbMText
10
51.75
20
38.952229
30
0
210
0
220
0
230
1
1
\A1;59.5
40
3
41
0
44
1
50
0
71
5
72
5
7
iso_b_vert
0
POINT
5
199
100
AcDbEntity
8
Defpoints
62
0
6
ByLayer
370
-1
48
1
60
0
100
AcDbPoint
10
81.5
20
0
30
0
39
0
210
0
220
0
230
1
50
360
0
POINT
5
19A
100
AcDbEntity
8
Defpoints
62
0
6
ByLayer
370
-1
48
1
60
0
100
AcDbPoint
10
22
20
8
30
0
39
0
210
0
220
0
230
1
50
360
0
POINT
5
19B
100
AcDbEntity
8
Defpoints
62
0
6
ByLayer
370
-1
48
1
60
0
100
AcDbPoint
10
22
20
32.952229
30
0
39
0
210
0
220
0
230
1
50
360
0
ENDBLK
5
192
100
AcDbEntity
8
0
100
AcDbBlockEnd
0
BLOCK
5
1A3
100
AcDbEntity
8
0
100
AcDbBlockBegin
2
_U3
70
0
10
0
20
0
30
0
3
_U3
0
MTEXT
5
19D
100
AcDbEntity
8
SK2
62
256
6
ByLayer
370
18
48
1
60
0
100
AcDbMText
10
47.26763
20
33.837344
30
0
210
0
220
0
230
1
1
\W0.7468;59.50
40
3
41
0
44
1.084337
50
0
71
7
72
5
7
iso_b_vert
0
LINE
5
19E
100
AcDbEntity
8
SK2
62
256
6
ByLayer
370
13
48
1
60
0
100
AcDbLine
10
81.5
20
1.5875
30
0
11
81.5
21
34.952229
31
0
39
0
210
0
220
0
230
1
0
LINE
5
19F
100
AcDbEntity
8
SK2
62
256
6
ByLayer
370
13
48
1
60
0
100
AcDbLine
10
22
20
9.5875
30
0
11
22
21
34.952229
31
0
39
0
210
0
220
0
230
1
0
LINE
5
1A0
100
AcDbEntity
8
SK2
62
256
6
ByLayer
370
13
48
1
60
0
100
AcDbLine
10
81.5
20
32.952229
30
0
11
22
21
32.952229
31
0
39
0
210
0
220
0
230
1
0
SOLID
5
1A1
100
AcDbEntity
8
SK2
62
256
6
ByLayer
370
18
48
1
60
0
100
AcDbTrace
10
81.5
20
32.952229
30
0
11
78.000002
21
32.491446
31
0
12
77.999998
22
33.413013
32
0
13
77.999998
23
33.413013
33
0
39
0
210
0
220
0
230
1
0
SOLID
5
1A2
100
AcDbEntity
8
SK2
62
256
6
ByLayer
370
18
48
1
60
0
100
AcDbTrace
10
22
20
32.952229
30
0
11
25.499998
21
33.413013
31
0
12
25.500002
22
32.491446
32
0
13
25.500002
23
32.491446
33
0
39
0
210
0
220
0
230
1
0
ENDBLK
5
1A4
100
AcDbEntity
8
0
100
AcDbBlockEnd
0
ENDSEC
0
SECTION
2
ENTITIES
0
ARC
5
C1
100
AcDbEntity
8
SK2
62
256
6
ByLayer
370
13
48
1
60
0
100
AcDbCircle
39
0
10
81.5
20
0
30
0
40
19
210
0
220
0
230
1
100
AcDbArc
50
290
51
70
0
ELLIPSE
5
C2
100
AcDbEntity
8
SK1
62
256
6
ByLayer
370
18
48
1
60
0
100
AcDbEllipse
10
209.817277
20
0
30
0
11
286.362532830084
21
-3.24477297310427E-13
31
0
210
0
220
0
230
1
40
0.034921
41
2.47357625657654
42
2.64710298745217
0
ELLIPSE
5
C3
100
AcDbEntity
8
SK1
62
256
6
ByLayer
370
18
48
1
60
0
100
AcDbEllipse
10
-22.723687
20
0
30
0
11
10.7236871002449
21
-1.21510065339267E-14
31
0
210
0
220
0
230
1
40
0.932515
41
-0.59537570803654
42
0.595375708036542
0
ELLIPSE
5
C4
100
AcDbEntity
8
SK1
62
256
6
ByLayer
370
18
48
1
60
0
100
AcDbEllipse
10
209.817277
20
0
30
0
11
286.362532824103
21
-3.2447729730365E-13
31
0
210
0
220
0
230
1
40
0.034921
41
-2.64710298745053
42
-2.47357625657208
0
ELLIPSE
5
C5
100
AcDbEntity
8
SK1
62
256
6
ByLayer
370
18
48
1
60
0
100
AcDbEllipse
10
-34.674849
20
0
30
0
11
-1.83690953073338E-15
21
-9.99999999999897
31
0
210
0
220
0
230
1
40
0.932515
41
-1.94446667349865
42
-1.19712598009114
0
POINT
5
70
100
AcDbEntity
8
81
62
256
6
ByLayer
370
18
48
1
60
0
100
AcDbPoint
10
81.5
20
0
30
0
39
0
210
0
220
0
230
1
50
360
0
POINT
5
72
100
AcDbEntity
8
80
62
256
6
ByLayer
370
18
48
1
60
0
100
AcDbPoint
10
0
20
0
30
0
39
0
210
0
220
0
230
1
50
360
0
POINT
5
74
100
AcDbEntity
8
1
62
256
6
ByLayer
370
18
48
1
60
1
100
AcDbPoint
10
-50
20
-10
30
0
39
0
210
0
220
0
230
1
50
360
0
POINT
5
76
100
AcDbEntity
8
1
62
256
6
ByLayer
370
18
48
1
60
1
100
AcDbPoint
10
81.5
20
0
30
0
39
0
210
0
220
0
230
1
50
360
0
POINT
5
77
100
AcDbEntity
8
1
62
256
6
ByLayer
370
18
48
1
60
1
100
AcDbPoint
10
81.5
20
0
30
0
39
0
210
0
220
0
230
1
50
360
0
POINT
5
78
100
AcDbEntity
8
1
62
256
6
ByLayer
370
18
48
1
60
1
100
AcDbPoint
10
3
20
-8
30
0
39
0
210
0
220
0
230
1
50
360
0
POINT
5
79
100
AcDbEntity
8
1
62
256
6
ByLayer
370
18
48
1
60
1
100
AcDbPoint
10
-50
20
-10
30
0
39
0
210
0
220
0
230
1
50
360
0
POINT
5
7A
100
AcDbEntity
8
1
62
256
6
ByLayer
370
18
48
1
60
1
100
AcDbPoint
10
0
20
-10
30
0
39
0
210
0
220
0
230
1
50
360
0
POINT
5
7B
100
AcDbEntity
8
1
62
256
6
ByLayer
370
18
48
1
60
1
100
AcDbPoint
10
81.5
20
0
30
0
39
0
210
0
220
0
230
1
50
360
0
POINT
5
7C
100
AcDbEntity
8
1
62
256
6
ByLayer
370
18
48
1
60
1
100
AcDbPoint
10
22
20
8
30
0
39
0
210
0
220
0
230
1
50
360
0
SPLINE
5
C6
100
AcDbEntity
8
1
62
256
6
ByLayer
370
18
48
1
60
0
100
AcDbSpline
70
4
71
3
72
20
73
16
40
0
40
0
40
0
40
0
40
0.250000000000006
40
0.250000000000006
40
0.375000000000005
40
0.375000000000005
40
0.500000000000004
40
0.500000000000004
40
0.750000000000002
40
0.750000000000002
40
0.875000000000001
40
0.875000000000001
40
0.937500000000001
40
0.937500000000001
40
1
40
1
40
1
40
1
41
1
10
78.5882381259
20
-1.14087137426088
30
0
41
1
10
77.8633048731555
20
-0.879189022216963
30
0
41
1
10
77.138729228748
20
-0.617240061877197
30
0
41
1
10
76.052680287542
20
-0.223125326517646
30
0
41
1
10
75.6908042523646
20
-0.0915431523013126
30
0
41
1
10
74.96738155536
20
0.172174805103936
30
0
41
1
10
74.6058533067383
20
0.304360641092757
30
0
41
1
10
73.5207620020637
20
0.698979959584818
30
0
41
1
10
72.7969678766135
20
0.960241946644487
30
0
41
1
10
71.7109666103104
20
1.35021173137471
30
0
41
1
10
71.3489246181103
20
1.47990834633697
30
0
41
1
10
70.8058055653212
20
1.67402693233214
30
0
41
1
10
70.6247509678429
20
1.73864671146876
30
0
41
1
10
70.2624882578326
20
1.86737481945045
30
0
41
1
10
70.0812801481568
20
1.93148324174996
30
0
41
1
10
69.9
20
1.99534915768754
30
0
0
SPLINE
5
C7
100
AcDbEntity
8
1
62
256
6
ByLayer
370
18
48
1
60
0
100
AcDbSpline
70
4
71
3
72
85
73
81
40
0
40
0
40
0
40
0
40
0.0312499999999967
40
0.0312499999999967
40
0.0624999999999935
40
0.0624999999999935
40
0.124999999999987
40
0.124999999999987
40
0.140624999999986
40
0.140624999999986
40
0.156249999999986
40
0.156249999999986
40
0.187499999999985
40
0.187499999999985
40
0.24999999999998
40
0.24999999999998
40
0.281249999999978
40
0.281249999999978
40
0.296874999999978
40
0.296874999999978
40
0.312499999999978
40
0.312499999999978
40
0.343749999999978
40
0.343749999999978
40
0.374999999999978
40
0.374999999999978
40
0.406249999999978
40
0.406249999999978
40
0.437499999999978
40
0.437499999999978
40
0.445312499999978
40
0.445312499999978
40
0.453124999999979
40
0.46874999999998
40
0.46874999999998
40
0.499999999999982
40
0.499999999999982
40
0.531249999999983
40
0.531249999999983
40
0.539062499999984
40
0.539062499999984
40
0.546874999999985
40
0.562499999999986
40
0.562499999999986
40
0.59374999999999
40
0.59374999999999
40
0.624999999999994
40
0.624999999999994
40
0.632812499999995
40
0.632812499999995
40
0.640624999999996
40
0.65625
40
0.65625
40
0.687500000000005
40
0.687500000000005
40
0.718750000000011
40
0.718750000000011
40
0.726562500000011
40
0.726562500000011
40
0.734375000000011
40
0.734375000000011
40
0.750000000000011
40
0.750000000000011
40
0.78125000000001
40
0.78125000000001
40
0.81250000000001
40
0.84375000000001
40
0.84375000000001
40
0.851562500000009
40
0.851562500000009
40
0.859375000000009
40
0.875000000000008
40
0.875000000000008
40
0.906250000000006
40
0.937500000000004
40
0.968750000000002
40
0.968750000000002
40
0.984375000000001
40
0.984375000000001
40
1
40
1
40
1
40
1
41
1
10
78.5882381258969
20
7.74599874945929
30
0
41
1
10
78.6382147489146
20
7.6220455110853
30
0
41
1
10
78.688269472186
20
7.49623570572408
30
0
41
1
10
78.7886188049148
20
7.24120514167802
30
0
41
1
10
78.838913366103
20
7.11198311099909
30
0
41
1
10
78.9902455853872
20
6.71951616500707
30
0
41
1
10
79.0917454750305
20
6.45149776662788
30
0
41
1
10
79.2194921486868
20
6.10910098935312
30
0
41
1
10
79.2450839774398
20
6.04025072498916
30
0
41
1
10
79.2963503892585
20
5.9018145941387
30
0
41
1
10
79.3220344642867
20
5.83220205665268
30
0
41
1
10
79.3987486890987
20
5.62350808476055
30
0
41
1
10
79.4495947508461
20
5.4841624012366
30
0
41
1
10
79.6011800988666
20
5.06547169083461
30
0
41
1
10
79.7010176738868
20
4.78549268945977
30
0
41
1
10
79.8479654107571
20
4.36393829401055
30
0
41
1
10
79.8964691164533
20
4.22315162894336
30
0
41
1
10
79.9682363389672
20
4.0114743625661
30
0
41
1
10
79.9919927229759
20
3.94083190870782
30
0
41
1
10
80.0391089571405
20
3.7993572796569
30
0
41
1
10
80.0624815368013
20
3.72848444127126
30
0
41
1
10
80.1315510809127
20
3.51656526897349
30
0
41
1
10
80.176320270964
20
3.37589764376588
30
0
41
1
10
80.2624857977339
20
3.09555401582094
30
0
41
1
10
80.3038877856015
20
2.95587892242264
30
0
41
1
10
80.3820608391594
20
2.67722880873109
30
0
41
1
10
80.4188385015619
20
2.5382543740711
30
0
41
1
10
80.4858679895313
20
2.2606284278059
30
0
41
1
10
80.5161227738732
20
2.12197577066641
30
0
41
1
10
80.5481760148205
20
1.94857317058097
30
0
41
1
10
80.5543013679707
20
1.91385820783407
30
0
41
1
10
80.5658989581796
20
1.84454918983806
30
0
41
1
10
80.5822871600841
20
1.74094954875531
30
0
41
1
10
80.5954746204553
20
1.63845507850743
30
0
41
1
10
80.6171528115688
20
1.4349953693368
30
0
41
1
10
80.6252965586217
20
1.30138732202121
30
0
41
1
10
80.6274450325839
20
1.03870280453682
30
0
41
1
10
80.6214368916844
20
0.909628641198907
30
0
41
1
10
80.6051441779285
20
0.751539013385269
30
0
41
1
10
80.6014453635102
20
0.720044360437555
30
0
41
1
10
80.5932201876155
20
0.657577274686787
30
0
41
1
10
80.5796729656586
20
0.56487081855434
30
0
41
1
10
80.5627066339791
20
0.47511064734681
30
0
41
1
10
80.5247832535164
20
0.29942480222104
30
0
41
1
10
80.4942018398698
20
0.187406512627547
30
0
41
1
10
80.4251926527708
20
-0.0268117791422924
30
0
41
1
10
80.3867707195287
20
-0.129014694324894
30
0
41
1
10
80.3351135901695
20
-0.250722449584089
30
0
41
1
10
80.3245885929445
20
-0.27478345542707
30
0
41
1
10
80.3032447417495
20
-0.322191300678753
30
0
41
1
10
80.2708292239952
20
-0.392143299466767
30
0
41
1
10
80.2373384516387
20
-0.45868395909639
30
0
41
1
10
80.1691830672507
20
-0.587352658350227
30
0
41
1
10
80.1221965244602
20
-0.667260544031166
30
0
41
1
10
80.0260349426757
20
-0.815722729553642
30
0
41
1
10
79.976853421202
20
-0.884274928051298
30
0
41
1
10
79.9143042579472
20
-0.962878382953051
30
0
41
1
10
79.9017400170974
20
-0.978243902837249
30
0
41
1
10
79.8765073837108
20
-1.00826161259451
30
0
41
1
10
79.8638320479852
20
-1.02292069969442
30
0
41
1
10
79.8258216227511
20
-1.0656400937952
30
0
41
1
10
79.800450876632
20
-1.09250672289946
30
0
41
1
10
79.7242869366469
20
-1.16837582376931
30
0
41
1
10
79.6734458233993
20
-1.21265726273356
30
0
41
1
10
79.5717256100139
20
-1.28893972677363
30
0
41
1
10
79.4699649663651
20
-1.35293924678351
30
0
41
1
10
79.368094545064
20
-1.39240408369173
30
0
41
1
10
79.3043385168176
20
-1.40923608123285
30
0
41
1
10
79.2915770636833
20
-1.41221029817493
30
0
41
1
10
79.2661600195092
20
-1.41734727075951
30
0
41
1
10
79.2281507891958
20
-1.42384782695751
30
0
41
1
10
79.1904781198427
20
-1.42677372650641
30
0
41
1
10
79.1155485124292
20
-1.42793995581192
30
0
41
1
10
79.0167506929408
20
-1.41701645429927
30
0
41
1
10
78.8713581160031
20
-1.36386703264097
30
0
41
1
10
78.775957187719
20
-1.30387824458597
30
0
41
1
10
78.7048501792157
20
-1.24947657364547
30
0
41
1
10
78.6812950469931
20
-1.22982662224183
30
0
41
1
10
78.6345317121711
20
-1.18757543721773
30
0
41
1
10
78.6113108226215
20
-1.16496454537787
30
0
41
1
10
78.5882381258969
20
-1.14087137425972
30
0
0
SPLINE
5
C8
100
AcDbEntity
8
1
62
256
6
ByLayer
370
18
48
1
60
0
100
AcDbSpline
70
4
71
3
72
23
73
19
40
0
40
0
40
0
40
0
40
0.0220287855249343
40
0.0220287855249343
40
0.119825906972446
40
0.119825906972446
40
0.217623028419958
40
0.217623028419958
40
0.31542014986747
40
0.31542014986747
40
0.413217271314982
40
0.608811514209992
40
0.608811514209992
40
0.804405757105003
40
0.804405757105003
40
0.902202878552501
40
0.902202878552501
40
1
40
1
40
1
40
1
41
1
10
73.0368206731023
20
7.9990008443398
30
0
41
1
10
73.0775764543661
20
7.9990093439998
30
0
41
1
10
73.1183305506023
20
7.99897671566279
30
0
41
1
10
73.3400035069652
20
7.99857545315092
30
0
41
1
10
73.5208896687905
20
7.9974363366901
30
0
41
1
10
73.8825798363452
20
7.99352320623009
30
0
41
1
10
74.0633744766347
20
7.99074756932913
30
0
41
1
10
74.4249235637209
20
7.98355233469437
30
0
41
1
10
74.605692799834
20
7.97913405825912
30
0
41
1
10
74.9673625359185
20
7.96869347855579
30
0
41
1
10
75.5100160081228
20
7.9506210936753
30
0
41
1
10
76.0529697446087
20
7.92533919254689
30
0
41
1
10
76.7771005762665
20
7.8852183434777
30
0
41
1
10
77.1392611703657
20
7.86195226467507
30
0
41
1
10
77.6825717633116
20
7.82216255609816
30
0
41
1
10
77.8636869165626
20
7.80808342251277
30
0
41
1
10
78.2259283555941
20
7.77826983226566
30
0
41
1
10
78.4070470842037
20
7.76252868325469
30
0
41
1
10
78.5882381259
20
7.74599874945901
30
0
0
SPLINE
5
C9
100
AcDbEntity
8
1
62
256
6
ByLayer
370
18
48
1
60
0
100
AcDbSpline
70
4
71
3
72
28
73
24
40
0
40
0
40
0
40
0
40
0.0343140060620147
40
0.0343140060620147
40
0.0986930723245483
40
0.0986930723245483
40
0.227451204849613
40
0.227451204849613
40
0.356209337374678
40
0.356209337374678
40
0.420588403637212
40
0.420588403637212
40
0.484967469899746
40
0.484967469899746
40
0.613725602424811
40
0.613725602424811
40
0.678104668687344
40
0.678104668687344
40
0.742483734949876
40
0.742483734949876
40
0.871241867474938
40
0.871241867474938
40
1
40
1
40
1
40
1
41
1
10
56.9881550197058
20
5.66409839687211
30
0
41
1
10
57.1360499645513
20
5.69920976362246
30
0
41
1
10
57.2839597719777
20
5.7339803051517
30
0
41
1
10
57.7094076827359
20
5.83301774328589
30
0
41
1
10
57.9870510289242
20
5.89648836900378
30
0
41
1
10
58.8198240697824
20
6.08173621556074
30
0
41
1
10
59.3747699445706
20
6.19874403384853
30
0
41
1
10
60.4837769909295
20
6.42078318265953
30
0
41
1
10
61.0378595888462
20
6.52577532280526
30
0
41
1
10
61.8680818470858
20
6.67451508901741
30
0
41
1
10
62.1446675804359
20
6.72263077017575
30
0
41
1
10
62.6980328132156
20
6.81522847387046
30
0
41
1
10
62.9747688756287
20
6.85978032410742
30
0
41
1
10
63.8050087842556
20
6.98842257744067
30
0
41
1
10
64.3585708280086
20
7.06747755315587
30
0
41
1
10
65.1887789167147
20
7.17625551409691
30
0
41
1
10
65.4654916103758
20
7.21087803577726
30
0
41
1
10
66.0188256911975
20
7.27685061301864
30
0
41
1
10
66.2954593839714
20
7.3081797664785
30
0
41
1
10
67.1259787825625
20
7.39654494182892
30
0
41
1
10
67.6802540581762
20
7.44821338707541
30
0
41
1
10
68.7895937613036
20
7.5374970038842
30
0
41
1
10
69.3446708277925
20
7.57510199527317
30
0
41
1
10
69.8999999999999
20
7.60559398866201
30
0
0
SPLINE
5
CA
100
AcDbEntity
8
1
62
256
6
ByLayer
370
18
48
1
60
0
100
AcDbSpline
70
4
71
3
72
58
73
54
40
0
40
0
40
0
40
0
40
0.060457664390733
40
0.060457664390733
40
0.0906864965860995
40
0.0906864965860995
40
0.120915328781466
40
0.120915328781466
40
0.181372993172199
40
0.181372993172199
40
0.241830657562932
40
0.241830657562932
40
0.272059489758299
40
0.272059489758299
40
0.302288321953665
40
0.302288321953665
40
0.332517154149031
40
0.332517154149031
40
0.362745986344398
40
0.362745986344398
40
0.392974818539765
40
0.392974818539765
40
0.423203650735131
40
0.423203650735131
40
0.483661315125865
40
0.483661315125865
40
0.513890147321232
40
0.513890147321232
40
0.5441189795166
40
0.5441189795166
40
0.604576643907334
40
0.604576643907334
40
0.665034308298068
40
0.665034308298068
40
0.680148724395752
40
0.680148724395752
40
0.695263140493437
40
0.695263140493437
40
0.725491972688805
40
0.725491972688805
40
0.785949637079542
40
0.785949637079542
40
0.81617846927491
40
0.81617846927491
40
0.846407301470279
40
0.846407301470279
40
0.906864965861015
40
0.906864965861015
40
0.937093798056383
40
0.937093798056383
40
0.967322630251751
40
0.967322630251751
40
1
40
1
40
1
40
1
41
1
10
69.9
20
1.81654335717536
30
0
41
1
10
69.3085168403017
20
2.01789563429665
30
0
41
1
10
68.7174345932436
20
2.21653527783795
30
0
41
1
10
67.8315283691944
20
2.51080378338321
30
0
41
1
10
67.5363491924745
20
2.60828573961874
30
0
41
1
10
66.9462570936975
20
2.80207945335681
30
0
41
1
10
66.6513775191893
20
2.89847831574295
30
0
41
1
10
65.7666946639152
20
3.18471509358761
30
0
41
1
10
65.1767893330608
20
3.37145971529697
30
0
41
1
10
63.9969284700995
20
3.73736327531174
30
0
41
1
10
63.4069788562154
20
3.91653683494391
30
0
41
1
10
62.5221394433094
20
4.17983485772484
30
0
41
1
10
62.2271756428762
20
4.26660850394683
30
0
41
1
10
61.6368799734344
20
4.43736898479324
30
0
41
1
10
61.3415871802535
20
4.52145267452448
30
0
41
1
10
60.7507363724929
20
4.68709473473265
30
0
41
1
10
60.4551770801718
20
4.76865008638586
30
0
41
1
10
59.8638111710593
20
4.92927361502149
30
0
41
1
10
59.5679642746136
20
5.0083538719644
30
0
41
1
10
58.9768288312832
20
5.16387154015428
30
0
41
1
10
58.6814675224344
20
5.24037600417262
30
0
41
1
10
58.0910044787979
20
5.39052573827126
30
0
41
1
10
57.7958291455822
20
5.46401693798515
30
0
41
1
10
56.9103631936916
20
5.67957298468295
30
0
41
1
10
56.3201926431694
20
5.81685908026145
30
0
41
1
10
55.435270377592
20
6.01345280357722
30
0
41
1
10
55.1403554369874
20
6.07743161139356
30
0
41
1
10
54.5506616848991
20
6.20229077457324
30
0
41
1
10
54.25591357021
20
6.2632180946448
30
0
41
1
10
53.3713748139455
20
6.44048482422591
30
0
41
1
10
52.7813061809099
20
6.55137410302569
30
0
41
1
10
51.6006000295284
20
6.75898500433055
30
0
41
1
10
51.0099762007629
20
6.85572473714535
30
0
41
1
10
50.2714210432799
20
6.96775660066768
30
0
41
1
10
50.1236908667677
20
6.98971014938886
30
0
41
1
10
49.8281325789357
20
7.03263646488634
30
0
41
1
10
49.680275323255
20
7.05360753513998
30
0
41
1
10
49.2367752389549
20
7.1150102956679
30
0
41
1
10
48.9411960426908
20
7.15393888475583
30
0
41
1
10
48.0547510284261
20
7.26479504688928
30
0
41
1
10
47.464168868862
20
7.33080007583123
30
0
41
1
10
46.579024727203
20
7.41807973452509
30
0
41
1
10
46.2841230299334
20
7.44523022227585
30
0
41
1
10
45.6944143815536
20
7.49546988621501
30
0
41
1
10
45.3995366960858
20
7.51851279033909
30
0
41
1
10
44.5147857096522
20
7.58144308002869
30
0
41
1
10
43.9248308714409
20
7.61517205261816
30
0
41
1
10
43.0398454661322
20
7.65351329976008
30
0
41
1
10
42.7448450447579
20
7.66424917135021
30
0
41
1
10
42.1548484369553
20
7.68159797240997
30
0
41
1
10
41.8598761205657
20
7.68820857314341
30
0
41
1
10
41.2456708479855
20
7.69758443751675
30
0
41
1
10
40.9264301267352
20
7.70001174167663
30
0
41
1
10
40.6070189842264
20
7.70000374584311
30
0
0
SPLINE
5
CB
100
AcDbEntity
8
1
62
256
6
ByLayer
370
18
48
1
60
0
100
AcDbSpline
70
4
71
3
72
14
73
10
40
0
40
0
40
0
40
0
40
0.173167691093895
40
0.173167691093895
40
0.34633538218779
40
0.34633538218779
40
0.692670764375581
40
0.692670764375581
40
1
40
1
40
1
40
1
41
1
10
69.9
20
-7.91703597609237
30
0
41
1
10
70.0812093807513
20
-7.92648858769408
30
0
41
1
10
70.2623272353225
20
-7.93513926726706
30
0
41
1
10
70.6245422330126
20
-7.95077907338774
30
0
41
1
10
70.8056532402622
20
-7.95776580361428
30
0
41
1
10
71.3489647754068
20
-7.97626462246228
30
0
41
1
10
71.7111261112611
20
-7.9853226322029
30
0
41
1
10
72.3944838792236
20
-7.99631371415728
30
0
41
1
10
72.71570433941
20
-7.99893387266295
30
0
41
1
10
73.0368201947061
20
-7.99900084424004
30
0
0
SPLINE
5
CC
100
AcDbEntity
8
1
62
256
6
ByLayer
370
18
48
1
60
0
100
AcDbSpline
70
4
71
3
72
112
73
108
40
0
40
0
40
0
40
0
40
0.0312500000000031
40
0.0312500000000031
40
0.0625000000000061
40
0.0625000000000061
40
0.0781250000000077
40
0.0781250000000077
40
0.0859375000000084
40
0.0859375000000084
40
0.0937500000000092
40
0.0937500000000092
40
0.125000000000012
40
0.125000000000012
40
0.140625000000014
40
0.140625000000014
40
0.148437500000014
40
0.148437500000014
40
0.156250000000015
40
0.156250000000015
40
0.171875000000016
40
0.171875000000016
40
0.187500000000018
40
0.187500000000018
40
0.203125000000019
40
0.203125000000019
40
0.218750000000021
40
0.218750000000021
40
0.226562500000022
40
0.226562500000022
40
0.234375000000023
40
0.234375000000023
40
0.250000000000024
40
0.250000000000024
40
0.281250000000026
40
0.281250000000026
40
0.296875000000027
40
0.296875000000027
40
0.304687500000027
40
0.304687500000027
40
0.312500000000028
40
0.312500000000028
40
0.343750000000027
40
0.343750000000027
40
0.375000000000025
40
0.375000000000025
40
0.382812500000025
40
0.382812500000025
40
0.390625000000025
40
0.390625000000025
40
0.406250000000024
40
0.406250000000024
40
0.437500000000022
40
0.437500000000022
40
0.453125000000021
40
0.453125000000021
40
0.46875000000002
40
0.46875000000002
40
0.500000000000019
40
0.500000000000019
40
0.531250000000017
40
0.531250000000017
40
0.546875000000016
40
0.546875000000016
40
0.562500000000015
40
0.562500000000015
40
0.578125000000014
40
0.578125000000014
40
0.593750000000013
40
0.593750000000013
40
0.609375000000012
40
0.609375000000012
40
0.625000000000011
40
0.625000000000011
40
0.640625000000011
40
0.640625000000011
40
0.65625000000001
40
0.65625000000001
40
0.687500000000009
40
0.687500000000009
40
0.703125000000008
40
0.703125000000008
40
0.718750000000008
40
0.718750000000008
40
0.750000000000007
40
0.750000000000007
40
0.765625000000007
40
0.765625000000007
40
0.781250000000006
40
0.781250000000006
40
0.812500000000005
40
0.812500000000005
40
0.843750000000004
40
0.843750000000004
40
0.859375000000004
40
0.859375000000004
40
0.875000000000003
40
0.875000000000003
40
0.906250000000002
40
0.906250000000002
40
0.921875000000001
40
0.921875000000001
40
0.937500000000001
40
0.937500000000001
40
0.96875
40
0.96875
40
1
40
1
40
1
40
1
41
1
10
16.6798623052549
20
6.50922149579418
30
0
41
1
10
17.2350821305428
20
6.40470953045585
30
0
41
1
10
17.7902033386941
20
6.29468901701341
30
0
41
1
10
18.8998900535881
20
6.06332274211601
30
0
41
1
10
19.4544583225823
20
5.94198012036892
30
0
41
1
10
20.2856465215597
20
5.7509756582194
30
0
41
1
10
20.5625678785994
20
5.68574518389698
30
0
41
1
10
20.9778720233183
20
5.58579499259852
30
0
41
1
10
21.1163075144509
20
5.55215476095208
30
0
41
1
10
21.3932351599849
20
5.48434144588049
30
0
41
1
10
21.5317203639618
20
5.45015483759246
30
0
41
1
10
22.2242195560144
20
5.27776507007022
30
0
41
1
10
22.7784336674794
20
5.13516523455331
30
0
41
1
10
23.6098485484582
20
4.91378264368726
30
0
41
1
10
23.8870014845983
20
4.83873641912342
30
0
41
1
10
24.3027207524843
20
4.72419838809992
30
0
41
1
10
24.4412920525899
20
4.68569051043357
30
0
41
1
10
24.7184256270755
20
4.60799997875097
30
0
41
1
10
24.8569871708063
20
4.56881517913479
30
0
41
1
10
25.2727522373898
20
4.4504626907779
30
0
41
1
10
25.5500952228724
20
4.37063747429195
30
0
41
1
10
26.1051461536036
20
4.20924944138002
30
0
41
1
10
26.3828297298055
20
4.12762827360166
30
0
41
1
10
26.9384746296534
20
3.96244530501434
30
0
41
1
10
27.2163162455026
20
3.87892322748155
30
0
41
1
10
27.7715995519438
20
3.71003366249965
30
0
41
1
10
28.0491012855068
20
3.62464738784209
30
0
41
1
10
28.4651103433586
20
3.49506314229833
30
0
41
1
10
28.6037390100757
20
3.45161638512894
30
0
41
1
10
28.8809103840583
20
3.3642067755886
30
0
41
1
10
29.0194552488411
20
3.32024934862227
30
0
41
1
10
29.4350667596665
20
3.18787882904391
30
0
41
1
10
29.7121659477723
20
3.09911458975975
30
0
41
1
10
30.5435189735273
20
2.83124685083902
30
0
41
1
10
31.0977649822862
20
2.65040542630683
30
0
41
1
10
31.9289271566516
20
2.37516494043874
30
0
41
1
10
32.2059453733119
20
2.28275012044279
30
0
41
1
10
32.6213856732133
20
2.14302639008005
30
0
41
1
10
32.7598500553909
20
2.09626477097174
30
0
41
1
10
33.0367491140374
20
2.00237004165919
30
0
41
1
10
33.1751872687132
20
1.95524640659417
30
0
41
1
10
33.8674943706451
20
1.71922895666503
30
0
41
1
10
34.4219108472184
20
1.52970406519782
30
0
41
1
10
35.5314244611958
20
1.14800519106072
30
0
41
1
10
36.0865433581896
20
0.955892448217355
30
0
41
1
10
36.7806844491341
20
0.713515291903803
30
0
41
1
10
36.9195435024788
20
0.664913415689398
30
0
41
1
10
37.1971444312968
20
0.567551981536297
30
0
41
1
10
37.3358979469353
20
0.518800730336693
30
0
41
1
10
37.752124827061
20
0.372649919221232
30
0
41
1
10
38.0296020115344
20
0.275462615922635
30
0
41
1
10
38.8618963518845
20
-0.0157091975996764
30
0
41
1
10
39.4165679671599
20
-0.209329754991671
30
0
41
1
10
40.2480651866507
20
-0.49967584805259
30
0
41
1
10
40.525144545252
20
-0.596447092219734
30
0
41
1
10
41.0790847004902
20
-0.790094964183879
30
0
41
1
10
41.3559004021106
20
-0.887099857623383
30
0
41
1
10
42.1865211535389
20
-1.1768302406519
30
0
41
1
10
42.7406539572116
20
-1.36783950126107
30
0
41
1
10
43.8491746459199
20
-1.74707185913886
30
0
41
1
10
44.4035961032418
20
-1.93519931209895
30
0
41
1
10
45.235209108897
20
-2.21586523477788
30
0
41
1
10
45.5123668347418
20
-2.3092856480784
30
0
41
1
10
46.0670527237562
20
-2.49456211782544
30
0
41
1
10
46.3446053381459
20
-2.58635175417768
30
0
41
1
10
46.9000251982021
20
-2.76852963721785
30
0
41
1
10
47.1779478283718
20
-2.85892399723574
30
0
41
1
10
47.7333824323227
20
-3.03816030250849
30
0
41
1
10
48.0109744197124
20
-3.12702708264786
30
0
41
1
10
48.5658634096524
20
-3.30337597117426
30
0
41
1
10
48.8431609223889
20
-3.3908567265872
30
0
41
1
10
49.397415135804
20
-3.56453472450178
30
0
41
1
10
49.6743321256465
20
-3.65082943919796
30
0
41
1
10
50.2282469580881
20
-3.82104210407937
30
0
41
1
10
50.5052449117328
20
-3.90496625034567
30
0
41
1
10
51.0592232770218
20
-4.07072679264777
30
0
41
1
10
51.3362080571819
20
-4.1525516600995
30
0
41
1
10
52.1670991819923
20
-4.39499579504411
30
0
41
1
10
52.7209432832892
20
-4.55259290776172
30
0
41
1
10
53.5513173972035
20
-4.78347036745689
30
0
41
1
10
53.8280110352702
20
-4.85957527110364
30
0
41
1
10
54.3817217340568
20
-5.00890643435244
30
0
41
1
10
54.6587210003474
20
-5.08217875657414
30
0
41
1
10
55.4900047837225
20
-5.29816965163354
30
0
41
1
10
56.0445995712527
20
-5.43701693451166
30
0
41
1
10
56.8768692711624
20
-5.63802107458497
30
0
41
1
10
57.1543547576859
20
-5.70381034013309
30
0
41
1
10
57.7094076827359
20
-5.83301774328589
30
0
41
1
10
57.9870510289242
20
-5.89648836900378
30
0
41
1
10
58.8198240697824
20
-6.08173621556074
30
0
41
1
10
59.3747699445706
20
-6.19874403384856
30
0
41
1
10
60.4837769909295
20
-6.42078318265953
30
0
41
1
10
61.0378595888462
20
-6.52577532280526
30
0
41
1
10
61.8680818470857
20
-6.67451508901743
30
0
41
1
10
62.1446675804359
20
-6.72263077017578
30
0
41
1
10
62.6980328132157
20
-6.81522847387046
30
0
41
1
10
62.9747688756287
20
-6.85978032410742
30
0
41
1
10
63.8050087842556
20
-6.98842257744067
30
0
41
1
10
64.3585708280086
20
-7.06747755315587
30
0
41
1
10
65.1887789167146
20
-7.17625551409691
30
0
41
1
10
65.4654916103758
20
-7.21087803577726
30
0
41
1
10
66.0188256911975
20
-7.27685061301864
30
0
41
1
10
66.2954593839714
20
-7.3081797664785
30
0
41
1
10
67.1259787825625
20
-7.39654494182892
30
0
41
1
10
67.6802540581762
20
-7.44821338707541
30
0
41
1
10
68.7895937613035
20
-7.5374970038842
30
0
41
1
10
69.3446708277925
20
-7.57510199527317
30
0
41
1
10
69.9
20
-7.60559398866201
30
0
0
SPLINE
5
CD
100
AcDbEntity
8
1
62
256
6
ByLayer
370
18
48
1
60
0
100
AcDbSpline
70
4
71
3
72
89
73
85
40
0
40
0
40
0
40
0
40
0.0287529687509381
40
0.0287529687509381
40
0.0489872819019601
40
0.0489872819019601
40
0.0692215950529819
40
0.0692215950529819
40
0.109690221355025
40
0.109690221355025
40
0.150158847657068
40
0.150158847657068
40
0.160276004232579
40
0.160276004232579
40
0.17039316080809
40
0.17039316080809
40
0.190627473959112
40
0.190627473959112
40
0.231096100261156
40
0.231096100261156
40
0.251330413412178
40
0.251330413412178
40
0.2715647265632
40
0.2715647265632
40
0.312033352865243
40
0.312033352865243
40
0.332267666016266
40
0.332267666016266
40
0.352501979167287
40
0.352501979167287
40
0.39297060546933
40
0.39297060546933
40
0.403087762044841
40
0.403087762044841
40
0.413204918620352
40
0.413204918620352
40
0.433439231771373
40
0.433439231771373
40
0.443556388346884
40
0.443556388346884
40
0.453673544922394
40
0.453673544922394
40
0.473907858073416
40
0.473907858073416
40
0.51437648437546
40
0.51437648437546
40
0.534610797526482
40
0.534610797526482
40
0.554845110677503
40
0.554845110677503
40
0.595313736979547
40
0.595313736979547
40
0.615548050130569
40
0.615548050130569
40
0.635782363281592
40
0.635782363281592
40
0.656016676432614
40
0.656016676432614
40
0.676250989583637
40
0.696485302734659
40
0.696485302734659
40
0.716719615885681
40
0.716719615885681
40
0.726836772461193
40
0.726836772461193
40
0.736953929036704
40
0.736953929036704
40
0.757188242187726
40
0.757188242187726
40
0.797656868489771
40
0.797656868489771
40
0.817891181640794
40
0.817891181640794
40
0.838125494791816
40
0.838125494791816
40
0.878594121093862
40
0.878594121093862
40
0.898828434244885
40
0.898828434244885
40
0.919062747395907
40
0.919062747395907
40
0.959531373697954
40
0.959531373697954
40
1
40
1
40
1
40
1
41
1
10
56.988026687363
20
-5.65906685176074
30
0
41
1
10
56.5686733668498
20
-5.75853996605758
30
0
41
1
10
56.149402788242
20
-5.85480163724168
30
0
41
1
10
55.4352703775919
20
-6.0134528035772
30
0
41
1
10
55.1403554369874
20
-6.07743161139356
30
0
41
1
10
54.5506616848991
20
-6.20229077457324
30
0
41
1
10
54.25591357021
20
-6.26321809464477
30
0
41
1
10
53.3713748139455
20
-6.44048482422591
30
0
41
1
10
52.7813061809099
20
-6.55137410302569
30
0
41
1
10
51.6006000295285
20
-6.75898500433053
30
0
41
1
10
51.0099762007629
20
-6.85572473714535
30
0
41
1
10
50.2714210432798
20
-6.96775660066766
30
0
41
1
10
50.1236908667677
20
-6.98971014938886
30
0
41
1
10
49.8281325789358
20
-7.03263646488634
30
0
41
1
10
49.680275323255
20
-7.05360753513998
30
0
41
1
10
49.2367752389549
20
-7.1150102956679
30
0
41
1
10
48.9411960426908
20
-7.15393888475532
30
0
41
1
10
48.054751028426
20
-7.26479504688876
30
0
41
1
10
47.464168868862
20
-7.33080007583121
30
0
41
1
10
46.579024727203
20
-7.41807973452507
30
0
41
1
10
46.2841230299334
20
-7.44523022227582
30
0
41
1
10
45.6944143815535
20
-7.49546988621501
30
0
41
1
10
45.3995366960858
20
-7.51851279033909
30
0
41
1
10
44.5147857096522
20
-7.58144308002869
30
0
41
1
10
43.9248308714409
20
-7.61517205261816
30
0
41
1
10
43.0398454661321
20
-7.65351329976008
30
0
41
1
10
42.7448450447579
20
-7.66424917135018
30
0
41
1
10
42.1548484369553
20
-7.68159797240997
30
0
41
1
10
41.8598761205658
20
-7.68820857314341
30
0
41
1
10
40.9744288572746
20
-7.70172495572916
30
0
41
1
10
40.3834990111383
20
-7.70237311665289
30
0
41
1
10
39.6441588553212
20
-7.69279160895033
30
0
41
1
10
39.4962399315663
20
-7.69035406847215
30
0
41
1
10
39.2005328956838
20
-7.68443864291157
30
0
41
1
10
39.05272361809
20
-7.68096060772348
30
0
41
1
10
38.6094347627649
20
-7.66896196676313
30
0
41
1
10
38.3141011726759
20
-7.6588749358308
30
0
41
1
10
37.87136134895
20
-7.64059937550809
30
0
41
1
10
37.7238202781148
20
-7.63398434304719
30
0
41
1
10
37.428751940783
20
-7.6197343058779
30
0
41
1
10
37.2812241944514
20
-7.61210014085896
30
0
41
1
10
36.8386657859625
20
-7.58767765593265
30
0
41
1
10
36.5436613422809
20
-7.5693695628986
30
0
41
1
10
35.6587811616319
20
-7.50839608680894
30
0
41
1
10
35.0690315809206
20
-7.45970131085585
30
0
41
1
10
34.1848206716119
20
-7.37442330221938
30
0
41
1
10
33.890180424823
20
-7.34392713559444
30
0
41
1
10
33.3008528834469
20
-7.27897258098267
30
0
41
1
10
33.0061028430148
20
-7.24457539224019
30
0
41
1
10
32.1215926021919
20
-7.13568037905824
30
0
41
1
10
31.5315887898459
20
-7.05547852876666
30
0
41
1
10
30.6462176245308
20
-6.92360926211595
30
0
41
1
10
30.3510364514096
20
-6.87771702067343
30
0
41
1
10
29.7605709304453
20
-6.78200195645138
30
0
41
1
10
29.46530022447
20
-6.73215265283608
30
0
41
1
10
28.8742820962103
20
-6.62902998051317
30
0
41
1
10
28.5784762402482
20
-6.575708188741
30
0
41
1
10
27.9870869471904
20
-6.46566872977562
30
0
41
1
10
27.3958437401653
20
-6.3522271814509
30
0
41
1
10
26.8049312313052
20
-6.23194415369173
30
0
41
1
10
26.2142156085866
20
-6.10817701604969
30
0
41
1
10
25.9189666168947
20
-6.0445321298742
30
0
41
1
10
25.4762079907013
20
-5.94648809785957
30
0
41
1
10
25.3286348570245
20
-5.91338792920948
30
0
41
1
10
25.0334503061063
20
-5.84646999372907
30
0
41
1
10
24.885842138654
20
-5.81264670437801
30
0
41
1
10
24.442976122811
20
-5.71007862223817
30
0
41
1
10
24.1476781309077
20
-5.64023366126906
30
0
41
1
10
23.2616521696992
20
-5.42626692278157
30
0
41
1
10
22.6707875801598
20
-5.27773507292082
30
0
41
1
10
21.7843739855433
20
-5.04569680622291
30
0
41
1
10
21.4889138529643
20
-4.96673698208468
30
0
41
1
10
20.897723045104
20
-4.80621157017231
30
0
41
1
10
20.6019937490455
20
-4.72477208109723
30
0
41
1
10
19.7151799381014
20
-4.47709218421289
30
0
41
1
10
19.1241882271564
20
-4.3074263098371
30
0
41
1
10
18.2381613406339
20
-4.04581185485245
30
0
41
1
10
17.9428994001404
20
-3.95741047266191
30
0
41
1
10
17.3525488868258
20
-3.77816656549467
30
0
41
1
10
17.0574568999751
20
-3.68732882472963
30
0
41
1
10
16.1718528047224
20
-3.41262729746742
30
0
41
1
10
15.5811579628841
20
-3.22622854979673
30
0
41
1
10
14.3993590300215
20
-2.8465066257651
30
0
41
1
10
13.8082485310349
20
-2.65320166993845
30
0
41
1
10
13.2170359482111
20
-2.45607649728183
30
0
0
SPLINE
5
CE
100
AcDbEntity
8
1
62
256
6
ByLayer
370
18
48
1
60
0
100
AcDbSpline
70
4
71
3
72
102
73
98
40
0
40
0
40
0
40
0
40
0.0624999999999888
40
0.0624999999999888
40
0.124999999999978
40
0.124999999999978
40
0.156249999999972
40
0.156249999999972
40
0.187499999999966
40
0.187499999999966
40
0.203124999999964
40
0.203124999999964
40
0.210937499999962
40
0.210937499999962
40
0.218749999999961
40
0.218749999999961
40
0.249999999999959
40
0.249999999999959
40
0.281249999999956
40
0.281249999999956
40
0.296874999999955
40
0.296874999999955
40
0.304687499999954
40
0.304687499999954
40
0.312499999999954
40
0.312499999999954
40
0.343749999999955
40
0.343749999999955
40
0.374999999999955
40
0.374999999999955
40
0.390624999999956
40
0.390624999999956
40
0.398437499999956
40
0.398437499999956
40
0.406249999999957
40
0.406249999999957
40
0.421874999999958
40
0.421874999999958
40
0.437499999999959
40
0.437499999999959
40
0.44531249999996
40
0.44531249999996
40
0.453124999999961
40
0.453124999999961
40
0.468749999999962
40
0.484374999999964
40
0.484374999999964
40
0.492187499999965
40
0.492187499999965
40
0.499999999999966
40
0.499999999999966
40
0.515624999999967
40
0.515624999999967
40
0.531249999999969
40
0.531249999999969
40
0.539062499999969
40
0.54296874999997
40
0.54296874999997
40
0.54687499999997
40
0.54687499999997
40
0.56249999999997
40
0.56249999999997
40
0.593749999999971
40
0.593749999999971
40
0.601562499999971
40
0.601562499999971
40
0.609374999999971
40
0.609374999999971
40
0.62499999999997
40
0.62499999999997
40
0.65624999999997
40
0.65624999999997
40
0.687499999999969
40
0.687499999999969
40
0.695312499999969
40
0.695312499999969
40
0.70312499999997
40
0.70312499999997
40
0.718749999999971
40
0.718749999999971
40
0.749999999999975
40
0.749999999999975
40
0.781249999999978
40
0.781249999999978
40
0.812499999999981
40
0.812499999999981
40
0.843749999999984
40
0.843749999999984
40
0.874999999999987
40
0.874999999999987
40
0.906249999999991
40
0.906249999999991
40
0.937499999999994
40
0.937499999999994
40
0.968749999999997
40
0.968749999999997
40
1
40
1
40
1
40
1
41
1
10
10
20
6.99918497769963
30
0
41
1
10
9.60659686261749
20
7.05989252787566
30
0
41
1
10
9.21820853507541
20
7.11198723970219
30
0
41
1
10
8.45162488106266
20
7.19557930683578
30
0
41
1
10
8.073422825291
20
7.22710956400562
30
0
41
1
10
7.51401903480351
20
7.25482826328715
30
0
41
1
10
7.32886965915384
20
7.26078559202736
30
0
41
1
10
6.96129029078799
20
7.26511781005448
30
0
41
1
10
6.77885968101492
20
7.2634969109221
30
0
41
1
10
6.50734655418782
20
7.25437264024805
30
0
41
1
10
6.41719803289988
20
7.25021278809737
30
0
41
1
10
6.28252521895348
20
7.24213598894724
30
0
41
1
10
6.23772597790941
20
7.23913728975865
30
0
41
1
10
6.14831406781568
20
7.23249693574286
30
0
41
1
10
6.10366041997321
20
7.22885147299016
30
0
41
1
10
5.88142812718917
20
7.20898640456244
30
0
41
1
10
5.70716923592835
20
7.18790493076889
30
0
41
1
10
5.36617467862277
20
7.13370031859392
30
0
41
1
10
5.19943452155673
20
7.10058791951036
30
0
41
1
10
4.95552833319073
20
7.04015509367304
30
0
41
1
10
4.87526288350782
20
7.01821070895585
30
0
41
1
10
4.75652163807587
20
6.9823027965094
30
0
41
1
10
4.71721763373702
20
6.96983433532193
30
0
41
1
10
4.63918300410944
20
6.94384220749171
30
0
41
1
10
4.60046467324949
20
6.93032039741288
30
0
41
1
10
4.40940466401537
20
6.86032204076952
30
0
41
1
10
4.26378827737656
20
6.79644985809671
30
0
41
1
10
3.98860483143574
20
6.65016041428061
30
0
41
1
10
3.8590134027578
20
6.56777608810742
30
0
41
1
10
3.6787336795403
20
6.42704572434002
30
0
41
1
10
3.62100292012738
20
6.37726186849136
30
0
41
1
10
3.53836315984162
20
6.29766653543905
30
0
41
1
10
3.51147726530979
20
6.27031311712031
30
0
41
1
10
3.4591147529589
20
6.21383616811892
30
0
41
1
10
3.43378769783641
20
6.18486916233144
30
0
41
1
10
3.36071213736835
20
6.09601647543798
30
0
41
1
10
3.31574508321526
20
6.03405559957454
30
0
41
1
10
3.23376879719342
20
5.90425124657329
30
0
41
1
10
3.1967575638439
20
5.83640928544182
30
0
41
1
10
3.14769881326404
20
5.72980762390978
30
0
41
1
10
3.13242397269784
20
5.69346605244243
30
0
41
1
10
3.10413704798987
20
5.61907844612875
30
0
41
1
10
3.09110315773785
20
5.58093592604169
30
0
41
1
10
3.0559937386345
20
5.46529039829994
30
0
41
1
10
3.01947696825317
20
5.30710764454633
30
0
41
1
10
3.00363086507031
20
5.14084527481532
30
0
41
1
10
2.99967030696121
20
5.01303865902077
30
0
41
1
10
2.99967234437543
20
4.96991767863736
30
0
41
1
10
3.00236879115152
20
4.8826190548518
30
0
41
1
10
3.00506661041794
20
4.83840414085617
30
0
41
1
10
3.01726974157958
20
4.70437054950915
30
0
41
1
10
3.03072027081021
20
4.61477620652406
30
0
41
1
10
3.06754748826455
20
4.43515631212162
30
0
41
1
10
3.09092637939239
20
4.34513075044123
30
0
41
1
10
3.13307747275061
20
4.20980308125462
30
0
41
1
10
3.15592593779525
20
4.14206690990733
30
0
41
1
10
3.18138323042535
20
4.07422859292092
30
0
41
1
10
3.19892995414585
20
4.02898105448136
30
0
41
1
10
3.20799813995626
20
4.00633050831223
30
0
41
1
10
3.25450280029892
20
3.89364423643926
30
0
41
1
10
3.29559624991066
20
3.80483202055115
30
0
41
1
10
3.4292575278763
20
3.54199530476353
30
0
41
1
10
3.53214486933982
20
3.37155059680904
30
0
41
1
10
3.67509518913965
20
3.16357227039299
30
0
41
1
10
3.70440756627204
20
3.12223221425398
30
0
41
1
10
3.76442308841845
20
3.04004684799051
30
0
41
1
10
3.79513099359187
20
2.99920073335321
30
0
41
1
10
3.88856127069627
20
2.87826498418224
30
0
41
1
10
3.95281292642431
20
2.79945892467037
30
0
41
1
10
4.15077282908521
20
2.56786072179028
30
0
41
1
10
4.28965729591991
20
2.4198622956865
30
0
41
1
10
4.5785881150627
20
2.13421994409836
30
0
41
1
10
4.7286508453559
20
1.99659108787532
30
0
41
1
10
4.92204257716961
20
1.82995443478208
30
0
41
1
10
4.96101287375456
20
1.79689824401089
30
0
41
1
10
5.0395123583495
20
1.73130502590772
30
0
41
1
10
5.07903495637177
20
1.69877465732821
30
0
41
1
10
5.19794412776918
20
1.60229618759826
30
0
41
1
10
5.27782675108517
20
1.53932836142951
30
0
41
1
10
5.51910389084409
20
1.35403012544128
30
0
41
1
10
5.68212134609934
20
1.23528940321788
30
0
41
1
10
6.01161899383658
20
1.0054854729718
30
0
41
1
10
6.1781016851792
20
0.894428391857133
30
0
41
1
10
6.51384335007245
20
0.678535176566214
30
0
41
1
10
6.68310343182614
20
0.573702005560733
30
0
41
1
10
7.02383608297808
20
0.369097892682504
30
0
41
1
10
7.19530898468997
20
0.269328211069876
30
0
41
1
10
7.54000656270188
20
0.0739316727961352
30
0
41
1
10
7.71323111408651
20
-0.0216948802529373
30
0
41
1
10
8.06107235710661
20
-0.209506138405544
30
0
41
1
10
8.23568867676266
20
-0.301691030547886
30
0
41
1
10
8.58606313001366
20
-0.483101578698552
30
0
41
1
10
8.76182081702947
20
-0.572327562894969
30
0
41
1
10
9.11434992340696
20
-0.748075510912571
30
0
41
1
10
9.29115755803062
20
-0.834613743421727
30
0
41
1
10
9.64514888777347
20
-1.00470146921981
30
0
41
1
10
9.82240958473795
20
-1.08828972485182
30
0
41
1
10
10
20
-1.17032359745741
30
0
0
SPLINE
5
CF
100
AcDbEntity
8
1
62
256
6
ByLayer
370
18
48
1
60
0
100
AcDbSpline
70
4
71
3
72
14
73
10
40
0
40
0
40
0
40
0
40
0.249999999999996
40
0.249999999999996
40
0.499999999999997
40
0.499999999999997
40
0.749999999999999
40
0.749999999999999
40
1
40
1
40
1
40
1
41
1
10
13.2170359482111
20
-2.4560764972818
30
0
41
1
10
12.9441237916811
20
-2.36233903868896
30
0
41
1
10
12.6728227823621
20
-2.2644210512903
30
0
41
1
10
12.1326700756917
20
-2.06183241945439
30
0
41
1
10
11.8638152273148
20
-1.95717007033238
30
0
41
1
10
11.3280574373039
20
-1.74210589965727
30
0
41
1
10
11.0611528574353
20
-1.6317093894111
30
0
41
1
10
10.5291563429855
20
-1.40536440574311
30
0
41
1
10
10.264064475539
20
-1.28941753723922
30
0
41
1
10
10
20
-1.17032359745741
30
0
0
SPLINE
5
D0
100
AcDbEntity
8
1
62
256
6
ByLayer
370
18
48
1
60
0
100
AcDbSpline
70
4
71
4
72
16
73
11
40
0
40
0
40
0
40
0
40
0
40
0.289997926637799
40
0.289997926637799
40
0.289997926637799
40
0.710002073362201
40
0.710002073362201
40
0.710002073362201
40
1
40
1
40
1
40
1
40
1
41
0.996720492408031
10
16.6798623052549
20
6.5092214957942
30
0
41
0.994702535052078
10
16.5745326232462
20
5.92564862256725
30
0
41
0.994295254376361
10
16.3894739038051
20
5.15450596830716
30
0
41
1
10
16.1331885448084
20
4.26381892393044
30
0
41
1
10
15.4655719986334
20
2.15814802288966
30
0
41
0.988033871712585
10
14.948449126733
20
0.700986706191296
30
0
41
1
10
14.4313262548326
20
-0.519526320319613
30
0
41
1
10
13.7637097086576
20
-1.87078953287769
30
0
41
0.994295254376361
10
13.5074243496609
20
-2.30715408032817
30
0
41
0.994702535052078
10
13.3223656302197
20
-2.4942498099432
30
0
41
0.996720492408031
10
13.2170359482111
20
-2.45607649728182
30
0
0
SPLINE
5
D1
100
AcDbEntity
8
1
62
256
6
ByLayer
370
18
48
1
60
0
100
AcDbSpline
70
4
71
3
72
25
73
21
40
0
40
0
40
0
40
0
40
0.125
40
0.125
40
0.250000000000001
40
0.250000000000001
40
0.375000000000001
40
0.375000000000001
40
0.500000000000004
40
0.500000000000004
40
0.562500000000003
40
0.562500000000003
40
0.593750000000005
40
0.593750000000005
40
0.625000000000007
40
0.750000000000005
40
0.750000000000005
40
0.875000000000003
40
0.875000000000003
40
1
40
1
40
1
40
1
41
1
10
10
20
6.99918497769963
30
0
41
1
10
10.2846492183042
20
7.01291067569335
30
0
41
1
10
10.5686609885416
20
7.02152973812898
30
0
41
1
10
11.1355161264832
20
7.02988619958902
30
0
41
1
10
11.4183588709168
20
7.0296141276765
30
0
41
1
10
11.9829585158831
20
7.02079837568164
30
0
41
1
10
12.2647149513648
20
7.01224769151784
30
0
41
1
10
12.8272182717304
20
6.98702926534804
30
0
41
1
10
13.1079647896513
20
6.97035523242852
30
0
41
1
10
13.5283891762029
20
6.93917611072902
30
0
41
1
10
13.6684148218871
20
6.92775359531458
30
0
41
1
10
13.8782883498118
20
6.90905937738205
30
0
41
1
10
13.9482055029384
20
6.90256871298035
30
0
41
1
10
14.0876891634742
20
6.88909495699212
30
0
41
1
10
14.4357093418075
20
6.85416390868221
30
0
41
1
10
14.7804144792339
20
6.81301049528037
30
0
41
1
10
15.3283931665635
20
6.73933561930426
30
0
41
1
10
15.6006087738249
20
6.69858195506166
30
0
41
1
10
16.1421973878976
20
6.60949396305818
30
0
41
1
10
16.4115725559945
20
6.56116172392629
30
0
41
1
10
16.6798623052549
20
6.50922149579418
30
0
0
SPLINE
5
D2
100
AcDbEntity
8
SK1
62
256
6
ByLayer
370
18
48
1
60
0
100
AcDbSpline
70
4
71
3
72
32
73
28
40
0
40
0
40
0
40
0
40
0.124999999999998
40
0.124999999999998
40
0.249999999999995
40
0.249999999999995
40
0.374999999999994
40
0.374999999999994
40
0.437499999999993
40
0.437499999999993
40
0.499999999999992
40
0.499999999999992
40
0.624999999999988
40
0.624999999999988
40
0.656249999999988
40
0.656249999999988
40
0.687499999999988
40
0.687499999999988
40
0.74999999999999
40
0.74999999999999
40
0.874999999999995
40
0.874999999999995
40
0.906249999999996
40
0.906249999999996
40
0.937499999999998
40
0.937499999999998
40
1
40
1
40
1
40
1
41
1
10
-43.3565069115799
20
-3.65034953143106
30
0
41
1
10
-43.3331458400142
20
-3.71424193668162
30
0
41
1
10
-43.3079887114829
20
-3.77702079626832
30
0
41
1
10
-43.2534212788423
20
-3.90009490817781
30
0
41
1
10
-43.2240149751524
20
-3.96039186522651
30
0
41
1
10
-43.1600568886594
20
-4.07814914960466
30
0
41
1
10
-43.1255132756746
20
-4.13561297938583
30
0
41
1
10
-43.0688646453433
20
-4.21928792338744
30
0
41
1
10
-43.0491724017425
20
-4.24675781820287
30
0
41
1
10
-43.0079384175976
20
-4.30075945417201
30
0
41
1
10
-42.9863407519915
20
-4.32734895814056
30
0
41
1
10
-42.9191284528727
20
-4.40464696643178
30
0
41
1
10
-42.8709653357112
20
-4.45314968312832
30
0
41
1
10
-42.8054200814028
20
-4.509129269905
30
0
41
1
10
-42.7920414880158
20
-4.52009075475445
30
0
41
1
10
-42.7647046009874
20
-4.54151368998052
30
0
41
1
10
-42.7507137384423
20
-4.55199803198428
30
0
41
1
10
-42.7080552923505
20
-4.58246627252342
30
0
41
1
10
-42.6787844981831
20
-4.60141919352105
30
0
41
1
10
-42.588250922941
20
-4.65388326760876
30
0
41
1
10
-42.5243097226538
20
-4.68306815187688
30
0
41
1
10
-42.4386823815538
20
-4.71050598268181
30
0
41
1
10
-42.4212064346087
20
-4.71554997578619
30
0
41
1
10
-42.3860524535981
20
-4.72455026306568
30
0
41
1
10
-42.3683576016114
20
-4.72851630488563
30
0
41
1
10
-42.3149119913326
20
-4.73878190613445
30
0
41
1
10
-42.2788010667419
20
-4.74345326345804
30
0
41
1
10
-42.2421801837133
20
-4.74582511601491
30
0
0
SPLINE
5
D3
100
AcDbEntity
8
SK1
62
256
6
ByLayer
370
18
48
1
60
0
100
AcDbSpline
70
4
71
3
72
32
73
28
40
0
40
0
40
0
40
0
40
0.125000000000003
40
0.125000000000003
40
0.156250000000003
40
0.156250000000003
40
0.187500000000004
40
0.187500000000004
40
0.250000000000005
40
0.250000000000005
40
0.312500000000005
40
0.312500000000005
40
0.343750000000005
40
0.343750000000005
40
0.375000000000006
40
0.375000000000006
40
0.500000000000003
40
0.500000000000003
40
0.625
40
0.625
40
0.6875
40
0.6875
40
0.749999999999999
40
0.749999999999999
40
0.875
40
0.875
40
1
40
1
40
1
40
1
41
1
10
-42.2421801837133
20
4.74582511601491
30
0
41
1
10
-42.3153322469605
20
4.74108722075121
30
0
41
1
10
-42.3858382182456
20
4.7272872503076
30
0
41
1
10
-42.4711061087408
20
4.70015187597528
30
0
41
1
10
-42.48801508965
20
4.69422552159887
30
0
41
1
10
-42.5215500807622
20
4.68139247012627
30
0
41
1
10
-42.538108088977
20
4.67450874413797
30
0
41
1
10
-42.5867495214036
20
4.65272655031879
30
0
41
1
10
-42.6179919315484
20
4.63663028483114
30
0
41
1
10
-42.6784054316375
20
4.60165673094545
30
0
41
1
10
-42.707575323895
20
4.58277786641952
30
0
41
1
10
-42.7499378830322
20
4.55256723042981
30
0
41
1
10
-42.7638261651475
20
4.54218093900309
30
0
41
1
10
-42.7911594285605
20
4.52080182261719
30
0
41
1
10
-42.8046315534326
20
4.50978473494575
30
0
41
1
10
-42.8704332773146
20
4.45367358335039
30
0
41
1
10
-42.9183823606968
20
4.40538606397868
30
0
41
1
10
-43.007200043589
20
4.30347549467811
30
0
41
1
10
-43.0480454261384
20
4.2498368571521
30
0
41
1
10
-43.1050091824334
20
4.16599396786131
30
0
41
1
10
-43.1233071500575
20
4.13742383693679
30
0
41
1
10
-43.1584042823023
20
4.07953032751405
30
0
41
1
10
-43.1751994309136
20
4.05022195040382
30
0
41
1
10
-43.2235710813646
20
3.96130068776944
30
0
41
1
10
-43.2531438067293
20
3.90069540381026
30
0
41
1
10
-43.3079263511211
20
3.77718661911314
30
0
41
1
10
-43.3331314373585
20
3.7142813278675
30
0
41
1
10
-43.3565069115799
20
3.65034953143106
30
0
0
SPLINE
5
D4
100
AcDbEntity
8
SK1
62
256
6
ByLayer
370
18
48
1
60
0
100
AcDbSpline
70
4
71
3
72
30
73
26
40
0
40
0
40
0
40
0
40
0.124999999999979
40
0.124999999999979
40
0.249999999999958
40
0.249999999999958
40
0.374999999999936
40
0.374999999999936
40
0.437499999999926
40
0.437499999999926
40
0.499999999999916
40
0.499999999999916
40
0.624999999999908
40
0.624999999999908
40
0.656249999999909
40
0.656249999999909
40
0.68749999999991
40
0.68749999999991
40
0.749999999999925
40
0.749999999999925
40
0.874999999999955
40
0.874999999999955
40
0.937499999999978
40
0.937499999999978
40
1
40
1
40
1
40
1
41
1
10
-13.8451406288876
20
5.60819856978108
30
0
41
1
10
-13.8759395902576
20
5.65059861248182
30
0
41
1
10
-13.9086043985849
20
5.69152013904011
30
0
41
1
10
-13.97811386775
20
5.77019024979575
30
0
41
1
10
-14.014955839279
20
5.80794050815649
30
0
41
1
10
-14.0934302354091
20
5.87995203844818
30
0
41
1
10
-14.1350574932389
20
5.91421654427231
30
0
41
1
10
-14.2017568377706
20
5.9626308553903
30
0
41
1
10
-14.2245427507748
20
5.97815093867467
30
0
41
1
10
-14.271111369383
20
6.00780504420359
30
0
41
1
10
-14.2949186549204
20
6.02195716348245
30
0
41
1
10
-14.3679929543377
20
6.06230994483028
30
0
41
1
10
-14.4189025587777
20
6.08641928516369
30
0
41
1
10
-14.4856782999412
20
6.11265441828212
30
0
41
1
10
-14.4991911565357
20
6.11770540783806
30
0
41
1
10
-14.5265457311327
20
6.12740066932034
30
0
41
1
10
-14.5403907312758
20
6.13204445753533
30
0
41
1
10
-14.5820565255816
20
6.14522762072318
30
0
41
1
10
-14.6101298025697
20
6.1530644585383
30
0
41
1
10
-14.6952537679042
20
6.17368858860661
30
0
41
1
10
-14.7532042147282
20
6.18360487337517
30
0
41
1
10
-14.8420639597241
20
6.19236276786617
30
0
41
1
10
-14.8721089186227
20
6.1942576600421
30
0
41
1
10
-14.9321260265236
20
6.19588455534111
30
0
41
1
10
-14.9621459212296
20
6.19562887243728
30
0
41
1
10
-14.9921771997116
20
6.19429975368809
30
0
0
SPLINE
5
D5
100
AcDbEntity
8
SK1
62
256
6
ByLayer
370
18
48
1
60
0
100
AcDbSpline
70
4
71
3
72
29
73
25
40
0
40
0
40
0
40
0
40
0.125000000000045
40
0.125000000000045
40
0.25000000000009
40
0.25000000000009
40
0.281250000000093
40
0.281250000000093
40
0.312500000000097
40
0.375000000000092
40
0.375000000000092
40
0.500000000000084
40
0.500000000000084
40
0.562500000000073
40
0.562500000000073
40
0.625000000000062
40
0.625000000000062
40
0.750000000000038
40
0.750000000000038
40
0.875000000000015
40
0.875000000000015
40
0.937500000000008
40
0.937500000000008
40
1
40
1
40
1
40
1
41
1
10
-14.9921771997116
20
-6.19429975368809
30
0
41
1
10
-14.9320573843484
20
-6.19696052531805
30
0
41
1
10
-14.8726744232101
20
-6.19530622075879
30
0
41
1
10
-14.7552923361598
20
-6.18388224594813
30
0
41
1
10
-14.6972937188803
20
-6.17410945589265
30
0
41
1
10
-14.6256493001772
20
-6.15684175670819
30
0
41
1
10
-14.6113371248737
20
-6.15312631775188
30
0
41
1
10
-14.5830607924918
20
-6.14526136952958
30
0
41
1
10
-14.5410867139313
20
-6.13279564418732
30
0
41
1
10
-14.500383626949
20
-6.118393573753
30
0
41
1
10
-14.4205661285236
20
-6.08714648466275
30
0
41
1
10
-14.3694669105832
20
-6.06306708368854
30
0
41
1
10
-14.2956992221607
20
-6.02241573888855
30
0
41
1
10
-14.2715415923124
20
-6.00806907471573
30
0
41
1
10
-14.2247924605031
20
-5.97831973436635
30
0
41
1
10
-14.2021202056678
20
-5.96287721339851
30
0
41
1
10
-14.1360355381032
20
-5.91496059376203
30
0
41
1
10
-14.0945476428777
20
-5.88090305019935
30
0
41
1
10
-14.0160214797599
20
-5.80899071657845
30
0
41
1
10
-13.9789867514485
20
-5.77113330484545
30
0
41
1
10
-13.9264169069796
20
-5.7117020344985
30
0
41
1
10
-13.9093970751005
20
-5.69145219620981
30
0
41
1
10
-13.8764815896183
20
-5.65032851626569
30
0
41
1
10
-13.8605603440826
20
-5.62942644739971
30
0
41
1
10
-13.845140628887
20
-5.60819856978154
30
0
0
SPLINE
5
D6
100
AcDbEntity
8
1
62
256
6
ByLayer
370
13
48
1
60
0
100
AcDbSpline
70
4
71
3
72
85
73
81
40
0
40
0
40
0
40
0
40
0.0312499999999985
40
0.0312499999999985
40
0.0624999999999971
40
0.0624999999999971
40
0.0937499999999956
40
0.0937499999999956
40
0.124999999999994
40
0.124999999999994
40
0.156249999999993
40
0.156249999999993
40
0.187499999999991
40
0.187499999999991
40
0.21874999999999
40
0.21874999999999
40
0.249999999999989
40
0.249999999999989
40
0.281249999999987
40
0.281249999999987
40
0.296874999999986
40
0.296874999999986
40
0.300781249999986
40
0.300781249999986
40
0.304687499999986
40
0.304687499999986
40
0.312499999999986
40
0.312499999999986
40
0.343749999999987
40
0.343749999999987
40
0.374999999999987
40
0.374999999999987
40
0.406249999999987
40
0.406249999999987
40
0.437499999999988
40
0.437499999999988
40
0.468749999999988
40
0.468749999999988
40
0.499999999999989
40
0.499999999999989
40
0.531249999999989
40
0.531249999999989
40
0.562499999999989
40
0.562499999999989
40
0.59374999999999
40
0.59374999999999
40
0.60156249999999
40
0.60156249999999
40
0.60546874999999
40
0.60546874999999
40
0.60937499999999
40
0.624999999999991
40
0.624999999999991
40
0.656249999999991
40
0.656249999999991
40
0.687499999999992
40
0.687499999999992
40
0.718749999999993
40
0.718749999999993
40
0.749999999999994
40
0.749999999999994
40
0.781249999999994
40
0.781249999999994
40
0.812499999999995
40
0.812499999999995
40
0.843749999999996
40
0.843749999999996
40
0.874999999999997
40
0.874999999999997
40
0.890624999999997
40
0.890624999999997
40
0.898437499999997
40
0.898437499999997
40
0.906249999999998
40
0.906249999999998
40
0.937499999999999
40
0.937499999999999
40
0.968749999999999
40
0.968749999999999
40
1
40
1
40
1
40
1
41
1
10
71.3927909642121
20
8
30
0
41
1
10
71.4677435388127
20
8
30
0
41
1
10
71.5426961134133
20
7.97131522338557
30
0
41
1
10
71.6926012626145
20
7.84735532708868
30
0
41
1
10
71.767553837215
20
7.75201567988915
30
0
41
1
10
71.9174589864163
20
7.48911520146081
30
0
41
1
10
71.992411561017
20
7.32150541014568
30
0
41
1
10
72.1423167102181
20
6.91392766305415
30
0
41
1
10
72.2172692848187
20
6.67394666510387
30
0
41
1
10
72.3671744340199
20
6.12798840545912
30
0
41
1
10
72.4421270086206
20
5.82204509653482
30
0
41
1
10
72.5920321578217
20
5.15673769591609
30
0
41
1
10
72.6669847324224
20
4.79744826160598
30
0
41
1
10
72.8168898816236
20
4.04256577739631
30
0
41
1
10
72.8918424562242
20
3.64706574055583
30
0
41
1
10
73.0417476054254
20
2.83880805910184
30
0
41
1
10
73.116700180026
20
2.42613430034115
30
0
41
1
10
73.2666053292273
20
1.60174610351314
30
0
41
1
10
73.3415579038278
20
1.19008666048484
30
0
41
1
10
73.4539867657287
20
0.584746957265082
30
0
41
1
10
73.4914630530291
20
0.384963661814879
30
0
41
1
10
73.5383084121545
20
0.138679568246943
30
0
41
1
10
73.5476774839796
20
0.0895943534532364
30
0
41
1
10
73.5664156276297
20
-0.0082117416784229
30
0
41
1
10
73.5757846994547
20
-0.0569773218588239
30
0
41
1
10
73.6038919149299
20
-0.20416625120717
30
0
41
1
10
73.6226300585801
20
-0.303002865434365
30
0
41
1
10
73.7163207768309
20
-0.800296907521641
30
0
41
1
10
73.7912733514315
20
-1.20824451401097
30
0
41
1
10
73.9411785006326
20
-2.03045435077772
30
0
41
1
10
74.0161310752333
20
-2.44467269065771
30
0
41
1
10
74.1660362244345
20
-3.26203344094668
30
0
41
1
10
74.2409887990351
20
-3.66509967750849
30
0
41
1
10
74.3908939482363
20
-4.44112523420281
30
0
41
1
10
74.4658465228369
20
-4.81399161451401
30
0
41
1
10
74.6157516720382
20
-5.51155698591518
30
0
41
1
10
74.6907042466387
20
-5.83617250225387
30
0
41
1
10
74.84060939584
20
-6.42289979078998
30
0
41
1
10
74.9155619704406
20
-6.68496302329373
30
0
41
1
10
75.0654671196418
20
-7.13804457574884
30
0
41
1
10
75.1404196942424
20
-7.32906139716968
30
0
41
1
10
75.2903248434437
20
-7.63808444702508
30
0
41
1
10
75.3652774180442
20
-7.7561301553701
30
0
41
1
10
75.5151825672455
20
-7.92321162640087
30
0
41
1
10
75.5901351418461
20
-7.97230926419769
30
0
41
1
10
75.6838258600969
20
-7.99578008483238
30
0
41
1
10
75.702564003747
20
-7.99858709674575
30
0
41
1
10
75.7306712192222
20
-8.00008423105194
30
0
41
1
10
75.7400402910473
20
-8.00013334237474
30
0
41
1
10
75.7587784346974
20
-7.99933502893174
30
0
41
1
10
75.8056237938229
20
-7.99508552268333
30
0
41
1
10
75.8524691529482
20
-7.97930195780589
30
0
41
1
10
75.9648980148491
20
-7.91750467968583
30
0
41
1
10
76.0398505894498
20
-7.84428391830622
30
0
41
1
10
76.1897557386509
20
-7.62689819581323
30
0
41
1
10
76.2647083132515
20
-7.48267695839377
30
0
41
1
10
76.4146134624527
20
-7.12123940385706
30
0
41
1
10
76.4895660370534
20
-6.90399670414675
30
0
41
1
10
76.6394711862546
20
-6.40076471847601
30
0
41
1
10
76.7144237608552
20
-6.11479414710115
30
0
41
1
10
76.8643289100564
20
-5.48481670749698
30
0
41
1
10
76.939281484657
20
-5.14087330666717
30
0
41
1
10
77.0891866338582
20
-4.41086991003846
30
0
41
1
10
77.1641392084588
20
-4.02490008873522
30
0
41
1
10
77.3140443576601
20
-3.2295838623443
30
0
41
1
10
77.3889969322607
20
-2.8203269883752
30
0
41
1
10
77.5389020814619
20
-1.99719316701152
30
0
41
1
10
77.6138546560625
20
-1.58338176072388
30
0
41
1
10
77.7262835179634
20
-0.971474143361405
30
0
41
1
10
77.7637598052637
20
-0.768948366512063
30
0
41
1
10
77.8199742362141
20
-0.46858836354275
30
0
41
1
10
77.8387123798643
20
-0.369037829484995
30
0
41
1
10
77.8761886671646
20
-0.171261890850218
30
0
41
1
10
77.8949268108147
20
-0.0732527085577885
30
0
41
1
10
77.9886175290655
20
0.415373667234576
30
0
41
1
10
78.0635701036662
20
0.818178833360463
30
0
41
1
10
78.2134752528674
20
1.63498781928664
30
0
41
1
10
78.2884278274679
20
2.04895895014761
30
0
41
1
10
78.4383329766692
20
2.87166533151384
30
0
41
1
10
78.5132855512697
20
3.28033372899481
30
0
41
1
10
78.5882381258704
20
3.67700286479027
30
0
0
SPLINE
5
D7
100
AcDbEntity
8
1
62
256
6
ByLayer
370
13
48
1
60
0
100
AcDbSpline
70
4
71
3
72
84
73
80
40
0
40
0
40
0
40
0
40
0.0312500000000003
40
0.0312500000000003
40
0.0625000000000006
40
0.0625000000000006
40
0.0937500000000009
40
0.0937500000000009
40
0.125000000000001
40
0.125000000000001
40
0.156250000000001
40
0.156250000000001
40
0.187500000000002
40
0.187500000000002
40
0.218750000000002
40
0.218750000000002
40
0.250000000000002
40
0.250000000000002
40
0.281250000000003
40
0.281250000000003
40
0.285156250000003
40
0.285156250000003
40
0.289062500000003
40
0.296875000000003
40
0.296875000000003
40
0.312500000000003
40
0.312500000000003
40
0.343750000000003
40
0.343750000000003
40
0.375000000000003
40
0.375000000000003
40
0.406250000000003
40
0.406250000000003
40
0.437500000000002
40
0.437500000000002
40
0.468750000000002
40
0.468750000000002
40
0.500000000000002
40
0.500000000000002
40
0.531250000000002
40
0.531250000000002
40
0.562500000000002
40
0.562500000000002
40
0.566406250000002
40
0.566406250000002
40
0.570312500000002
40
0.578125000000002
40
0.578125000000002
40
0.593750000000002
40
0.593750000000002
40
0.625000000000003
40
0.625000000000003
40
0.656250000000003
40
0.656250000000003
40
0.687500000000003
40
0.687500000000003
40
0.718750000000003
40
0.718750000000003
40
0.750000000000003
40
0.750000000000003
40
0.781250000000003
40
0.781250000000003
40
0.812500000000003
40
0.812500000000003
40
0.843750000000003
40
0.843750000000003
40
0.851562500000003
40
0.851562500000003
40
0.859375000000003
40
0.859375000000003
40
0.875000000000003
40
0.875000000000003
40
0.906250000000002
40
0.906250000000002
40
0.937500000000001
40
0.937500000000001
40
0.968750000000001
40
0.968750000000001
40
1
40
1
40
1
40
1
41
1
10
70.8951941209453
20
8
30
0
41
1
10
70.9753299959966
20
8
30
0
41
1
10
71.0554658710479
20
7.96719036961829
30
0
41
1
10
71.2157376211505
20
7.82480869754613
30
0
41
1
10
71.2958734962018
20
7.71514725701235
30
0
41
1
10
71.4561452463045
20
7.4127704272307
30
0
41
1
10
71.5362811213558
20
7.21999221155937
30
0
41
1
10
71.6965528714584
20
6.75252344618539
30
0
41
1
10
71.7766887465097
20
6.47782780499676
30
0
41
1
10
71.9369604966122
20
5.8562288683581
30
0
41
1
10
72.0170963716636
20
5.50939062636598
30
0
41
1
10
72.1773681217662
20
4.76089536363753
30
0
41
1
10
72.2575039968175
20
4.35935555537867
30
0
41
1
10
72.4177757469201
20
3.52369722315697
30
0
41
1
10
72.4979116219714
20
3.08970748772353
30
0
41
1
10
72.658183372074
20
2.21238208279573
30
0
41
1
10
72.7383192471253
20
1.76914622762456
30
0
41
1
10
72.8985909972279
20
0.893980043240731
30
0
41
1
10
72.9787268722792
20
0.462099573779199
30
0
41
1
10
73.0688797317119
20
-0.0085377536664737
30
0
41
1
10
73.0788967160933
20
-0.0606723507328297
30
0
41
1
10
73.0989306848562
20
-0.165620733503999
30
0
41
1
10
73.1289816380004
20
-0.323650059003313
30
0
41
1
10
73.1590325911446
20
-0.483382774725754
30
0
41
1
10
73.2191344974331
20
-0.804777128738323
30
0
41
1
10
73.2592024349588
20
-1.02162219145359
30
0
41
1
10
73.3794062475357
20
-1.6767827154128
30
0
41
1
10
73.459542122587
20
-2.11984734252187
30
0
41
1
10
73.6198138726896
20
-2.99838476006349
30
0
41
1
10
73.699949747741
20
-3.43376083180147
30
0
41
1
10
73.8602214978435
20
-4.27382561017822
30
0
41
1
10
73.9403573728948
20
-4.67838638125994
30
0
41
1
10
74.1006291229975
20
-5.43436499039044
30
0
41
1
10
74.1807649980488
20
-5.78566334880762
30
0
41
1
10
74.3410367481513
20
-6.41717920002887
30
0
41
1
10
74.4211726232027
20
-6.69732705962048
30
0
41
1
10
74.5814443733053
20
-7.17610732631505
30
0
41
1
10
74.6615802483566
20
-7.37474000728668
30
0
41
1
10
74.8218519984592
20
-7.68864786442845
30
0
41
1
10
74.9019878735105
20
-7.80398274009383
30
0
41
1
10
75.0622596236131
20
-7.9570788097345
30
0
41
1
10
75.1423954986643
20
-7.99492864813013
30
0
41
1
10
75.2325483580971
20
-8.00009424503355
30
0
41
1
10
75.2425653424785
20
-8.00015355670359
30
0
41
1
10
75.2625993112413
20
-7.9992471910129
30
0
41
1
10
75.2926502643856
20
-7.99634009403093
30
0
41
1
10
75.3227012175298
20
-7.98867986603275
30
0
41
1
10
75.3828031238182
20
-7.96674355532457
30
0
41
1
10
75.4228710613439
20
-7.94328980169348
30
0
41
1
10
75.5430748739209
20
-7.8444733412947
30
0
41
1
10
75.6232107489722
20
-7.74045377481133
30
0
41
1
10
75.7834824990749
20
-7.44958160198516
30
0
41
1
10
75.8636183741261
20
-7.26266320272617
30
0
41
1
10
76.0238901242287
20
-6.806559225288
30
0
41
1
10
76.10402599928
20
-6.53736380400116
30
0
41
1
10
76.2642977493825
20
-5.92581607151249
30
0
41
1
10
76.3444336244339
20
-5.5835241429391
30
0
41
1
10
76.5047053745365
20
-4.84270869663226
30
0
41
1
10
76.5848412495878
20
-4.44429991614575
30
0
41
1
10
76.7451129996904
20
-3.61327286145223
30
0
41
1
10
76.8252488747418
20
-3.18078402247289
30
0
41
1
10
76.9855206248443
20
-2.30488661550686
30
0
41
1
10
77.0656564998956
20
-1.86158085395314
30
0
41
1
10
77.2259282499982
20
-0.984974031379153
30
0
41
1
10
77.3060641250495
20
-0.551726477592808
30
0
41
1
10
77.4062339688637
20
-0.0265133778079303
30
0
41
1
10
77.4262679376265
20
0.0774738229604282
30
0
41
1
10
77.4663358751521
20
0.288075079195863
30
0
41
1
10
77.486369843915
20
0.394162780140192
30
0
41
1
10
77.5464717502035
20
0.714453716094624
30
0
41
1
10
77.5865396877291
20
0.930695184903016
30
0
41
1
10
77.7067435003061
20
1.58451047935912
30
0
41
1
10
77.7868793753574
20
2.0273039909651
30
0
41
1
10
77.9471511254599
20
2.90683928322784
30
0
41
1
10
78.0272870005113
20
3.34348753549119
30
0
41
1
10
78.1875587506138
20
4.18773337694796
30
0
41
1
10
78.2676946256652
20
4.59520408514192
30
0
41
1
10
78.4279663757678
20
5.35846638054701
30
0
41
1
10
78.508102250819
20
5.71413643316961
30
0
41
1
10
78.5882381258704
20
6.03478308399525
30
0
0
SPLINE
5
D8
100
AcDbEntity
8
1
62
256
6
ByLayer
370
13
48
1
60
0
100
AcDbSpline
70
4
71
3
72
86
73
82
40
0
40
0
40
0
40
0
40
0.0312500000000009
40
0.0312500000000009
40
0.0625000000000018
40
0.0625000000000018
40
0.0937500000000027
40
0.0937500000000027
40
0.125000000000004
40
0.125000000000004
40
0.156250000000004
40
0.156250000000004
40
0.187500000000005
40
0.187500000000005
40
0.218750000000006
40
0.218750000000006
40
0.250000000000007
40
0.250000000000007
40
0.257812500000007
40
0.257812500000007
40
0.265625000000007
40
0.265625000000007
40
0.281250000000008
40
0.281250000000008
40
0.312500000000008
40
0.312500000000008
40
0.343750000000008
40
0.343750000000008
40
0.375000000000009
40
0.375000000000009
40
0.406250000000009
40
0.406250000000009
40
0.437500000000009
40
0.437500000000009
40
0.46875000000001
40
0.46875000000001
40
0.50000000000001
40
0.50000000000001
40
0.515625000000011
40
0.515625000000011
40
0.523437500000011
40
0.523437500000011
40
0.527343750000011
40
0.527343750000011
40
0.531250000000011
40
0.531250000000011
40
0.562500000000011
40
0.562500000000011
40
0.593750000000012
40
0.593750000000012
40
0.625000000000012
40
0.625000000000012
40
0.656250000000013
40
0.656250000000013
40
0.687500000000014
40
0.687500000000014
40
0.718750000000014
40
0.718750000000014
40
0.750000000000015
40
0.750000000000015
40
0.781250000000015
40
0.781250000000015
40
0.789062500000016
40
0.789062500000016
40
0.792968750000015
40
0.792968750000015
40
0.796875000000015
40
0.796875000000015
40
0.812500000000014
40
0.812500000000014
40
0.843750000000012
40
0.843750000000012
40
0.875000000000009
40
0.875000000000009
40
0.906250000000007
40
0.906250000000007
40
0.937500000000005
40
0.937500000000005
40
0.968750000000002
40
0.968750000000002
40
1
40
1
40
1
40
1
41
1
10
70.3975972776786
20
8
30
0
41
1
10
70.4829164531806
20
8
30
0
41
1
10
70.5682356286826
20
7.96278351581293
30
0
41
1
10
70.7388739796867
20
7.80062547323087
30
0
41
1
10
70.8241931551887
20
7.67556284592851
30
0
41
1
10
70.9948315061926
20
7.33085844955028
30
0
41
1
10
71.0801506816946
20
7.11113910465897
30
0
41
1
10
71.2507890326987
20
6.58011626968138
30
0
41
1
10
71.3361082082007
20
6.26882438352982
30
0
41
1
10
71.5067465592047
20
5.568646450881
30
0
41
1
10
71.5920657347066
20
5.17987164988736
30
0
41
1
10
71.7627040857107
20
4.34786220986769
30
0
41
1
10
71.8480232612126
20
3.90479941905781
30
0
41
1
10
72.0186616122166
20
2.99205249410659
30
0
41
1
10
72.1039807877186
20
2.52253436588117
30
0
41
1
10
72.2746191387226
20
1.58408939271556
30
0
41
1
10
72.3599383142246
20
1.11526956561684
30
0
41
1
10
72.4665872836021
20
0.543561749813364
30
0
41
1
10
72.4879170774776
20
0.429920511569662
30
0
41
1
10
72.5305766652285
20
0.204318867741961
30
0
41
1
10
72.551906459104
20
0.0925549794777965
30
0
41
1
10
72.6158958407306
20
-0.241070145054835
30
0
41
1
10
72.6585554284815
20
-0.467313335663306
30
0
41
1
10
72.7865341917345
20
-1.15429028487
30
0
41
1
10
72.8718533672366
20
-1.62346181433017
30
0
41
1
10
73.0424917182406
20
-2.5619043458191
30
0
41
1
10
73.1278108937425
20
-3.03106628224091
30
0
41
1
10
73.2984492447466
20
-3.94230880188292
30
0
41
1
10
73.3837684202485
20
-4.38422234692399
30
0
41
1
10
73.5544067712525
20
-5.21319596190531
30
0
41
1
10
73.6397259467545
20
-5.6000850098813
30
0
41
1
10
73.8103642977586
20
-6.29595523155146
30
0
41
1
10
73.8956834732605
20
-6.60482762899912
30
0
41
1
10
74.0663218242645
20
-7.13077135642428
30
0
41
1
10
74.1516409997665
20
-7.34783394725483
30
0
41
1
10
74.3222793507705
20
-7.68729030883847
30
0
41
1
10
74.4075985262725
20
-7.80976358173282
30
0
41
1
10
74.5355772895255
20
-7.92772614582097
30
0
41
1
10
74.5782368772765
20
-7.95615741400576
30
0
41
1
10
74.642226258903
20
-7.98361338346501
30
0
41
1
10
74.6635560527785
20
-7.99023641140647
30
0
41
1
10
74.6955507435918
20
-7.99654245449105
30
0
41
1
10
74.7062156405295
20
-7.99803985174842
30
0
41
1
10
74.727545434405
20
-7.9998543432032
30
0
41
1
10
74.7382103313428
20
-8.00017260520002
30
0
41
1
10
74.8341944037825
20
-7.99783551825834
30
0
41
1
10
74.9195135792846
20
-7.95832339023079
30
0
41
1
10
75.0901519302885
20
-7.79127429873836
30
0
41
1
10
75.1754711057905
20
-7.66361676776779
30
0
41
1
10
75.3461094567945
20
-7.31366107986582
30
0
41
1
10
75.4314286322965
20
-7.09128731160595
30
0
41
1
10
75.6020669833005
20
-6.55519884006608
30
0
41
1
10
75.6873861588025
20
-6.24149861483045
30
0
41
1
10
75.8580245098065
20
-5.5370426053336
30
0
41
1
10
75.9433436853085
20
-5.14640050366606
30
0
41
1
10
76.1139820363125
20
-4.3113958834046
30
0
41
1
10
76.1993012118145
20
-3.86720598427337
30
0
41
1
10
76.3699395628184
20
-2.95299836148649
30
0
41
1
10
76.4552587383204
20
-2.48314556819588
30
0
41
1
10
76.6258970893244
20
-1.54473722466261
30
0
41
1
10
76.7112162648264
20
-1.07628663294525
30
0
41
1
10
76.817865234204
20
-0.505370190458621
30
0
41
1
10
76.8391950280794
20
-0.391903589509155
30
0
41
1
10
76.8711897188927
20
-0.22298652474575
30
0
41
1
10
76.8818546158304
20
-0.166894425412522
30
0
41
1
10
76.9031844097059
20
-0.055169413286734
30
0
41
1
10
76.9138493066436
20
0.000303746604601
30
0
41
1
10
76.9671737913324
20
0.278853388627482
30
0
41
1
10
77.0098333790835
20
0.505465184074268
30
0
41
1
10
77.1378121423365
20
1.1933473963164
30
0
41
1
10
77.2231313178384
20
1.66285295264032
30
0
41
1
10
77.3937696688424
20
2.60125375752415
30
0
41
1
10
77.4790888443445
20
3.07003790517891
30
0
41
1
10
77.6497271953485
20
3.97973228490875
30
0
41
1
10
77.7350463708505
20
4.42047449055062
30
0
41
1
10
77.9056847218545
20
5.24637184196308
30
0
41
1
10
77.9910038973564
20
5.63135684685784
30
0
41
1
10
78.1616422483604
20
6.32289012466183
30
0
41
1
10
78.2469614238624
20
6.62933212170029
30
0
41
1
10
78.4175997748664
20
7.15018375315171
30
0
41
1
10
78.5029189503684
20
7.36458750277356
30
0
41
1
10
78.5882381258704
20
7.53169351043843
30
0
0
SPLINE
5
D9
100
AcDbEntity
8
1
62
256
6
ByLayer
370
13
48
1
60
0
100
AcDbSpline
70
4
71
3
72
102
73
98
40
0
40
0
40
0
40
0
40
0.0312499999999999
40
0.0312499999999999
40
0.0624999999999999
40
0.0624999999999999
40
0.0781249999999998
40
0.0781249999999998
40
0.0937499999999998
40
0.0937499999999998
40
0.109375
40
0.109375
40
0.125
40
0.125
40
0.140625
40
0.140625
40
0.15625
40
0.15625
40
0.171875
40
0.171875
40
0.1875
40
0.1875
40
0.21875
40
0.21875
40
0.25
40
0.25
40
0.28125
40
0.28125
40
0.312499999999999
40
0.312499999999999
40
0.328124999999999
40
0.328124999999999
40
0.343749999999999
40
0.343749999999999
40
0.359374999999999
40
0.359374999999999
40
0.374999999999999
40
0.374999999999999
40
0.390624999999999
40
0.390624999999999
40
0.406249999999999
40
0.406249999999999
40
0.421874999999999
40
0.421874999999999
40
0.437499999999999
40
0.437499999999999
40
0.468749999999999
40
0.468749999999999
40
0.5
40
0.5
40
0.53125
40
0.53125
40
0.5625
40
0.5625
40
0.578125
40
0.578125
40
0.59375
40
0.59375
40
0.609375
40
0.609375
40
0.625
40
0.625
40
0.640625
40
0.640625
40
0.65625
40
0.65625
40
0.671875
40
0.671875
40
0.6875
40
0.6875
40
0.71875
40
0.71875
40
0.75
40
0.75
40
0.781249999999999
40
0.781249999999999
40
0.812499999999999
40
0.812499999999999
40
0.828125
40
0.828125
40
0.84375
40
0.84375
40
0.859375
40
0.859375
40
0.875
40
0.875
40
0.890625
40
0.890625
40
0.90625
40
0.90625
40
0.921875
40
0.921875
40
0.9375
40
0.9375
40
0.96875
40
0.96875
40
1
40
1
40
1
40
1
41
1
10
69.9000004344119
20
8
30
0
41
1
10
69.9905029103646
20
8
30
0
41
1
10
70.0810053863173
20
7.95809322605459
30
0
41
1
10
70.2620103382227
20
7.77479269610569
30
0
41
1
10
70.3525128141754
20
7.63323828714869
30
0
41
1
10
70.4882665281044
20
7.34084055689414
30
0
41
1
10
70.5335177660808
20
7.23011482789894
30
0
41
1
10
70.6240202420335
20
6.98242946714112
30
0
41
1
10
70.6692714800098
20
6.8454688266342
30
0
41
1
10
70.7597739559625
20
6.5464596219725
30
0
41
1
10
70.8050251939389
20
6.38441233198296
30
0
41
1
10
70.8955276698916
20
6.03723903374649
30
0
41
1
10
70.9407789078679
20
5.85211661183143
30
0
41
1
10
71.0312813838206
20
5.46159235578244
30
0
41
1
10
71.076532621797
20
5.25619610493322
30
0
41
1
10
71.1670350977496
20
4.82857449474366
30
0
41
1
10
71.2122863357259
20
4.60635609931862
30
0
41
1
10
71.3027888116787
20
4.14900064087686
30
0
41
1
10
71.348040049655
20
3.91387111957059
30
0
41
1
10
71.4385425256077
20
3.43484315972162
30
0
41
1
10
71.483793763584
20
3.19095200533309
30
0
41
1
10
71.6195474775131
20
2.45237034826579
30
0
41
1
10
71.7100499534658
20
1.95097143427421
30
0
41
1
10
71.8910549053712
20
0.960438444379776
30
0
41
1
10
71.9815573813239
20
0.471405076713324
30
0
41
1
10
72.1625623332293
20
-0.471403945342502
30
0
41
1
10
72.2530648091819
20
-0.960437265140172
30
0
41
1
10
72.4340697610874
20
-1.95097023623461
30
0
41
1
10
72.52457223704
20
-2.45236915176727
30
0
41
1
10
72.660325950969
20
-3.19095083098631
30
0
41
1
10
72.7055771889454
20
-3.43484199603785
30
0
41
1
10
72.7960796648981
20
-3.91386998392005
30
0
41
1
10
72.8413309028745
20
-4.14899952259765
30
0
41
1
10
72.9318333788272
20
-4.60635502229152
30
0
41
1
10
72.9770846168036
20
-4.82857344159714
30
0
41
1
10
73.0675870927562
20
-5.25619510549586
30
0
41
1
10
73.1128383307325
20
-5.46159138617205
30
0
41
1
10
73.2033408066852
20
-5.85211570692522
30
0
41
1
10
73.2485920446616
20
-6.0372381637147
30
0
41
1
10
73.3390945206143
20
-6.38441153558273
30
0
41
1
10
73.3843457585907
20
-6.54645886432587
30
0
41
1
10
73.4748482345433
20
-6.84546814903646
30
0
41
1
10
73.5200994725197
20
-6.98242883083498
30
0
41
1
10
73.6106019484723
20
-7.23011427531515
30
0
41
1
10
73.6558531864486
20
-7.34084004673767
30
0
41
1
10
73.7916069003777
20
-7.63323790395222
30
0
41
1
10
73.8821093763304
20
-7.77479239700671
30
0
41
1
10
74.0631143282358
20
-7.95809308523209
30
0
41
1
10
74.1536168041885
20
-7.99999993333324
30
0
41
1
10
74.3346217560939
20
-8.00000006666659
30
0
41
1
10
74.4251242320466
20
-7.95809336687688
30
0
41
1
10
74.606129183952
20
-7.77479299520448
30
0
41
1
10
74.6966316599047
20
-7.63323867034498
30
0
41
1
10
74.8323853738336
20
-7.34084106705041
30
0
41
1
10
74.87763661181
20
-7.23011538048254
30
0
41
1
10
74.9681390877627
20
-6.98243010344709
30
0
41
1
10
75.0133903257391
20
-6.84546950423174
30
0
41
1
10
75.1038928016918
20
-6.54646037961899
30
0
41
1
10
75.1491440396681
20
-6.38441312838302
30
0
41
1
10
75.2396465156208
20
-6.03723990377813
30
0
41
1
10
75.2848977535971
20
-5.85211751673751
30
0
41
1
10
75.3754002295498
20
-5.46159332539267
30
0
41
1
10
75.4206514675262
20
-5.25619710437044
30
0
41
1
10
75.5111539434789
20
-4.82857554789007
30
0
41
1
10
75.5564051814552
20
-4.60635717634563
30
0
41
1
10
75.646907657408
20
-4.14900175915602
30
0
41
1
10
75.6921588953842
20
-3.91387225522104
30
0
41
1
10
75.7826613713369
20
-3.43484432340534
30
0
41
1
10
75.8279126093133
20
-3.19095317967981
30
0
41
1
10
75.9636663232424
20
-2.4523715447643
30
0
41
1
10
76.0541687991951
20
-1.95097263231378
30
0
41
1
10
76.2351737511004
20
-0.960439623619408
30
0
41
1
10
76.3256762270531
20
-0.471406235698424
30
0
41
1
10
76.5066811789585
20
0.471402841585871
30
0
41
1
10
76.5971836549112
20
0.960436085900596
30
0
41
1
10
76.7781886068166
20
1.95096903819504
30
0
41
1
10
76.8686910827693
20
2.45236795526873
30
0
41
1
10
77.0044447966982
20
3.1909496566395
30
0
41
1
10
77.0496960346746
20
3.43484083235401
30
0
41
1
10
77.1401985106272
20
3.91386884826943
30
0
41
1
10
77.1854497486036
20
4.14899840431832
30
0
41
1
10
77.2759522245563
20
4.60635394526432
30
0
41
1
10
77.3212034625327
20
4.82857238845048
30
0
41
1
10
77.4117059384854
20
5.25619410605836
30
0
41
1
10
77.4569571764617
20
5.46159041656151
30
0
41
1
10
77.5474596524144
20
5.85211480201883
30
0
41
1
10
77.5927108903908
20
6.03723729368275
30
0
41
1
10
77.6832133663435
20
6.3844107391823
30
0
41
1
10
77.7284646043198
20
6.54645810667901
30
0
41
1
10
77.8189670802725
20
6.84546747143852
30
0
41
1
10
77.8642183182489
20
6.98242819452861
30
0
41
1
10
77.9547207942016
20
7.23011372273115
30
0
41
1
10
77.9999720321779
20
7.34083953658097
30
0
41
1
10
78.1357257461069
20
7.63323752075553
30
0
41
1
10
78.2262282220597
20
7.77479209790755
30
0
41
1
10
78.407233173965
20
7.9580929444094
30
0
41
1
10
78.4977356499177
20
7.99999986666634
30
0
41
1
10
78.5882381258704
20
7.99999999999969
30
0
0
SPLINE
5
DA
100
AcDbEntity
8
1
62
256
6
ByLayer
370
13
48
1
60
0
100
AcDbSpline
70
4
71
3
72
84
73
80
40
0
40
0
40
0
40
0
40
0.0312500000000009
40
0.0312500000000009
40
0.0625000000000018
40
0.0625000000000018
40
0.0937500000000027
40
0.0937500000000027
40
0.125000000000004
40
0.125000000000004
40
0.156250000000005
40
0.156250000000005
40
0.187500000000005
40
0.187500000000005
40
0.203125000000006
40
0.203125000000006
40
0.207031250000006
40
0.207031250000006
40
0.210937500000006
40
0.218750000000006
40
0.218750000000006
40
0.250000000000007
40
0.250000000000007
40
0.281250000000007
40
0.281250000000007
40
0.312500000000007
40
0.312500000000007
40
0.343750000000008
40
0.343750000000008
40
0.375000000000008
40
0.375000000000008
40
0.406250000000009
40
0.406250000000009
40
0.437500000000009
40
0.437500000000009
40
0.468750000000009
40
0.468750000000009
40
0.472656250000009
40
0.472656250000009
40
0.476562500000009
40
0.484375000000009
40
0.484375000000009
40
0.50000000000001
40
0.50000000000001
40
0.53125000000001
40
0.53125000000001
40
0.56250000000001
40
0.56250000000001
40
0.59375000000001
40
0.59375000000001
40
0.62500000000001
40
0.62500000000001
40
0.65625000000001
40
0.65625000000001
40
0.68750000000001
40
0.68750000000001
40
0.71875000000001
40
0.71875000000001
40
0.734375000000009
40
0.734375000000009
40
0.742187500000009
40
0.742187500000009
40
0.750000000000009
40
0.750000000000009
40
0.781250000000008
40
0.781250000000008
40
0.812500000000007
40
0.812500000000007
40
0.843750000000006
40
0.843750000000006
40
0.875000000000005
40
0.875000000000005
40
0.906250000000004
40
0.906250000000004
40
0.937500000000002
40
0.937500000000002
40
0.968750000000001
40
0.968750000000001
40
1
40
1
40
1
40
1
41
1
10
69.9
20
7.53169521211379
30
0
41
1
10
69.9853191845523
20
7.36458950483723
30
0
41
1
10
70.0706383691045
20
7.15018605016158
30
0
41
1
10
70.241276738209
20
6.62933496288508
30
0
41
1
10
70.3265959227613
20
6.32289321474366
30
0
41
1
10
70.4972342918658
20
5.63136035868092
30
0
41
1
10
70.582553476418
20
5.2463755264001
30
0
41
1
10
70.7531918455225
20
4.42047842794017
30
0
41
1
10
70.8385110300747
20
3.97973630262652
30
0
41
1
10
71.0091493991793
20
3.07004199312488
30
0
41
1
10
71.0944685837315
20
2.60125783556123
30
0
41
1
10
71.2651069528359
20
1.66285693742793
30
0
41
1
10
71.3504261373882
20
1.19335129802994
30
0
41
1
10
71.4784049142165
20
0.505468924662409
30
0
41
1
10
71.5210645064927
20
0.278857069454432
30
0
41
1
10
71.5743889968378
20
0.0003073471209234
30
0
41
1
10
71.5850538949069
20
-0.0551658085397833
30
0
41
1
10
71.606383691045
20
-0.166890812747568
30
0
41
1
10
71.638378385252
20
-0.335166665643754
30
0
41
1
10
71.6703730794591
20
-0.505366559922606
30
0
41
1
10
71.7770220601494
20
-1.07628298706914
30
0
41
1
10
71.8623412447017
20
-1.54473359393822
30
0
41
1
10
72.0329796138062
20
-2.48314203190742
30
0
41
1
10
72.1182987983584
20
-2.95299490461471
30
0
41
1
10
72.2889371674629
20
-3.86720274988696
30
0
41
1
10
72.3742563520152
20
-4.31139279209563
30
0
41
1
10
72.5448947211197
20
-5.14639774913798
30
0
41
1
10
72.6302139056719
20
-5.53704004435605
30
0
41
1
10
72.8008522747763
20
-6.24149646811253
30
0
41
1
10
72.8861714593286
20
-6.55519691380456
30
0
41
1
10
73.0568098284331
20
-7.09128582592496
30
0
41
1
10
73.1421290129854
20
-7.3136598140828
30
0
41
1
10
73.3127673820898
20
-7.66361591761753
30
0
41
1
10
73.3980865666421
20
-7.79127364421956
30
0
41
1
10
73.5687249357467
20
-7.95832308788135
30
0
41
1
10
73.6540441202988
20
-7.99783537247464
30
0
41
1
10
73.7500282029201
20
-8.00017261077932
30
0
41
1
10
73.7606931009891
20
-7.99985436537366
30
0
41
1
10
73.7820228971272
20
-7.99803990752861
30
0
41
1
10
73.8140175913342
20
-7.9935480318268
30
0
41
1
10
73.8460122855414
20
-7.98361354125322
30
0
41
1
10
73.9100016739556
20
-7.95615767508284
30
0
41
1
10
73.9526612662318
20
-7.92772647658066
30
0
41
1
10
74.08064004306
20
-7.80976412145091
30
0
41
1
10
74.1659592276122
20
-7.68729098779278
30
0
41
1
10
74.3365975967167
20
-7.34783488865526
30
0
41
1
10
74.4219167812691
20
-7.13077242088454
30
0
41
1
10
74.5925551503735
20
-6.60482890770072
30
0
41
1
10
74.6778743349257
20
-6.29595660128751
30
0
41
1
10
74.8485127040303
20
-5.60008651891292
30
0
41
1
10
74.9338318885825
20
-5.21319751913276
30
0
41
1
10
75.104470257687
20
-4.38422395530353
30
0
41
1
10
75.1897894422393
20
-3.94231041326984
30
0
41
1
10
75.3604278113439
20
-3.03106786064131
30
0
41
1
10
75.445746995896
20
-2.56190588835577
30
0
41
1
10
75.6163853650004
20
-1.62346325815764
30
0
41
1
10
75.7017045495528
20
-1.15429166598707
30
0
41
1
10
75.8296833263811
20
-0.467314612627547
30
0
41
1
10
75.8723429186572
20
-0.241071385618511
30
0
41
1
10
75.9363323070714
20
0.0925537949027557
30
0
41
1
10
75.9576621032095
20
0.204317677080724
30
0
41
1
10
76.0003216954855
20
0.429919333087923
30
0
41
1
10
76.0216514916236
20
0.543560578066007
30
0
41
1
10
76.1283004723139
20
1.11526843078079
30
0
41
1
10
76.2136196568662
20
1.5840882979399
30
0
41
1
10
76.3842580259707
20
2.52253337019647
30
0
41
1
10
76.4695772105229
20
2.99205155745034
30
0
41
1
10
76.6402155796275
20
3.90479861295751
30
0
41
1
10
76.7255347641796
20
4.34786147523141
30
0
41
1
10
76.8961731332842
20
5.17987106069015
30
0
41
1
10
76.9814923178363
20
5.56864593555326
30
0
41
1
10
77.152130686941
20
6.26882400759939
30
0
41
1
10
77.2374498714932
20
6.58011595918302
30
0
41
1
10
77.4080882405976
20
7.11113890820218
30
0
41
1
10
77.4934074251498
20
7.33085830166411
30
0
41
1
10
77.6640457942544
20
7.67556277442714
30
0
41
1
10
77.7493649788066
20
7.80062542956958
30
0
41
1
10
77.920003347911
20
7.96278350787139
30
0
41
1
10
78.0053225324633
20
8
30
0
41
1
10
78.0906417170156
20
8
30
0
0
SPLINE
5
DB
100
AcDbEntity
8
1
62
256
6
ByLayer
370
13
48
1
60
0
100
AcDbSpline
70
4
71
3
72
84
73
80
40
0
40
0
40
0
40
0
40
0.0312500000000006
40
0.0312500000000006
40
0.0625000000000011
40
0.0625000000000011
40
0.0937500000000017
40
0.0937500000000017
40
0.125000000000002
40
0.125000000000002
40
0.140625000000002
40
0.140625000000002
40
0.148437500000002
40
0.148437500000002
40
0.156250000000003
40
0.156250000000003
40
0.187500000000003
40
0.187500000000003
40
0.218750000000003
40
0.218750000000003
40
0.250000000000004
40
0.250000000000004
40
0.281250000000004
40
0.281250000000004
40
0.312500000000005
40
0.312500000000005
40
0.343750000000005
40
0.343750000000005
40
0.375000000000005
40
0.375000000000005
40
0.406250000000006
40
0.406250000000006
40
0.421875000000006
40
0.421875000000006
40
0.429687500000006
40
0.433593750000006
40
0.433593750000006
40
0.437500000000006
40
0.437500000000006
40
0.468750000000006
40
0.468750000000006
40
0.500000000000007
40
0.500000000000007
40
0.531250000000007
40
0.531250000000007
40
0.562500000000007
40
0.562500000000007
40
0.593750000000008
40
0.593750000000008
40
0.625000000000008
40
0.625000000000008
40
0.656250000000009
40
0.656250000000009
40
0.687500000000009
40
0.687500000000009
40
0.703125000000009
40
0.703125000000009
40
0.710937500000009
40
0.714843750000009
40
0.714843750000009
40
0.718750000000009
40
0.718750000000009
40
0.750000000000008
40
0.750000000000008
40
0.781250000000007
40
0.781250000000007
40
0.812500000000006
40
0.812500000000006
40
0.843750000000005
40
0.843750000000005
40
0.875000000000004
40
0.875000000000004
40
0.906250000000003
40
0.906250000000003
40
0.937500000000002
40
0.937500000000002
40
0.968750000000001
40
0.968750000000001
40
1
40
1
40
1
40
1
41
1
10
69.9
20
6.03478656040747
30
0
41
1
10
69.9801358841016
20
5.71414012461813
30
0
41
1
10
70.0602717682032
20
5.35847025182269
30
0
41
1
10
70.2205435364062
20
4.59520823046506
30
0
41
1
10
70.3006794205078
20
4.18773761646185
30
0
41
1
10
70.4609511887109
20
3.34349187711527
30
0
41
1
10
70.5410870728124
20
2.90684363289858
30
0
41
1
10
70.7013588410156
20
2.02730828313011
30
0
41
1
10
70.7814947251171
20
1.58451470617615
30
0
41
1
10
70.9016985512694
20
0.930699274010294
30
0
41
1
10
70.9417664933202
20
0.714457752725338
30
0
41
1
10
71.0018684063963
20
0.394166730282563
30
0
41
1
10
71.0219023774218
20
0.288078999213468
30
0
41
1
10
71.0619703194726
20
0.0774776804826729
30
0
41
1
10
71.0820042904979
20
-0.0265095418860426
30
0
41
1
10
71.1821741456249
20
-0.551722603022625
30
0
41
1
10
71.2623100297265
20
-0.98497014925394
30
0
41
1
10
71.4225817979295
20
-1.86157701402263
30
0
41
1
10
71.5027176820311
20
-2.30488282544945
30
0
41
1
10
71.6629894502342
20
-3.18078039348512
30
0
41
1
10
71.7431253343357
20
-3.61326934372195
30
0
41
1
10
71.9033971025387
20
-4.4442966764515
30
0
41
1
10
71.9835329866403
20
-4.84270562366495
30
0
41
1
10
72.1438047548435
20
-5.58352144302415
30
0
41
1
10
72.223940638945
20
-5.92581357776274
30
0
41
1
10
72.3842124071481
20
-6.53736173939828
30
0
41
1
10
72.4643482912496
20
-6.80655738346516
30
0
41
1
10
72.6246200594528
20
-7.26266179937426
30
0
41
1
10
72.7047559435543
20
-7.4495804141693
30
0
41
1
10
72.8650277117575
20
-7.74045299162458
30
0
41
1
10
72.945163595859
20
-7.84447274714441
30
0
41
1
10
73.0653674220113
20
-7.94328946264989
30
0
41
1
10
73.105435364062
20
-7.96674329664114
30
0
41
1
10
73.1655372771382
20
-7.98867972038178
30
0
41
1
10
73.1955882336763
20
-7.99634000302493
30
0
41
1
10
73.2256391902144
20
-7.99924715180154
30
0
41
1
10
73.2456731612398
20
-8.00015355138686
30
0
41
1
10
73.2556901467525
20
-8.00009425627414
30
0
41
1
10
73.3458430163668
20
-7.99492881022331
30
0
41
1
10
73.4259789004684
20
-7.95707911134443
30
0
41
1
10
73.5862506686714
20
-7.80398332027821
30
0
41
1
10
73.666386552773
20
-7.68864858359788
30
0
41
1
10
73.826658320976
20
-7.3747409897926
30
0
41
1
10
73.9067942050776
20
-7.17610843305604
30
0
41
1
10
74.0670659732806
20
-6.69732838610366
30
0
41
1
10
74.1472018573822
20
-6.41718062190154
30
0
41
1
10
74.3074736255853
20
-5.7856649224187
30
0
41
1
10
74.3876095096869
20
-5.43436662028702
30
0
41
1
10
74.54788127789
20
-4.6783880810822
30
0
41
1
10
74.6280171619915
20
-4.27382732366223
30
0
41
1
10
74.7882889301946
20
-3.43376253377392
30
0
41
1
10
74.8684248142962
20
-2.99838643695298
30
0
41
1
10
75.0286965824993
20
-2.11984893985115
30
0
41
1
10
75.1088324666008
20
-1.67678425837514
30
0
41
1
10
75.2290362927531
20
-1.02162363971431
30
0
41
1
10
75.269104234804
20
-0.804778543247636
30
0
41
1
10
75.3292061478801
20
-0.483384136404936
30
0
41
1
10
75.359257104418
20
-0.323651393715835
30
0
41
1
10
75.3893080609562
20
-0.165622040612646
30
0
41
1
10
75.4093420319817
20
-0.0606736393174856
30
0
41
1
10
75.4193590174943
20
-0.0085390318393195
30
0
41
1
10
75.5095118871086
20
0.462098318323513
30
0
41
1
10
75.5896477712102
20
0.89397881766871
30
0
41
1
10
75.7499195394132
20
1.76914508108419
30
0
41
1
10
75.8300554235148
20
2.21238098542224
30
0
41
1
10
75.9903271917179
20
3.08970650437772
30
0
41
1
10
76.0704630758195
20
3.52369630465026
30
0
41
1
10
76.2307348440226
20
4.3593547751147
30
0
41
1
10
76.3108707281241
20
4.76089465671211
30
0
41
1
10
76.4711424963272
20
5.50939006530726
30
0
41
1
10
76.5512783804288
20
5.85622837974253
30
0
41
1
10
76.7115501486318
20
6.47782745119943
30
0
41
1
10
76.7916860327334
20
6.75252315469666
30
0
41
1
10
76.9519578009365
20
7.21999202790039
30
0
41
1
10
77.032093685038
20
7.41277028907237
30
0
41
1
10
77.1923654532411
20
7.71514719027476
30
0
41
1
10
77.2725013373427
20
7.82480865675393
30
0
41
1
10
77.4327731055458
20
7.96719036217033
30
0
41
1
10
77.5129089896474
20
8
30
0
41
1
10
77.5930448737489
20
8
30
0
0
SPLINE
5
DC
100
AcDbEntity
8
1
62
256
6
ByLayer
370
13
48
1
60
0
100
AcDbSpline
70
4
71
3
72
85
73
81
40
0
40
0
40
0
40
0
40
0.0312500000000002
40
0.0312500000000002
40
0.0625000000000003
40
0.0625000000000003
40
0.0937500000000005
40
0.0937500000000005
40
0.101562500000001
40
0.101562500000001
40
0.109375000000001
40
0.109375000000001
40
0.125000000000001
40
0.125000000000001
40
0.156250000000001
40
0.156250000000001
40
0.187500000000001
40
0.187500000000001
40
0.218750000000001
40
0.218750000000001
40
0.250000000000001
40
0.250000000000001
40
0.281250000000002
40
0.281250000000002
40
0.312500000000002
40
0.312500000000002
40
0.343750000000002
40
0.343750000000002
40
0.375000000000002
40
0.375000000000002
40
0.390625000000002
40
0.390625000000002
40
0.394531250000002
40
0.394531250000002
40
0.398437500000002
40
0.398437500000002
40
0.406250000000002
40
0.406250000000002
40
0.437500000000002
40
0.437500000000002
40
0.468750000000002
40
0.468750000000002
40
0.500000000000001
40
0.500000000000001
40
0.531250000000001
40
0.531250000000001
40
0.562500000000001
40
0.562500000000001
40
0.593750000000001
40
0.593750000000001
40
0.625000000000001
40
0.625000000000001
40
0.65625
40
0.65625
40
0.6875
40
0.6875
40
0.6953125
40
0.6953125
40
0.69921875
40
0.69921875
40
0.703125
40
0.71875
40
0.71875
40
0.75
40
0.75
40
0.78125
40
0.78125
40
0.8125
40
0.8125
40
0.84375
40
0.84375
40
0.875
40
0.875
40
0.90625
40
0.90625
40
0.9375
40
0.9375
40
0.96875
40
0.96875
40
1
40
1
40
1
40
1
41
1
10
69.9
20
3.67700746283842
30
0
41
1
10
69.9749525836509
20
3.28033837217637
30
0
41
1
10
70.0499051673017
20
2.87166997989192
30
0
41
1
10
70.1998103346034
20
2.04896354027511
30
0
41
1
10
70.2747629182543
20
1.63499234612397
30
0
41
1
10
70.424668085556
20
0.818183182925111
30
0
41
1
10
70.4996206692069
20
0.415377902962433
30
0
41
1
10
70.5933113987704
20
-0.0732486345031873
30
0
41
1
10
70.6120495446832
20
-0.171257777867709
30
0
41
1
10
70.6495258365086
20
-0.36903370362063
30
0
41
1
10
70.6682639824213
20
-0.468584232632679
30
0
41
1
10
70.7244784201595
20
-0.768944224893801
30
0
41
1
10
70.7619547119849
20
-0.971470000518138
30
0
41
1
10
70.8743835874611
20
-1.58337763363082
30
0
41
1
10
70.949336171112
20
-1.99718907652957
30
0
41
1
10
71.0992413384137
20
-2.82032302823589
30
0
41
1
10
71.1741939220645
20
-3.22957999600021
30
0
41
1
10
71.3240990893663
20
-4.0248964646207
30
0
41
1
10
71.3990516730172
20
-4.41086643434852
30
0
41
1
10
71.5489568403189
20
-5.14087017146389
30
0
41
1
10
71.6239094239697
20
-5.48481376426096
30
0
41
1
10
71.7738145912714
20
-6.11479161347856
30
0
41
1
10
71.8487671749223
20
-6.4007624023505
30
0
41
1
10
71.9986723422239
20
-6.90399482759517
30
0
41
1
10
72.0736249258748
20
-7.12123774923757
30
0
41
1
10
72.2235300931766
20
-7.48267573262279
30
0
41
1
10
72.2984826768274
20
-7.62689717686979
30
0
41
1
10
72.4483878441291
20
-7.8442832835911
30
0
41
1
10
72.52334042778
20
-7.91750422235594
30
0
41
1
10
72.6357693032563
20
-7.97930173876236
30
0
41
1
10
72.6732455950817
20
-7.99192866551482
30
0
41
1
10
72.7200909598635
20
-7.99848476103656
30
0
41
1
10
72.7294600328198
20
-7.99933498958876
30
0
41
1
10
72.7481981787326
20
-8.00013333689384
30
0
41
1
10
72.7575672516889
20
-8.00008424213564
30
0
41
1
10
72.785674470558
20
-7.9985871580943
30
0
41
1
10
72.8044126164708
20
-7.99578018000062
30
0
41
1
10
72.8981033460343
20
-7.9723095296778
30
0
41
1
10
72.9730559296851
20
-7.92321203212515
30
0
41
1
10
73.1229610969868
20
-7.75613083906643
30
0
41
1
10
73.1979136806377
20
-7.63808526838696
30
0
41
1
10
73.3478188479394
20
-7.32906247879015
30
0
41
1
10
73.4227714315903
20
-7.13804577987116
30
0
41
1
10
73.5726765988919
20
-6.68496444515136
30
0
41
1
10
73.6476291825428
20
-6.42290130779151
30
0
41
1
10
73.7975343498446
20
-5.83617417328409
30
0
41
1
10
73.8724869334955
20
-5.51155871577976
30
0
41
1
10
74.0223921007971
20
-4.81399342224415
30
0
41
1
10
74.097344684448
20
-4.44112706097454
30
0
41
1
10
74.2472498517496
20
-3.66510150512369
30
0
41
1
10
74.3222024354005
20
-3.26203525042689
30
0
41
1
10
74.4721076027023
20
-2.44467443413649
30
0
41
1
10
74.5470601863531
20
-2.03045604647485
30
0
41
1
10
74.6969653536548
20
-1.20824609451481
30
0
41
1
10
74.7719179373057
20
-0.800298420687028
30
0
41
1
10
74.8656086668693
20
-0.303004288535931
30
0
41
1
10
74.8843468127819
20
-0.204167655998901
30
0
41
1
10
74.912454031651
20
-0.0569786988481553
30
0
41
1
10
74.9218231046074
20
-0.008213108220076
30
0
41
1
10
74.9405612505201
20
0.0895929919481375
30
0
41
1
10
74.9874066153018
20
0.335016489736063
30
0
41
1
10
75.0342519800837
20
0.584745625866447
30
0
41
1
10
75.14668085556
20
1.19008537628477
30
0
41
1
10
75.2216334392108
20
1.60174485998766
30
0
41
1
10
75.3715386065126
20
2.42613315486236
30
0
41
1
10
75.4464911901634
20
2.83880697099497
30
0
41
1
10
75.5963963574651
20
3.64706477918563
30
0
41
1
10
75.6713489411159
20
4.04256488535827
30
0
41
1
10
75.8212541084177
20
4.79744751295684
30
0
41
1
10
75.8962066920686
20
5.15673702126475
30
0
41
1
10
76.0461118593703
20
5.82204456618476
30
0
41
1
10
76.1210644430211
20
6.12798794534871
30
0
41
1
10
76.2709696103227
20
6.67394633414477
30
0
41
1
10
76.3459221939736
20
6.91392739096355
30
0
41
1
10
76.4958273612754
20
7.32150523931458
30
0
41
1
10
76.5707799449262
20
7.48911507301256
30
0
41
1
10
76.7206851122279
20
7.75201561787179
30
0
41
1
10
76.7956376958788
20
7.84735528914231
30
0
41
1
10
76.9455428631805
20
7.97131521642882
30
0
41
1
10
77.0204954468313
20
8
30
0
41
1
10
77.0954480304822
20
8
30
0
0
SPLINE
5
DD
100
AcDbEntity
8
1
62
256
6
ByLayer
370
13
48
1
60
0
100
AcDbSpline
70
4
71
3
72
82
73
78
40
0
40
0
40
0
40
0
40
0.0156250000000003
40
0.0156250000000003
40
0.0234375000000003
40
0.0234375000000003
40
0.0312500000000003
40
0.0312500000000003
40
0.0625000000000002
40
0.0625000000000002
40
0.09375
40
0.09375
40
0.125
40
0.125
40
0.15625
40
0.15625
40
0.1875
40
0.1875
40
0.21875
40
0.21875
40
0.249999999999999
40
0.249999999999999
40
0.281249999999999
40
0.281249999999999
40
0.312499999999999
40
0.312499999999999
40
0.343749999999999
40
0.343749999999999
40
0.351562499999999
40
0.351562499999999
40
0.359374999999999
40
0.359374999999999
40
0.374999999999999
40
0.374999999999999
40
0.406249999999999
40
0.406249999999999
40
0.437499999999998
40
0.437499999999998
40
0.468749999999998
40
0.468749999999998
40
0.499999999999998
40
0.499999999999998
40
0.531249999999998
40
0.531249999999998
40
0.562499999999998
40
0.562499999999998
40
0.593749999999998
40
0.593749999999998
40
0.624999999999998
40
0.624999999999998
40
0.656249999999998
40
0.656249999999998
40
0.671874999999998
40
0.671874999999998
40
0.679687499999998
40
0.679687499999998
40
0.687499999999998
40
0.687499999999998
40
0.718749999999998
40
0.718749999999998
40
0.749999999999998
40
0.749999999999998
40
0.781249999999999
40
0.781249999999999
40
0.812499999999999
40
0.812499999999999
40
0.843749999999999
40
0.843749999999999
40
0.874999999999999
40
0.874999999999999
40
0.906249999999999
40
0.906249999999999
40
0.9375
40
0.9375
40
0.96875
40
0.96875
40
1
40
1
40
1
40
1
41
1
10
69.9
20
0.966498041081906
30
0
41
1
10
69.9348846416001
20
0.777644634832455
30
0
41
1
10
69.9697692832002
20
0.590303058703256
30
0
41
1
10
70.0220962456003
20
0.312529727938824
30
0
41
1
10
70.0395385664004
20
0.22047693615778
30
0
41
1
10
70.0744232080004
20
0.0375912839836872
30
0
41
1
10
70.0918655288005
20
-0.0529605218690961
30
0
41
1
10
70.1790771328007
20
-0.510516396172449
30
0
41
1
10
70.2488464160008
20
-0.886381207135798
30
0
41
1
10
70.3883849824012
20
-1.64735379294953
30
0
41
1
10
70.4581542656014
20
-2.03243793539079
30
0
41
1
10
70.5976928320016
20
-2.79859965696187
30
0
41
1
10
70.6674621152018
20
-3.17963126517429
30
0
41
1
10
70.8070006816022
20
-3.92263678779526
30
0
41
1
10
70.8767699648023
20
-4.28454868550233
30
0
41
1
10
71.0163085312026
20
-4.974114712648
30
0
41
1
10
71.0860778144028
20
-5.3017046202055
30
0
41
1
10
71.2256163808031
20
-5.90923086507098
30
0
41
1
10
71.2953856640032
20
-6.18911762755968
30
0
41
1
10
71.4349242304036
20
-6.69141786708389
30
0
41
1
10
71.5046935136037
20
-6.91380918287317
30
0
41
1
10
71.6442320800041
20
-7.29599311624335
30
0
41
1
10
71.7140013632043
20
-7.4557942575222
30
0
41
1
10
71.8535399296046
20
-7.71257373225907
30
0
41
1
10
71.9233092128047
20
-7.80958465704515
30
0
41
1
10
72.062847779205
20
-7.94481068191593
30
0
41
1
10
72.1326170624052
20
-7.98307022777246
30
0
41
1
10
72.2198286664054
20
-7.99856773101891
30
0
41
1
10
72.2372709872055
20
-8.00005643062192
30
0
41
1
10
72.2721556288056
20
-7.99994030355924
30
0
41
1
10
72.2895979496057
20
-7.99833310895337
30
0
41
1
10
72.3419249120057
20
-7.98867193879116
30
0
41
1
10
72.3768095536058
20
-7.97577431443023
30
0
41
1
10
72.4814634784061
20
-7.91629826334579
30
0
41
1
10
72.5512327616062
20
-7.84883722471776
30
0
41
1
10
72.6907713280065
20
-7.65268334760228
30
0
41
1
10
72.7605406112066
20
-7.52395045811502
30
0
41
1
10
72.9000791776069
20
-7.20322981668298
30
0
41
1
10
72.9698484608072
20
-7.01122042230273
30
0
41
1
10
73.1093870272074
20
-6.56657832525329
30
0
41
1
10
73.1791563104076
20
-6.31395246682465
30
0
41
1
10
73.3186948768079
20
-5.75561891578465
30
0
41
1
10
73.3884641600081
20
-5.4499484308441
30
0
41
1
10
73.5280027264085
20
-4.79731344796088
30
0
41
1
10
73.5977720096087
20
-4.45040800717186
30
0
41
1
10
73.737310576009
20
-3.72985082191141
30
0
41
1
10
73.8070798592091
20
-3.35626424611243
30
0
41
1
10
73.9466184256094
20
-2.59772410384193
30
0
41
1
10
74.0163877088096
20
-2.21282569052656
30
0
41
1
10
74.1559262752099
20
-1.44600856277637
30
0
41
1
10
74.2256955584101
20
-1.06412469808407
30
0
41
1
10
74.3303494832102
20
-0.502482280577311
30
0
41
1
10
74.3652341248104
20
-0.317110004812491
30
0
41
1
10
74.4175610872105
20
-0.0427130329355805
30
0
41
1
10
74.4350034080105
20
0.0478361131085592
30
0
41
1
10
74.4698880496105
20
0.230812993597681
30
0
41
1
10
74.4873303704106
20
0.322908825994944
30
0
41
1
10
74.5745419744108
20
0.786065535149618
30
0
41
1
10
74.644311257611
20
1.16527757183442
30
0
41
1
10
74.7838498240114
20
1.92992934901579
30
0
41
1
10
74.8536191072115
20
2.31533984630954
30
0
41
1
10
74.9931576736118
20
3.0785740737272
30
0
41
1
10
75.062926956812
20
3.45634698879348
30
0
41
1
10
75.2024655232123
20
4.18904689291389
30
0
41
1
10
75.2722348064124
20
4.54390981951599
30
0
41
1
10
75.4117733728128
20
5.2158496219252
30
0
41
1
10
75.4815426560129
20
5.53286434280159
30
0
41
1
10
75.6210812224132
20
6.11644333291736
30
0
41
1
10
75.6908505056134
20
6.38296387537378
30
0
41
1
10
75.8303890720137
20
6.85681580809867
30
0
41
1
10
75.9001583552139
20
7.06413267830692
30
0
41
1
10
76.0396969216143
20
7.41567123120885
30
0
41
1
10
76.1094662048144
20
7.55990826600697
30
0
41
1
10
76.2490047712147
20
7.78619376758184
30
0
41
1
10
76.3187740544149
20
7.86827895114092
30
0
41
1
10
76.4583126208152
20
7.9751593704537
30
0
41
1
10
76.5280819040153
20
8
30
0
41
1
10
76.5978511872155
20
8
30
0
0
SPLINE
5
DE
100
AcDbEntity
8
1
62
256
6
ByLayer
370
13
48
1
60
0
100
AcDbSpline
70
4
71
3
72
8
73
4
40
0
40
0
40
0
40
0
40
1
40
1
40
1
40
1
41
1
10
78.3591467699457
20
8
30
0
41
1
10
78.4355105552539
20
8
30
0
41
1
10
78.5118743405622
20
7.9702200469217
30
0
41
1
10
78.5882381258704
20
7.90579908666035
30
0
0
SPLINE
5
DF
100
AcDbEntity
8
1
62
256
6
ByLayer
370
13
48
1
60
0
100
AcDbSpline
70
4
71
3
72
78
73
74
40
0
40
0
40
0
40
0
40
0.0312499999999999
40
0.0312499999999999
40
0.0624999999999998
40
0.0624999999999998
40
0.0937499999999997
40
0.0937499999999997
40
0.125
40
0.125
40
0.15625
40
0.15625
40
0.187499999999999
40
0.187499999999999
40
0.218749999999999
40
0.218749999999999
40
0.249999999999999
40
0.249999999999999
40
0.281249999999999
40
0.281249999999999
40
0.296874999999999
40
0.296874999999999
40
0.304687499999999
40
0.304687499999999
40
0.3125
40
0.3125
40
0.34375
40
0.34375
40
0.375
40
0.375
40
0.40625
40
0.40625
40
0.4375
40
0.4375
40
0.46875
40
0.46875
40
0.5
40
0.5
40
0.53125
40
0.53125
40
0.5625
40
0.5625
40
0.59375
40
0.59375
40
0.625
40
0.625
40
0.640625
40
0.640625
40
0.6484375
40
0.6484375
40
0.65625
40
0.65625
40
0.6875
40
0.6875
40
0.71875
40
0.71875
40
0.75
40
0.75
40
0.78125
40
0.78125
40
0.8125
40
0.8125
40
0.84375
40
0.84375
40
0.875
40
0.875
40
0.90625
40
0.90625
40
0.9375
40
0.9375
40
0.96875
40
0.96875
40
1
40
1
40
1
40
1
41
1
10
69.9
20
-1.69918325141958
30
0
41
1
10
69.9645859827496
20
-2.05373416711419
30
0
41
1
10
70.0291719654989
20
-2.41019173239241
30
0
41
1
10
70.1583439309979
20
-3.1158495628838
30
0
41
1
10
70.2229299137474
20
-3.46501451534189
30
0
41
1
10
70.3521018792463
20
-4.14397795901556
30
0
41
1
10
70.4166878619957
20
-4.47373290369927
30
0
41
1
10
70.5458598274947
20
-5.10197979438121
30
0
41
1
10
70.6104458102441
20
-5.40042880469923
30
0
41
1
10
70.7396177757431
20
-5.9557141039981
30
0
41
1
10
70.8042037584926
20
-6.21251787783206
30
0
41
1
10
70.9333757239915
20
-6.67687878997191
30
0
41
1
10
70.997961706741
20
-6.88442097192893
30
0
41
1
10
71.1271336722399
20
-7.24607618237204
30
0
41
1
10
71.1917196549894
20
-7.40019368588054
30
0
41
1
10
71.3208916204883
20
-7.65442733124905
30
0
41
1
10
71.3854776032377
20
-7.75456381322076
30
0
41
1
10
71.5146495687367
20
-7.90348301244723
30
0
41
1
10
71.5792355514862
20
-7.95229501031946
30
0
41
1
10
71.6761145256103
20
-7.99081851519693
30
0
41
1
10
71.7084075169851
20
-7.99789346017525
30
0
41
1
10
71.7568470040472
20
-8.00044480302063
30
0
41
1
10
71.7729934997345
20
-7.99996775321216
30
0
41
1
10
71.8052864911092
20
-7.99630530822003
30
0
41
1
10
71.8214329867967
20
-7.99311269287026
30
0
41
1
10
71.9021654652335
20
-7.97009568174954
30
0
41
1
10
71.966751447983
20
-7.92904043889305
30
0
41
1
10
72.0959234134819
20
-7.79630733705002
30
0
41
1
10
72.1605093962313
20
-7.70459947979523
30
0
41
1
10
72.2896813617303
20
-7.46744970983403
30
0
41
1
10
72.3542673444798
20
-7.32198552310302
30
0
41
1
10
72.4834393099786
20
-6.97731393329974
30
0
41
1
10
72.5480252927281
20
-6.77809916853181
30
0
41
1
10
72.6771972582271
20
-6.3294905818052
30
0
41
1
10
72.7417832409765
20
-6.08010859323181
30
0
41
1
10
72.8709552064755
20
-5.53824829550055
30
0
41
1
10
72.9355411892249
20
-5.24580006613763
30
0
41
1
10
73.0647131547238
20
-4.62777050494029
30
0
41
1
10
73.1292991374734
20
-4.30223107924314
30
0
41
1
10
73.2584711029723
20
-3.62975352877675
30
0
41
1
10
73.3230570857218
20
-3.28285951197671
30
0
41
1
10
73.4522290512207
20
-2.57984940064185
30
0
41
1
10
73.5168150339701
20
-2.22377039053319
30
0
41
1
10
73.6459869994691
20
-1.51375749495628
30
0
41
1
10
73.7105729822185
20
-1.15984783686639
30
0
41
1
10
73.8074519563428
20
-0.63780681453477
30
0
41
1
10
73.8397449477175
20
-0.465247855390032
30
0
41
1
10
73.8881844347796
20
-0.209334388763295
30
0
41
1
10
73.9043309304669
20
-0.124516263686985
30
0
41
1
10
73.9366239218416
20
0.0440371957882064
30
0
41
1
10
73.952770417529
20
0.128255391904531
30
0
41
1
10
74.0335028959659
20
0.553200451693613
30
0
41
1
10
74.0980888787153
20
0.901316576442781
30
0
41
1
10
74.2272608442143
20
1.60555764441037
30
0
41
1
10
74.2918468269637
20
1.96166671279792
30
0
41
1
10
74.4210187924626
20
2.67147989213859
30
0
41
1
10
74.4856047752122
20
3.02515394787105
30
0
41
1
10
74.6147767407111
20
3.71827510704856
30
0
41
1
10
74.6793627234605
20
4.05768121891768
30
0
41
1
10
74.8085346889595
20
4.71011915437597
30
0
41
1
10
74.8731206717089
20
5.02310656462132
30
0
41
1
10
75.0022926372079
20
5.61154832582636
30
0
41
1
10
75.0668786199574
20
5.88696467778513
30
0
41
1
10
75.1960505854563
20
6.3913692000435
30
0
41
1
10
75.2606365682058
20
6.62033446764011
30
0
41
1
10
75.3898085337048
20
7.02614963686676
30
0
41
1
10
75.4543945164542
20
7.20299599389003
30
0
41
1
10
75.5835664819531
20
7.50250203940391
30
0
41
1
10
75.6481524647026
20
7.62517611464079
30
0
41
1
10
75.7773244302015
20
7.81770882006754
30
0
41
1
10
75.841910412951
20
7.88759390901987
30
0
41
1
10
75.9710823784499
20
7.97872399386691
30
0
41
1
10
76.0356683611993
20
8
30
0
41
1
10
76.1002543439488
20
8
30
0
0
SPLINE
5
E0
100
AcDbEntity
8
1
62
256
6
ByLayer
370
13
48
1
60
0
100
AcDbSpline
70
4
71
3
72
14
73
10
40
0
40
0
40
0
40
0
40
0.25
40
0.25
40
0.5
40
0.5
40
0.75
40
0.75
40
1
40
1
40
1
40
1
41
1
10
77.861549926679
20
8
30
0
41
1
10
77.9221072766117
20
8
30
0
41
1
10
77.9826646265442
20
7.98130214874018
30
0
41
1
10
78.1037793264095
20
7.90150455775787
30
0
41
1
10
78.1643366763421
20
7.84038228465349
30
0
41
1
10
78.2854513762074
20
7.67211127699861
30
0
41
1
10
78.3460087261399
20
7.56494262600259
30
0
41
1
10
78.4671234260051
20
7.30303195426734
30
0
41
1
10
78.5276807759378
20
7.14827745356035
30
0
41
1
10
78.5882381258704
20
6.97025404699613
30
0
0
SPLINE
5
E1
100
AcDbEntity
8
1
62
256
6
ByLayer
370
13
48
1
60
0
100
AcDbSpline
70
4
71
3
72
78
73
74
40
0
40
0
40
0
40
0
40
0.0312499999999999
40
0.0312499999999999
40
0.0624999999999997
40
0.0624999999999997
40
0.0937499999999996
40
0.0937499999999996
40
0.124999999999999
40
0.124999999999999
40
0.156249999999999
40
0.156249999999999
40
0.187499999999999
40
0.187499999999999
40
0.218749999999999
40
0.218749999999999
40
0.234374999999999
40
0.234374999999999
40
0.242187499999999
40
0.242187499999999
40
0.249999999999999
40
0.249999999999999
40
0.281249999999998
40
0.281249999999998
40
0.312499999999998
40
0.312499999999998
40
0.343749999999998
40
0.343749999999998
40
0.374999999999998
40
0.374999999999998
40
0.406249999999998
40
0.406249999999998
40
0.437499999999997
40
0.437499999999997
40
0.468749999999997
40
0.468749999999997
40
0.499999999999997
40
0.499999999999997
40
0.531249999999997
40
0.531249999999997
40
0.562499999999997
40
0.562499999999997
40
0.593749999999996
40
0.593749999999996
40
0.609374999999996
40
0.609374999999996
40
0.617187499999996
40
0.617187499999996
40
0.624999999999996
40
0.624999999999996
40
0.656249999999997
40
0.656249999999997
40
0.687499999999997
40
0.687499999999997
40
0.718749999999997
40
0.718749999999997
40
0.749999999999997
40
0.749999999999997
40
0.781249999999998
40
0.781249999999998
40
0.812499999999998
40
0.812499999999998
40
0.843749999999998
40
0.843749999999998
40
0.874999999999999
40
0.874999999999999
40
0.906249999999999
40
0.906249999999999
40
0.937499999999999
40
0.937499999999999
40
0.96875
40
0.96875
40
1
40
1
40
1
40
1
41
1
10
69.9
20
-4.37261724393613
30
0
41
1
10
69.9594026822988
20
-4.67293415937607
30
0
41
1
10
70.0188053645975
20
-4.96212543303139
30
0
41
1
10
70.1376107291951
20
-5.50957474781612
30
0
41
1
10
70.1970134114939
20
-5.76780707914358
30
0
41
1
10
70.3158187760914
20
-6.24614260865587
30
0
41
1
10
70.3752214583902
20
-6.46622869696512
30
0
41
1
10
70.4940268229877
20
-6.86328093009269
30
0
41
1
10
70.5534295052865
20
-7.04024147147084
30
0
41
1
10
70.6722348698841
20
-7.34860627705243
30
0
41
1
10
70.7316375521828
20
-7.48001642587838
30
0
41
1
10
70.8504429167804
20
-7.69739147969111
30
0
41
1
10
70.9098455990791
20
-7.7833711381731
30
0
41
1
10
71.0286509636767
20
-7.9122218643669
30
0
41
1
10
71.0880536459754
20
-7.95511251215834
30
0
41
1
10
71.1771576694236
20
-7.99014020697152
30
0
41
1
10
71.206859010573
20
-7.99694269490072
30
0
41
1
10
71.2514110222971
20
-8.00029278141119
30
0
41
1
10
71.2662616928718
20
-8.00027790968679
30
0
41
1
10
71.2959630340212
20
-7.9979834284147
30
0
41
1
10
71.3108137045958
20
-7.99569382859676
30
0
41
1
10
71.3850670574693
20
-7.97833950773739
30
0
41
1
10
71.4444697397681
20
-7.9455092641129
30
0
41
1
10
71.5632751043657
20
-7.83764051583853
30
0
41
1
10
71.6226777866644
20
-7.76258189285104
30
0
41
1
10
71.7414831512619
20
-7.56743958881978
30
0
41
1
10
71.8008858335607
20
-7.44733956456042
30
0
41
1
10
71.9196911981583
20
-7.16139847934008
30
0
41
1
10
71.979093880457
20
-6.99554902392805
30
0
41
1
10
72.0978992450546
20
-6.61988086484013
30
0
41
1
10
72.1573019273534
20
-6.41006481500963
30
0
41
1
10
72.2761072919509
20
-5.95081941047121
30
0
41
1
10
72.3355099742496
20
-5.70140448985038
30
0
41
1
10
72.4543153388472
20
-5.16964517377841
30
0
41
1
10
72.513718021146
20
-4.88732477519545
30
0
41
1
10
72.6325233857435
20
-4.29817831838272
30
0
41
1
10
72.6919260680423
20
-3.99138119147153
30
0
41
1
10
72.8107314326398
20
-3.36263143518139
30
0
41
1
10
72.8701341149387
20
-3.040707113477
30
0
41
1
10
72.9889394795362
20
-2.39109923999985
30
0
41
1
10
73.048342161835
20
-2.0634386125052
30
0
41
1
10
73.1671475264325
20
-1.41101499013962
30
0
41
1
10
73.2265502087312
20
-1.0862667785357
30
0
41
1
10
73.3156542321793
20
-0.606825145628761
30
0
41
1
10
73.3453555733288
20
-0.448279779108475
30
0
41
1
10
73.3899075850529
20
-0.212938579617514
30
0
41
1
10
73.4047582556276
20
-0.134903510045547
30
0
41
1
10
73.4344595967769
20
0.0202568039717335
30
0
41
1
10
73.4493102673516
20
0.0975645264111051
30
0
41
1
10
73.5235636202251
20
0.48771521461984
30
0
41
1
10
73.5829663025239
20
0.806837700503309
30
0
41
1
10
73.7017716671214
20
1.45275618680714
30
0
41
1
10
73.7611743494202
20
1.77954284544856
30
0
41
1
10
73.8799797140177
20
2.4329178260052
30
0
41
1
10
73.9393823963165
20
2.75948812434157
30
0
41
1
10
74.0581877609141
20
3.40342916149092
30
0
41
1
10
74.1175904432129
20
3.72077450035277
30
0
41
1
10
74.2363958078104
20
4.33679377229575
30
0
41
1
10
74.2957984901092
20
4.63543852630457
30
0
41
1
10
74.4146038547067
20
5.20494897038108
30
0
41
1
10
74.4740065370055
20
5.47578694629306
30
0
41
1
10
74.592811901603
20
5.9818151660356
30
0
41
1
10
74.6522145839018
20
6.2169845766357
30
0
41
1
10
74.7710199484993
20
6.64579455374425
30
0
41
1
10
74.8304226307981
20
6.83942502253285
30
0
41
1
10
74.9492279953956
20
7.18174026925027
30
0
41
1
10
75.0086306776944
20
7.33042679138441
30
0
41
1
10
75.1274360422919
20
7.58202828810025
30
0
41
1
10
75.1868387245908
20
7.6849551047203
30
0
41
1
10
75.3056440891883
20
7.84658935029159
30
0
41
1
10
75.3650467714871
20
7.90531504620029
30
0
41
1
10
75.4838521360845
20
7.98201013214154
30
0
41
1
10
75.5432548183833
20
8
30
0
41
1
10
75.6026575006821
20
8
30
0
0
SPLINE
5
E2
100
AcDbEntity
8
1
62
256
6
ByLayer
370
13
48
1
60
0
100
AcDbSpline
70
4
71
3
72
22
73
18
40
0
40
0
40
0
40
0
40
0.125
40
0.125
40
0.25
40
0.25
40
0.375
40
0.375
40
0.5
40
0.5
40
0.625
40
0.625
40
0.75
40
0.75
40
0.875
40
0.875
40
1
40
1
40
1
40
1
41
1
10
77.3639530834124
20
8
30
0
41
1
10
77.4149649601814
20
8
30
0
41
1
10
77.4659768369505
20
7.98674180785818
30
0
41
1
10
77.5680005904887
20
7.93066368356264
30
0
41
1
10
77.6190124672577
20
7.88783416800501
30
0
41
1
10
77.7210362207959
20
7.77021365930793
30
0
41
1
10
77.7720480975649
20
7.69541362428831
30
0
41
1
10
77.8740718511031
20
7.51240017828971
30
0
41
1
10
77.9250837278723
20
7.40417970168664
30
0
41
1
10
78.0271074814104
20
7.15406866861292
30
0
41
1
10
78.0781193581795
20
7.01217444298325
30
0
41
1
10
78.1801431117177
20
6.69582077788692
30
0
41
1
10
78.2311549884868
20
6.5213621125684
30
0
41
1
10
78.333178742025
20
6.14239296159801
30
0
41
1
10
78.384190618794
20
5.93788803398857
30
0
41
1
10
78.4862143723323
20
5.50265380677482
30
0
41
1
10
78.5372262491013
20
5.2719343079844
30
0
41
1
10
78.5882381258704
20
5.0305566929446
30
0
0
SPLINE
5
E3
100
AcDbEntity
8
1
62
256
6
ByLayer
370
13
48
1
60
0
100
AcDbSpline
70
4
71
3
72
78
73
74
40
0
40
0
40
0
40
0
40
0.03125
40
0.03125
40
0.0624999999999999
40
0.0624999999999999
40
0.0937499999999999
40
0.0937499999999999
40
0.125
40
0.125
40
0.15625
40
0.15625
40
0.1640625
40
0.1640625
40
0.171875
40
0.171875
40
0.1875
40
0.1875
40
0.21875
40
0.21875
40
0.25
40
0.25
40
0.28125
40
0.28125
40
0.3125
40
0.3125
40
0.34375
40
0.34375
40
0.375
40
0.375
40
0.40625
40
0.40625
40
0.4375
40
0.4375
40
0.46875
40
0.46875
40
0.5
40
0.5
40
0.53125
40
0.53125
40
0.5625
40
0.5625
40
0.578125
40
0.578125
40
0.5859375
40
0.5859375
40
0.59375
40
0.59375
40
0.625
40
0.625
40
0.65625
40
0.65625
40
0.6875
40
0.6875
40
0.71875
40
0.71875
40
0.75
40
0.75
40
0.78125
40
0.78125
40
0.8125
40
0.8125
40
0.84375
40
0.84375
40
0.875
40
0.875
40
0.90625
40
0.90625
40
0.9375
40
0.9375
40
0.96875
40
0.96875
40
1
40
1
40
1
40
1
41
1
10
69.9
20
-6.53824633275448
30
0
41
1
10
69.9542193818481
20
-6.72751172798201
30
0
41
1
10
70.0084387636962
20
-6.89917075678085
30
0
41
1
10
70.1168775273924
20
-7.20493792319039
30
0
41
1
10
70.1710969092404
20
-7.33904776138405
30
0
41
1
10
70.2795356729366
20
-7.56916255503398
30
0
41
1
10
70.3337550547847
20
-7.66517500131619
30
0
41
1
10
70.4421938184809
20
-7.82019239896164
30
0
41
1
10
70.4964132003289
20
-7.87920867982641
30
0
41
1
10
70.604851964025
20
-7.96269203394874
30
0
41
1
10
70.6590713458731
20
-7.98717203269715
30
0
41
1
10
70.7268455731833
20
-7.99833292527646
30
0
41
1
10
70.7404004186453
20
-7.99959501449905
30
0
41
1
10
70.7675101095693
20
-8.00023914477683
30
0
41
1
10
70.7810649550312
20
-7.99962843830542
30
0
41
1
10
70.8217294914173
20
-7.99492119877146
30
0
41
1
10
70.8488391823414
20
-7.98794220630836
30
0
41
1
10
70.9301682551135
20
-7.95479429803996
30
0
41
1
10
70.9843876369616
20
-7.91638347483442
30
0
41
1
10
71.0928264006577
20
-7.80387745539173
30
0
41
1
10
71.1470457825058
20
-7.7297697289456
30
0
41
1
10
71.255484546202
20
-7.54392805671799
30
0
41
1
10
71.3097039280501
20
-7.4321841013097
30
0
41
1
10
71.4181426917462
20
-7.17061880022652
30
0
41
1
10
71.4723620735942
20
-7.02079216346982
30
0
41
1
10
71.5808008372904
20
-6.68433884860289
30
0
41
1
10
71.6350202191385
20
-6.49771324304015
30
0
41
1
10
71.7434589828346
20
-6.09073668478723
30
0
41
1
10
71.7976783646827
20
-5.87039368158807
30
0
41
1
10
71.9061171283788
20
-5.40071970752226
30
0
41
1
10
71.960336510227
20
-5.15140264654448
30
0
41
1
10
72.0687752739231
20
-4.62984775692937
30
0
41
1
10
72.1229946557712
20
-4.35762760517963
30
0
41
1
10
72.2314334194673
20
-3.7971801958382
30
0
41
1
10
72.2856528013154
20
-3.50897149008401
30
0
41
1
10
72.3940915650115
20
-2.92375209720382
30
0
41
1
10
72.4483109468596
20
-2.62675802397845
30
0
41
1
10
72.5567497105558
20
-2.03092647779226
30
0
41
1
10
72.6109690924039
20
-1.73210161940909
30
0
41
1
10
72.7194078561001
20
-1.1388750197994
30
0
41
1
10
72.7736272379481
20
-0.844480927545078
30
0
41
1
10
72.8549563107202
20
-0.410157976561521
30
0
41
1
10
72.8820660016443
20
-0.266586537868278
30
0
41
1
10
72.9227305380304
20
-0.0534463912806586
30
0
41
1
10
72.9362853834924
20
0.0169885191391472
30
0
41
1
10
72.9633950744164
20
0.158826659379116
30
0
41
1
10
72.9769499198783
20
0.230120141326239
30
0
41
1
10
73.0447241471884
20
0.588295340070772
30
0
41
1
10
73.0989435290365
20
0.880344900013853
30
0
41
1
10
73.2073822927327
20
1.47053588743648
30
0
41
1
10
73.2616016745808
20
1.76867114369409
30
0
41
1
10
73.3700404382769
20
2.36504470369337
30
0
41
1
10
73.424259820125
20
2.66327179848165
30
0
41
1
10
73.5326985838212
20
3.25304146977504
30
0
41
1
10
73.5869179656692
20
3.54456843628265
30
0
41
1
10
73.6953567293655
20
4.11375741853072
30
0
41
1
10
73.7495761112135
20
4.39140118185597
30
0
41
1
10
73.8580148749097
20
4.92576631799346
30
0
41
1
10
73.9122342567578
20
5.18246944654339
30
0
41
1
10
74.0206730204539
20
5.66857728440107
30
0
41
1
10
74.074892402302
20
5.89796670799234
30
0
41
1
10
74.1833311659981
20
6.3242668815719
30
0
41
1
10
74.2375505478462
20
6.52116777689355
30
0
41
1
10
74.3459893115424
20
6.87889231654478
30
0
41
1
10
74.4002086933904
20
7.03971286517006
30
0
41
1
10
74.5086474570866
20
7.32345791848934
30
0
41
1
10
74.5628668389347
20
7.44638597943583
30
0
41
1
10
74.6713056026308
20
7.65429836517109
30
0
41
1
10
74.725524984479
20
7.73929153254073
30
0
41
1
10
74.8339637481751
20
7.87286525585256
30
0
41
1
10
74.8881831300232
20
7.92145783838049
30
0
41
1
10
74.9966218937192
20
7.98501871273109
30
0
41
1
10
75.0508412755673
20
8
30
0
41
1
10
75.1050606574154
20
8
30
0
0
SPLINE
5
E4
100
AcDbEntity
8
1
62
256
6
ByLayer
370
13
48
1
60
0
100
AcDbSpline
70
4
71
3
72
22
73
18
40
0
40
0
40
0
40
0
40
0.125
40
0.125
40
0.25
40
0.25
40
0.375
40
0.375
40
0.5
40
0.5
40
0.625
40
0.625
40
0.75
40
0.75
40
0.875
40
0.875
40
1
40
1
40
1
40
1
41
1
10
76.8663562401456
20
8
30
0
41
1
10
76.9381013187175
20
8
30
0
41
1
10
77.0098463972894
20
7.973727066322
30
0
41
1
10
77.1533365544331
20
7.86049369053288
30
0
41
1
10
77.2250816330049
20
7.77348117317811
30
0
41
1
10
77.3685717901487
20
7.53357629828673
30
0
41
1
10
77.4403168687206
20
7.38064277862296
30
0
41
1
10
77.5838070258643
20
7.00820778873938
30
0
41
1
10
77.6555521044362
20
6.78869134779225
30
0
41
1
10
77.7990422615799
20
6.2878058669632
30
0
41
1
10
77.8707873401518
20
6.00645759059628
30
0
41
1
10
78.0142774972955
20
5.39196790796433
30
0
41
1
10
78.0860225758674
20
5.05888072678223
30
0
41
1
10
78.2295127330111
20
4.35517007460768
30
0
41
1
10
78.3012578115829
20
3.98461979152168
30
0
41
1
10
78.4447479687266
20
3.22246010517176
30
0
41
1
10
78.5164930472985
20
2.83092249671628
30
0
41
1
10
78.5882381258704
20
2.43707673303311
30
0
0
SPLINE
5
E5
100
AcDbEntity
8
1
62
256
6
ByLayer
370
13
48
1
60
0
100
AcDbSpline
70
4
71
3
72
76
73
72
40
0
40
0
40
0
40
0
40
0.0312499999999996
40
0.0312499999999996
40
0.0624999999999991
40
0.0624999999999991
40
0.0703124999999991
40
0.0703124999999991
40
0.0781249999999991
40
0.0781249999999991
40
0.093749999999999
40
0.093749999999999
40
0.124999999999999
40
0.124999999999999
40
0.156249999999999
40
0.156249999999999
40
0.1875
40
0.1875
40
0.21875
40
0.21875
40
0.25
40
0.25
40
0.28125
40
0.28125
40
0.3125
40
0.3125
40
0.34375
40
0.34375
40
0.375
40
0.375
40
0.406250000000001
40
0.406250000000001
40
0.437500000000001
40
0.437500000000001
40
0.468750000000001
40
0.468750000000001
40
0.500000000000001
40
0.500000000000001
40
0.531250000000001
40
0.531250000000001
40
0.546875000000001
40
0.546875000000001
40
0.562500000000001
40
0.562500000000001
40
0.593750000000001
40
0.593750000000001
40
0.625000000000001
40
0.625000000000001
40
0.656250000000001
40
0.656250000000001
40
0.687500000000001
40
0.687500000000001
40
0.718750000000001
40
0.718750000000001
40
0.75
40
0.75
40
0.78125
40
0.78125
40
0.8125
40
0.8125
40
0.84375
40
0.84375
40
0.875
40
0.875
40
0.90625
40
0.90625
40
0.9375
40
0.9375
40
0.96875
40
0.96875
40
1
40
1
40
1
40
1
41
1
10
69.9
20
-7.75624587549828
30
0
41
1
10
69.9490360813974
20
-7.82437440964148
30
0
41
1
10
69.9980721627948
20
-7.87742972858294
30
0
41
1
10
70.0961443255896
20
-7.95520682045347
30
0
41
1
10
70.145180406987
20
-7.97993641246381
30
0
41
1
10
70.2064755087337
20
-7.99470067789142
30
0
41
1
10
70.218734529083
20
-7.996847450856
30
0
41
1
10
70.2432525697817
20
-7.99957235792655
30
0
41
1
10
70.2555115901311
20
-8.00015107900663
30
0
41
1
10
70.2922886511791
20
-7.99959807643077
30
0
41
1
10
70.3168066918778
20
-7.99615947794973
30
0
41
1
10
70.3903608139738
20
-7.97610700872551
30
0
41
1
10
70.4393968953713
20
-7.94973808524142
30
0
41
1
10
70.537469058166
20
-7.86855104203588
30
0
41
1
10
70.5865051395634
20
-7.81372512464964
30
0
41
1
10
70.6845773023582
20
-7.67384324853461
30
0
41
1
10
70.7336133837556
20
-7.58878041484934
30
0
41
1
10
70.8316855465504
20
-7.38755063561931
30
0
41
1
10
70.8807216279477
20
-7.27137885443864
30
0
41
1
10
70.9787937907424
20
-7.00814391166537
30
0
41
1
10
71.0278298721398
20
-6.86107895594481
30
0
41
1
10
71.1259020349346
20
-6.53746031315785
30
0
41
1
10
71.174938116332
20
-6.36090850451913
30
0
41
1
10
71.2730102791268
20
-5.98090943635495
30
0
41
1
10
71.3220463605241
20
-5.77746778201893
30
0
41
1
10
71.4201185233189
20
-5.34736026204533
30
0
41
1
10
71.4691546047163
20
-5.12070313251527
30
0
41
1
10
71.567226767511
20
-4.64869580337765
30
0
41
1
10
71.6162628489084
20
-4.40335632594463
30
0
41
1
10
71.7143350117032
20
-3.89907857476302
30
0
41
1
10
71.7633710931005
20
-3.6401515671671
30
0
41
1
10
71.8614432558953
20
-3.11402057749129
30
0
41
1
10
71.9104793372927
20
-2.84682698636666
30
0
41
1
10
72.0085515000875
20
-2.30938197818773
30
0
41
1
10
72.0575875814849
20
-2.0391389649879
30
0
41
1
10
72.1556597442797
20
-1.5004257216641
30
0
41
1
10
72.204695825677
20
-1.23196127217994
30
0
41
1
10
72.3027679884718
20
-0.701032458227786
30
0
41
1
10
72.3518040698692
20
-0.438571116532586
30
0
41
1
10
72.4253581919652
20
-0.0519980617303588
30
0
41
1
10
72.4498762326639
20
0.0751303729184372
30
0
41
1
10
72.4989123140613
20
0.333127969646085
30
0
41
1
10
72.52343035476
20
0.46329554386179
30
0
41
1
10
72.5969844768561
20
0.856682784363699
30
0
41
1
10
72.6460205582535
20
1.12280969161191
30
0
41
1
10
72.7440927210482
20
1.65891686971568
30
0
41
1
10
72.7931288024456
20
1.92889266728707
30
0
41
1
10
72.8912009652404
20
2.46813421172018
30
0
41
1
10
72.9402370466378
20
2.73739273976898
30
0
41
1
10
73.0383092094325
20
3.27013615939987
30
0
41
1
10
73.0873452908299
20
3.53361148206878
30
0
41
1
10
73.1854174536247
20
4.04947860007383
30
0
41
1
10
73.2344535350221
20
4.30185937694239
30
0
41
1
10
73.3325256978168
20
4.79029400840022
30
0
41
1
10
73.3815617792142
20
5.02633669942739
30
0
41
1
10
73.4796339420089
20
5.47725638196616
30
0
41
1
10
73.5286700234063
20
5.69212353619236
30
0
41
1
10
73.6267421862012
20
6.09657875340508
30
0
41
1
10
73.6757782675984
20
6.28615962784616
30
0
41
1
10
73.7738504303932
20
6.63691452440543
30
0
41
1
10
73.8228865117907
20
6.79808488367766
30
0
41
1
10
73.9209586745854
20
7.0900422684868
30
0
41
1
10
73.9699947559828
20
7.22082940937409
30
0
41
1
10
74.0680669187776
20
7.45124872146127
30
0
41
1
10
74.1171030001749
20
7.55088440706336
30
0
41
1
10
74.2151751629697
20
7.7193775421957
30
0
41
1
10
74.2642112443671
20
7.78824104644002
30
0
41
1
10
74.3622834071619
20
7.89656768936015
30
0
41
1
10
74.4113194885592
20
7.9360383285466
30
0
41
1
10
74.5093916513539
20
7.98775055127314
30
0
41
1
10
74.5584277327513
20
8
30
0
41
1
10
74.6074638141487
20
8
30
0
0
SPLINE
5
E6
100
AcDbEntity
8
1
62
256
6
ByLayer
370
13
48
1
60
0
100
AcDbSpline
70
4
71
3
72
40
73
36
40
0
40
0
40
0
40
0
40
0.124999999999999
40
0.124999999999999
40
0.187499999999999
40
0.187499999999999
40
0.249999999999999
40
0.249999999999999
40
0.312499999999999
40
0.312499999999999
40
0.374999999999999
40
0.374999999999999
40
0.437499999999999
40
0.437499999999999
40
0.499999999999999
40
0.499999999999999
40
0.562499999999999
40
0.562499999999999
40
0.624999999999999
40
0.624999999999999
40
0.687499999999999
40
0.687499999999999
40
0.749999999999999
40
0.749999999999999
40
0.8125
40
0.8125
40
0.875
40
0.875
40
0.9375
40
0.9375
40
0.96875
40
0.96875
40
0.984375
40
0.984375
40
1
40
1
40
1
40
1
41
1
10
76.3687593968789
20
8
30
0
41
1
10
76.4612376772536
20
8
30
0
41
1
10
76.5537159576282
20
7.95623041265239
30
0
41
1
10
76.6924333781902
20
7.81243917804602
30
0
41
1
10
76.7386725183775
20
7.75153558494947
30
0
41
1
10
76.8311507987522
20
7.60253052725236
30
0
41
1
10
76.8773899389395
20
7.51442429994427
30
0
41
1
10
76.9698682193141
20
7.31051561226883
30
0
41
1
10
77.0161073595014
20
7.19471003005651
30
0
41
1
10
77.1085856398761
20
6.93578986083946
30
0
41
1
10
77.1548247800634
20
6.79267441556098
30
0
41
1
10
77.2473030604381
20
6.4804692815998
30
0
41
1
10
77.2935422006253
20
6.31138135608751
30
0
41
1
10
77.386020481
20
5.94950105415901
30
0
41
1
10
77.4322596211873
20
5.75671304420092
30
0
41
1
10
77.524737901562
20
5.35054498226995
30
0
41
1
10
77.5709770417493
20
5.137171474653
30
0
41
1
10
77.6634553221239
20
4.6936217398121
30
0
41
1
10
77.7096944623113
20
4.46345346939859
30
0
41
1
10
77.802172742686
20
3.99055967226539
30
0
41
1
10
77.8484118828733
20
3.74784255987629
30
0
41
1
10
77.9408901632479
20
3.25430329519591
30
0
41
1
10
77.9871293034352
20
3.00348906011061
30
0
41
1
10
78.0796075838099
20
2.49816590973447
30
0
41
1
10
78.1258467239971
20
2.24366363369012
30
0
41
1
10
78.2183250043717
20
1.73511173975049
30
0
41
1
10
78.2645641445591
20
1.48106698865783
30
0
41
1
10
78.3570424249338
20
0.977140238478142
30
0
41
1
10
78.4032815651211
20
0.727261158201003
30
0
41
1
10
78.4726402754021
20
0.357931354313479
30
0
41
1
10
78.4957598454957
20
0.235731631255419
30
0
41
1
10
78.5304392006362
20
0.0540500491297564
30
0
41
1
10
78.541998985683
20
-0.0060553833735639
30
0
41
1
10
78.5651185557766
20
-0.126887942023956
30
0
41
1
10
78.5766783408236
20
-0.187578807114562
30
0
41
1
10
78.5882381258704
20
-0.248524128794827
30
0
0
SPLINE
5
E7
100
AcDbEntity
8
1
62
256
6
ByLayer
370
13
48
1
60
0
100
AcDbSpline
70
4
71
3
72
46
73
42
40
0
40
0
40
0
40
0
40
0.0625000000000004
40
0.0625000000000004
40
0.125000000000001
40
0.125000000000001
40
0.187500000000001
40
0.187500000000001
40
0.218750000000001
40
0.218750000000001
40
0.250000000000001
40
0.250000000000001
40
0.312500000000001
40
0.312500000000001
40
0.375000000000001
40
0.375000000000001
40
0.437500000000001
40
0.437500000000001
40
0.468750000000002
40
0.468750000000002
40
0.484375000000002
40
0.484375000000002
40
0.500000000000001
40
0.500000000000001
40
0.562500000000002
40
0.562500000000002
40
0.625000000000002
40
0.625000000000002
40
0.687500000000002
40
0.687500000000002
40
0.718750000000001
40
0.718750000000001
40
0.750000000000001
40
0.750000000000001
40
0.812500000000001
40
0.812500000000001
40
0.875000000000001
40
0.875000000000001
40
0.9375
40
0.9375
40
1
40
1
40
1
40
1
41
1
10
69.9
20
-7.96836283897821
30
0
41
1
10
69.9877055618934
20
-7.92634746827849
30
0
41
1
10
70.0754111237868
20
-7.84091327573577
30
0
41
1
10
70.2508222475735
20
-7.5721918359431
30
0
41
1
10
70.3385278094669
20
-7.38878584062502
30
0
41
1
10
70.5139389332537
20
-6.92240679260345
30
0
41
1
10
70.601644495147
20
-6.63939963794098
30
0
41
1
10
70.7332028379871
20
-6.14801029513759
30
0
41
1
10
70.7770556189338
20
-5.97316520326919
30
0
41
1
10
70.8647611808271
20
-5.60377623782722
30
0
41
1
10
70.9086139617738
20
-5.40923678799123
30
0
41
1
10
71.0401723046139
20
-4.80058604319208
30
0
41
1
10
71.1278778665073
20
-4.36132510619177
30
0
41
1
10
71.3032889902941
20
-3.44457594449781
30
0
41
1
10
71.3909945521874
20
-2.96728879362232
30
0
41
1
10
71.5664056759742
20
-2.00487841491127
30
0
41
1
10
71.6541112378675
20
-1.51990284064016
30
0
41
1
10
71.7856695807077
20
-0.806189062105716
30
0
41
1
10
71.8295223616543
20
-0.570529099023958
30
0
41
1
10
71.8953015330743
20
-0.222337719533215
30
0
41
1
10
71.9172279235476
20
-0.107233648602545
30
0
41
1
10
71.9610807044943
20
0.121267252740012
30
0
41
1
10
71.9830070949677
20
0.236529386103427
30
0
41
1
10
72.0926390473344
20
0.817206678780167
30
0
41
1
10
72.1803446092277
20
1.29601448344724
30
0
41
1
10
72.3557557330145
20
2.25961355761532
30
0
41
1
10
72.4434612949079
20
2.74429877081482
30
0
41
1
10
72.6188724186947
20
3.69091240164514
30
0
41
1
10
72.706577980588
20
4.15265853839182
30
0
41
1
10
72.838136323428
20
4.80534928880218
30
0
41
1
10
72.8819891043747
20
5.01626319515421
30
0
41
1
10
72.9696946662682
20
5.42134735469927
30
0
41
1
10
73.0135474472149
20
5.61551191751272
30
0
41
1
10
73.1451057900549
20
6.16838697001367
30
0
41
1
10
73.2328113519483
20
6.49710783409455
30
0
41
1
10
73.408222475735
20
7.05856246586572
30
0
41
1
10
73.4959280376285
20
7.29127296487684
30
0
41
1
10
73.6713391614152
20
7.656418431899
30
0
41
1
10
73.7590447233085
20
7.78893774703391
30
0
41
1
10
73.9344558470953
20
7.96065941034203
30
0
41
1
10
74.0221614089886
20
8
30
0
41
1
10
74.109866970882
20
8
30
0
0
SPLINE
5
E8
100
AcDbEntity
8
1
62
256
6
ByLayer
370
13
48
1
60
0
100
AcDbSpline
70
4
71
3
72
42
73
38
40
0
40
0
40
0
40
0
40
0.0625000000000005
40
0.0625000000000005
40
0.125000000000001
40
0.125000000000001
40
0.187500000000002
40
0.187500000000002
40
0.250000000000002
40
0.250000000000002
40
0.312500000000003
40
0.312500000000003
40
0.375000000000003
40
0.375000000000003
40
0.437500000000004
40
0.437500000000004
40
0.500000000000004
40
0.500000000000004
40
0.562500000000005
40
0.562500000000005
40
0.625000000000005
40
0.625000000000005
40
0.687500000000006
40
0.687500000000006
40
0.750000000000006
40
0.750000000000006
40
0.781250000000006
40
0.781250000000006
40
0.796875000000005
40
0.796875000000005
40
0.812500000000005
40
0.812500000000005
40
0.875000000000003
40
0.875000000000003
40
0.937500000000002
40
0.937500000000002
40
1
40
1
40
1
40
1
41
1
10
75.8711625536122
20
8
30
0
41
1
10
75.927768294701
20
8
30
0
41
1
10
75.9843740357896
20
7.98366800345917
30
0
41
1
10
76.097585517967
20
7.91422084280441
30
0
41
1
10
76.1541912590558
20
7.86108957033974
30
0
41
1
10
76.2674027412332
20
7.71494809576811
30
0
41
1
10
76.3240084823219
20
7.62192322340104
30
0
41
1
10
76.4372199644994
20
7.39442449483462
30
0
41
1
10
76.4938257055881
20
7.25994041039837
30
0
41
1
10
76.6070371877655
20
6.94986426834978
30
0
41
1
10
76.6636429288542
20
6.77426917372625
30
0
41
1
10
76.7768544110317
20
6.38443206020793
30
0
41
1
10
76.8334601521203
20
6.17019577591086
30
0
41
1
10
76.9466716342978
20
5.70762148386595
30
0
41
1
10
77.0032773753865
20
5.45929769791357
30
0
41
1
10
77.1164888575639
20
4.93487529522824
30
0
41
1
10
77.1730945986526
20
4.65879712683923
30
0
41
1
10
77.2863060808301
20
4.08644394968633
30
0
41
1
10
77.3429118219187
20
3.79019197493281
30
0
41
1
10
77.4561233040962
20
3.18565301164577
30
0
41
1
10
77.5127290451849
20
2.87738769450965
30
0
41
1
10
77.6259405273623
20
2.25688202699777
30
0
41
1
10
77.682546268451
20
1.94465881603361
30
0
41
1
10
77.7957577506284
20
1.32360214467826
30
0
41
1
10
77.8523634917172
20
1.0147795757093
30
0
41
1
10
77.9372721033502
20
0.558770991855994
30
0
41
1
10
77.9655749738946
20
0.407962602007615
30
0
41
1
10
78.0080292797112
20
0.184032188014555
30
0
41
1
10
78.0221807149833
20
0.109768406981232
30
0
41
1
10
78.0504835855276
20
-0.037926167378572
30
0
41
1
10
78.0646350207998
20
-0.111720138087406
30
0
41
1
10
78.1353921971607
20
-0.483685879683804
30
0
41
1
10
78.1919979382494
20
-0.787582777478519
30
0
41
1
10
78.3052094204269
20
-1.40256476705946
30
0
41
1
10
78.3618151615157
20
-1.71364276354444
30
0
41
1
10
78.475026643693
20
-2.33624724738343
30
0
41
1
10
78.5316323847817
20
-2.64776012113973
30
0
41
1
10
78.5882381258704
20
-2.95564366565188
30
0
0
SPLINE
5
E9
100
AcDbEntity
8
1
62
256
6
ByLayer
370
13
48
1
60
0
100
AcDbSpline
70
4
71
3
72
42
73
38
40
0
40
0
40
0
40
0
40
0.0625000000000005
40
0.0625000000000005
40
0.125000000000001
40
0.125000000000001
40
0.187500000000001
40
0.187500000000001
40
0.250000000000002
40
0.250000000000002
40
0.312500000000002
40
0.312500000000002
40
0.375000000000003
40
0.375000000000003
40
0.406250000000003
40
0.406250000000003
40
0.421875000000003
40
0.421875000000003
40
0.437500000000003
40
0.437500000000003
40
0.500000000000003
40
0.500000000000003
40
0.562500000000002
40
0.562500000000002
40
0.625000000000002
40
0.625000000000002
40
0.687500000000002
40
0.687500000000002
40
0.750000000000001
40
0.750000000000001
40
0.812500000000001
40
0.812500000000001
40
0.875000000000001
40
0.875000000000001
40
0.9375
40
0.9375
40
1
40
1
40
1
40
1
41
1
10
69.9
20
-7.22997968859656
30
0
41
1
10
69.977338960992
20
-7.03383728824011
30
0
41
1
10
70.054677921984
20
-6.79888975565001
30
0
41
1
10
70.209355843968
20
-6.257153560532
30
0
41
1
10
70.28669480496
20
-5.95039582210421
30
0
41
1
10
70.4413727269439
20
-5.27796217824448
30
0
41
1
10
70.5187116879359
20
-4.91236864629946
30
0
41
1
10
70.6733896099199
20
-4.14065033597376
30
0
41
1
10
70.7507285709119
20
-3.73463362260128
30
0
41
1
10
70.9054064928959
20
-2.90294740578969
30
0
41
1
10
70.9827454538878
20
-2.47737744526827
30
0
41
1
10
71.1374233758718
20
-1.6267091811772
30
0
41
1
10
71.2147623368638
20
-1.20167640916597
30
0
41
1
10
71.3307707783517
20
-0.577088764341823
30
0
41
1
10
71.3694402588478
20
-0.3710212156426
30
0
41
1
10
71.4274444795918
20
-0.0663598904207277
30
0
41
1
10
71.4467792198398
20
0.0339920709925536
30
0
41
1
10
71.4854487003358
20
0.236782548373242
30
0
41
1
10
71.5047834405838
20
0.338925485994793
30
0
41
1
10
71.6014571418237
20
0.852887416172962
30
0
41
1
10
71.6787961028157
20
1.27462483208347
30
0
41
1
10
71.8334740247997
20
2.12374405550133
30
0
41
1
10
71.9108129857916
20
2.55107187563942
30
0
41
1
10
72.0654909077756
20
3.39203093103595
30
0
41
1
10
72.1428298687676
20
3.80557018054265
30
0
41
1
10
72.2975077907516
20
4.59800570396115
30
0
41
1
10
72.3748467517435
20
4.97679293417707
30
0
41
1
10
72.5295246737275
20
5.6802866607745
30
0
41
1
10
72.6068636347195
20
6.00490040933812
30
0
41
1
10
72.7615415567035
20
6.58527928357387
30
0
41
1
10
72.8388805176955
20
6.84099779247018
30
0
41
1
10
72.9935584396795
20
7.27568149184719
30
0
41
1
10
73.0708974006715
20
7.45465693465317
30
0
41
1
10
73.2255753226554
20
7.73537725954208
30
0
41
1
10
73.3029142836475
20
7.83717731894683
30
0
41
1
10
73.4575922056314
20
7.96945108772354
30
0
41
1
10
73.5349311666234
20
8
30
0
41
1
10
73.6122701276154
20
8
30
0
0
SPLINE
5
EA
100
AcDbEntity
8
1
62
256
6
ByLayer
370
13
48
1
60
0
100
AcDbSpline
70
4
71
3
72
44
73
40
40
0
40
0
40
0
40
0
40
0.0625000000000011
40
0.0625000000000011
40
0.125000000000002
40
0.125000000000002
40
0.187500000000003
40
0.187500000000003
40
0.250000000000004
40
0.250000000000004
40
0.312500000000006
40
0.312500000000006
40
0.375000000000007
40
0.375000000000007
40
0.437500000000008
40
0.437500000000008
40
0.500000000000009
40
0.500000000000009
40
0.56250000000001
40
0.56250000000001
40
0.625000000000011
40
0.625000000000011
40
0.656250000000012
40
0.656250000000012
40
0.671875000000012
40
0.671875000000012
40
0.679687500000012
40
0.679687500000012
40
0.687500000000012
40
0.687500000000012
40
0.75000000000001
40
0.75000000000001
40
0.812500000000007
40
0.812500000000007
40
0.875000000000005
40
0.875000000000005
40
0.937500000000002
40
0.937500000000002
40
1
40
1
40
1
40
1
41
1
10
75.3735657103456
20
8
30
0
41
1
10
75.4405380523357
20
8
30
0
41
1
10
75.5075103943257
20
7.97711751607073
30
0
41
1
10
75.6414550783059
20
7.87890031427682
30
0
41
1
10
75.7084274202961
20
7.80352849462011
30
0
41
1
10
75.8423721042763
20
7.59581144556216
30
0
41
1
10
75.9093444462664
20
7.46343529191336
30
0
41
1
10
76.0432891302466
20
7.14048002292316
30
0
41
1
10
76.1102614722367
20
6.94988579218747
30
0
41
1
10
76.2442061562169
20
6.51328389011459
30
0
41
1
10
76.311178498207
20
6.26728395467657
30
0
41
1
10
76.4451231821872
20
5.72681260324234
30
0
41
1
10
76.5120955241773
20
5.43237254727666
30
0
41
1
10
76.6460402081575
20
4.80552450368191
30
0
41
1
10
76.7130125501476
20
4.47316475463157
30
0
41
1
10
76.8469572341278
20
3.78331555286581
30
0
41
1
10
76.9139295761179
20
3.42587932732212
30
0
41
1
10
77.047874260098
20
2.69947916149562
30
0
41
1
10
77.1148466020882
20
2.33056119277904
30
0
41
1
10
77.2487912860684
20
1.59402990143661
30
0
41
1
10
77.3157636280585
20
1.22644711356995
30
0
41
1
10
77.4162221410437
20
0.684217860839595
30
0
41
1
10
77.4497083120387
20
0.504980949451891
30
0
41
1
10
77.4999375685313
20
0.239223232916686
30
0
41
1
10
77.5166806540288
20
0.151152299459085
30
0
41
1
10
77.5417952822751
20
0.0199112557733372
30
0
41
1
10
77.5501668250238
20
-0.0236221602199009
30
0
41
1
10
77.5669099105214
20
-0.111132511414183
30
0
41
1
10
77.5752814532701
20
-0.155031619533844
30
0
41
1
10
77.6506253380089
20
-0.551350730180019
30
0
41
1
10
77.717597679999
20
-0.912469666480746
30
0
41
1
10
77.8515423639793
20
-1.64310001679567
30
0
41
1
10
77.9185147059694
20
-2.01259199820655
30
0
41
1
10
78.0524593899496
20
-2.74827270323627
30
0
41
1
10
78.1194317319396
20
-3.11442445729966
30
0
41
1
10
78.2533764159199
20
-3.83016403279996
30
0
41
1
10
78.32034875791
20
-4.17970188124067
30
0
41
1
10
78.4542934418902
20
-4.84871587317903
30
0
41
1
10
78.5212657838804
20
-5.16813914259922
30
0
41
1
10
78.5882381258704
20
-5.46645736698329
30
0
0
SPLINE
5
EB
100
AcDbEntity
8
1
62
256
6
ByLayer
370
13
48
1
60
0
100
AcDbSpline
70
4
71
3
72
44
73
40
40
0
40
0
40
0
40
0
40
0.0625000000000025
40
0.0625000000000025
40
0.125000000000005
40
0.125000000000005
40
0.187500000000007
40
0.187500000000007
40
0.25000000000001
40
0.25000000000001
40
0.312500000000012
40
0.312500000000012
40
0.320312500000012
40
0.320312500000012
40
0.328125000000013
40
0.328125000000013
40
0.343750000000012
40
0.343750000000012
40
0.375000000000012
40
0.375000000000012
40
0.437500000000011
40
0.437500000000011
40
0.50000000000001
40
0.50000000000001
40
0.562500000000008
40
0.562500000000008
40
0.625000000000007
40
0.625000000000007
40
0.687500000000006
40
0.687500000000006
40
0.750000000000005
40
0.750000000000005
40
0.812500000000004
40
0.812500000000004
40
0.875000000000002
40
0.875000000000002
40
0.937500000000001
40
0.937500000000001
40
1
40
1
40
1
40
1
41
1
10
69.9
20
-5.46646123702706
30
0
41
1
10
69.9669723600906
20
-5.16814311372224
30
0
41
1
10
70.0339447201812
20
-4.84871991025378
30
0
41
1
10
70.1678894403624
20
-4.17970598075948
30
0
41
1
10
70.234861800453
20
-3.83016812886851
30
0
41
1
10
70.3688065206342
20
-3.11442848578028
30
0
41
1
10
70.4357788807248
20
-2.74827666767948
30
0
41
1
10
70.569723600906
20
-2.01259578817678
30
0
41
1
10
70.6366959609966
20
-1.64310369643738
30
0
41
1
10
70.7706406811778
20
-0.912473095621294
30
0
41
1
10
70.8376130412684
20
-0.551354019232008
30
0
41
1
10
70.9129569463703
20
-0.155034743113873
30
0
41
1
10
70.9213284913817
20
-0.111135616497762
30
0
41
1
10
70.9380715814043
20
-0.0236252281175098
30
0
41
1
10
70.9464431264155
20
0.0199082002050659
30
0
41
1
10
70.9715577614496
20
0.151149259263093
30
0
41
1
10
70.9883008514722
20
0.239220203969666
30
0
41
1
10
71.0385301215402
20
0.504977957287508
30
0
41
1
10
71.0720163015855
20
0.684214897251849
30
0
41
1
10
71.1724748417213
20
1.22644424790562
30
0
41
1
10
71.2394472018119
20
1.59402711744616
30
0
41
1
10
71.3733919219932
20
2.33055860212244
30
0
41
1
10
71.4403642820837
20
2.69947668250052
30
0
41
1
10
71.574309002265
20
3.42587709456791
30
0
41
1
10
71.6412813623555
20
3.78331345465566
30
0
41
1
10
71.7752260825367
20
4.47316293751081
30
0
41
1
10
71.8421984426273
20
4.80552283303768
30
0
41
1
10
71.9761431628085
20
5.43237116841263
30
0
41
1
10
72.0431155228991
20
5.72681136959855
30
0
41
1
10
72.1770602430804
20
6.26728299723663
30
0
41
1
10
72.2440326031709
20
6.5132830635871
30
0
41
1
10
72.3779773233521
20
6.94988520271934
30
0
41
1
10
72.4449496834427
20
7.14047953956492
30
0
41
1
10
72.5788944036238
20
7.46343498971055
30
0
41
1
10
72.6458667637145
20
7.59581121840881
30
0
41
1
10
72.7798114838957
20
7.80352838493749
30
0
41
1
10
72.8467838439863
20
7.87890024705106
30
0
41
1
10
72.9807285641675
20
7.97711750366153
30
0
41
1
10
73.047700924258
20
8
30
0
41
1
10
73.1146732843487
20
8
30
0
0
SPLINE
5
EC
100
AcDbEntity
8
1
62
256
6
ByLayer
370
13
48
1
60
0
100
AcDbSpline
70
4
71
3
72
42
73
38
40
0
40
0
40
0
40
0
40
0.0625000000000007
40
0.0625000000000007
40
0.125000000000001
40
0.125000000000001
40
0.187500000000002
40
0.187500000000002
40
0.250000000000003
40
0.250000000000003
40
0.312500000000003
40
0.312500000000003
40
0.375000000000004
40
0.375000000000004
40
0.437500000000004
40
0.437500000000004
40
0.500000000000005
40
0.500000000000005
40
0.562500000000006
40
0.562500000000006
40
0.578125000000006
40
0.578125000000006
40
0.593750000000006
40
0.593750000000006
40
0.625000000000006
40
0.625000000000006
40
0.687500000000005
40
0.687500000000005
40
0.750000000000004
40
0.750000000000004
40
0.812500000000003
40
0.812500000000003
40
0.875000000000002
40
0.875000000000002
40
0.937500000000001
40
0.937500000000001
40
1
40
1
40
1
40
1
41
1
10
74.8759688670789
20
8
30
0
41
1
10
74.9533078099704
20
8
30
0
41
1
10
75.0306467528618
20
7.96945110208878
30
0
41
1
10
75.1853246386448
20
7.8371773974541
30
0
41
1
10
75.2626635815363
20
7.73537738791197
30
0
41
1
10
75.4173414673193
20
7.45465720048378
30
0
41
1
10
75.4946804102108
20
7.27568184532421
30
0
41
1
10
75.6493582959937
20
6.84099835459773
30
0
41
1
10
75.7266972388853
20
6.58527996667922
30
0
41
1
10
75.8813751246682
20
6.00490135622277
30
0
41
1
10
75.9587140675598
20
5.68028775035438
30
0
41
1
10
76.1133919533427
20
4.9767943142937
30
0
41
1
10
76.1907308962342
20
4.59800723177247
30
0
41
1
10
76.3454087820172
20
3.8055719910559
30
0
41
1
10
76.4227477249087
20
3.39203287643147
30
0
41
1
10
76.5774256106916
20
2.55107406344248
30
0
41
1
10
76.6547645535831
20
2.12374635077245
30
0
41
1
10
76.8094424393661
20
1.27462730630367
30
0
41
1
10
76.8867813822576
20
0.852889961890156
30
0
41
1
10
76.983455060872
20
0.338928097347548
30
0
41
1
10
77.0027897965949
20
0.236785171681049
30
0
41
1
10
77.0414592680406
20
0.0339947158902021
30
0
41
1
10
77.0607940037634
20
-0.0663572177709568
30
0
41
1
10
77.1187982109321
20
-0.371018432369482
30
0
41
1
10
77.1574676823778
20
-0.577085909292975
30
0
41
1
10
77.273476096715
20
-1.20167334851308
30
0
41
1
10
77.3508150396066
20
-1.6267059964112
30
0
41
1
10
77.5054929253895
20
-2.47737406002003
30
0
41
1
10
77.5828318682811
20
-2.90294394435421
30
0
41
1
10
77.737509754064
20
-3.73463007668087
30
0
41
1
10
77.8148486969555
20
-4.14064678193864
30
0
41
1
10
77.9695265827385
20
-4.91236515639503
30
0
41
1
10
78.0468655256299
20
-5.27795876068538
30
0
41
1
10
78.201543411413
20
-5.95039262982269
30
0
41
1
10
78.2788823543045
20
-6.25715052114271
30
0
41
1
10
78.4335602400874
20
-6.79888708955247
30
0
41
1
10
78.5108991829789
20
-7.033834842376
30
0
41
1
10
78.5882381258704
20
-7.22997748513649
30
0
0
SPLINE
5
ED
100
AcDbEntity
8
1
62
256
6
ByLayer
370
13
48
1
60
0
100
AcDbSpline
70
4
71
3
72
41
73
37
40
0
40
0
40
0
40
0
40
0.062499999999999
40
0.062499999999999
40
0.124999999999998
40
0.124999999999998
40
0.187499999999997
40
0.187499999999997
40
0.203124999999997
40
0.203124999999997
40
0.218749999999997
40
0.249999999999998
40
0.249999999999998
40
0.312499999999998
40
0.312499999999998
40
0.374999999999998
40
0.374999999999998
40
0.437499999999998
40
0.437499999999998
40
0.499999999999998
40
0.499999999999998
40
0.562499999999998
40
0.562499999999998
40
0.624999999999999
40
0.624999999999999
40
0.687499999999999
40
0.687499999999999
40
0.749999999999999
40
0.749999999999999
40
0.812499999999999
40
0.812499999999999
40
0.874999999999999
40
0.874999999999999
40
0.9375
40
0.9375
40
1
40
1
40
1
40
1
41
1
10
69.9
20
-2.95564839125976
30
0
41
1
10
69.9566057591892
20
-2.64776478572625
30
0
41
1
10
70.0132115183784
20
-2.33625182808427
30
0
41
1
10
70.1264230367568
20
-1.71364714174487
30
0
41
1
10
70.183028795946
20
-1.40256902669748
30
0
41
1
10
70.2962403143245
20
-0.787586777111216
30
0
41
1
10
70.3528460735137
20
-0.483689737913664
30
0
41
1
10
70.4236032725002
20
-0.111723812243753
30
0
41
1
10
70.4377547122975
20
-0.0379297903152747
30
0
41
1
10
70.4660575918921
20
0.109764804118129
30
0
41
1
10
70.508511911284
20
0.332554836861874
30
0
41
1
10
70.550966230676
20
0.558767461963328
30
0
41
1
10
70.6358748694598
20
1.01477613679569
30
0
41
1
10
70.6924806286489
20
1.32359878025696
30
0
41
1
10
70.8056921470273
20
1.94465562692696
30
0
41
1
10
70.8622979062166
20
2.25687893871918
30
0
41
1
10
70.975509424595
20
2.87738483032106
30
0
41
1
10
71.0321151837841
20
3.18565027070989
30
0
41
1
10
71.1453267021625
20
3.79018949649878
30
0
41
1
10
71.2019324613518
20
4.08644161047596
30
0
41
1
10
71.3151439797302
20
4.6587950736143
30
0
41
1
10
71.3717497389194
20
4.93487338872691
30
0
41
1
10
71.4849612572978
20
5.45929608289151
30
0
41
1
10
71.541567016487
20
5.70762001355672
30
0
41
1
10
71.6547785348654
20
6.17019458375415
30
0
41
1
10
71.7113842940547
20
6.38443100145358
30
0
41
1
10
71.824595812433
20
6.77426836264036
30
0
41
1
10
71.8812015716223
20
6.94986357150654
30
0
41
1
10
71.9944130900007
20
7.25993991742601
30
0
41
1
10
72.0510188491899
20
7.39442409148475
30
0
41
1
10
72.1642303675683
20
7.62192297203703
30
0
41
1
10
72.2208361267575
20
7.71494790677809
30
0
41
1
10
72.3340476451359
20
7.86108947894476
30
0
41
1
10
72.3906534043252
20
7.91422078665198
30
0
41
1
10
72.5038649227036
20
7.98366799299143
30
0
41
1
10
72.5604706818928
20
8
30
0
41
1
10
72.617076441082
20
8
30
0
0
SPLINE
5
EE
100
AcDbEntity
8
1
62
256
6
ByLayer
370
13
48
1
60
0
100
AcDbSpline
70
4
71
3
72
46
73
42
40
0
40
0
40
0
40
0
40
0.0625000000000009
40
0.0625000000000009
40
0.125000000000002
40
0.125000000000002
40
0.187500000000003
40
0.187500000000003
40
0.250000000000004
40
0.250000000000004
40
0.281250000000004
40
0.281250000000004
40
0.312500000000004
40
0.312500000000004
40
0.375000000000005
40
0.375000000000005
40
0.437500000000006
40
0.437500000000006
40
0.500000000000007
40
0.500000000000007
40
0.515625000000006
40
0.515625000000006
40
0.531250000000006
40
0.531250000000006
40
0.562500000000005
40
0.562500000000005
40
0.625000000000005
40
0.625000000000005
40
0.687500000000004
40
0.687500000000004
40
0.750000000000003
40
0.750000000000003
40
0.781250000000003
40
0.781250000000003
40
0.812500000000003
40
0.812500000000003
40
0.875000000000002
40
0.875000000000002
40
0.937500000000001
40
0.937500000000001
40
1
40
1
40
1
40
1
41
1
10
74.3783720238122
20
8
30
0
41
1
10
74.4660775676051
20
8
30
0
41
1
10
74.5537831113979
20
7.96065942668136
30
0
41
1
10
74.7291941989836
20
7.78893783701326
30
0
41
1
10
74.8168997427766
20
7.65641857931595
30
0
41
1
10
74.9923108303623
20
7.29127326960773
30
0
41
1
10
75.0800163741552
20
7.05856287052373
30
0
41
1
10
75.255427461741
20
6.49710847228326
30
0
41
1
10
75.3431330055338
20
6.16838774170634
30
0
41
1
10
75.4746913212232
20
5.61551290088104
30
0
41
1
10
75.5185440931196
20
5.42134841046476
30
0
41
1
10
75.6062496369125
20
5.01626439660058
30
0
41
1
10
75.6501024088089
20
4.80535056352451
30
0
41
1
10
75.7816607244983
20
4.15266002997669
30
0
41
1
10
75.8693662682912
20
3.69091403364385
30
0
41
1
10
76.0447773558769
20
2.74430065529961
30
0
41
1
10
76.1324828996698
20
2.25961555405323
30
0
41
1
10
76.3078939872555
20
1.29601666318746
30
0
41
1
10
76.3955995310484
20
0.817208929888864
30
0
41
1
10
76.5052314607895
20
0.236531699462432
30
0
41
1
10
76.5271578467377
20
0.121269577222421
30
0
41
1
10
76.5710106186342
20
-0.107231304486987
30
0
41
1
10
76.5929370045824
20
-0.222335312600762
30
0
41
1
10
76.6587161624271
20
-0.570526583268105
30
0
41
1
10
76.7025689343235
20
-0.806186476424926
30
0
41
1
10
76.8341272500129
20
-1.51990005808273
30
0
41
1
10
76.9218327938057
20
-2.00487551835556
30
0
41
1
10
77.0972438813915
20
-2.96728573156887
30
0
41
1
10
77.1849494251843
20
-3.44457283125919
30
0
41
1
10
77.3603605127701
20
-4.36132197593435
30
0
41
1
10
77.4480660565629
20
-4.80058294735343
30
0
41
1
10
77.5796243722523
20
-5.40923381387384
30
0
41
1
10
77.6234771441487
20
-5.60377331582453
30
0
41
1
10
77.7111826879416
20
-5.97316240773938
30
0
41
1
10
77.755035459838
20
-6.14800757396256
30
0
41
1
10
77.8865937755274
20
-6.63939717015725
30
0
41
1
10
77.9742993193202
20
-6.92240453454136
30
0
41
1
10
78.1497104069059
20
-7.38878405616947
30
0
41
1
10
78.2374159506988
20
-7.57219031501995
30
0
41
1
10
78.4128270382846
20
-7.84091230103775
30
0
41
1
10
78.5005325820775
20
-7.92634677598255
30
0
41
1
10
78.5882381258704
20
-7.96836242276655
30
0
0
SPLINE
5
EF
100
AcDbEntity
8
1
62
256
6
ByLayer
370
13
48
1
60
0
100
AcDbSpline
70
4
71
3
72
40
73
36
40
0
40
0
40
0
40
0
40
0.0156249999999999
40
0.0156249999999999
40
0.0312499999999997
40
0.0312499999999997
40
0.0625000000000001
40
0.0625000000000001
40
0.125
40
0.125
40
0.1875
40
0.1875
40
0.250000000000001
40
0.250000000000001
40
0.312500000000001
40
0.312500000000001
40
0.375000000000001
40
0.375000000000001
40
0.437500000000001
40
0.437500000000001
40
0.500000000000001
40
0.500000000000001
40
0.562500000000001
40
0.562500000000001
40
0.625000000000001
40
0.625000000000001
40
0.687500000000001
40
0.687500000000001
40
0.750000000000001
40
0.750000000000001
40
0.812500000000001
40
0.812500000000001
40
0.875
40
0.875
40
1
40
1
40
1
40
1
41
1
10
69.9
20
-0.248528709394833
30
0
41
1
10
69.911559789572
20
-0.187583351112522
30
0
41
1
10
69.9231195791439
20
-0.126892449099671
30
0
41
1
10
69.9462391582879
20
-0.0060598160719962
30
0
41
1
10
69.9577989478598
20
0.05404562905494
30
0
41
1
10
69.9924783165757
20
0.235727243090196
30
0
41
1
10
70.0155978957196
20
0.357926990193789
30
0
41
1
10
70.0849566331513
20
0.727256874635259
30
0
41
1
10
70.1311957914392
20
0.977136019878287
30
0
41
1
10
70.2236741080148
20
1.48106292216434
30
0
41
1
10
70.2699132663026
20
1.7351077604024
30
0
41
1
10
70.3623915828782
20
2.2436598491262
30
0
41
1
10
70.4086307411661
20
2.49816223280953
30
0
41
1
10
70.5011090577417
20
3.00348561584784
30
0
41
1
10
70.5473482160295
20
3.25429997595072
30
0
41
1
10
70.6398265326051
20
3.74783950358992
30
0
41
1
10
70.6860656908929
20
3.9905567539088
30
0
41
1
10
70.7785440074686
20
4.46345083426971
30
0
41
1
10
70.8247831657563
20
4.69361924996483
30
0
41
1
10
70.917261482332
20
5.13716927650819
30
0
41
1
10
70.9635006406198
20
5.35054293052713
30
0
41
1
10
71.0559789571955
20
5.75671128003657
30
0
41
1
10
71.1022181154833
20
5.94949943115259
30
0
41
1
10
71.1946964320589
20
6.31138000424417
30
0
41
1
10
71.2409355903467
20
6.48046805974636
30
0
41
1
10
71.3334139069224
20
6.792673437563
30
0
41
1
10
71.3796530652102
20
6.93578899669726
30
0
41
1
10
71.4721313817859
20
7.19470937386842
30
0
41
1
10
71.5183705400736
20
7.31051505017584
30
0
41
1
10
71.6108488566492
20
7.5144239041866
30
0
41
1
10
71.6570880149371
20
7.60253020373793
30
0
41
1
10
71.7495663315128
20
7.75153538350617
30
0
41
1
10
71.7958054898006
20
7.8124390264384
30
0
41
1
10
71.934522964664
20
7.9562303781417
30
0
41
1
10
72.0270012812396
20
8
30
0
41
1
10
72.1194795978153
20
8
30
0
0
SPLINE
5
F0
100
AcDbEntity
8
1
62
256
6
ByLayer
370
13
48
1
60
0
100
AcDbSpline
70
4
71
3
72
76
73
72
40
0
40
0
40
0
40
0
40
0.0312499999999996
40
0.0312499999999996
40
0.0624999999999991
40
0.0624999999999991
40
0.0937499999999987
40
0.0937499999999987
40
0.124999999999998
40
0.124999999999998
40
0.156249999999998
40
0.156249999999998
40
0.187499999999998
40
0.187499999999998
40
0.218749999999997
40
0.218749999999997
40
0.249999999999997
40
0.249999999999997
40
0.281249999999997
40
0.281249999999997
40
0.312499999999997
40
0.312499999999997
40
0.343749999999997
40
0.343749999999997
40
0.374999999999997
40
0.374999999999997
40
0.406249999999997
40
0.406249999999997
40
0.437499999999997
40
0.437499999999997
40
0.453124999999997
40
0.453124999999997
40
0.468749999999997
40
0.468749999999997
40
0.499999999999997
40
0.499999999999997
40
0.531249999999997
40
0.531249999999997
40
0.562499999999998
40
0.562499999999998
40
0.593749999999998
40
0.593749999999998
40
0.624999999999998
40
0.624999999999998
40
0.656249999999998
40
0.656249999999998
40
0.687499999999998
40
0.687499999999998
40
0.718749999999998
40
0.718749999999998
40
0.749999999999998
40
0.749999999999998
40
0.781249999999998
40
0.781249999999998
40
0.812499999999999
40
0.812499999999999
40
0.843749999999999
40
0.843749999999999
40
0.874999999999999
40
0.874999999999999
40
0.906249999999999
40
0.906249999999999
40
0.921874999999999
40
0.921874999999999
40
0.929687499999999
40
0.929687499999999
40
0.9375
40
0.9375
40
0.96875
40
0.96875
40
1
40
1
40
1
40
1
41
1
10
73.8807751805455
20
8
30
0
41
1
10
73.9298112528926
20
8
30
0
41
1
10
73.9788473252398
20
7.98775055580188
30
0
41
1
10
74.076919469934
20
7.93603835265037
30
0
41
1
10
74.1259555422811
20
7.89656772851751
30
0
41
1
10
74.2240276869754
20
7.78824112724124
30
0
41
1
10
74.2730637593226
20
7.71937764959375
30
0
41
1
10
74.3711359040169
20
7.55088457954372
30
0
41
1
10
74.420171976364
20
7.45124893243153
30
0
41
1
10
74.5182441210583
20
7.22082970872643
30
0
41
1
10
74.5672801934054
20
7.09004261773222
30
0
41
1
10
74.6653523380996
20
6.79808534270023
30
0
41
1
10
74.7143884104468
20
6.6369150433087
30
0
41
1
10
74.8124605551411
20
6.28616027419773
30
0
41
1
10
74.8614966274882
20
6.09657946731664
30
0
41
1
10
74.9595687721824
20
5.69212438987776
30
0
41
1
10
75.0086048445295
20
5.4772573078547
30
0
41
1
10
75.1066769892238
20
5.02633777089321
30
0
41
1
10
75.155713061571
20
4.79029515322816
30
0
41
1
10
75.2537852062653
20
4.30186066608272
30
0
41
1
10
75.3028212786124
20
4.04947996015315
30
0
41
1
10
75.4008934233067
20
3.53361297828934
30
0
41
1
10
75.4499294956538
20
3.27013772081412
30
0
41
1
10
75.5480016403481
20
2.73739442307112
30
0
41
1
10
75.5970377126952
20
2.46813595171176
30
0
41
1
10
75.6951098573895
20
1.92889451016148
30
0
41
1
10
75.7441459297366
20
1.65891875878273
30
0
41
1
10
75.8422180744309
20
1.12281166142205
30
0
41
1
10
75.8912541467781
20
0.856684788726852
30
0
41
1
10
75.9648082552987
20
0.46329759107951
30
0
41
1
10
75.9893262914723
20
0.333130029658974
30
0
41
1
10
76.0383623638194
20
0.0751324555690189
30
0
41
1
10
76.0628803999929
20
-0.0519959581496607
30
0
41
1
10
76.1364345085137
20
-0.438568902455671
30
0
41
1
10
76.1854705808609
20
-0.701030173015084
30
0
41
1
10
76.2835427255551
20
-1.23195885388083
30
0
41
1
10
76.3325787979022
20
-1.5004232414251
30
0
41
1
10
76.4306509425965
20
-2.03913637447286
30
0
41
1
10
76.4796870149436
20
-2.30937933935056
30
0
41
1
10
76.5777591596379
20
-2.84682426880974
30
0
41
1
10
76.6267952319849
20
-3.11401782955241
30
0
41
1
10
76.7248673766792
20
-3.64014878015874
30
0
41
1
10
76.7739034490264
20
-3.89907577908195
30
0
41
1
10
76.8719755937207
20
-4.40335353736322
30
0
41
1
10
76.9210116660679
20
-4.64869303057972
30
0
41
1
10
77.0190838107621
20
-5.12070041706073
30
0
41
1
10
77.0681198831091
20
-5.3473575881556
30
0
41
1
10
77.1661920278034
20
-5.77746521669886
30
0
41
1
10
77.2152281001506
20
-5.98090693803709
30
0
41
1
10
77.3133002448449
20
-6.36090616360465
30
0
41
1
10
77.362336317192
20
-6.53745806263464
30
0
41
1
10
77.4604084618862
20
-6.86107690604752
30
0
41
1
10
77.5094445342334
20
-7.00814197198758
30
0
41
1
10
77.6075166789277
20
-7.2713771503565
30
0
41
1
10
77.6565527512748
20
-7.38754905689581
30
0
41
1
10
77.754624895969
20
-7.58877909668354
30
0
41
1
10
77.8036609683162
20
-7.67384206555107
30
0
41
1
10
77.9017331130104
20
-7.81372421645202
30
0
41
1
10
77.9507691853577
20
-7.86855027342827
30
0
41
1
10
78.0488413300519
20
-7.9497375951801
30
0
41
1
10
78.097877402399
20
-7.9761066576113
30
0
41
1
10
78.1714315109198
20
-7.99615933152299
30
0
41
1
10
78.1959495470933
20
-7.99959799761734
30
0
41
1
10
78.2327266013536
20
-8.00015110034639
30
0
41
1
10
78.2449856194405
20
-7.99957241299552
30
0
41
1
10
78.269503655614
20
-7.99684757532617
30
0
41
1
10
78.2817626737008
20
-7.99470083783828
30
0
41
1
10
78.3430577641348
20
-7.97993675364788
30
0
41
1
10
78.3920938364819
20
-7.95520731902616
30
0
41
1
10
78.4901659811761
20
-7.87743056500165
30
0
41
1
10
78.5392020535232
20
-7.82437542652292
30
0
41
1
10
78.5882381258704
20
-7.75624708260156
30
0
0
SPLINE
5
F1
100
AcDbEntity
8
1
62
256
6
ByLayer
370
13
48
1
60
0
100
AcDbSpline
70
4
71
3
72
22
73
18
40
0
40
0
40
0
40
0
40
0.125
40
0.125
40
0.25
40
0.25
40
0.375
40
0.375
40
0.5
40
0.5
40
0.625
40
0.625
40
0.75
40
0.75
40
0.875
40
0.875
40
1
40
1
40
1
40
1
41
1
10
69.9
20
2.43707196361075
30
0
41
1
10
69.9717451147729
20
2.83091794508101
30
0
41
1
10
70.0434902295457
20
3.22245580077774
30
0
41
1
10
70.1869804590914
20
3.98461601996493
30
0
41
1
10
70.2587255738642
20
4.35516658850614
30
0
41
1
10
70.40221580341
20
5.05887782149767
30
0
41
1
10
70.4739609181829
20
5.39196529783069
30
0
41
1
10
70.6174511477286
20
6.00645554985889
30
0
41
1
10
70.6891962625015
20
6.28780410026459
30
0
41
1
10
70.8326864920471
20
6.78869008166026
30
0
41
1
10
70.90443160682
20
7.00820674900856
30
0
41
1
10
71.0479218363657
20
7.38064212705063
30
0
41
1
10
71.1196669511385
20
7.5335758084598
30
0
41
1
10
71.2631571806843
20
7.77348093670042
30
0
41
1
10
71.3349022954571
20
7.86049354574308
30
0
41
1
10
71.4783925250028
20
7.97372703970652
30
0
41
1
10
71.5501376397757
20
8
30
0
41
1
10
71.6218827545486
20
8
30
0
0
SPLINE
5
F2
100
AcDbEntity
8
1
62
256
6
ByLayer
370
13
48
1
60
0
100
AcDbSpline
70
4
71
3
72
78
73
74
40
0
40
0
40
0
40
0
40
0.0312499999999998
40
0.0312499999999998
40
0.0624999999999997
40
0.0624999999999997
40
0.0937499999999995
40
0.0937499999999995
40
0.124999999999999
40
0.124999999999999
40
0.156249999999999
40
0.156249999999999
40
0.187499999999999
40
0.187499999999999
40
0.218749999999999
40
0.218749999999999
40
0.249999999999999
40
0.249999999999999
40
0.281249999999998
40
0.281249999999998
40
0.312499999999998
40
0.312499999999998
40
0.343749999999999
40
0.343749999999999
40
0.374999999999999
40
0.374999999999999
40
0.406249999999999
40
0.406249999999999
40
0.414062499999999
40
0.414062499999999
40
0.421874999999999
40
0.421874999999999
40
0.437499999999999
40
0.437499999999999
40
0.468749999999998
40
0.468749999999998
40
0.499999999999998
40
0.499999999999998
40
0.531249999999998
40
0.531249999999998
40
0.562499999999998
40
0.562499999999998
40
0.593749999999997
40
0.593749999999997
40
0.624999999999997
40
0.624999999999997
40
0.656249999999997
40
0.656249999999997
40
0.687499999999996
40
0.687499999999996
40
0.718749999999996
40
0.718749999999996
40
0.749999999999996
40
0.749999999999996
40
0.781249999999996
40
0.781249999999996
40
0.812499999999995
40
0.812499999999995
40
0.828124999999996
40
0.828124999999996
40
0.835937499999996
40
0.835937499999996
40
0.843749999999996
40
0.843749999999996
40
0.874999999999997
40
0.874999999999997
40
0.906249999999997
40
0.906249999999997
40
0.937499999999998
40
0.937499999999998
40
0.968749999999999
40
0.968749999999999
40
1
40
1
40
1
40
1
41
1
10
73.3831783372788
20
8
30
0
41
1
10
73.4373977100766
20
8
30
0
41
1
10
73.4916170828744
20
7.98501871774235
30
0
41
1
10
73.6000558284701
20
7.92145786519777
30
0
41
1
10
73.654275201268
20
7.87286529947539
30
0
41
1
10
73.7627139468636
20
7.73929162269391
30
0
41
1
10
73.8169333196614
20
7.65429848505832
30
0
41
1
10
73.9253720652571
20
7.4463861718894
30
0
41
1
10
73.9795914380549
20
7.32345815378036
30
0
41
1
10
74.0880301836506
20
7.03971319822847
30
0
41
1
10
74.1422495564484
20
6.87889270453189
30
0
41
1
10
74.2506883020441
20
6.52116828457196
30
0
41
1
10
74.3049076748418
20
6.32426745400449
30
0
41
1
10
74.4133464204376
20
5.89796741639685
30
0
41
1
10
74.4675657932354
20
5.66857806400881
30
0
41
1
10
74.5760045388311
20
5.18247037088943
30
0
41
1
10
74.6302239116289
20
4.92576731585675
30
0
41
1
10
74.7386626572245
20
4.39140232468995
30
0
41
1
10
74.7928820300224
20
4.11375863280091
30
0
41
1
10
74.901320775618
20
3.5445697872415
30
0
41
1
10
74.9555401484158
20
3.25304288597334
30
0
41
1
10
75.0639788940115
20
2.66327333559715
30
0
41
1
10
75.1181982668093
20
2.36504629647985
30
0
41
1
10
75.226637012405
20
1.76867283592929
30
0
41
1
10
75.2808563852028
20
1.4705376234491
30
0
41
1
10
75.3892951307985
20
0.880346710509684
30
0
41
1
10
75.4435145035963
20
0.588297181277227
30
0
41
1
10
75.5112887195937
20
0.230122012689066
30
0
41
1
10
75.5248435627931
20
0.158828536364013
30
0
41
1
10
75.551953249192
20
0.0169904065570563
30
0
41
1
10
75.5655080923914
20
-0.0534444886209826
30
0
41
1
10
75.6061726219897
20
-0.266584579689351
30
0
41
1
10
75.6332823083887
20
-0.410155982032933
30
0
41
1
10
75.7146113675855
20
-0.844478826873257
30
0
41
1
10
75.7688307403833
20
-1.13887285222978
30
0
41
1
10
75.877269485979
20
-1.73209933104172
30
0
41
1
10
75.9314888587768
20
-2.0309241355441
30
0
41
1
10
76.0399276043725
20
-2.62675559235595
30
0
41
1
10
76.0941469771702
20
-2.92374963011085
30
0
41
1
10
76.2025857227658
20
-3.50896897527912
30
0
41
1
10
76.2568050955637
20
-3.79717766881461
30
0
41
1
10
76.3652438411593
20
-4.35762508053782
30
0
41
1
10
76.4194632139572
20
-4.62984524690532
30
0
41
1
10
76.5279019595529
20
-5.15140019429327
30
0
41
1
10
76.5821213323507
20
-5.40071729843331
30
0
41
1
10
76.6905600779464
20
-5.87039138682391
30
0
41
1
10
76.7447794507442
20
-6.09073446118035
30
0
41
1
10
76.8532181963399
20
-6.49771118692081
30
0
41
1
10
76.9074375691378
20
-6.68433688879708
30
0
41
1
10
77.0158763147334
20
-7.02079041668318
30
0
41
1
10
77.0700956875312
20
-7.17061717012126
30
0
41
1
10
77.1785344331268
20
-7.43218271885721
30
0
41
1
10
77.2327538059246
20
-7.54392680521065
30
0
41
1
10
77.3411925515203
20
-7.729768746974
30
0
41
1
10
77.3954119243181
20
-7.80387661198776
30
0
41
1
10
77.5038506699138
20
-7.91638290978162
30
0
41
1
10
77.5580700427117
20
-7.95479387275444
30
0
41
1
10
77.6393991019085
20
-7.98794198737437
30
0
41
1
10
77.6665087883073
20
-7.99492104807928
30
0
41
1
10
77.7071733179057
20
-7.9996283887194
30
0
41
1
10
77.7207281611051
20
-8.00023912840362
30
0
41
1
10
77.7478378475041
20
-7.99959506538363
30
0
41
1
10
77.7613926907035
20
-7.9983330106503
30
0
41
1
10
77.8291669067008
20
-7.98717229479794
30
0
41
1
10
77.8833862794986
20
-7.96269245121871
30
0
41
1
10
77.9918250250942
20
-7.87920943309101
30
0
41
1
10
78.0460443978922
20
-7.82019333305996
30
0
41
1
10
78.1544831434877
20
-7.66517631837138
30
0
41
1
10
78.2087025162856
20
-7.5691640742086
30
0
41
1
10
78.3171412618813
20
-7.33904969915554
30
0
41
1
10
78.3713606346791
20
-7.20494007742087
30
0
41
1
10
78.4797993802748
20
-6.89917334911542
30
0
41
1
10
78.5340187530726
20
-6.72751454192937
30
0
41
1
10
78.5882381258704
20
-6.53824936558507
30
0
0
SPLINE
5
F3
100
AcDbEntity
8
1
62
256
6
ByLayer
370
13
48
1
60
0
100
AcDbSpline
70
4
71
3
72
22
73
18
40
0
40
0
40
0
40
0
40
0.125
40
0.125
40
0.25
40
0.25
40
0.375
40
0.375
40
0.5
40
0.5
40
0.625
40
0.625
40
0.75
40
0.75
40
0.875
40
0.875
40
1
40
1
40
1
40
1
41
1
10
69.9
20
5.03055258184963
30
0
41
1
10
69.9510119129702
20
5.27193048878567
30
0
41
1
10
70.0020238259402
20
5.50265027944999
30
0
41
1
10
70.1040476518803
20
5.93788507509402
30
0
41
1
10
70.1550595648504
20
6.14239027920687
30
0
41
1
10
70.2570833907906
20
6.52135995406437
30
0
41
1
10
70.3080953037606
20
6.69581886672705
30
0
41
1
10
70.4101191297008
20
7.01217298659776
30
0
41
1
10
70.4611310426709
20
7.15406741963801
30
0
41
1
10
70.563154868611
20
7.40417882074092
30
0
41
1
10
70.614166781581
20
7.51239945796414
30
0
41
1
10
70.7161906075212
20
7.69541317572063
30
0
41
1
10
70.7672025204913
20
7.77021332189713
30
0
41
1
10
70.8692263464316
20
7.88783400459354
30
0
41
1
10
70.9202382594016
20
7.9306635830238
30
0
41
1
10
71.0222620853418
20
7.98674178900808
30
0
41
1
10
71.0732739983118
20
8
30
0
41
1
10
71.1242859112819
20
8
30
0
0
SPLINE
5
F4
100
AcDbEntity
8
1
62
256
6
ByLayer
370
13
48
1
60
0
100
AcDbSpline
70
4
71
3
72
77
73
73
40
0
40
0
40
0
40
0
40
0.0312499999999993
40
0.0312499999999993
40
0.0624999999999987
40
0.0624999999999987
40
0.093749999999998
40
0.093749999999998
40
0.124999999999997
40
0.124999999999997
40
0.156249999999997
40
0.156249999999997
40
0.187499999999996
40
0.187499999999996
40
0.218749999999995
40
0.218749999999995
40
0.249999999999995
40
0.249999999999995
40
0.281249999999994
40
0.281249999999994
40
0.312499999999993
40
0.312499999999993
40
0.343749999999993
40
0.343749999999993
40
0.374999999999992
40
0.374999999999992
40
0.382812499999992
40
0.382812499999992
40
0.390624999999992
40
0.406249999999992
40
0.406249999999992
40
0.437499999999993
40
0.437499999999993
40
0.468749999999993
40
0.468749999999993
40
0.499999999999993
40
0.499999999999993
40
0.531249999999994
40
0.531249999999994
40
0.562499999999994
40
0.562499999999994
40
0.593749999999994
40
0.593749999999994
40
0.624999999999995
40
0.624999999999995
40
0.656249999999995
40
0.656249999999995
40
0.687499999999995
40
0.687499999999995
40
0.718749999999996
40
0.718749999999996
40
0.749999999999996
40
0.749999999999996
40
0.757812499999996
40
0.757812499999996
40
0.765624999999996
40
0.765624999999996
40
0.781249999999997
40
0.781249999999997
40
0.812499999999997
40
0.812499999999997
40
0.843749999999998
40
0.843749999999998
40
0.874999999999998
40
0.874999999999998
40
0.906249999999999
40
0.906249999999999
40
0.937499999999999
40
0.937499999999999
40
0.96875
40
0.96875
40
1
40
1
40
1
40
1
41
1
10
72.8855814940121
20
8
30
0
41
1
10
72.9449841672606
20
8
30
0
41
1
10
73.0043868405091
20
7.98201013763668
30
0
41
1
10
73.1231921870062
20
7.90531507575957
30
0
41
1
10
73.1825948602548
20
7.84658939843536
30
0
41
1
10
73.3014002067519
20
7.68495520433046
30
0
41
1
10
73.3608028800003
20
7.58202842060484
30
0
41
1
10
73.4796082264973
20
7.3304270038727
30
0
41
1
10
73.5390108997459
20
7.18174052883288
30
0
41
1
10
73.6578162462429
20
6.83942538878821
30
0
41
1
10
73.7172189194914
20
6.64579497957237
30
0
41
1
10
73.8360242659885
20
6.21698513077251
30
0
41
1
10
73.895426939237
20
5.98181578889162
30
0
41
1
10
74.014232285734
20
5.47578771115636
30
0
41
1
10
74.0736349589826
20
5.20494980850822
30
0
41
1
10
74.1924403054796
20
4.63543951029078
30
0
41
1
10
74.2518429787282
20
4.33679482885159
30
0
41
1
10
74.3706483252251
20
3.72077569627174
30
0
41
1
10
74.4300509984737
20
3.40343042418289
30
0
41
1
10
74.5488563449708
20
2.75948951054178
30
0
41
1
10
74.6082590182193
20
2.43291926892954
30
0
41
1
10
74.7270643647163
20
1.77954438885683
30
0
41
1
10
74.7864670379649
20
1.45275777397433
30
0
41
1
10
74.9052723844619
20
0.806839360813115
30
0
41
1
10
74.9646750577105
20
0.487716904320649
30
0
41
1
10
75.0389283992711
20
0.0975662438654012
30
0
41
1
10
75.0537790675832
20
0.0202585228543342
30
0
41
1
10
75.0834804042075
20
-0.134901753947503
30
0
41
1
10
75.1280324091438
20
-0.369005284435872
30
0
41
1
10
75.1725844140803
20
-0.606823280824045
30
0
41
1
10
75.2616884239531
20
-1.08626481063959
30
0
41
1
10
75.3210910972016
20
-1.41101295843339
30
0
41
1
10
75.4398964436986
20
-2.06343646943338
30
0
41
1
10
75.4992991169472
20
-2.39109704940247
30
0
41
1
10
75.6181044634443
20
-3.04070485040239
30
0
41
1
10
75.6775071366927
20
-3.3626291471889
30
0
41
1
10
75.7963124831898
20
-3.99137888141587
30
0
41
1
10
75.8557151564383
20
-4.29817601121121
30
0
41
1
10
75.9745205029354
20
-4.88732250466077
30
0
41
1
10
76.0339231761839
20
-5.1696429370127
30
0
41
1
10
76.1527285226808
20
-5.7014023517641
30
0
41
1
10
76.2121311959294
20
-5.95081733729288
30
0
41
1
10
76.3309365424265
20
-6.41006290001297
30
0
41
1
10
76.390339215675
20
-6.61987904309589
30
0
41
1
10
76.5091445621721
20
-6.99554741159383
30
0
41
1
10
76.5685472354206
20
-7.16139698312929
30
0
41
1
10
76.6873525819176
20
-7.44733831621735
30
0
41
1
10
76.7467552551661
20
-7.56743847218331
30
0
41
1
10
76.8655606016632
20
-7.76258104725659
30
0
41
1
10
76.9249632749118
20
-7.83763980954728
30
0
41
1
10
77.0437686214088
20
-7.94550883643893
30
0
41
1
10
77.1031712946573
20
-7.97833921935632
30
0
41
1
10
77.177424636218
20
-7.99569371032283
30
0
41
1
10
77.19227530453
20
-7.99798334396539
30
0
41
1
10
77.2219766411543
20
-8.00027789240863
30
0
41
1
10
77.2368273094665
20
-8.00029279716696
30
0
41
1
10
77.2813793144028
20
-7.99694281344446
30
0
41
1
10
77.3110806510272
20
-7.99014039781207
30
0
41
1
10
77.4001846608999
20
-7.95511293096715
30
0
41
1
10
77.4595873341485
20
-7.91222245002811
30
0
41
1
10
77.5783926806454
20
-7.78337208372389
30
0
41
1
10
77.6377953538939
20
-7.69739261828332
30
0
41
1
10
77.756600700391
20
-7.48001796984201
30
0
41
1
10
77.8160033736395
20
-7.34860803332853
30
0
41
1
10
77.9348087201366
20
-7.04024366156872
30
0
41
1
10
77.9942113933852
20
-6.86328334165935
30
0
41
1
10
78.1130167398821
20
-6.46623154824988
30
0
41
1
10
78.1724194131307
20
-6.24614567813271
30
0
41
1
10
78.2912247596278
20
-5.76781056854267
30
0
41
1
10
78.3506274328763
20
-5.5095784388844
30
0
41
1
10
78.4694327793733
20
-4.96212949873768
30
0
41
1
10
78.5288354526219
20
-4.67293839800183
30
0
41
1
10
78.5882381258704
20
-4.37262163637143
30
0
0
SPLINE
5
F5
100
AcDbEntity
8
1
62
256
6
ByLayer
370
13
48
1
60
0
100
AcDbSpline
70
4
71
3
72
14
73
10
40
0
40
0
40
0
40
0
40
0.25
40
0.25
40
0.5
40
0.5
40
0.75
40
0.75
40
1
40
1
40
1
40
1
41
1
10
69.9
20
6.97025149287069
30
0
41
1
10
69.9605574223346
20
7.14827533374373
30
0
41
1
10
70.0211148446692
20
7.30303021865703
30
0
41
1
10
70.1422296893384
20
7.56494154336241
30
0
41
1
10
70.202787111673
20
7.6721104631614
30
0
41
1
10
70.3239019563422
20
7.84038189138741
30
0
41
1
10
70.3844593786769
20
7.90150431636647
30
0
41
1
10
70.505574223346
20
7.98130210391494
30
0
41
1
10
70.5661316456806
20
8
30
0
41
1
10
70.6266890680151
20
8
30
0
0
SPLINE
5
F6
100
AcDbEntity
8
1
62
256
6
ByLayer
370
13
48
1
60
0
100
AcDbSpline
70
4
71
3
72
78
73
74
40
0
40
0
40
0
40
0
40
0.0312499999999991
40
0.0312499999999991
40
0.0624999999999982
40
0.0624999999999982
40
0.0937499999999974
40
0.0937499999999974
40
0.124999999999997
40
0.124999999999997
40
0.156249999999996
40
0.156249999999996
40
0.187499999999995
40
0.187499999999995
40
0.218749999999994
40
0.218749999999994
40
0.249999999999993
40
0.249999999999993
40
0.281249999999993
40
0.281249999999993
40
0.312499999999992
40
0.312499999999992
40
0.343749999999991
40
0.343749999999991
40
0.351562499999991
40
0.351562499999991
40
0.359374999999991
40
0.359374999999991
40
0.374999999999991
40
0.374999999999991
40
0.406249999999991
40
0.406249999999991
40
0.437499999999991
40
0.437499999999991
40
0.468749999999991
40
0.468749999999991
40
0.499999999999991
40
0.499999999999991
40
0.531249999999992
40
0.531249999999992
40
0.562499999999992
40
0.562499999999992
40
0.593749999999992
40
0.593749999999992
40
0.624999999999993
40
0.624999999999993
40
0.656249999999993
40
0.656249999999993
40
0.687499999999993
40
0.687499999999993
40
0.695312499999993
40
0.695312499999993
40
0.703124999999993
40
0.703124999999993
40
0.718749999999993
40
0.718749999999993
40
0.749999999999994
40
0.749999999999994
40
0.781249999999995
40
0.781249999999995
40
0.812499999999995
40
0.812499999999995
40
0.843749999999996
40
0.843749999999996
40
0.874999999999997
40
0.874999999999997
40
0.906249999999998
40
0.906249999999998
40
0.937499999999998
40
0.937499999999998
40
0.968749999999999
40
0.968749999999999
40
1
40
1
40
1
40
1
41
1
10
72.3879846507454
20
8
30
0
41
1
10
72.4525706244446
20
8
30
0
41
1
10
72.5171565981439
20
7.97872399984746
30
0
41
1
10
72.6463285455422
20
7.88759394134868
30
0
41
1
10
72.7109145192415
20
7.81770887278557
30
0
41
1
10
72.8400864666399
20
7.62517622379707
30
0
41
1
10
72.9046724403391
20
7.50250218462537
30
0
41
1
10
73.0338443877376
20
7.20299622638882
30
0
41
1
10
73.0984303614368
20
7.02614992058125
30
0
41
1
10
73.2276023088352
20
6.62033486631412
30
0
41
1
10
73.2921882825344
20
6.39136966244794
30
0
41
1
10
73.4213602299329
20
5.88696527559193
30
0
41
1
10
73.4859462036321
20
5.61154899527642
30
0
41
1
10
73.6151181510306
20
5.02310737939092
30
0
41
1
10
73.6797041247298
20
4.71012004278586
30
0
41
1
10
73.8088760721282
20
4.05768225041697
30
0
41
1
10
73.8734620458274
20
3.71827620796466
30
0
41
1
10
74.0026339932259
20
3.02515517795666
30
0
41
1
10
74.0672199669251
20
2.67148118195709
30
0
41
1
10
74.1963919143236
20
1.96166810850954
30
0
41
1
10
74.2609778880228
20
1.60555908627802
30
0
41
1
10
74.3901498354213
20
0.901318095073407
30
0
41
1
10
74.4547358091205
20
0.553202000940132
30
0
41
1
10
74.5354682762445
20
0.128256969621844
30
0
41
1
10
74.5516147696692
20
0.0440387714322981
30
0
41
1
10
74.5839077565188
20
-0.124514650778167
30
0
41
1
10
74.6000542499436
20
-0.209332757402706
30
0
41
1
10
74.6484937302181
20
-0.465246169373756
30
0
41
1
10
74.6807867170677
20
-0.637805093012389
30
0
41
1
10
74.7776656776165
20
-1.15984601295961
30
0
41
1
10
74.8422516513157
20
-1.51375560829965
30
0
41
1
10
74.9714235987141
20
-2.2237683969993
30
0
41
1
10
75.0360095724134
20
-2.57984736302353
30
0
41
1
10
75.1651815198119
20
-3.28285741214196
30
0
41
1
10
75.2297674935111
20
-3.62975141085687
30
0
41
1
10
75.3589394409095
20
-4.30222895670721
30
0
41
1
10
75.4235254146087
20
-4.62776839591009
30
0
41
1
10
75.5526973620072
20
-5.24579801823754
30
0
41
1
10
75.6172833357063
20
-5.5382462952378
30
0
41
1
10
75.7464552831048
20
-6.08010672109828
30
0
41
1
10
75.8110412568039
20
-6.3294887901468
30
0
41
1
10
75.9402132042024
20
-6.7780975656288
30
0
41
1
10
76.0047991779017
20
-6.97731243863561
30
0
41
1
10
76.1339711253002
20
-7.32198426478925
30
0
41
1
10
76.1985570989993
20
-7.46744857957933
30
0
41
1
10
76.3277290463978
20
-7.70459861618176
30
0
41
1
10
76.3923150200969
20
-7.79630661197081
30
0
41
1
10
76.5214869674954
20
-7.92903999220198
30
0
41
1
10
76.5860729411946
20
-7.97009537487989
30
0
41
1
10
76.6668054083186
20
-7.99311255671657
30
0
41
1
10
76.6829519017435
20
-7.99630520601102
30
0
41
1
10
76.715244888593
20
-7.99996771839341
30
0
41
1
10
76.7313913820179
20
-8.00044480120997
30
0
41
1
10
76.7798308622924
20
-7.99789356032303
30
0
41
1
10
76.8121238491419
20
-7.99081868742158
30
0
41
1
10
76.9090028096907
20
-7.95229541081792
30
0
41
1
10
76.9735887833899
20
-7.90348358131931
30
0
41
1
10
77.1027607307885
20
-7.7545647468155
30
0
41
1
10
77.1673467044876
20
-7.65442846119603
30
0
41
1
10
77.296518651886
20
-7.40019522780878
30
0
41
1
10
77.3611046255853
20
-7.2460779398989
30
0
41
1
10
77.4902765729837
20
-6.88442316726088
30
0
41
1
10
77.554862546683
20
-6.6768812074462
30
0
41
1
10
77.6840344940813
20
-6.21252073098987
30
0
41
1
10
77.7486204677806
20
-5.9557171706129
30
0
41
1
10
77.877792415179
20
-5.40043227416714
30
0
41
1
10
77.9423783888782
20
-5.10198345316482
30
0
41
1
10
78.0715503362766
20
-4.4737369039095
30
0
41
1
10
78.1361363099759
20
-4.14398211128378
30
0
41
1
10
78.2653082573743
20
-3.4650189257801
30
0
41
1
10
78.3298942310735
20
-3.1158540794215
30
0
41
1
10
78.459066178472
20
-2.41019641186185
30
0
41
1
10
78.5236521521712
20
-2.05373890344137
30
0
41
1
10
78.5882381258704
20
-1.69918802091087
30
0
0
SPLINE
5
F7
100
AcDbEntity
8
1
62
256
6
ByLayer
370
13
48
1
60
0
100
AcDbSpline
70
4
71
3
72
8
73
4
40
0
40
0
40
0
40
0
40
1
40
1
40
1
40
1
41
1
10
69.9
20
7.90579835371372
30
0
41
1
10
69.9763640749161
20
7.97021982003304
30
0
41
1
10
70.0527281498323
20
8
30
0
41
1
10
70.1290922247485
20
8
30
0
0
SPLINE
5
F8
100
AcDbEntity
8
1
62
256
6
ByLayer
370
13
48
1
60
0
100
AcDbSpline
70
4
71
3
72
82
73
78
40
0
40
0
40
0
40
0
40
0.0312499999999998
40
0.0312499999999998
40
0.0624999999999996
40
0.0624999999999996
40
0.0937499999999994
40
0.0937499999999994
40
0.124999999999999
40
0.124999999999999
40
0.156249999999999
40
0.156249999999999
40
0.187499999999999
40
0.187499999999999
40
0.218749999999999
40
0.218749999999999
40
0.249999999999998
40
0.249999999999998
40
0.281249999999998
40
0.281249999999998
40
0.312499999999998
40
0.312499999999998
40
0.320312499999998
40
0.320312499999998
40
0.328124999999998
40
0.328124999999998
40
0.343749999999998
40
0.343749999999998
40
0.374999999999998
40
0.374999999999998
40
0.406249999999998
40
0.406249999999998
40
0.437499999999998
40
0.437499999999998
40
0.468749999999998
40
0.468749999999998
40
0.499999999999998
40
0.499999999999998
40
0.531249999999998
40
0.531249999999998
40
0.562499999999998
40
0.562499999999998
40
0.593749999999998
40
0.593749999999998
40
0.624999999999998
40
0.624999999999998
40
0.640624999999998
40
0.640624999999998
40
0.648437499999998
40
0.648437499999998
40
0.656249999999999
40
0.656249999999999
40
0.687499999999999
40
0.687499999999999
40
0.718749999999999
40
0.718749999999999
40
0.749999999999999
40
0.749999999999999
40
0.781249999999999
40
0.781249999999999
40
0.812499999999999
40
0.812499999999999
40
0.843749999999999
40
0.843749999999999
40
0.874999999999999
40
0.874999999999999
40
0.90625
40
0.90625
40
0.9375
40
0.9375
40
0.96875
40
0.96875
40
0.9765625
40
0.9765625
40
0.984375
40
0.984375
40
1
40
1
40
1
40
1
41
1
10
71.8903878074788
20
8
30
0
41
1
10
71.9601570816287
20
8
30
0
41
1
10
72.0299263557785
20
7.97515937692137
30
0
41
1
10
72.1694649040784
20
7.86827898626578
30
0
41
1
10
72.2392341782283
20
7.78619382492519
30
0
41
1
10
72.3787727265282
20
7.55990838478181
30
0
41
1
10
72.448542000678
20
7.41567138921636
30
0
41
1
10
72.5880805489779
20
7.06413293070347
30
0
41
1
10
72.6578498231278
20
6.85681611565096
30
0
41
1
10
72.7973883714276
20
6.38296430542013
30
0
41
1
10
72.8671576455774
20
6.11644383027641
30
0
41
1
10
73.0066961938772
20
5.53286498094243
30
0
41
1
10
73.0764654680272
20
5.21585033349052
30
0
41
1
10
73.2160040163271
20
4.54391067686444
30
0
41
1
10
73.285773290477
20
4.18904782257266
30
0
41
1
10
73.4253118387768
20
3.45634805504784
30
0
41
1
10
73.4950811129267
20
3.07857520423127
30
0
41
1
10
73.6346196612265
20
2.31534109190864
30
0
41
1
10
73.7043889353764
20
1.92993064544683
30
0
41
1
10
73.8439274836762
20
1.16527895348429
30
0
41
1
10
73.9136967578262
20
0.786066951194186
30
0
41
1
10
74.0009083505136
20
0.322910274360027
30
0
41
1
10
74.0183506690511
20
0.230814447898524
30
0
41
1
10
74.0532353061261
20
0.0478375782343505
30
0
41
1
10
74.0706776246635
20
-0.0427115564832263
30
0
41
1
10
74.1230045802758
20
-0.317108472886446
30
0
41
1
10
74.1578892173509
20
-0.502480712529405
30
0
41
1
10
74.2625431285758
20
-1.06412302578596
30
0
41
1
10
74.3323124027257
20
-1.44600682645518
30
0
41
1
10
74.4718509510255
20
-2.21282384596154
30
0
41
1
10
74.5416202251754
20
-2.597722215114
30
0
41
1
10
74.6811587734753
20
-3.35626229741973
30
0
41
1
10
74.7509280476251
20
-3.72984885748025
30
0
41
1
10
74.890466595925
20
-4.45040604593123
30
0
41
1
10
74.9602358700749
20
-4.79731150569586
30
0
41
1
10
75.0997744183747
20
-5.44994656351125
30
0
41
1
10
75.1695436925246
20
-5.75561710441784
30
0
41
1
10
75.3090822408244
20
-6.31395080177924
30
0
41
1
10
75.3788515149743
20
-6.56657675052966
30
0
41
1
10
75.5183900632742
20
-7.01121905547046
30
0
41
1
10
75.5881593374241
20
-7.20322856735612
30
0
41
1
10
75.727697885724
20
-7.52394946088671
30
0
41
1
10
75.7974671598739
20
-7.65268248489622
30
0
41
1
10
75.9370057081737
20
-7.84883663708891
30
0
41
1
10
76.0067749823235
20
-7.91629781621663
30
0
41
1
10
76.1114288935485
20
-7.97577407509141
30
0
41
1
10
76.1463135306235
20
-7.98867176823623
30
0
41
1
10
76.1986404862359
20
-7.99833304008445
30
0
41
1
10
76.2160828047734
20
-7.99994026833855
30
0
41
1
10
76.2509674418483
20
-8.00005646209067
30
0
41
1
10
76.2684097603857
20
-7.99856779683591
30
0
41
1
10
76.3556213530732
20
-7.98307047109375
30
0
41
1
10
76.425390627223
20
-7.94481108505511
30
0
41
1
10
76.5649291755228
20
-7.8095854116163
30
0
41
1
10
76.6346984496728
20
-7.71257467845768
30
0
41
1
10
76.7742369979727
20
-7.45579560961608
30
0
41
1
10
76.8440062721226
20
-7.29599468257118
30
0
41
1
10
76.9835448204225
20
-6.91381118599219
30
0
41
1
10
77.0533140945723
20
-6.69142009267605
30
0
41
1
10
77.1928526428721
20
-6.1891202887241
30
0
41
1
10
77.262621917022
20
-5.9092337392201
30
0
41
1
10
77.4021604653219
20
-5.30170789295073
30
0
41
1
10
77.4719297394717
20
-4.97411817089747
30
0
41
1
10
77.6114682877715
20
-4.28455247256363
30
0
41
1
10
77.6812375619215
20
-3.92264071810069
30
0
41
1
10
77.8207761102213
20
-3.17963543081302
30
0
41
1
10
77.8905453843712
20
-2.79860391468657
30
0
41
1
10
78.0300839326711
20
-2.03244232407781
30
0
41
1
10
78.099853206821
20
-1.6473582205607
30
0
41
1
10
78.2393917551207
20
-0.886385663508435
30
0
41
1
10
78.3091610292707
20
-0.51052084245552
30
0
41
1
10
78.3963726219581
20
-0.0529649300983976
30
0
41
1
10
78.4138149404956
20
0.0375868674831281
30
0
41
1
10
78.4486995775706
20
0.220472456406412
30
0
41
1
10
78.466141896108
20
0.312525217514491
30
0
41
1
10
78.5184688517204
20
0.590298459507579
30
0
41
1
10
78.5533534887956
20
0.777639980786063
30
0
41
1
10
78.5882381258704
20
0.966493337570085
30
0
0
SPLINE
5
F9
100
AcDbEntity
8
1
62
256
6
ByLayer
370
13
48
1
60
0
100
AcDbSpline
70
4
71
3
72
8
73
4
40
0
40
0
40
0
40
0
40
1
40
1
40
1
40
1
41
1
10
78.5882381258703
20
-6.50872347007896
30
0
41
1
10
79.5588254172469
20
-4.33463428632459
30
0
41
1
10
80.5294127086235
20
-2.1650506054705
30
0
41
1
10
81.5000000000001
20
1.421E-13
30
0
0
SPLINE
5
FA
100
AcDbEntity
8
1
62
256
6
ByLayer
370
13
48
1
60
0
100
AcDbSpline
70
4
71
3
72
8
73
4
40
0
40
0
40
0
40
0
40
1
40
1
40
1
40
1
41
1
10
78.5882381258704
20
5.19218219167826
30
0
41
1
10
79.5588254172469
20
3.46736193607109
30
0
41
1
10
80.5294127086234
20
1.73662719364054
30
0
41
1
10
81.4999999999999
20
1.99E-13
30
0
0
SPLINE
5
FB
100
AcDbEntity
8
1
62
256
6
ByLayer
370
13
48
1
60
0
100
AcDbSpline
70
4
71
3
72
8
73
4
40
0
40
0
40
0
40
0
40
1
40
1
40
1
40
1
41
1
10
78.5882381258705
20
3.15287952403486
30
0
41
1
10
79.5588254172469
20
2.1090559319843
30
0
41
1
10
80.5294127086235
20
1.05809162535209
30
0
41
1
10
81.4999999999999
20
5.68E-14
30
0
0
SPLINE
5
FC
100
AcDbEntity
8
1
62
256
6
ByLayer
370
13
48
1
60
0
100
AcDbSpline
70
4
71
3
72
8
73
4
40
0
40
0
40
0
40
0
40
1
40
1
40
1
40
1
41
1
10
78.5882381258705
20
-0.373470549216847
30
0
41
1
10
79.5588254172469
20
-0.241224133538537
30
0
41
1
10
80.5294127086233
20
-0.116733433690513
30
0
41
1
10
81.4999999999998
20
-2.84E-14
30
0
0
SPLINE
5
FD
100
AcDbEntity
8
1
62
256
6
ByLayer
370
13
48
1
60
0
100
AcDbSpline
70
4
71
3
72
8
73
4
40
0
40
0
40
0
40
0
40
1
40
1
40
1
40
1
41
1
10
78.5882381258705
20
-1.56818565591357
30
0
41
1
10
79.5588254172469
20
-1.03784304653019
30
0
41
1
10
80.5294127086235
20
-0.515112289379971
30
0
41
1
10
81.4999999999999
20
-2.84E-14
30
0
0
SPLINE
5
FE
100
AcDbEntity
8
1
62
256
6
ByLayer
370
13
48
1
60
0
100
AcDbSpline
70
4
71
3
72
8
73
4
40
0
40
0
40
0
40
0
40
1
40
1
40
1
40
1
41
1
10
78.5882381258703
20
-7.68154297552863
30
0
41
1
10
79.558825417247
20
-5.12319762468763
30
0
41
1
10
80.5294127086237
20
-2.56267244197639
30
0
41
1
10
81.5000000000003
20
7.674E-13
30
0
0
SPLINE
5
FF
100
AcDbEntity
8
1
62
256
6
ByLayer
370
13
48
1
60
0
100
AcDbSpline
70
4
71
3
72
8
73
4
40
0
40
0
40
0
40
0
40
1
40
1
40
1
40
1
41
1
10
78.5882381258703
20
-7.9298729608995
30
0
41
1
10
79.5588254172469
20
-5.2876078230949
30
0
41
1
10
80.5294127086233
20
-2.64430562930428
30
0
41
1
10
81.4999999999998
20
-4.263E-13
30
0
0
SPLINE
5
100
100
AcDbEntity
8
1
62
256
6
ByLayer
370
13
48
1
60
0
100
AcDbSpline
70
4
71
3
72
8
73
4
40
0
40
0
40
0
40
0
40
1
40
1
40
1
40
1
41
1
10
78.5882381258705
20
2.01408622989061
30
0
41
1
10
79.5588254172469
20
1.3502387467517
30
0
41
1
10
80.5294127086235
20
0.678873813481204
30
0
41
1
10
81.4999999999999
20
2.84E-14
30
0
0
SPLINE
5
101
100
AcDbEntity
8
1
62
256
6
ByLayer
370
13
48
1
60
0
100
AcDbSpline
70
4
71
3
72
8
73
4
40
0
40
0
40
0
40
0
40
1
40
1
40
1
40
1
41
1
10
78.5882381258706
20
-0.662375744823322
30
0
41
1
10
79.558825417247
20
-0.449321867627361
30
0
41
1
10
80.5294127086234
20
-0.228529005776238
30
0
41
1
10
81.4999999999998
20
-2.84E-14
30
0
0
SPLINE
5
102
100
AcDbEntity
8
1
62
256
6
ByLayer
370
13
48
1
60
0
100
AcDbSpline
70
4
71
3
72
8
73
4
40
0
40
0
40
0
40
0
40
1
40
1
40
1
40
1
41
1
10
78.5882381258706
20
-4.07660746558298
30
0
41
1
10
79.558825417247
20
-2.72441925630915
30
0
41
1
10
80.5294127086234
20
-1.36554433118934
30
0
41
1
10
81.4999999999998
20
-2.274E-13
30
0
0
SPLINE
5
103
100
AcDbEntity
8
1
62
256
6
ByLayer
370
13
48
1
60
0
100
AcDbSpline
70
4
71
3
72
8
73
4
40
0
40
0
40
0
40
0
40
1
40
1
40
1
40
1
41
1
10
78.5882381258704
20
7.32833913226608
30
0
41
1
10
79.5588254172469
20
4.88867369804757
30
0
41
1
10
80.5294127086235
20
2.44588362751935
30
0
41
1
10
81.5
20
-2.84E-14
30
0
0
SPLINE
5
104
100
AcDbEntity
8
1
62
256
6
ByLayer
370
13
48
1
60
0
100
AcDbSpline
70
4
71
3
72
8
73
4
40
0
40
0
40
0
40
0
40
1
40
1
40
1
40
1
41
1
10
78.5882381258704
20
6.76399299843143
30
0
41
1
10
79.5588254172469
20
4.51347483443973
30
0
41
1
10
80.5294127086235
20
2.25880093785241
30
0
41
1
10
81.5
20
-2.84E-14
30
0
0
SPLINE
5
105
100
AcDbEntity
8
1
62
256
6
ByLayer
370
13
48
1
60
0
100
AcDbSpline
70
4
71
3
72
8
73
4
40
0
40
0
40
0
40
0
40
1
40
1
40
1
40
1
41
1
10
78.5882381258705
20
0.8296990066859
30
0
41
1
10
79.5588254172469
20
0.560855497007822
30
0
41
1
10
80.5294127086235
20
0.284287978119778
30
0
41
1
10
81.4999999999999
20
0
30
0
0
SPLINE
5
106
100
AcDbEntity
8
1
62
256
6
ByLayer
370
13
48
1
60
0
100
AcDbSpline
70
4
71
3
72
8
73
4
40
0
40
0
40
0
40
0
40
1
40
1
40
1
40
1
41
1
10
78.5882381258706
20
2.88477795551051
30
0
41
1
10
79.558825417247
20
1.91594300163894
30
0
41
1
10
80.5294127086234
20
0.954346283675847
30
0
41
1
10
81.4999999999998
20
1.705E-13
30
0
0
SPLINE
5
107
100
AcDbEntity
8
1
62
256
6
ByLayer
370
13
48
1
60
0
100
AcDbSpline
70
4
71
3
72
8
73
4
40
0
40
0
40
0
40
0
40
1
40
1
40
1
40
1
41
1
10
78.5882381258704
20
4.22029942650329
30
0
41
1
10
79.5588254172469
20
2.82012930907192
30
0
41
1
10
80.5294127086235
20
1.41335686071963
30
0
41
1
10
81.5
20
0
30
0
0
SPLINE
5
108
100
AcDbEntity
8
1
62
256
6
ByLayer
370
13
48
1
60
0
100
AcDbSpline
70
4
71
3
72
8
73
4
40
0
40
0
40
0
40
0
40
1
40
1
40
1
40
1
41
1
10
78.5882381258706
20
-1.85100827828384
30
0
41
1
10
79.558825417247
20
-1.24155951739797
30
0
41
1
10
80.5294127086234
20
-0.624554131712756
30
0
41
1
10
81.4999999999998
20
-1.137E-13
30
0
0
SPLINE
5
109
100
AcDbEntity
8
1
62
256
6
ByLayer
370
13
48
1
60
0
100
AcDbSpline
70
4
71
3
72
8
73
4
40
0
40
0
40
0
40
0
40
1
40
1
40
1
40
1
41
1
10
78.5882381258706
20
7.6467277133315
30
0
41
1
10
79.558825417247
20
5.09553655170348
30
0
41
1
10
80.5294127086234
20
2.54661651187709
30
0
41
1
10
81.4999999999998
20
4.263E-13
30
0
0
SPLINE
5
10A
100
AcDbEntity
8
1
62
256
6
ByLayer
370
13
48
1
60
0
100
AcDbSpline
70
4
71
3
72
8
73
4
40
0
40
0
40
0
40
0
40
1
40
1
40
1
40
1
41
1
10
78.5882381258703
20
-7.1329247544505
30
0
41
1
10
79.5588254172469
20
-4.7517673674578
30
0
41
1
10
80.5294127086235
20
-2.37411570836872
30
0
41
1
10
81.5000000000001
20
1.705E-13
30
0
0
SPLINE
5
10B
100
AcDbEntity
8
1
62
256
6
ByLayer
370
13
48
1
60
0
100
AcDbSpline
70
4
71
3
72
8
73
4
40
0
40
0
40
0
40
0
40
1
40
1
40
1
40
1
41
1
10
78.5882381258703
20
-7.59565427042335
30
0
41
1
10
79.558825417247
20
-5.06133219205424
30
0
41
1
10
80.5294127086237
20
-2.52943670558616
30
0
41
1
10
81.5000000000003
20
7.674E-13
30
0
0
SPLINE
5
10C
100
AcDbEntity
8
1
62
256
6
ByLayer
370
13
48
1
60
0
100
AcDbSpline
70
4
71
3
72
8
73
4
40
0
40
0
40
0
40
0
40
1
40
1
40
1
40
1
41
1
10
78.5882381258706
20
7.2074411645267
30
0
41
1
10
79.558825417247
20
4.80159117573555
30
0
41
1
10
80.5294127086234
20
2.39910060778527
30
0
41
1
10
81.4999999999998
20
3.979E-13
30
0
0
SPLINE
5
10D
100
AcDbEntity
8
1
62
256
6
ByLayer
370
13
48
1
60
0
100
AcDbSpline
70
4
71
3
72
8
73
4
40
0
40
0
40
0
40
0
40
1
40
1
40
1
40
1
41
1
10
78.5882381258704
20
7.72678979967591
30
0
41
1
10
79.5588254172469
20
5.15320508452331
30
0
41
1
10
80.5294127086235
20
2.57759756338211
30
0
41
1
10
81.5
20
-2.84E-14
30
0
0
SPLINE
5
10E
100
AcDbEntity
8
1
62
256
6
ByLayer
370
13
48
1
60
0
100
AcDbSpline
70
4
71
3
72
8
73
4
40
0
40
0
40
0
40
0
40
1
40
1
40
1
40
1
41
1
10
78.5882381258706
20
3.97162584847726
30
0
41
1
10
79.558825417247
20
2.64101031466851
30
0
41
1
10
80.5294127086234
20
1.31712942922738
30
0
41
1
10
81.4999999999998
20
2.274E-13
30
0
0
SPLINE
5
10F
100
AcDbEntity
8
1
62
256
6
ByLayer
370
13
48
1
60
0
100
AcDbSpline
70
4
71
3
72
8
73
4
40
0
40
0
40
0
40
0
40
1
40
1
40
1
40
1
41
1
10
78.5882381258704
20
7.95032506338398
30
0
41
1
10
79.5588254172469
20
5.30108065777176
30
0
41
1
10
80.5294127086235
20
2.65096106781493
30
0
41
1
10
81.5
20
0
30
0
0
SPLINE
5
110
100
AcDbEntity
8
1
62
256
6
ByLayer
370
13
48
1
60
0
100
AcDbSpline
70
4
71
3
72
8
73
4
40
0
40
0
40
0
40
0
40
1
40
1
40
1
40
1
41
1
10
78.5882381258703
20
-7.25932186260656
30
0
41
1
10
79.5588254172469
20
-4.84281090770094
30
0
41
1
10
80.5294127086235
20
-2.42302669104117
30
0
41
1
10
81.5000000000001
20
1.705E-13
30
0
0
SPLINE
5
111
100
AcDbEntity
8
1
62
256
6
ByLayer
370
13
48
1
60
0
100
AcDbSpline
70
4
71
3
72
8
73
4
40
0
40
0
40
0
40
0
40
1
40
1
40
1
40
1
41
1
10
78.5882381258706
20
0.541251336672246
30
0
41
1
10
79.558825417247
20
0.353087317529344
30
0
41
1
10
80.5294127086234
20
0.172669451432256
30
0
41
1
10
81.4999999999998
20
2.84E-14
30
0
0
SPLINE
5
112
100
AcDbEntity
8
1
62
256
6
ByLayer
370
13
48
1
60
0
100
AcDbSpline
70
4
71
3
72
8
73
4
40
0
40
0
40
0
40
0
40
1
40
1
40
1
40
1
41
1
10
78.5882381258705
20
-2.72740091931251
30
0
41
1
10
79.5588254172469
20
-1.81096776074469
30
0
41
1
10
80.5294127086235
20
-0.901830277311348
30
0
41
1
10
81.4999999999999
20
-5.68E-14
30
0
0
SPLINE
5
113
100
AcDbEntity
8
1
62
256
6
ByLayer
370
13
48
1
60
0
100
AcDbSpline
70
4
71
3
72
8
73
4
40
0
40
0
40
0
40
0
40
1
40
1
40
1
40
1
41
1
10
78.5882381258703
20
-3.82487457394183
30
0
41
1
10
79.5588254172469
20
-2.54309664549137
30
0
41
1
10
80.5294127086235
20
-1.26813305904244
30
0
41
1
10
81.5000000000001
20
8.53E-14
30
0
0
SPLINE
5
114
100
AcDbEntity
8
1
62
256
6
ByLayer
370
13
48
1
60
0
100
AcDbSpline
70
4
71
3
72
8
73
4
40
0
40
0
40
0
40
0
40
1
40
1
40
1
40
1
41
1
10
78.5882381258703
20
-7.88643696662561
30
0
41
1
10
79.558825417247
20
-5.25632097840028
30
0
41
1
10
80.5294127086237
20
-2.62749751403655
30
0
41
1
10
81.5000000000003
20
7.958E-13
30
0
0
SPLINE
5
115
100
AcDbEntity
8
1
62
256
6
ByLayer
370
13
48
1
60
0
100
AcDbSpline
70
4
71
3
72
8
73
4
40
0
40
0
40
0
40
0
40
1
40
1
40
1
40
1
41
1
10
78.5882381258706
20
5.85303002867093
30
0
41
1
10
79.558825417247
20
3.89672679876531
30
0
41
1
10
80.5294127086234
20
1.94570852601404
30
0
41
1
10
81.4999999999998
20
3.126E-13
30
0
0
SPLINE
5
116
100
AcDbEntity
8
1
62
256
6
ByLayer
370
13
48
1
60
0
100
AcDbSpline
70
4
71
3
72
8
73
4
40
0
40
0
40
0
40
0
40
1
40
1
40
1
40
1
41
1
10
78.5882381258706
20
7.91291126598247
30
0
41
1
10
79.558825417247
20
5.27413158734566
30
0
41
1
10
80.5294127086234
20
2.63648331889272
30
0
41
1
10
81.4999999999998
20
4.263E-13
30
0
0
SPLINE
5
117
100
AcDbEntity
8
1
62
256
6
ByLayer
370
13
48
1
60
0
100
AcDbSpline
70
4
71
3
72
8
73
4
40
0
40
0
40
0
40
0
40
1
40
1
40
1
40
1
41
1
10
78.5882381258703
20
-5.06319206032401
30
0
41
1
10
79.5588254172469
20
-3.38147306980261
30
0
41
1
10
80.5294127086233
20
-1.6937352199464
30
0
41
1
10
81.4999999999998
20
-2.842E-13
30
0
0
SPLINE
5
118
100
AcDbEntity
8
1
62
256
6
ByLayer
370
13
48
1
60
0
100
AcDbSpline
70
4
71
3
72
8
73
4
40
0
40
0
40
0
40
0
40
1
40
1
40
1
40
1
41
1
10
78.5882381258706
20
6.60499598016506
30
0
41
1
10
79.558825417247
20
4.39894965548402
30
0
41
1
10
80.5294127086234
20
2.19727500170711
30
0
41
1
10
81.4999999999998
20
3.695E-13
30
0
0
SPLINE
5
119
100
AcDbEntity
8
1
62
256
6
ByLayer
370
13
48
1
60
0
100
AcDbSpline
70
4
71
3
72
8
73
4
40
0
40
0
40
0
40
0
40
1
40
1
40
1
40
1
41
1
10
78.5882381258703
20
-7.99869024226001
30
0
41
1
10
79.5588254172469
20
-5.33231966280798
30
0
41
1
10
80.5294127086233
20
-2.6660782796358
30
0
41
1
10
81.4999999999998
20
-4.547E-13
30
0
0
SPLINE
5
11A
100
AcDbEntity
8
1
62
256
6
ByLayer
370
13
48
1
60
0
100
AcDbSpline
70
4
71
3
72
8
73
4
40
0
40
0
40
0
40
0
40
1
40
1
40
1
40
1
41
1
10
78.5882381258706
20
1.73262582705138
30
0
41
1
10
79.558825417247
20
1.1475034794139
30
0
41
1
10
80.5294127086234
20
0.569959099473294
30
0
41
1
10
81.4999999999998
20
8.53E-14
30
0
0
SPLINE
5
11B
100
AcDbEntity
8
1
62
256
6
ByLayer
370
13
48
1
60
0
100
AcDbSpline
70
4
71
3
72
8
73
4
40
0
40
0
40
0
40
0
40
1
40
1
40
1
40
1
41
1
10
78.5882381258703
20
-5.73718079000906
30
0
41
1
10
79.558825417247
20
-3.81937580955491
30
0
41
1
10
80.5294127086237
20
-1.90697411355936
30
0
41
1
10
81.5000000000003
20
5.684E-13
30
0
0
SPLINE
5
11C
100
AcDbEntity
8
1
62
256
6
ByLayer
370
13
48
1
60
0
100
AcDbSpline
70
4
71
3
72
8
73
4
40
0
40
0
40
0
40
0
40
1
40
1
40
1
40
1
41
1
10
78.5882381258704
20
6.04652679835581
30
0
41
1
10
79.5588254172469
20
4.03610206766751
30
0
41
1
10
80.5294127086235
20
2.02058458360165
30
0
41
1
10
81.5
20
-2.84E-14
30
0
0
SPLINE
5
11D
100
AcDbEntity
8
1
62
256
6
ByLayer
370
13
48
1
60
0
100
AcDbSpline
70
4
71
3
72
8
73
4
40
0
40
0
40
0
40
0
40
1
40
1
40
1
40
1
41
1
10
78.5882381258706
20
4.96856595869733
30
0
41
1
10
79.558825417247
20
3.3062916884727
30
0
41
1
10
80.5294127086234
20
1.65009602329846
30
0
41
1
10
81.4999999999998
20
2.842E-13
30
0
0
SPLINE
5
11E
100
AcDbEntity
8
1
62
256
6
ByLayer
370
13
48
1
60
0
100
AcDbSpline
70
4
71
3
72
8
73
4
40
0
40
0
40
0
40
0
40
1
40
1
40
1
40
1
41
1
10
78.5882381258703
20
-4.83576253159274
30
0
41
1
10
79.5588254172469
20
-3.21765611422813
30
0
41
1
10
80.5294127086235
20
-1.6057284458889
30
0
41
1
10
81.5000000000001
20
1.137E-13
30
0
0
SPLINE
5
11F
100
AcDbEntity
8
1
62
256
6
ByLayer
370
13
48
1
60
0
100
AcDbSpline
70
4
71
3
72
8
73
4
40
0
40
0
40
0
40
0
40
1
40
1
40
1
40
1
41
1
10
78.5882381258703
20
-5.93515851399818
30
0
41
1
10
79.558825417247
20
-3.96197869932195
30
0
41
1
10
80.5294127086237
20
-1.98358413390574
30
0
41
1
10
81.5000000000003
20
5.969E-13
30
0
0
SPLINE
5
120
100
AcDbEntity
8
1
62
256
6
ByLayer
370
13
48
1
60
0
100
AcDbSpline
70
4
71
3
72
8
73
4
40
0
40
0
40
0
40
0
40
1
40
1
40
1
40
1
41
1
10
78.5882381258703
20
-6.67276766348459
30
0
41
1
10
79.558825417247
20
-4.45279493368307
30
0
41
1
10
80.5294127086237
20
-2.22852961079099
30
0
41
1
10
81.5000000000003
20
6.821E-13
30
0
0
SPLINE
5
121
100
AcDbEntity
8
1
62
256
6
ByLayer
370
13
48
1
60
0
100
AcDbSpline
70
4
71
3
72
8
73
4
40
0
40
0
40
0
40
0
40
1
40
1
40
1
40
1
41
1
10
78.5882381258706
20
-2.99773856402632
30
0
41
1
10
79.558825417247
20
-2.00569133151942
30
0
41
1
10
80.5294127086234
20
-1.00644089735806
30
0
41
1
10
81.4999999999998
20
-1.705E-13
30
0
0
LINE
5
7D
100
AcDbEntity
8
80
62
256
6
ByLayer
370
18
48
1
60
0
100
AcDbLine
10
0
20
0
30
0
11
-5
21
0
31
0
39
0
210
0
220
0
230
1
0
LINE
5
7E
100
AcDbEntity
8
4
62
256
6
ByLayer
370
18
48
0.05
60
0
100
AcDbLine
10
-5
20
0
30
0
11
86.5
21
0
31
0
39
0
210
0
220
0
230
1
0
LINE
5
80
100
AcDbEntity
8
81
62
256
6
ByLayer
370
18
48
1
60
0
100
AcDbLine
10
81.5
20
0
30
0
11
86.5
21
0
31
0
39
0
210
0
220
0
230
1
0
LINE
5
81
100
AcDbEntity
8
SK4
62
256
6
ByLayer
370
18
48
0.05
60
0
100
AcDbLine
10
-55
20
0
30
0
11
86.5
21
0
31
0
39
0
210
0
220
0
230
1
0
LINE
5
83
100
AcDbEntity
8
1
62
256
6
ByLayer
370
18
48
1
60
0
100
AcDbLine
10
10
20
-7.7
30
0
11
40.606557
21
-7.7
31
0
39
0
210
0
220
0
230
1
0
LINE
5
84
100
AcDbEntity
8
1
62
256
6
ByLayer
370
18
48
1
60
0
100
AcDbLine
10
40.606557
20
7.7
30
0
11
10
21
7.7
31
0
39
0
210
0
220
0
230
1
0
LINE
5
85
100
AcDbEntity
8
1
62
256
6
ByLayer
370
18
48
1
60
0
100
AcDbLine
10
81.5
20
0
30
0
11
78.588238
21
8
31
0
39
0
210
0
220
0
230
1
0
LINE
5
86
100
AcDbEntity
8
1
62
256
6
ByLayer
370
18
48
1
60
0
100
AcDbLine
10
78.588238
20
-8
30
0
11
81.5
21
0
31
0
39
0
210
0
220
0
230
1
0
LINE
5
87
100
AcDbEntity
8
1
62
256
6
ByLayer
370
18
48
1
60
0
100
AcDbLine
10
10
20
7.7
30
0
11
0
21
10
31
0
39
0
210
0
220
0
230
1
0
LINE
5
88
100
AcDbEntity
8
1
62
256
6
ByLayer
370
18
48
1
60
0
100
AcDbLine
10
0
20
-10
30
0
11
10
21
-7.7
31
0
39
0
210
0
220
0
230
1
0
LINE
5
89
100
AcDbEntity
8
1
62
256
6
ByLayer
370
18
48
1
60
0
100
AcDbLine
10
69.9
20
-8
30
0
11
78.588238
21
-8
31
0
39
0
210
0
220
0
230
1
0
LINE
5
8A
100
AcDbEntity
8
1
62
256
6
ByLayer
370
18
48
1
60
0
100
AcDbLine
10
81.5
20
0
30
0
11
78.588238
21
8
31
0
39
0
210
0
220
0
230
1
0
LINE
5
8B
100
AcDbEntity
8
1
62
256
6
ByLayer
370
18
48
1
60
0
100
AcDbLine
10
78.588238
20
-8
30
0
11
81.5
21
0
31
0
39
0
210
0
220
0
230
1
0
LINE
5
8C
100
AcDbEntity
8
SK1
62
256
6
ByLayer
370
18
48
1
60
0
100
AcDbLine
10
-49
20
-10
30
0
11
0
21
-10
31
0
39
0
210
0
220
0
230
1
0
LINE
5
8E
100
AcDbEntity
8
SK1
62
256
6
ByLayer
370
18
48
1
60
0
100
AcDbLine
10
0
20
10
30
0
11
-49
21
10
31
0
39
0
210
0
220
0
230
1
0
LINE
5
8F
100
AcDbEntity
8
SK1
62
256
6
ByLayer
370
18
48
1
60
0
100
AcDbLine
10
-50
20
-9
30
0
11
-49
21
-10
31
0
39
0
210
0
220
0
230
1
0
LINE
5
90
100
AcDbEntity
8
SK1
62
256
6
ByLayer
370
18
48
1
60
0
100
AcDbLine
10
-49
20
10
30
0
11
-50
21
9
31
0
39
0
210
0
220
0
230
1
0
LINE
5
91
100
AcDbEntity
8
1
62
256
6
ByLayer
370
18
48
1
60
0
100
AcDbLine
10
0
20
10
30
0
11
0
21
-10
31
0
39
0
210
0
220
0
230
1
0
LINE
5
92
100
AcDbEntity
8
1
62
256
6
ByLayer
370
18
48
1
60
0
100
AcDbLine
10
78.588238
20
8
30
0
11
78.588238
21
7.745999
31
0
39
0
210
0
220
0
230
1
0
LINE
5
93
100
AcDbEntity
8
1
62
256
6
ByLayer
370
18
48
1
60
0
100
AcDbLine
10
78.588238
20
-8
30
0
11
78.588238
21
-1.140871
31
0
39
0
210
0
220
0
230
1
0
LINE
5
94
100
AcDbEntity
8
1
62
256
6
ByLayer
370
18
48
1
60
0
100
AcDbLine
10
10
20
-7.7
30
0
11
10
21
-1.170324
31
0
39
0
210
0
220
0
230
1
0
LINE
5
95
100
AcDbEntity
8
1
62
256
6
ByLayer
370
18
48
1
60
0
100
AcDbLine
10
10
20
7.7
30
0
11
10
21
6.999185
31
0
39
0
210
0
220
0
230
1
0
LINE
5
96
100
AcDbEntity
8
SK1
62
256
6
ByLayer
370
13
48
1
60
0
100
AcDbLine
10
-14.992177
20
-6.1943
30
0
11
-14.992177
21
6.1943
31
0
39
0
210
0
220
0
230
1
0
LINE
5
97
100
AcDbEntity
8
SK1
62
256
6
ByLayer
370
13
48
1
60
0
100
AcDbLine
10
-42.24218
20
4.745825
30
0
11
-42.24218
21
-4.745825
31
0
39
0
210
0
220
0
230
1
0
LINE
5
98
100
AcDbEntity
8
SK1
62
256
6
ByLayer
370
13
48
1
60
0
100
AcDbLine
10
-13.845141
20
5.608199
30
0
11
-13.845141
21
-5.608199
31
0
39
0
210
0
220
0
230
1
0
LINE
5
99
100
AcDbEntity
8
SK1
62
256
6
ByLayer
370
18
48
1
60
0
100
AcDbLine
10
0
20
10
30
0
11
0
21
-10
31
0
39
0
210
0
220
0
230
1
0
LINE
5
9A
100
AcDbEntity
8
SK1
62
256
6
ByLayer
370
18
48
1
60
0
100
AcDbLine
10
-50
20
-9
30
0
11
-50
21
9
31
0
39
0
210
0
220
0
230
1
0
LINE
5
9B
100
AcDbEntity
8
SK1
62
256
6
ByLayer
370
18
48
1
60
0
100
AcDbLine
10
-49
20
-10
30
0
11
-49
21
10
31
0
39
0
210
0
220
0
230
1
0
LINE
5
9C
100
AcDbEntity
8
SK1
62
256
6
ByLayer
370
13
48
1
60
0
100
AcDbLine
10
-43.356507
20
-3.65035
30
0
11
-43.356507
21
3.65035
31
0
39
0
210
0
220
0
230
1
0
LINE
5
9D
100
AcDbEntity
8
1
62
256
6
ByLayer
370
18
48
1
60
0
100
AcDbLine
10
78.588238
20
8
30
0
11
78.588238
21
-8
31
0
39
0
210
0
220
0
230
1
0
LINE
5
9E
100
AcDbEntity
8
1
62
256
6
ByLayer
370
18
48
1
60
0
100
AcDbLine
10
78.588238
20
8
30
0
11
78.588238
21
-8
31
0
39
0
210
0
220
0
230
1
0
LINE
5
9F
100
AcDbEntity
8
1
62
256
6
ByLayer
370
18
48
1
60
0
100
AcDbLine
10
78.588238
20
8
30
0
11
78.588238
21
-8
31
0
39
0
210
0
220
0
230
1
0
LINE
5
A0
100
AcDbEntity
8
1
62
256
6
ByLayer
370
18
48
1
60
0
100
AcDbLine
10
69.9
20
8
30
0
11
69.9
21
-8
31
0
39
0
210
0
220
0
230
1
0
LINE
5
A1
100
AcDbEntity
8
1
62
256
6
ByLayer
370
18
48
1
60
0
100
AcDbLine
10
69.9
20
8
30
0
11
69.9
21
-8
31
0
39
0
210
0
220
0
230
1
0
LINE
5
A2
100
AcDbEntity
8
1
62
256
6
ByLayer
370
18
48
1
60
0
100
AcDbLine
10
78.588238
20
8
30
0
11
78.588238
21
-8
31
0
39
0
210
0
220
0
230
1
0
LINE
5
A3
100
AcDbEntity
8
1
62
256
6
ByLayer
370
18
48
1
60
0
100
AcDbLine
10
69.9
20
8
30
0
11
69.9
21
-8
31
0
39
0
210
0
220
0
230
1
0
LINE
5
A4
100
AcDbEntity
8
1
62
256
6
ByLayer
370
18
48
1
60
0
100
AcDbLine
10
78.588238
20
8
30
0
11
78.588238
21
-8
31
0
39
0
210
0
220
0
230
1
0
LINE
5
A5
100
AcDbEntity
8
SK2
62
256
6
ByLayer
370
13
48
1
60
0
100
AcDbLine
10
-56.5
20
-10
30
0
11
-56.5
21
39.024569
31
0
39
0
210
0
220
0
230
1
0
LINE
5
A7
100
AcDbEntity
8
SK2
62
256
6
ByLayer
370
13
48
1
60
0
100
AcDbLine
10
-51.5875
20
10
30
0
11
-58.5
21
10
31
0
39
0
210
0
220
0
230
1
0
LINE
5
A8
100
AcDbEntity
8
SK2
62
256
6
ByLayer
370
13
48
1
60
0
100
AcDbLine
10
-51.5875
20
-10
30
0
11
-58.5
21
-10
31
0
39
0
210
0
220
0
230
1
0
LINE
5
A9
100
AcDbEntity
8
1
62
256
6
ByLayer
370
18
48
1
60
1
100
AcDbLine
10
-56.5
20
10
30
0
11
-56.039216
21
6.500002
31
0
39
0
210
0
220
0
230
1
0
LINE
5
AA
100
AcDbEntity
8
1
62
256
6
ByLayer
370
18
48
1
60
1
100
AcDbLine
10
-56.039216
20
6.500002
30
0
11
-56.960784
21
6.499998
31
0
39
0
210
0
220
0
230
1
0
LINE
5
AB
100
AcDbEntity
8
1
62
256
6
ByLayer
370
18
48
1
60
1
100
AcDbLine
10
-56.960784
20
6.499998
30
0
11
-56.5
21
10
31
0
39
0
210
0
220
0
230
1
0
LINE
5
AC
100
AcDbEntity
8
1
62
256
6
ByLayer
370
18
48
1
60
1
100
AcDbLine
10
-56.5
20
-10
30
0
11
-56.960784
21
-6.500002
31
0
39
0
210
0
220
0
230
1
0
LINE
5
AD
100
AcDbEntity
8
1
62
256
6
ByLayer
370
18
48
1
60
1
100
AcDbLine
10
-56.960784
20
-6.500002
30
0
11
-56.039216
21
-6.499998
31
0
39
0
210
0
220
0
230
1
0
LINE
5
AE
100
AcDbEntity
8
1
62
256
6
ByLayer
370
18
48
1
60
1
100
AcDbLine
10
-56.039216
20
-6.499998
30
0
11
-56.5
21
-10
31
0
39
0
210
0
220
0
230
1
0
LINE
5
AF
100
AcDbEntity
8
2
62
256
6
ByLayer
370
13
48
1
60
0
100
AcDbLine
10
89
20
-8
30
0
11
89
21
36.274683
31
0
39
0
210
0
220
0
230
1
0
LINE
5
B1
100
AcDbEntity
8
2
62
256
6
ByLayer
370
13
48
1
60
0
100
AcDbLine
10
80.175738
20
8
30
0
11
91
21
8
31
0
39
0
210
0
220
0
230
1
0
LINE
5
B2
100
AcDbEntity
8
2
62
256
6
ByLayer
370
13
48
1
60
0
100
AcDbLine
10
80.175738
20
-8
30
0
11
91
21
-8
31
0
39
0
210
0
220
0
230
1
0
LINE
5
B3
100
AcDbEntity
8
1
62
256
6
ByLayer
370
18
48
1
60
1
100
AcDbLine
10
89
20
8
30
0
11
89.460784
21
4.500002
31
0
39
0
210
0
220
0
230
1
0
LINE
5
B4
100
AcDbEntity
8
1
62
256
6
ByLayer
370
18
48
1
60
1
100
AcDbLine
10
89.460784
20
4.500002
30
0
11
88.539216
21
4.499998
31
0
39
0
210
0
220
0
230
1
0
LINE
5
B5
100
AcDbEntity
8
1
62
256
6
ByLayer
370
18
48
1
60
1
100
AcDbLine
10
88.539216
20
4.499998
30
0
11
89
21
8
31
0
39
0
210
0
220
0
230
1
0
LINE
5
B6
100
AcDbEntity
8
1
62
256
6
ByLayer
370
18
48
1
60
1
100
AcDbLine
10
89
20
-8
30
0
11
88.539216
21
-4.500002
31
0
39
0
210
0
220
0
230
1
0
LINE
5
B7
100
AcDbEntity
8
1
62
256
6
ByLayer
370
18
48
1
60
1
100
AcDbLine
10
88.539216
20
-4.500002
30
0
11
89.460784
21
-4.499998
31
0
39
0
210
0
220
0
230
1
0
LINE
5
B8
100
AcDbEntity
8
1
62
256
6
ByLayer
370
18
48
1
60
1
100
AcDbLine
10
89.460784
20
-4.499998
30
0
11
89
21
-8
31
0
39
0
210
0
220
0
230
1
0
LINE
5
B9
100
AcDbEntity
8
SK2
62
256
6
ByLayer
370
13
48
1
60
0
100
AcDbLine
10
82.042957
20
-1.491762
30
0
11
88.682423
21
-19.733545
31
0
39
0
210
0
220
0
230
1
0
LINE
5
BA
100
AcDbEntity
8
SK2
62
256
6
ByLayer
370
13
48
1
60
0
100
AcDbLine
10
82.042957
20
1.491762
30
0
11
88.682423
21
19.733545
31
0
39
0
210
0
220
0
230
1
0
LINE
5
BB
100
AcDbEntity
8
1
62
256
6
ByLayer
370
18
48
1
60
1
100
AcDbLine
10
87.998383
20
-17.85416
30
0
11
91.051575
21
-16.082064
31
0
39
0
210
0
220
0
230
1
0
LINE
5
BC
100
AcDbEntity
8
1
62
256
6
ByLayer
370
18
48
1
60
1
100
AcDbLine
10
91.051575
20
-16.082064
30
0
11
91.406196
21
-16.93267
31
0
39
0
210
0
220
0
230
1
0
LINE
5
BD
100
AcDbEntity
8
1
62
256
6
ByLayer
370
18
48
1
60
1
100
AcDbLine
10
91.406196
20
-16.93267
30
0
11
87.998383
21
-17.85416
31
0
39
0
210
0
220
0
230
1
0
LINE
5
BE
100
AcDbEntity
8
1
62
256
6
ByLayer
370
18
48
1
60
1
100
AcDbLine
10
87.998383
20
17.85416
30
0
11
91.406193
21
16.932671
31
0
39
0
210
0
220
0
230
1
0
LINE
5
BF
100
AcDbEntity
8
1
62
256
6
ByLayer
370
18
48
1
60
1
100
AcDbLine
10
91.406193
20
16.932671
30
0
11
91.051579
21
16.082063
31
0
39
0
210
0
220
0
230
1
0
LINE
5
C0
100
AcDbEntity
8
1
62
256
6
ByLayer
370
18
48
1
60
1
100
AcDbLine
10
91.051579
20
16.082063
30
0
11
87.998383
21
17.85416
31
0
39
0
210
0
220
0
230
1
0
LINE
5
126
100
AcDbEntity
8
1
62
256
6
ByLayer
370
18
48
1
60
1
100
AcDbLine
10
-56.5
20
10
30
0
11
-56.039216
21
6.500002
31
0
39
0
210
0
220
0
230
1
0
LINE
5
127
100
AcDbEntity
8
1
62
256
6
ByLayer
370
18
48
1
60
1
100
AcDbLine
10
-56.039216
20
6.500002
30
0
11
-56.960784
21
6.499998
31
0
39
0
210
0
220
0
230
1
0
LINE
5
128
100
AcDbEntity
8
1
62
256
6
ByLayer
370
18
48
1
60
1
100
AcDbLine
10
-56.960784
20
6.499998
30
0
11
-56.5
21
10
31
0
39
0
210
0
220
0
230
1
0
LINE
5
12A
100
AcDbEntity
8
1
62
256
6
ByLayer
370
18
48
1
60
1
100
AcDbLine
10
-56.5
20
-10
30
0
11
-56.960784
21
-6.500002
31
0
39
0
210
0
220
0
230
1
0
LINE
5
12B
100
AcDbEntity
8
1
62
256
6
ByLayer
370
18
48
1
60
1
100
AcDbLine
10
-56.960784
20
-6.500002
30
0
11
-56.039216
21
-6.499998
31
0
39
0
210
0
220
0
230
1
0
LINE
5
12C
100
AcDbEntity
8
1
62
256
6
ByLayer
370
18
48
1
60
1
100
AcDbLine
10
-56.039216
20
-6.499998
30
0
11
-56.5
21
-10
31
0
39
0
210
0
220
0
230
1
0
LINE
5
130
100
AcDbEntity
8
1
62
256
6
ByLayer
370
18
48
1
60
1
100
AcDbLine
10
89
20
8
30
0
11
89.460784
21
4.500002
31
0
39
0
210
0
220
0
230
1
0
LINE
5
131
100
AcDbEntity
8
1
62
256
6
ByLayer
370
18
48
1
60
1
100
AcDbLine
10
89.460784
20
4.500002
30
0
11
88.539216
21
4.499998
31
0
39
0
210
0
220
0
230
1
0
LINE
5
132
100
AcDbEntity
8
1
62
256
6
ByLayer
370
18
48
1
60
1
100
AcDbLine
10
88.539216
20
4.499998
30
0
11
89
21
8
31
0
39
0
210
0
220
0
230
1
0
LINE
5
134
100
AcDbEntity
8
1
62
256
6
ByLayer
370
18
48
1
60
1
100
AcDbLine
10
89
20
-8
30
0
11
88.539216
21
-4.500002
31
0
39
0
210
0
220
0
230
1
0
LINE
5
135
100
AcDbEntity
8
1
62
256
6
ByLayer
370
18
48
1
60
1
100
AcDbLine
10
88.539216
20
-4.500002
30
0
11
89.460784
21
-4.499998
31
0
39
0
210
0
220
0
230
1
0
LINE
5
136
100
AcDbEntity
8
1
62
256
6
ByLayer
370
18
48
1
60
1
100
AcDbLine
10
89.460784
20
-4.499998
30
0
11
89
21
-8
31
0
39
0
210
0
220
0
230
1
0
LINE
5
139
100
AcDbEntity
8
1
62
256
6
ByLayer
370
18
48
1
60
1
100
AcDbLine
10
87.998383
20
-17.85416
30
0
11
91.051575
21
-16.082064
31
0
39
0
210
0
220
0
230
1
0
LINE
5
13A
100
AcDbEntity
8
1
62
256
6
ByLayer
370
18
48
1
60
1
100
AcDbLine
10
91.051575
20
-16.082064
30
0
11
91.406196
21
-16.93267
31
0
39
0
210
0
220
0
230
1
0
LINE
5
13B
100
AcDbEntity
8
1
62
256
6
ByLayer
370
18
48
1
60
1
100
AcDbLine
10
91.406196
20
-16.93267
30
0
11
87.998383
21
-17.85416
31
0
39
0
210
0
220
0
230
1
0
LINE
5
13D
100
AcDbEntity
8
1
62
256
6
ByLayer
370
18
48
1
60
1
100
AcDbLine
10
87.998383
20
17.85416
30
0
11
91.406193
21
16.932671
31
0
39
0
210
0
220
0
230
1
0
LINE
5
13E
100
AcDbEntity
8
1
62
256
6
ByLayer
370
18
48
1
60
1
100
AcDbLine
10
91.406193
20
16.932671
30
0
11
91.051579
21
16.082063
31
0
39
0
210
0
220
0
230
1
0
LINE
5
13F
100
AcDbEntity
8
1
62
256
6
ByLayer
370
18
48
1
60
1
100
AcDbLine
10
91.051579
20
16.082063
30
0
11
87.998383
21
17.85416
31
0
39
0
210
0
220
0
230
1
0
MTEXT
5
122
100
AcDbEntity
8
SK2
62
256
6
ByLayer
370
18
48
1
60
0
100
AcDbMText
10
-57.841114
20
21.658438
30
0
210
0
220
0
230
1
1
%%c
40
3
41
0
44
1.084337
50
90
71
7
72
5
7
iso_b_vert
0
MTEXT
5
125
100
AcDbEntity
8
SK2
62
256
6
ByLayer
370
18
48
1
60
0
100
AcDbMText
10
-57.841114
20
27.635
30
0
210
0
220
0
230
1
1
\W0.7513;20.000
40
3
41
0
44
1.084337
50
90
71
7
72
5
7
iso_b_vert
0
MTEXT
5
12E
100
AcDbEntity
8
2
62
256
6
ByLayer
370
18
48
1
60
0
100
AcDbMText
10
87.658886
20
19.658438
30
0
210
0
220
0
230
1
1
%%c
40
3
41
0
44
1.084337
50
90
71
7
72
5
7
iso_b_vert
0
MTEXT
5
12F
100
AcDbEntity
8
2
62
256
6
ByLayer
370
18
48
1
60
0
100
AcDbMText
10
87.658886
20
25.635
30
0
210
0
220
0
230
1
1
\W0.7022;16.000
40
3
41
0
44
1.084337
50
90
71
7
72
5
7
iso_b_vert
0
MTEXT
5
138
100
AcDbEntity
8
SK2
62
256
6
ByLayer
370
18
48
1
60
0
100
AcDbMText
10
101.409114
20
3.734657
30
0
210
0
220
0
230
1
1
\W0.7071;140%%d
40
3
41
0
44
1.084337
50
270
71
7
72
5
7
iso_b_vert
0
MTEXT
5
141
100
AcDbEntity
8
SK6
62
256
6
ByLayer
370
18
48
1
60
0
100
AcDbMText
10
-7.787254
20
-67.114886
30
0
210
0
220
0
230
1
1
\W0.7358;H85316.0
40
3
41
0
44
1.084337
50
0
71
7
72
5
7
iso_b_vert
0
HATCH
5
129
100
AcDbEntity
8
SK2
62
256
6
ByLayer
370
13
48
1
60
0
100
AcDbHatch
10
0
20
0
30
0
210
0
220
0
230
1
2
ANSI31
70
0
71
0
91
1
92
5
93
3
72
1
10
-56.5
20
10
11
-56.0392162584472
21
6.50000169255318
72
1
10
-56.0392162584472
20
6.50000169255318
11
-56.9607837415528
21
6.49999830744682
72
1
10
-56.9607837415528
20
6.49999830744682
11
-56.5
21
10
97
0
75
0
76
1
52
0
41
0.0062
77
0
78
1
53
45
43
0
44
0
45
-0.0139193969876572
46
0.0139193969876572
79
0
47
0
98
1
10
0
20
0
0
HATCH
5
12D
100
AcDbEntity
8
SK2
62
256
6
ByLayer
370
13
48
1
60
0
100
AcDbHatch
10
0
20
0
30
0
210
0
220
0
230
1
2
ANSI31
70
0
71
0
91
1
92
5
93
3
72
1
10
-56.5
20
-10
11
-56.9607837415528
21
-6.50000169255318
72
1
10
-56.9607837415528
20
-6.50000169255318
11
-56.0392162584472
21
-6.49999830744682
72
1
10
-56.0392162584472
20
-6.49999830744682
11
-56.5
21
-10
97
0
75
0
76
1
52
0
41
0.0062
77
0
78
1
53
45
43
0
44
0
45
-0.0139193969876572
46
0.0139193969876572
79
0
47
0
98
1
10
0
20
0
0
HATCH
5
133
100
AcDbEntity
8
2
62
256
6
ByLayer
370
13
48
1
60
0
100
AcDbHatch
10
0
20
0
30
0
210
0
220
0
230
1
2
ANSI31
70
0
71
0
91
1
92
5
93
3
72
1
10
89
20
8
11
89.4607837415528
21
4.50000169255318
72
1
10
89.4607837415528
20
4.50000169255318
11
88.5392162584472
21
4.49999830744682
72
1
10
88.5392162584472
20
4.49999830744682
11
89
21
8
97
0
75
0
76
1
52
0
41
0.0062
77
0
78
1
53
45
43
0
44
0
45
-0.0139193969876572
46
0.0139193969876572
79
0
47
0
98
1
10
0
20
0
0
HATCH
5
137
100
AcDbEntity
8
2
62
256
6
ByLayer
370
13
48
1
60
0
100
AcDbHatch
10
0
20
0
30
0
210
0
220
0
230
1
2
ANSI31
70
0
71
0
91
1
92
5
93
3
72
1
10
89
20
-8
11
88.5392162584472
21
-4.50000169255318
72
1
10
88.5392162584472
20
-4.50000169255318
11
89.4607837415528
21
-4.49999830744682
72
1
10
89.4607837415528
20
-4.49999830744682
11
89
21
-8
97
0
75
0
76
1
52
0
41
0.0062
77
0
78
1
53
45
43
0
44
0
45
-0.0139193969876572
46
0.0139193969876572
79
0
47
0
98
1
10
0
20
0
0
HATCH
5
13C
100
AcDbEntity
8
SK2
62
256
6
ByLayer
370
13
48
1
60
0
100
AcDbHatch
10
0
20
0
30
0
210
0
220
0
230
1
2
ANSI31
70
0
71
0
91
1
92
5
93
3
72
1
10
87.9983827231877
20
-17.8541597949322
11
91.0515754256929
21
-16.0820638240608
72
1
10
91.0515754256929
20
-16.0820638240608
11
91.4061958339751
21
-16.9326700737196
72
1
10
91.4061958339751
20
-16.9326700737196
11
87.9983827231877
21
-17.8541597949322
97
0
75
0
76
1
52
0
41
0.0062
77
0
78
1
53
45
43
0
44
0
45
-0.0139193969876572
46
0.0139193969876572
79
0
47
0
98
1
10
0
20
0
0
HATCH
5
140
100
AcDbEntity
8
SK2
62
256
6
ByLayer
370
13
48
1
60
0
100
AcDbHatch
10
0
20
0
30
0
210
0
220
0
230
1
2
ANSI31
70
0
71
0
91
1
92
5
93
3
72
1
10
87.9983827231878
20
17.8541597949322
11
91.4061927095191
21
16.9326713763016
72
1
10
91.4061927095191
20
16.9326713763016
11
91.051578550149
21
16.0820625214787
72
1
10
91.051578550149
20
16.0820625214787
11
87.9983827231878
21
17.8541597949322
97
0
75
0
76
1
52
0
41
0.0062
77
0
78
1
53
45
43
0
44
0
45
-0.0139193969876572
46
0.0139193969876572
79
0
47
0
98
1
10
0
20
0
0
DIMENSION
5
144
100
AcDbEntity
8
SK2
62
256
6
ByLayer
370
18
48
1
60
0
100
AcDbDimension
2
_U0
10
81.5
20
-45.952229
30
0
11
15.75
21
-45.952229
31
0
70
32
71
1
72
1
41
1
210
0
220
0
230
1
3
Standard
100
AcDbAlignedDimension
13
-50
23
-10
33
0
14
81.5
24
0
34
0
50
0
100
AcDbRotatedDimension
1001
ACAD
1000
DSTYLE
1002
{
1070
   371
1070
    13
1070
   372
1070
    13
1070
     3
1000

1070
   170
1070
     0
1070
   144
1040
1.0
1070
   277
1070
     2
1070
   284
1070
     8
1070
   278
1070
    46
1070
   146
1040
1.166667
1070
   345
1005
16
1070
   347
1005
16
1070
   346
1005
16
1070
   344
1005
0
1070
   343
1005
0
1070
   172
1070
     1
1070
    76
1070
     0
1070
    75
1070
     0
1070
   282
1070
     0
1070
   281
1070
     0
1070
    71
1070
     0
1070
    74
1070
     0
1070
   279
1070
     0
1070
   173
1070
     1
1070
   340
1005
123
1070
   271
1070
     2
1070
   272
1070
     3
1070
    77
1070
     1
1070
    73
1070
     1
1070
   171
1070
     3
1070
   274
1070
     4
1070
   177
1070
     2
1070
   176
1070
     2
1070
   178
1070
     2
1070
    78
1070
     8
1070
    48
1040
-0.1
1070
    41
1040
3.5
1070
   147
1040
1.5
1070
    42
1040
1.5875
1070
    44
1040
2.0
1070
   140
1040
3.0
1002
}
1001
ACAD_DSTYLE_DIM_LINETYPE
1070
   380
1005
16
1001
ACAD_DSTYLE_DIM_EXT1_LINETYPE
1070
   381
1005
16
1001
ACAD_DSTYLE_DIM_EXT2_LINETYPE
1070
   382
1005
16
0
DIMENSION
5
15D
100
AcDbEntity
8
SK2
62
256
6
ByLayer
370
18
48
1
60
0
100
AcDbDimension
2
_U1
10
3
20
-35.952229
30
0
11
42.25
21
-35.952229
31
0
70
32
71
1
72
1
41
1
210
0
220
0
230
1
3
Standard
100
AcDbAlignedDimension
13
81.5
23
0
33
0
14
3
24
-8
34
0
50
0
100
AcDbRotatedDimension
1001
ACAD
1000
DSTYLE
1002
{
1070
   371
1070
    13
1070
   372
1070
    13
1070
     3
1000

1070
   170
1070
     0
1070
   144
1040
1.0
1070
   277
1070
     2
1070
   284
1070
     8
1070
   278
1070
    46
1070
   146
1040
1.166667
1070
   345
1005
16
1070
   347
1005
16
1070
   346
1005
16
1070
   344
1005
0
1070
   343
1005
0
1070
   172
1070
     1
1070
    76
1070
     0
1070
    75
1070
     0
1070
   282
1070
     0
1070
   281
1070
     0
1070
    71
1070
     0
1070
    74
1070
     0
1070
   279
1070
     0
1070
   173
1070
     1
1070
   340
1005
123
1070
   271
1070
     2
1070
   272
1070
     3
1070
    77
1070
     1
1070
    73
1070
     1
1070
   171
1070
     3
1070
   274
1070
     4
1070
   177
1070
     2
1070
   176
1070
     2
1070
   178
1070
     2
1070
    78
1070
     8
1070
    48
1040
-0.1
1070
    41
1040
3.5
1070
   147
1040
1.5
1070
    42
1040
1.5875
1070
    44
1040
2.0
1070
   140
1040
3.0
1002
}
1001
ACAD_DSTYLE_DIM_LINETYPE
1070
   380
1005
16
1001
ACAD_DSTYLE_DIM_EXT1_LINETYPE
1070
   381
1005
16
1001
ACAD_DSTYLE_DIM_EXT2_LINETYPE
1070
   382
1005
16
0
DIMENSION
5
175
100
AcDbEntity
8
SK2
62
256
6
ByLayer
370
18
48
1
60
0
100
AcDbDimension
2
_U2
10
0
20
-35.952229
30
0
11
-25
21
-35.952229
31
0
70
32
71
1
72
1
41
1
210
0
220
0
230
1
3
Standard
100
AcDbAlignedDimension
13
-50
23
-10
33
0
14
0
24
-10
34
0
50
0
100
AcDbRotatedDimension
1001
ACAD
1000
DSTYLE
1002
{
1070
   371
1070
    13
1070
   372
1070
    13
1070
     3
1000

1070
   170
1070
     0
1070
   144
1040
1.0
1070
   277
1070
     2
1070
   284
1070
     8
1070
   278
1070
    46
1070
   146
1040
1.166667
1070
   345
1005
16
1070
   347
1005
16
1070
   346
1005
16
1070
   344
1005
0
1070
   343
1005
0
1070
   172
1070
     1
1070
    76
1070
     0
1070
    75
1070
     0
1070
   282
1070
     0
1070
   281
1070
     0
1070
    71
1070
     0
1070
    74
1070
     0
1070
   279
1070
     0
1070
   173
1070
     1
1070
   340
1005
123
1070
   271
1070
     2
1070
   272
1070
     3
1070
    77
1070
     1
1070
    73
1070
     1
1070
   171
1070
     3
1070
   274
1070
     4
1070
   177
1070
     2
1070
   176
1070
     2
1070
   178
1070
     2
1070
    78
1070
     8
1070
    48
1040
-0.1
1070
    41
1040
3.5
1070
   147
1040
1.5
1070
    42
1040
1.5875
1070
    44
1040
2.0
1070
   140
1040
3.0
1002
}
1001
ACAD_DSTYLE_DIM_LINETYPE
1070
   380
1005
16
1001
ACAD_DSTYLE_DIM_EXT1_LINETYPE
1070
   381
1005
16
1001
ACAD_DSTYLE_DIM_EXT2_LINETYPE
1070
   382
1005
16
0
DIMENSION
5
18D
100
AcDbEntity
8
SK2
62
256
6
ByLayer
370
18
48
1
60
0
100
AcDbDimension
2
_U3
10
22
20
32.952229
30
0
11
51.75
21
32.952229
31
0
70
32
71
1
72
1
41
1
210
0
220
0
230
1
3
Standard
100
AcDbAlignedDimension
13
81.5
23
0
33
0
14
22
24
8
34
0
50
0
100
AcDbRotatedDimension
1001
ACAD
1000
DSTYLE
1002
{
1070
   371
1070
    13
1070
   372
1070
    13
1070
     3
1000

1070
   170
1070
     0
1070
   144
1040
1.0
1070
   277
1070
     2
1070
   284
1070
     8
1070
   278
1070
    46
1070
   146
1040
1.166667
1070
   345
1005
16
1070
   347
1005
16
1070
   346
1005
16
1070
   344
1005
0
1070
   343
1005
0
1070
   172
1070
     1
1070
    76
1070
     0
1070
    75
1070
     0
1070
   282
1070
     0
1070
   281
1070
     0
1070
    71
1070
     0
1070
    74
1070
     0
1070
   279
1070
     0
1070
   173
1070
     1
1070
   340
1005
123
1070
   271
1070
     2
1070
   272
1070
     3
1070
    77
1070
     1
1070
    73
1070
     1
1070
   171
1070
     3
1070
   274
1070
     4
1070
   177
1070
     2
1070
   176
1070
     2
1070
   178
1070
     2
1070
    78
1070
     8
1070
    48
1040
-0.1
1070
    41
1040
3.5
1070
   147
1040
1.5
1070
    42
1040
1.5875
1070
    44
1040
2.0
1070
   140
1040
3.0
1002
}
1001
ACAD_DSTYLE_DIM_LINETYPE
1070
   380
1005
16
1001
ACAD_DSTYLE_DIM_EXT1_LINETYPE
1070
   381
1005
16
1001
ACAD_DSTYLE_DIM_EXT2_LINETYPE
1070
   382
1005
16
0
ENDSEC
0
SECTION
2
OBJECTS
0
DICTIONARY
5
215
330
0
100
AcDbDictionary
280
0
281
1
3
ACAD_GROUP
350
216
3
ACAD_MLINESTYLE
350
217
0
DICTIONARY
5
216
330
0
100
AcDbDictionary
280
0
281
1
0
DICTIONARY
5
217
330
0
100
AcDbDictionary
280
0
281
1
3
Standard
350
18
0
MLINESTYLE
5
18
330
217
100
AcDbMlineStyle
2
Standard
70
0
3

62
256
51
90
52
90
71
2
49
-0.5
62
256
6
ByLayer
49
0.5
62
256
6
ByLayer
0
RASTERVARIABLES
5
203
330

100
AcDbRasterVariables
90
0
70
1
71
1
72
1
0
ENDSEC
0
EOF
