0
SECTION
2
HEADER
9
$ACADVER
1
AC1015
9
$DWGCODEPAGE
3
ANSI_1252
9
$HANDSEED
5
210
9
$ANGBASE
50
0
9
$ANGDIR
70
0
9
$ATTMODE
70
1
9
$AUNITS
70
0
9
$AUPREC
70
0
9
$CECOLOR
62
256
9
$CELTSCALE
40
1
9
$CELTYPE
6
ByLayer
9
$CELWEIGHT
370
18
9
$CLAYER
8
0
9
$CMLJUST
70
0
9
$CMLSCALE
40
1
9
$CMLSTYLE
2
Standard
9
$DIMSTYLE
2
Standard
9
$TEXTSIZE
40
0.2
9
$TEXTSTYLE
7
Standard
9
$LUNITS
70
2
9
$LUPREC
70
4
9
$EXTNAMES
290
1
9
$INSUNITS
70
4
9
$LTSCALE
40
1
9
$LWDISPLAY
290
1
9
$PDMODE
70
0
9
$PDSIZE
40
0
9
$PLINEGEN
70
0
0
ENDSEC
0
SECTION
2
CLASSES
0
CLASS
1
RASTERVARIABLES
2
AcDbRasterVariables
3
ISM
90
0
280
0
281
0
0
ENDSEC
0
SECTION
2
TABLES
0
TABLE
2
VPORT
5
206
100
AcDbSymbolTable
0
VPORT
5
1
100
AcDbSymbolTableRecord
100
AcDbViewportTableRecord
2
*Active
70
0
10
0
20
0
11
1
21
1
12
-1
22
1
13
0
23
0
14
0.5
24
0.5
15
10
25
10
16
0
26
0
36
1
17
0
27
0
37
0
0
ENDTAB
0
TABLE
2
LTYPE
5
207
100
AcDbSymbolTable
0
LTYPE
5
14
100
AcDbSymbolTableRecord
100
AcDbLinetypeTableRecord
70
0
2
ByBlock
3

72
65
73
0
40
0
0
LTYPE
5
15
100
AcDbSymbolTableRecord
100
AcDbLinetypeTableRecord
70
0
2
ByLayer
3

72
65
73
0
40
0
0
LTYPE
5
16
100
AcDbSymbolTableRecord
100
AcDbLinetypeTableRecord
70
0
2
Continuous
3
Solid line
72
65
73
0
40
0
0
LTYPE
5
6E
100
AcDbSymbolTableRecord
100
AcDbLinetypeTableRecord
70
0
2
CENTER
3
____ _ ____ _ ____ _ ____
72
65
73
4
40
47.5
49
22
74
0
49
-8.5
74
0
49
8.5
74
0
49
-8.5
74
0
0
LTYPE
5
6F
100
AcDbSymbolTableRecord
100
AcDbLinetypeTableRecord
70
0
2
DASHED
3
__ __ __ __ __ __ __ __ __
72
65
73
2
40
25.72
49
12.86
74
0
49
-12.86
74
0
0
ENDTAB
0
TABLE
2
LAYER
5
208
100
AcDbSymbolTable
0
LAYER
5
10
100
AcDbSymbolTableRecord
100
AcDbLayerTableRecord
2
0
70
0
62
7
6
Continuous
290
1
370
-3
390
0
0
LAYER
5
71
100
AcDbSymbolTableRecord
100
AcDbLayerTableRecord
2
80
70
0
62
-6
6
Continuous
290
1
370
-3
390
0
0
LAYER
5
73
100
AcDbSymbolTableRecord
100
AcDbLayerTableRecord
2
81
70
0
62
-3
6
Continuous
290
1
370
-3
390
0
0
LAYER
5
75
100
AcDbSymbolTableRecord
100
AcDbLayerTableRecord
2
1
70
0
62
4
6
Continuous
290
1
370
-3
390
0
0
LAYER
5
7F
100
AcDbSymbolTableRecord
100
AcDbLayerTableRecord
2
4
70
0
62
-2
6
CENTER
290
1
370
-3
390
0
0
LAYER
5
B0
100
AcDbSymbolTableRecord
100
AcDbLayerTableRecord
2
2
70
0
62
7
6
Continuous
290
1
370
-3
390
0
0
LAYER
5
135
100
AcDbSymbolTableRecord
100
AcDbLayerTableRecord
2
Defpoints
70
0
62
7
6
Continuous
290
0
370
-3
390
0
0
LAYER
5
1f2
100
AcDbSymbolTableRecord
100
AcDbLayerTableRecord
2
SK4
70
0
62
2
6
CENTER
290
1
370
-3
390
0
0
LAYER
5
1f3
100
AcDbSymbolTableRecord
100
AcDbLayerTableRecord
2
SK1
70
0
62
4
6
Continuous
290
1
370
-3
390
0
0
LAYER
5
1f4
100
AcDbSymbolTableRecord
100
AcDbLayerTableRecord
2
SK2
70
0
62
7
6
Continuous
290
1
370
-3
390
0
0
LAYER
5
1f5
100
AcDbSymbolTableRecord
100
AcDbLayerTableRecord
2
SK6
70
0
62
5
6
Continuous
290
1
370
-3
390
0
0
ENDTAB
0
TABLE
2
STYLE
5
209
100
AcDbSymbolTable
0
STYLE
5
11
100
AcDbSymbolTableRecord
100
AcDbTextStyleTableRecord
2
Standard
3
txt
70
0
71
0
40
0
41
1
42
0
50
0
0
STYLE
5
111
100
AcDbSymbolTableRecord
100
AcDbTextStyleTableRecord
2
iso_b_vert
3
simplex.shx
70
0
71
0
40
0
41
1
42
0
50
0
0
STYLE
5
112
100
AcDbSymbolTableRecord
100
AcDbTextStyleTableRecord
2
DWGDirectTextStyle
3
simplex
70
0
71
0
40
0
41
1
42
0
50
0
0
ENDTAB
0
TABLE
2
DIMSTYLE
5
20a
100
AcDbSymbolTable
100
AcDbDimStyleTable
0
DIMSTYLE
105
27
100
AcDbSymbolTableRecord
100
AcDbDimStyleTableRecord
2
Standard
70
0
3
<>
41
0.18
42
0.0625
44
0.18
140
0.18
147
0.09
73
0
74
0
77
1
271
2
275
0
278
52
280
0
340
11
0
ENDTAB
0
TABLE
2
VIEW
5
20b
100
AcDbSymbolTable
0
ENDTAB
0
TABLE
2
UCS
5
20c
100
AcDbSymbolTable
0
ENDTAB
0
TABLE
2
APPID
5
20d
100
AcDbSymbolTable
0
APPID
5
12
100
AcDbSymbolTableRecord
100
AcDbRegAppTableRecord
2
ACAD
70
0
0
APPID
5
131
100
AcDbSymbolTableRecord
100
AcDbRegAppTableRecord
2
ACAD_DSTYLE_DIMBREAK
70
0
0
APPID
5
1B1
100
AcDbSymbolTableRecord
100
AcDbRegAppTableRecord
2
ACAD_DSTYLE_DIM_LINETYPE
70
0
0
APPID
5
1B2
100
AcDbSymbolTableRecord
100
AcDbRegAppTableRecord
2
ACAD_DSTYLE_DIM_EXT1_LINETYPE
70
0
0
APPID
5
1B3
100
AcDbSymbolTableRecord
100
AcDbRegAppTableRecord
2
ACAD_DSTYLE_DIM_EXT2_LINETYPE
70
0
0
APPID
5
1EE
100
AcDbSymbolTableRecord
100
AcDbRegAppTableRecord
2
ACAD_MLEADERVER
70
0
0
ENDTAB
0
TABLE
2
BLOCK_RECORD
5
20e
100
AcDbSymbolTable
0
BLOCK_RECORD
5
1F
100
AcDbSymbolTableRecord
100
AcDbBlockTableRecord
2
*Model_Space
340
0
70
0
0
BLOCK_RECORD
5
1B
100
AcDbSymbolTableRecord
100
AcDbBlockTableRecord
2
*Paper_Space
340
0
70
0
0
BLOCK_RECORD
5
23
100
AcDbSymbolTableRecord
100
AcDbBlockTableRecord
2
*Paper_Space0
340
0
70
0
0
BLOCK_RECORD
5
136
100
AcDbSymbolTableRecord
100
AcDbBlockTableRecord
2
*D1
340
0
70
0
0
BLOCK_RECORD
5
142
100
AcDbSymbolTableRecord
100
AcDbBlockTableRecord
2
_U0
340
0
70
0
0
BLOCK_RECORD
5
14E
100
AcDbSymbolTableRecord
100
AcDbBlockTableRecord
2
*D3
340
0
70
0
0
BLOCK_RECORD
5
15A
100
AcDbSymbolTableRecord
100
AcDbBlockTableRecord
2
_U1
340
0
70
0
0
BLOCK_RECORD
5
166
100
AcDbSymbolTableRecord
100
AcDbBlockTableRecord
2
*D5
340
0
70
0
0
BLOCK_RECORD
5
172
100
AcDbSymbolTableRecord
100
AcDbBlockTableRecord
2
_U2
340
0
70
0
0
BLOCK_RECORD
5
17E
100
AcDbSymbolTableRecord
100
AcDbBlockTableRecord
2
*D7
340
0
70
0
0
BLOCK_RECORD
5
18A
100
AcDbSymbolTableRecord
100
AcDbBlockTableRecord
2
_U3
340
0
70
0
0
ENDTAB
0
ENDSEC
0
SECTION
2
BLOCKS
0
BLOCK
5
20
100
AcDbEntity
8
0
100
AcDbBlockBegin
2
*Model_Space
70
0
10
0
20
0
30
0
3
*Model_Space
0
ENDBLK
5
21
100
AcDbEntity
8
0
100
AcDbBlockEnd
0
BLOCK
5
1C
100
AcDbEntity
8
0
100
AcDbBlockBegin
2
*Paper_Space
70
0
10
0
20
0
30
0
3
*Paper_Space
0
ENDBLK
5
1D
100
AcDbEntity
8
0
100
AcDbBlockEnd
0
BLOCK
5
24
100
AcDbEntity
8
0
100
AcDbBlockBegin
2
*Paper_Space0
70
0
10
0
20
0
30
0
3
*Paper_Space0
0
ENDBLK
5
25
100
AcDbEntity
8
0
100
AcDbBlockEnd
0
BLOCK
5
137
100
AcDbEntity
8
0
100
AcDbBlockBegin
2
*D1
70
1
10
0
20
0
30
0
3
*D1
0
LINE
5
139
100
AcDbEntity
8
0
62
256
6
ByLayer
370
-2
48
1
60
0
100
AcDbLine
10
-48
20
-9.5875
30
0
11
-48
21
-47.952229
31
0
39
0
210
0
220
0
230
1
0
LINE
5
13A
100
AcDbEntity
8
0
62
256
6
ByLayer
370
-2
48
1
60
0
100
AcDbLine
10
57
20
-1.5875
30
0
11
57
21
-47.952229
31
0
39
0
210
0
220
0
230
1
0
LINE
5
13B
100
AcDbEntity
8
0
62
256
6
ByLayer
370
-2
48
1
60
0
100
AcDbLine
10
-44.5
20
-45.952229
30
0
11
53.5
21
-45.952229
31
0
39
0
210
0
220
0
230
1
0
SOLID
5
13C
100
AcDbEntity
8
0
62
256
6
ByLayer
370
-1
48
1
60
0
100
AcDbTrace
10
-44.5
20
-45.368896
30
0
11
-44.5
21
-46.535563
31
0
12
-48
22
-45.952229
32
0
13
-48
23
-45.952229
33
0
39
0
210
0
220
0
230
1
0
SOLID
5
13D
100
AcDbEntity
8
0
62
256
6
ByLayer
370
-1
48
1
60
0
100
AcDbTrace
10
53.5
20
-46.535563
30
0
11
53.5
21
-45.368896
31
0
12
57
22
-45.952229
32
0
13
57
23
-45.952229
33
0
39
0
210
0
220
0
230
1
0
MTEXT
5
13E
100
AcDbEntity
8
0
62
256
6
ByLayer
370
18
48
1
60
0
100
AcDbMText
10
4.5
20
-39.952229
30
0
210
0
220
0
230
1
1
\A1;105
40
3
41
0
44
1
50
0
71
5
72
5
7
iso_b_vert
0
POINT
5
13F
100
AcDbEntity
8
Defpoints
62
0
6
ByLayer
370
-1
48
1
60
0
100
AcDbPoint
10
-48
20
-8
30
0
39
0
210
0
220
0
230
1
50
360
0
POINT
5
140
100
AcDbEntity
8
Defpoints
62
0
6
ByLayer
370
-1
48
1
60
0
100
AcDbPoint
10
57
20
0
30
0
39
0
210
0
220
0
230
1
50
360
0
POINT
5
141
100
AcDbEntity
8
Defpoints
62
0
6
ByLayer
370
-1
48
1
60
0
100
AcDbPoint
10
57
20
-45.952229
30
0
39
0
210
0
220
0
230
1
50
360
0
ENDBLK
5
138
100
AcDbEntity
8
0
100
AcDbBlockEnd
0
BLOCK
5
149
100
AcDbEntity
8
0
100
AcDbBlockBegin
2
_U0
70
0
10
0
20
0
30
0
3
_U0
0
MTEXT
5
143
100
AcDbEntity
8
SK2
62
256
6
ByLayer
370
18
48
1
60
0
100
AcDbMText
10
-0.728342
20
-45.067115
30
0
210
0
220
0
230
1
1
\W0.7022;105.00
40
3
41
0
44
1.084337
50
0
71
7
72
5
7
iso_b_vert
0
LINE
5
144
100
AcDbEntity
8
SK2
62
256
6
ByLayer
370
13
48
1
60
0
100
AcDbLine
10
-48
20
-9.5875
30
0
11
-48
21
-47.952229
31
0
39
0
210
0
220
0
230
1
0
LINE
5
145
100
AcDbEntity
8
SK2
62
256
6
ByLayer
370
13
48
1
60
0
100
AcDbLine
10
57
20
-1.5875
30
0
11
57
21
-47.952229
31
0
39
0
210
0
220
0
230
1
0
LINE
5
146
100
AcDbEntity
8
SK2
62
256
6
ByLayer
370
13
48
1
60
0
100
AcDbLine
10
-48
20
-45.952229
30
0
11
57
21
-45.952229
31
0
39
0
210
0
220
0
230
1
0
SOLID
5
147
100
AcDbEntity
8
SK2
62
256
6
ByLayer
370
18
48
1
60
0
100
AcDbTrace
10
-48
20
-45.952229
30
0
11
-44.500002
21
-45.491446
31
0
12
-44.499998
22
-46.413013
32
0
13
-44.499998
23
-46.413013
33
0
39
0
210
0
220
0
230
1
0
SOLID
5
148
100
AcDbEntity
8
SK2
62
256
6
ByLayer
370
18
48
1
60
0
100
AcDbTrace
10
57
20
-45.952229
30
0
11
53.500002
21
-46.413013
31
0
12
53.499998
22
-45.491446
32
0
13
53.499998
23
-45.491446
33
0
39
0
210
0
220
0
230
1
0
ENDBLK
5
14A
100
AcDbEntity
8
0
100
AcDbBlockEnd
0
BLOCK
5
14F
100
AcDbEntity
8
0
100
AcDbBlockBegin
2
*D3
70
1
10
0
20
0
30
0
3
*D3
0
LINE
5
151
100
AcDbEntity
8
0
62
256
6
ByLayer
370
-2
48
1
60
0
100
AcDbLine
10
57
20
-1.5875
30
0
11
57
21
-37.952229
31
0
39
0
210
0
220
0
230
1
0
LINE
5
152
100
AcDbEntity
8
0
62
256
6
ByLayer
370
-2
48
1
60
0
100
AcDbLine
10
3
20
-7.5875
30
0
11
3
21
-37.952229
31
0
39
0
210
0
220
0
230
1
0
LINE
5
153
100
AcDbEntity
8
0
62
256
6
ByLayer
370
-2
48
1
60
0
100
AcDbLine
10
53.5
20
-35.952229
30
0
11
6.5
21
-35.952229
31
0
39
0
210
0
220
0
230
1
0
SOLID
5
154
100
AcDbEntity
8
0
62
256
6
ByLayer
370
-1
48
1
60
0
100
AcDbTrace
10
53.5
20
-36.535563
30
0
11
53.5
21
-35.368896
31
0
12
57
22
-35.952229
32
0
13
57
23
-35.952229
33
0
39
0
210
0
220
0
230
1
0
SOLID
5
155
100
AcDbEntity
8
0
62
256
6
ByLayer
370
-1
48
1
60
0
100
AcDbTrace
10
6.5
20
-35.368896
30
0
11
6.5
21
-36.535563
31
0
12
3
22
-35.952229
32
0
13
3
23
-35.952229
33
0
39
0
210
0
220
0
230
1
0
MTEXT
5
156
100
AcDbEntity
8
0
62
256
6
ByLayer
370
18
48
1
60
0
100
AcDbMText
10
30
20
-29.952229
30
0
210
0
220
0
230
1
1
\A1;54
40
3
41
0
44
1
50
0
71
5
72
5
7
iso_b_vert
0
POINT
5
157
100
AcDbEntity
8
Defpoints
62
0
6
ByLayer
370
-1
48
1
60
0
100
AcDbPoint
10
57
20
0
30
0
39
0
210
0
220
0
230
1
50
360
0
POINT
5
158
100
AcDbEntity
8
Defpoints
62
0
6
ByLayer
370
-1
48
1
60
0
100
AcDbPoint
10
3
20
-6
30
0
39
0
210
0
220
0
230
1
50
360
0
POINT
5
159
100
AcDbEntity
8
Defpoints
62
0
6
ByLayer
370
-1
48
1
60
0
100
AcDbPoint
10
3
20
-35.952229
30
0
39
0
210
0
220
0
230
1
50
360
0
ENDBLK
5
150
100
AcDbEntity
8
0
100
AcDbBlockEnd
0
BLOCK
5
161
100
AcDbEntity
8
0
100
AcDbBlockBegin
2
_U1
70
0
10
0
20
0
30
0
3
_U1
0
MTEXT
5
15B
100
AcDbEntity
8
SK2
62
256
6
ByLayer
370
18
48
1
60
0
100
AcDbMText
10
25.359687
20
-35.067115
30
0
210
0
220
0
230
1
1
\W0.7694;54.00
40
3
41
0
44
1.084337
50
0
71
7
72
5
7
iso_b_vert
0
LINE
5
15C
100
AcDbEntity
8
SK2
62
256
6
ByLayer
370
13
48
1
60
0
100
AcDbLine
10
57
20
-1.5875
30
0
11
57
21
-37.952229
31
0
39
0
210
0
220
0
230
1
0
LINE
5
15D
100
AcDbEntity
8
SK2
62
256
6
ByLayer
370
13
48
1
60
0
100
AcDbLine
10
3
20
-7.5875
30
0
11
3
21
-37.952229
31
0
39
0
210
0
220
0
230
1
0
LINE
5
15E
100
AcDbEntity
8
SK2
62
256
6
ByLayer
370
13
48
1
60
0
100
AcDbLine
10
57
20
-35.952229
30
0
11
3
21
-35.952229
31
0
39
0
210
0
220
0
230
1
0
SOLID
5
15F
100
AcDbEntity
8
SK2
62
256
6
ByLayer
370
18
48
1
60
0
100
AcDbTrace
10
57
20
-35.952229
30
0
11
53.500002
21
-36.413013
31
0
12
53.499998
22
-35.491446
32
0
13
53.499998
23
-35.491446
33
0
39
0
210
0
220
0
230
1
0
SOLID
5
160
100
AcDbEntity
8
SK2
62
256
6
ByLayer
370
18
48
1
60
0
100
AcDbTrace
10
3
20
-35.952229
30
0
11
6.499998
21
-35.491446
31
0
12
6.500002
22
-36.413013
32
0
13
6.500002
23
-36.413013
33
0
39
0
210
0
220
0
230
1
0
ENDBLK
5
162
100
AcDbEntity
8
0
100
AcDbBlockEnd
0
BLOCK
5
167
100
AcDbEntity
8
0
100
AcDbBlockBegin
2
*D5
70
1
10
0
20
0
30
0
3
*D5
0
LINE
5
169
100
AcDbEntity
8
0
62
256
6
ByLayer
370
-2
48
1
60
0
100
AcDbLine
10
-48
20
-9.5875
30
0
11
-48
21
-37.952229
31
0
39
0
210
0
220
0
230
1
0
LINE
5
16A
100
AcDbEntity
8
0
62
256
6
ByLayer
370
-2
48
1
60
0
100
AcDbLine
10
0
20
-9.5875
30
0
11
0
21
-37.952229
31
0
39
0
210
0
220
0
230
1
0
LINE
5
16B
100
AcDbEntity
8
0
62
256
6
ByLayer
370
-2
48
1
60
0
100
AcDbLine
10
-44.5
20
-35.952229
30
0
11
-3.5
21
-35.952229
31
0
39
0
210
0
220
0
230
1
0
SOLID
5
16C
100
AcDbEntity
8
0
62
256
6
ByLayer
370
-1
48
1
60
0
100
AcDbTrace
10
-44.5
20
-35.368896
30
0
11
-44.5
21
-36.535563
31
0
12
-48
22
-35.952229
32
0
13
-48
23
-35.952229
33
0
39
0
210
0
220
0
230
1
0
SOLID
5
16D
100
AcDbEntity
8
0
62
256
6
ByLayer
370
-1
48
1
60
0
100
AcDbTrace
10
-3.5
20
-36.535563
30
0
11
-3.5
21
-35.368896
31
0
12
0
22
-35.952229
32
0
13
0
23
-35.952229
33
0
39
0
210
0
220
0
230
1
0
MTEXT
5
16E
100
AcDbEntity
8
0
62
256
6
ByLayer
370
18
48
1
60
0
100
AcDbMText
10
-24
20
-29.952229
30
0
210
0
220
0
230
1
1
\A1;48
40
3
41
0
44
1
50
0
71
5
72
5
7
iso_b_vert
0
POINT
5
16F
100
AcDbEntity
8
Defpoints
62
0
6
ByLayer
370
-1
48
1
60
0
100
AcDbPoint
10
-48
20
-8
30
0
39
0
210
0
220
0
230
1
50
360
0
POINT
5
170
100
AcDbEntity
8
Defpoints
62
0
6
ByLayer
370
-1
48
1
60
0
100
AcDbPoint
10
0
20
-8
30
0
39
0
210
0
220
0
230
1
50
360
0
POINT
5
171
100
AcDbEntity
8
Defpoints
62
0
6
ByLayer
370
-1
48
1
60
0
100
AcDbPoint
10
0
20
-35.952229
30
0
39
0
210
0
220
0
230
1
50
360
0
ENDBLK
5
168
100
AcDbEntity
8
0
100
AcDbBlockEnd
0
BLOCK
5
179
100
AcDbEntity
8
0
100
AcDbBlockBegin
2
_U2
70
0
10
0
20
0
30
0
3
_U2
0
MTEXT
5
173
100
AcDbEntity
8
SK2
62
256
6
ByLayer
370
18
48
1
60
0
100
AcDbMText
10
-28.640313
20
-35.067115
30
0
210
0
220
0
230
1
1
\W0.7694;48.00
40
3
41
0
44
1.084337
50
0
71
7
72
5
7
iso_b_vert
0
LINE
5
174
100
AcDbEntity
8
SK2
62
256
6
ByLayer
370
13
48
1
60
0
100
AcDbLine
10
-48
20
-9.5875
30
0
11
-48
21
-37.952229
31
0
39
0
210
0
220
0
230
1
0
LINE
5
175
100
AcDbEntity
8
SK2
62
256
6
ByLayer
370
13
48
1
60
0
100
AcDbLine
10
0
20
-9.5875
30
0
11
0
21
-37.952229
31
0
39
0
210
0
220
0
230
1
0
LINE
5
176
100
AcDbEntity
8
SK2
62
256
6
ByLayer
370
13
48
1
60
0
100
AcDbLine
10
-48
20
-35.952229
30
0
11
0
21
-35.952229
31
0
39
0
210
0
220
0
230
1
0
SOLID
5
177
100
AcDbEntity
8
SK2
62
256
6
ByLayer
370
18
48
1
60
0
100
AcDbTrace
10
-48
20
-35.952229
30
0
11
-44.500002
21
-35.491446
31
0
12
-44.499998
22
-36.413013
32
0
13
-44.499998
23
-36.413013
33
0
39
0
210
0
220
0
230
1
0
SOLID
5
178
100
AcDbEntity
8
SK2
62
256
6
ByLayer
370
18
48
1
60
0
100
AcDbTrace
10
0
20
-35.952229
30
0
11
-3.499998
21
-36.413013
31
0
12
-3.500002
22
-35.491446
32
0
13
-3.500002
23
-35.491446
33
0
39
0
210
0
220
0
230
1
0
ENDBLK
5
17A
100
AcDbEntity
8
0
100
AcDbBlockEnd
0
BLOCK
5
17F
100
AcDbEntity
8
0
100
AcDbBlockBegin
2
*D7
70
1
10
0
20
0
30
0
3
*D7
0
LINE
5
181
100
AcDbEntity
8
0
62
256
6
ByLayer
370
-2
48
1
60
0
100
AcDbLine
10
57
20
1.5875
30
0
11
57
21
34.952229
31
0
39
0
210
0
220
0
230
1
0
LINE
5
182
100
AcDbEntity
8
0
62
256
6
ByLayer
370
-2
48
1
60
0
100
AcDbLine
10
13
20
7.5875
30
0
11
13
21
34.952229
31
0
39
0
210
0
220
0
230
1
0
LINE
5
183
100
AcDbEntity
8
0
62
256
6
ByLayer
370
-2
48
1
60
0
100
AcDbLine
10
53.5
20
32.952229
30
0
11
16.5
21
32.952229
31
0
39
0
210
0
220
0
230
1
0
SOLID
5
184
100
AcDbEntity
8
0
62
256
6
ByLayer
370
-1
48
1
60
0
100
AcDbTrace
10
53.5
20
32.368896
30
0
11
53.5
21
33.535563
31
0
12
57
22
32.952229
32
0
13
57
23
32.952229
33
0
39
0
210
0
220
0
230
1
0
SOLID
5
185
100
AcDbEntity
8
0
62
256
6
ByLayer
370
-1
48
1
60
0
100
AcDbTrace
10
16.5
20
33.535563
30
0
11
16.5
21
32.368896
31
0
12
13
22
32.952229
32
0
13
13
23
32.952229
33
0
39
0
210
0
220
0
230
1
0
MTEXT
5
186
100
AcDbEntity
8
0
62
256
6
ByLayer
370
18
48
1
60
0
100
AcDbMText
10
35
20
38.952229
30
0
210
0
220
0
230
1
1
\A1;44
40
3
41
0
44
1
50
0
71
5
72
5
7
iso_b_vert
0
POINT
5
187
100
AcDbEntity
8
Defpoints
62
0
6
ByLayer
370
-1
48
1
60
0
100
AcDbPoint
10
57
20
0
30
0
39
0
210
0
220
0
230
1
50
360
0
POINT
5
188
100
AcDbEntity
8
Defpoints
62
0
6
ByLayer
370
-1
48
1
60
0
100
AcDbPoint
10
13
20
6
30
0
39
0
210
0
220
0
230
1
50
360
0
POINT
5
189
100
AcDbEntity
8
Defpoints
62
0
6
ByLayer
370
-1
48
1
60
0
100
AcDbPoint
10
13
20
32.952229
30
0
39
0
210
0
220
0
230
1
50
360
0
ENDBLK
5
180
100
AcDbEntity
8
0
100
AcDbBlockEnd
0
BLOCK
5
191
100
AcDbEntity
8
0
100
AcDbBlockBegin
2
_U3
70
0
10
0
20
0
30
0
3
_U3
0
MTEXT
5
18B
100
AcDbEntity
8
SK2
62
256
6
ByLayer
370
18
48
1
60
0
100
AcDbMText
10
30.201744
20
33.837344
30
0
210
0
220
0
230
1
1
\W0.7958;44.00
40
3
41
0
44
1.084337
50
0
71
7
72
5
7
iso_b_vert
0
LINE
5
18C
100
AcDbEntity
8
SK2
62
256
6
ByLayer
370
13
48
1
60
0
100
AcDbLine
10
57
20
1.5875
30
0
11
57
21
34.952229
31
0
39
0
210
0
220
0
230
1
0
LINE
5
18D
100
AcDbEntity
8
SK2
62
256
6
ByLayer
370
13
48
1
60
0
100
AcDbLine
10
13
20
7.5875
30
0
11
13
21
34.952229
31
0
39
0
210
0
220
0
230
1
0
LINE
5
18E
100
AcDbEntity
8
SK2
62
256
6
ByLayer
370
13
48
1
60
0
100
AcDbLine
10
57
20
32.952229
30
0
11
13
21
32.952229
31
0
39
0
210
0
220
0
230
1
0
SOLID
5
18F
100
AcDbEntity
8
SK2
62
256
6
ByLayer
370
18
48
1
60
0
100
AcDbTrace
10
57
20
32.952229
30
0
11
53.500002
21
32.491446
31
0
12
53.499998
22
33.413013
32
0
13
53.499998
23
33.413013
33
0
39
0
210
0
220
0
230
1
0
SOLID
5
190
100
AcDbEntity
8
SK2
62
256
6
ByLayer
370
18
48
1
60
0
100
AcDbTrace
10
13
20
32.952229
30
0
11
16.499998
21
33.413013
31
0
12
16.500002
22
32.491446
32
0
13
16.500002
23
32.491446
33
0
39
0
210
0
220
0
230
1
0
ENDBLK
5
192
100
AcDbEntity
8
0
100
AcDbBlockEnd
0
ENDSEC
0
SECTION
2
ENTITIES
0
ARC
5
C1
100
AcDbEntity
8
SK2
62
256
6
ByLayer
370
13
48
1
60
0
100
AcDbCircle
39
0
10
57
20
0
30
0
40
19
210
0
220
0
230
1
100
AcDbArc
50
290
51
70
0
ELLIPSE
5
C2
100
AcDbEntity
8
SK1
62
256
6
ByLayer
370
18
48
1
60
0
100
AcDbEllipse
10
153.54477
20
0
30
0
11
229.090026261202
21
-2.59581837845095E-13
31
0
210
0
220
0
230
1
40
0.034921
41
2.39723378988983
42
2.57876881051445
0
ELLIPSE
5
C3
100
AcDbEntity
8
SK1
62
256
6
ByLayer
370
18
48
1
60
0
100
AcDbEllipse
10
-20.57895
20
0
30
0
11
8.57894968019762
21
-9.72080522714331E-15
31
0
210
0
220
0
230
1
40
0.932515
41
-0.661405283579246
42
0.661405283579253
0
ELLIPSE
5
C4
100
AcDbEntity
8
SK1
62
256
6
ByLayer
370
18
48
1
60
0
100
AcDbEllipse
10
153.54477
20
0
30
0
11
229.090026264126
21
-2.59581837848408E-13
31
0
210
0
220
0
230
1
40
0.034921
41
-2.57876881051488
42
-2.39723378989224
0
ELLIPSE
5
C5
100
AcDbEntity
8
SK1
62
256
6
ByLayer
370
18
48
1
60
0
100
AcDbEllipse
10
-34.539879
20
0
30
0
11
-1.46952762458688E-15
21
-8.00000000000015
31
0
210
0
220
0
230
1
40
0.932515
41
-2.00016141679846
42
-1.14143123679134
0
POINT
5
70
100
AcDbEntity
8
80
62
256
6
ByLayer
370
18
48
1
60
0
100
AcDbPoint
10
0
20
0
30
0
39
0
210
0
220
0
230
1
50
360
0
POINT
5
72
100
AcDbEntity
8
81
62
256
6
ByLayer
370
18
48
1
60
0
100
AcDbPoint
10
57
20
0
30
0
39
0
210
0
220
0
230
1
50
360
0
POINT
5
74
100
AcDbEntity
8
1
62
256
6
ByLayer
370
18
48
1
60
1
100
AcDbPoint
10
-48
20
-8
30
0
39
0
210
0
220
0
230
1
50
360
0
POINT
5
76
100
AcDbEntity
8
1
62
256
6
ByLayer
370
18
48
1
60
1
100
AcDbPoint
10
57
20
0
30
0
39
0
210
0
220
0
230
1
50
360
0
POINT
5
77
100
AcDbEntity
8
1
62
256
6
ByLayer
370
18
48
1
60
1
100
AcDbPoint
10
57
20
0
30
0
39
0
210
0
220
0
230
1
50
360
0
POINT
5
78
100
AcDbEntity
8
1
62
256
6
ByLayer
370
18
48
1
60
1
100
AcDbPoint
10
3
20
-6
30
0
39
0
210
0
220
0
230
1
50
360
0
POINT
5
79
100
AcDbEntity
8
1
62
256
6
ByLayer
370
18
48
1
60
1
100
AcDbPoint
10
-48
20
-8
30
0
39
0
210
0
220
0
230
1
50
360
0
POINT
5
7A
100
AcDbEntity
8
1
62
256
6
ByLayer
370
18
48
1
60
1
100
AcDbPoint
10
0
20
-8
30
0
39
0
210
0
220
0
230
1
50
360
0
POINT
5
7B
100
AcDbEntity
8
1
62
256
6
ByLayer
370
18
48
1
60
1
100
AcDbPoint
10
57
20
0
30
0
39
0
210
0
220
0
230
1
50
360
0
POINT
5
7C
100
AcDbEntity
8
1
62
256
6
ByLayer
370
18
48
1
60
1
100
AcDbPoint
10
13
20
6
30
0
39
0
210
0
220
0
230
1
50
360
0
SPLINE
5
C6
100
AcDbEntity
8
1
62
256
6
ByLayer
370
18
48
1
60
0
100
AcDbSpline
70
4
71
3
72
16
73
12
40
0
40
0
40
0
40
0
40
0.314218438154957
40
0.314218438154957
40
0.628436876309914
40
0.628436876309914
40
0.785546095387399
40
0.785546095387399
40
0.942655314464885
40
0.942655314464885
40
1
40
1
40
1
40
1
41
1
10
47.9
20
-5.91537636554759
30
0
41
1
10
48.1885727875442
20
-5.93292733629161
30
0
41
1
10
48.4770993787546
20
-5.94767191878108
30
0
41
1
10
49.0539383445015
20
-5.97169110356214
30
0
41
1
10
49.3422452244917
20
-5.98096565618798
30
0
41
1
10
49.7744938211719
20
-5.99078718933848
30
0
41
1
10
49.9185456827285
20
-5.99337819239284
30
0
41
1
10
50.2065612305188
20
-5.99719158466957
30
0
41
1
10
50.3505078996069
20
-5.99841468340171
30
0
41
1
10
50.5469488087989
20
-5.99913946513493
30
0
41
1
10
50.5994735454435
20
-5.9992409221401
30
0
41
1
10
50.6519979636427
20
-5.99925022719771
30
0
0
SPLINE
5
C7
100
AcDbEntity
8
1
62
256
6
ByLayer
370
18
48
1
60
0
100
AcDbSpline
70
4
71
3
72
101
73
97
40
0
40
0
40
0
40
0
40
0.0312500000000001
40
0.0312500000000001
40
0.0625000000000003
40
0.0625000000000003
40
0.0781250000000003
40
0.0781250000000003
40
0.0937500000000004
40
0.0937500000000004
40
0.125000000000001
40
0.125000000000001
40
0.156250000000001
40
0.156250000000001
40
0.171875
40
0.171875
40
0.1875
40
0.1875
40
0.218749999999999
40
0.218749999999999
40
0.234374999999999
40
0.234374999999999
40
0.249999999999999
40
0.265624999999999
40
0.265624999999999
40
0.281249999999999
40
0.281249999999999
40
0.312499999999998
40
0.312499999999998
40
0.343749999999997
40
0.343749999999997
40
0.359374999999997
40
0.359374999999997
40
0.374999999999996
40
0.374999999999996
40
0.406249999999996
40
0.406249999999996
40
0.437499999999996
40
0.437499999999996
40
0.453124999999997
40
0.453124999999997
40
0.468749999999998
40
0.468749999999998
40
0.499999999999998
40
0.499999999999998
40
0.515624999999997
40
0.515624999999997
40
0.531249999999997
40
0.531249999999997
40
0.546874999999996
40
0.546874999999996
40
0.562499999999996
40
0.562499999999996
40
0.593749999999995
40
0.593749999999995
40
0.624999999999994
40
0.624999999999994
40
0.640624999999994
40
0.640624999999994
40
0.656249999999994
40
0.656249999999994
40
0.687499999999993
40
0.687499999999993
40
0.703124999999993
40
0.703124999999993
40
0.718749999999992
40
0.718749999999992
40
0.734374999999992
40
0.734374999999992
40
0.749999999999991
40
0.749999999999991
40
0.781249999999991
40
0.781249999999991
40
0.796874999999992
40
0.796874999999992
40
0.812499999999992
40
0.812499999999992
40
0.828124999999993
40
0.828124999999993
40
0.843749999999994
40
0.843749999999994
40
0.874999999999995
40
0.874999999999995
40
0.890624999999996
40
0.890624999999996
40
0.906249999999996
40
0.906249999999996
40
0.921874999999997
40
0.921874999999997
40
0.937499999999997
40
0.937499999999997
40
0.968749999999999
40
0.968749999999999
40
0.984374999999999
40
0.984374999999999
40
1
40
1
40
1
40
1
41
1
10
15.1193905473116
20
3.27496340761283
30
0
41
1
10
15.461224865789
20
3.17392497482854
30
0
41
1
10
15.8030004739289
20
3.07135169798931
30
0
41
1
10
16.4862690738433
20
2.86279422018086
30
0
41
1
10
16.8277608815131
20
2.75680650662866
30
0
41
1
10
17.339688065039
20
2.59501913645011
30
0
41
1
10
17.510279044272
20
2.5406227289651
30
0
41
1
10
17.8513446298476
20
2.43085582068616
30
0
41
1
10
18.0217996552016
20
2.37543387640889
30
0
41
1
10
18.5331699819533
20
2.20816671603558
30
0
41
1
10
18.874235260094
20
2.09570443173959
30
0
41
1
10
19.5564956771016
20
1.86846615861486
30
0
41
1
10
19.8976766916365
20
1.7536514148606
30
0
41
1
10
20.4094624668962
20
1.57945810447069
30
0
41
1
10
20.5800615234262
20
1.52106891113155
30
0
41
1
10
20.9212038680269
20
1.4034581082758
30
0
41
1
10
21.0917633607895
20
1.3442800296497
30
0
41
1
10
21.6036925351201
20
1.16642201193011
30
0
41
1
10
21.9453861122279
20
1.04763229748397
30
0
41
1
10
22.4582686643464
20
0.868384404447056
30
0
41
1
10
22.6293333615038
20
0.808463898813528
30
0
41
1
10
22.9713817842618
20
0.688336940905344
30
0
41
1
10
23.3132768294402
20
0.567948632572552
30
0
41
1
10
23.6548347465734
20
0.446951282690066
30
0
41
1
10
23.9962120565026
20
0.325616264660397
30
0
41
1
10
24.1668226045398
20
0.264815278225683
30
0
41
1
10
24.6787373233428
20
0.0829206120257311
30
0
41
1
10
25.0200330995494
20
-0.0379287950763683
30
0
41
1
10
25.702467168572
20
-0.279370278151077
30
0
41
1
10
26.0436095820476
20
-0.399950352793667
30
0
41
1
10
26.5551319186729
20
-0.580830784382329
30
0
41
1
10
26.7255772871704
20
-0.641211184095283
30
0
41
1
10
27.0664475921854
20
-0.761850656187619
30
0
41
1
10
27.2368885798505
20
-0.822064336286871
30
0
41
1
10
27.7484776390917
20
-1.00168911590413
30
0
41
1
10
28.089763900367
20
-1.12044574780609
30
0
41
1
10
28.772551836706
20
-1.35664656536568
30
0
41
1
10
29.1140734069492
20
-1.47403476243562
30
0
41
1
10
29.6264643983609
20
-1.64927210316282
30
0
41
1
10
29.7972636561437
20
-1.70758746521651
30
0
41
1
10
30.1389835108362
20
-1.82369797177535
30
0
41
1
10
30.3099761600075
20
-1.88138728037327
30
0
41
1
10
30.8229316755281
20
-2.05314308156588
30
0
41
1
10
31.1649143684284
20
-2.16600589297164
30
0
41
1
10
31.6777675092056
20
-2.33322652990267
30
0
41
1
10
31.8487001465903
20
-2.38861577971551
30
0
41
1
10
32.1905225068028
20
-2.49870537759153
30
0
41
1
10
32.3614166547623
20
-2.55339480392973
30
0
41
1
10
32.7030951551293
20
-2.66224720995214
30
0
41
1
10
32.873888581513
20
-2.71638556225341
30
0
41
1
10
33.2155769899371
20
-2.82359915715466
30
0
41
1
10
33.3864944717611
20
-2.87661967930612
30
0
41
1
10
33.89943449247
20
-3.03401718786577
30
0
41
1
10
34.2416594510378
20
-3.13690815609519
30
0
41
1
10
34.9254030343719
20
-3.33854398644894
30
0
41
1
10
35.267028236094
20
-3.43732819280871
30
0
41
1
10
35.7790117394376
20
-3.58260373814863
30
0
41
1
10
35.9495953447664
20
-3.63054618183548
30
0
41
1
10
36.2908455050007
20
-3.72493610388449
30
0
41
1
10
36.4614919980242
20
-3.77143073083494
30
0
41
1
10
36.9734566147193
20
-3.90891914293175
30
0
41
1
10
37.3147937715182
20
-3.99793436815776
30
0
41
1
10
37.8267302373321
20
-4.12773126888675
30
0
41
1
10
37.9973688346618
20
-4.17036544871473
30
0
41
1
10
38.3386122175993
20
-4.25440335216393
30
0
41
1
10
38.5091920031363
20
-4.29585545722819
30
0
41
1
10
38.8503386540034
20
-4.37747232931906
30
0
41
1
10
39.020922472326
20
-4.41760353893116
30
0
41
1
10
39.3622943550071
20
-4.49617672076283
30
0
41
1
10
39.5330658280262
20
-4.5346520446522
30
0
41
1
10
40.0455211025816
20
-4.64786929665846
30
0
41
1
10
40.3873736776867
20
-4.7203535487227
30
0
41
1
10
40.9003972455026
20
-4.82470768604128
30
0
41
1
10
41.0714380783869
20
-4.85876148349587
30
0
41
1
10
41.4132579496968
20
-4.92535663814655
30
0
41
1
10
41.584064714536
20
-4.95792579751623
30
0
41
1
10
41.9255562818636
20
-5.02146505702706
30
0
41
1
10
42.0962856243154
20
-5.05236884856174
30
0
41
1
10
42.4377599967873
20
-5.11239577998967
30
0
41
1
10
42.6084941189773
20
-5.14153538327559
30
0
41
1
10
43.12065007738
20
-5.22640473195383
30
0
41
1
10
43.462016220384
20
-5.27960123750856
30
0
41
1
10
43.9738837435146
20
-5.35440940605653
30
0
41
1
10
44.1444837912862
20
-5.37850490260118
30
0
41
1
10
44.4855652846844
20
-5.4250813467753
30
0
41
1
10
44.6560449576499
20
-5.44756061873045
30
0
41
1
10
44.9970734289249
20
-5.49069240610288
30
0
41
1
10
45.1676430838491
20
-5.51132629436773
30
0
41
1
10
45.5089090618524
20
-5.55073706685053
30
0
41
1
10
45.6795837409202
20
-5.5695344821429
30
0
41
1
10
46.1917024219313
20
-5.62323898576875
30
0
41
1
10
46.5332471913101
20
-5.65545771528946
30
0
41
1
10
47.0456788127095
20
-5.69843376969089
30
0
41
1
10
47.21650832475
20
-5.71186594735448
30
0
41
1
10
47.5581933419281
20
-5.73693189398526
30
0
41
1
10
47.7290355979655
20
-5.74856989226299
30
0
41
1
10
47.8999999999991
20
-5.75924414288104
30
0
0
SPLINE
5
C8
100
AcDbEntity
8
1
62
256
6
ByLayer
370
18
48
1
60
0
100
AcDbSpline
70
4
71
3
72
82
73
78
40
0
40
0
40
0
40
0
40
0.0253411485768271
40
0.0253411485768271
40
0.0677176203778327
40
0.0677176203778327
40
0.0889058562783357
40
0.0889058562783357
40
0.110094092178839
40
0.110094092178839
40
0.131282328079341
40
0.131282328079341
40
0.152470563979844
40
0.152470563979844
40
0.194847035780851
40
0.194847035780851
40
0.216035271681354
40
0.216035271681354
40
0.237223507581857
40
0.237223507581857
40
0.279599979382864
40
0.279599979382864
40
0.300788215283368
40
0.300788215283368
40
0.321976451183871
40
0.321976451183871
40
0.343164687084375
40
0.343164687084375
40
0.364352922984878
40
0.364352922984878
40
0.385541158885382
40
0.385541158885382
40
0.406729394785885
40
0.406729394785885
40
0.427917630686389
40
0.427917630686389
40
0.449105866586893
40
0.449105866586893
40
0.4914823383879
40
0.4914823383879
40
0.512670574288404
40
0.512670574288404
40
0.533858810188908
40
0.533858810188908
40
0.555047046089412
40
0.555047046089412
40
0.576235281989917
40
0.576235281989917
40
0.618611753790926
40
0.618611753790926
40
0.63979998969143
40
0.63979998969143
40
0.660988225591935
40
0.660988225591935
40
0.682176461492439
40
0.682176461492439
40
0.703364697392943
40
0.703364697392943
40
0.74574116919395
40
0.74574116919395
40
0.766929405094454
40
0.766929405094454
40
0.788117640994957
40
0.788117640994957
40
0.809305876895461
40
0.809305876895461
40
0.830494112795965
40
0.830494112795965
40
0.872870584596972
40
0.872870584596972
40
0.894058820497476
40
0.894058820497476
40
0.91524705639798
40
0.91524705639798
40
0.95762352819899
40
0.95762352819899
40
1
40
1
40
1
40
1
41
1
10
38.6121031290053
20
-4.31813239872383
30
0
41
1
10
38.3915611439846
20
-4.37097365000812
30
0
41
1
10
38.1709888702042
20
-4.42258496552819
30
0
41
1
10
37.581472155682
20
-4.55721238776596
30
0
41
1
10
37.2124655124146
20
-4.63802618611774
30
0
41
1
10
36.658991736302
20
-4.75437666526918
30
0
41
1
10
36.4744607987196
20
-4.79230750805323
30
0
41
1
10
36.1054434507324
20
-4.86623253196998
30
0
41
1
10
35.9209595626913
20
-4.90226688401191
30
0
41
1
10
35.5521106941982
20
-4.97258214408319
30
0
41
1
10
35.3677180736402
20
-5.00681811917997
30
0
41
1
10
34.9988503422669
20
-5.07324282254763
30
0
41
1
10
34.8143964198067
20
-5.10546455258535
30
0
41
1
10
34.2610389250986
20
-5.19925871617076
30
0
41
1
10
33.8921347102102
20
-5.25795624578208
30
0
41
1
10
33.3388300946264
20
-5.3402636492587
30
0
41
1
10
33.1544214030313
20
-5.36675981260439
30
0
41
1
10
32.7854650479524
20
-5.41764814900841
30
0
41
1
10
32.6009166318465
20
-5.44204214306279
30
0
41
1
10
32.0473834134007
20
-5.51206012242884
30
0
41
1
10
31.6783938914625
20
-5.55453173723896
30
0
41
1
10
31.1250638158163
20
-5.61204454738635
30
0
41
1
10
30.9406636188443
20
-5.63019467007479
30
0
41
1
10
30.5718915925543
20
-5.66439397706986
30
0
41
1
10
30.3874796175291
20
-5.68041471849054
30
0
41
1
10
30.0186212125934
20
-5.710316898728
30
0
41
1
10
29.8341989074911
20
-5.72421300467062
30
0
41
1
10
29.4653256158975
20
-5.74985919783384
30
0
41
1
10
29.2808285903834
20
-5.76158425269202
30
0
41
1
10
28.9117027854973
20
-5.78284771906294
30
0
41
1
10
28.7271339053344
20
-5.79238796470699
30
0
41
1
10
28.3581885065737
20
-5.80929602868704
30
0
41
1
10
28.1737831071385
20
-5.81666405909925
30
0
41
1
10
27.8051153971067
20
-5.82922689575267
30
0
41
1
10
27.6208535068107
20
-5.83442178368401
30
0
41
1
10
27.2524803423663
20
-5.84262627171137
30
0
41
1
10
27.0683552821641
20
-5.84563067972911
30
0
41
1
10
26.5159185974357
20
-5.8513325872693
30
0
41
1
10
26.1476136796493
20
-5.85074033231044
30
0
41
1
10
25.5951758889858
20
-5.84332169210467
30
0
41
1
10
25.4110344867939
20
-5.83975953917036
30
0
41
1
10
25.0427982407235
20
-5.83044195222936
30
0
41
1
10
24.8587224432161
20
-5.82467934726603
30
0
41
1
10
24.4904837757562
20
-5.8109814161551
30
0
41
1
10
24.3063188122781
20
-5.80305054243661
30
0
41
1
10
23.937967010658
20
-5.78500138513536
30
0
41
1
10
23.7538054642712
20
-5.77486905269666
30
0
41
1
10
23.2010829069196
20
-5.74126578034989
30
0
41
1
10
22.8322742917521
20
-5.71461748210911
30
0
41
1
10
22.2787676913154
20
-5.66818005670203
30
0
41
1
10
22.0941740690975
20
-5.65162015847139
30
0
41
1
10
21.7251695188411
20
-5.61635311538046
30
0
41
1
10
21.5407480275926
20
-5.59763682847105
30
0
41
1
10
21.1720108628808
20
-5.55807212158626
30
0
41
1
10
20.9876583925111
20
-5.53725519795105
30
0
41
1
10
20.6189278875042
20
-5.49361994969894
30
0
41
1
10
20.4345584697394
20
-5.47079441405896
30
0
41
1
10
19.8814465993135
20
-5.39930180133973
30
0
41
1
10
19.5126841689488
20
-5.34764579932613
30
0
41
1
10
18.9596939034962
20
-5.26392773580957
30
0
41
1
10
18.7753766784007
20
-5.23499328894533
30
0
41
1
10
18.4066249581025
20
-5.17524736373292
30
0
41
1
10
18.2222113541744
20
-5.14441205525415
30
0
41
1
10
17.8533837642969
20
-5.08070849111391
30
0
41
1
10
17.6689552944969
20
-5.0478565481128
30
0
41
1
10
17.2998937416754
20
-4.98040840996768
30
0
41
1
10
17.1153028518933
20
-4.9457863789174
30
0
41
1
10
16.5617492005906
20
-4.83920559907273
30
0
41
1
10
16.1928798282238
20
-4.76451301759886
30
0
41
1
10
15.6398771189977
20
-4.64690085329875
30
0
41
1
10
15.4556115856154
20
-4.60673338254929
30
0
41
1
10
15.087047402209
20
-4.52476199754526
30
0
41
1
10
14.9027374409862
20
-4.48298020111267
30
0
41
1
10
14.3497281037007
20
-4.35525786480562
30
0
41
1
10
13.9809472063648
20
-4.26694866250315
30
0
41
1
10
13.2432434443114
20
-4.08388227958079
30
0
41
1
10
12.8743232895574
20
-3.9891204781523
30
0
41
1
10
12.5053831383223
20
-3.89097217122648
30
0
0
SPLINE
5
C9
100
AcDbEntity
8
1
62
256
6
ByLayer
370
18
48
1
60
0
100
AcDbSpline
70
4
71
3
72
26
73
22
40
0
40
0
40
0
40
0
40
0.124999999999995
40
0.124999999999995
40
0.187499999999996
40
0.187499999999996
40
0.249999999999996
40
0.249999999999996
40
0.374999999999997
40
0.374999999999997
40
0.499999999999997
40
0.499999999999997
40
0.624999999999998
40
0.624999999999998
40
0.749999999999999
40
0.749999999999999
40
0.874999999999999
40
0.874999999999999
40
0.9375
40
0.9375
40
1
40
1
40
1
40
1
41
1
10
54.8161785943738
20
-0.856368449092969
30
0
41
1
10
54.5278632174561
20
-0.75257381599792
30
0
41
1
10
54.2397410246983
20
-0.648144089595746
30
0
41
1
10
53.8075158372262
20
-0.491456554424133
30
0
41
1
10
53.6634488084277
20
-0.439179089816378
30
0
41
1
10
53.3753665627042
20
-0.334429271013278
30
0
41
1
10
53.2313523813671
20
-0.281953998740562
30
0
41
1
10
52.799210127627
20
-0.124723713529789
30
0
41
1
10
52.5110109084166
20
-0.0200860663923095
30
0
41
1
10
51.9345629118001
20
0.189261357904229
30
0
41
1
10
51.6463016016675
20
0.29394831309051
30
0
41
1
10
51.0697616576634
20
0.503438498262625
30
0
41
1
10
50.7817092730877
20
0.608309287962669
30
0
41
1
10
50.205461626615
20
0.816713691886406
30
0
41
1
10
49.917304260692
20
0.920353546508039
30
0
41
1
10
49.3409528867241
20
1.12659916625185
30
0
41
1
10
49.0527528301389
20
1.22918896568044
30
0
41
1
10
48.6205198496332
20
1.38254998646636
30
0
41
1
10
48.4764605756442
20
1.43360198702007
30
0
41
1
10
48.1882744068591
20
1.53528871621262
30
0
41
1
10
48.0441469483716
20
1.58592221385606
30
0
41
1
10
47.9
20
1.63638572107325
30
0
0
SPLINE
5
CA
100
AcDbEntity
8
1
62
256
6
ByLayer
370
18
48
1
60
0
100
AcDbSpline
70
4
71
3
72
81
73
77
40
0
40
0
40
0
40
0
40
0.0624999999999933
40
0.0624999999999933
40
0.124999999999986
40
0.124999999999986
40
0.140624999999986
40
0.140624999999986
40
0.156249999999985
40
0.156249999999985
40
0.187499999999983
40
0.187499999999983
40
0.249999999999981
40
0.249999999999981
40
0.28124999999998
40
0.28124999999998
40
0.29687499999998
40
0.29687499999998
40
0.312499999999979
40
0.312499999999979
40
0.34374999999998
40
0.34374999999998
40
0.37499999999998
40
0.37499999999998
40
0.40624999999998
40
0.40624999999998
40
0.437499999999981
40
0.437499999999981
40
0.453124999999981
40
0.453124999999981
40
0.468749999999981
40
0.468749999999981
40
0.499999999999982
40
0.499999999999982
40
0.531249999999982
40
0.531249999999982
40
0.539062499999982
40
0.539062499999982
40
0.546874999999983
40
0.562499999999982
40
0.562499999999982
40
0.593749999999982
40
0.593749999999982
40
0.624999999999983
40
0.624999999999983
40
0.640624999999983
40
0.640624999999983
40
0.656249999999984
40
0.656249999999984
40
0.687499999999985
40
0.687499999999985
40
0.718749999999986
40
0.718749999999986
40
0.726562499999987
40
0.726562499999987
40
0.734374999999987
40
0.734374999999987
40
0.749999999999986
40
0.749999999999986
40
0.781249999999986
40
0.781249999999986
40
0.812499999999986
40
0.843749999999986
40
0.843749999999986
40
0.851562499999986
40
0.851562499999986
40
0.859374999999986
40
0.874999999999988
40
0.874999999999988
40
0.937499999999994
40
0.937499999999994
40
0.968749999999997
40
0.968749999999997
40
0.984374999999998
40
0.984374999999998
40
1
40
1
40
1
40
1
41
1
10
54.8161785943802
20
5.80949119039005
30
0
41
1
10
54.8911230018599
20
5.62367187486126
30
0
41
1
10
54.9663124777813
20
5.43230197030348
30
0
41
1
10
55.1176156600702
20
5.03997146373175
30
0
41
1
10
55.1937302809984
20
4.83900209429663
30
0
41
1
10
55.2895341443864
20
4.58222963445309
30
0
41
1
10
55.3087271191968
20
4.53059543312003
30
0
41
1
10
55.3471758242333
20
4.42677210946337
30
0
41
1
10
55.3664389918861
20
4.37456211403276
30
0
41
1
10
55.4239737615606
20
4.21804101663923
30
0
41
1
10
55.4621066852941
20
4.11353125800096
30
0
41
1
10
55.5757873283143
20
3.79951123074187
30
0
41
1
10
55.6506550741855
20
3.58952479191228
30
0
41
1
10
55.7608424280279
20
3.27335548746123
30
0
41
1
10
55.7972112290643
20
3.16776439220391
30
0
41
1
10
55.8510219623331
20
3.00900542617848
30
0
41
1
10
55.8688341507973
20
2.95602334932281
30
0
41
1
10
55.9041607853724
20
2.84991717068903
30
0
41
1
10
55.9216814396792
20
2.79677260636774
30
0
41
1
10
55.973455647487
20
2.63786931067293
30
0
41
1
10
56.0070150397423
20
2.53239008423785
30
0
41
1
10
56.0716095130863
20
2.32216848035671
30
0
41
1
10
56.1026490306969
20
2.21742661809162
30
0
41
1
10
56.1612627756916
20
2.00846174978184
30
0
41
1
10
56.188841777559
20
1.90423934274756
30
0
41
1
10
56.2391150270967
20
1.69603311664909
30
0
41
1
10
56.2618115689992
20
1.59204842563474
30
0
41
1
10
56.2906763153931
20
1.43599280774325
30
0
41
1
10
56.2994366611397
20
1.38388103753903
30
0
41
1
10
56.3147799467151
20
1.28061536856151
30
0
41
1
10
56.3213850186866
20
1.2293518907814
30
0
41
1
10
56.3376785430302
20
1.07671261280839
30
0
41
1
10
56.3438106424151
20
0.976482745927939
30
0
41
1
10
56.3454693504143
20
0.779439246562902
30
0
41
1
10
56.3409863539709
20
0.682627264037535
30
0
41
1
10
56.3287955043768
20
0.56406266149645
30
0
41
1
10
56.3260281538126
20
0.540450094726367
30
0
41
1
10
56.3198673848448
20
0.493577954766181
30
0
41
1
10
56.3097181806884
20
0.424018009857122
30
0
41
1
10
56.2970022770327
20
0.356675064862998
30
0
41
1
10
56.2685755106768
20
0.224873116226632
30
0
41
1
10
56.2456474833181
20
0.140845044981944
30
0
41
1
10
56.1939066130618
20
-0.0198336783230673
30
0
41
1
10
56.1650981219524
20
-0.0964865031951092
30
0
41
1
10
56.1186207005247
20
-0.206018514296744
30
0
41
1
10
56.1025584716814
20
-0.241654933606924
30
0
41
1
10
56.0697835393158
20
-0.310485771160984
30
0
41
1
10
56.0530379101219
20
-0.343762805149055
30
0
41
1
10
56.0019213776395
20
-0.440281453612727
30
0
41
1
10
55.9666824702648
20
-0.500219826805591
30
0
41
1
10
55.8945663330172
20
-0.611578034670742
30
0
41
1
10
55.8576842247311
20
-0.662996263755872
30
0
41
1
10
55.8107797202006
20
-0.721954323880567
30
0
41
1
10
55.8013581292346
20
-0.733479575772606
30
0
41
1
10
55.7824370763504
20
-0.755995181326284
30
0
41
1
10
55.772930356247
20
-0.766993130821874
30
0
41
1
10
55.7444186397045
20
-0.799047159457444
30
0
41
1
10
55.7253883428084
20
-0.819206386788096
30
0
41
1
10
55.6682597819919
20
-0.876135547129621
30
0
41
1
10
55.630126683308
20
-0.909364281477565
30
0
41
1
10
55.5538350422632
20
-0.966614028945884
30
0
41
1
10
55.4775161211305
20
-1.01465414124525
30
0
41
1
10
55.4011212833275
20
-1.04430556153795
30
0
41
1
10
55.3533114509663
20
-1.0569687728582
30
0
41
1
10
55.3437392812748
20
-1.05920826072466
30
0
41
1
10
55.3246721995571
20
-1.06307918827389
30
0
41
1
10
55.2961591060606
20
-1.06798213186008
30
0
41
1
10
55.2678992487815
20
-1.07020495349829
30
0
41
1
10
55.1742211589693
20
-1.07176001909937
30
0
41
1
10
55.100945857692
20
-1.05438811433291
30
0
41
1
10
54.9927584557163
20
-1.00086367634154
30
0
41
1
10
54.9569839343757
20
-0.978421367705948
30
0
41
1
10
54.9036574574519
20
-0.93770509922021
30
0
41
1
10
54.8859838240494
20
-0.922989240434163
30
0
41
1
10
54.8509046800766
20
-0.891349089111344
30
0
41
1
10
54.8334859357387
20
-0.874414789624268
30
0
41
1
10
54.8161785943802
20
-0.856368449095271
30
0
0
SPLINE
5
CB
100
AcDbEntity
8
1
62
256
6
ByLayer
370
18
48
1
60
0
100
AcDbSpline
70
4
71
3
72
18
73
14
40
0
40
0
40
0
40
0
40
0.0659056381032146
40
0.0659056381032146
40
0.169693900536199
40
0.169693900536199
40
0.584846950268117
40
0.584846950268117
40
0.68863521270109
40
0.68863521270109
40
0.792423475134063
40
0.792423475134063
40
1
40
1
40
1
40
1
41
1
10
50.6519980762581
20
5.99925022721763
30
0
41
1
10
50.7433765863964
20
5.99926641531252
30
0
41
1
10
50.8347541327107
20
5.99900368950486
30
0
41
1
10
51.0700710439557
20
5.99761174199571
30
0
41
1
10
51.2140414015695
20
5.99607392579384
30
0
41
1
10
51.9339666057733
20
5.98497602436893
30
0
41
1
10
52.5101328311726
20
5.96522946516851
30
0
41
1
10
53.2303022618775
20
5.92675664734332
30
0
41
1
10
53.3743287781217
20
5.9183666559893
30
0
41
1
10
53.6623976588674
20
5.9001966009013
30
0
41
1
10
53.8064618779376
20
5.89042624766225
30
0
41
1
10
54.2388911362119
20
5.85914813736636
30
0
41
1
10
54.5274365318769
20
5.83565135292309
30
0
41
1
10
54.8161785943738
20
5.80949119039062
30
0
0
SPLINE
5
CC
100
AcDbEntity
8
1
62
256
6
ByLayer
370
18
48
1
60
0
100
AcDbSpline
70
4
71
3
72
38
73
34
40
0
40
0
40
0
40
0
40
0.0072799109319579
40
0.0072799109319579
40
0.0624310269912965
40
0.0624310269912965
40
0.117582143050635
40
0.117582143050635
40
0.227884375169308
40
0.227884375169308
40
0.283035491228643
40
0.283035491228643
40
0.338186607287978
40
0.338186607287978
40
0.393337723347313
40
0.393337723347313
40
0.448488839406648
40
0.448488839406648
40
0.558791071525317
40
0.558791071525317
40
0.613942187584652
40
0.613942187584652
40
0.669093303643987
40
0.669093303643987
40
0.724244419703322
40
0.724244419703322
40
0.779395535762657
40
0.779395535762657
40
0.88969776788133
40
0.88969776788133
40
0.944848883940665
40
0.944848883940665
40
1
40
1
40
1
40
1
41
1
10
38.6122182101191
20
4.3204703645292
30
0
41
1
10
38.6347340831771
20
4.32587930482984
30
0
41
1
10
38.6572497621523
20
4.33127720663992
30
0
41
1
10
38.8503386540013
20
4.37747232931858
30
0
41
1
10
39.020922472324
20
4.41760353893068
30
0
41
1
10
39.362294355005
20
4.49617672076238
30
0
41
1
10
39.5330658280241
20
4.53465204465172
30
0
41
1
10
40.0455211025795
20
4.647869296658
30
0
41
1
10
40.3873736776846
20
4.72035354872224
30
0
41
1
10
40.9003972455004
20
4.82470768604082
30
0
41
1
10
41.0714380783846
20
4.85876148349541
30
0
41
1
10
41.4132579496946
20
4.9253566381461
30
0
41
1
10
41.5840647145337
20
4.9579257975158
30
0
41
1
10
41.9255562818613
20
5.02146505702663
30
0
41
1
10
42.0962856243131
20
5.05236884856132
30
0
41
1
10
42.4377599967849
20
5.11239577998927
30
0
41
1
10
42.6084941189749
20
5.1415353832752
30
0
41
1
10
43.1206500773775
20
5.22640473195347
30
0
41
1
10
43.4620162203815
20
5.27960123750819
30
0
41
1
10
43.9738837435121
20
5.35440940605619
30
0
41
1
10
44.1444837912837
20
5.37850490260081
30
0
41
1
10
44.4855652846819
20
5.42508134677496
30
0
41
1
10
44.6560449576473
20
5.44756061873014
30
0
41
1
10
44.9970734289224
20
5.49069240610254
30
0
41
1
10
45.1676430838466
20
5.51132629436745
30
0
41
1
10
45.5089090618499
20
5.55073706685025
30
0
41
1
10
45.6795837409177
20
5.56953448214261
30
0
41
1
10
46.1917024219286
20
5.6232389857685
30
0
41
1
10
46.5332471913074
20
5.6554577152892
30
0
41
1
10
47.0456788127067
20
5.69843376969067
30
0
41
1
10
47.2165083247472
20
5.71186594735428
30
0
41
1
10
47.5581933419254
20
5.73693189398506
30
0
41
1
10
47.7290355979659
20
5.74856989226302
30
0
41
1
10
47.8999999999995
20
5.75924414288107
30
0
0
SPLINE
5
CD
100
AcDbEntity
8
1
62
256
6
ByLayer
370
18
48
1
60
0
100
AcDbSpline
70
4
71
3
72
72
73
68
40
0
40
0
40
0
40
0
40
0.0257281056964482
40
0.0257281056964482
40
0.0514562113928963
40
0.0514562113928963
40
0.102912422785793
40
0.102912422785793
40
0.128640528482241
40
0.128640528482241
40
0.154368634178689
40
0.154368634178689
40
0.205824845571587
40
0.205824845571587
40
0.231552951268037
40
0.231552951268037
40
0.257281056964487
40
0.257281056964487
40
0.283009162660937
40
0.283009162660937
40
0.308737268357387
40
0.308737268357387
40
0.334465374053836
40
0.334465374053836
40
0.360193479750286
40
0.360193479750286
40
0.385921585446736
40
0.385921585446736
40
0.411649691143186
40
0.411649691143186
40
0.463105902536088
40
0.463105902536088
40
0.514562113928989
40
0.514562113928989
40
0.54029021962544
40
0.54029021962544
40
0.566018325321891
40
0.566018325321891
40
0.591746431018342
40
0.591746431018342
40
0.617474536714792
40
0.617474536714792
40
0.668930748107694
40
0.668930748107694
40
0.694658853804145
40
0.694658853804145
40
0.720386959500597
40
0.720386959500597
40
0.771843170893499
40
0.771843170893499
40
0.797571276589949
40
0.797571276589949
40
0.8232993822864
40
0.8232993822864
40
0.849027487982851
40
0.849027487982851
40
0.874755593679301
40
0.874755593679301
40
0.900483699375752
40
0.900483699375752
40
0.926211805072203
40
0.926211805072203
40
0.951939910768654
40
0.951939910768654
40
0.977668016465104
40
0.977668016465104
40
1
40
1
40
1
40
1
41
1
10
47.9
20
1.54251659688199
30
0
41
1
10
47.7154543588041
20
1.60570247197697
30
0
41
1
10
47.5310155382116
20
1.66865060998074
30
0
41
1
10
47.1622737705341
20
1.79385265658237
30
0
41
1
10
46.9779305956402
20
1.85599590704172
30
0
41
1
10
46.4250008504435
20
2.04111422914076
30
0
41
1
10
46.0565517804487
20
2.1628836732387
30
0
41
1
10
45.5042199840584
20
2.34330222711947
30
0
41
1
10
45.3201662827888
20
2.4030680690195
30
0
41
1
10
44.952171359925
20
2.52184177511521
30
0
41
1
10
44.7682081739179
20
2.58079183114523
30
0
41
1
10
44.2162098856235
20
2.75579736010741
30
0
41
1
10
43.8481308606305
20
2.87017959787582
30
0
41
1
10
43.2959360833285
20
3.03845401549626
30
0
41
1
10
43.1118604184769
20
3.09400010704584
30
0
41
1
10
42.7437249504982
20
3.2040866700163
30
0
41
1
10
42.5596810637404
20
3.25866370198022
30
0
41
1
10
42.1914584033428
20
3.36644745634152
30
0
41
1
10
42.0072871489587
20
3.41967382768786
30
0
41
1
10
41.6388948461337
20
3.5249577406519
30
0
41
1
10
41.454695680575
20
3.57706371987459
30
0
41
1
10
41.0860872386297
20
3.67973531658114
30
0
41
1
10
40.9016838980489
20
3.73031627857489
30
0
41
1
10
40.5327205766755
20
3.83006627195783
30
0
41
1
10
40.3481242827482
20
3.87925114501573
30
0
41
1
10
39.9790132268685
20
3.97618592462612
30
0
41
1
10
39.7945054059159
20
4.02393260970518
30
0
41
1
10
39.4255940176853
20
4.11799605885037
30
0
41
1
10
39.2412022175956
20
4.16433570934896
30
0
41
1
10
38.6880999481295
20
4.30102687095211
30
0
41
1
10
38.3192901206307
20
4.38871753723018
30
0
41
1
10
37.581472155682
20
4.55721238776596
30
0
41
1
10
37.2124655124145
20
4.63802618611774
30
0
41
1
10
36.6589917363019
20
4.75437666526921
30
0
41
1
10
36.4744607987196
20
4.79230750805323
30
0
41
1
10
36.1054434507324
20
4.86623253196998
30
0
41
1
10
35.9209595626912
20
4.90226688401194
30
0
41
1
10
35.5521106941981
20
4.97258214408319
30
0
41
1
10
35.3677180736402
20
5.00681811917997
30
0
41
1
10
34.9988503422669
20
5.07324282254763
30
0
41
1
10
34.8143964198066
20
5.10546455258535
30
0
41
1
10
34.2610389250986
20
5.19925871617076
30
0
41
1
10
33.8921347102102
20
5.25795624578208
30
0
41
1
10
33.3388300946263
20
5.3402636492587
30
0
41
1
10
33.1544214030313
20
5.36675981260441
30
0
41
1
10
32.7854650479524
20
5.41764814900844
30
0
41
1
10
32.6009166318465
20
5.44204214306279
30
0
41
1
10
32.0473834134007
20
5.51206012242884
30
0
41
1
10
31.6783938914626
20
5.55453173723896
30
0
41
1
10
31.1250638158163
20
5.61204454738635
30
0
41
1
10
30.9406636188443
20
5.63019467007479
30
0
41
1
10
30.5718915925543
20
5.66439397706986
30
0
41
1
10
30.3874796175291
20
5.68041471849054
30
0
41
1
10
30.0186212125934
20
5.710316898728
30
0
41
1
10
29.8341989074911
20
5.72421300467062
30
0
41
1
10
29.4653256158975
20
5.74985919783384
30
0
41
1
10
29.2808285903833
20
5.76158425269202
30
0
41
1
10
28.9117027854973
20
5.78284771906294
30
0
41
1
10
28.7271339053343
20
5.79238796470699
30
0
41
1
10
28.3581885065736
20
5.80929602868704
30
0
41
1
10
28.1737831071385
20
5.81666405909928
30
0
41
1
10
27.8051153971068
20
5.8292268957527
30
0
41
1
10
27.6208535068107
20
5.83442178368401
30
0
41
1
10
27.2524803423664
20
5.84262627171137
30
0
41
1
10
27.0683552821641
20
5.84563067972911
30
0
41
1
10
26.7243714605286
20
5.84918106658881
30
0
41
1
10
26.5645306021701
20
5.85000327140057
30
0
41
1
10
26.404689340564
20
5.8500012016213
30
0
0
SPLINE
5
CE
100
AcDbEntity
8
1
62
256
6
ByLayer
370
18
48
1
60
0
100
AcDbSpline
70
4
71
3
72
107
73
103
40
0
40
0
40
0
40
0
40
0.062500000000004
40
0.062500000000004
40
0.125000000000008
40
0.125000000000008
40
0.15625000000001
40
0.15625000000001
40
0.187500000000013
40
0.187500000000013
40
0.218750000000016
40
0.218750000000016
40
0.234375000000017
40
0.234375000000017
40
0.250000000000018
40
0.250000000000018
40
0.281250000000021
40
0.281250000000021
40
0.296875000000022
40
0.296875000000022
40
0.304687500000022
40
0.304687500000022
40
0.312500000000022
40
0.312500000000022
40
0.343750000000023
40
0.343750000000023
40
0.359375000000023
40
0.359375000000023
40
0.375000000000022
40
0.375000000000022
40
0.382812500000022
40
0.382812500000022
40
0.390625000000022
40
0.390625000000022
40
0.406250000000023
40
0.406250000000023
40
0.421875000000023
40
0.421875000000023
40
0.425781250000024
40
0.425781250000024
40
0.429687500000024
40
0.437500000000023
40
0.437500000000023
40
0.453125000000024
40
0.453125000000024
40
0.460937500000024
40
0.460937500000024
40
0.464843750000024
40
0.464843750000024
40
0.468750000000024
40
0.468750000000024
40
0.484375000000024
40
0.500000000000025
40
0.500000000000025
40
0.515625000000025
40
0.515625000000025
40
0.531250000000026
40
0.531250000000026
40
0.535156250000026
40
0.535156250000026
40
0.539062500000026
40
0.546875000000026
40
0.546875000000026
40
0.562500000000025
40
0.562500000000025
40
0.578125000000025
40
0.578125000000025
40
0.582031250000025
40
0.582031250000025
40
0.585937500000025
40
0.593750000000025
40
0.593750000000025
40
0.609375000000025
40
0.609375000000025
40
0.625000000000025
40
0.625000000000025
40
0.656250000000025
40
0.656250000000025
40
0.664062500000025
40
0.664062500000025
40
0.671875000000024
40
0.687500000000024
40
0.687500000000024
40
0.718750000000021
40
0.718750000000021
40
0.750000000000019
40
0.750000000000019
40
0.781250000000016
40
0.781250000000016
40
0.812500000000014
40
0.812500000000014
40
0.843750000000012
40
0.843750000000012
40
0.875000000000009
40
0.875000000000009
40
0.906250000000007
40
0.906250000000007
40
0.937500000000005
40
0.937500000000005
40
0.968750000000002
40
0.968750000000002
40
1
40
1
40
1
40
1
41
1
10
10
20
4.09104664946
30
0
41
1
10
9.6312450921379
20
4.13817353572693
30
0
41
1
10
9.26525202248311
20
4.17451662056808
30
0
41
1
10
8.53901785153482
20
4.22307323308621
30
0
41
1
10
8.17877277994396
20
4.23531841025618
30
0
41
1
10
7.64283641854516
20
4.23232303728594
30
0
41
1
10
7.46492934913169
20
4.22774725978547
30
0
41
1
10
7.11061714677399
20
4.21060946361016
30
0
41
1
10
6.93421177445131
20
4.19805105440759
30
0
41
1
10
6.58293824241565
20
4.16383543348903
30
0
41
1
10
6.40806970548706
20
4.14218453331227
30
0
41
1
10
6.14696079020084
20
4.10172863284464
30
0
41
1
10
6.060018997821
20
4.0868864785667
30
0
41
1
10
5.88754704400438
20
4.05448228296558
30
0
41
1
10
5.80192159706669
20
4.03690896769763
30
0
41
1
10
5.54694623128813
20
3.97977020898506
30
0
41
1
10
5.37948899473272
20
3.93581401711529
30
0
41
1
10
5.13249096072249
20
3.85945426008132
30
0
41
1
10
5.050858080522
20
3.83225724003518
30
0
41
1
10
4.92953049974062
20
3.78856704676559
30
0
41
1
10
4.88924240756717
20
3.77350771508657
30
0
41
1
10
4.80921861761811
20
3.74243168795988
30
0
41
1
10
4.76951166260284
20
3.72642718657767
30
0
41
1
10
4.57254726538929
20
3.64397034042327
30
0
41
1
10
4.41996569483135
20
3.57028041605008
30
0
41
1
10
4.19982805468752
20
3.44551154338527
30
0
41
1
10
4.12791111330506
20
3.40153755625602
30
0
41
1
10
3.98732526474401
20
3.30816542122591
30
0
41
1
10
3.91865453957311
20
3.25877066203421
30
0
41
1
10
3.81841962047059
20
3.179946520069
30
0
41
1
10
3.78540813784963
20
3.15282486945398
30
0
41
1
10
3.72079127160566
20
3.09721397181184
30
0
41
1
10
3.68917242964542
20
3.06871967341687
30
0
41
1
10
3.59649022364152
20
2.98104601484278
30
0
41
1
10
3.53759249040473
20
2.9196850962507
30
0
41
1
10
3.42631552610609
20
2.79029230901031
30
0
41
1
10
3.37393073369537
20
2.72226636629063
30
0
41
1
10
3.31319410797738
20
2.63231313273934
30
0
41
1
10
3.30126820191109
20
2.61404756617395
30
0
41
1
10
3.27803024726018
20
2.57718424662136
30
0
41
1
10
3.24407609884116
20
2.52136968819028
30
0
41
1
10
3.21288214806339
20
2.46396191006735
30
0
41
1
10
3.1543448392369
20
2.34691200999549
30
0
41
1
10
3.12043735133307
20
2.26590916930442
30
0
41
1
10
3.07818863745453
20
2.13936538058562
30
0
41
1
10
3.06554495693177
20
2.09634202974905
30
0
41
1
10
3.04889845323737
20
2.03044606720872
30
0
41
1
10
3.04374492065983
20
2.00827689068143
30
0
41
1
10
3.03432119369612
20
1.96390056462295
30
0
41
1
10
3.03003778963136
20
1.94164289906379
30
0
41
1
10
3.01075846129152
20
1.83000711237355
30
0
41
1
10
2.99356413972319
20
1.64916977185294
30
0
41
1
10
3.00389905474282
20
1.46383670851168
30
0
41
1
10
3.02848237208727
20
1.27617988997136
30
0
41
1
10
3.04754345710833
20
1.18386336590157
30
0
41
1
10
3.09775859666141
20
1.00210786399094
30
0
41
1
10
3.12892316549815
20
0.912640595173627
30
0
41
1
10
3.17484329594728
20
0.802432751787194
30
0
41
1
10
3.18437867976803
20
0.780471457159166
30
0
41
1
10
3.20399143632216
20
0.737013308579947
30
0
41
1
10
3.23427246058301
20
0.672403544408439
30
0
41
1
10
3.26701809156057
20
0.60944454158772
30
0
41
1
10
3.3355238760262
20
0.485544332693962
30
0
41
1
10
3.38520314584827
20
0.405627440767347
30
0
41
1
10
3.49146390374827
20
0.250407229518117
30
0
41
1
10
3.54804997196476
20
0.175106981332618
30
0
41
1
10
3.62258777385466
20
0.0835214819986163
30
0
41
1
10
3.6376930112867
20
0.0653243985067604
30
0
41
1
10
3.6681416075694
20
0.0293312203423
30
0
41
1
10
3.71421888076992
20
-0.0241156808484391
30
0
41
1
10
3.76145288590999
20
-0.0760113425830298
30
0
41
1
10
3.85733371986103
20
-0.177911784295418
30
0
41
1
10
3.92313346670323
20
-0.24333057131625
30
0
41
1
10
4.05794047751527
20
-0.369891751820432
30
0
41
1
10
4.1269495497103
20
-0.431031668502385
30
0
41
1
10
4.33815806491413
20
-0.608894518125823
30
0
41
1
10
4.48451311676376
20
-0.720096818078758
30
0
41
1
10
4.67285122183779
20
-0.851962421889766
30
0
41
1
10
4.71081073415624
20
-0.877988053179763
30
0
41
1
10
4.78694116576526
20
-0.92916189131472
30
0
41
1
10
4.90156164276692
20
-1.00468226403788
30
0
41
1
10
5.01736268006354
20
-1.07675687049428
30
0
41
1
10
5.25032720036472
20
-1.2169202640699
30
0
41
1
10
5.40744614337873
20
-1.30507228622818
30
0
41
1
10
5.72441503489529
20
-1.47325336964025
30
0
41
1
10
5.88426825193662
20
-1.55327176590549
30
0
41
1
10
6.20602809256957
20
-1.70695090874284
30
0
41
1
10
6.36793616443271
20
-1.78060649456674
30
0
41
1
10
6.69325963165835
20
-1.92289484335987
30
0
41
1
10
6.85667553880978
20
-1.99152513995043
30
0
41
1
10
7.18457354985108
20
-2.12477261314521
30
0
41
1
10
7.34905563383077
20
-2.18938873165496
30
0
41
1
10
7.67874381226613
20
-2.31534098846342
30
0
41
1
10
7.84394958732867
20
-2.37667677160402
30
0
41
1
10
8.1748478241486
20
-2.49654366104124
30
0
41
1
10
8.34053984075967
20
-2.55507464806058
30
0
41
1
10
8.67229022586034
20
-2.66955482843829
30
0
41
1
10
8.83824663212425
20
-2.72546795647989
30
0
41
1
10
9.17005248466546
20
-2.8345377623414
30
0
41
1
10
9.33594432779682
20
-2.88770834336134
30
0
41
1
10
9.66783199136125
20
-2.99107621718019
30
0
41
1
10
9.83382777149279
20
-3.0412721498175
30
0
41
1
10
10
20
-3.08975539364732
30
0
0
SPLINE
5
CF
100
AcDbEntity
8
1
62
256
6
ByLayer
370
18
48
1
60
0
100
AcDbSpline
70
4
71
3
72
14
73
10
40
0
40
0
40
0
40
0
40
0.25
40
0.25
40
0.5
40
0.5
40
0.75
40
0.75
40
1
40
1
40
1
40
1
41
1
10
12.5053831383223
20
-3.89097217122645
30
0
41
1
10
12.2941606745271
20
-3.83306938890729
30
0
41
1
10
12.0838349510501
20
-3.77255250343447
30
0
41
1
10
11.6644685663429
20
-3.6469924595184
30
0
41
1
10
11.4554263479561
20
-3.58195349898975
30
0
41
1
10
11.0382478860104
20
-3.44789610515264
30
0
41
1
10
10.8301106649311
20
-3.37888140255157
30
0
41
1
10
10.4145352776129
20
-3.23713429030963
30
0
41
1
10
10.207096844754
20
-3.16440456922788
30
0
41
1
10
9.99999999999997
20
-3.08975539364724
30
0
0
SPLINE
5
D0
100
AcDbEntity
8
1
62
256
6
ByLayer
370
18
48
1
60
0
100
AcDbSpline
70
4
71
4
72
16
73
11
40
0
40
0
40
0
40
0
40
0
40
0.29331255055714
40
0.29331255055714
40
0.29331255055714
40
0.706687449440082
40
0.706687449440082
40
0.706687449440082
40
1
40
1
40
1
40
1
40
1
41
0.996950676798987
10
15.1193905473087
20
3.27496340760677
30
0
41
0.994750587143025
10
15.0433294198768
20
3.11441121955215
30
0
41
0.993975420440002
10
14.9038398292758
20
2.7774045078939
30
0
41
1
10
14.7065962278216
20
2.27189782103406
30
0
41
1
10
14.2002289967423
20
0.940771503259384
30
0
41
0.988033871712585
10
13.8123868428169
20
-0.104760316544218
30
0
41
1
10
13.4245446888916
20
-1.18565849860641
30
0
41
1
10
12.9181774578103
20
-2.63080201440542
30
0
41
0.993975420439888
10
12.7209338563543
20
-3.20672680054409
30
0
41
0.994750587143047
10
12.5814442657531
20
-3.63450248141408
30
0
41
0.99695067679907
10
12.5053831383223
20
-3.89097217122649
30
0
0
SPLINE
5
D1
100
AcDbEntity
8
1
62
256
6
ByLayer
370
18
48
1
60
0
100
AcDbSpline
70
4
71
3
72
20
73
16
40
0
40
0
40
0
40
0
40
0.124999999999998
40
0.124999999999998
40
0.249999999999995
40
0.249999999999995
40
0.49999999999999
40
0.49999999999999
40
0.62499999999999
40
0.62499999999999
40
0.687499999999991
40
0.687499999999991
40
0.749999999999993
40
0.749999999999993
40
1
40
1
40
1
40
1
41
1
10
10
20
4.09104664946
30
0
41
1
10
10.2207917690492
20
4.0921971437661
30
0
41
1
10
10.4404550643685
20
4.08819243007719
30
0
41
1
10
10.8777059745083
20
4.0706262265449
30
0
41
1
10
11.0952928134352
20
4.05705958137887
30
0
41
1
10
11.7451824838342
20
4.00277189254595
30
0
41
1
10
12.1746044742308
20
3.9484478735825
30
0
41
1
10
12.8140183799466
20
3.84215333162314
30
0
41
1
10
13.0263718088125
20
3.80258601664269
30
0
41
1
10
13.3438795218787
20
3.73740441319202
30
0
41
1
10
13.4495452277687
20
3.71470640451324
30
0
41
1
10
13.6605643366175
20
3.66744417353445
30
0
41
1
10
13.7659496107912
20
3.64287143633558
30
0
41
1
10
14.2911642352732
20
3.51580617481605
30
0
41
1
10
14.7066338151564
20
3.40051993868184
30
0
41
1
10
15.1193905473115
20
3.27496340761289
30
0
0
SPLINE
5
D2
100
AcDbEntity
8
SK1
62
256
6
ByLayer
370
18
48
1
60
0
100
AcDbSpline
70
4
71
3
72
31
73
27
40
0
40
0
40
0
40
0
40
0.125000000000001
40
0.125000000000001
40
0.250000000000003
40
0.250000000000003
40
0.375000000000004
40
0.375000000000004
40
0.500000000000005
40
0.500000000000005
40
0.562500000000006
40
0.562500000000006
40
0.625000000000007
40
0.687500000000007
40
0.687500000000007
40
0.718750000000008
40
0.718750000000008
40
0.750000000000008
40
0.750000000000008
40
0.875000000000003
40
0.875000000000003
40
0.937500000000001
40
0.937500000000001
40
0.96875
40
0.96875
40
1
40
1
40
1
40
1
41
1
10
-41.322846649578
20
-3.33034885603652
30
0
41
1
10
-41.2982183123488
20
-3.38803258877206
30
0
41
1
10
-41.2717267680571
20
-3.44436940557552
30
0
41
1
10
-41.2144104214618
20
-3.55410223850021
30
0
41
1
10
-41.1835888583784
20
-3.60749982049498
30
0
41
1
10
-41.1168132306847
20
-3.71101722712197
30
0
41
1
10
-41.0808655609651
20
-3.76114016706765
30
0
41
1
10
-41.0027064087883
20
-3.85761356828161
30
0
41
1
10
-40.9605092263353
20
-3.90397104557275
30
0
41
1
10
-40.8912034928284
20
-3.97008360471079
30
0
41
1
10
-40.8672955191393
20
-3.99134752800094
30
0
41
1
10
-40.8179396702517
20
-4.0320451182069
30
0
41
1
10
-40.7669822244289
20
-4.07097190163014
30
0
41
1
10
-40.7125214515213
20
-4.10609739988001
30
0
41
1
10
-40.670214663531
20
-4.13088316998613
30
0
41
1
10
-40.655868463324
20
-4.13888495820467
30
0
41
1
10
-40.6266576666279
20
-4.15434007152678
30
0
41
1
10
-40.6118286726114
20
-4.16177231338193
30
0
41
1
10
-40.5371050103957
20
-4.19714033207811
30
0
41
1
10
-40.4749740708276
20
-4.22001118907693
30
0
41
1
10
-40.3778268407505
20
-4.24538536593542
30
0
41
1
10
-40.3447830766741
20
-4.25234770684881
30
0
41
1
10
-40.2941359057272
20
-4.26035999417425
30
0
41
1
10
-40.2770624559109
20
-4.2626233218524
30
0
41
1
10
-40.2428795071773
20
-4.26626974627274
30
0
41
1
10
-40.22572940542
20
-4.26766016692457
30
0
41
1
10
-40.2085199217113
20
-4.26861273885882
30
0
0
SPLINE
5
D3
100
AcDbEntity
8
SK1
62
256
6
ByLayer
370
18
48
1
60
0
100
AcDbSpline
70
4
71
3
72
28
73
24
40
0
40
0
40
0
40
0
40
0.125000000000001
40
0.125000000000001
40
0.187500000000002
40
0.187500000000002
40
0.250000000000004
40
0.250000000000004
40
0.375000000000006
40
0.375000000000006
40
0.437500000000007
40
0.437500000000007
40
0.500000000000008
40
0.500000000000008
40
0.625000000000008
40
0.625000000000008
40
0.687500000000007
40
0.687500000000007
40
0.750000000000006
40
0.750000000000006
40
0.875000000000003
40
0.875000000000003
40
1
40
1
40
1
40
1
41
1
10
-40.2085199217113
20
4.26861273885839
30
0
41
1
10
-40.2770078954797
20
4.26482182201573
30
0
41
1
10
-40.3435159701705
20
4.25421034005257
30
0
41
1
10
-40.4406186748427
20
4.22904991330012
30
0
41
1
10
-40.4725401749683
20
4.21911183367274
30
0
41
1
10
-40.5355147747093
20
4.19619029939315
30
0
41
1
10
-40.566119882014
20
4.18336793011164
30
0
41
1
10
-40.6552476470727
20
4.1412976123425
30
0
41
1
10
-40.7112423032074
20
4.10841569067671
30
0
41
1
10
-40.7908488886551
20
4.05271054233145
30
0
41
1
10
-40.8163780326975
20
4.03326066129199
30
0
41
1
10
-40.8655003190458
20
3.99289517941517
30
0
41
1
10
-40.8891220708721
20
3.97195852720529
30
0
41
1
10
-40.9574656057434
20
3.90707900711414
30
0
41
1
10
-40.9996786915665
20
3.86107582099058
30
0
41
1
10
-41.0588219892095
20
3.78847288665983
30
0
41
1
10
-41.0778365663648
20
3.76366951078927
30
0
41
1
10
-41.1145716668491
20
3.71292056409152
30
0
41
1
10
-41.1321793223817
20
3.68713127494576
30
0
41
1
10
-41.1829286385602
20
3.60864716973444
30
0
41
1
10
-41.2140187173667
20
3.55482217194611
30
0
41
1
10
-41.2716651020537
20
3.44451721966016
30
0
41
1
10
-41.2982170704349
20
3.38803549754442
30
0
41
1
10
-41.322846649578
20
3.33034885603652
30
0
0
SPLINE
5
D4
100
AcDbEntity
8
SK1
62
256
6
ByLayer
370
18
48
1
60
0
100
AcDbSpline
70
4
71
3
72
28
73
24
40
0
40
0
40
0
40
0
40
0.250000000000005
40
0.250000000000005
40
0.312500000000006
40
0.312500000000006
40
0.375000000000007
40
0.375000000000007
40
0.5
40
0.5
40
0.624999999999992
40
0.624999999999992
40
0.65624999999999
40
0.65624999999999
40
0.687499999999989
40
0.687499999999989
40
0.749999999999985
40
0.749999999999985
40
0.874999999999993
40
0.874999999999993
40
0.937499999999996
40
0.937499999999996
40
1
40
1
40
1
40
1
41
1
10
-13.8090444171455
20
4.91381127456395
30
0
41
1
10
-13.8730250304025
20
4.99046340860016
30
0
41
1
10
-13.9444892601168
20
5.06075108627354
30
0
41
1
10
-14.0453442110783
20
5.13975030164355
30
0
41
1
10
-14.0660970839937
20
5.15510348386371
30
0
41
1
10
-14.108849096648
20
5.18487572838717
30
0
41
1
10
-14.1308767716723
20
5.19931243837365
30
0
41
1
10
-14.1987969608565
20
5.24103142381006
30
0
41
1
10
-14.2458698834865
20
5.2663349057469
30
0
41
1
10
-14.3438356225248
20
5.3117780788902
30
0
41
1
10
-14.3947259977568
20
5.33192086270162
30
0
41
1
10
-14.4609718435402
20
5.35364247707062
30
0
41
1
10
-14.4743531694453
20
5.35781325453198
30
0
41
1
10
-14.5013886431665
20
5.36579875975136
30
0
41
1
10
-14.5150720561229
20
5.36962082906823
30
0
41
1
10
-14.5562656757263
20
5.38046558406404
30
0
41
1
10
-14.5839366053628
20
5.38687714356516
30
0
41
1
10
-14.6675758493674
20
5.40367498823224
30
0
41
1
10
-14.7241681343673
20
5.41163572791979
30
0
41
1
10
-14.8103509838265
20
5.4186001914598
30
0
41
1
10
-14.839294928931
20
5.42008953290443
30
0
41
1
10
-14.8976311188396
20
5.42134736085288
30
0
41
1
10
-14.9268902583505
20
5.42110969918963
30
0
41
1
10
-14.9560809879695
20
5.42000303685279
30
0
0
SPLINE
5
D5
100
AcDbEntity
8
SK1
62
256
6
ByLayer
370
18
48
1
60
0
100
AcDbSpline
70
4
71
3
72
29
73
25
40
0
40
0
40
0
40
0
40
0.125000000000023
40
0.125000000000023
40
0.250000000000046
40
0.250000000000046
40
0.312500000000058
40
0.312500000000058
40
0.375000000000069
40
0.375000000000069
40
0.500000000000078
40
0.500000000000078
40
0.562500000000082
40
0.562500000000082
40
0.593750000000078
40
0.593750000000078
40
0.625000000000073
40
0.750000000000046
40
0.750000000000046
40
0.875000000000019
40
0.875000000000019
40
0.937500000000009
40
0.937500000000009
40
1
40
1
40
1
40
1
41
1
10
-14.9560809879695
20
-5.42000303685279
30
0
41
1
10
-14.8976517734494
20
-5.42221817199751
30
0
41
1
10
-14.8398504554356
20
-5.42094359808488
30
0
41
1
10
-14.7254362798095
20
-5.41177794727187
30
0
41
1
10
-14.6688237697278
20
-5.40388482792244
30
0
41
1
10
-14.5847891358201
20
-5.38706822462967
30
0
41
1
10
-14.5568094402394
20
-5.38059638684285
30
0
41
1
10
-14.5019506989544
20
-5.36617855475819
30
0
41
1
10
-14.4750261228712
20
-5.35823183005425
30
0
41
1
10
-14.395685497739
20
-5.33227249172961
30
0
41
1
10
-14.3446977675387
20
-5.31214836042813
30
0
41
1
10
-14.2708592175646
20
-5.27794120061839
30
0
41
1
10
-14.2466881934933
20
-5.26586656540695
30
0
41
1
10
-14.2110774186189
20
-5.24675579357759
30
0
41
1
10
-14.1993109081088
20
-5.24021577958535
30
0
41
1
10
-14.1761490644524
20
-5.22689762154863
30
0
41
1
10
-14.1190707984856
20
-5.19295097150575
30
0
41
1
10
-14.0659423088902
20
-5.15585567198329
30
0
41
1
10
-13.9853722790436
20
-5.09280324282167
30
0
41
1
10
-13.9473081932622
20
-5.05942484453377
30
0
41
1
10
-13.8932201680201
20
-5.0067258138026
30
0
41
1
10
-13.8756933478446
20
-4.98872006168716
30
0
41
1
10
-13.8416025059636
20
-4.95184585609991
30
0
41
1
10
-13.8250535884703
20
-4.9329911023857
30
0
41
1
10
-13.8090444171455
20
-4.91381127456395
30
0
0
SPLINE
5
D6
100
AcDbEntity
8
1
62
256
6
ByLayer
370
13
48
1
60
0
100
AcDbSpline
70
4
71
3
72
22
73
18
40
0
40
0
40
0
40
0
40
0.125
40
0.125
40
0.25
40
0.25
40
0.375
40
0.375
40
0.5
40
0.5
40
0.625
40
0.625
40
0.75
40
0.75
40
0.875
40
0.875
40
1
40
1
40
1
40
1
41
1
10
53.423083019611
20
6
30
0
41
1
10
53.4811286685607
20
6
30
0
41
1
10
53.5391743175103
20
5.9796431198902
30
0
41
1
10
53.6552656154096
20
5.89182060550354
30
0
41
1
10
53.7133112643593
20
5.82431267893466
30
0
41
1
10
53.8294025622587
20
5.63817220609539
30
0
41
1
10
53.8874482112083
20
5.51950670964766
30
0
41
1
10
54.0035395091076
20
5.23067182637837
30
0
41
1
10
54.0615851580573
20
5.06049158361412
30
0
41
1
10
54.1776764559565
20
4.67258912688789
30
0
41
1
10
54.2357221049062
20
4.45488575251747
30
0
41
1
10
54.3518134028055
20
3.98014151740412
30
0
41
1
10
54.4098590517552
20
3.72314655407911
30
0
41
1
10
54.5259503496545
20
3.18127374459562
30
0
41
1
10
54.5839959986041
20
2.89645603274019
30
0
41
1
10
54.7000872965034
20
2.31199457112822
30
0
41
1
10
54.7581329454532
20
2.01240806132603
30
0
41
1
10
54.8161785944028
20
1.71182452189248
30
0
0
SPLINE
5
D7
100
AcDbEntity
8
1
62
256
6
ByLayer
370
13
48
1
60
0
100
AcDbSpline
70
4
71
3
72
22
73
18
40
0
40
0
40
0
40
0
40
0.125
40
0.125
40
0.25
40
0.25
40
0.375
40
0.375
40
0.5
40
0.5
40
0.625
40
0.625
40
0.75
40
0.75
40
0.875
40
0.875
40
1
40
1
40
1
40
1
41
1
10
47.9
20
1.71182094041916
30
0
41
1
10
47.9580456777671
20
2.01240463739697
30
0
41
1
10
48.0160913555341
20
2.31199132795621
30
0
41
1
10
48.1321827110683
20
2.89645318250092
30
0
41
1
10
48.1902283888354
20
3.18127110642834
30
0
41
1
10
48.3063197443696
20
3.7231443499071
30
0
41
1
10
48.3643654221366
20
3.98013953498995
30
0
41
1
10
48.4804567776707
20
4.45488419954981
30
0
41
1
10
48.5385024554378
20
4.67258778144094
30
0
41
1
10
48.654593810972
20
5.06049061811842
30
0
41
1
10
48.7126394887389
20
5.23067103320636
30
0
41
1
10
48.8287308442731
20
5.5195062122616
30
0
41
1
10
48.8867765220402
20
5.63817183215752
30
0
41
1
10
49.0028678775743
20
5.82431249840329
30
0
41
1
10
49.0609135553414
20
5.89182049499573
30
0
41
1
10
49.1770049108755
20
5.97964309959656
30
0
41
1
10
49.2350505886425
20
6
30
0
41
1
10
49.2930962664096
20
6
30
0
0
SPLINE
5
D8
100
AcDbEntity
8
1
62
256
6
ByLayer
370
13
48
1
60
0
100
AcDbSpline
70
4
71
3
72
38
73
34
40
0
40
0
40
0
40
0
40
0.125
40
0.125
40
0.187499999999999
40
0.187499999999999
40
0.249999999999999
40
0.249999999999999
40
0.312499999999999
40
0.312499999999999
40
0.374999999999998
40
0.374999999999998
40
0.437499999999998
40
0.437499999999998
40
0.499999999999998
40
0.499999999999998
40
0.562499999999998
40
0.562499999999998
40
0.624999999999997
40
0.624999999999997
40
0.687499999999997
40
0.687499999999997
40
0.749999999999997
40
0.749999999999997
40
0.874999999999996
40
0.874999999999996
40
0.906249999999996
40
0.906249999999996
40
0.921874999999996
40
0.921874999999996
40
0.937499999999997
40
0.937499999999997
40
1
40
1
40
1
40
1
41
1
10
52.9209845947199
20
6
30
0
41
1
10
52.9999510113734
20
6
30
0
41
1
10
53.0789174280269
20
5.96218694750394
30
0
41
1
10
53.197367053007
20
5.83738400392423
30
0
41
1
10
53.2368502613338
20
5.78448645451141
30
0
41
1
10
53.3158166779872
20
5.65505841780831
30
0
41
1
10
53.3552998863139
20
5.57852317903797
30
0
41
1
10
53.4342663029673
20
5.40155723227477
30
0
41
1
10
53.4737495112941
20
5.30112384563401
30
0
41
1
10
53.5527159279476
20
5.07700303392443
30
0
41
1
10
53.5921991362743
20
4.95331568623502
30
0
41
1
10
53.6711655529277
20
4.68427372300346
30
0
41
1
10
53.7106487612544
20
4.53892222134883
30
0
41
1
10
53.7896151779079
20
4.22903681099029
30
0
41
1
10
53.8290983862346
20
4.06450881075219
30
0
41
1
10
53.9080648028881
20
3.71951654716162
30
0
41
1
10
53.9475480112148
20
3.53906023867114
30
0
41
1
10
54.0265144278683
20
3.16600748194699
30
0
41
1
10
54.065997636195
20
2.97341993925173
30
0
41
1
10
54.1449640528484
20
2.58019341486238
30
0
41
1
10
54.1844472611752
20
2.3795630974046
30
0
41
1
10
54.2634136778286
20
1.97436414400033
30
0
41
1
10
54.3028968861554
20
1.7698029015024
30
0
41
1
10
54.4213465111355
20
1.15605107467155
30
0
41
1
10
54.500312927789
20
0.747081522283679
30
0
41
1
10
54.5990209486058
20
0.252123917968021
30
0
41
1
10
54.6187625527692
20
0.153923451421093
30
0
41
1
10
54.6483749590142
20
0.0080413237875803
30
0
41
1
10
54.6582457610958
20
-0.0403002754445367
30
0
41
1
10
54.6779873652592
20
-0.137762456558192
30
0
41
1
10
54.6878581673409
20
-0.186725628195262
30
0
41
1
10
54.7372121777493
20
-0.432606901991733
30
0
41
1
10
54.776695386076
20
-0.632744662825417
30
0
41
1
10
54.8161785944027
20
-0.834909628846589
30
0
0
SPLINE
5
D9
100
AcDbEntity
8
1
62
256
6
ByLayer
370
13
48
1
60
0
100
AcDbSpline
70
4
71
3
72
14
73
10
40
0
40
0
40
0
40
0
40
0.25
40
0.25
40
0.5
40
0.5
40
0.75
40
0.75
40
1
40
1
40
1
40
1
41
1
10
47.9
20
4.13365654000407
30
0
41
1
10
47.9742498201265
20
4.443029606262
30
0
41
1
10
48.0484996402531
20
4.72102914331461
30
0
41
1
10
48.1969992805061
20
5.19740482566118
30
0
41
1
10
48.2712491006328
20
5.39573347699843
30
0
41
1
10
48.4197487408858
20
5.70710584888892
30
0
41
1
10
48.4939985610123
20
5.82022378325993
30
0
41
1
10
48.6424982012654
20
5.96660131029151
30
0
41
1
10
48.716748021392
20
6
30
0
41
1
10
48.7909978415185
20
6
30
0
0
SPLINE
5
DA
100
AcDbEntity
8
1
62
256
6
ByLayer
370
13
48
1
60
0
100
AcDbSpline
70
4
71
3
72
42
73
38
40
0
40
0
40
0
40
0
40
0.0624999999999999
40
0.0624999999999999
40
0.125
40
0.125
40
0.1875
40
0.1875
40
0.25
40
0.25
40
0.3125
40
0.3125
40
0.374999999999999
40
0.374999999999999
40
0.437499999999999
40
0.437499999999999
40
0.499999999999999
40
0.499999999999999
40
0.562499999999999
40
0.562499999999999
40
0.624999999999999
40
0.624999999999999
40
0.687499999999999
40
0.687499999999999
40
0.718749999999999
40
0.718749999999999
40
0.734374999999999
40
0.734374999999999
40
0.749999999999999
40
0.749999999999999
40
0.8125
40
0.8125
40
0.875
40
0.875
40
0.9375
40
0.9375
40
1
40
1
40
1
40
1
41
1
10
52.4188861698288
20
6
30
0
41
1
10
52.4688297620075
20
6
30
0
41
1
10
52.5187733541861
20
5.98494459514012
30
0
41
1
10
52.6186605385434
20
5.92056500891937
30
0
41
1
10
52.668604130722
20
5.87122068136244
30
0
41
1
10
52.7684913150792
20
5.73531872347655
30
0
41
1
10
52.8184349072578
20
5.64874361275389
30
0
41
1
10
52.918322091615
20
5.43726774455629
30
0
41
1
10
52.9682656837937
20
5.3123567928981
30
0
41
1
10
53.0681528681509
20
5.02536215284294
30
0
41
1
10
53.1180964603295
20
4.86327931667793
30
0
41
1
10
53.2179836446868
20
4.50551207998868
30
0
41
1
10
53.2679272368655
20
4.30984083389765
30
0
41
1
10
53.3678144212227
20
3.89067787176097
30
0
41
1
10
53.4177580134013
20
3.66720948653631
30
0
41
1
10
53.5176451977586
20
3.19988441734193
30
0
41
1
10
53.5675887899372
20
2.95605625539255
30
0
41
1
10
53.6674759742944
20
2.45629566668038
30
0
41
1
10
53.717419566473
20
2.20039087099858
30
0
41
1
10
53.8173067508303
20
1.6847469890414
30
0
41
1
10
53.8672503430089
20
1.42502955529886
30
0
41
1
10
53.9671375273662
20
0.909259076407352
30
0
41
1
10
54.0170811195449
20
0.653219004419441
30
0
41
1
10
54.0919965078127
20
0.276557209773813
30
0
41
1
10
54.116968303902
20
0.152225024011244
30
0
41
1
10
54.154425998036
20
-0.031968831192529
30
0
41
1
10
54.1669118960806
20
-0.0933237468849484
30
0
41
1
10
54.19188369217
20
-0.217127565024413
30
0
41
1
10
54.2043695902146
20
-0.27938741634614
30
0
41
1
10
54.2667990804379
20
-0.592277017441859
30
0
41
1
10
54.3167426726166
20
-0.84773602612691
30
0
41
1
10
54.4166298569738
20
-1.36289160036762
30
0
41
1
10
54.4665734491524
20
-1.62257592226905
30
0
41
1
10
54.5664606335097
20
-2.13878899502186
30
0
41
1
10
54.6164042256883
20
-2.39529672427759
30
0
41
1
10
54.7162914100455
20
-2.896935518182
30
0
41
1
10
54.7662350022242
20
-3.1420392683747
30
0
41
1
10
54.8161785944028
20
-3.37729886830584
30
0
0
SPLINE
5
DB
100
AcDbEntity
8
1
62
256
6
ByLayer
370
13
48
1
60
0
100
AcDbSpline
70
4
71
3
72
10
73
6
40
0
40
0
40
0
40
0
40
0.5
40
0.5
40
1
40
1
40
1
40
1
41
1
10
47.9
20
5.66193849813575
30
0
41
1
10
47.9648165694379
20
5.77917432790241
30
0
41
1
10
48.0296331388759
20
5.86421468017494
30
0
41
1
10
48.1592662777516
20
5.974591294627
30
0
41
1
10
48.2240828471895
20
6
30
0
41
1
10
48.2888994166274
20
6
30
0
0
SPLINE
5
DC
100
AcDbEntity
8
1
62
256
6
ByLayer
370
13
48
1
60
0
100
AcDbSpline
70
4
71
3
72
42
73
38
40
0
40
0
40
0
40
0
40
0.0624999999999998
40
0.0624999999999998
40
0.125
40
0.125
40
0.1875
40
0.1875
40
0.249999999999999
40
0.249999999999999
40
0.312499999999999
40
0.312499999999999
40
0.375
40
0.375
40
0.4375
40
0.4375
40
0.5
40
0.5
40
0.5625
40
0.5625
40
0.59375
40
0.59375
40
0.609375
40
0.609375
40
0.625
40
0.625
40
0.6875
40
0.6875
40
0.75
40
0.75
40
0.8125
40
0.8125
40
0.875
40
0.875
40
0.9375
40
0.9375
40
1
40
1
40
1
40
1
41
1
10
51.9167877449378
20
6
30
0
41
1
10
51.9771917209683
20
6
30
0
41
1
10
52.0375956969988
20
5.97794799754681
30
0
41
1
10
52.1584036490598
20
5.88257850972502
30
0
41
1
10
52.2188076250903
20
5.80920962739165
30
0
41
1
10
52.3396155771514
20
5.60689065063974
30
0
41
1
10
52.4000195531819
20
5.47790205166228
30
0
41
1
10
52.5208275052429
20
5.16438463520512
30
0
41
1
10
52.5812314812735
20
4.97984673309924
30
0
41
1
10
52.7020394333346
20
4.56040284267306
30
0
41
1
10
52.7624434093651
20
4.32552577893861
30
0
41
1
10
52.8832513614261
20
3.81543020734728
30
0
41
1
10
52.9436553374566
20
3.54027274393539
30
0
41
1
10
53.0644632895176
20
2.96311008482709
30
0
41
1
10
53.1248672655482
20
2.66117924052256
30
0
41
1
10
53.2456752176092
20
2.0453181583145
30
0
41
1
10
53.3060791936397
20
1.73145328869069
30
0
41
1
10
53.4268871457008
20
1.10574747074276
30
0
41
1
10
53.4872911217313
20
0.793947665564332
30
0
41
1
10
53.5778970857771
20
0.336429743818826
30
0
41
1
10
53.6080990737924
20
0.185597680275265
30
0
41
1
10
53.6534020558153
20
-0.0372885671787344
30
0
41
1
10
53.6685030498229
20
-0.111501649356484
30
0
41
1
10
53.6987050378381
20
-0.261524043216639
30
0
41
1
10
53.7138060318458
20
-0.337049491780675
30
0
41
1
10
53.7893110018839
20
-0.716887886707269
30
0
41
1
10
53.8497149779145
20
-1.02795505440935
30
0
41
1
10
53.9705229299755
20
-1.65326233116679
30
0
41
1
10
54.030926906006
20
-1.96746362909141
30
0
41
1
10
54.1517348580671
20
-2.58521894834081
30
0
41
1
10
54.2121388340976
20
-2.88870918646688
30
0
41
1
10
54.3329467861586
20
-3.47020483657533
30
0
41
1
10
54.3933507621891
20
-3.74813583129566
30
0
41
1
10
54.5141587142502
20
-4.26479777004135
30
0
41
1
10
54.5745626902807
20
-4.50346572193601
30
0
41
1
10
54.6953706423417
20
-4.93115830651661
30
0
41
1
10
54.7557746183722
20
-5.12015090543485
30
0
41
1
10
54.8161785944028
20
-5.28148256664812
30
0
0
SPLINE
5
DD
100
AcDbEntity
8
1
62
256
6
ByLayer
370
13
48
1
60
0
100
AcDbSpline
70
4
71
3
72
42
73
38
40
0
40
0
40
0
40
0
40
0.0625000000000005
40
0.0625000000000005
40
0.125000000000001
40
0.125000000000001
40
0.187500000000001
40
0.187500000000001
40
0.250000000000002
40
0.250000000000002
40
0.312500000000002
40
0.312500000000002
40
0.375000000000003
40
0.375000000000003
40
0.437500000000003
40
0.437500000000003
40
0.500000000000004
40
0.500000000000004
40
0.515625000000004
40
0.515625000000004
40
0.531250000000004
40
0.531250000000004
40
0.562500000000004
40
0.562500000000004
40
0.625000000000003
40
0.625000000000003
40
0.687500000000003
40
0.687500000000003
40
0.750000000000002
40
0.750000000000002
40
0.812500000000002
40
0.812500000000002
40
0.875000000000001
40
0.875000000000001
40
0.937500000000001
40
0.937500000000001
40
1
40
1
40
1
40
1
41
1
10
51.4146893200466
20
6
30
0
41
1
10
51.4855536799291
20
6
30
0
41
1
10
51.5564180398114
20
5.96959697743461
30
0
41
1
10
51.6981467595763
20
5.8367582128499
30
0
41
1
10
51.7690111194588
20
5.73421112098657
30
0
41
1
10
51.9107398392236
20
5.45170822756194
30
0
41
1
10
51.981604199106
20
5.2716864288202
30
0
41
1
10
52.1233329188708
20
4.83778493998366
30
0
41
1
10
52.1941972787533
20
4.58392849518424
30
0
41
1
10
52.3359259985181
20
4.01562140547512
30
0
41
1
10
52.4067903584005
20
3.70128725188587
30
0
41
1
10
52.5485190781654
20
3.03286845230482
30
0
41
1
10
52.6193834380478
20
2.67894711554524
30
0
41
1
10
52.7611121578126
20
1.95536185958295
30
0
41
1
10
52.831976517695
20
1.58584098102546
30
0
41
1
10
52.9737052374599
20
0.853378500298589
30
0
41
1
10
53.0445695973423
20
0.490515004378409
30
0
41
1
10
53.1331500471954
20
0.0517866810340593
30
0
41
1
10
53.1508661371659
20
-0.0347946259287539
30
0
41
1
10
53.1862983171071
20
-0.21009627884564
30
0
41
1
10
53.2040144070777
20
-0.298481792492623
30
0
41
1
10
53.2571626769896
20
-0.565499838525596
30
0
41
1
10
53.2925948569307
20
-0.746005664924979
30
0
41
1
10
53.3988913967544
20
-1.29182617703305
30
0
41
1
10
53.4697557566368
20
-1.6615805742685
30
0
41
1
10
53.6114844764016
20
-2.39188974909891
30
0
41
1
10
53.682348836284
20
-2.75231606041061
30
0
41
1
10
53.8240775560489
20
-3.44003888011667
30
0
41
1
10
53.8949419159313
20
-3.76717117219235
30
0
41
1
10
54.0366706356961
20
-4.36607425366981
30
0
41
1
10
54.1075349955786
20
-4.63770989549298
30
0
41
1
10
54.2492637153434
20
-5.1098404908264
30
0
41
1
10
54.3201280752258
20
-5.31028553236698
30
0
41
1
10
54.4618567949906
20
-5.63366869068591
30
0
41
1
10
54.5327211548731
20
-5.75665224688217
30
0
41
1
10
54.674449874638
20
-5.92821342219108
30
0
41
1
10
54.7453142345204
20
-5.97689552260366
30
0
41
1
10
54.8161785944027
20
-5.99344907016112
30
0
0
SPLINE
5
DE
100
AcDbEntity
8
1
62
256
6
ByLayer
370
13
48
1
60
0
100
AcDbSpline
70
4
71
3
72
77
73
73
40
0
40
0
40
0
40
0
40
0.0312499999999991
40
0.0312499999999991
40
0.0624999999999982
40
0.0624999999999982
40
0.0937499999999972
40
0.0937499999999972
40
0.124999999999996
40
0.124999999999996
40
0.156249999999995
40
0.156249999999995
40
0.187499999999994
40
0.187499999999994
40
0.218749999999994
40
0.218749999999994
40
0.249999999999993
40
0.249999999999993
40
0.281249999999992
40
0.281249999999992
40
0.312499999999991
40
0.312499999999991
40
0.34374999999999
40
0.34374999999999
40
0.374999999999989
40
0.374999999999989
40
0.406249999999988
40
0.406249999999988
40
0.437499999999987
40
0.437499999999987
40
0.445312499999987
40
0.445312499999987
40
0.453124999999987
40
0.468749999999987
40
0.468749999999987
40
0.499999999999988
40
0.499999999999988
40
0.531249999999988
40
0.531249999999988
40
0.562499999999989
40
0.562499999999989
40
0.59374999999999
40
0.59374999999999
40
0.624999999999991
40
0.624999999999991
40
0.656249999999991
40
0.656249999999991
40
0.687499999999992
40
0.687499999999992
40
0.718749999999993
40
0.718749999999993
40
0.749999999999994
40
0.749999999999994
40
0.781249999999995
40
0.781249999999995
40
0.812499999999995
40
0.812499999999995
40
0.843749999999996
40
0.843749999999996
40
0.874999999999997
40
0.874999999999997
40
0.882812499999997
40
0.882812499999997
40
0.890624999999998
40
0.890624999999998
40
0.906249999999998
40
0.906249999999998
40
0.937499999999999
40
0.937499999999999
40
0.968749999999999
40
0.968749999999999
40
1
40
1
40
1
40
1
41
1
10
50.9125908951555
20
6
30
0
41
1
10
50.9532532670227
20
6
30
0
41
1
10
50.9939156388899
20
5.99002939646113
30
0
41
1
10
51.0752403826242
20
5.94785396665313
30
0
41
1
10
51.1159027544913
20
5.91564190410764
30
0
41
1
10
51.1972274982256
20
5.82717765225925
30
0
41
1
10
51.2378898700928
20
5.77091863823475
30
0
41
1
10
51.3192146138271
20
5.63326986483051
30
0
41
1
10
51.3598769856943
20
5.55187477877854
30
0
41
1
10
51.4412017294287
20
5.36376514734835
30
0
41
1
10
51.4818641012958
20
5.25704784795073
30
0
41
1
10
51.5631888450301
20
5.01913224025512
30
0
41
1
10
51.6038512168972
20
4.88793454081366
30
0
41
1
10
51.6851759606315
20
4.60295858850105
30
0
41
1
10
51.7258383324987
20
4.44918456092807
30
0
41
1
10
51.8071630762331
20
4.12194626835543
30
0
41
1
10
51.8478254481002
20
3.94848942994784
30
0
41
1
10
51.9291501918345
20
3.58558863544775
30
0
41
1
10
51.9698125637017
20
3.39615427925088
30
0
41
1
10
52.051137307436
20
3.00555446350924
30
0
41
1
10
52.0917996793032
20
2.80439937489584
30
0
41
1
10
52.1731244230375
20
2.39486177038089
30
0
41
1
10
52.2137867949046
20
2.18648895892446
30
0
41
1
10
52.2951115386389
20
1.76696064341707
30
0
41
1
10
52.3357739105061
20
1.55581302366633
30
0
41
1
10
52.4170986542404
20
1.1348529438379
30
0
41
1
10
52.4577610261075
20
0.925045876850106
30
0
41
1
10
52.5390857698419
20
0.51035659219724
30
0
41
1
10
52.579748141709
20
0.30547712693479
30
0
41
1
10
52.630576106543
20
0.0542928392794124
30
0
41
1
10
52.6407416995098
20
0.0044705302828731
30
0
41
1
10
52.6610728854433
20
-0.0956145257974583
30
0
41
1
10
52.6915696643437
20
-0.246497165211594
30
0
41
1
10
52.7220664432442
20
-0.399466243505856
30
0
41
1
10
52.7830600010449
20
-0.707649093988834
30
0
41
1
10
52.823722372912
20
-0.916116980902075
30
0
41
1
10
52.9050471166463
20
-1.33571386549997
30
0
41
1
10
52.9457094885135
20
-1.54683839681914
30
0
41
1
10
53.0270342322478
20
-1.96780080207768
30
0
41
1
10
53.067696604115
20
-2.1776316098173
30
0
41
1
10
53.1490213478493
20
-2.59165237319314
30
0
41
1
10
53.1896837197164
20
-2.79583314886872
30
0
41
1
10
53.2710084634507
20
-3.19403934665547
30
0
41
1
10
53.3116708353179
20
-3.38805447528989
30
0
41
1
10
53.3929955790522
20
-3.76155103998605
30
0
41
1
10
53.4336579509193
20
-3.941022439482
30
0
41
1
10
53.5149826946536
20
-4.28149990695348
30
0
41
1
10
53.5556450665208
20
-4.44249764984463
30
0
41
1
10
53.6369698102552
20
-4.74282387484712
30
0
41
1
10
53.6776321821223
20
-4.88214693612767
30
0
41
1
10
53.7589569258566
20
-5.13685800420507
30
0
41
1
10
53.7996192977238
20
-5.25224413943792
30
0
41
1
10
53.8809440414582
20
-5.45786497799648
30
0
41
1
10
53.9216064133253
20
-5.54810133193462
30
0
41
1
10
54.0029311570596
20
-5.70325821656729
30
0
41
1
10
54.0435935289267
20
-5.76818329207291
30
0
41
1
10
54.124918272661
20
-5.87350935266269
30
0
41
1
10
54.1655806445283
20
-5.91391676912019
30
0
41
1
10
54.2469053882626
20
-5.97178656937257
30
0
41
1
10
54.2875677601297
20
-5.98925616049013
30
0
41
1
10
54.3383957249637
20
-5.99810094049059
30
0
41
1
10
54.3485613179305
20
-5.99922139406212
30
0
41
1
10
54.3688925038641
20
-6.00020277733151
30
0
41
1
10
54.3790580968308
20
-6.00006930178651
30
0
41
1
10
54.4095548757312
20
-5.99777810055213
30
0
41
1
10
54.4298860616648
20
-5.9937144420976
30
0
41
1
10
54.4908796194656
20
-5.97347717019883
30
0
41
1
10
54.5315419913327
20
-5.94923988300818
30
0
41
1
10
54.612866735067
20
-5.87728314528914
30
0
41
1
10
54.6535291069341
20
-5.82955661015654
30
0
41
1
10
54.7348538506685
20
-5.70925854848451
30
0
41
1
10
54.7755162225355
20
-5.63668104606009
30
0
41
1
10
54.8161785944027
20
-5.55142075057538
30
0
0
SPLINE
5
DF
100
AcDbEntity
8
1
62
256
6
ByLayer
370
13
48
1
60
0
100
AcDbSpline
70
4
71
3
72
77
73
73
40
0
40
0
40
0
40
0
40
0.0312500000000003
40
0.0312500000000003
40
0.0625000000000006
40
0.0625000000000006
40
0.0937500000000009
40
0.0937500000000009
40
0.125000000000001
40
0.125000000000001
40
0.156250000000001
40
0.156250000000001
40
0.187500000000002
40
0.187500000000002
40
0.218750000000002
40
0.218750000000002
40
0.250000000000002
40
0.250000000000002
40
0.281250000000003
40
0.281250000000003
40
0.312500000000003
40
0.312500000000003
40
0.343750000000003
40
0.343750000000003
40
0.375000000000003
40
0.375000000000003
40
0.390625000000003
40
0.390625000000003
40
0.398437500000003
40
0.398437500000003
40
0.406250000000003
40
0.406250000000003
40
0.437500000000003
40
0.437500000000003
40
0.468750000000003
40
0.468750000000003
40
0.500000000000003
40
0.500000000000003
40
0.531250000000003
40
0.531250000000003
40
0.562500000000002
40
0.562500000000002
40
0.593750000000002
40
0.593750000000002
40
0.625000000000002
40
0.625000000000002
40
0.656250000000002
40
0.656250000000002
40
0.687500000000002
40
0.687500000000002
40
0.718750000000002
40
0.718750000000002
40
0.750000000000001
40
0.750000000000001
40
0.781250000000001
40
0.781250000000001
40
0.789062500000001
40
0.789062500000001
40
0.796875000000001
40
0.812500000000001
40
0.812500000000001
40
0.843750000000001
40
0.843750000000001
40
0.875000000000001
40
0.875000000000001
40
0.906250000000001
40
0.906250000000001
40
0.9375
40
0.9375
40
0.96875
40
0.96875
40
1
40
1
40
1
40
1
41
1
10
50.4104924702644
20
6
30
0
41
1
10
50.4563850340576
20
6
30
0
41
1
10
50.5022775978507
20
5.98729335263621
30
0
41
1
10
50.5940627254369
20
5.93320936671262
30
0
41
1
10
50.63995528923
20
5.89181879428358
30
0
41
1
10
50.7317404168162
20
5.77794211514259
30
0
41
1
10
50.7776329806093
20
5.70544404605374
30
0
41
1
10
50.8694181081955
20
5.52817176871469
30
0
41
1
10
50.9153106719886
20
5.42338943217746
30
0
41
1
10
51.0070957995748
20
5.18192372052999
30
0
41
1
10
51.0529883633679
20
5.0452383560262
30
0
41
1
10
51.1447734909542
20
4.74205746876663
30
0
41
1
10
51.1906660547473
20
4.57556733818259
30
0
41
1
10
51.2824511823335
20
4.21653596215705
30
0
41
1
10
51.3283437461266
20
4.02400708683433
30
0
41
1
10
51.4201288737128
20
3.61805567692807
30
0
41
1
10
51.466021437506
20
3.40465040052212
30
0
41
1
10
51.5578065650921
20
2.96304805219359
30
0
41
1
10
51.6036991288852
20
2.73486993758044
30
0
41
1
10
51.6954842564715
20
2.27021192667422
30
0
41
1
10
51.7413768202646
20
2.03374937042992
30
0
41
1
10
51.8331619478508
20
1.55884364122039
30
0
41
1
10
51.8790545116439
20
1.32041367071974
30
0
41
1
10
51.9708396392302
20
0.847258564148035
30
0
41
1
10
52.0167322030232
20
0.612541281831767
30
0
41
1
10
52.0855710487128
20
0.266791844544116
30
0
41
1
10
52.1085173306095
20
0.152588285557869
30
0
41
1
10
52.1429367534543
20
-0.0167823409313712
30
0
41
1
10
52.1544098944025
20
-0.0730665092670506
30
0
41
1
10
52.1773561762991
20
-0.186647291551708
30
0
41
1
10
52.1888293172473
20
-0.24374428043339
30
0
41
1
10
52.2461950219887
20
-0.530609645627777
30
0
41
1
10
52.2920875857818
20
-0.764561313336543
30
0
41
1
10
52.3838727133681
20
-1.23679259822089
30
0
41
1
10
52.4297652771612
20
-1.4750650050739
30
0
41
1
10
52.5215504047474
20
-1.95036175921416
30
0
41
1
10
52.5674429685405
20
-2.18737349569994
30
0
41
1
10
52.6592280961268
20
-2.6538893201263
30
0
41
1
10
52.7051206599199
20
-2.88337644543779
30
0
41
1
10
52.796905787506
20
-3.32834895185931
30
0
41
1
10
52.8427983512991
20
-3.54381540170871
30
0
41
1
10
52.9345834788853
20
-3.95456683459201
30
0
41
1
10
52.9804760426784
20
-4.14983418316621
30
0
41
1
10
53.0722611702647
20
-4.51488374172777
30
0
41
1
10
53.1181537340578
20
-4.68465287144932
30
0
41
1
10
53.209938861644
20
-4.99475125318472
30
0
41
1
10
53.2558314254371
20
-5.13507423907626
30
0
41
1
10
53.3476165530233
20
-5.38397214467784
30
0
41
1
10
53.3935091168164
20
-5.4925482243375
30
0
41
1
10
53.4852942444027
20
-5.67736794711286
30
0
41
1
10
53.5311868081957
20
-5.75361910453358
30
0
41
1
10
53.6229719357819
20
-5.87479272979402
30
0
41
1
10
53.6688644995751
20
-5.91972684518146
30
0
41
1
10
53.7606496271613
20
-5.98056146423849
30
0
41
1
10
53.8065421909545
20
-5.99647517629364
30
0
41
1
10
53.8639078956958
20
-6.00022355833454
30
0
41
1
10
53.8753810366441
20
-6.00017503767288
30
0
41
1
10
53.8983273185406
20
-5.99847653114534
30
0
41
1
10
53.9327467413855
20
-5.9935078187408
30
0
41
1
10
53.9671661642303
20
-5.98103111973629
30
0
41
1
10
54.0360050099199
20
-5.94547153839079
30
0
41
1
10
54.081897573713
20
-5.90759072372163
30
0
41
1
10
54.1736827012992
20
-5.80096061926534
30
0
41
1
10
54.2195752650924
20
-5.73219908831555
30
0
41
1
10
54.3113603926786
20
-5.56246272868842
30
0
41
1
10
54.3572529564716
20
-5.46147919041061
30
0
41
1
10
54.4490380840579
20
-5.22747962473676
30
0
41
1
10
54.494930647851
20
-5.09446079631113
30
0
41
1
10
54.5867157754373
20
-4.79827843778509
30
0
41
1
10
54.6326083392304
20
-4.63511942041433
30
0
41
1
10
54.7243934668166
20
-4.28222990544535
30
0
41
1
10
54.7702860306096
20
-4.09251103836854
30
0
41
1
10
54.8161785944027
20
-3.89201343435013
30
0
0
SPLINE
5
E0
100
AcDbEntity
8
1
62
256
6
ByLayer
370
13
48
1
60
0
100
AcDbSpline
70
4
71
3
72
78
73
74
40
0
40
0
40
0
40
0
40
0.0312500000000001
40
0.0312500000000001
40
0.0625000000000001
40
0.0625000000000001
40
0.0937500000000002
40
0.0937500000000002
40
0.125
40
0.125
40
0.15625
40
0.15625
40
0.1875
40
0.1875
40
0.21875
40
0.21875
40
0.25
40
0.25
40
0.28125
40
0.28125
40
0.3125
40
0.3125
40
0.34375
40
0.34375
40
0.3515625
40
0.3515625
40
0.359375
40
0.359375
40
0.375
40
0.375
40
0.40625
40
0.40625
40
0.4375
40
0.4375
40
0.46875
40
0.46875
40
0.5
40
0.5
40
0.53125
40
0.53125
40
0.562500000000001
40
0.562500000000001
40
0.593750000000001
40
0.593750000000001
40
0.625000000000001
40
0.625000000000001
40
0.656250000000001
40
0.656250000000001
40
0.687500000000001
40
0.687500000000001
40
0.703125000000001
40
0.703125000000001
40
0.710937500000001
40
0.710937500000001
40
0.718750000000001
40
0.718750000000001
40
0.750000000000001
40
0.750000000000001
40
0.78125
40
0.78125
40
0.8125
40
0.8125
40
0.84375
40
0.84375
40
0.875
40
0.875
40
0.90625
40
0.90625
40
0.9375
40
0.9375
40
0.96875
40
0.96875
40
1
40
1
40
1
40
1
41
1
10
49.9083940453733
20
6
30
0
41
1
10
49.9595168010924
20
6
30
0
41
1
10
50.0106395568115
20
5.9842231706009
30
0
41
1
10
50.1128850682496
20
5.91666923172755
30
0
41
1
10
50.1640078239687
20
5.86486950719561
30
0
41
1
10
50.2662533354068
20
5.72216986086673
30
0
41
1
10
50.3173760911258
20
5.63125057749249
30
0
41
1
10
50.4196216025639
20
5.40925030113712
30
0
41
1
10
50.470744358283
20
5.27815862567056
30
0
41
1
10
50.5729898697211
20
4.9772620943194
30
0
41
1
10
50.6241126254401
20
4.80745950026284
30
0
41
1
10
50.7263581368782
20
4.43324034436853
30
0
41
1
10
50.7774808925973
20
4.22884010694705
30
0
41
1
10
50.8797264040354
20
3.79189726060159
30
0
41
1
10
50.9308491597545
20
3.55938207722559
30
0
41
1
10
51.0330946711925
20
3.07438168658075
30
0
41
1
10
51.0842174269116
20
2.82192881841507
30
0
41
1
10
51.1864629383497
20
2.30600351204737
30
0
41
1
10
51.2375856940688
20
2.04256121364034
30
0
41
1
10
51.3398312055069
20
1.51342121736363
30
0
41
1
10
51.390953961226
20
1.24774592359054
30
0
41
1
10
51.4931994726641
20
0.721910588114781
30
0
41
1
10
51.5443222283832
20
0.46176271050615
30
0
41
1
10
51.608225673032
20
0.143932348191896
30
0
41
1
10
51.6210063619617
20
0.0807299182307872
30
0
41
1
10
51.6465677398213
20
-0.0448669596511024
30
0
41
1
10
51.659348428751
20
-0.107788482672646
30
0
41
1
10
51.6976904955403
20
-0.29806687684399
30
0
41
1
10
51.7232518733999
20
-0.426408836083283
30
0
41
1
10
51.7999360069784
20
-0.814829549961672
30
0
41
1
10
51.8510587626975
20
-1.07835052782883
30
0
41
1
10
51.9533042741356
20
-1.607590198661
30
0
41
1
10
52.0044270298547
20
-1.87329199363327
30
0
41
1
10
52.1066725412928
20
-2.39860850592055
30
0
41
1
10
52.1577952970118
20
-2.65819681179988
30
0
41
1
10
52.26004080845
20
-3.16233563839722
30
0
41
1
10
52.311163564169
20
-3.40685419384914
30
0
41
1
10
52.4134090756071
20
-3.87213107729448
30
0
41
1
10
52.4645318313262
20
-4.09285840049833
30
0
41
1
10
52.5667773427642
20
-4.50303020968559
30
0
41
1
10
52.6179000984833
20
-4.69245167759638
30
0
41
1
10
52.7201456099215
20
-5.03452582641242
30
0
41
1
10
52.7712683656405
20
-5.18716842417209
30
0
41
1
10
52.8735138770787
20
-5.45274814870092
30
0
41
1
10
52.9246366327977
20
-5.56568923576168
30
0
41
1
10
53.0268821442358
20
-5.7515706684558
30
0
41
1
10
53.0780048999549
20
-5.8245262710725
30
0
41
1
10
53.1802504113929
20
-5.93248085723957
30
0
41
1
10
53.231373167112
20
-5.96750133844313
30
0
41
1
10
53.3080573006906
20
-5.99442314137895
30
0
41
1
10
53.3336186785501
20
-5.99914058678837
30
0
41
1
10
53.3719607453394
20
-6.00026873914874
30
0
41
1
10
53.3847414342692
20
-5.999663473298
30
0
41
1
10
53.4103028121287
20
-5.99642914017488
30
0
41
1
10
53.4230835010584
20
-5.99379780020865
30
0
41
1
10
53.4869869457073
20
-5.97538922172456
30
0
41
1
10
53.5381097014264
20
-5.94380499626567
30
0
41
1
10
53.6403552128645
20
-5.84302077901955
30
0
41
1
10
53.6914779685836
20
-5.77379898304264
30
0
41
1
10
53.7937234800216
20
-5.59548818732426
30
0
41
1
10
53.8448462357407
20
-5.4863830995248
30
0
41
1
10
53.9470917471788
20
-5.22833801318404
30
0
41
1
10
53.9982145028979
20
-5.07939280868481
30
0
41
1
10
54.100460014336
20
-4.74432193794814
30
0
41
1
10
54.151582770055
20
-4.55820499864174
30
0
41
1
10
54.2538282814932
20
-4.15402319363693
30
0
41
1
10
54.3049510372122
20
-3.93598027535981
30
0
41
1
10
54.4071965486503
20
-3.47529015298161
30
0
41
1
10
54.4583193043693
20
-3.23267348198453
30
0
41
1
10
54.5605648158075
20
-2.73148211131453
30
0
41
1
10
54.6116875715266
20
-2.47293959309204
30
0
41
1
10
54.7139330829647
20
-1.94887673827714
30
0
41
1
10
54.7650558386837
20
-1.6833835625001
30
0
41
1
10
54.8161785944028
20
-1.41860127524822
30
0
0
SPLINE
5
E1
100
AcDbEntity
8
1
62
256
6
ByLayer
370
13
48
1
60
0
100
AcDbSpline
70
4
71
3
72
82
73
78
40
0
40
0
40
0
40
0
40
0.03125
40
0.03125
40
0.0625000000000001
40
0.0625000000000001
40
0.0937500000000001
40
0.0937500000000001
40
0.125
40
0.125
40
0.15625
40
0.15625
40
0.1875
40
0.1875
40
0.21875
40
0.21875
40
0.25
40
0.25
40
0.28125
40
0.28125
40
0.312500000000001
40
0.312500000000001
40
0.320312500000001
40
0.320312500000001
40
0.328125000000001
40
0.328125000000001
40
0.343750000000001
40
0.343750000000001
40
0.375000000000001
40
0.375000000000001
40
0.406250000000001
40
0.406250000000001
40
0.437500000000001
40
0.437500000000001
40
0.468750000000001
40
0.468750000000001
40
0.500000000000001
40
0.500000000000001
40
0.531250000000001
40
0.531250000000001
40
0.562500000000001
40
0.562500000000001
40
0.593750000000001
40
0.593750000000001
40
0.625000000000001
40
0.625000000000001
40
0.6328125
40
0.6328125
40
0.640625
40
0.640625
40
0.65625
40
0.65625
40
0.6875
40
0.6875
40
0.71875
40
0.71875
40
0.75
40
0.75
40
0.78125
40
0.78125
40
0.8125
40
0.8125
40
0.84375
40
0.84375
40
0.875
40
0.875
40
0.90625
40
0.90625
40
0.9375
40
0.9375
40
0.953125
40
0.953125
40
0.9609375
40
0.9609375
40
0.96875
40
0.96875
40
1
40
1
40
1
40
1
41
1
10
49.4062956204822
20
6
30
0
41
1
10
49.4626485681273
20
6
30
0
41
1
10
49.5190015157722
20
5.98081746855482
30
0
41
1
10
49.6317074110623
20
5.89820974491008
30
0
41
1
10
49.6880603587072
20
5.83474798138693
30
0
41
1
10
49.8007662539973
20
5.65978724958649
30
0
41
1
10
49.8571192016423
20
5.54825904524404
30
0
41
1
10
49.9698250969324
20
5.27654957893566
30
0
41
1
10
50.0261780445773
20
5.1163569016318
30
0
41
1
10
50.1388839398673
20
4.75053056688651
30
0
41
1
10
50.1952368875124
20
4.54491009988365
30
0
41
1
10
50.3079427828023
20
4.09526168432262
30
0
41
1
10
50.3642957304473
20
3.85127046214265
30
0
41
1
10
50.4770016257373
20
3.33497372565958
30
0
41
1
10
50.5333545733824
20
3.06271901940556
30
0
41
1
10
50.6460604686724
20
2.50169170821766
30
0
41
1
10
50.7024134163174
20
2.21297015669054
30
0
41
1
10
50.8151193116074
20
1.63092597234211
30
0
41
1
10
50.8714722592524
20
1.3376424952742
30
0
41
1
10
50.9841781545424
20
0.757115755179228
30
0
41
1
10
51.0405311021875
20
0.469893642167477
30
0
41
1
10
51.1109722867437
20
0.119918662791179
30
0
41
1
10
51.1250605236549
20
0.050524589094465
30
0
41
1
10
51.1532369974774
20
-0.0879289502959182
30
0
41
1
10
51.1673252343887
20
-0.157646482968261
30
0
41
1
10
51.2095899451225
20
-0.368108489920331
30
0
41
1
10
51.2377664189449
20
-0.510167257329186
30
0
41
1
10
51.3222958404124
20
-0.940114364596297
30
0
41
1
10
51.3786487880575
20
-1.23184012042051
30
0
41
1
10
51.4913546833475
20
-1.8158208815837
30
0
41
1
10
51.5477076309924
20
-2.10804459326988
30
0
41
1
10
51.6604135262825
20
-2.68156685057295
30
0
41
1
10
51.7167664739275
20
-2.96281855237936
30
0
41
1
10
51.8294723692175
20
-3.5023634203514
30
0
41
1
10
51.8858253168625
20
-3.76060391490569
30
0
41
1
10
51.9985312121525
20
-4.24305058121828
30
0
41
1
10
52.0548841597975
20
-4.46721204918762
30
0
41
1
10
52.1675900550875
20
-4.87289801860564
30
0
41
1
10
52.2239430027325
20
-5.05439794176945
30
0
41
1
10
52.3366488980225
20
-5.36971297570261
30
0
41
1
10
52.3930018456675
20
-5.50352874422111
30
0
41
1
10
52.5057077409575
20
-5.72235263279541
30
0
41
1
10
52.5620606886026
20
-5.80738307815147
30
0
41
1
10
52.6747665838926
20
-5.93107244219905
30
0
41
1
10
52.7311195315376
20
-5.96976592478023
30
0
41
1
10
52.8015607160938
20
-5.99233931057677
30
0
41
1
10
52.8156489530051
20
-5.9955692829372
30
0
41
1
10
52.8438254268276
20
-5.99955607134467
30
0
41
1
10
52.8579136637389
20
-6.00031565588935
30
0
41
1
10
52.9001783744726
20
-5.99901846633335
30
0
41
1
10
52.9283548482951
20
-5.99333329342355
30
0
41
1
10
53.0128842697626
20
-5.9606534056737
30
0
41
1
10
53.0692372174076
20
-5.91796183065267
30
0
41
1
10
53.1819431126976
20
-5.78593039119377
30
0
41
1
10
53.2382960603426
20
-5.69655661916192
30
0
41
1
10
53.3510019556326
20
-5.46898803807818
30
0
41
1
10
53.4073549032777
20
-5.33077252351177
30
0
41
1
10
53.5200607985676
20
-5.00694741580313
30
0
41
1
10
53.5764137462126
20
-4.82133941307333
30
0
41
1
10
53.6891196415027
20
-4.40807398356318
30
0
41
1
10
53.7454725891477
20
-4.18044328927689
30
0
41
1
10
53.8581784844377
20
-3.69197288946682
30
0
41
1
10
53.9145314320827
20
-3.43117917392326
30
0
41
1
10
54.0272373273728
20
-2.88759692133399
30
0
41
1
10
54.0835902750177
20
-2.60486107083523
30
0
41
1
10
54.1962961703077
20
-2.02944966979422
30
0
41
1
10
54.2526491179527
20
-1.73681986670744
30
0
41
1
10
54.3653550132427
20
-1.15298927904345
30
0
41
1
10
54.4217079608877
20
-0.861818139612211
30
0
41
1
10
54.5062373823553
20
-0.433274615301542
30
0
41
1
10
54.5344138561777
20
-0.291778502250224
30
0
41
1
10
54.5766785669115
20
-0.0822814264480485
30
0
41
1
10
54.5907668038228
20
-0.0132238379587761
30
0
41
1
10
54.6189432776453
20
0.125579799705008
30
0
41
1
10
54.6330315145565
20
0.195462966559631
30
0
41
1
10
54.7034726991128
20
0.547009564000888
30
0
41
1
10
54.7598256467578
20
0.835160207538877
30
0
41
1
10
54.8161785944027
20
1.12591453109653
30
0
0
SPLINE
5
E2
100
AcDbEntity
8
1
62
256
6
ByLayer
370
13
48
1
60
0
100
AcDbSpline
70
4
71
3
72
83
73
79
40
0
40
0
40
0
40
0
40
0.0312499999999994
40
0.0312499999999994
40
0.0624999999999988
40
0.0624999999999988
40
0.0937499999999982
40
0.0937499999999982
40
0.124999999999998
40
0.124999999999998
40
0.156249999999997
40
0.156249999999997
40
0.187499999999996
40
0.187499999999996
40
0.218749999999996
40
0.218749999999996
40
0.249999999999995
40
0.249999999999995
40
0.281249999999995
40
0.281249999999995
40
0.289062499999995
40
0.289062499999995
40
0.296874999999995
40
0.296874999999995
40
0.312499999999995
40
0.312499999999995
40
0.343749999999995
40
0.343749999999995
40
0.374999999999994
40
0.374999999999994
40
0.406249999999994
40
0.406249999999994
40
0.437499999999994
40
0.437499999999994
40
0.468749999999994
40
0.468749999999994
40
0.499999999999994
40
0.499999999999994
40
0.531249999999994
40
0.531249999999994
40
0.562499999999994
40
0.562499999999994
40
0.578124999999994
40
0.578124999999994
40
0.585937499999993
40
0.585937499999993
40
0.593749999999993
40
0.593749999999993
40
0.624999999999993
40
0.624999999999993
40
0.656249999999993
40
0.656249999999993
40
0.687499999999993
40
0.687499999999993
40
0.718749999999993
40
0.718749999999993
40
0.749999999999993
40
0.749999999999993
40
0.781249999999993
40
0.781249999999993
40
0.812499999999992
40
0.812499999999992
40
0.843749999999992
40
0.843749999999992
40
0.874999999999992
40
0.874999999999992
40
0.878906249999992
40
0.878906249999992
40
0.882812499999993
40
0.890624999999993
40
0.890624999999993
40
0.906249999999994
40
0.906249999999994
40
0.937499999999996
40
0.937499999999996
40
0.968749999999998
40
0.968749999999998
40
1
40
1
40
1
40
1
41
1
10
48.9041971955912
20
6
30
0
41
1
10
48.9657803351621
20
6
30
0
41
1
10
49.0273634747331
20
5.97707463703355
30
0
41
1
10
49.150529753875
20
5.87780823286818
30
0
41
1
10
49.2121128934459
20
5.80141070772339
30
0
41
1
10
49.3352791725879
20
5.59073957090379
30
0
41
1
10
49.3968623121588
20
5.45642453020383
30
0
41
1
10
49.5200285913007
20
5.13021307815623
30
0
41
1
10
49.5816117308716
20
4.93830900270166
30
0
41
1
10
49.7047780100135
20
4.50277368682842
30
0
41
1
10
49.7663611495845
20
4.25917751025949
30
0
41
1
10
49.8895274287265
20
3.73128059733904
30
0
41
1
10
49.9511105682974
20
3.44704956175744
30
0
41
1
10
50.0742768474393
20
2.85245378881896
30
0
41
1
10
50.1358599870103
20
2.54217095321229
30
0
41
1
10
50.2590262661521
20
1.91122092635186
30
0
41
1
10
50.3206094057231
20
1.59062277881375
30
0
41
1
10
50.443775684865
20
0.953613069660406
30
0
41
1
10
50.5053588244359
20
0.637241983258122
30
0
41
1
10
50.5823377488996
20
0.251708105721548
30
0
41
1
10
50.5977335337924
20
0.175089532546906
30
0
41
1
10
50.6285251035779
20
0.0229761437668685
30
0
41
1
10
50.6439208884707
20
-0.0523146813965809
30
0
41
1
10
50.6901082431488
20
-0.28091598035158
30
0
41
1
10
50.7208998129343
20
-0.435534963103493
30
0
41
1
10
50.8132745222907
20
-0.904171390705045
30
0
41
1
10
50.8748576618617
20
-1.22306408009564
30
0
41
1
10
50.9980239410036
20
-1.86125600232762
30
0
41
1
10
51.0596070805746
20
-2.18050591313764
30
0
41
1
10
51.1827733597165
20
-2.80435078208941
30
0
41
1
10
51.2443564992874
20
-3.1088709087841
30
0
41
1
10
51.3675227784293
20
-3.68759829221932
30
0
41
1
10
51.4291059180003
20
-3.96172440524742
30
0
41
1
10
51.5522721971422
20
-4.46583484344811
30
0
41
1
10
51.6138553367131
20
-4.69575742688488
30
0
41
1
10
51.737021615855
20
-5.10170389133958
30
0
41
1
10
51.798604755426
20
-5.27770473772506
30
0
41
1
10
51.9217710345679
20
-5.5714565693207
30
0
41
1
10
51.9833541741389
20
-5.68922627646367
30
0
41
1
10
52.1065204532808
20
-5.86762966184122
30
0
41
1
10
52.1681035928518
20
-5.92831106344272
30
0
41
1
10
52.2604783022082
20
-5.98062226431603
30
0
41
1
10
52.2912698719936
20
-5.99163696027372
30
0
41
1
10
52.3374572266719
20
-5.99924474910571
30
0
41
1
10
52.3528530115646
20
-6.00029808003967
30
0
41
1
10
52.3836445813501
20
-5.99955894099998
30
0
41
1
10
52.3990403662428
20
-5.99775333492849
30
0
41
1
10
52.4760192907065
20
-5.98122036706269
30
0
41
1
10
52.5376024302775
20
-5.94387140916658
30
0
41
1
10
52.6607687094194
20
-5.81409892542538
30
0
41
1
10
52.7223518489903
20
-5.72162113919518
30
0
41
1
10
52.8455181281323
20
-5.4783374626563
30
0
41
1
10
52.9071012677032
20
-5.32749799894583
30
0
41
1
10
53.0302675468451
20
-4.96931938707118
30
0
41
1
10
53.091850686416
20
-4.76198439817483
30
0
41
1
10
53.215016965558
20
-4.29822463698127
30
0
41
1
10
53.2766001051289
20
-4.04184629574868
30
0
41
1
10
53.3997663842709
20
-3.49223331277287
30
0
41
1
10
53.4613495238418
20
-3.19907446312661
30
0
41
1
10
53.5845158029837
20
-2.59105823054046
30
0
41
1
10
53.6460989425546
20
-2.27628143024873
30
0
41
1
10
53.7692652216966
20
-1.64066543061955
30
0
41
1
10
53.8308483612675
20
-1.3198882091726
30
0
41
1
10
53.9540146404093
20
-0.686164325618819
30
0
41
1
10
54.0155977799804
20
-0.373249157348653
30
0
41
1
10
54.0848788119978
20
-0.0316513712582775
30
0
41
1
10
54.0925767044441
20
0.0060654009188852
30
0
41
1
10
54.1079724893368
20
0.0818465681359157
30
0
41
1
10
54.1310661666759
20
0.195951731941364
30
0
41
1
10
54.154159844015
20
0.311279744502485
30
0
41
1
10
54.2003471986932
20
0.543339851443875
30
0
41
1
10
54.2311387684787
20
0.69992546831503
30
0
41
1
10
54.3235134778351
20
1.17325646953589
30
0
41
1
10
54.3850966174061
20
1.49366089044875
30
0
41
1
10
54.508262896548
20
2.1308106107131
30
0
41
1
10
54.569846036119
20
2.44749818762571
30
0
41
1
10
54.6930123152609
20
3.06175865986222
30
0
41
1
10
54.7545954548319
20
3.35925250974606
30
0
41
1
10
54.8161785944028
20
3.63949184875534
30
0
0
SPLINE
5
E3
100
AcDbEntity
8
1
62
256
6
ByLayer
370
13
48
1
60
0
100
AcDbSpline
70
4
71
3
72
82
73
78
40
0
40
0
40
0
40
0
40
0.0312499999999997
40
0.0312499999999997
40
0.0624999999999994
40
0.0624999999999994
40
0.0937499999999991
40
0.0937499999999991
40
0.124999999999999
40
0.124999999999999
40
0.156249999999999
40
0.156249999999999
40
0.187499999999998
40
0.187499999999998
40
0.218749999999998
40
0.218749999999998
40
0.249999999999998
40
0.249999999999998
40
0.265624999999998
40
0.265624999999998
40
0.273437499999997
40
0.273437499999997
40
0.281249999999997
40
0.281249999999997
40
0.312499999999997
40
0.312499999999997
40
0.343749999999997
40
0.343749999999997
40
0.374999999999997
40
0.374999999999997
40
0.406249999999997
40
0.406249999999997
40
0.437499999999997
40
0.437499999999997
40
0.468749999999997
40
0.468749999999997
40
0.499999999999997
40
0.499999999999997
40
0.531249999999997
40
0.531249999999997
40
0.539062499999996
40
0.539062499999996
40
0.546874999999996
40
0.546874999999996
40
0.562499999999996
40
0.562499999999996
40
0.593749999999997
40
0.593749999999997
40
0.624999999999997
40
0.624999999999997
40
0.656249999999997
40
0.656249999999997
40
0.687499999999997
40
0.687499999999997
40
0.718749999999998
40
0.718749999999998
40
0.749999999999998
40
0.749999999999998
40
0.781249999999998
40
0.781249999999998
40
0.796874999999998
40
0.796874999999998
40
0.804687499999998
40
0.804687499999998
40
0.812499999999998
40
0.812499999999998
40
0.843749999999999
40
0.843749999999999
40
0.874999999999999
40
0.874999999999999
40
0.906249999999999
40
0.906249999999999
40
0.937499999999999
40
0.937499999999999
40
0.96875
40
0.96875
40
1
40
1
40
1
40
1
41
1
10
48.4020987707
20
6
30
0
41
1
10
48.468912102197
20
6
30
0
41
1
10
48.5357254336938
20
5.97299282388383
30
0
41
1
10
48.6693520966877
20
5.85544322661991
30
0
41
1
10
48.7361654281846
20
5.76481690603151
30
0
41
1
10
48.8697920911784
20
5.51499208987698
30
0
41
1
10
48.9366054226753
20
5.35573839279249
30
0
41
1
10
49.070232085669
20
4.97048604945601
30
0
41
1
10
49.137045417166
20
4.74449195896975
30
0
41
1
10
49.2706720801598
20
4.23531747819715
30
0
41
1
10
49.3374854116566
20
3.95220999801799
30
0
41
1
10
49.4711120746505
20
3.34493869733592
30
0
41
1
10
49.5379254061474
20
3.02089193224325
30
0
41
1
10
49.6715520691412
20
2.35147089655624
30
0
41
1
10
49.7383654006381
20
2.0062137510148
30
0
41
1
10
49.871992063632
20
1.31401062922555
30
0
41
1
10
49.9388053951288
20
0.967144322292057
30
0
41
1
10
50.0390253923742
20
0.457930476527736
30
0
41
1
10
50.0724320581226
20
0.290007962652283
30
0
41
1
10
50.1225420567453
20
0.0420517915028995
30
0
41
1
10
50.1392453896195
20
-0.0395938657411534
30
0
41
1
10
50.172652055368
20
-0.204871996967569
30
0
41
1
10
50.1893553882422
20
-0.288164127825496
30
0
41
1
10
50.2728720526134
20
-0.70741313373793
30
0
41
1
10
50.3396853841103
20
-1.05191565769564
30
0
41
1
10
50.4733120471041
20
-1.74391611657566
30
0
41
1
10
50.5401253786009
20
-2.09134700332166
30
0
41
1
10
50.6737520415948
20
-2.77021006993346
30
0
41
1
10
50.7405653730917
20
-3.10153183794378
30
0
41
1
10
50.8741920360855
20
-3.72814755486613
30
0
41
1
10
50.9410053675824
20
-4.02332006646779
30
0
41
1
10
51.0746320305762
20
-4.56019836369245
30
0
41
1
10
51.1414453620731
20
-4.80181662403609
30
0
41
1
10
51.2750720250669
20
-5.2200453752701
30
0
41
1
10
51.3418853565638
20
-5.39663358088436
30
0
41
1
10
51.4755120195576
20
-5.68090134595877
30
0
41
1
10
51.5423253510545
20
-5.7886234196925
30
0
41
1
10
51.6759520140483
20
-5.93856121247549
30
0
41
1
10
51.7427653455452
20
-5.98085692878885
30
0
41
1
10
51.8262820099163
20
-5.99825144811439
30
0
41
1
10
51.8429853427906
20
-5.99996600871629
30
0
41
1
10
51.876392008539
20
-6.00003299007213
30
0
41
1
10
51.8930953414132
20
-5.9983870842882
30
0
41
1
10
51.943205340036
20
-5.98816122771427
30
0
41
1
10
51.9766120057844
20
-5.97428625100932
30
0
41
1
10
52.0768320030298
20
-5.90969223839306
30
0
41
1
10
52.1436453345266
20
-5.83583061504791
30
0
41
1
10
52.2772719975205
20
-5.62023118608278
30
0
41
1
10
52.3440853290174
20
-5.4784275915722
30
0
41
1
10
52.4777119920111
20
-5.12688647087941
30
0
41
1
10
52.5445253235081
20
-4.91713638100177
30
0
41
1
10
52.6781519865019
20
-4.43733398338489
30
0
41
1
10
52.7449653179988
20
-4.1673383551306
30
0
41
1
10
52.8785919809926
20
-3.5817382723192
30
0
41
1
10
52.9454053124895
20
-3.26624353203184
30
0
41
1
10
53.0790319754833
20
-2.60880938943885
30
0
41
1
10
53.1458453069802
20
-2.26699133785311
30
0
41
1
10
53.279471969974
20
-1.57690657703173
30
0
41
1
10
53.346285301471
20
-1.22873132326902
30
0
41
1
10
53.4465052987163
20
-0.714748311975967
30
0
41
1
10
53.4799119644647
20
-0.544772353282752
30
0
41
1
10
53.5300219630874
20
-0.29315647487411
30
0
41
1
10
53.5467252959616
20
-0.209840184394579
30
0
41
1
10
53.5801319617101
20
-0.0445101233994478
30
0
41
1
10
53.5968352945843
20
0.03713634663211
30
0
41
1
10
53.6803519589555
20
0.45026662766935
30
0
41
1
10
53.7471652904524
20
0.791424226931298
30
0
41
1
10
53.8807919534461
20
1.48101278507113
30
0
41
1
10
53.9476052849431
20
1.82938971243604
30
0
41
1
10
54.0812319479368
20
2.51516840051266
30
0
41
1
10
54.1480452794338
20
2.85246859181817
30
0
41
1
10
54.2816719424276
20
3.49600224434624
30
0
41
1
10
54.3484852739244
20
3.80211289854841
30
0
41
1
10
54.4821119369183
20
4.36482556561006
30
0
41
1
10
54.5489252684151
20
4.62132753763709
30
0
41
1
10
54.682551931409
20
5.07154991580958
30
0
41
1
10
54.7493652629059
20
5.2652302480659
30
0
41
1
10
54.8161785944028
20
5.42458024114532
30
0
0
SPLINE
5
E4
100
AcDbEntity
8
1
62
256
6
ByLayer
370
13
48
1
60
0
100
AcDbSpline
70
4
71
3
72
70
73
66
40
0
40
0
40
0
40
0
40
0.03125
40
0.03125
40
0.0625
40
0.0625
40
0.0937499999999999
40
0.0937499999999999
40
0.125
40
0.125
40
0.15625
40
0.15625
40
0.1875
40
0.1875
40
0.21875
40
0.21875
40
0.25
40
0.25
40
0.28125
40
0.28125
40
0.3125
40
0.3125
40
0.34375
40
0.34375
40
0.375
40
0.375
40
0.40625
40
0.40625
40
0.4375
40
0.4375
40
0.46875
40
0.46875
40
0.5
40
0.5
40
0.53125
40
0.53125
40
0.5625
40
0.5625
40
0.59375
40
0.59375
40
0.625
40
0.625
40
0.65625
40
0.65625
40
0.6875
40
0.6875
40
0.71875
40
0.71875
40
0.75
40
0.75
40
0.78125
40
0.78125
40
0.8125
40
0.8125
40
0.84375
40
0.84375
40
0.875
40
0.875
40
0.90625
40
0.90625
40
0.9375
40
0.9375
40
0.96875
40
0.96875
40
1
40
1
40
1
40
1
41
1
10
47.9000003458089
20
6
30
0
41
1
10
47.9720438692317
20
6
30
0
41
1
10
48.0440873926547
20
5.96856991954093
30
0
41
1
10
48.1881744395004
20
5.83109452207927
30
0
41
1
10
48.2602179629232
20
5.72492871536153
30
0
41
1
10
48.4043050097688
20
5.43253098510695
30
0
41
1
10
48.4763485331917
20
5.24623007172377
30
0
41
1
10
48.6204355800375
20
4.79771626473126
30
0
41
1
10
48.6924791034603
20
4.53553405489197
30
0
41
1
10
48.8365661503061
20
3.94974767081845
30
0
41
1
10
48.9086096737289
20
3.62627537140463
30
0
41
1
10
49.0526967205745
20
2.94024218374199
30
0
41
1
10
49.1247402439975
20
2.57785941826663
30
0
41
1
10
49.2688272908431
20
1.83927776119935
30
0
41
1
10
49.340870814266
20
1.46322857570564
30
0
41
1
10
49.4849578611118
20
0.720328833284839
30
0
41
1
10
49.5570013845345
20
0.353553807535007
30
0
41
1
10
49.7010884313803
20
-0.35355295900689
30
0
41
1
10
49.7731319548031
20
-0.720327948855129
30
0
41
1
10
49.9172190016489
20
-1.46322767717595
30
0
41
1
10
49.9892625250717
20
-1.83927686382543
30
0
41
1
10
50.1333495719174
20
-2.5778585430445
30
0
41
1
10
50.2053930953402
20
-2.94024132956301
30
0
41
1
10
50.3494801421859
20
-3.62627457910384
30
0
41
1
10
50.4215236656088
20
-3.94974691934658
30
0
41
1
10
50.5656107124545
20
-4.53553340047637
30
0
41
1
10
50.6376542358773
20
-4.7977156664779
30
0
41
1
10
50.781741282723
20
-5.24622959354383
30
0
41
1
10
50.8537848061459
20
-5.43253057074961
30
0
41
1
10
50.9978718529916
20
-5.72492842796416
30
0
41
1
10
51.0699153764145
20
-5.83109429775504
30
0
41
1
10
51.2140024232602
20
-5.96856981392406
30
0
41
1
10
51.2860459466831
20
-5.99999994999993
30
0
41
1
10
51.4301329935288
20
-6.00000004999993
30
0
41
1
10
51.5021765169515
20
-5.96857002515767
30
0
41
1
10
51.6462635637972
20
-5.83109474640335
30
0
41
1
10
51.7183070872201
20
-5.72492900275873
30
0
41
1
10
51.8623941340659
20
-5.43253139946418
30
0
41
1
10
51.9344376574887
20
-5.2462305499036
30
0
41
1
10
52.0785247043344
20
-4.79771686298446
30
0
41
1
10
52.1505682277573
20
-4.53553470930746
30
0
41
1
10
52.294655274603
20
-3.94974842229021
30
0
41
1
10
52.3666987980258
20
-3.62627616370531
30
0
41
1
10
52.5107858448715
20
-2.94024303792091
30
0
41
1
10
52.5828293682944
20
-2.57786029348873
30
0
41
1
10
52.7269164151401
20
-1.83927865857325
30
0
41
1
10
52.7989599385629
20
-1.46322947423536
30
0
41
1
10
52.9430469854086
20
-0.720329717714577
30
0
41
1
10
53.0150905088315
20
-0.353554676773825
30
0
41
1
10
53.1591775556772
20
0.353552131189389
30
0
41
1
10
53.2312210791
20
0.720327064425419
30
0
41
1
10
53.3753081259457
20
1.46322677864626
30
0
41
1
10
53.4473516493686
20
1.83927596645154
30
0
41
1
10
53.5914386962142
20
2.57785766782232
30
0
41
1
10
53.6634822196371
20
2.94024047538397
30
0
41
1
10
53.8075692664828
20
3.62627378680296
30
0
41
1
10
53.8796127899057
20
3.94974616787462
30
0
41
1
10
54.0236998367515
20
4.53553274606062
30
0
41
1
10
54.0957433601742
20
4.79771506822442
30
0
41
1
10
54.23983040702
20
5.24622911536372
30
0
41
1
10
54.3118739304429
20
5.43253015639209
30
0
41
1
10
54.4559609772885
20
5.72492814056665
30
0
41
1
10
54.5280045007113
20
5.83109407343065
30
0
41
1
10
54.672091547557
20
5.96856970830706
30
0
41
1
10
54.7441350709799
20
5.99999989999975
30
0
41
1
10
54.8161785944027
20
5.99999999999977
30
0
0
SPLINE
5
E5
100
AcDbEntity
8
1
62
256
6
ByLayer
370
13
48
1
60
0
100
AcDbSpline
70
4
71
3
72
82
73
78
40
0
40
0
40
0
40
0
40
0.03125
40
0.03125
40
0.0625
40
0.0625
40
0.0937499999999999
40
0.0937499999999999
40
0.125
40
0.125
40
0.15625
40
0.15625
40
0.1875
40
0.1875
40
0.1953125
40
0.1953125
40
0.203125
40
0.203125
40
0.21875
40
0.21875
40
0.25
40
0.25
40
0.28125
40
0.28125
40
0.3125
40
0.3125
40
0.34375
40
0.34375
40
0.375
40
0.375
40
0.40625
40
0.40625
40
0.4375
40
0.4375
40
0.453125
40
0.453125
40
0.4609375
40
0.4609375
40
0.46875
40
0.46875
40
0.5
40
0.5
40
0.53125
40
0.53125
40
0.5625
40
0.5625
40
0.59375
40
0.59375
40
0.625
40
0.625
40
0.65625
40
0.65625
40
0.6875
40
0.6875
40
0.71875
40
0.71875
40
0.7265625
40
0.7265625
40
0.734375
40
0.734375
40
0.75
40
0.75
40
0.78125
40
0.78125
40
0.8125
40
0.8125
40
0.84375
40
0.84375
40
0.875
40
0.875
40
0.90625
40
0.90625
40
0.9375
40
0.9375
40
0.96875
40
0.96875
40
1
40
1
40
1
40
1
41
1
10
47.9
20
5.42458189065471
30
0
41
1
10
47.9668133387012
20
5.26523211508891
30
0
41
1
10
48.0336266774025
20
5.07155198951372
30
0
41
1
10
48.167253354805
20
4.62132997876557
30
0
41
1
10
48.2340666935063
20
4.36482816726996
30
0
41
1
10
48.3676933709088
20
3.80211575774686
30
0
41
1
10
48.4345067096101
20
3.49600520046027
30
0
41
1
10
48.5681333870126
20
2.8524716727195
30
0
41
1
10
48.6349467257139
20
2.51517150935288
30
0
41
1
10
48.7685734031164
20
1.82939281507564
30
0
41
1
10
48.8353867418176
20
1.48101585374252
30
0
41
1
10
48.9690134192201
20
0.79142718117734
30
0
41
1
10
49.0358267579214
20
0.450269501638104
30
0
41
1
10
49.119343431298
20
0.037139102809391
30
0
41
1
10
49.1360467659732
20
-0.0445073746283242
30
0
41
1
10
49.1694534353239
20
-0.209837424554792
30
0
41
1
10
49.1861567699992
20
-0.29315371064763
30
0
41
1
10
49.2362667740251
20
-0.54476957957246
30
0
41
1
10
49.2696734433757
20
-0.714745536853769
30
0
41
1
10
49.3698934514276
20
-1.22872856024435
30
0
41
1
10
49.4367067901289
20
-1.57690384407834
30
0
41
1
10
49.5703334675314
20
-2.26698871324982
30
0
41
1
10
49.6371468062327
20
-2.60880684318022
30
0
41
1
10
49.7707734836351
20
-3.26624118689
30
0
41
1
10
49.8375868223364
20
-3.58173604991274
30
0
41
1
10
49.971213499739
20
-4.16733641002392
30
0
41
1
10
50.0380268384402
20
-4.43733219270146
30
0
41
1
10
50.1716535158428
20
-4.91713491230578
30
0
41
1
10
50.238466854544
20
-5.12688516956601
30
0
41
1
10
50.3720935319465
20
-5.47842661852465
30
0
41
1
10
50.4389068706478
20
-5.62023037378296
30
0
41
1
10
50.5725335480503
20
-5.83583010222966
30
0
41
1
10
50.6393468867515
20
-5.90969186426679
30
0
41
1
10
50.7395668948034
20
-5.97428606195936
30
0
41
1
10
50.772973564154
20
-5.98816109658651
30
0
41
1
10
50.82308356818
20
-5.99838703407502
30
0
41
1
10
50.8397869028553
20
-6.00003296581392
30
0
41
1
10
50.8731935722058
20
-5.999966034469
30
0
41
1
10
50.8898969068812
20
-5.99825149914693
30
0
41
1
10
50.9734135802578
20
-5.98085710728324
30
0
41
1
10
51.040226918959
20
-5.93856149645691
30
0
41
1
10
51.1738535963615
20
-5.78862391175062
30
0
41
1
10
51.2406669350628
20
-5.68090194052957
30
0
41
1
10
51.3742936124654
20
-5.39663436565505
30
0
41
1
10
51.4411069511666
20
-5.22004624761789
30
0
41
1
10
51.5747336285691
20
-4.80181764575343
30
0
41
1
10
51.6415469672704
20
-4.56019944710749
30
0
41
1
10
51.7751736446729
20
-4.02332124078393
30
0
41
1
10
51.8419869833741
20
-3.72814875835672
30
0
41
1
10
51.9756136607767
20
-3.10153306685649
30
0
41
1
10
52.0424269994779
20
-2.77021129514401
30
0
41
1
10
52.1760536768804
20
-2.09134819372733
30
0
41
1
10
52.2428670155817
20
-1.74391727597464
30
0
41
1
10
52.3764936929842
20
-1.05191673680889
30
0
41
1
10
52.4433070316854
20
-0.707414163663259
30
0
41
1
10
52.526823705062
20
-0.288165090928089
30
0
41
1
10
52.5435270397373
20
-0.204872946436694
30
0
41
1
10
52.576933709088
20
-0.0395947875423985
30
0
41
1
10
52.5936370437632
20
0.0420508783209641
30
0
41
1
10
52.6437470477892
20
0.290007061879436
30
0
41
1
10
52.6771537171398
20
0.45792958592412
30
0
41
1
10
52.7773737251917
20
0.967143467937092
30
0
41
1
10
52.844187063893
20
1.31400980679123
30
0
41
1
10
52.9778137412955
20
2.00621300603166
30
0
41
1
10
53.0446270799967
20
2.35147019709751
30
0
41
1
10
53.1782537573992
20
3.02089133241913
30
0
41
1
10
53.2450670961005
20
3.34493815157342
30
0
41
1
10
53.378693773503
20
3.95220956156706
30
0
41
1
10
53.4455071122043
20
4.23531709692102
30
0
41
1
10
53.5791337896068
20
4.74449168140623
30
0
41
1
10
53.6459471283081
20
4.97048582036479
30
0
41
1
10
53.7795738057106
20
5.35573824801457
30
0
41
1
10
53.8463871444118
20
5.51499198091511
30
0
41
1
10
53.9800138218143
20
5.76481685336464
30
0
41
1
10
54.0468271605156
20
5.85544319445137
30
0
41
1
10
54.1804538379181
20
5.97299281802691
30
0
41
1
10
54.2472671766194
20
6
30
0
41
1
10
54.3140805153206
20
6
30
0
0
SPLINE
5
E6
100
AcDbEntity
8
1
62
256
6
ByLayer
370
13
48
1
60
0
100
AcDbSpline
70
4
71
3
72
83
73
79
40
0
40
0
40
0
40
0
40
0.0312500000000002
40
0.0312500000000002
40
0.0625000000000004
40
0.0625000000000004
40
0.0937500000000006
40
0.0937500000000006
40
0.109375000000001
40
0.109375000000001
40
0.1171875
40
0.12109375
40
0.12109375
40
0.125
40
0.125
40
0.15625
40
0.15625
40
0.1875
40
0.1875
40
0.21875
40
0.21875
40
0.25
40
0.25
40
0.28125
40
0.28125
40
0.3125
40
0.3125
40
0.34375
40
0.34375
40
0.375
40
0.375
40
0.40625
40
0.40625
40
0.4140625
40
0.4140625
40
0.421875000000001
40
0.421875000000001
40
0.437500000000001
40
0.437500000000001
40
0.468750000000001
40
0.468750000000001
40
0.500000000000002
40
0.500000000000002
40
0.531250000000002
40
0.531250000000002
40
0.562500000000003
40
0.562500000000003
40
0.593750000000003
40
0.593750000000003
40
0.625000000000004
40
0.625000000000004
40
0.656250000000004
40
0.656250000000004
40
0.687500000000005
40
0.687500000000005
40
0.703125000000005
40
0.703125000000005
40
0.710937500000005
40
0.710937500000005
40
0.718750000000005
40
0.718750000000005
40
0.750000000000005
40
0.750000000000005
40
0.781250000000004
40
0.781250000000004
40
0.812500000000004
40
0.812500000000004
40
0.843750000000003
40
0.843750000000003
40
0.875000000000002
40
0.875000000000002
40
0.906250000000002
40
0.906250000000002
40
0.937500000000001
40
0.937500000000001
40
0.968750000000001
40
0.968750000000001
40
1
40
1
40
1
40
1
41
1
10
47.9
20
3.63949499602072
30
0
41
1
10
47.9615831467753
20
3.35925575292677
30
0
41
1
10
48.0231662935506
20
3.06176196769778
30
0
41
1
10
48.1463325871013
20
2.44750156274614
30
0
41
1
10
48.2079157338766
20
2.13081398855243
30
0
41
1
10
48.3310820274272
20
1.49366422098129
30
0
41
1
10
48.3926651742025
20
1.17325975017673
30
0
41
1
10
48.4850398943654
20
0.699928645446192
30
0
41
1
10
48.5158314677531
20
0.543342989320223
30
0
41
1
10
48.5620188278346
20
0.311282817827589
30
0
41
1
10
48.5851125078753
20
0.195954771573867
30
0
41
1
10
48.608206187916
20
0.0818495722218415
30
0
41
1
10
48.6236019746099
20
0.0060683809246598
30
0
41
1
10
48.6312998679567
20
-0.0316483904543645
30
0
41
1
10
48.700580908079
20
-0.373246149258847
30
0
41
1
10
48.7621640548543
20
-0.686161310035715
30
0
41
1
10
48.8853303484049
20
-1.31988521968387
30
0
41
1
10
48.9469134951802
20
-1.6406624748002
30
0
41
1
10
49.0700797887308
20
-2.27627858614051
30
0
41
1
10
49.1316629355061
20
-2.59105546451968
30
0
41
1
10
49.2548292290568
20
-3.19907189445209
30
0
41
1
10
49.3164123758321
20
-3.4922308633343
30
0
41
1
10
49.4395786693827
20
-4.04184411580871
30
0
41
1
10
49.501161816158
20
-4.29822260720937
30
0
41
1
10
49.6243281097086
20
-4.76198268446768
30
0
41
1
10
49.6859112564839
20
-4.96931783912981
30
0
41
1
10
49.8090775500345
20
-5.32749678136662
30
0
41
1
10
49.8706606968099
20
-5.47833640956068
30
0
41
1
10
49.9938269903605
20
-5.72162039926346
30
0
41
1
10
50.0554101371357
20
-5.81409833411851
30
0
41
1
10
50.1785764306864
20
-5.94387108958031
30
0
41
1
10
50.2401595774617
20
-5.98122017057878
30
0
41
1
10
50.3171385109309
20
-5.99775327380405
30
0
41
1
10
50.3325342976246
20
-5.99955890603425
30
0
41
1
10
50.3633258710123
20
-6.00029809554928
30
0
41
1
10
50.3787216577062
20
-5.99924478956387
30
0
41
1
10
50.4249090177877
20
-5.99163707693711
30
0
41
1
10
50.4557005911753
20
-5.98062243262055
30
0
41
1
10
50.5480753113382
20
-5.92831138775671
30
0
41
1
10
50.6096584581135
20
-5.86763009166089
30
0
41
1
10
50.7328247516642
20
-5.68922691104709
30
0
41
1
10
50.7944078984395
20
-5.57145730309588
30
0
41
1
10
50.9175741919901
20
-5.27770565345926
30
0
41
1
10
50.9791573387654
20
-5.10170488976027
30
0
41
1
10
51.102323632316
20
-4.69575856551236
30
0
41
1
10
51.1639067790913
20
-4.46583603953334
30
0
41
1
10
51.2870730726419
20
-3.96172568605976
30
0
41
1
10
51.3486562194172
20
-3.68759960028578
30
0
41
1
10
51.4718225129679
20
-3.10887224112989
30
0
41
1
10
51.5334056597432
20
-2.80435211149782
30
0
41
1
10
51.6565719532937
20
-2.1805072110447
30
0
41
1
10
51.718155100069
20
-1.86125727173936
30
0
41
1
10
51.8413213936198
20
-1.22306527444377
30
0
41
1
10
51.902904540395
20
-0.904172538553155
30
0
41
1
10
51.9952792605579
20
-0.435536033893641
30
0
41
1
10
52.0260708339456
20
-0.280917024237027
30
0
41
1
10
52.072258194027
20
-0.0523156838108889
30
0
41
1
10
52.0876539807209
20
0.0229751521000026
30
0
41
1
10
52.1184455541085
20
0.175088548957092
30
0
41
1
10
52.1338413408023
20
0.251707126605368
30
0
41
1
10
52.2108202742715
20
0.637241028708303
30
0
41
1
10
52.2724034210469
20
0.953612141886026
30
0
41
1
10
52.3955697145975
20
1.59062191808206
30
0
41
1
10
52.4571528613728
20
1.91122010589345
30
0
41
1
10
52.5803191549234
20
2.54217022361468
30
0
41
1
10
52.6419023016987
20
2.85245310978741
30
0
41
1
10
52.7650685952493
20
3.44704898872229
30
0
41
1
10
52.8266517420246
20
3.73128007968734
30
0
41
1
10
52.9498180355752
20
4.25917710156455
30
0
41
1
10
53.0114011823505
20
4.50277333165161
30
0
41
1
10
53.1345674759012
20
4.93830874646108
30
0
41
1
10
53.1961506226765
20
5.13021286729381
30
0
41
1
10
53.3193169162271
20
5.45642439760729
30
0
41
1
10
53.3809000630023
20
5.590739471185
30
0
41
1
10
53.5040663565529
20
5.80141065956897
30
0
41
1
10
53.5656495033283
20
5.87780820341851
30
0
41
1
10
53.6888157968789
20
5.97707463164497
30
0
41
1
10
53.7503989436542
20
6
30
0
41
1
10
53.8119820904295
20
6
30
0
0
SPLINE
5
E7
100
AcDbEntity
8
1
62
256
6
ByLayer
370
13
48
1
60
0
100
AcDbSpline
70
4
71
3
72
82
73
78
40
0
40
0
40
0
40
0
40
0.0312499999999994
40
0.0312499999999994
40
0.0390624999999993
40
0.0390624999999993
40
0.0468749999999991
40
0.0468749999999991
40
0.0624999999999989
40
0.0624999999999989
40
0.0937499999999983
40
0.0937499999999983
40
0.124999999999998
40
0.124999999999998
40
0.156249999999997
40
0.156249999999997
40
0.187499999999997
40
0.187499999999997
40
0.218749999999996
40
0.218749999999996
40
0.249999999999995
40
0.249999999999995
40
0.281249999999995
40
0.281249999999995
40
0.312499999999994
40
0.312499999999994
40
0.343749999999994
40
0.343749999999994
40
0.359374999999994
40
0.359374999999994
40
0.367187499999994
40
0.367187499999994
40
0.374999999999993
40
0.374999999999993
40
0.406249999999993
40
0.406249999999993
40
0.437499999999993
40
0.437499999999993
40
0.468749999999994
40
0.468749999999994
40
0.499999999999994
40
0.499999999999994
40
0.531249999999994
40
0.531249999999994
40
0.562499999999994
40
0.562499999999994
40
0.593749999999994
40
0.593749999999994
40
0.624999999999993
40
0.624999999999993
40
0.656249999999993
40
0.656249999999993
40
0.671874999999993
40
0.671874999999993
40
0.679687499999993
40
0.679687499999993
40
0.687499999999993
40
0.687499999999993
40
0.718749999999994
40
0.718749999999994
40
0.749999999999995
40
0.749999999999995
40
0.781249999999995
40
0.781249999999995
40
0.812499999999996
40
0.812499999999996
40
0.843749999999997
40
0.843749999999997
40
0.874999999999997
40
0.874999999999997
40
0.906249999999998
40
0.906249999999998
40
0.937499999999999
40
0.937499999999999
40
0.968749999999999
40
0.968749999999999
40
1
40
1
40
1
40
1
41
1
10
47.9
20
1.12591809951476
30
0
41
1
10
47.9563529548494
20
0.835163718286452
30
0
41
1
10
48.0127059096987
20
0.547012997700364
30
0
41
1
10
48.0831471032604
20
0.195466287826065
30
0
41
1
10
48.0972353419728
20
0.125583097679311
30
0
41
1
10
48.1254118193975
20
-0.0132205879796459
30
0
41
1
10
48.1395000581098
20
-0.0822781642474411
30
0
41
1
10
48.1817647742468
20
-0.291775224140679
30
0
41
1
10
48.2099412516715
20
-0.433271330488623
30
0
41
1
10
48.2944706839456
20
-0.861814847675532
30
0
41
1
10
48.3508236387949
20
-1.15298599978547
30
0
41
1
10
48.4635295484937
20
-1.73681665238217
30
0
41
1
10
48.519882503343
20
-2.02944650777229
30
0
41
1
10
48.6325884130417
20
-2.60485805360244
30
0
41
1
10
48.688941367891
20
-2.88759399660302
30
0
41
1
10
48.8016472775898
20
-3.43117646968767
30
0
41
1
10
48.8580002324391
20
-3.691970313193
30
0
41
1
10
48.9707061421378
20
-4.18044099462765
30
0
41
1
10
49.0270590969872
20
-4.40807184250198
30
0
41
1
10
49.1397650066859
20
-4.82133759163884
30
0
41
1
10
49.1961179615352
20
-5.00694576031472
30
0
41
1
10
49.308823871234
20
-5.33077119827777
30
0
41
1
10
49.3651768260833
20
-5.46898687707446
30
0
41
1
10
49.4778827357821
20
-5.69655577273761
30
0
41
1
10
49.5342356906314
20
-5.78592969507761
30
0
41
1
10
49.6469416003301
20
-5.91796141273073
30
0
41
1
10
49.7032945551795
20
-5.96065311563751
30
0
41
1
10
49.7878239874536
20
-5.99333317523275
30
0
41
1
10
49.8160004648782
20
-5.99901840212709
30
0
41
1
10
49.8582651810152
20
-6.00031566759392
30
0
41
1
10
49.8723534197276
20
-5.99955610792017
30
0
41
1
10
49.9005298971523
20
-5.99556937021427
30
0
41
1
10
49.9146181358646
20
-5.99233942340098
30
0
41
1
10
49.9850593294263
20
-5.9697661660874
30
0
41
1
10
50.0414122842756
20
-5.93107278875152
30
0
41
1
10
50.1541181939744
20
-5.80738363293176
30
0
41
1
10
50.2104711488237
20
-5.72235329051969
30
0
41
1
10
50.3231770585224
20
-5.50352959715636
30
0
41
1
10
50.3795300133718
20
-5.3697139208503
30
0
41
1
10
50.4922359230705
20
-5.05439905247937
30
0
41
1
10
50.5485888779198
20
-4.87289920261105
30
0
41
1
10
50.6612947876185
20
-4.46721335466682
30
0
41
1
10
50.7176477424679
20
-4.24305193484201
30
0
41
1
10
50.8303536521667
20
-3.76060533677463
30
0
41
1
10
50.886706607016
20
-3.502364862321
30
0
41
1
10
50.9994125167148
20
-2.96282000745413
30
0
41
1
10
51.055765471564
20
-2.68156829868428
30
0
41
1
10
51.1684713812627
20
-2.10804600467887
30
0
41
1
10
51.2248243361122
20
-1.81582226330312
30
0
41
1
10
51.3375302458109
20
-1.23184142639229
30
0
41
1
10
51.3938832006602
20
-0.940115624557876
30
0
41
1
10
51.4784126329342
20
-0.510168441223186
30
0
41
1
10
51.506589110359
20
-0.36810964728275
30
0
41
1
10
51.548853826496
20
-0.157647599376389
30
0
41
1
10
51.5629420652083
20
-0.0879300528593774
30
0
41
1
10
51.5911185426329
20
0.0505235145121219
30
0
41
1
10
51.6052067813453
20
0.119917584598568
30
0
41
1
10
51.675647974907
20
0.469892585899004
30
0
41
1
10
51.7320009297563
20
0.757114722916782
30
0
41
1
10
51.8447068394551
20
1.33764152369079
30
0
41
1
10
51.9010597943044
20
1.63092503743974
30
0
41
1
10
52.0137657040032
20
2.21296930574067
30
0
41
1
10
52.0701186588526
20
2.50169090453079
30
0
41
1
10
52.1828245685513
20
3.06271831689594
30
0
41
1
10
52.2391775234006
20
3.3349730770376
30
0
41
1
10
52.3518834330993
20
3.8512699226722
30
0
41
1
10
52.4082363879487
20
4.09526120007811
30
0
41
1
10
52.5209422976474
20
4.5449097218594
30
0
41
1
10
52.5772952524967
20
4.75053023982042
30
0
41
1
10
52.6900011621954
20
5.11635666747606
30
0
41
1
10
52.7463541170448
20
5.27654938671054
30
0
41
1
10
52.8590600267435
20
5.54825892484277
30
0
41
1
10
52.9154129815929
20
5.65978715907715
30
0
41
1
10
53.0281188912916
20
5.83474793769079
30
0
41
1
10
53.084471846141
20
5.89820971815053
30
0
41
1
10
53.1971777558397
20
5.98081746363184
30
0
41
1
10
53.253530710689
20
6
30
0
41
1
10
53.3098836655384
20
6
30
0
0
SPLINE
5
E8
100
AcDbEntity
8
1
62
256
6
ByLayer
370
13
48
1
60
0
100
AcDbSpline
70
4
71
3
72
78
73
74
40
0
40
0
40
0
40
0
40
0.0312499999999999
40
0.0312499999999999
40
0.0624999999999997
40
0.0624999999999997
40
0.0937499999999995
40
0.0937499999999995
40
0.124999999999999
40
0.124999999999999
40
0.156249999999999
40
0.156249999999999
40
0.187499999999999
40
0.187499999999999
40
0.218749999999999
40
0.218749999999999
40
0.249999999999999
40
0.249999999999999
40
0.281249999999999
40
0.281249999999999
40
0.289062499999999
40
0.289062499999999
40
0.296874999999999
40
0.296874999999999
40
0.312499999999998
40
0.312499999999998
40
0.343749999999998
40
0.343749999999998
40
0.374999999999998
40
0.374999999999998
40
0.406249999999998
40
0.406249999999998
40
0.437499999999998
40
0.437499999999998
40
0.468749999999998
40
0.468749999999998
40
0.499999999999998
40
0.499999999999998
40
0.531249999999998
40
0.531249999999998
40
0.562499999999997
40
0.562499999999997
40
0.593749999999997
40
0.593749999999997
40
0.624999999999997
40
0.624999999999997
40
0.640624999999997
40
0.640624999999997
40
0.648437499999997
40
0.648437499999997
40
0.656249999999997
40
0.656249999999997
40
0.687499999999997
40
0.687499999999997
40
0.718749999999998
40
0.718749999999998
40
0.749999999999998
40
0.749999999999998
40
0.781249999999998
40
0.781249999999998
40
0.812499999999998
40
0.812499999999998
40
0.843749999999998
40
0.843749999999998
40
0.874999999999999
40
0.874999999999999
40
0.906249999999999
40
0.906249999999999
40
0.937499999999999
40
0.937499999999999
40
0.96875
40
0.96875
40
1
40
1
40
1
40
1
41
1
10
47.9
20
-1.41859769312222
30
0
41
1
10
47.9511227629234
20
-1.683380011662
30
0
41
1
10
48.0022455258468
20
-1.94887323664889
30
0
41
1
10
48.1044910516936
20
-2.47293622645506
30
0
41
1
10
48.155613814617
20
-2.73147883047338
30
0
41
1
10
48.2578593404638
20
-3.2326704061968
30
0
41
1
10
48.3089821033873
20
-3.47528719643714
30
0
41
1
10
48.4112276292341
20
-3.93597758371879
30
0
41
1
10
48.4623503921575
20
-4.15402064761312
30
0
41
1
10
48.5645959180044
20
-4.558202760162
30
0
41
1
10
48.6157186809277
20
-4.74431986133465
30
0
41
1
10
48.7179642067746
20
-5.0793910605525
30
0
41
1
10
48.769086969698
20
-5.22833643160618
30
0
41
1
10
48.8713324955448
20
-5.4863818446787
30
0
41
1
10
48.9224552584682
20
-5.59548709261176
30
0
41
1
10
49.024700784315
20
-5.77379819315183
30
0
41
1
10
49.0758235472385
20
-5.84302013379832
30
0
41
1
10
49.1780690730853
20
-5.94380461888579
30
0
41
1
10
49.2291918360087
20
-5.9753889675217
30
0
41
1
10
49.2930952896629
20
-5.99379768475993
30
0
41
1
10
49.3058759803938
20
-5.99642905172345
30
0
41
1
10
49.3314373618555
20
-5.99966343731757
30
0
41
1
10
49.3442180525863
20
-6.00026872837793
30
0
41
1
10
49.3825601247789
20
-5.99914065125375
30
0
41
1
10
49.4081215062406
20
-5.9944232568194
30
0
41
1
10
49.4848056506258
20
-5.96750160835433
30
0
41
1
10
49.5359284135491
20
-5.93248123223049
30
0
41
1
10
49.6381739393959
20
-5.82452685451489
30
0
41
1
10
49.6892967023193
20
-5.75157135524458
30
0
41
1
10
49.7915422281661
20
-5.56569012066583
30
0
41
1
10
49.8426649910896
20
-5.45274912833816
30
0
41
1
10
49.9449105169363
20
-5.18716957782684
30
0
41
1
10
49.9960332798598
20
-5.03452705931346
30
0
41
1
10
50.0982788057066
20
-4.69245304781779
30
0
41
1
10
50.14940156863
20
-4.50303163795218
30
0
41
1
10
50.2516470944769
20
-4.09285992015796
30
0
41
1
10
50.3027698574003
20
-3.87213263029182
30
0
41
1
10
50.405015383247
20
-3.40685578811718
30
0
41
1
10
50.4561381461705
20
-3.16233724060965
30
0
41
1
10
50.5583836720173
20
-2.65819840659262
30
0
41
1
10
50.6095064349407
20
-2.3986100853771
30
0
41
1
10
50.7117519607875
20
-1.87329352339373
30
0
41
1
10
50.7628747237109
20
-1.60759169409602
30
0
41
1
10
50.8651202495578
20
-1.0783519410856
30
0
41
1
10
50.9162430124812
20
-0.814830915396612
30
0
41
1
10
50.9929271568662
20
-0.426410123907374
30
0
41
1
10
51.018488538328
20
-0.298068137816642
30
0
41
1
10
51.0568306105205
20
-0.107789702388942
30
0
41
1
10
51.0696113012513
20
-0.0448681580927826
30
0
41
1
10
51.095172682713
20
0.0807287272480721
30
0
41
1
10
51.1079533734439
20
0.143931161297701
30
0
41
1
10
51.1718568270982
20
0.461761545870957
30
0
41
1
10
51.2229795900216
20
0.721909447147027
30
0
41
1
10
51.3252251158684
20
1.24774484149555
30
0
41
1
10
51.3763478787918
20
1.51342017048003
30
0
41
1
10
51.4785934046387
20
2.04256024719348
30
0
41
1
10
51.5297161675621
20
2.3060025908222
30
0
41
1
10
51.6319616934089
20
2.82192799470715
30
0
41
1
10
51.6830844563323
20
3.07438091515331
30
0
41
1
10
51.7853299821791
20
3.55938141335497
30
0
41
1
10
51.8364527451025
20
3.79189665198331
30
0
41
1
10
51.9386982709494
20
4.22883960721293
30
0
41
1
10
51.9898210338728
20
4.43323989823986
30
0
41
1
10
52.0920665597196
20
4.80745915535232
30
0
41
1
10
52.143189322643
20
4.97726179700069
30
0
41
1
10
52.2454348484898
20
5.27815841415168
30
0
41
1
10
52.2965576114132
20
5.40925012781662
30
0
41
1
10
52.3988031372601
20
5.63125046924924
30
0
41
1
10
52.4499259001834
20
5.72216977950501
30
0
41
1
10
52.5521714260302
20
5.86486946789967
30
0
41
1
10
52.6032941889536
20
5.91666920762768
30
0
41
1
10
52.7055397148004
20
5.98422316614111
30
0
41
1
10
52.7566624777239
20
6
30
0
41
1
10
52.8077852406473
20
6
30
0
0
SPLINE
5
E9
100
AcDbEntity
8
1
62
256
6
ByLayer
370
13
48
1
60
0
100
AcDbSpline
70
4
71
3
72
78
73
74
40
0
40
0
40
0
40
0
40
0.03125
40
0.03125
40
0.0625
40
0.0625
40
0.0937499999999999
40
0.0937499999999999
40
0.125
40
0.125
40
0.15625
40
0.15625
40
0.1875
40
0.1875
40
0.203125
40
0.203125
40
0.2109375
40
0.2109375
40
0.21875
40
0.21875
40
0.25
40
0.25
40
0.28125
40
0.28125
40
0.3125
40
0.3125
40
0.34375
40
0.34375
40
0.375
40
0.375
40
0.40625
40
0.40625
40
0.4375
40
0.4375
40
0.46875
40
0.46875
40
0.5
40
0.5
40
0.53125
40
0.53125
40
0.5625
40
0.5625
40
0.59375
40
0.59375
40
0.6015625
40
0.6015625
40
0.609375
40
0.609375
40
0.625
40
0.625
40
0.65625
40
0.65625
40
0.6875
40
0.6875
40
0.71875
40
0.71875
40
0.75
40
0.75
40
0.78125
40
0.78125
40
0.8125
40
0.8125
40
0.84375
40
0.84375
40
0.875
40
0.875
40
0.90625
40
0.90625
40
0.9375
40
0.9375
40
0.96875
40
0.96875
40
1
40
1
40
1
40
1
41
1
10
47.9
20
-3.89201041277656
30
0
41
1
10
47.9458925709974
20
-4.09250815606339
30
0
41
1
10
47.9917851419949
20
-4.2822271730777
30
0
41
1
10
48.0835702839898
20
-4.63511700079803
30
0
41
1
10
48.1294628549873
20
-4.79827618094228
30
0
41
1
10
48.2212479969822
20
-5.09445886854823
30
0
41
1
10
48.2671405679797
20
-5.22747786324135
30
0
41
1
10
48.3589257099746
20
-5.46147775604996
30
0
41
1
10
48.4048182809721
20
-5.56246145516607
30
0
41
1
10
48.496603422967
20
-5.73219812359523
30
0
41
1
10
48.5424959939645
20
-5.80095980249442
30
0
41
1
10
48.6342811359593
20
-5.90759018462262
30
0
41
1
10
48.6801737069569
20
-5.94547112901449
30
0
41
1
10
48.7490125634531
20
-5.98103088900788
30
0
41
1
10
48.7719588489518
20
-5.98934874525554
30
0
41
1
10
48.8063782771999
20
-5.99681996283874
30
0
41
1
10
48.8178514199493
20
-5.99847646502133
30
0
41
1
10
48.840797705448
20
-6.00017502300477
30
0
41
1
10
48.8522708481974
20
-6.00022356846921
30
0
41
1
10
48.9096365619441
20
-5.99647531228172
30
0
41
1
10
48.9555291329416
20
-5.98056170376003
30
0
41
1
10
49.0473142749365
20
-5.91972729325877
30
0
41
1
10
49.093206845934
20
-5.87479328288202
30
0
41
1
10
49.1849919879289
20
-5.75361986397618
30
0
41
1
10
49.2308845589264
20
-5.67736880788004
30
0
41
1
10
49.3226697009212
20
-5.49254927846383
30
0
41
1
10
49.3685622719187
20
-5.38397329081434
30
0
41
1
10
49.4603474139136
20
-5.13507555452145
30
0
41
1
10
49.5062399849111
20
-4.99475264590401
30
0
41
1
10
49.5980251269061
20
-4.68465439953968
30
0
41
1
10
49.6439176979035
20
-4.51488532789671
30
0
41
1
10
49.7357028398985
20
-4.14983586347145
30
0
41
1
10
49.7815954108959
20
-3.95456855094759
30
0
41
1
10
49.8733805528908
20
-3.54381716732638
30
0
41
1
10
49.9192731238883
20
-3.32835073069404
30
0
41
1
10
50.0110582658832
20
-2.88337822911194
30
0
41
1
10
50.0569508368806
20
-2.65389109543872
30
0
41
1
10
50.1487359788756
20
-2.18737523567003
30
0
41
1
10
50.1946285498731
20
-1.95036347222538
30
0
41
1
10
50.286413691868
20
-1.47506664967076
30
0
41
1
10
50.3323062628654
20
-1.23679420138424
30
0
41
1
10
50.4240914048603
20
-0.764562823729278
30
0
41
1
10
50.4699839758578
20
-0.530611104701137
30
0
41
1
10
50.5273496896046
20
-0.243745671951615
30
0
41
1
10
50.538822832354
20
-0.186648669387608
30
0
41
1
10
50.5617691178527
20
-0.0730678594599112
30
0
41
1
10
50.5732422606021
20
-0.0167836741591145
30
0
41
1
10
50.6076616888501
20
0.15258696376705
30
0
41
1
10
50.6306079743489
20
0.26679053167075
30
0
41
1
10
50.6994468308451
20
0.612539999650039
30
0
41
1
10
50.7453394018426
20
0.84725730770981
30
0
41
1
10
50.8371245438375
20
1.32041247600677
30
0
41
1
10
50.883017114835
20
1.55884248249245
30
0
41
1
10
50.9748022568299
20
2.03374829259397
30
0
41
1
10
51.0206948278273
20
2.27021089374267
30
0
41
1
10
51.1124799698223
20
2.73486900103984
30
0
41
1
10
51.1583725408197
20
2.96304716713035
30
0
41
1
10
51.2501576828146
20
3.40464962180778
30
0
41
1
10
51.2960502538121
20
3.61805495307044
30
0
41
1
10
51.387835395807
20
4.02400647241498
30
0
41
1
10
51.4337279668044
20
4.21653540230201
30
0
41
1
10
51.5255131087993
20
4.57556688352472
30
0
41
1
10
51.5714056797968
20
4.74205706472605
30
0
41
1
10
51.6631908217917
20
5.045238046153
30
0
41
1
10
51.7090833927892
20
5.18192345419675
30
0
41
1
10
51.8008685347841
20
5.42338924363852
30
0
41
1
10
51.8467611057816
20
5.52817161442729
30
0
41
1
10
51.9385462477765
20
5.70544394988249
30
0
41
1
10
51.984438818774
20
5.77794204283987
30
0
41
1
10
52.0762239607689
20
5.8918187593261
30
0
41
1
10
52.1221165317664
20
5.93320934524044
30
0
41
1
10
52.2139016737613
20
5.98729334863759
30
0
41
1
10
52.2597942447587
20
6
30
0
41
1
10
52.3056868157562
20
6
30
0
0
SPLINE
5
EA
100
AcDbEntity
8
1
62
256
6
ByLayer
370
13
48
1
60
0
100
AcDbSpline
70
4
71
3
72
78
73
74
40
0
40
0
40
0
40
0
40
0.0312500000000004
40
0.0312500000000004
40
0.0625000000000008
40
0.0625000000000008
40
0.0937500000000012
40
0.0937500000000012
40
0.109375000000001
40
0.109375000000001
40
0.117187500000001
40
0.117187500000001
40
0.125000000000001
40
0.125000000000001
40
0.156250000000001
40
0.156250000000001
40
0.1875
40
0.1875
40
0.21875
40
0.21875
40
0.25
40
0.25
40
0.281249999999999
40
0.281249999999999
40
0.312499999999999
40
0.312499999999999
40
0.343749999999998
40
0.343749999999998
40
0.374999999999998
40
0.374999999999998
40
0.406249999999997
40
0.406249999999997
40
0.437499999999997
40
0.437499999999997
40
0.468749999999996
40
0.468749999999996
40
0.499999999999996
40
0.499999999999996
40
0.531249999999995
40
0.531249999999995
40
0.546874999999995
40
0.546874999999995
40
0.554687499999995
40
0.554687499999995
40
0.562499999999994
40
0.562499999999994
40
0.593749999999995
40
0.593749999999995
40
0.624999999999995
40
0.624999999999995
40
0.656249999999996
40
0.656249999999996
40
0.687499999999996
40
0.687499999999996
40
0.718749999999996
40
0.718749999999996
40
0.749999999999997
40
0.749999999999997
40
0.781249999999997
40
0.781249999999997
40
0.812499999999998
40
0.812499999999998
40
0.843749999999998
40
0.843749999999998
40
0.874999999999998
40
0.874999999999998
40
0.906249999999999
40
0.906249999999999
40
0.937499999999999
40
0.937499999999999
40
0.96875
40
0.96875
40
1
40
1
40
1
40
1
41
1
10
47.9
20
-5.55141930039949
30
0
41
1
10
47.9406623790716
20
-5.63667975435862
30
0
41
1
10
47.9813247581431
20
-5.70925741062646
30
0
41
1
10
48.0626495162861
20
-5.82955576582899
30
0
41
1
10
48.1033118953575
20
-5.87728244064476
30
0
41
1
10
48.1846366535006
20
-5.94923944024694
30
0
41
1
10
48.2252990325721
20
-5.97347684964086
30
0
41
1
10
48.2862926011794
20
-5.99371429043356
30
0
41
1
10
48.3066237907151
20
-5.99777800279634
30
0
41
1
10
48.3371205750188
20
-6.00006928124691
30
0
41
1
10
48.3472861697866
20
-6.00020278167528
30
0
41
1
10
48.3676173593224
20
-5.99922144866096
30
0
41
1
10
48.3777829540903
20
-5.99810102037551
30
0
41
1
10
48.4286109279297
20
-5.98925636748316
30
0
41
1
10
48.4692733070012
20
-5.97178688024962
30
0
41
1
10
48.5505980651442
20
-5.91391728874083
30
0
41
1
10
48.5912604442157
20
-5.87350997713531
30
0
41
1
10
48.6725852023587
20
-5.76818412316737
30
0
41
1
10
48.7132475814303
20
-5.70325914941986
30
0
41
1
10
48.7945723395733
20
-5.54810246082374
30
0
41
1
10
48.8352347186448
20
-5.45786620114927
30
0
41
1
10
48.9165594767878
20
-5.25224553930542
30
0
41
1
10
48.9572218558593
20
-5.13685948650809
30
0
41
1
10
49.0385466140023
20
-4.88214856768397
30
0
41
1
10
49.0792089930738
20
-4.74282557320797
30
0
41
1
10
49.1605337512169
20
-4.442499463361
30
0
41
1
10
49.2011961302884
20
-4.28150176881266
30
0
41
1
10
49.2825208884314
20
-3.94102437803841
30
0
41
1
10
49.3231832675029
20
-3.76155300689538
30
0
41
1
10
49.4045080256459
20
-3.38805647883351
30
0
41
1
10
49.4451704047175
20
-3.19404135848578
30
0
41
1
10
49.5264951628604
20
-2.79583515851076
30
0
41
1
10
49.567157541932
20
-2.59165437237087
30
0
41
1
10
49.648482300075
20
-2.17763357176062
30
0
41
1
10
49.6891446791465
20
-1.96780273726441
30
0
41
1
10
49.7704694372895
20
-1.54684026541543
30
0
41
1
10
49.8111318163611
20
-1.33571569427605
30
0
41
1
10
49.8924565745041
20
-0.916118720544262
30
0
41
1
10
49.9331189535756
20
-0.707650784328877
30
0
41
1
10
49.9941125221829
20
-0.399467855438218
30
0
41
1
10
50.0144437117187
20
-0.297488443029067
30
0
41
1
10
50.0449404960222
20
-0.145910505828596
30
0
41
1
10
50.0551060907901
20
-0.0956160558836245
30
0
41
1
10
50.0754372803258
20
0.0044690281007718
30
0
41
1
10
50.0856028750938
20
0.0542913399004874
30
0
41
1
10
50.1364308489331
20
0.305475647853285
30
0
41
1
10
50.1770932280046
20
0.510355133972723
30
0
41
1
10
50.2584179861477
20
0.925044469645542
30
0
41
1
10
50.2990803652192
20
1.1348515667998
30
0
41
1
10
50.3804051233622
20
1.55581171569594
30
0
41
1
10
50.4210675024337
20
1.76695937434877
30
0
41
1
10
50.5023922605767
20
2.18648777510612
30
0
41
1
10
50.5430546396482
20
2.39486063290775
30
0
41
1
10
50.6243793977912
20
2.80439833557512
30
0
41
1
10
50.6650417768628
20
3.00555347598942
30
0
41
1
10
50.7463665350058
20
3.39615339824931
30
0
41
1
10
50.7870289140773
20
3.58558780915428
30
0
41
1
10
50.8683536722203
20
3.94848871311512
30
0
41
1
10
50.9090160512918
20
4.12194560626472
30
0
41
1
10
50.9903408094349
20
4.44918400547186
30
0
41
1
10
51.0310031885065
20
4.60295808492737
30
0
41
1
10
51.1123279466494
20
4.8879341355566
30
0
41
1
10
51.152990325721
20
5.01913188142473
30
0
41
1
10
51.2343150838639
20
5.25704757449088
30
0
41
1
10
51.2749774629354
20
5.36376491282866
30
0
41
1
10
51.3563022210784
20
5.55187461335848
30
0
41
1
10
51.39696460015
20
5.6332697295702
30
0
41
1
10
51.478289358293
20
5.7709185540038
30
0
41
1
10
51.5189517373646
20
5.82717758890152
30
0
41
1
10
51.6002764955076
20
5.91564187342348
30
0
41
1
10
51.6409388745791
20
5.94785394777506
30
0
41
1
10
51.7222636327222
20
5.99002939292191
30
0
41
1
10
51.7629260117936
20
6
30
0
41
1
10
51.8035883908651
20
6
30
0
0
SPLINE
5
EB
100
AcDbEntity
8
1
62
256
6
ByLayer
370
13
48
1
60
0
100
AcDbSpline
70
4
71
3
72
42
73
38
40
0
40
0
40
0
40
0
40
0.0624999999999993
40
0.0624999999999993
40
0.124999999999999
40
0.124999999999999
40
0.187499999999998
40
0.187499999999998
40
0.249999999999997
40
0.249999999999997
40
0.312499999999996
40
0.312499999999996
40
0.374999999999996
40
0.374999999999996
40
0.437499999999995
40
0.437499999999995
40
0.468749999999994
40
0.468749999999994
40
0.484374999999994
40
0.484374999999994
40
0.499999999999994
40
0.499999999999994
40
0.562499999999995
40
0.562499999999995
40
0.624999999999996
40
0.624999999999996
40
0.687499999999997
40
0.687499999999997
40
0.749999999999997
40
0.749999999999997
40
0.812499999999998
40
0.812499999999998
40
0.874999999999999
40
0.874999999999999
40
0.937499999999999
40
0.937499999999999
40
1
40
1
40
1
40
1
41
1
10
47.9
20
-5.99344923171847
30
0
41
1
10
47.9708643742912
20
-5.97689588849792
30
0
41
1
10
48.0417287485823
20
-5.92821399964274
30
0
41
1
10
48.1834574971645
20
-5.75665323917167
30
0
41
1
10
48.2543218714557
20
-5.63366988605048
30
0
41
1
10
48.3960506200379
20
-5.31028709861963
30
0
41
1
10
48.466914994329
20
-5.10984222461079
30
0
41
1
10
48.6086437429113
20
-4.63771190560362
30
0
41
1
10
48.6795081172024
20
-4.36607637236247
30
0
41
1
10
48.8212368657846
20
-3.76717343735322
30
0
41
1
10
48.8921012400758
20
-3.44004118314737
30
0
41
1
10
49.033829988658
20
-2.75231837187741
30
0
41
1
10
49.1046943629491
20
-2.39189203131079
30
0
41
1
10
49.2464231115314
20
-1.66158274682456
30
0
41
1
10
49.3172874858225
20
-1.29182826943992
30
0
41
1
10
49.4235840472592
20
-0.74600761519693
30
0
41
1
10
49.4590162344047
20
-0.565501737786263
30
0
41
1
10
49.5121645151231
20
-0.298483611766272
30
0
41
1
10
49.5298806086959
20
-0.210098070877365
30
0
41
1
10
49.5653127958414
20
-0.0347963626261389
30
0
41
1
10
49.5830288894142
20
0.051784959898356
30
0
41
1
10
49.6716093572782
20
0.490513325171463
30
0
41
1
10
49.7424737315692
20
0.85337687095759
30
0
41
1
10
49.8842024801515
20
1.5858394828345
30
0
41
1
10
49.9550668544427
20
1.95536044270122
30
0
41
1
10
50.0967956030249
20
2.67894588417496
30
0
41
1
10
50.167659977316
20
3.03286732505214
30
0
41
1
10
50.3093887258983
20
3.70128634051505
30
0
41
1
10
50.3802531001894
20
4.015620605691
30
0
41
1
10
50.5219818487717
20
4.58392790833562
30
0
41
1
10
50.5928462230627
20
4.83778445430369
30
0
41
1
10
50.734574971645
20
5.27168612048141
30
0
41
1
10
50.8054393459361
20
5.45170799531078
30
0
41
1
10
50.9471680945184
20
5.73421100859323
30
0
41
1
10
51.0180324688095
20
5.83675814426391
30
0
41
1
10
51.1597612173917
20
5.96959696499107
30
0
41
1
10
51.2306255916828
20
6
30
0
41
1
10
51.301489965974
20
6
30
0
0
SPLINE
5
EC
100
AcDbEntity
8
1
62
256
6
ByLayer
370
13
48
1
60
0
100
AcDbSpline
70
4
71
3
72
42
73
38
40
0
40
0
40
0
40
0
40
0.0624999999999997
40
0.0624999999999997
40
0.124999999999999
40
0.124999999999999
40
0.187499999999999
40
0.187499999999999
40
0.249999999999999
40
0.249999999999999
40
0.312499999999999
40
0.312499999999999
40
0.374999999999998
40
0.374999999999998
40
0.390624999999998
40
0.390624999999998
40
0.406249999999998
40
0.406249999999998
40
0.437499999999998
40
0.437499999999998
40
0.499999999999998
40
0.499999999999998
40
0.562499999999998
40
0.562499999999998
40
0.624999999999999
40
0.624999999999999
40
0.687499999999999
40
0.687499999999999
40
0.749999999999999
40
0.749999999999999
40
0.812499999999999
40
0.812499999999999
40
0.875
40
0.875
40
0.9375
40
0.9375
40
1
40
1
40
1
40
1
41
1
10
47.9
20
-5.28148441387396
30
0
41
1
10
47.9604039904392
20
-5.12015292368898
30
0
41
1
10
48.0208079808785
20
-4.93116047665552
30
0
41
1
10
48.1416159617569
20
-4.50346814275682
30
0
41
1
10
48.2020199521962
20
-4.26480028956442
30
0
41
1
10
48.3228279330746
20
-3.7481384880206
30
0
41
1
10
48.3832319235138
20
-3.47020753179911
30
0
41
1
10
48.5040399043922
20
-2.88871190090907
30
0
41
1
10
48.5644438948315
20
-2.58522164359135
30
0
41
1
10
48.6852518757099
20
-1.96746623875555
30
0
41
1
10
48.7456558661492
20
-1.65326487456824
30
0
41
1
10
48.8664638470277
20
-1.02795743329403
30
0
41
1
10
48.9268678374668
20
-0.716890167458018
30
0
41
1
10
49.0023728255159
20
-0.337051639781464
30
0
41
1
10
49.0174738231257
20
-0.261526164160273
30
0
41
1
10
49.0476758183453
20
-0.111503715397902
30
0
41
1
10
49.0627768159551
20
-0.0372905951314522
30
0
41
1
10
49.1080798087845
20
0.18559567513546
30
0
41
1
10
49.1382818040042
20
0.336427757294217
30
0
41
1
10
49.228887789663
20
0.793945745276545
30
0
41
1
10
49.2892917801023
20
1.10574560861207
30
0
41
1
10
49.4100997609807
20
1.73145156869535
30
0
41
1
10
49.4705037514199
20
2.04531652230176
30
0
41
1
10
49.5913117322984
20
2.66117779149033
30
0
41
1
10
49.6517157227376
20
2.963108738746
30
0
41
1
10
49.7725237036161
20
3.54027161185167
30
0
41
1
10
49.8329276940553
20
3.81542918621915
30
0
41
1
10
49.9537356749337
20
4.32552497490107
30
0
41
1
10
50.014139665373
20
4.56040214466924
30
0
41
1
10
50.1349476462514
20
4.97984623045812
30
0
41
1
10
50.1953516366907
20
5.1643842218227
30
0
41
1
10
50.3161596175691
20
5.47790179196937
30
0
41
1
10
50.3765636080083
20
5.6068904553627
30
0
41
1
10
50.4973715888868
20
5.80920953310283
30
0
41
1
10
50.557775579326
20
5.88257845204379
30
0
41
1
10
50.6785835602045
20
5.97794798698001
30
0
41
1
10
50.7389875506436
20
6
30
0
41
1
10
50.7993915410829
20
6
30
0
0
SPLINE
5
ED
100
AcDbEntity
8
1
62
256
6
ByLayer
370
13
48
1
60
0
100
AcDbSpline
70
4
71
3
72
10
73
6
40
0
40
0
40
0
40
0
40
0.5
40
0.5
40
1
40
1
40
1
40
1
41
1
10
54.4272798693933
20
6
30
0
41
1
10
54.4920963235614
20
6
30
0
41
1
10
54.5569127777297
20
5.97459138547137
30
0
41
1
10
54.6865456860663
20
5.8642151782106
30
0
41
1
10
54.7513621402345
20
5.77917514290959
30
0
41
1
10
54.8161785944027
20
5.66193974908617
30
0
0
SPLINE
5
EE
100
AcDbEntity
8
1
62
256
6
ByLayer
370
13
48
1
60
0
100
AcDbSpline
70
4
71
3
72
42
73
38
40
0
40
0
40
0
40
0
40
0.0625
40
0.0625
40
0.125
40
0.125
40
0.1875
40
0.1875
40
0.25
40
0.25
40
0.265625
40
0.265625
40
0.28125
40
0.28125
40
0.3125
40
0.3125
40
0.375
40
0.375
40
0.4375
40
0.4375
40
0.5
40
0.5
40
0.5625
40
0.5625
40
0.625
40
0.625
40
0.6875
40
0.6875
40
0.75
40
0.75
40
0.8125
40
0.8125
40
0.875
40
0.875
40
0.9375
40
0.9375
40
1
40
1
40
1
40
1
41
1
10
47.9
20
-3.37730212617538
30
0
41
1
10
47.9499436065873
20
-3.1420425490887
30
0
41
1
10
47.9998872131747
20
-2.89693879742367
30
0
41
1
10
48.0997744263493
20
-2.39529995755137
30
0
41
1
10
48.1497180329367
20
-2.13879218385733
30
0
41
1
10
48.2496052461113
20
-1.62257898837802
30
0
41
1
10
48.2995488526986
20
-1.36289458825092
30
0
41
1
10
48.3994360658734
20
-0.84773883450822
30
0
41
1
10
48.4493796724607
20
-0.592279724598683
30
0
41
1
10
48.5118091806948
20
-0.279389989223802
30
0
41
1
10
48.5242950823416
20
-0.217130110656456
30
0
41
1
10
48.5492668856353
20
-0.0933262373995092
30
0
41
1
10
48.5617527872822
20
-0.0319712831719414
30
0
41
1
10
48.5992104922226
20
0.152222594671485
30
0
41
1
10
48.6241822955163
20
0.276554798339674
30
0
41
1
10
48.6990977053973
20
0.653216655281426
30
0
41
1
10
48.7490413119846
20
0.90925678031752
30
0
41
1
10
48.8489285251593
20
1.42502738740186
30
0
41
1
10
48.8988721317467
20
1.68474489629671
30
0
41
1
10
48.9987593449213
20
2.20038894714108
30
0
41
1
10
49.0487029515086
20
2.45629383654685
30
0
41
1
10
49.1485901646832
20
2.95605462518867
30
0
41
1
10
49.1985337712706
20
3.19988289331263
30
0
41
1
10
49.2984209844452
20
3.66720817928061
30
0
41
1
10
49.3483645910325
20
3.89067667505893
30
0
41
1
10
49.4482518042072
20
4.30983985388937
30
0
41
1
10
49.4981954107945
20
4.50551120607304
30
0
41
1
10
49.5980826239691
20
4.8632786423579
30
0
41
1
10
49.6480262305565
20
5.02536157198992
30
0
41
1
10
49.7479134437312
20
5.31235638017699
30
0
41
1
10
49.7978570503186
20
5.43726740648478
30
0
41
1
10
49.8977442634932
20
5.64874340172904
30
0
41
1
10
49.9476878700805
20
5.73531856485522
30
0
41
1
10
50.0475750832553
20
5.87122060473783
30
0
41
1
10
50.0975186898425
20
5.9205649619102
30
0
41
1
10
50.1974059030172
20
5.98494458642884
30
0
41
1
10
50.2473495096045
20
6
30
0
41
1
10
50.2972931161918
20
6
30
0
0
SPLINE
5
EF
100
AcDbEntity
8
1
62
256
6
ByLayer
370
13
48
1
60
0
100
AcDbSpline
70
4
71
3
72
14
73
10
40
0
40
0
40
0
40
0
40
0.25
40
0.25
40
0.5
40
0.5
40
0.75
40
0.75
40
1
40
1
40
1
40
1
41
1
10
53.9251814445021
20
6
30
0
41
1
10
53.9994312069938
20
6
30
0
41
1
10
54.0736809694856
20
5.96660136251717
30
0
41
1
10
54.2221804944691
20
5.82022407190132
30
0
41
1
10
54.2964302569607
20
5.70710632223299
30
0
41
1
10
54.4449297819441
20
5.39573445383027
30
0
41
1
10
54.5191795444359
20
5.19740612140646
30
0
41
1
10
54.6676790694194
20
4.72103117555514
30
0
41
1
10
54.7419288319111
20
4.44303205559206
30
0
41
1
10
54.8161785944028
20
4.13365942173317
30
0
0
SPLINE
5
F0
100
AcDbEntity
8
1
62
256
6
ByLayer
370
13
48
1
60
0
100
AcDbSpline
70
4
71
3
72
38
73
34
40
0
40
0
40
0
40
0
40
0.062499999999997
40
0.062499999999997
40
0.0781249999999965
40
0.0781249999999965
40
0.0937499999999959
40
0.0937499999999959
40
0.124999999999996
40
0.124999999999996
40
0.249999999999997
40
0.249999999999997
40
0.312499999999997
40
0.312499999999997
40
0.374999999999997
40
0.374999999999997
40
0.437499999999998
40
0.437499999999998
40
0.499999999999998
40
0.499999999999998
40
0.562499999999998
40
0.562499999999998
40
0.624999999999998
40
0.624999999999998
40
0.687499999999999
40
0.687499999999999
40
0.749999999999999
40
0.749999999999999
40
0.812499999999999
40
0.812499999999999
40
0.874999999999999
40
0.874999999999999
40
1
40
1
40
1
40
1
41
1
10
47.9
20
-0.834913170121808
30
0
41
1
10
47.9394832227355
20
-0.632748106937868
30
0
41
1
10
47.9789664454709
20
-0.432610241366007
30
0
41
1
10
48.0283204738902
20
-0.186728831204931
30
0
41
1
10
48.038191279574
20
-0.137765632021342
30
0
41
1
10
48.0579328909417
20
-0.0403033953614909
30
0
41
1
10
48.0678036966257
20
0.0080382282803839
30
0
41
1
10
48.0974161136772
20
0.153920379176384
30
0
41
1
10
48.1171577250449
20
0.252120863457918
30
0
41
1
10
48.2158657818835
20
0.747078567732359
30
0
41
1
10
48.2948322273543
20
1.15604823696881
30
0
41
1
10
48.4132818955606
20
1.76980028875019
30
0
41
1
10
48.452765118296
20
1.97436161435385
30
0
41
1
10
48.5317315637669
20
2.37956074733231
30
0
41
1
10
48.5712147865024
20
2.58019116125183
30
0
41
1
10
48.6501812319732
20
2.97341788782802
30
0
41
1
10
48.6896644547086
20
3.16600553623559
30
0
41
1
10
48.7686309001795
20
3.53905850862734
30
0
41
1
10
48.808114122915
20
3.71951492705574
30
0
41
1
10
48.8870805683858
20
4.06450740928446
30
0
41
1
10
48.9265637911212
20
4.22903551820377
30
0
41
1
10
49.0055302365921
20
4.53892113930269
30
0
41
1
10
49.0450134593275
20
4.68427274299935
30
0
41
1
10
49.1239799047984
20
4.95331489896009
30
0
41
1
10
49.1634631275338
20
5.07700233732442
30
0
41
1
10
49.2424295730046
20
5.30112331539934
30
0
41
1
10
49.2819127957401
20
5.40155677772495
30
0
41
1
10
49.360879241211
20
5.57852285862018
30
0
41
1
10
49.4003624639464
20
5.65505815583893
30
0
41
1
10
49.4793289094173
20
5.78448629138825
30
0
41
1
10
49.5188121321527
20
5.83738388120571
30
0
41
1
10
49.637261800359
20
5.96218691967306
30
0
41
1
10
49.7162282458298
20
6
30
0
41
1
10
49.7951946913007
20
6
30
0
0
SPLINE
5
F1
100
AcDbEntity
8
1
62
256
6
ByLayer
370
13
48
1
60
0
100
AcDbSpline
70
4
71
3
72
8
73
4
40
0
40
0
40
0
40
0
40
1
40
1
40
1
40
1
41
1
10
54.8161785944029
20
4.17930991147554
30
0
41
1
10
55.5441190629352
20
2.78307279487817
30
0
41
1
10
56.2720595314676
20
1.38996617163755
30
0
41
1
10
56.9999999999999
20
2.274E-13
30
0
0
SPLINE
5
F2
100
AcDbEntity
8
1
62
256
6
ByLayer
370
13
48
1
60
0
100
AcDbSpline
70
4
71
3
72
8
73
4
40
0
40
0
40
0
40
0
40
1
40
1
40
1
40
1
41
1
10
54.8161785944028
20
1.77556949976164
30
0
41
1
10
55.5441190629352
20
1.18788501667785
30
0
41
1
10
56.2720595314676
20
0.596027102137469
30
0
41
1
10
57
20
0
30
0
0
SPLINE
5
F3
100
AcDbEntity
8
1
62
256
6
ByLayer
370
13
48
1
60
0
100
AcDbSpline
70
4
71
3
72
8
73
4
40
0
40
0
40
0
40
0
40
1
40
1
40
1
40
1
41
1
10
54.8161785944028
20
2.88196015738831
30
0
41
1
10
55.5441190629352
20
1.92513758593154
30
0
41
1
10
56.2720595314676
20
0.964481906376989
30
0
41
1
10
57
20
0
30
0
0
SPLINE
5
F4
100
AcDbEntity
8
1
62
256
6
ByLayer
370
13
48
1
60
0
100
AcDbSpline
70
4
71
3
72
8
73
4
40
0
40
0
40
0
40
0
40
1
40
1
40
1
40
1
41
1
10
54.8161785944029
20
-0.190886594885456
30
0
41
1
10
55.5441190629352
20
-0.131623161802679
30
0
41
1
10
56.2720595314676
20
-0.0679941416456415
30
0
41
1
10
56.9999999999999
20
0
30
0
0
SPLINE
5
F5
100
AcDbEntity
8
1
62
256
6
ByLayer
370
13
48
1
60
0
100
AcDbSpline
70
4
71
3
72
8
73
4
40
0
40
0
40
0
40
0
40
1
40
1
40
1
40
1
41
1
10
54.8161785944029
20
4.95331382516781
30
0
41
1
10
55.5441190629352
20
3.29974444408907
30
0
41
1
10
56.2720595314676
20
1.64863590053895
30
0
41
1
10
56.9999999999999
20
2.842E-13
30
0
0
SPLINE
5
F6
100
AcDbEntity
8
1
62
256
6
ByLayer
370
13
48
1
60
0
100
AcDbSpline
70
4
71
3
72
8
73
4
40
0
40
0
40
0
40
0
40
1
40
1
40
1
40
1
41
1
10
54.8161785944029
20
-1.38199760085899
30
0
41
1
10
55.5441190629351
20
-0.925581939032952
30
0
41
1
10
56.2720595314673
20
-0.464914970227
30
0
41
1
10
56.9999999999994
20
-3.695E-13
30
0
0
SPLINE
5
F7
100
AcDbEntity
8
1
62
256
6
ByLayer
370
13
48
1
60
0
100
AcDbSpline
70
4
71
3
72
8
73
4
40
0
40
0
40
0
40
0
40
1
40
1
40
1
40
1
41
1
10
54.8161785944029
20
1.00788003256977
30
0
41
1
10
55.5441190629354
20
0.667614441348064
30
0
41
1
10
56.2720595314679
20
0.331653632804603
30
0
41
1
10
57.0000000000003
20
-1.421E-13
30
0
0
SPLINE
5
F8
100
AcDbEntity
8
1
62
256
6
ByLayer
370
13
48
1
60
0
100
AcDbSpline
70
4
71
3
72
8
73
4
40
0
40
0
40
0
40
0
40
1
40
1
40
1
40
1
41
1
10
54.8161785944027
20
-5.35747418425214
30
0
41
1
10
55.5441190629352
20
-3.56968301012728
30
0
41
1
10
56.2720595314676
20
-1.783854025241
30
0
41
1
10
57.0000000000001
20
2.558E-13
30
0
0
SPLINE
5
F9
100
AcDbEntity
8
1
62
256
6
ByLayer
370
13
48
1
60
0
100
AcDbSpline
70
4
71
3
72
8
73
4
40
0
40
0
40
0
40
0
40
1
40
1
40
1
40
1
41
1
10
54.8161785944027
20
-5.78831221161852
30
0
41
1
10
55.5441190629352
20
-3.85772488257194
30
0
41
1
10
56.2720595314676
20
-1.92828287879812
30
0
41
1
10
57.0000000000001
20
2.842E-13
30
0
0
SPLINE
5
FA
100
AcDbEntity
8
1
62
256
6
ByLayer
370
13
48
1
60
0
100
AcDbSpline
70
4
71
3
72
8
73
4
40
0
40
0
40
0
40
0
40
1
40
1
40
1
40
1
41
1
10
54.8161785944027
20
-4.71177143850531
30
0
41
1
10
55.5441190629352
20
-3.13847685759464
30
0
41
1
10
56.2720595314676
20
-1.567882635111
30
0
41
1
10
57.0000000000001
20
2.274E-13
30
0
0
SPLINE
5
FB
100
AcDbEntity
8
1
62
256
6
ByLayer
370
13
48
1
60
0
100
AcDbSpline
70
4
71
3
72
8
73
4
40
0
40
0
40
0
40
0
40
1
40
1
40
1
40
1
41
1
10
54.8161785944028
20
0.597968561429838
30
0
41
1
10
55.5441190629352
20
0.402991605714277
30
0
41
1
10
56.2720595314675
20
0.203668273157319
30
0
41
1
10
56.9999999999999
20
2.84E-14
30
0
0
SPLINE
5
FC
100
AcDbEntity
8
1
62
256
6
ByLayer
370
13
48
1
60
0
100
AcDbSpline
70
4
71
3
72
8
73
4
40
0
40
0
40
0
40
0
40
1
40
1
40
1
40
1
41
1
10
54.8161785944028
20
4.70825629972165
30
0
41
1
10
55.5441190629352
20
3.14154487700529
30
0
41
1
10
56.2720595314676
20
1.57212236594236
30
0
41
1
10
57
20
2.84E-14
30
0
0
SPLINE
5
FD
100
AcDbEntity
8
1
62
256
6
ByLayer
370
13
48
1
60
0
100
AcDbSpline
70
4
71
3
72
8
73
4
40
0
40
0
40
0
40
0
40
1
40
1
40
1
40
1
41
1
10
54.8161785944028
20
3.8727680727927
30
0
41
1
10
55.5441190629352
20
2.58518135659494
30
0
41
1
10
56.2720595314676
20
1.29425558475955
30
0
41
1
10
56.9999999999999
20
1.137E-13
30
0
0
SPLINE
5
FE
100
AcDbEntity
8
1
62
256
6
ByLayer
370
13
48
1
60
0
100
AcDbSpline
70
4
71
3
72
8
73
4
40
0
40
0
40
0
40
0
40
1
40
1
40
1
40
1
41
1
10
54.8161785944027
20
-3.55239474729652
30
0
41
1
10
55.5441190629352
20
-2.37178300292186
30
0
41
1
10
56.2720595314676
20
-1.18764859408631
30
0
41
1
10
57.0000000000001
20
1.705E-13
30
0
0
SPLINE
5
FF
100
AcDbEntity
8
1
62
256
6
ByLayer
370
13
48
1
60
0
100
AcDbSpline
70
4
71
3
72
8
73
4
40
0
40
0
40
0
40
0
40
1
40
1
40
1
40
1
41
1
10
54.8161785944029
20
-2.51768276340357
30
0
41
1
10
55.5441190629352
20
-1.68241969694893
30
0
41
1
10
56.2720595314676
20
-0.843190104827357
30
0
41
1
10
56.9999999999999
20
-1.421E-13
30
0
0
SPLINE
5
100
100
AcDbEntity
8
1
62
256
6
ByLayer
370
13
48
1
60
0
100
AcDbSpline
70
4
71
3
72
8
73
4
40
0
40
0
40
0
40
0
40
1
40
1
40
1
40
1
41
1
10
54.8161785944027
20
-2.88693566887869
30
0
41
1
10
55.5441190629352
20
-1.92079495061296
30
0
41
1
10
56.2720595314678
20
-0.958480769361586
30
0
41
1
10
57.0000000000003
20
4.263E-13
30
0
0
SPLINE
5
101
100
AcDbEntity
8
1
62
256
6
ByLayer
370
13
48
1
60
0
100
AcDbSpline
70
4
71
3
72
8
73
4
40
0
40
0
40
0
40
0
40
1
40
1
40
1
40
1
41
1
10
54.8161785944027
20
-3.87710027062715
30
0
41
1
10
55.5441190629352
20
-2.58140020658479
30
0
41
1
10
56.2720595314676
20
-1.28903037066212
30
0
41
1
10
57.0000000000001
20
1.99E-13
30
0
0
SPLINE
5
102
100
AcDbEntity
8
1
62
256
6
ByLayer
370
13
48
1
60
0
100
AcDbSpline
70
4
71
3
72
8
73
4
40
0
40
0
40
0
40
0
40
1
40
1
40
1
40
1
41
1
10
54.8161785944029
20
5.52866211430796
30
0
41
1
10
55.5441190629351
20
3.68407786145397
30
0
41
1
10
56.2720595314673
20
1.84118609693405
30
0
41
1
10
56.9999999999994
20
1.4495E-12
30
0
0
SPLINE
5
103
100
AcDbEntity
8
1
62
256
6
ByLayer
370
13
48
1
60
0
100
AcDbSpline
70
4
71
3
72
8
73
4
40
0
40
0
40
0
40
0
40
1
40
1
40
1
40
1
41
1
10
54.8161785944028
20
5.35491708127043
30
0
41
1
10
55.5441190629352
20
3.57191485417823
30
0
41
1
10
56.2720595314676
20
1.78693823585613
30
0
41
1
10
57
20
2.84E-14
30
0
0
SPLINE
5
104
100
AcDbEntity
8
1
62
256
6
ByLayer
370
13
48
1
60
0
100
AcDbSpline
70
4
71
3
72
8
73
4
40
0
40
0
40
0
40
0
40
1
40
1
40
1
40
1
41
1
10
54.8161785944028
20
5.9866305983505
30
0
41
1
10
55.5441190629352
20
3.99137847285559
30
0
41
1
10
56.2720595314676
20
1.99583018139305
30
0
41
1
10
57
20
0
30
0
0
SPLINE
5
105
100
AcDbEntity
8
1
62
256
6
ByLayer
370
13
48
1
60
0
100
AcDbSpline
70
4
71
3
72
8
73
4
40
0
40
0
40
0
40
0
40
1
40
1
40
1
40
1
41
1
10
54.8161785944028
20
5.78681569858895
30
0
41
1
10
55.5441190629352
20
3.85903104181767
30
0
41
1
10
56.2720595314676
20
1.93008787507875
30
0
41
1
10
57
20
2.84E-14
30
0
0
SPLINE
5
106
100
AcDbEntity
8
1
62
256
6
ByLayer
370
13
48
1
60
0
100
AcDbSpline
70
4
71
3
72
8
73
4
40
0
40
0
40
0
40
0
40
1
40
1
40
1
40
1
41
1
10
54.8161785944027
20
-5.66571871728246
30
0
41
1
10
55.5441190629352
20
-3.77858331082902
30
0
41
1
10
56.2720595314676
20
-1.89000590055352
30
0
41
1
10
57.0000000000001
20
2.842E-13
30
0
0
SPLINE
5
107
100
AcDbEntity
8
1
62
256
6
ByLayer
370
13
48
1
60
0
100
AcDbSpline
70
4
71
3
72
8
73
4
40
0
40
0
40
0
40
0
40
1
40
1
40
1
40
1
41
1
10
54.8161785944027
20
-4.44463580726062
30
0
41
1
10
55.5441190629352
20
-2.96602452772399
30
0
41
1
10
56.2720595314676
20
-1.48447572350543
30
0
41
1
10
57.0000000000001
20
2.274E-13
30
0
0
SPLINE
5
108
100
AcDbEntity
8
1
62
256
6
ByLayer
370
13
48
1
60
0
100
AcDbSpline
70
4
71
3
72
8
73
4
40
0
40
0
40
0
40
0
40
1
40
1
40
1
40
1
41
1
10
54.8161785944027
20
-5.15862207995244
30
0
41
1
10
55.5441190629352
20
-3.44131185826563
30
0
41
1
10
56.2720595314676
20
-1.72176706286675
30
0
41
1
10
57.0000000000001
20
2.558E-13
30
0
0
SPLINE
5
109
100
AcDbEntity
8
1
62
256
6
ByLayer
370
13
48
1
60
0
100
AcDbSpline
70
4
71
3
72
8
73
4
40
0
40
0
40
0
40
0
40
1
40
1
40
1
40
1
41
1
10
54.8161785944028
20
-1.78098877903261
30
0
41
1
10
55.5441190629352
20
-1.1831550600474
30
0
41
1
10
56.2720595314676
20
-0.589490721407088
30
0
41
1
10
57
20
0
30
0
0
SPLINE
5
10A
100
AcDbEntity
8
1
62
256
6
ByLayer
370
13
48
1
60
0
100
AcDbSpline
70
4
71
3
72
8
73
4
40
0
40
0
40
0
40
0
40
1
40
1
40
1
40
1
41
1
10
54.8161785944028
20
-0.603614265033087
30
0
41
1
10
55.5441190629352
20
-0.398064025522046
30
0
41
1
10
56.2720595314676
20
-0.196858794184834
30
0
41
1
10
57
20
0
30
0
0
SPLINE
5
10B
100
AcDbEntity
8
1
62
256
6
ByLayer
370
13
48
1
60
0
100
AcDbSpline
70
4
71
3
72
8
73
4
40
0
40
0
40
0
40
0
40
1
40
1
40
1
40
1
41
1
10
54.8161785944029
20
3.23769226484296
30
0
41
1
10
55.5441190629352
20
2.15478434048293
30
0
41
1
10
56.2720595314676
20
1.07555101499244
30
0
41
1
10
56.9999999999999
20
1.705E-13
30
0
0
SPLINE
5
10C
100
AcDbEntity
8
1
62
256
6
ByLayer
370
13
48
1
60
0
100
AcDbSpline
70
4
71
3
72
8
73
4
40
0
40
0
40
0
40
0
40
1
40
1
40
1
40
1
41
1
10
54.8161785944029
20
2.1662250262641
30
0
41
1
10
55.5441190629352
20
1.44007696654361
30
0
41
1
10
56.2720595314676
20
0.718000239211818
30
0
41
1
10
56.9999999999999
20
1.137E-13
30
0
0
SPLINE
5
10D
100
AcDbEntity
8
1
62
256
6
ByLayer
370
13
48
1
60
0
100
AcDbSpline
70
4
71
3
72
8
73
4
40
0
40
0
40
0
40
0
40
1
40
1
40
1
40
1
41
1
10
54.8161785944029
20
5.88228009036453
30
0
41
1
10
55.5441190629351
20
3.9206591245441
30
0
41
1
10
56.2720595314673
20
1.95989441960253
30
0
41
1
10
56.9999999999994
20
1.5632E-12
30
0
0
SPLINE
5
10E
100
AcDbEntity
8
1
62
256
6
ByLayer
370
13
48
1
60
0
100
AcDbSpline
70
4
71
3
72
8
73
4
40
0
40
0
40
0
40
0
40
1
40
1
40
1
40
1
41
1
10
54.8161785944027
20
-5.98700650287449
30
0
41
1
10
55.5441190629352
20
-3.99105038271574
30
0
41
1
10
56.2720595314676
20
-1.99537678990629
30
0
41
1
10
57.0000000000001
20
2.842E-13
30
0
0
SPLINE
5
10F
100
AcDbEntity
8
1
62
256
6
ByLayer
370
13
48
1
60
0
100
AcDbSpline
70
4
71
3
72
8
73
4
40
0
40
0
40
0
40
0
40
1
40
1
40
1
40
1
41
1
10
54.8161785944027
20
-5.94558830418828
30
0
41
1
10
55.5441190629352
20
-3.96431241133692
30
0
41
1
10
56.2720595314676
20
-1.98244491698244
30
0
41
1
10
57.0000000000001
20
2.842E-13
30
0
0
LINE
5
7D
100
AcDbEntity
8
80
62
256
6
ByLayer
370
18
48
1
60
0
100
AcDbLine
10
0
20
0
30
0
11
-5
21
0
31
0
39
0
210
0
220
0
230
1
0
LINE
5
7E
100
AcDbEntity
8
4
62
256
6
ByLayer
370
18
48
0.05
60
0
100
AcDbLine
10
-5
20
0
30
0
11
62
21
0
31
0
39
0
210
0
220
0
230
1
0
LINE
5
80
100
AcDbEntity
8
SK4
62
256
6
ByLayer
370
18
48
0.05
60
0
100
AcDbLine
10
-53
20
0
30
0
11
62
21
0
31
0
39
0
210
0
220
0
230
1
0
LINE
5
82
100
AcDbEntity
8
81
62
256
6
ByLayer
370
18
48
1
60
0
100
AcDbLine
10
57
20
0
30
0
11
62
21
0
31
0
39
0
210
0
220
0
230
1
0
LINE
5
83
100
AcDbEntity
8
1
62
256
6
ByLayer
370
18
48
1
60
0
100
AcDbLine
10
10
20
-5.85
30
0
11
26.404177
21
-5.85
31
0
39
0
210
0
220
0
230
1
0
LINE
5
84
100
AcDbEntity
8
1
62
256
6
ByLayer
370
18
48
1
60
0
100
AcDbLine
10
26.404177
20
5.85
30
0
11
10
21
5.85
31
0
39
0
210
0
220
0
230
1
0
LINE
5
85
100
AcDbEntity
8
1
62
256
6
ByLayer
370
18
48
1
60
0
100
AcDbLine
10
57
20
0
30
0
11
54.816179
21
6
31
0
39
0
210
0
220
0
230
1
0
LINE
5
86
100
AcDbEntity
8
1
62
256
6
ByLayer
370
18
48
1
60
0
100
AcDbLine
10
54.816179
20
-6
30
0
11
57
21
0
31
0
39
0
210
0
220
0
230
1
0
LINE
5
87
100
AcDbEntity
8
1
62
256
6
ByLayer
370
18
48
1
60
0
100
AcDbLine
10
10
20
5.85
30
0
11
0
21
8
31
0
39
0
210
0
220
0
230
1
0
LINE
5
88
100
AcDbEntity
8
1
62
256
6
ByLayer
370
18
48
1
60
0
100
AcDbLine
10
0
20
-8
30
0
11
10
21
-5.85
31
0
39
0
210
0
220
0
230
1
0
LINE
5
89
100
AcDbEntity
8
1
62
256
6
ByLayer
370
18
48
1
60
0
100
AcDbLine
10
47.9
20
-6
30
0
11
54.816179
21
-6
31
0
39
0
210
0
220
0
230
1
0
LINE
5
8A
100
AcDbEntity
8
1
62
256
6
ByLayer
370
18
48
1
60
0
100
AcDbLine
10
57
20
0
30
0
11
54.816179
21
6
31
0
39
0
210
0
220
0
230
1
0
LINE
5
8B
100
AcDbEntity
8
1
62
256
6
ByLayer
370
18
48
1
60
0
100
AcDbLine
10
54.816179
20
-6
30
0
11
57
21
0
31
0
39
0
210
0
220
0
230
1
0
LINE
5
8C
100
AcDbEntity
8
SK1
62
256
6
ByLayer
370
18
48
1
60
0
100
AcDbLine
10
-47
20
-8
30
0
11
0
21
-8
31
0
39
0
210
0
220
0
230
1
0
LINE
5
8E
100
AcDbEntity
8
SK1
62
256
6
ByLayer
370
18
48
1
60
0
100
AcDbLine
10
0
20
8
30
0
11
-47
21
8
31
0
39
0
210
0
220
0
230
1
0
LINE
5
8F
100
AcDbEntity
8
SK1
62
256
6
ByLayer
370
18
48
1
60
0
100
AcDbLine
10
-48
20
-7
30
0
11
-47
21
-8
31
0
39
0
210
0
220
0
230
1
0
LINE
5
90
100
AcDbEntity
8
SK1
62
256
6
ByLayer
370
18
48
1
60
0
100
AcDbLine
10
-47
20
8
30
0
11
-48
21
7
31
0
39
0
210
0
220
0
230
1
0
LINE
5
91
100
AcDbEntity
8
1
62
256
6
ByLayer
370
18
48
1
60
0
100
AcDbLine
10
0
20
8
30
0
11
0
21
-8
31
0
39
0
210
0
220
0
230
1
0
LINE
5
92
100
AcDbEntity
8
1
62
256
6
ByLayer
370
18
48
1
60
0
100
AcDbLine
10
54.816179
20
6
30
0
11
54.816179
21
5.809491
31
0
39
0
210
0
220
0
230
1
0
LINE
5
93
100
AcDbEntity
8
1
62
256
6
ByLayer
370
18
48
1
60
0
100
AcDbLine
10
54.816179
20
-6
30
0
11
54.816179
21
-0.856368
31
0
39
0
210
0
220
0
230
1
0
LINE
5
94
100
AcDbEntity
8
1
62
256
6
ByLayer
370
18
48
1
60
0
100
AcDbLine
10
10
20
-5.85
30
0
11
10
21
-3.089755
31
0
39
0
210
0
220
0
230
1
0
LINE
5
95
100
AcDbEntity
8
1
62
256
6
ByLayer
370
18
48
1
60
0
100
AcDbLine
10
10
20
5.85
30
0
11
10
21
4.091047
31
0
39
0
210
0
220
0
230
1
0
LINE
5
96
100
AcDbEntity
8
SK1
62
256
6
ByLayer
370
13
48
1
60
0
100
AcDbLine
10
-14.956081
20
-5.420003
30
0
11
-14.956081
21
5.420003
31
0
39
0
210
0
220
0
230
1
0
LINE
5
97
100
AcDbEntity
8
SK1
62
256
6
ByLayer
370
13
48
1
60
0
100
AcDbLine
10
-40.20852
20
4.268613
30
0
11
-40.20852
21
-4.268613
31
0
39
0
210
0
220
0
230
1
0
LINE
5
98
100
AcDbEntity
8
SK1
62
256
6
ByLayer
370
13
48
1
60
0
100
AcDbLine
10
-13.809044
20
4.913811
30
0
11
-13.809044
21
-4.913811
31
0
39
0
210
0
220
0
230
1
0
LINE
5
99
100
AcDbEntity
8
SK1
62
256
6
ByLayer
370
18
48
1
60
0
100
AcDbLine
10
0
20
8
30
0
11
0
21
-8
31
0
39
0
210
0
220
0
230
1
0
LINE
5
9A
100
AcDbEntity
8
SK1
62
256
6
ByLayer
370
18
48
1
60
0
100
AcDbLine
10
-48
20
-7
30
0
11
-48
21
7
31
0
39
0
210
0
220
0
230
1
0
LINE
5
9B
100
AcDbEntity
8
SK1
62
256
6
ByLayer
370
18
48
1
60
0
100
AcDbLine
10
-47
20
-8
30
0
11
-47
21
8
31
0
39
0
210
0
220
0
230
1
0
LINE
5
9C
100
AcDbEntity
8
SK1
62
256
6
ByLayer
370
13
48
1
60
0
100
AcDbLine
10
-41.322847
20
-3.330349
30
0
11
-41.322847
21
3.330349
31
0
39
0
210
0
220
0
230
1
0
LINE
5
9D
100
AcDbEntity
8
1
62
256
6
ByLayer
370
18
48
1
60
0
100
AcDbLine
10
54.816179
20
6
30
0
11
54.816179
21
-6
31
0
39
0
210
0
220
0
230
1
0
LINE
5
9E
100
AcDbEntity
8
1
62
256
6
ByLayer
370
18
48
1
60
0
100
AcDbLine
10
54.816179
20
6
30
0
11
54.816179
21
-6
31
0
39
0
210
0
220
0
230
1
0
LINE
5
9F
100
AcDbEntity
8
1
62
256
6
ByLayer
370
18
48
1
60
0
100
AcDbLine
10
54.816179
20
6
30
0
11
54.816179
21
-6
31
0
39
0
210
0
220
0
230
1
0
LINE
5
A0
100
AcDbEntity
8
1
62
256
6
ByLayer
370
18
48
1
60
0
100
AcDbLine
10
47.9
20
6
30
0
11
47.9
21
-6
31
0
39
0
210
0
220
0
230
1
0
LINE
5
A1
100
AcDbEntity
8
1
62
256
6
ByLayer
370
18
48
1
60
0
100
AcDbLine
10
47.9
20
6
30
0
11
47.9
21
-6
31
0
39
0
210
0
220
0
230
1
0
LINE
5
A2
100
AcDbEntity
8
1
62
256
6
ByLayer
370
18
48
1
60
0
100
AcDbLine
10
54.816179
20
6
30
0
11
54.816179
21
-6
31
0
39
0
210
0
220
0
230
1
0
LINE
5
A3
100
AcDbEntity
8
1
62
256
6
ByLayer
370
18
48
1
60
0
100
AcDbLine
10
47.9
20
6
30
0
11
47.9
21
-6
31
0
39
0
210
0
220
0
230
1
0
LINE
5
A4
100
AcDbEntity
8
1
62
256
6
ByLayer
370
18
48
1
60
0
100
AcDbLine
10
54.816179
20
6
30
0
11
54.816179
21
-6
31
0
39
0
210
0
220
0
230
1
0
LINE
5
A5
100
AcDbEntity
8
SK2
62
256
6
ByLayer
370
13
48
1
60
0
100
AcDbLine
10
-54.5
20
-8
30
0
11
-54.5
21
36.274683
31
0
39
0
210
0
220
0
230
1
0
LINE
5
A7
100
AcDbEntity
8
SK2
62
256
6
ByLayer
370
13
48
1
60
0
100
AcDbLine
10
-49.5875
20
8
30
0
11
-56.5
21
8
31
0
39
0
210
0
220
0
230
1
0
LINE
5
A8
100
AcDbEntity
8
SK2
62
256
6
ByLayer
370
13
48
1
60
0
100
AcDbLine
10
-49.5875
20
-8
30
0
11
-56.5
21
-8
31
0
39
0
210
0
220
0
230
1
0
LINE
5
A9
100
AcDbEntity
8
1
62
256
6
ByLayer
370
18
48
1
60
1
100
AcDbLine
10
-54.5
20
8
30
0
11
-54.039216
21
4.500002
31
0
39
0
210
0
220
0
230
1
0
LINE
5
AA
100
AcDbEntity
8
1
62
256
6
ByLayer
370
18
48
1
60
1
100
AcDbLine
10
-54.039216
20
4.500002
30
0
11
-54.960784
21
4.499998
31
0
39
0
210
0
220
0
230
1
0
LINE
5
AB
100
AcDbEntity
8
1
62
256
6
ByLayer
370
18
48
1
60
1
100
AcDbLine
10
-54.960784
20
4.499998
30
0
11
-54.5
21
8
31
0
39
0
210
0
220
0
230
1
0
LINE
5
AC
100
AcDbEntity
8
1
62
256
6
ByLayer
370
18
48
1
60
1
100
AcDbLine
10
-54.5
20
-8
30
0
11
-54.960784
21
-4.500002
31
0
39
0
210
0
220
0
230
1
0
LINE
5
AD
100
AcDbEntity
8
1
62
256
6
ByLayer
370
18
48
1
60
1
100
AcDbLine
10
-54.960784
20
-4.500002
30
0
11
-54.039216
21
-4.499998
31
0
39
0
210
0
220
0
230
1
0
LINE
5
AE
100
AcDbEntity
8
1
62
256
6
ByLayer
370
18
48
1
60
1
100
AcDbLine
10
-54.039216
20
-4.499998
30
0
11
-54.5
21
-8
31
0
39
0
210
0
220
0
230
1
0
LINE
5
AF
100
AcDbEntity
8
2
62
256
6
ByLayer
370
13
48
1
60
0
100
AcDbLine
10
64.5
20
-6
30
0
11
64.5
21
34.274683
31
0
39
0
210
0
220
0
230
1
0
LINE
5
B1
100
AcDbEntity
8
2
62
256
6
ByLayer
370
13
48
1
60
0
100
AcDbLine
10
56.403679
20
6
30
0
11
66.5
21
6
31
0
39
0
210
0
220
0
230
1
0
LINE
5
B2
100
AcDbEntity
8
2
62
256
6
ByLayer
370
13
48
1
60
0
100
AcDbLine
10
56.403679
20
-6
30
0
11
66.5
21
-6
31
0
39
0
210
0
220
0
230
1
0
LINE
5
B3
100
AcDbEntity
8
1
62
256
6
ByLayer
370
18
48
1
60
1
100
AcDbLine
10
64.5
20
6
30
0
11
64.960784
21
2.500002
31
0
39
0
210
0
220
0
230
1
0
LINE
5
B4
100
AcDbEntity
8
1
62
256
6
ByLayer
370
18
48
1
60
1
100
AcDbLine
10
64.960784
20
2.500002
30
0
11
64.039216
21
2.499998
31
0
39
0
210
0
220
0
230
1
0
LINE
5
B5
100
AcDbEntity
8
1
62
256
6
ByLayer
370
18
48
1
60
1
100
AcDbLine
10
64.039216
20
2.499998
30
0
11
64.5
21
6
31
0
39
0
210
0
220
0
230
1
0
LINE
5
B6
100
AcDbEntity
8
1
62
256
6
ByLayer
370
18
48
1
60
1
100
AcDbLine
10
64.5
20
-6
30
0
11
64.039216
21
-2.500002
31
0
39
0
210
0
220
0
230
1
0
LINE
5
B7
100
AcDbEntity
8
1
62
256
6
ByLayer
370
18
48
1
60
1
100
AcDbLine
10
64.039216
20
-2.500002
30
0
11
64.960784
21
-2.499998
31
0
39
0
210
0
220
0
230
1
0
LINE
5
B8
100
AcDbEntity
8
1
62
256
6
ByLayer
370
18
48
1
60
1
100
AcDbLine
10
64.960784
20
-2.499998
30
0
11
64.5
21
-6
31
0
39
0
210
0
220
0
230
1
0
LINE
5
B9
100
AcDbEntity
8
SK2
62
256
6
ByLayer
370
13
48
1
60
0
100
AcDbLine
10
57.542957
20
-1.491762
30
0
11
64.182423
21
-19.733545
31
0
39
0
210
0
220
0
230
1
0
LINE
5
BA
100
AcDbEntity
8
SK2
62
256
6
ByLayer
370
13
48
1
60
0
100
AcDbLine
10
57.542957
20
1.491762
30
0
11
64.182423
21
19.733545
31
0
39
0
210
0
220
0
230
1
0
LINE
5
BB
100
AcDbEntity
8
1
62
256
6
ByLayer
370
18
48
1
60
1
100
AcDbLine
10
63.498383
20
-17.85416
30
0
11
66.551575
21
-16.082064
31
0
39
0
210
0
220
0
230
1
0
LINE
5
BC
100
AcDbEntity
8
1
62
256
6
ByLayer
370
18
48
1
60
1
100
AcDbLine
10
66.551575
20
-16.082064
30
0
11
66.906196
21
-16.93267
31
0
39
0
210
0
220
0
230
1
0
LINE
5
BD
100
AcDbEntity
8
1
62
256
6
ByLayer
370
18
48
1
60
1
100
AcDbLine
10
66.906196
20
-16.93267
30
0
11
63.498383
21
-17.85416
31
0
39
0
210
0
220
0
230
1
0
LINE
5
BE
100
AcDbEntity
8
1
62
256
6
ByLayer
370
18
48
1
60
1
100
AcDbLine
10
63.498383
20
17.85416
30
0
11
66.906193
21
16.932671
31
0
39
0
210
0
220
0
230
1
0
LINE
5
BF
100
AcDbEntity
8
1
62
256
6
ByLayer
370
18
48
1
60
1
100
AcDbLine
10
66.906193
20
16.932671
30
0
11
66.551579
21
16.082063
31
0
39
0
210
0
220
0
230
1
0
LINE
5
C0
100
AcDbEntity
8
1
62
256
6
ByLayer
370
18
48
1
60
1
100
AcDbLine
10
66.551579
20
16.082063
30
0
11
63.498383
21
17.85416
31
0
39
0
210
0
220
0
230
1
0
LINE
5
114
100
AcDbEntity
8
1
62
256
6
ByLayer
370
18
48
1
60
1
100
AcDbLine
10
-54.5
20
8
30
0
11
-54.039216
21
4.500002
31
0
39
0
210
0
220
0
230
1
0
LINE
5
115
100
AcDbEntity
8
1
62
256
6
ByLayer
370
18
48
1
60
1
100
AcDbLine
10
-54.039216
20
4.500002
30
0
11
-54.960784
21
4.499998
31
0
39
0
210
0
220
0
230
1
0
LINE
5
116
100
AcDbEntity
8
1
62
256
6
ByLayer
370
18
48
1
60
1
100
AcDbLine
10
-54.960784
20
4.499998
30
0
11
-54.5
21
8
31
0
39
0
210
0
220
0
230
1
0
LINE
5
118
100
AcDbEntity
8
1
62
256
6
ByLayer
370
18
48
1
60
1
100
AcDbLine
10
-54.5
20
-8
30
0
11
-54.960784
21
-4.500002
31
0
39
0
210
0
220
0
230
1
0
LINE
5
119
100
AcDbEntity
8
1
62
256
6
ByLayer
370
18
48
1
60
1
100
AcDbLine
10
-54.960784
20
-4.500002
30
0
11
-54.039216
21
-4.499998
31
0
39
0
210
0
220
0
230
1
0
LINE
5
11A
100
AcDbEntity
8
1
62
256
6
ByLayer
370
18
48
1
60
1
100
AcDbLine
10
-54.039216
20
-4.499998
30
0
11
-54.5
21
-8
31
0
39
0
210
0
220
0
230
1
0
LINE
5
11E
100
AcDbEntity
8
1
62
256
6
ByLayer
370
18
48
1
60
1
100
AcDbLine
10
64.5
20
6
30
0
11
64.960784
21
2.500002
31
0
39
0
210
0
220
0
230
1
0
LINE
5
11F
100
AcDbEntity
8
1
62
256
6
ByLayer
370
18
48
1
60
1
100
AcDbLine
10
64.960784
20
2.500002
30
0
11
64.039216
21
2.499998
31
0
39
0
210
0
220
0
230
1
0
LINE
5
120
100
AcDbEntity
8
1
62
256
6
ByLayer
370
18
48
1
60
1
100
AcDbLine
10
64.039216
20
2.499998
30
0
11
64.5
21
6
31
0
39
0
210
0
220
0
230
1
0
LINE
5
122
100
AcDbEntity
8
1
62
256
6
ByLayer
370
18
48
1
60
1
100
AcDbLine
10
64.5
20
-6
30
0
11
64.039216
21
-2.500002
31
0
39
0
210
0
220
0
230
1
0
LINE
5
123
100
AcDbEntity
8
1
62
256
6
ByLayer
370
18
48
1
60
1
100
AcDbLine
10
64.039216
20
-2.500002
30
0
11
64.960784
21
-2.499998
31
0
39
0
210
0
220
0
230
1
0
LINE
5
124
100
AcDbEntity
8
1
62
256
6
ByLayer
370
18
48
1
60
1
100
AcDbLine
10
64.960784
20
-2.499998
30
0
11
64.5
21
-6
31
0
39
0
210
0
220
0
230
1
0
LINE
5
127
100
AcDbEntity
8
1
62
256
6
ByLayer
370
18
48
1
60
1
100
AcDbLine
10
63.498383
20
-17.85416
30
0
11
66.551575
21
-16.082064
31
0
39
0
210
0
220
0
230
1
0
LINE
5
128
100
AcDbEntity
8
1
62
256
6
ByLayer
370
18
48
1
60
1
100
AcDbLine
10
66.551575
20
-16.082064
30
0
11
66.906196
21
-16.93267
31
0
39
0
210
0
220
0
230
1
0
LINE
5
129
100
AcDbEntity
8
1
62
256
6
ByLayer
370
18
48
1
60
1
100
AcDbLine
10
66.906196
20
-16.93267
30
0
11
63.498383
21
-17.85416
31
0
39
0
210
0
220
0
230
1
0
LINE
5
12B
100
AcDbEntity
8
1
62
256
6
ByLayer
370
18
48
1
60
1
100
AcDbLine
10
63.498383
20
17.85416
30
0
11
66.906193
21
16.932671
31
0
39
0
210
0
220
0
230
1
0
LINE
5
12C
100
AcDbEntity
8
1
62
256
6
ByLayer
370
18
48
1
60
1
100
AcDbLine
10
66.906193
20
16.932671
30
0
11
66.551579
21
16.082063
31
0
39
0
210
0
220
0
230
1
0
LINE
5
12D
100
AcDbEntity
8
1
62
256
6
ByLayer
370
18
48
1
60
1
100
AcDbLine
10
66.551579
20
16.082063
30
0
11
63.498383
21
17.85416
31
0
39
0
210
0
220
0
230
1
0
MTEXT
5
110
100
AcDbEntity
8
SK2
62
256
6
ByLayer
370
18
48
1
60
0
100
AcDbMText
10
-55.841114
20
19.658438
30
0
210
0
220
0
230
1
1
%%c
40
3
41
0
44
1.084337
50
90
71
7
72
5
7
iso_b_vert
0
MTEXT
5
113
100
AcDbEntity
8
SK2
62
256
6
ByLayer
370
18
48
1
60
0
100
AcDbMText
10
-55.841114
20
25.635
30
0
210
0
220
0
230
1
1
\W0.7022;16.000
40
3
41
0
44
1.084337
50
90
71
7
72
5
7
iso_b_vert
0
MTEXT
5
11C
100
AcDbEntity
8
2
62
256
6
ByLayer
370
18
48
1
60
0
100
AcDbMText
10
63.158886
20
17.658438
30
0
210
0
220
0
230
1
1
%%c
40
3
41
0
44
1.084337
50
90
71
7
72
5
7
iso_b_vert
0
MTEXT
5
11D
100
AcDbEntity
8
2
62
256
6
ByLayer
370
18
48
1
60
0
100
AcDbMText
10
63.158886
20
23.635
30
0
210
0
220
0
230
1
1
\W0.7022;12.000
40
3
41
0
44
1.084337
50
90
71
7
72
5
7
iso_b_vert
0
MTEXT
5
126
100
AcDbEntity
8
SK2
62
256
6
ByLayer
370
18
48
1
60
0
100
AcDbMText
10
76.909114
20
3.734657
30
0
210
0
220
0
230
1
1
\W0.7071;140%%d
40
3
41
0
44
1.084337
50
270
71
7
72
5
7
iso_b_vert
0
MTEXT
5
12F
100
AcDbEntity
8
SK6
62
256
6
ByLayer
370
18
48
1
60
0
100
AcDbMText
10
-19.037254
20
-67.114886
30
0
210
0
220
0
230
1
1
\W0.7358;H85312.0
40
3
41
0
44
1.084337
50
0
71
7
72
5
7
iso_b_vert
0
HATCH
5
117
100
AcDbEntity
8
SK2
62
256
6
ByLayer
370
13
48
1
60
0
100
AcDbHatch
10
0
20
0
30
0
210
0
220
0
230
1
2
ANSI31
70
0
71
0
91
1
92
5
93
3
72
1
10
-54.5
20
8
11
-54.0392162584472
21
4.50000169255318
72
1
10
-54.0392162584472
20
4.50000169255318
11
-54.9607837415528
21
4.49999830744682
72
1
10
-54.9607837415528
20
4.49999830744682
11
-54.5
21
8
97
0
75
0
76
1
52
0
41
0.0062
77
0
78
1
53
45
43
0
44
0
45
-0.0139193969876572
46
0.0139193969876572
79
0
47
0
98
1
10
0
20
0
0
HATCH
5
11B
100
AcDbEntity
8
SK2
62
256
6
ByLayer
370
13
48
1
60
0
100
AcDbHatch
10
0
20
0
30
0
210
0
220
0
230
1
2
ANSI31
70
0
71
0
91
1
92
5
93
3
72
1
10
-54.5
20
-8
11
-54.9607837415528
21
-4.50000169255318
72
1
10
-54.9607837415528
20
-4.50000169255318
11
-54.0392162584472
21
-4.49999830744682
72
1
10
-54.0392162584472
20
-4.49999830744682
11
-54.5
21
-8
97
0
75
0
76
1
52
0
41
0.0062
77
0
78
1
53
45
43
0
44
0
45
-0.0139193969876572
46
0.0139193969876572
79
0
47
0
98
1
10
0
20
0
0
HATCH
5
121
100
AcDbEntity
8
2
62
256
6
ByLayer
370
13
48
1
60
0
100
AcDbHatch
10
0
20
0
30
0
210
0
220
0
230
1
2
ANSI31
70
0
71
0
91
1
92
5
93
3
72
1
10
64.5
20
6
11
64.9607837415528
21
2.50000169255318
72
1
10
64.9607837415528
20
2.50000169255318
11
64.0392162584472
21
2.49999830744682
72
1
10
64.0392162584472
20
2.49999830744682
11
64.5
21
6
97
0
75
0
76
1
52
0
41
0.0062
77
0
78
1
53
45
43
0
44
0
45
-0.0139193969876572
46
0.0139193969876572
79
0
47
0
98
1
10
0
20
0
0
HATCH
5
125
100
AcDbEntity
8
2
62
256
6
ByLayer
370
13
48
1
60
0
100
AcDbHatch
10
0
20
0
30
0
210
0
220
0
230
1
2
ANSI31
70
0
71
0
91
1
92
5
93
3
72
1
10
64.5
20
-6
11
64.0392162584472
21
-2.50000169255318
72
1
10
64.0392162584472
20
-2.50000169255318
11
64.9607837415528
21
-2.49999830744682
72
1
10
64.9607837415528
20
-2.49999830744682
11
64.5
21
-6
97
0
75
0
76
1
52
0
41
0.0062
77
0
78
1
53
45
43
0
44
0
45
-0.0139193969876572
46
0.0139193969876572
79
0
47
0
98
1
10
0
20
0
0
HATCH
5
12A
100
AcDbEntity
8
SK2
62
256
6
ByLayer
370
13
48
1
60
0
100
AcDbHatch
10
0
20
0
30
0
210
0
220
0
230
1
2
ANSI31
70
0
71
0
91
1
92
5
93
3
72
1
10
63.4983827231877
20
-17.8541597949323
11
66.5515754256928
21
-16.0820638240608
72
1
10
66.5515754256928
20
-16.0820638240608
11
66.9061958339749
21
-16.9326700737196
72
1
10
66.9061958339749
20
-16.9326700737196
11
63.4983827231877
21
-17.8541597949323
97
0
75
0
76
1
52
0
41
0.0062
77
0
78
1
53
45
43
0
44
0
45
-0.0139193969876572
46
0.0139193969876572
79
0
47
0
98
1
10
0
20
0
0
HATCH
5
12E
100
AcDbEntity
8
SK2
62
256
6
ByLayer
370
13
48
1
60
0
100
AcDbHatch
10
0
20
0
30
0
210
0
220
0
230
1
2
ANSI31
70
0
71
0
91
1
92
5
93
3
72
1
10
63.4983827231877
20
17.8541597949323
11
66.906192709519
21
16.9326713763016
72
1
10
66.906192709519
20
16.9326713763016
11
66.5515785501488
21
16.0820625214788
72
1
10
66.5515785501488
20
16.0820625214788
11
63.4983827231877
21
17.8541597949323
97
0
75
0
76
1
52
0
41
0.0062
77
0
78
1
53
45
43
0
44
0
45
-0.0139193969876572
46
0.0139193969876572
79
0
47
0
98
1
10
0
20
0
0
DIMENSION
5
132
100
AcDbEntity
8
SK2
62
256
6
ByLayer
370
18
48
1
60
0
100
AcDbDimension
2
_U0
10
57
20
-45.952229
30
0
11
4.5
21
-45.952229
31
0
70
32
71
1
72
1
41
1
210
0
220
0
230
1
3
Standard
100
AcDbAlignedDimension
13
-48
23
-8
33
0
14
57
24
0
34
0
50
0
100
AcDbRotatedDimension
1001
ACAD
1000
DSTYLE
1002
{
1070
   371
1070
    13
1070
   372
1070
    13
1070
     3
1000

1070
   170
1070
     0
1070
   144
1040
1.0
1070
   277
1070
     2
1070
   284
1070
     8
1070
   278
1070
    46
1070
   146
1040
1.166667
1070
   345
1005
16
1070
   347
1005
16
1070
   346
1005
16
1070
   344
1005
0
1070
   343
1005
0
1070
   172
1070
     1
1070
    76
1070
     0
1070
    75
1070
     0
1070
   282
1070
     0
1070
   281
1070
     0
1070
    71
1070
     0
1070
    74
1070
     0
1070
   279
1070
     0
1070
   173
1070
     1
1070
   340
1005
111
1070
   271
1070
     2
1070
   272
1070
     3
1070
    77
1070
     1
1070
    73
1070
     1
1070
   171
1070
     3
1070
   274
1070
     4
1070
   177
1070
     2
1070
   176
1070
     2
1070
   178
1070
     2
1070
    78
1070
     8
1070
    48
1040
-0.1
1070
    41
1040
3.5
1070
   147
1040
1.5
1070
    42
1040
1.5875
1070
    44
1040
2.0
1070
   140
1040
3.0
1002
}
1001
ACAD_DSTYLE_DIM_LINETYPE
1070
   380
1005
16
1001
ACAD_DSTYLE_DIM_EXT1_LINETYPE
1070
   381
1005
16
1001
ACAD_DSTYLE_DIM_EXT2_LINETYPE
1070
   382
1005
16
0
DIMENSION
5
14B
100
AcDbEntity
8
SK2
62
256
6
ByLayer
370
18
48
1
60
0
100
AcDbDimension
2
_U1
10
3
20
-35.952229
30
0
11
30
21
-35.952229
31
0
70
32
71
1
72
1
41
1
210
0
220
0
230
1
3
Standard
100
AcDbAlignedDimension
13
57
23
0
33
0
14
3
24
-6
34
0
50
0
100
AcDbRotatedDimension
1001
ACAD
1000
DSTYLE
1002
{
1070
   371
1070
    13
1070
   372
1070
    13
1070
     3
1000

1070
   170
1070
     0
1070
   144
1040
1.0
1070
   277
1070
     2
1070
   284
1070
     8
1070
   278
1070
    46
1070
   146
1040
1.166667
1070
   345
1005
16
1070
   347
1005
16
1070
   346
1005
16
1070
   344
1005
0
1070
   343
1005
0
1070
   172
1070
     1
1070
    76
1070
     0
1070
    75
1070
     0
1070
   282
1070
     0
1070
   281
1070
     0
1070
    71
1070
     0
1070
    74
1070
     0
1070
   279
1070
     0
1070
   173
1070
     1
1070
   340
1005
111
1070
   271
1070
     2
1070
   272
1070
     3
1070
    77
1070
     1
1070
    73
1070
     1
1070
   171
1070
     3
1070
   274
1070
     4
1070
   177
1070
     2
1070
   176
1070
     2
1070
   178
1070
     2
1070
    78
1070
     8
1070
    48
1040
-0.1
1070
    41
1040
3.5
1070
   147
1040
1.5
1070
    42
1040
1.5875
1070
    44
1040
2.0
1070
   140
1040
3.0
1002
}
1001
ACAD_DSTYLE_DIM_LINETYPE
1070
   380
1005
16
1001
ACAD_DSTYLE_DIM_EXT1_LINETYPE
1070
   381
1005
16
1001
ACAD_DSTYLE_DIM_EXT2_LINETYPE
1070
   382
1005
16
0
DIMENSION
5
163
100
AcDbEntity
8
SK2
62
256
6
ByLayer
370
18
48
1
60
0
100
AcDbDimension
2
_U2
10
0
20
-35.952229
30
0
11
-24
21
-35.952229
31
0
70
32
71
1
72
1
41
1
210
0
220
0
230
1
3
Standard
100
AcDbAlignedDimension
13
-48
23
-8
33
0
14
0
24
-8
34
0
50
0
100
AcDbRotatedDimension
1001
ACAD
1000
DSTYLE
1002
{
1070
   371
1070
    13
1070
   372
1070
    13
1070
     3
1000

1070
   170
1070
     0
1070
   144
1040
1.0
1070
   277
1070
     2
1070
   284
1070
     8
1070
   278
1070
    46
1070
   146
1040
1.166667
1070
   345
1005
16
1070
   347
1005
16
1070
   346
1005
16
1070
   344
1005
0
1070
   343
1005
0
1070
   172
1070
     1
1070
    76
1070
     0
1070
    75
1070
     0
1070
   282
1070
     0
1070
   281
1070
     0
1070
    71
1070
     0
1070
    74
1070
     0
1070
   279
1070
     0
1070
   173
1070
     1
1070
   340
1005
111
1070
   271
1070
     2
1070
   272
1070
     3
1070
    77
1070
     1
1070
    73
1070
     1
1070
   171
1070
     3
1070
   274
1070
     4
1070
   177
1070
     2
1070
   176
1070
     2
1070
   178
1070
     2
1070
    78
1070
     8
1070
    48
1040
-0.1
1070
    41
1040
3.5
1070
   147
1040
1.5
1070
    42
1040
1.5875
1070
    44
1040
2.0
1070
   140
1040
3.0
1002
}
1001
ACAD_DSTYLE_DIM_LINETYPE
1070
   380
1005
16
1001
ACAD_DSTYLE_DIM_EXT1_LINETYPE
1070
   381
1005
16
1001
ACAD_DSTYLE_DIM_EXT2_LINETYPE
1070
   382
1005
16
0
DIMENSION
5
17B
100
AcDbEntity
8
SK2
62
256
6
ByLayer
370
18
48
1
60
0
100
AcDbDimension
2
_U3
10
13
20
32.952229
30
0
11
35
21
32.952229
31
0
70
32
71
1
72
1
41
1
210
0
220
0
230
1
3
Standard
100
AcDbAlignedDimension
13
57
23
0
33
0
14
13
24
6
34
0
50
0
100
AcDbRotatedDimension
1001
ACAD
1000
DSTYLE
1002
{
1070
   371
1070
    13
1070
   372
1070
    13
1070
     3
1000

1070
   170
1070
     0
1070
   144
1040
1.0
1070
   277
1070
     2
1070
   284
1070
     8
1070
   278
1070
    46
1070
   146
1040
1.166667
1070
   345
1005
16
1070
   347
1005
16
1070
   346
1005
16
1070
   344
1005
0
1070
   343
1005
0
1070
   172
1070
     1
1070
    76
1070
     0
1070
    75
1070
     0
1070
   282
1070
     0
1070
   281
1070
     0
1070
    71
1070
     0
1070
    74
1070
     0
1070
   279
1070
     0
1070
   173
1070
     1
1070
   340
1005
111
1070
   271
1070
     2
1070
   272
1070
     3
1070
    77
1070
     1
1070
    73
1070
     1
1070
   171
1070
     3
1070
   274
1070
     4
1070
   177
1070
     2
1070
   176
1070
     2
1070
   178
1070
     2
1070
    78
1070
     8
1070
    48
1040
-0.1
1070
    41
1040
3.5
1070
   147
1040
1.5
1070
    42
1040
1.5875
1070
    44
1040
2.0
1070
   140
1040
3.0
1002
}
1001
ACAD_DSTYLE_DIM_LINETYPE
1070
   380
1005
16
1001
ACAD_DSTYLE_DIM_EXT1_LINETYPE
1070
   381
1005
16
1001
ACAD_DSTYLE_DIM_EXT2_LINETYPE
1070
   382
1005
16
0
ENDSEC
0
SECTION
2
OBJECTS
0
DICTIONARY
5
203
330
0
100
AcDbDictionary
280
0
281
1
3
ACAD_GROUP
350
204
3
ACAD_MLINESTYLE
350
205
0
DICTIONARY
5
204
330
0
100
AcDbDictionary
280
0
281
1
0
DICTIONARY
5
205
330
0
100
AcDbDictionary
280
0
281
1
3
Standard
350
18
0
MLINESTYLE
5
18
330
205
100
AcDbMlineStyle
2
Standard
70
0
3

62
256
51
90
52
90
71
2
49
-0.5
62
256
6
ByLayer
49
0.5
62
256
6
ByLayer
0
RASTERVARIABLES
5
1f1
330

100
AcDbRasterVariables
90
0
70
1
71
1
72
1
0
ENDSEC
0
EOF
