0
SECTION
2
HEADER
9
$ACADVER
1
AC1015
9
$DWGCODEPAGE
3
ANSI_1252
9
$HANDSEED
5
222
9
$ANGBASE
50
0
9
$ANGDIR
70
0
9
$ATTMODE
70
1
9
$AUNITS
70
0
9
$AUPREC
70
0
9
$CECOLOR
62
256
9
$CELTSCALE
40
1
9
$CELTYPE
6
ByLayer
9
$CELWEIGHT
370
18
9
$CLAYER
8
0
9
$CMLJUST
70
0
9
$CMLSCALE
40
1
9
$CMLSTYLE
2
Standard
9
$DIMSTYLE
2
Standard
9
$TEXTSIZE
40
0.2
9
$TEXTSTYLE
7
Standard
9
$LUNITS
70
2
9
$LUPREC
70
4
9
$EXTNAMES
290
1
9
$INSUNITS
70
4
9
$LTSCALE
40
1
9
$LWDISPLAY
290
1
9
$PDMODE
70
0
9
$PDSIZE
40
0
9
$PLINEGEN
70
0
0
ENDSEC
0
SECTION
2
CLASSES
0
CLASS
1
RASTERVARIABLES
2
AcDbRasterVariables
3
ISM
90
0
280
0
281
0
0
ENDSEC
0
SECTION
2
TABLES
0
TABLE
2
VPORT
5
218
100
AcDbSymbolTable
0
VPORT
5
1
100
AcDbSymbolTableRecord
100
AcDbViewportTableRecord
2
*Active
70
0
10
0
20
0
11
1
21
1
12
-1
22
1
13
0
23
0
14
0.5
24
0.5
15
10
25
10
16
0
26
0
36
1
17
0
27
0
37
0
0
ENDTAB
0
TABLE
2
LTYPE
5
219
100
AcDbSymbolTable
0
LTYPE
5
14
100
AcDbSymbolTableRecord
100
AcDbLinetypeTableRecord
70
0
2
ByBlock
3

72
65
73
0
40
0
0
LTYPE
5
15
100
AcDbSymbolTableRecord
100
AcDbLinetypeTableRecord
70
0
2
ByLayer
3

72
65
73
0
40
0
0
LTYPE
5
16
100
AcDbSymbolTableRecord
100
AcDbLinetypeTableRecord
70
0
2
Continuous
3
Solid line
72
65
73
0
40
0
0
LTYPE
5
6E
100
AcDbSymbolTableRecord
100
AcDbLinetypeTableRecord
70
0
2
CENTER
3
____ _ ____ _ ____ _ ____
72
65
73
4
40
47.5
49
22
74
0
49
-8.5
74
0
49
8.5
74
0
49
-8.5
74
0
0
LTYPE
5
6F
100
AcDbSymbolTableRecord
100
AcDbLinetypeTableRecord
70
0
2
DASHED
3
__ __ __ __ __ __ __ __ __
72
65
73
2
40
25.72
49
12.86
74
0
49
-12.86
74
0
0
ENDTAB
0
TABLE
2
LAYER
5
21a
100
AcDbSymbolTable
0
LAYER
5
10
100
AcDbSymbolTableRecord
100
AcDbLayerTableRecord
2
0
70
0
62
7
6
Continuous
290
1
370
-3
390
0
0
LAYER
5
71
100
AcDbSymbolTableRecord
100
AcDbLayerTableRecord
2
80
70
0
62
-6
6
Continuous
290
1
370
-3
390
0
0
LAYER
5
73
100
AcDbSymbolTableRecord
100
AcDbLayerTableRecord
2
81
70
0
62
-3
6
Continuous
290
1
370
-3
390
0
0
LAYER
5
75
100
AcDbSymbolTableRecord
100
AcDbLayerTableRecord
2
1
70
0
62
4
6
Continuous
290
1
370
-3
390
0
0
LAYER
5
7F
100
AcDbSymbolTableRecord
100
AcDbLayerTableRecord
2
4
70
0
62
-2
6
CENTER
290
1
370
-3
390
0
0
LAYER
5
B0
100
AcDbSymbolTableRecord
100
AcDbLayerTableRecord
2
2
70
0
62
7
6
Continuous
290
1
370
-3
390
0
0
LAYER
5
147
100
AcDbSymbolTableRecord
100
AcDbLayerTableRecord
2
Defpoints
70
0
62
7
6
Continuous
290
0
370
-3
390
0
0
LAYER
5
204
100
AcDbSymbolTableRecord
100
AcDbLayerTableRecord
2
SK4
70
0
62
2
6
CENTER
290
1
370
-3
390
0
0
LAYER
5
205
100
AcDbSymbolTableRecord
100
AcDbLayerTableRecord
2
SK1
70
0
62
4
6
Continuous
290
1
370
-3
390
0
0
LAYER
5
206
100
AcDbSymbolTableRecord
100
AcDbLayerTableRecord
2
SK2
70
0
62
7
6
Continuous
290
1
370
-3
390
0
0
LAYER
5
207
100
AcDbSymbolTableRecord
100
AcDbLayerTableRecord
2
SK6
70
0
62
5
6
Continuous
290
1
370
-3
390
0
0
ENDTAB
0
TABLE
2
STYLE
5
21b
100
AcDbSymbolTable
0
STYLE
5
11
100
AcDbSymbolTableRecord
100
AcDbTextStyleTableRecord
2
Standard
3
txt
70
0
71
0
40
0
41
1
42
0
50
0
0
STYLE
5
123
100
AcDbSymbolTableRecord
100
AcDbTextStyleTableRecord
2
iso_b_vert
3
simplex.shx
70
0
71
0
40
0
41
1
42
0
50
0
0
STYLE
5
124
100
AcDbSymbolTableRecord
100
AcDbTextStyleTableRecord
2
DWGDirectTextStyle
3
simplex
70
0
71
0
40
0
41
1
42
0
50
0
0
ENDTAB
0
TABLE
2
DIMSTYLE
5
21c
100
AcDbSymbolTable
100
AcDbDimStyleTable
0
DIMSTYLE
105
27
100
AcDbSymbolTableRecord
100
AcDbDimStyleTableRecord
2
Standard
70
0
3
<>
41
0.18
42
0.0625
44
0.18
140
0.18
147
0.09
73
0
74
0
77
1
271
2
275
0
278
52
280
0
340
11
0
ENDTAB
0
TABLE
2
VIEW
5
21d
100
AcDbSymbolTable
0
ENDTAB
0
TABLE
2
UCS
5
21e
100
AcDbSymbolTable
0
ENDTAB
0
TABLE
2
APPID
5
21f
100
AcDbSymbolTable
0
APPID
5
12
100
AcDbSymbolTableRecord
100
AcDbRegAppTableRecord
2
ACAD
70
0
0
APPID
5
143
100
AcDbSymbolTableRecord
100
AcDbRegAppTableRecord
2
ACAD_DSTYLE_DIMBREAK
70
0
0
APPID
5
1C3
100
AcDbSymbolTableRecord
100
AcDbRegAppTableRecord
2
ACAD_DSTYLE_DIM_LINETYPE
70
0
0
APPID
5
1C4
100
AcDbSymbolTableRecord
100
AcDbRegAppTableRecord
2
ACAD_DSTYLE_DIM_EXT1_LINETYPE
70
0
0
APPID
5
1C5
100
AcDbSymbolTableRecord
100
AcDbRegAppTableRecord
2
ACAD_DSTYLE_DIM_EXT2_LINETYPE
70
0
0
APPID
5
200
100
AcDbSymbolTableRecord
100
AcDbRegAppTableRecord
2
ACAD_MLEADERVER
70
0
0
ENDTAB
0
TABLE
2
BLOCK_RECORD
5
220
100
AcDbSymbolTable
0
BLOCK_RECORD
5
1F
100
AcDbSymbolTableRecord
100
AcDbBlockTableRecord
2
*Model_Space
340
0
70
0
0
BLOCK_RECORD
5
1B
100
AcDbSymbolTableRecord
100
AcDbBlockTableRecord
2
*Paper_Space
340
0
70
0
0
BLOCK_RECORD
5
23
100
AcDbSymbolTableRecord
100
AcDbBlockTableRecord
2
*Paper_Space0
340
0
70
0
0
BLOCK_RECORD
5
148
100
AcDbSymbolTableRecord
100
AcDbBlockTableRecord
2
*D1
340
0
70
0
0
BLOCK_RECORD
5
154
100
AcDbSymbolTableRecord
100
AcDbBlockTableRecord
2
_U0
340
0
70
0
0
BLOCK_RECORD
5
160
100
AcDbSymbolTableRecord
100
AcDbBlockTableRecord
2
*D3
340
0
70
0
0
BLOCK_RECORD
5
16C
100
AcDbSymbolTableRecord
100
AcDbBlockTableRecord
2
_U1
340
0
70
0
0
BLOCK_RECORD
5
178
100
AcDbSymbolTableRecord
100
AcDbBlockTableRecord
2
*D5
340
0
70
0
0
BLOCK_RECORD
5
184
100
AcDbSymbolTableRecord
100
AcDbBlockTableRecord
2
_U2
340
0
70
0
0
BLOCK_RECORD
5
190
100
AcDbSymbolTableRecord
100
AcDbBlockTableRecord
2
*D7
340
0
70
0
0
BLOCK_RECORD
5
19C
100
AcDbSymbolTableRecord
100
AcDbBlockTableRecord
2
_U3
340
0
70
0
0
ENDTAB
0
ENDSEC
0
SECTION
2
BLOCKS
0
BLOCK
5
20
100
AcDbEntity
8
0
100
AcDbBlockBegin
2
*Model_Space
70
0
10
0
20
0
30
0
3
*Model_Space
0
ENDBLK
5
21
100
AcDbEntity
8
0
100
AcDbBlockEnd
0
BLOCK
5
1C
100
AcDbEntity
8
0
100
AcDbBlockBegin
2
*Paper_Space
70
0
10
0
20
0
30
0
3
*Paper_Space
0
ENDBLK
5
1D
100
AcDbEntity
8
0
100
AcDbBlockEnd
0
BLOCK
5
24
100
AcDbEntity
8
0
100
AcDbBlockBegin
2
*Paper_Space0
70
0
10
0
20
0
30
0
3
*Paper_Space0
0
ENDBLK
5
25
100
AcDbEntity
8
0
100
AcDbBlockEnd
0
BLOCK
5
149
100
AcDbEntity
8
0
100
AcDbBlockBegin
2
*D1
70
1
10
0
20
0
30
0
3
*D1
0
LINE
5
14B
100
AcDbEntity
8
0
62
256
6
ByLayer
370
-2
48
1
60
0
100
AcDbLine
10
-48
20
-11.1125
30
0
11
-48
21
-47.952229
31
0
39
0
210
0
220
0
230
1
0
LINE
5
14C
100
AcDbEntity
8
0
62
256
6
ByLayer
370
-2
48
1
60
0
100
AcDbLine
10
88.5
20
-1.5875
30
0
11
88.5
21
-47.952229
31
0
39
0
210
0
220
0
230
1
0
LINE
5
14D
100
AcDbEntity
8
0
62
256
6
ByLayer
370
-2
48
1
60
0
100
AcDbLine
10
-44.5
20
-45.952229
30
0
11
85
21
-45.952229
31
0
39
0
210
0
220
0
230
1
0
SOLID
5
14E
100
AcDbEntity
8
0
62
256
6
ByLayer
370
-1
48
1
60
0
100
AcDbTrace
10
-44.5
20
-45.368896
30
0
11
-44.5
21
-46.535563
31
0
12
-48
22
-45.952229
32
0
13
-48
23
-45.952229
33
0
39
0
210
0
220
0
230
1
0
SOLID
5
14F
100
AcDbEntity
8
0
62
256
6
ByLayer
370
-1
48
1
60
0
100
AcDbTrace
10
85
20
-46.535563
30
0
11
85
21
-45.368896
31
0
12
88.5
22
-45.952229
32
0
13
88.5
23
-45.952229
33
0
39
0
210
0
220
0
230
1
0
MTEXT
5
150
100
AcDbEntity
8
0
62
256
6
ByLayer
370
18
48
1
60
0
100
AcDbMText
10
20.25
20
-39.952229
30
0
210
0
220
0
230
1
1
\A1;136.5
40
3
41
0
44
1
50
0
71
5
72
5
7
iso_b_vert
0
POINT
5
151
100
AcDbEntity
8
Defpoints
62
0
6
ByLayer
370
-1
48
1
60
0
100
AcDbPoint
10
-48
20
-9.525
30
0
39
0
210
0
220
0
230
1
50
360
0
POINT
5
152
100
AcDbEntity
8
Defpoints
62
0
6
ByLayer
370
-1
48
1
60
0
100
AcDbPoint
10
88.5
20
0
30
0
39
0
210
0
220
0
230
1
50
360
0
POINT
5
153
100
AcDbEntity
8
Defpoints
62
0
6
ByLayer
370
-1
48
1
60
0
100
AcDbPoint
10
88.5
20
-45.952229
30
0
39
0
210
0
220
0
230
1
50
360
0
ENDBLK
5
14A
100
AcDbEntity
8
0
100
AcDbBlockEnd
0
BLOCK
5
15B
100
AcDbEntity
8
0
100
AcDbBlockBegin
2
_U0
70
0
10
0
20
0
30
0
3
_U0
0
MTEXT
5
155
100
AcDbEntity
8
SK2
62
256
6
ByLayer
370
18
48
1
60
0
100
AcDbMText
10
15.021658
20
-45.067115
30
0
210
0
220
0
230
1
1
\W0.7022;136.50
40
3
41
0
44
1.084337
50
0
71
7
72
5
7
iso_b_vert
0
LINE
5
156
100
AcDbEntity
8
SK2
62
256
6
ByLayer
370
13
48
1
60
0
100
AcDbLine
10
-48
20
-11.1125
30
0
11
-48
21
-47.952229
31
0
39
0
210
0
220
0
230
1
0
LINE
5
157
100
AcDbEntity
8
SK2
62
256
6
ByLayer
370
13
48
1
60
0
100
AcDbLine
10
88.5
20
-1.5875
30
0
11
88.5
21
-47.952229
31
0
39
0
210
0
220
0
230
1
0
LINE
5
158
100
AcDbEntity
8
SK2
62
256
6
ByLayer
370
13
48
1
60
0
100
AcDbLine
10
-48
20
-45.952229
30
0
11
88.5
21
-45.952229
31
0
39
0
210
0
220
0
230
1
0
SOLID
5
159
100
AcDbEntity
8
SK2
62
256
6
ByLayer
370
18
48
1
60
0
100
AcDbTrace
10
-48
20
-45.952229
30
0
11
-44.500002
21
-45.491446
31
0
12
-44.499998
22
-46.413013
32
0
13
-44.499998
23
-46.413013
33
0
39
0
210
0
220
0
230
1
0
SOLID
5
15A
100
AcDbEntity
8
SK2
62
256
6
ByLayer
370
18
48
1
60
0
100
AcDbTrace
10
88.5
20
-45.952229
30
0
11
85.000002
21
-46.413013
31
0
12
84.999998
22
-45.491446
32
0
13
84.999998
23
-45.491446
33
0
39
0
210
0
220
0
230
1
0
ENDBLK
5
15C
100
AcDbEntity
8
0
100
AcDbBlockEnd
0
BLOCK
5
161
100
AcDbEntity
8
0
100
AcDbBlockBegin
2
*D3
70
1
10
0
20
0
30
0
3
*D3
0
LINE
5
163
100
AcDbEntity
8
0
62
256
6
ByLayer
370
-2
48
1
60
0
100
AcDbLine
10
88.5
20
-1.5875
30
0
11
88.5
21
-37.952229
31
0
39
0
210
0
220
0
230
1
0
LINE
5
164
100
AcDbEntity
8
0
62
256
6
ByLayer
370
-2
48
1
60
0
100
AcDbLine
10
3
20
-10.3185
30
0
11
3
21
-37.952229
31
0
39
0
210
0
220
0
230
1
0
LINE
5
165
100
AcDbEntity
8
0
62
256
6
ByLayer
370
-2
48
1
60
0
100
AcDbLine
10
85
20
-35.952229
30
0
11
6.5
21
-35.952229
31
0
39
0
210
0
220
0
230
1
0
SOLID
5
166
100
AcDbEntity
8
0
62
256
6
ByLayer
370
-1
48
1
60
0
100
AcDbTrace
10
85
20
-36.535563
30
0
11
85
21
-35.368896
31
0
12
88.5
22
-35.952229
32
0
13
88.5
23
-35.952229
33
0
39
0
210
0
220
0
230
1
0
SOLID
5
167
100
AcDbEntity
8
0
62
256
6
ByLayer
370
-1
48
1
60
0
100
AcDbTrace
10
6.5
20
-35.368896
30
0
11
6.5
21
-36.535563
31
0
12
3
22
-35.952229
32
0
13
3
23
-35.952229
33
0
39
0
210
0
220
0
230
1
0
MTEXT
5
168
100
AcDbEntity
8
0
62
256
6
ByLayer
370
18
48
1
60
0
100
AcDbMText
10
45.75
20
-29.952229
30
0
210
0
220
0
230
1
1
\A1;85.5
40
3
41
0
44
1
50
0
71
5
72
5
7
iso_b_vert
0
POINT
5
169
100
AcDbEntity
8
Defpoints
62
0
6
ByLayer
370
-1
48
1
60
0
100
AcDbPoint
10
88.5
20
0
30
0
39
0
210
0
220
0
230
1
50
360
0
POINT
5
16A
100
AcDbEntity
8
Defpoints
62
0
6
ByLayer
370
-1
48
1
60
0
100
AcDbPoint
10
3
20
-8.731
30
0
39
0
210
0
220
0
230
1
50
360
0
POINT
5
16B
100
AcDbEntity
8
Defpoints
62
0
6
ByLayer
370
-1
48
1
60
0
100
AcDbPoint
10
3
20
-35.952229
30
0
39
0
210
0
220
0
230
1
50
360
0
ENDBLK
5
162
100
AcDbEntity
8
0
100
AcDbBlockEnd
0
BLOCK
5
173
100
AcDbEntity
8
0
100
AcDbBlockBegin
2
_U1
70
0
10
0
20
0
30
0
3
_U1
0
MTEXT
5
16D
100
AcDbEntity
8
SK2
62
256
6
ByLayer
370
18
48
1
60
0
100
AcDbMText
10
41.26763
20
-35.067115
30
0
210
0
220
0
230
1
1
\W0.7468;85.50
40
3
41
0
44
1.084337
50
0
71
7
72
5
7
iso_b_vert
0
LINE
5
16E
100
AcDbEntity
8
SK2
62
256
6
ByLayer
370
13
48
1
60
0
100
AcDbLine
10
88.5
20
-1.5875
30
0
11
88.5
21
-37.952229
31
0
39
0
210
0
220
0
230
1
0
LINE
5
16F
100
AcDbEntity
8
SK2
62
256
6
ByLayer
370
13
48
1
60
0
100
AcDbLine
10
3
20
-10.3185
30
0
11
3
21
-37.952229
31
0
39
0
210
0
220
0
230
1
0
LINE
5
170
100
AcDbEntity
8
SK2
62
256
6
ByLayer
370
13
48
1
60
0
100
AcDbLine
10
88.5
20
-35.952229
30
0
11
3
21
-35.952229
31
0
39
0
210
0
220
0
230
1
0
SOLID
5
171
100
AcDbEntity
8
SK2
62
256
6
ByLayer
370
18
48
1
60
0
100
AcDbTrace
10
88.5
20
-35.952229
30
0
11
85.000002
21
-36.413013
31
0
12
84.999998
22
-35.491446
32
0
13
84.999998
23
-35.491446
33
0
39
0
210
0
220
0
230
1
0
SOLID
5
172
100
AcDbEntity
8
SK2
62
256
6
ByLayer
370
18
48
1
60
0
100
AcDbTrace
10
3
20
-35.952229
30
0
11
6.499998
21
-35.491446
31
0
12
6.500002
22
-36.413013
32
0
13
6.500002
23
-36.413013
33
0
39
0
210
0
220
0
230
1
0
ENDBLK
5
174
100
AcDbEntity
8
0
100
AcDbBlockEnd
0
BLOCK
5
179
100
AcDbEntity
8
0
100
AcDbBlockBegin
2
*D5
70
1
10
0
20
0
30
0
3
*D5
0
LINE
5
17B
100
AcDbEntity
8
0
62
256
6
ByLayer
370
-2
48
1
60
0
100
AcDbLine
10
-48
20
-11.1125
30
0
11
-48
21
-37.952229
31
0
39
0
210
0
220
0
230
1
0
LINE
5
17C
100
AcDbEntity
8
0
62
256
6
ByLayer
370
-2
48
1
60
0
100
AcDbLine
10
0
20
-11.1125
30
0
11
0
21
-37.952229
31
0
39
0
210
0
220
0
230
1
0
LINE
5
17D
100
AcDbEntity
8
0
62
256
6
ByLayer
370
-2
48
1
60
0
100
AcDbLine
10
-44.5
20
-35.952229
30
0
11
-3.5
21
-35.952229
31
0
39
0
210
0
220
0
230
1
0
SOLID
5
17E
100
AcDbEntity
8
0
62
256
6
ByLayer
370
-1
48
1
60
0
100
AcDbTrace
10
-44.5
20
-35.368896
30
0
11
-44.5
21
-36.535563
31
0
12
-48
22
-35.952229
32
0
13
-48
23
-35.952229
33
0
39
0
210
0
220
0
230
1
0
SOLID
5
17F
100
AcDbEntity
8
0
62
256
6
ByLayer
370
-1
48
1
60
0
100
AcDbTrace
10
-3.5
20
-36.535563
30
0
11
-3.5
21
-35.368896
31
0
12
0
22
-35.952229
32
0
13
0
23
-35.952229
33
0
39
0
210
0
220
0
230
1
0
MTEXT
5
180
100
AcDbEntity
8
0
62
256
6
ByLayer
370
18
48
1
60
0
100
AcDbMText
10
-24
20
-29.952229
30
0
210
0
220
0
230
1
1
\A1;48
40
3
41
0
44
1
50
0
71
5
72
5
7
iso_b_vert
0
POINT
5
181
100
AcDbEntity
8
Defpoints
62
0
6
ByLayer
370
-1
48
1
60
0
100
AcDbPoint
10
-48
20
-9.525
30
0
39
0
210
0
220
0
230
1
50
360
0
POINT
5
182
100
AcDbEntity
8
Defpoints
62
0
6
ByLayer
370
-1
48
1
60
0
100
AcDbPoint
10
0
20
-9.525
30
0
39
0
210
0
220
0
230
1
50
360
0
POINT
5
183
100
AcDbEntity
8
Defpoints
62
0
6
ByLayer
370
-1
48
1
60
0
100
AcDbPoint
10
0
20
-35.952229
30
0
39
0
210
0
220
0
230
1
50
360
0
ENDBLK
5
17A
100
AcDbEntity
8
0
100
AcDbBlockEnd
0
BLOCK
5
18B
100
AcDbEntity
8
0
100
AcDbBlockBegin
2
_U2
70
0
10
0
20
0
30
0
3
_U2
0
MTEXT
5
185
100
AcDbEntity
8
SK2
62
256
6
ByLayer
370
18
48
1
60
0
100
AcDbMText
10
-28.640313
20
-35.067115
30
0
210
0
220
0
230
1
1
\W0.7694;48.00
40
3
41
0
44
1.084337
50
0
71
7
72
5
7
iso_b_vert
0
LINE
5
186
100
AcDbEntity
8
SK2
62
256
6
ByLayer
370
13
48
1
60
0
100
AcDbLine
10
-48
20
-11.1125
30
0
11
-48
21
-37.952229
31
0
39
0
210
0
220
0
230
1
0
LINE
5
187
100
AcDbEntity
8
SK2
62
256
6
ByLayer
370
13
48
1
60
0
100
AcDbLine
10
0
20
-11.1125
30
0
11
0
21
-37.952229
31
0
39
0
210
0
220
0
230
1
0
LINE
5
188
100
AcDbEntity
8
SK2
62
256
6
ByLayer
370
13
48
1
60
0
100
AcDbLine
10
-48
20
-35.952229
30
0
11
0
21
-35.952229
31
0
39
0
210
0
220
0
230
1
0
SOLID
5
189
100
AcDbEntity
8
SK2
62
256
6
ByLayer
370
18
48
1
60
0
100
AcDbTrace
10
-48
20
-35.952229
30
0
11
-44.500002
21
-35.491446
31
0
12
-44.499998
22
-36.413013
32
0
13
-44.499998
23
-36.413013
33
0
39
0
210
0
220
0
230
1
0
SOLID
5
18A
100
AcDbEntity
8
SK2
62
256
6
ByLayer
370
18
48
1
60
0
100
AcDbTrace
10
0
20
-35.952229
30
0
11
-3.499998
21
-36.413013
31
0
12
-3.500002
22
-35.491446
32
0
13
-3.500002
23
-35.491446
33
0
39
0
210
0
220
0
230
1
0
ENDBLK
5
18C
100
AcDbEntity
8
0
100
AcDbBlockEnd
0
BLOCK
5
191
100
AcDbEntity
8
0
100
AcDbBlockBegin
2
*D7
70
1
10
0
20
0
30
0
3
*D7
0
LINE
5
193
100
AcDbEntity
8
0
62
256
6
ByLayer
370
-2
48
1
60
0
100
AcDbLine
10
88.5
20
1.5875
30
0
11
88.5
21
34.952229
31
0
39
0
210
0
220
0
230
1
0
LINE
5
194
100
AcDbEntity
8
0
62
256
6
ByLayer
370
-2
48
1
60
0
100
AcDbLine
10
26
20
10.3185
30
0
11
26
21
34.952229
31
0
39
0
210
0
220
0
230
1
0
LINE
5
195
100
AcDbEntity
8
0
62
256
6
ByLayer
370
-2
48
1
60
0
100
AcDbLine
10
85
20
32.952229
30
0
11
29.5
21
32.952229
31
0
39
0
210
0
220
0
230
1
0
SOLID
5
196
100
AcDbEntity
8
0
62
256
6
ByLayer
370
-1
48
1
60
0
100
AcDbTrace
10
85
20
32.368896
30
0
11
85
21
33.535563
31
0
12
88.5
22
32.952229
32
0
13
88.5
23
32.952229
33
0
39
0
210
0
220
0
230
1
0
SOLID
5
197
100
AcDbEntity
8
0
62
256
6
ByLayer
370
-1
48
1
60
0
100
AcDbTrace
10
29.5
20
33.535563
30
0
11
29.5
21
32.368896
31
0
12
26
22
32.952229
32
0
13
26
23
32.952229
33
0
39
0
210
0
220
0
230
1
0
MTEXT
5
198
100
AcDbEntity
8
0
62
256
6
ByLayer
370
18
48
1
60
0
100
AcDbMText
10
57.25
20
38.952229
30
0
210
0
220
0
230
1
1
\A1;62.5
40
3
41
0
44
1
50
0
71
5
72
5
7
iso_b_vert
0
POINT
5
199
100
AcDbEntity
8
Defpoints
62
0
6
ByLayer
370
-1
48
1
60
0
100
AcDbPoint
10
88.5
20
0
30
0
39
0
210
0
220
0
230
1
50
360
0
POINT
5
19A
100
AcDbEntity
8
Defpoints
62
0
6
ByLayer
370
-1
48
1
60
0
100
AcDbPoint
10
26
20
8.731
30
0
39
0
210
0
220
0
230
1
50
360
0
POINT
5
19B
100
AcDbEntity
8
Defpoints
62
0
6
ByLayer
370
-1
48
1
60
0
100
AcDbPoint
10
26
20
32.952229
30
0
39
0
210
0
220
0
230
1
50
360
0
ENDBLK
5
192
100
AcDbEntity
8
0
100
AcDbBlockEnd
0
BLOCK
5
1A3
100
AcDbEntity
8
0
100
AcDbBlockBegin
2
_U3
70
0
10
0
20
0
30
0
3
_U3
0
MTEXT
5
19D
100
AcDbEntity
8
SK2
62
256
6
ByLayer
370
18
48
1
60
0
100
AcDbMText
10
52.76763
20
33.837344
30
0
210
0
220
0
230
1
1
\W0.7468;62.50
40
3
41
0
44
1.084337
50
0
71
7
72
5
7
iso_b_vert
0
LINE
5
19E
100
AcDbEntity
8
SK2
62
256
6
ByLayer
370
13
48
1
60
0
100
AcDbLine
10
88.5
20
1.5875
30
0
11
88.5
21
34.952229
31
0
39
0
210
0
220
0
230
1
0
LINE
5
19F
100
AcDbEntity
8
SK2
62
256
6
ByLayer
370
13
48
1
60
0
100
AcDbLine
10
26
20
10.3185
30
0
11
26
21
34.952229
31
0
39
0
210
0
220
0
230
1
0
LINE
5
1A0
100
AcDbEntity
8
SK2
62
256
6
ByLayer
370
13
48
1
60
0
100
AcDbLine
10
88.5
20
32.952229
30
0
11
26
21
32.952229
31
0
39
0
210
0
220
0
230
1
0
SOLID
5
1A1
100
AcDbEntity
8
SK2
62
256
6
ByLayer
370
18
48
1
60
0
100
AcDbTrace
10
88.5
20
32.952229
30
0
11
85.000002
21
32.491446
31
0
12
84.999998
22
33.413013
32
0
13
84.999998
23
33.413013
33
0
39
0
210
0
220
0
230
1
0
SOLID
5
1A2
100
AcDbEntity
8
SK2
62
256
6
ByLayer
370
18
48
1
60
0
100
AcDbTrace
10
26
20
32.952229
30
0
11
29.499998
21
33.413013
31
0
12
29.500002
22
32.491446
32
0
13
29.500002
23
32.491446
33
0
39
0
210
0
220
0
230
1
0
ENDBLK
5
1A4
100
AcDbEntity
8
0
100
AcDbBlockEnd
0
ENDSEC
0
SECTION
2
ENTITIES
0
ARC
5
C1
100
AcDbEntity
8
SK2
62
256
6
ByLayer
370
13
48
1
60
0
100
AcDbCircle
39
0
10
88.5
20
0
30
0
40
18.9999999999999
210
0
220
0
230
1
100
AcDbArc
50
290
51
70
0
ELLIPSE
5
C2
100
AcDbEntity
8
SK1
62
256
6
ByLayer
370
18
48
1
60
0
100
AcDbEllipse
10
-32.117794
20
0
30
0
11
-1.74965632802376E-15
21
-9.52500000000022
31
0
210
0
220
0
230
1
40
0.932515
41
-1.99646903598621
42
-1.14512361760358
0
ELLIPSE
5
C3
100
AcDbEntity
8
SK1
62
256
6
ByLayer
370
18
48
1
60
0
100
AcDbEllipse
10
-15.214312
20
0
30
0
11
10.2143119629885
21
-1.15738337235711E-14
31
0
210
0
220
0
230
1
40
0.932515
41
-0.425672709191254
42
0.425672709191253
0
POINT
5
70
100
AcDbEntity
8
80
62
256
6
ByLayer
370
18
48
1
60
0
100
AcDbPoint
10
0
20
0
30
0
39
0
210
0
220
0
230
1
50
360
0
POINT
5
72
100
AcDbEntity
8
81
62
256
6
ByLayer
370
18
48
1
60
0
100
AcDbPoint
10
88.5
20
0
30
0
39
0
210
0
220
0
230
1
50
360
0
POINT
5
74
100
AcDbEntity
8
1
62
256
6
ByLayer
370
18
48
1
60
1
100
AcDbPoint
10
-48
20
-9.525
30
0
39
0
210
0
220
0
230
1
50
360
0
POINT
5
76
100
AcDbEntity
8
1
62
256
6
ByLayer
370
18
48
1
60
1
100
AcDbPoint
10
88.5
20
0
30
0
39
0
210
0
220
0
230
1
50
360
0
POINT
5
77
100
AcDbEntity
8
1
62
256
6
ByLayer
370
18
48
1
60
1
100
AcDbPoint
10
88.5
20
0
30
0
39
0
210
0
220
0
230
1
50
360
0
POINT
5
78
100
AcDbEntity
8
1
62
256
6
ByLayer
370
18
48
1
60
1
100
AcDbPoint
10
3
20
-8.731
30
0
39
0
210
0
220
0
230
1
50
360
0
POINT
5
79
100
AcDbEntity
8
1
62
256
6
ByLayer
370
18
48
1
60
1
100
AcDbPoint
10
-48
20
-9.525
30
0
39
0
210
0
220
0
230
1
50
360
0
POINT
5
7A
100
AcDbEntity
8
1
62
256
6
ByLayer
370
18
48
1
60
1
100
AcDbPoint
10
0
20
-9.525
30
0
39
0
210
0
220
0
230
1
50
360
0
POINT
5
7B
100
AcDbEntity
8
1
62
256
6
ByLayer
370
18
48
1
60
1
100
AcDbPoint
10
88.5
20
0
30
0
39
0
210
0
220
0
230
1
50
360
0
POINT
5
7C
100
AcDbEntity
8
1
62
256
6
ByLayer
370
18
48
1
60
1
100
AcDbPoint
10
26
20
8.731
30
0
39
0
210
0
220
0
230
1
50
360
0
SPLINE
5
C4
100
AcDbEntity
8
1
62
256
6
ByLayer
370
18
48
1
60
0
100
AcDbSpline
70
4
71
3
72
16
73
12
40
0
40
0
40
0
40
0
40
0.381006788210778
40
0.381006788210778
40
0.571510182316179
40
0.571510182316179
40
0.76201357642158
40
0.76201357642158
40
0.952516970526982
40
0.952516970526982
40
1
40
1
40
1
40
1
41
1
10
76.3
20
-8.66291684873971
30
0
41
1
10
76.6765597031227
20
-8.6798177201527
30
0
41
1
10
77.0529235808985
20
-8.69352969760465
30
0
41
1
10
77.617100634484
20
-8.70931709630838
30
0
41
1
10
77.8050982234023
20
-8.71378205588877
30
0
41
1
10
78.180957246747
20
-8.72110861072122
30
0
41
1
10
78.368807608912
20
-8.72397045255673
30
0
41
1
10
78.7444628581131
20
-8.72807048315343
30
0
41
1
10
78.9322872547694
20
-8.7293075279664
30
0
41
1
10
79.1669688418467
20
-8.72984467968104
30
0
41
1
10
79.2137937394164
20
-8.72990179504731
30
0
41
1
10
79.2606196596365
20
-8.72990893968839
30
0
0
SPLINE
5
C5
100
AcDbEntity
8
1
62
256
6
ByLayer
370
18
48
1
60
0
100
AcDbSpline
70
4
71
3
72
128
73
124
40
0
40
0
40
0
40
0
40
0.0312500000000062
40
0.0312500000000062
40
0.0625000000000124
40
0.0625000000000124
40
0.0703125000000136
40
0.0703125000000136
40
0.0781250000000149
40
0.0781250000000149
40
0.0937500000000167
40
0.0937500000000167
40
0.12500000000002
40
0.12500000000002
40
0.140625000000021
40
0.140625000000021
40
0.156250000000022
40
0.156250000000022
40
0.171875000000023
40
0.171875000000023
40
0.187500000000025
40
0.187500000000025
40
0.218750000000027
40
0.218750000000027
40
0.226562500000028
40
0.226562500000028
40
0.234375000000028
40
0.234375000000028
40
0.250000000000029
40
0.250000000000029
40
0.28125000000003
40
0.28125000000003
40
0.289062500000031
40
0.289062500000031
40
0.296875000000031
40
0.296875000000031
40
0.304687500000031
40
0.304687500000031
40
0.312500000000031
40
0.312500000000031
40
0.343750000000032
40
0.343750000000032
40
0.359375000000032
40
0.359375000000032
40
0.367187500000032
40
0.367187500000032
40
0.375000000000032
40
0.375000000000032
40
0.390625000000031
40
0.390625000000031
40
0.40625000000003
40
0.40625000000003
40
0.437500000000029
40
0.437500000000029
40
0.453125000000028
40
0.453125000000028
40
0.468750000000027
40
0.468750000000027
40
0.500000000000027
40
0.500000000000027
40
0.515625000000026
40
0.515625000000026
40
0.523437500000026
40
0.523437500000026
40
0.531250000000026
40
0.531250000000026
40
0.546875000000024
40
0.546875000000024
40
0.562500000000023
40
0.562500000000023
40
0.578125000000022
40
0.578125000000022
40
0.585937500000021
40
0.585937500000021
40
0.593750000000021
40
0.593750000000021
40
0.60937500000002
40
0.60937500000002
40
0.625000000000019
40
0.625000000000019
40
0.656250000000017
40
0.656250000000017
40
0.671875000000016
40
0.671875000000016
40
0.687500000000015
40
0.687500000000015
40
0.718750000000013
40
0.718750000000013
40
0.734375000000012
40
0.734375000000012
40
0.750000000000011
40
0.750000000000011
40
0.78125000000001
40
0.78125000000001
40
0.796875000000009
40
0.796875000000009
40
0.812500000000008
40
0.812500000000008
40
0.820312500000008
40
0.820312500000008
40
0.828125000000007
40
0.828125000000007
40
0.843750000000007
40
0.843750000000007
40
0.859375000000006
40
0.859375000000006
40
0.875000000000005
40
0.875000000000005
40
0.882812500000005
40
0.882812500000005
40
0.890625000000004
40
0.890625000000004
40
0.906250000000003
40
0.906250000000003
40
0.937500000000003
40
0.937500000000003
40
0.953125000000002
40
0.953125000000002
40
0.968750000000001
40
0.968750000000001
40
0.984375000000001
40
0.984375000000001
40
1
40
1
40
1
40
1
41
1
10
16.566418905184
20
7.09894096166744
30
0
41
1
10
17.1892503504532
20
6.9970698934959
30
0
41
1
10
17.8119834209054
20
6.88875138444217
30
0
41
1
10
19.0568284246345
20
6.65889715562145
30
0
41
1
10
19.6789428271454
20
6.53736367830402
30
0
41
1
10
20.4559459809167
20
6.37667886722036
30
0
41
1
10
20.6113120633622
20
6.34409750086283
30
0
41
1
10
20.921982472301
20
6.27805396593885
30
0
41
1
10
21.0772913186998
20
6.24459973153751
30
0
41
1
10
21.5432628337213
20
6.14317589293378
30
0
41
1
10
21.8540100123078
20
6.07422525847542
30
0
41
1
10
22.786405800179
20
5.86315359098001
30
0
41
1
10
23.4082076651407
20
5.71682282640512
30
0
41
1
10
24.3409351026811
20
5.48830964978981
30
0
41
1
10
24.6518474578729
20
5.41063021109787
30
0
41
1
10
25.273623520258
20
5.25209104511944
30
0
41
1
10
25.5844608422024
20
5.17116211642912
30
0
41
1
10
26.206618910322
20
5.00733655339587
30
0
41
1
10
26.5178996768544
20
4.92435592321687
30
0
41
1
10
27.1407626491524
20
4.75604380958865
30
0
41
1
10
27.4524118424626
20
4.67070870932778
30
0
41
1
10
28.3873521095747
20
4.41117590387583
30
0
41
1
10
29.010046342449
20
4.23357509789793
30
0
41
1
10
29.7874494324203
20
4.00523704732802
30
0
41
1
10
29.9428914572825
20
3.95927692403521
30
0
41
1
10
30.2537826755258
20
3.8669940337214
30
0
41
1
10
30.4092384074107
20
3.82068885450758
30
0
41
1
10
30.8756220254641
20
3.68125065421674
30
0
41
1
10
31.1865569178667
20
3.58757050449302
30
0
41
1
10
32.119296113121
20
3.30411174919377
30
0
41
1
10
32.7410562249492
20
3.11197955107693
30
0
41
1
10
33.5179180244775
20
2.8671355462989
30
0
41
1
10
33.673273199137
20
2.81793145871274
30
0
41
1
10
33.9839420601334
20
2.71902997476582
30
0
41
1
10
34.1392515769324
20
2.66932059333612
30
0
41
1
10
34.4498901596678
20
2.56957837424716
30
0
41
1
10
34.6052256011906
20
2.51956362665629
30
0
41
1
10
34.9159854322551
20
2.41941045048671
30
0
41
1
10
35.0714019666863
20
2.36924987854496
30
0
41
1
10
35.8486288073331
20
2.11792202699189
30
0
41
1
10
36.4708568458077
20
1.91514598690492
30
0
41
1
10
37.4045910836261
20
1.60760746301224
30
0
41
1
10
37.7159003547307
20
1.50452794268847
30
0
41
1
10
38.1829221643911
20
1.34892819753364
30
0
41
1
10
38.338601987545
20
1.29688666719011
30
0
41
1
10
38.6499939175168
20
1.19251215125024
30
0
41
1
10
38.8057242502948
20
1.14018735352593
30
0
41
1
10
39.2728284009035
20
0.983293986283655
30
0
41
1
10
39.5842170248879
20
0.878835336393252
30
0
41
1
10
40.206856562901
20
0.669854544711768
30
0
41
1
10
40.5181107352407
20
0.565342380886619
30
0
41
1
10
41.4516151406416
20
0.25155237909857
30
0
41
1
10
42.0736097781185
20
0.0420266572978392
30
0
41
1
10
43.0057591149201
20
-0.273736929039615
30
0
41
1
10
43.3163294176804
20
-0.379252876379553
30
0
41
1
10
43.9377445042169
20
-0.589115270946962
30
0
41
1
10
44.2485353916305
20
-0.693623625384106
30
0
41
1
10
45.1810171761616
20
-1.00630560226696
30
0
41
1
10
45.8028457477566
20
-1.21355268966761
30
0
41
1
10
46.7355542301496
20
-1.523481767623
30
0
41
1
10
47.0464378269586
20
-1.62667385413792
30
0
41
1
10
47.5127550633619
20
-1.78122059511981
30
0
41
1
10
47.6682021842805
20
-1.8326681887477
30
0
41
1
10
47.9791996215766
20
-1.935171343711
30
0
41
1
10
48.134751889536
20
-1.98622125610953
30
0
41
1
10
48.6015459997542
20
-2.13883556696246
30
0
41
1
10
48.9129191802882
20
-2.23988215330971
30
0
41
1
10
49.5359559291567
20
-2.44077172568339
30
0
41
1
10
49.8477119578016
20
-2.54063212457476
30
0
41
1
10
50.4708357248679
20
-2.73905864367151
30
0
41
1
10
50.782241176715
20
-2.83763981509941
30
0
41
1
10
51.2490742211589
20
-2.98466869959677
30
0
41
1
10
51.4046392298831
20
-3.03353809808857
30
0
41
1
10
51.7156698814624
20
-3.1310134871072
30
0
41
1
10
51.8711347020023
20
-3.17962135241226
30
0
41
1
10
52.3374902473876
20
-3.32474042991544
30
0
41
1
10
52.6484070956478
20
-3.420369042609
30
0
41
1
10
53.2702740138542
20
-3.60940751528747
30
0
41
1
10
53.5812027673669
20
-3.70287550842366
30
0
41
1
10
54.5139101090472
20
-3.98031972940078
30
0
41
1
10
55.1356158739795
20
-4.1613316980561
30
0
41
1
10
56.0677041777011
20
-4.42767234933171
30
0
41
1
10
56.3782701094513
20
-4.51571156743421
30
0
41
1
10
56.9996781735299
20
-4.68896233892755
30
0
41
1
10
57.31053672266
20
-4.77414005295938
30
0
41
1
10
58.2434023369472
20
-5.02579232282147
30
0
41
1
10
58.8657244807055
20
-5.18833361638775
30
0
41
1
10
59.7995411080759
20
-5.42494252703688
30
0
41
1
10
60.11086805438
20
-5.50261096795353
30
0
41
1
10
60.7335790888385
20
-5.6556289807306
30
0
41
1
10
61.045030756283
20
-5.73093570700345
30
0
41
1
10
61.9793784083117
20
-5.95133362762533
30
0
41
1
10
62.6022795809034
20
-6.09159505080333
30
0
41
1
10
63.5362963980484
20
-6.29279848415422
30
0
41
1
10
63.847582117337
20
-6.35832523851837
30
0
41
1
10
64.4699939577697
20
-6.48637421676943
30
0
41
1
10
64.7811001758245
20
-6.5489305422777
30
0
41
1
10
65.2476668971229
20
-6.64042895276941
30
0
41
1
10
65.4031849629964
20
-6.67051920098891
30
0
41
1
10
65.714300346889
20
-6.72973632320955
30
0
41
1
10
65.8698932361672
20
-6.75887141441424
30
0
41
1
10
66.3367538284091
20
-6.84490514885889
30
0
41
1
10
66.6480978574016
20
-6.90044222335322
30
0
41
1
10
67.2709356304539
20
-7.00799096144323
30
0
41
1
10
67.5824323475229
20
-7.0599979497029
30
0
41
1
10
68.2055325087697
20
-7.16054281020192
30
0
41
1
10
68.5172016477426
20
-7.20909125435966
30
0
41
1
10
68.9844570241295
20
-7.27929681500927
30
0
41
1
10
69.1401650220068
20
-7.30226305454647
30
0
41
1
10
69.4514895753364
20
-7.34732236712048
30
0
41
1
10
69.6071091382017
20
-7.36941081276927
30
0
41
1
10
70.0739586420533
20
-7.43420251891297
30
0
41
1
10
70.3852365265616
20
-7.47536677293098
30
0
41
1
10
71.3191261620607
20
-7.59295546307916
30
0
41
1
10
71.9417561730331
20
-7.66353631410243
30
0
41
1
10
72.8754754209774
20
-7.7580045424867
30
0
41
1
10
73.1866764221063
20
-7.78758986142523
30
0
41
1
10
73.8089446398708
20
-7.84295285200295
30
0
41
1
10
74.1199691364275
20
-7.86875211451306
30
0
41
1
10
74.7423824770508
20
-7.91615641782258
30
0
41
1
10
75.0537535360004
20
-7.93778621956221
30
0
41
1
10
75.6767146061898
20
-7.97701267055479
30
0
41
1
10
75.9883103140202
20
-7.99460489563342
30
0
41
1
10
76.3
20
-8.01018920668167
30
0
0
SPLINE
5
C6
100
AcDbEntity
8
1
62
256
6
ByLayer
370
18
48
1
60
0
100
AcDbSpline
70
4
71
3
72
92
73
88
40
0
40
0
40
0
40
0
40
0.0063875159247308
40
0.0063875159247308
40
0.0266653217221843
40
0.0266653217221843
40
0.0672209333170914
40
0.0672209333170914
40
0.0874987391145449
40
0.0874987391145449
40
0.107776544911999
40
0.107776544911999
40
0.148332156506906
40
0.148332156506906
40
0.158471059405633
40
0.158471059405633
40
0.16860996230436
40
0.16860996230436
40
0.188887768101815
40
0.188887768101815
40
0.20916557389927
40
0.20916557389927
40
0.229443379696725
40
0.229443379696725
40
0.269998991291635
40
0.269998991291635
40
0.29027679708909
40
0.29027679708909
40
0.310554602886545
40
0.310554602886545
40
0.351110214481455
40
0.351110214481455
40
0.37138802027891
40
0.37138802027891
40
0.391665826076365
40
0.391665826076365
40
0.432221437671274
40
0.432221437671274
40
0.452499243468729
40
0.452499243468729
40
0.472777049266183
40
0.472777049266183
40
0.513332660861092
40
0.513332660861092
40
0.533610466658546
40
0.533610466658546
40
0.553888272456
40
0.553888272456
40
0.594443884050907
40
0.594443884050907
40
0.604582786949634
40
0.604582786949634
40
0.61472168984836
40
0.61472168984836
40
0.634999495645814
40
0.634999495645814
40
0.645138398544542
40
0.645138398544542
40
0.655277301443269
40
0.655277301443269
40
0.675555107240724
40
0.675555107240724
40
0.716110718835632
40
0.716110718835632
40
0.736388524633086
40
0.736388524633086
40
0.75666633043054
40
0.75666633043054
40
0.797221942025449
40
0.797221942025449
40
0.807360844924176
40
0.807360844924176
40
0.817499747822903
40
0.817499747822903
40
0.827638650721631
40
0.827638650721631
40
0.837777553620358
40
0.837777553620358
40
0.878333165215269
40
0.878333165215269
40
0.898610971012724
40
0.898610971012724
40
0.91888877681018
40
0.91888877681018
40
0.95944438840509
40
0.95944438840509
40
1
40
1
40
1
40
1
41
1
10
61.7445453787068
20
-5.88879632009545
30
0
41
1
10
61.6405630475747
20
-5.91296341920227
30
0
41
1
10
61.5365915058725
20
-5.93697250033529
30
0
41
1
10
61.1025889511588
20
-6.03652259960452
30
0
41
1
10
60.7725566410942
20
-6.11042299063311
30
0
41
1
10
59.7823032265005
20
-6.32641437991771
30
0
41
1
10
59.1220176975952
20
-6.46299697556182
30
0
41
1
10
58.1315716119023
20
-6.65707036184156
30
0
41
1
10
57.8014239753768
20
-6.71996469441794
30
0
41
1
10
57.1411458100573
20
-6.84214998680949
30
0
41
1
10
56.8110310876476
20
-6.90145939960047
30
0
41
1
10
55.8200948680913
20
-7.0729776370967
30
0
41
1
10
55.1588178794527
20
-7.17903266690024
30
0
41
1
10
54.331541674263
20
-7.30148002190424
30
0
41
1
10
54.1660258140341
20
-7.32546581737813
30
0
41
1
10
53.8350858074309
20
-7.37240299151907
30
0
41
1
10
53.6696635494885
20
-7.39535465588347
30
0
41
1
10
53.1735450784343
20
-7.46266092052338
30
0
41
1
10
52.8430210028193
20
-7.5054928154033
30
0
41
1
10
52.1822365497521
20
-7.58684319910634
30
0
41
1
10
51.8518942446204
20
-7.62527428812959
30
0
41
1
10
51.1912561486052
20
-7.6976464357312
30
0
41
1
10
50.8609744460493
20
-7.73160274324982
30
0
41
1
10
49.8702742049762
20
-7.82684962493468
30
0
41
1
10
49.2100058338785
20
-7.88154090942527
30
0
41
1
10
48.2200620949993
20
-7.95033958741453
30
0
41
1
10
47.8901475562761
20
-7.97104675055587
30
0
41
1
10
47.2300377653874
20
-8.00779400231292
30
0
41
1
10
46.8998840543541
20
-8.02386352459172
30
0
41
1
10
45.9091742803575
20
-8.06522482360319
30
0
41
1
10
45.248360397904
20
-8.08368483871362
30
0
41
1
10
44.2568067056639
20
-8.09762795422418
30
0
41
1
10
43.9262620916937
20
-8.09997763972686
30
0
41
1
10
43.264873150249
20
-8.10002204205625
30
0
41
1
10
42.9338750538167
20
-8.09771958347378
30
0
41
1
10
41.9414049323018
20
-8.0839186206444
30
0
41
1
10
41.2801635080167
20
-8.065549670331
30
0
41
1
10
40.2890705546583
20
-8.02426892811033
30
0
41
1
10
39.9588397148223
20
-8.00821375201124
30
0
41
1
10
39.2986475364474
20
-7.97147493169891
30
0
41
1
10
38.9686552387586
20
-7.95079931076688
30
0
41
1
10
37.9784497780568
20
-7.88219258545215
30
0
41
1
10
37.3181853973709
20
-7.82762123634652
30
0
41
1
10
36.3277533916295
20
-7.7324935320153
30
0
41
1
10
35.9976054603711
20
-7.69856649892895
30
0
41
1
10
35.3373292364221
20
-7.62621754434213
30
0
41
1
10
35.007234993479
20
-7.58775562740348
30
0
41
1
10
34.0166096919674
20
-7.46595184767429
30
0
41
1
10
33.3555284434955
20
-7.37646473994337
30
0
41
1
10
32.5284871619421
20
-7.25418241758862
30
0
41
1
10
32.3630441278226
20
-7.22920374513171
30
0
41
1
10
32.0320922561365
20
-7.17819425722135
30
0
41
1
10
31.8665804886612
20
-7.15216277825715
30
0
41
1
10
31.3702494647655
20
-7.07252224695287
30
0
41
1
10
31.0395421032623
20
-7.01734359431649
30
0
41
1
10
30.5437345949769
20
-6.93145151841961
30
0
41
1
10
30.3785034341695
20
-6.90230606999117
30
0
41
1
10
30.0480474694271
20
-6.84309621606135
30
0
41
1
10
29.882819760464
20
-6.81303703111232
30
0
41
1
10
29.3871437285224
20
-6.72149549541211
30
0
41
1
10
29.0567045140936
20
-6.6586467259487
30
0
41
1
10
28.0654599585488
20
-6.46461076899391
30
0
41
1
10
27.404723097919
20
-6.32795697175175
30
0
41
1
10
26.4139370195781
20
-6.11162194807656
30
0
41
1
10
26.0837644427909
20
-6.03753764685243
30
0
41
1
10
25.423208289157
20
-5.88617899833696
30
0
41
1
10
25.092803145493
20
-5.80895513300803
30
0
41
1
10
24.1012661843893
20
-5.57257170132581
30
0
41
1
10
23.4398016114189
20
-5.40873841218209
30
0
41
1
10
22.6125653247855
20
-5.19577218507328
30
0
41
1
10
22.4470792215699
20
-5.15276322445087
30
0
41
1
10
22.1162376913082
20
-5.06596181323516
30
0
41
1
10
21.9508701377386
20
-5.02215731106452
30
0
41
1
10
21.6202152709901
20
-4.93380069970905
30
0
41
1
10
21.4549257574911
20
-4.88925361940926
30
0
41
1
10
21.1243514042285
20
-4.79959476724042
30
0
41
1
10
20.959070136818
20
-4.75447474222895
30
0
41
1
10
20.1327053375589
20
-4.52740131638646
30
0
41
1
10
19.4717499641809
20
-4.34102999381841
30
0
41
1
10
18.4806741520518
20
-4.05406623470734
30
0
41
1
10
18.1503787494917
20
-3.95716561597612
30
0
41
1
10
17.489935263547
20
-3.76080126200594
30
0
41
1
10
17.1598205878358
20
-3.6612455343035
30
0
41
1
10
16.1691435132726
20
-3.36018639447556
30
0
41
1
10
15.5082834636858
20
-3.15622332849637
30
0
41
1
10
14.1859886390446
20
-2.74119593034803
30
0
41
1
10
13.5245446752194
20
-2.53015800254707
30
0
41
1
10
12.8629278275399
20
-2.31514985807374
30
0
0
SPLINE
5
C7
100
AcDbEntity
8
1
62
256
6
ByLayer
370
18
48
1
60
0
100
AcDbSpline
70
4
71
3
72
20
73
16
40
0
40
0
40
0
40
0
40
0.124999999999999
40
0.124999999999999
40
0.187500000000003
40
0.187500000000003
40
0.250000000000006
40
0.250000000000006
40
0.500000000000004
40
0.500000000000004
40
0.625000000000003
40
0.625000000000003
40
0.750000000000002
40
0.750000000000002
40
1
40
1
40
1
40
1
41
1
10
85.3221758846222
20
-1.24666726497961
30
0
41
1
10
84.9456549016442
20
-1.11132395625975
30
0
41
1
10
84.5693490122383
20
-0.975529152280558
30
0
41
1
10
84.0052610696099
20
-0.771026543658934
30
0
41
1
10
83.8172967564292
20
-0.702715127642989
30
0
41
1
10
83.4414751017567
20
-0.565868905624797
30
0
41
1
10
83.2536120029686
20
-0.497350134573708
30
0
41
1
10
82.3142292557321
20
-0.155126271372552
30
0
41
1
10
81.5626158968521
20
0.117771590757314
30
0
41
1
10
80.4353639122327
20
0.526717970396561
30
0
41
1
10
80.0596436940918
20
0.66297301985685
30
0
41
1
10
79.3083227399193
20
0.935521411148329
30
0
41
1
10
78.9327825098337
20
1.07198074504089
30
0
41
1
10
77.8054466743146
20
1.47895095649113
30
0
41
1
10
77.0530390569151
20
1.74734232487114
30
0
41
1
10
76.3
20
2.01341556738191
30
0
0
SPLINE
5
C8
100
AcDbEntity
8
1
62
256
6
ByLayer
370
18
48
1
60
0
100
AcDbSpline
70
4
71
3
72
86
73
82
40
0
40
0
40
0
40
0
40
0.0312500000000023
40
0.0312500000000023
40
0.0625000000000046
40
0.0625000000000046
40
0.125000000000009
40
0.125000000000009
40
0.14062500000001
40
0.14062500000001
40
0.148437500000011
40
0.148437500000011
40
0.156250000000011
40
0.18750000000001
40
0.18750000000001
40
0.250000000000006
40
0.250000000000006
40
0.281250000000005
40
0.281250000000005
40
0.296875000000005
40
0.296875000000005
40
0.312500000000005
40
0.312500000000005
40
0.343750000000005
40
0.343750000000005
40
0.375000000000004
40
0.375000000000004
40
0.406250000000004
40
0.406250000000004
40
0.437500000000004
40
0.437500000000004
40
0.445312500000004
40
0.445312500000004
40
0.453125000000004
40
0.468750000000003
40
0.468750000000003
40
0.500000000000002
40
0.500000000000002
40
0.531250000000001
40
0.531250000000001
40
0.5390625
40
0.5390625
40
0.546874999999999
40
0.562499999999999
40
0.562499999999999
40
0.593749999999998
40
0.593749999999998
40
0.624999999999997
40
0.624999999999997
40
0.632812499999996
40
0.632812499999996
40
0.640624999999996
40
0.656249999999994
40
0.656249999999994
40
0.687499999999992
40
0.687499999999992
40
0.718749999999989
40
0.718749999999989
40
0.726562499999989
40
0.726562499999989
40
0.734374999999989
40
0.734374999999989
40
0.74999999999999
40
0.74999999999999
40
0.781249999999992
40
0.781249999999992
40
0.812499999999994
40
0.843749999999997
40
0.843749999999997
40
0.851562499999997
40
0.851562499999997
40
0.859374999999997
40
0.874999999999998
40
0.874999999999998
40
0.906249999999998
40
0.937499999999999
40
0.968749999999999
40
0.968749999999999
40
0.984375
40
0.984375
40
1
40
1
40
1
40
1
41
1
10
85.3221758846217
20
8.45374069490285
30
0
41
1
10
85.3767057728188
20
8.31854166864179
30
0
41
1
10
85.4313212444707
20
8.18131131420955
30
0
41
1
10
85.5408164014537
20
7.90310718356668
30
0
41
1
10
85.5956959922765
20
7.76213269114945
30
0
41
1
10
85.7608290261153
20
7.333939213478
30
0
41
1
10
85.8715918442242
20
7.04148005967221
30
0
41
1
10
86.0110072347289
20
6.66780444440056
30
0
41
1
10
86.038937196329
20
6.59266181976679
30
0
41
1
10
86.0809006485362
20
6.47934152458211
30
0
41
1
10
86.0949095595677
20
6.44144070597494
30
0
41
1
10
86.122900062024
20
6.36557173308861
30
0
41
1
10
86.1927730171932
20
6.1758242685483
30
0
41
1
10
86.2621363695291
20
5.98570756562745
30
0
41
1
10
86.4275610803317
20
5.52871326202197
30
0
41
1
10
86.5365014141136
20
5.22311806825385
30
0
41
1
10
86.6968364339633
20
4.76299884214336
30
0
41
1
10
86.7497574207229
20
4.60933365185591
30
0
41
1
10
86.8280612403815
20
4.37829664984946
30
0
41
1
10
86.8539815461623
20
4.30119394773129
30
0
41
1
10
86.9053900034528
20
4.14678277464208
30
0
41
1
10
86.9308854865131
20
4.06944967731349
30
0
41
1
10
87.0062291336431
20
3.83821734003871
30
0
41
1
10
87.0550707120393
20
3.68471973121962
30
0
41
1
10
87.1490851970552
20
3.3787896051314
30
0
41
1
10
87.1942642835073
20
3.22635808166203
30
0
41
1
10
87.2795810888892
20
2.92224550656942
30
0
41
1
10
87.3197260470849
20
2.7705650912234
30
0
41
1
10
87.3929073013437
20
2.46754611587582
30
0
41
1
10
87.4259469045116
20
2.31620633290913
30
0
41
1
10
87.4609621570306
20
2.12693185706857
30
0
41
1
10
87.4676536421873
20
2.08904272326686
30
0
41
1
10
87.4803277191115
20
2.01337631812302
30
0
41
1
10
87.4982390336527
20
1.90027392671721
30
0
41
1
10
87.512658195702
20
1.78837851988717
30
0
41
1
10
87.5363706735617
20
1.56625913153789
30
0
41
1
10
87.5452940859357
20
1.42040047255227
30
0
41
1
10
87.547701067134
20
1.13364257459242
30
0
41
1
10
87.5411705957854
20
0.992745716798623
30
0
41
1
10
87.5234158881766
20
0.820182706942774
30
0
41
1
10
87.5193845621455
20
0.785808047572232
30
0
41
1
10
87.5104157287152
20
0.717611997764294
30
0
41
1
10
87.4956412219781
20
0.616405397116296
30
0
41
1
10
87.47713188805
20
0.51842091644923
30
0
41
1
10
87.4357548171292
20
0.326643750096281
30
0
41
1
10
87.4023827839453
20
0.204373561469509
30
0
41
1
10
87.3270727961444
20
-0.0294412444034151
30
0
41
1
10
87.2851411840869
20
-0.140989013163505
30
0
41
1
10
87.2287653871534
20
-0.273822380431312
30
0
41
1
10
87.2172793381249
20
-0.300081917994589
30
0
41
1
10
87.1939842163454
20
-0.351826451305328
30
0
41
1
10
87.1586052293385
20
-0.428176995588075
30
0
41
1
10
87.1220527282284
20
-0.500803312301002
30
0
41
1
10
87.0476667956625
20
-0.641239317563048
30
0
41
1
10
86.9963851923993
20
-0.728454538751748
30
0
41
1
10
86.8914344745461
20
-0.890494900414865
30
0
41
1
10
86.8377582737811
20
-0.965317719351731
30
0
41
1
10
86.7694935467553
20
-1.05111405797987
30
0
41
1
10
86.7557812596705
20
-1.06788580898728
30
0
41
1
10
86.7282430975625
20
-1.10065105804182
30
0
41
1
10
86.7144095486289
20
-1.11665220012043
30
0
41
1
10
86.6729257206538
20
-1.16328354887543
30
0
41
1
10
86.6452365646118
20
-1.1926114884447
30
0
41
1
10
86.5621125938679
20
-1.2754347090619
30
0
41
1
10
86.5066254020529
20
-1.32378002847693
30
0
41
1
10
86.3956093876842
20
-1.40707634588523
30
0
41
1
10
86.2845490757967
20
-1.47697557301251
30
0
41
1
10
86.1733688390545
20
-1.52011862007188
30
0
41
1
10
86.1037863227225
20
-1.53854155663723
30
0
41
1
10
86.0898584156657
20
-1.54179858259766
30
0
41
1
10
86.0621178598441
20
-1.54742775081286
30
0
41
1
10
86.0206338359774
20
-1.55455757553534
30
0
41
1
10
85.9795166778127
20
-1.55778932288399
30
0
41
1
10
85.8977355411733
20
-1.55914334915934
30
0
41
1
10
85.7899021809752
20
-1.54734136612822
30
0
41
1
10
85.6312092812295
20
-1.48954738813725
30
0
41
1
10
85.5270797670463
20
-1.42423745645249
30
0
41
1
10
85.4494667845354
20
-1.36499013707902
30
0
41
1
10
85.4237538486983
20
-1.34358499169019
30
0
41
1
10
85.3727086282419
20
-1.29755576240333
30
0
41
1
10
85.3473614110399
20
-1.27292034651603
30
0
41
1
10
85.3221758846217
20
-1.24666726497947
30
0
0
SPLINE
5
C9
100
AcDbEntity
8
1
62
256
6
ByLayer
370
18
48
1
60
0
100
AcDbSpline
70
4
71
3
72
18
73
14
40
0
40
0
40
0
40
0
40
0.0698323831397688
40
0.0698323831397688
40
0.255865906511808
40
0.255865906511808
40
0.441899429883847
40
0.441899429883847
40
0.534916191569872
40
0.534916191569872
40
0.627932953255898
40
0.627932953255898
40
1
40
1
40
1
40
1
41
1
10
79.2606191878486
20
8.72990893961648
30
0
41
1
10
79.4016604761737
20
8.72993046053313
30
0
41
1
10
79.5427110423504
20
8.72949862943975
30
0
41
1
10
80.0595317811628
20
8.72626396546235
30
0
41
1
10
80.4353253176837
20
8.72071331769388
30
0
41
1
10
81.1868925131947
20
8.70323362191616
30
0
41
1
10
81.5626644366938
20
8.69130483151406
30
0
41
1
10
82.1262308103229
20
8.66857320232486
30
0
41
1
10
82.3140709722325
20
8.66018884565551
30
0
41
1
10
82.6897081297504
20
8.64178766910291
30
0
41
1
10
82.8774975201636
20
8.63176632795046
30
0
41
1
10
83.8166526514358
20
8.5776820833857
30
0
41
1
10
84.5690798417711
20
8.52196728112935
30
0
41
1
10
85.3221758846221
20
8.45374069490279
30
0
0
SPLINE
5
CA
100
AcDbEntity
8
1
62
256
6
ByLayer
370
18
48
1
60
0
100
AcDbSpline
70
4
71
3
72
38
73
34
40
0
40
0
40
0
40
0
40
0.101700348743223
40
0.101700348743223
40
0.165864609547277
40
0.165864609547277
40
0.230028870351331
40
0.230028870351331
40
0.262111000753358
40
0.262111000753358
40
0.294193131155387
40
0.294193131155387
40
0.358357391959442
40
0.358357391959442
40
0.422521652763498
40
0.422521652763498
40
0.486685913567554
40
0.486685913567554
40
0.51876804396958
40
0.51876804396958
40
0.550850174371607
40
0.550850174371607
40
0.615014435175663
40
0.615014435175663
40
0.743342956783777
40
0.743342956783777
40
0.807507217587833
40
0.807507217587833
40
0.871671478391889
40
0.871671478391889
40
0.935835739195945
40
0.935835739195945
40
1
40
1
40
1
40
1
41
1
10
61.7442326508951
20
5.89501007662676
30
0
41
1
10
62.2378728256696
20
6.00927837425925
30
0
41
1
10
62.73148526308
20
6.11942819725763
30
0
41
1
10
63.5362963980484
20
6.29279848415422
30
0
41
1
10
63.847582117337
20
6.35832523851835
30
0
41
1
10
64.4699939577696
20
6.48637421676941
30
0
41
1
10
64.7811001758245
20
6.5489305422777
30
0
41
1
10
65.2476668971229
20
6.64042895276938
30
0
41
1
10
65.4031849629964
20
6.67051920098888
30
0
41
1
10
65.714300346889
20
6.72973632320952
30
0
41
1
10
65.8698932361672
20
6.75887141441422
30
0
41
1
10
66.3367538284091
20
6.84490514885886
30
0
41
1
10
66.6480978574016
20
6.90044222335319
30
0
41
1
10
67.2709356304539
20
7.00799096144323
30
0
41
1
10
67.5824323475229
20
7.05999794970288
30
0
41
1
10
68.2055325087696
20
7.16054281020189
30
0
41
1
10
68.5172016477425
20
7.20909125435966
30
0
41
1
10
68.9844570241295
20
7.27929681500927
30
0
41
1
10
69.1401650220067
20
7.30226305454647
30
0
41
1
10
69.4514895753364
20
7.34732236712048
30
0
41
1
10
69.6071091382016
20
7.36941081276927
30
0
41
1
10
70.0739586420533
20
7.43420251891294
30
0
41
1
10
70.3852365265616
20
7.47536677293095
30
0
41
1
10
71.3191261620607
20
7.59295546307916
30
0
41
1
10
71.9417561730331
20
7.66353631410243
30
0
41
1
10
72.8754754209775
20
7.75800454248673
30
0
41
1
10
73.1866764221064
20
7.78758986142523
30
0
41
1
10
73.8089446398707
20
7.84295285200295
30
0
41
1
10
74.1199691364275
20
7.86875211451306
30
0
41
1
10
74.7423824770508
20
7.91615641782258
30
0
41
1
10
75.0537535360004
20
7.93778621956221
30
0
41
1
10
75.6767146061897
20
7.97701267055479
30
0
41
1
10
75.9883103140203
20
7.99460489563342
30
0
41
1
10
76.3
20
8.0101892066817
30
0
0
SPLINE
5
CB
100
AcDbEntity
8
1
62
256
6
ByLayer
370
18
48
1
60
0
100
AcDbSpline
70
4
71
3
72
66
73
62
40
0
40
0
40
0
40
0
40
0.0302993573342015
40
0.0302993573342015
40
0.0605987146684031
40
0.0605987146684031
40
0.121197429336806
40
0.121197429336806
40
0.151496786671008
40
0.151496786671008
40
0.18179614400521
40
0.18179614400521
40
0.196945822672311
40
0.196945822672311
40
0.212095501339411
40
0.212095501339411
40
0.242394858673613
40
0.242394858673613
40
0.302993573342017
40
0.302993573342017
40
0.333292930676218
40
0.333292930676218
40
0.348442609343318
40
0.348442609343318
40
0.363592288010418
40
0.363592288010418
40
0.424191002678819
40
0.424191002678819
40
0.45449036001302
40
0.45449036001302
40
0.48478971734722
40
0.48478971734722
40
0.545388432015621
40
0.545388432015621
40
0.575687789349821
40
0.575687789349821
40
0.605987146684021
40
0.605987146684021
40
0.66658586135242
40
0.66658586135242
40
0.681735540019521
40
0.681735540019521
40
0.696885218686621
40
0.696885218686621
40
0.727184576020822
40
0.727184576020822
40
0.757483933355023
40
0.757483933355023
40
0.787783290689224
40
0.787783290689224
40
0.848382005357627
40
0.848382005357627
40
0.878681362691829
40
0.878681362691829
40
0.90898072002603
40
0.90898072002603
40
0.969579434694432
40
0.969579434694432
40
0.999878792028633
40
0.999878792028633
40
1
40
1
40
1
40
1
41
1
10
76.3
20
1.66611611179533
30
0
41
1
10
75.9689965244589
20
1.77532072767332
30
0
41
1
10
75.6381797838879
20
1.88408215615144
30
0
41
1
10
74.9769436347681
20
2.10077929513795
30
0
41
1
10
74.6465610239874
20
2.20881960063096
30
0
41
1
10
73.6555070092543
20
2.53022480377777
30
0
41
1
10
72.9949008238493
20
2.74081502147473
30
0
41
1
10
72.0043011524065
20
3.05173304370604
30
0
41
1
10
71.6741516199145
20
3.15453909157523
30
0
41
1
10
71.0139893869473
20
3.35857651794419
30
0
41
1
10
70.6839886889654
20
3.45983976368231
30
0
41
1
10
70.1890513187797
20
3.61043327177859
30
0
41
1
10
70.024075156377
20
3.66039346748417
30
0
41
1
10
69.6940602984773
20
3.75965716141636
30
0
41
1
10
69.5290264377564
20
3.80897382917263
30
0
41
1
10
69.0338533524218
20
3.95600264086519
30
0
41
1
10
68.7036440323453
20
4.05279772734781
30
0
41
1
10
67.7127707508073
20
4.33961843375607
30
0
41
1
10
67.0518620015141
20
4.52608913340944
30
0
41
1
10
66.0601734889279
20
4.79901824752451
30
0
41
1
10
65.729583766897
20
4.88892643779164
30
0
41
1
10
65.2333296505377
20
5.02137679867724
30
0
41
1
10
65.067853009881
20
5.06513492273649
30
0
41
1
10
64.7370019943674
20
5.1518269010665
30
0
41
1
10
64.5716011980942
20
5.19476845476385
30
0
41
1
10
63.7447277997354
20
5.40748129758785
30
0
41
1
10
63.0836383305993
20
5.57126707177616
30
0
41
1
10
62.0927979233554
20
5.80777488960126
30
0
41
1
10
61.7626687065634
20
5.88511564482405
30
0
41
1
10
61.1025889511588
20
6.03652259960452
30
0
41
1
10
60.7725566410942
20
6.11042299063314
30
0
41
1
10
59.7823032265004
20
6.32641437991774
30
0
41
1
10
59.1220176975951
20
6.46299697556185
30
0
41
1
10
58.1315716119022
20
6.65707036184159
30
0
41
1
10
57.8014239753768
20
6.71996469441794
30
0
41
1
10
57.1411458100573
20
6.84214998680952
30
0
41
1
10
56.8110310876475
20
6.90145939960047
30
0
41
1
10
55.8200948680912
20
7.07297763709673
30
0
41
1
10
55.1588178794527
20
7.17903266690024
30
0
41
1
10
54.331541674263
20
7.30148002190427
30
0
41
1
10
54.166025814034
20
7.32546581737816
30
0
41
1
10
53.8350858074308
20
7.37240299151907
30
0
41
1
10
53.6696635494885
20
7.39535465588347
30
0
41
1
10
53.1735450784343
20
7.4626609205234
30
0
41
1
10
52.8430210028193
20
7.50549281540347
30
0
41
1
10
52.1822365497521
20
7.58684319910648
30
0
41
1
10
51.8518942446204
20
7.62527428812959
30
0
41
1
10
51.1912561486052
20
7.6976464357312
30
0
41
1
10
50.8609744460492
20
7.73160274324985
30
0
41
1
10
49.8702742049762
20
7.82684962493468
30
0
41
1
10
49.2100058338785
20
7.88154090942527
30
0
41
1
10
48.2200620949993
20
7.95033958741456
30
0
41
1
10
47.8901475562761
20
7.97104675055587
30
0
41
1
10
47.2300377653873
20
8.00779400231292
30
0
41
1
10
46.8998840543541
20
8.02386352459172
30
0
41
1
10
45.9091742803575
20
8.06522482360319
30
0
41
1
10
45.248360397904
20
8.08368483871362
30
0
41
1
10
44.2568067056638
20
8.09762795422418
30
0
41
1
10
43.9262620916937
20
8.09997763972686
30
0
41
1
10
43.5942447280302
20
8.09999992970396
30
0
41
1
10
43.5929218302302
20
8.09999998131531
30
0
41
1
10
43.591598927602
20
8.09999999572733
30
0
0
SPLINE
5
CC
100
AcDbEntity
8
1
62
256
6
ByLayer
370
18
48
1
60
0
100
AcDbSpline
70
4
71
3
72
100
73
96
40
0
40
0
40
0
40
0
40
0.0625000000000042
40
0.0625000000000042
40
0.0937500000000063
40
0.0937500000000063
40
0.125000000000008
40
0.125000000000008
40
0.15625000000001
40
0.15625000000001
40
0.187500000000013
40
0.187500000000013
40
0.195312500000013
40
0.195312500000013
40
0.203125000000014
40
0.203125000000014
40
0.218750000000015
40
0.218750000000015
40
0.250000000000018
40
0.250000000000018
40
0.281250000000021
40
0.281250000000021
40
0.296875000000022
40
0.296875000000022
40
0.304687500000023
40
0.304687500000023
40
0.312500000000023
40
0.312500000000023
40
0.343750000000027
40
0.343750000000027
40
0.37500000000003
40
0.37500000000003
40
0.38281250000003
40
0.38281250000003
40
0.390625000000031
40
0.390625000000031
40
0.406250000000032
40
0.406250000000032
40
0.421875000000033
40
0.421875000000033
40
0.429687500000034
40
0.433593750000034
40
0.433593750000034
40
0.437500000000034
40
0.437500000000034
40
0.468750000000033
40
0.468750000000033
40
0.484375000000033
40
0.484375000000033
40
0.492187500000033
40
0.492187500000033
40
0.496093750000033
40
0.496093750000033
40
0.500000000000033
40
0.500000000000033
40
0.531250000000032
40
0.531250000000032
40
0.539062500000032
40
0.542968750000031
40
0.542968750000031
40
0.546875000000031
40
0.546875000000031
40
0.562500000000029
40
0.562500000000029
40
0.593750000000026
40
0.593750000000026
40
0.609375000000025
40
0.609375000000025
40
0.625000000000023
40
0.625000000000023
40
0.65625000000002
40
0.65625000000002
40
0.687500000000017
40
0.687500000000017
40
0.703125000000015
40
0.703125000000015
40
0.718750000000014
40
0.718750000000014
40
0.750000000000013
40
0.750000000000013
40
0.781250000000011
40
0.781250000000011
40
0.812500000000009
40
0.812500000000009
40
0.843750000000008
40
0.843750000000008
40
0.875000000000006
40
0.875000000000006
40
0.906250000000005
40
0.906250000000005
40
0.937500000000003
40
0.937500000000003
40
0.968750000000002
40
0.968750000000002
40
1
40
1
40
1
40
1
41
1
10
10
20
7.50611460150057
30
0
41
1
10
9.59687812093583
20
7.54119770642188
30
0
41
1
10
9.19911445518278
20
7.56819961960318
30
0
41
1
10
8.61070949319893
20
7.5940516903118
30
0
41
1
10
8.41594912939365
20
7.60021225027489
30
0
41
1
10
8.02923612979257
20
7.60697994028138
30
0
41
1
10
7.83728313234491
20
7.60758878632296
30
0
41
1
10
7.4562705993973
20
7.60242158745643
30
0
41
1
10
7.26721053082528
20
7.59664833156859
30
0
41
1
10
6.8921104403114
20
7.57762612224136
30
0
41
1
10
6.70606956135924
20
7.56438189064124
30
0
41
1
10
6.47552322695717
20
7.5422425391981
30
0
41
1
10
6.42951438796234
20
7.53753434073457
30
0
41
1
10
6.33770136017728
20
7.52752940701649
30
0
41
1
10
6.29185501152921
20
7.52222728135081
30
0
41
1
10
6.15502801140806
20
7.50544294588133
30
0
41
1
10
6.06473596095179
20
7.49308386100483
30
0
41
1
10
5.79671007868086
20
7.45223320975089
30
0
41
1
10
5.62181805838219
20
7.41998592654184
30
0
41
1
10
5.28017627245788
20
7.34369513350131
30
0
41
1
10
5.11342133942816
20
7.29966289231959
30
0
41
1
10
4.87005698718571
20
7.22292991115495
30
0
41
1
10
4.79006655502164
20
7.19556510349727
30
0
41
1
10
4.67189684911028
20
7.15152915396408
30
0
41
1
10
4.6328027175648
20
7.13634681988665
30
0
41
1
10
4.55563176705351
20
7.1050895135117
30
0
41
1
10
4.51750602150358
20
7.08899692176081
30
0
41
1
10
4.32922588083716
20
7.006121688246
30
0
41
1
10
4.18608040630235
20
6.93214750531689
30
0
41
1
10
3.91655766464075
20
6.76583117727029
30
0
41
1
10
3.79015355526096
20
6.67352371594728
30
0
41
1
10
3.64456090010356
20
6.54377375605924
30
0
41
1
10
3.61601979700905
20
6.51704876228359
30
0
41
1
10
3.56067760337214
20
6.46247939197144
30
0
41
1
10
3.53383600990298
20
6.43460355664135
30
0
41
1
10
3.45585465429252
20
6.34914164410253
30
0
41
1
10
3.40725420572659
20
6.28972407345287
30
0
41
1
10
3.31720932396542
20
6.16561579372001
30
0
41
1
10
3.27576351567529
20
6.10092615850189
30
0
41
1
10
3.21935739383744
20
5.99956827688024
30
0
41
1
10
3.19259689795675
20
5.94780709275264
30
0
41
1
10
3.16809497941969
20
5.89433841783881
30
0
41
1
10
3.15227444780453
20
5.85830263208297
30
0
41
1
10
3.1446103408403
20
5.84006219717855
30
0
41
1
10
3.07827536922196
20
5.67478215586453
30
0
41
1
10
3.03813479751904
20
5.52048131636946
30
0
41
1
10
3.0065962904676
20
5.27749381487587
30
0
41
1
10
3.00087976406178
20
5.19457047254517
30
0
41
1
10
2.99972334030207
20
5.06718832426338
30
0
41
1
10
3.00057549881001
20
5.02422771868808
30
0
41
1
10
3.0037500454992
20
4.95902016255116
30
0
41
1
10
3.0051272874741
20
4.93712812739187
30
0
41
1
10
3.00849799100809
20
4.89335580182333
30
0
41
1
10
3.01049190688997
20
4.87144971059698
30
0
41
1
10
3.03116869565005
20
4.67411867151765
30
0
41
1
10
3.06886445562284
20
4.49746043297034
30
0
41
1
10
3.13789559955114
20
4.27529231950837
30
0
41
1
10
3.16025714608784
20
4.20854097015589
30
0
41
1
10
3.18505825523371
20
4.1416444242814
30
0
41
1
10
3.20213096524597
20
4.09701514743176
30
0
41
1
10
3.21093564648808
20
4.07468943854391
30
0
41
1
10
3.25605608730137
20
3.96355410577459
30
0
41
1
10
3.29582876382182
20
3.87575928229756
30
0
41
1
10
3.425074764317
20
3.61541534298811
30
0
41
1
10
3.52442445480975
20
3.44589176793031
30
0
41
1
10
3.69018299373352
20
3.19686944215371
30
0
41
1
10
3.7482400059946
20
3.11474362596803
30
0
41
1
10
3.86959511828718
20
2.95216302948734
30
0
41
1
10
3.93226871172357
20
2.87254045446463
30
0
41
1
10
4.12557839125907
20
2.63818284883317
30
0
41
1
10
4.26149290342931
20
2.48791229626241
30
0
41
1
10
4.54483699251327
20
2.19718557110053
30
0
41
1
10
4.69228156807159
20
2.05674187695482
30
0
41
1
10
4.92073860103832
20
1.85231894252723
30
0
41
1
10
4.9981103512271
20
1.78522194229521
30
0
41
1
10
5.15510669389641
20
1.65296030091699
30
0
41
1
10
5.23484046996029
20
1.58771394127552
30
0
41
1
10
5.4754644921851
20
1.395994772206
30
0
41
1
10
5.63824811985415
20
1.27310205785659
30
0
41
1
10
5.96767759644624
20
1.03532327660437
30
0
41
1
10
6.13432624075537
20
0.920443437538665
30
0
41
1
10
6.47081340151945
20
0.697303516123128
30
0
41
1
10
6.64065326271844
20
0.58904656308863
30
0
41
1
10
6.98298237754699
20
0.378057056083776
30
0
41
1
10
7.15547218569668
20
0.275325975490205
30
0
41
1
10
7.50266626979649
20
0.0745200945391957
30
0
41
1
10
7.67737064560077
20
-0.0235541623568736
30
0
41
1
10
8.0286558347247
20
-0.215715043832773
30
0
41
1
10
8.20523650224939
20
-0.309801617748207
30
0
41
1
10
8.56003458538845
20
-0.494463657994714
30
0
41
1
10
8.7382517680953
20
-0.585039253769509
30
0
41
1
10
9.09618780772055
20
-0.762961404444439
30
0
41
1
10
9.27590647569576
20
-0.850308027017235
30
0
41
1
10
9.63682184468161
20
-1.0218559948492
30
0
41
1
10
9.81801850102576
20
-1.10605717347258
30
0
41
1
10
10
20
-1.18862888544103
30
0
0
SPLINE
5
CD
100
AcDbEntity
8
1
62
256
6
ByLayer
370
18
48
1
60
0
100
AcDbSpline
70
4
71
3
72
14
73
10
40
0
40
0
40
0
40
0
40
0.25
40
0.25
40
0.5
40
0.5
40
0.75
40
0.75
40
1
40
1
40
1
40
1
41
1
10
12.8629278275399
20
-2.31514985807371
30
0
41
1
10
12.6197420037219
20
-2.23374652086349
30
0
41
1
10
12.3779654877248
20
-2.14869272488483
30
0
41
1
10
11.8967674411129
20
-1.97225997027289
30
0
41
1
10
11.6573445235534
20
-1.88088463516274
30
0
41
1
10
11.180518764459
20
-1.69249538549929
30
0
41
1
10
10.9431149114411
20
-1.59548442327622
30
0
41
1
10
10.4701611584548
20
-1.39611265550897
30
0
41
1
10
10.2346107996228
20
-1.2937536471955
30
0
41
1
10
10
20
-1.18862888544103
30
0
0
SPLINE
5
CE
100
AcDbEntity
8
1
62
256
6
ByLayer
370
18
48
1
60
0
100
AcDbSpline
70
4
71
4
72
16
73
11
40
0
40
0
40
0
40
0
40
0
40
0.280317644220921
40
0.280317644220921
40
0.280317644220921
40
0.719682355779079
40
0.719682355779079
40
0.719682355779079
40
1
40
1
40
1
40
1
40
1
41
0.996170373546346
10
16.566418905184
20
7.09894096166739
30
0
41
0.994710362314895
10
16.4419606242124
20
6.4327257372453
30
0
41
0.995129156471995
10
16.2445592665357
20
5.60818351793115
30
0
41
1
10
15.9850581525631
20
4.69536268569084
30
0
41
1
10
15.2790483406823
20
2.44844523853962
30
0
41
0.988033871712585
10
14.714673366362
20
0.867415298285013
30
0
41
1
10
14.1502983920416
20
-0.420781203890641
30
0
41
1
10
13.4442885801608
20
-1.76314767795367
30
0
41
0.995129156471995
10
13.1847874661882
20
-2.1696047937603
30
0
41
0.994710362314895
10
12.9873861085115
20
-2.34863151529028
30
0
41
0.996170373546346
10
12.8629278275399
20
-2.31514985807372
30
0
0
SPLINE
5
CF
100
AcDbEntity
8
1
62
256
6
ByLayer
370
18
48
1
60
0
100
AcDbSpline
70
4
71
3
72
23
73
19
40
0
40
0
40
0
40
0
40
0.124999999999995
40
0.124999999999995
40
0.249999999999991
40
0.249999999999991
40
0.374999999999986
40
0.374999999999986
40
0.499999999999982
40
0.499999999999982
40
0.562499999999981
40
0.593749999999982
40
0.593749999999982
40
0.624999999999983
40
0.624999999999983
40
0.749999999999991
40
0.749999999999991
40
1
40
1
40
1
40
1
41
1
10
10
20
7.50611460150057
30
0
41
1
10
10.2793904621404
20
7.51772321113924
30
0
41
1
10
10.5581363401015
20
7.52511731052971
30
0
41
1
10
11.1144413113779
20
7.5325505841067
30
0
41
1
10
11.3919999058149
20
7.53258297566285
30
0
41
1
10
11.9460116123913
20
7.52579594003916
30
0
41
1
10
12.2224643551888
20
7.51897149299379
30
0
41
1
10
12.7743387090213
20
7.49859393911311
30
0
41
1
10
13.0497600375183
20
7.48503646574611
30
0
41
1
10
13.4621764838509
20
7.45956412319728
30
0
41
1
10
13.6682058917801
20
7.44554167727631
30
0
41
1
10
13.8739789309578
20
7.42955986933165
30
0
41
1
10
14.0111053885485
20
7.41846606295098
30
0
41
1
10
14.079671171296
20
7.41269686144827
30
0
41
1
10
14.4219717466518
20
7.38277798307533
30
0
41
1
10
14.6938237153599
20
7.35543942510586
30
0
41
1
10
15.5042392784335
20
7.26314542752877
30
0
41
1
10
16.037679365894
20
7.18788225382349
30
0
41
1
10
16.566418905184
20
7.09894096166744
30
0
0
SPLINE
5
D0
100
AcDbEntity
8
1
62
256
6
ByLayer
370
13
48
1
60
0
100
AcDbSpline
70
4
71
3
72
118
73
114
40
0
40
0
40
0
40
0
40
0.0312500000000001
40
0.0312500000000001
40
0.0468750000000001
40
0.0468750000000001
40
0.0625000000000001
40
0.0625000000000001
40
0.0781250000000002
40
0.0781250000000002
40
0.0937500000000001
40
0.0937500000000001
40
0.109375
40
0.109375
40
0.125
40
0.125
40
0.140625
40
0.140625
40
0.15625
40
0.15625
40
0.171874999999999
40
0.171874999999999
40
0.187499999999999
40
0.187499999999999
40
0.203124999999999
40
0.203124999999999
40
0.218749999999999
40
0.218749999999999
40
0.249999999999999
40
0.249999999999999
40
0.281249999999998
40
0.281249999999998
40
0.296874999999998
40
0.296874999999998
40
0.312499999999998
40
0.312499999999998
40
0.328124999999998
40
0.328124999999998
40
0.343749999999998
40
0.343749999999998
40
0.359374999999998
40
0.359374999999998
40
0.374999999999998
40
0.374999999999998
40
0.390624999999998
40
0.390624999999998
40
0.406249999999998
40
0.406249999999998
40
0.421874999999998
40
0.421874999999998
40
0.437499999999998
40
0.437499999999998
40
0.453124999999998
40
0.453124999999998
40
0.468749999999998
40
0.468749999999998
40
0.499999999999998
40
0.499999999999998
40
0.531249999999998
40
0.531249999999998
40
0.546874999999997
40
0.546874999999997
40
0.562499999999997
40
0.562499999999997
40
0.578124999999997
40
0.578124999999997
40
0.593749999999997
40
0.593749999999997
40
0.609374999999997
40
0.609374999999997
40
0.624999999999997
40
0.624999999999997
40
0.640624999999997
40
0.640624999999997
40
0.656249999999997
40
0.656249999999997
40
0.671874999999997
40
0.671874999999997
40
0.687499999999997
40
0.687499999999997
40
0.703124999999997
40
0.703124999999997
40
0.718749999999997
40
0.718749999999997
40
0.749999999999997
40
0.749999999999997
40
0.781249999999997
40
0.781249999999997
40
0.796874999999997
40
0.796874999999997
40
0.812499999999997
40
0.812499999999997
40
0.828124999999998
40
0.828124999999998
40
0.843749999999998
40
0.843749999999998
40
0.859374999999998
40
0.859374999999998
40
0.874999999999998
40
0.874999999999998
40
0.890624999999999
40
0.890624999999999
40
0.906249999999999
40
0.906249999999999
40
0.921874999999999
40
0.921874999999999
40
0.937499999999999
40
0.937499999999999
40
0.953125
40
0.953125
40
0.96875
40
0.96875
40
1
40
1
40
1
40
1
41
1
10
76.3000004511089
20
8.73099999999999
30
0
41
1
10
76.3939814452079
20
8.73099999999999
30
0
41
1
10
76.487962439307
20
8.68526399458531
30
0
41
1
10
76.6289339304557
20
8.53522678268058
30
0
41
1
10
76.6759244275052
20
8.47169145354323
30
0
41
1
10
76.7699054216043
20
8.31625722426412
30
0
41
1
10
76.8168959186538
20
8.22435357801805
30
0
41
1
10
76.9108769127529
20
8.01160986278035
30
0
41
1
10
76.9578674098025
20
7.89076657029821
30
0
41
1
10
77.0518484039015
20
7.62044895970115
30
0
41
1
10
77.098838900951
20
7.4709735406679
30
0
41
1
10
77.1928198950502
20
7.14464236993027
30
0
41
1
10
77.2398103920997
20
6.96778800881791
30
0
41
1
10
77.3337913861988
20
6.58889175045508
30
0
41
1
10
77.3807818832483
20
6.38685376723754
30
0
41
1
10
77.4747628773474
20
5.96064535729207
30
0
41
1
10
77.521753374397
20
5.73648102402149
30
0
41
1
10
77.6157343684961
20
5.26978548920087
30
0
41
1
10
77.6627248655458
20
5.02726188789387
30
0
41
1
10
77.7567058596447
20
4.52811557443698
30
0
41
1
10
77.8036963566943
20
4.27150109312134
30
0
41
1
10
77.8976773507934
20
3.74870195344121
30
0
41
1
10
77.9446678478431
20
3.48252524482041
30
0
41
1
10
78.0386488419421
20
2.94514554083253
30
0
41
1
10
78.0856393389916
20
2.67394943038465
30
0
41
1
10
78.1796203330907
20
2.13086437626106
30
0
41
1
10
78.2266108301402
20
1.8589807136195
30
0
41
1
10
78.3675823212889
20
1.04819850723499
30
0
41
1
10
78.461563315388
20
0.514479715598014
30
0
41
1
10
78.6495253035862
20
-0.514478480848169
30
0
41
1
10
78.7435062976852
20
-1.04819722024234
30
0
41
1
10
78.8844777888339
20
-1.85897941123849
30
0
41
1
10
78.9314682858835
20
-2.13086307170485
30
0
41
1
10
79.0254492799825
20
-2.67394812813254
30
0
41
1
10
79.0724397770321
20
-2.94514424306257
30
0
41
1
10
79.1664207711311
20
-3.48252396316769
30
0
41
1
10
79.2134112681807
20
-3.74870068342582
30
0
41
1
10
79.3073922622798
20
-4.27149985370073
30
0
41
1
10
79.3543827593293
20
-4.52811435397498
30
0
41
1
10
79.4483637534284
20
-5.0272607124534
30
0
41
1
10
79.495354250478
20
-5.26978433982308
30
0
41
1
10
79.5893352445771
20
-5.73647993326054
30
0
41
1
10
79.6363257416266
20
-5.9606442990835
30
0
41
1
10
79.7303067357258
20
-6.38685277964552
30
0
41
1
10
79.7772972327753
20
-6.58889080092413
30
0
41
1
10
79.8712782268744
20
-6.96778713964659
30
0
41
1
10
79.918268723924
20
-7.14464154305364
30
0
41
1
10
80.0122497180231
20
-7.47097280115466
30
0
41
1
10
80.0592402150726
20
-7.62044826525252
30
0
41
1
10
80.1532212091717
20
-7.89076596722208
30
0
41
1
10
80.2002117062212
20
-8.01160930600832
30
0
41
1
10
80.2941927003203
20
-8.22435311362
30
0
41
1
10
80.3411831973698
20
-8.31625680593297
30
0
41
1
10
80.4351641914689
20
-8.47169112578985
30
0
41
1
10
80.4821546885186
20
-8.53522649943619
30
0
41
1
10
80.6231261796672
20
-8.68526384089517
30
0
41
1
10
80.7171071737663
20
-8.73099992724158
30
0
41
1
10
80.9050691619644
20
-8.73100007275826
30
0
41
1
10
80.9990501560635
20
-8.68526414827528
30
0
41
1
10
81.1400216472122
20
-8.53522706592477
30
0
41
1
10
81.1870121442617
20
-8.47169178129639
30
0
41
1
10
81.2809931383608
20
-8.31625764259508
30
0
41
1
10
81.3279836354104
20
-8.22435404241588
30
0
41
1
10
81.4219646295095
20
-8.01161041955214
30
0
41
1
10
81.468955126559
20
-7.89076717337414
30
0
41
1
10
81.562936120658
20
-7.62044965414955
30
0
41
1
10
81.6099266177076
20
-7.47097428018091
30
0
41
1
10
81.7039076118067
20
-7.14464319680667
30
0
41
1
10
81.7508981088563
20
-6.96778887798902
30
0
41
1
10
81.8448791029552
20
-6.58889269998585
30
0
41
1
10
81.8918696000048
20
-6.38685475482939
30
0
41
1
10
81.985850594104
20
-5.96064641550043
30
0
41
1
10
82.0328410911535
20
-5.73648211478232
30
0
41
1
10
82.1268220852527
20
-5.26978663857852
30
0
41
1
10
82.1738125823022
20
-5.0272630633342
30
0
41
1
10
82.2677935764012
20
-4.52811679489889
30
0
41
1
10
82.3147840734508
20
-4.27150233254184
30
0
41
1
10
82.4087650675499
20
-3.74870322345652
30
0
41
1
10
82.4557555645994
20
-3.48252652647304
30
0
41
1
10
82.5497365586986
20
-2.94514683860245
30
0
41
1
10
82.5967270557481
20
-2.67395073263674
30
0
41
1
10
82.6907080498471
20
-2.13086568081727
30
0
41
1
10
82.7376985468967
20
-1.85898201600051
30
0
41
1
10
82.8786700380454
20
-1.04819979422766
30
0
41
1
10
82.9726510321444
20
-0.514480980485388
30
0
41
1
10
83.1606130203427
20
0.514477276235766
30
0
41
1
10
83.2545940144418
20
1.04819593324976
30
0
41
1
10
83.3955655055904
20
1.85897810885751
30
0
41
1
10
83.44255600264
20
2.13086176714864
30
0
41
1
10
83.5365369967391
20
2.67394682588042
30
0
41
1
10
83.5835274937886
20
2.94514294529256
30
0
41
1
10
83.6775084878877
20
3.48252268151492
30
0
41
1
10
83.7244989849372
20
3.74869941341035
30
0
41
1
10
83.8184799790363
20
4.27149861428006
30
0
41
1
10
83.8654704760859
20
4.5281131335129
30
0
41
1
10
83.9594514701849
20
5.02725953701284
30
0
41
1
10
84.0064419672345
20
5.26978319044517
30
0
41
1
10
84.1004229613336
20
5.73647884249942
30
0
41
1
10
84.1474134583832
20
5.96064324087482
30
0
41
1
10
84.2413944524822
20
6.38685179205331
30
0
41
1
10
84.2883849495317
20
6.58888985139299
30
0
41
1
10
84.3823659436309
20
6.96778627047507
30
0
41
1
10
84.4293564406805
20
7.14464071617681
30
0
41
1
10
84.5233374347796
20
7.47097206164122
30
0
41
1
10
84.5703279318291
20
7.62044757080366
30
0
41
1
10
84.6643089259281
20
7.89076536414572
30
0
41
1
10
84.7112994229777
20
8.01160874923607
30
0
41
1
10
84.8052804170768
20
8.22435264922174
30
0
41
1
10
84.8522709141264
20
8.31625638760161
30
0
41
1
10
84.9462519082255
20
8.47169079803626
30
0
41
1
10
84.9932424052749
20
8.53522621619157
30
0
41
1
10
85.1342138964236
20
8.68526368720481
30
0
41
1
10
85.2281948905227
20
8.73099985448297
30
0
41
1
10
85.3221758846217
20
8.73099999999965
30
0
0
SPLINE
5
D1
100
AcDbEntity
8
1
62
256
6
ByLayer
370
13
48
1
60
0
100
AcDbSpline
70
4
71
3
72
84
73
80
40
0
40
0
40
0
40
0
40
0.0312500000000007
40
0.0312500000000007
40
0.0625000000000013
40
0.0625000000000013
40
0.0937500000000019
40
0.0937500000000019
40
0.125000000000003
40
0.125000000000003
40
0.156250000000003
40
0.156250000000003
40
0.187500000000004
40
0.187500000000004
40
0.203125000000004
40
0.203125000000004
40
0.210937500000004
40
0.210937500000004
40
0.218750000000004
40
0.218750000000004
40
0.250000000000005
40
0.250000000000005
40
0.281250000000006
40
0.281250000000006
40
0.312500000000006
40
0.312500000000006
40
0.343750000000007
40
0.343750000000007
40
0.375000000000008
40
0.375000000000008
40
0.406250000000008
40
0.406250000000008
40
0.437500000000009
40
0.437500000000009
40
0.46875000000001
40
0.46875000000001
40
0.47265625000001
40
0.47265625000001
40
0.47656250000001
40
0.48437500000001
40
0.48437500000001
40
0.500000000000011
40
0.500000000000011
40
0.531250000000012
40
0.531250000000012
40
0.562500000000012
40
0.562500000000012
40
0.593750000000013
40
0.593750000000013
40
0.625000000000014
40
0.625000000000014
40
0.656250000000015
40
0.656250000000015
40
0.687500000000015
40
0.687500000000015
40
0.718750000000016
40
0.718750000000016
40
0.734375000000017
40
0.734375000000017
40
0.738281250000016
40
0.738281250000016
40
0.742187500000016
40
0.750000000000016
40
0.750000000000016
40
0.781250000000014
40
0.781250000000014
40
0.812500000000012
40
0.812500000000012
40
0.84375000000001
40
0.84375000000001
40
0.875000000000008
40
0.875000000000008
40
0.906250000000006
40
0.906250000000006
40
0.937500000000004
40
0.937500000000004
40
0.968750000000002
40
0.968750000000002
40
1
40
1
40
1
40
1
41
1
10
76.3
20
8.26547836232453
30
0
41
1
10
76.3888347567644
20
8.09135717318739
30
0
41
1
10
76.4776695135288
20
7.8654871938156
30
0
41
1
10
76.6553390270574
20
7.3120758853583
30
0
41
1
10
76.7441737838218
20
6.98453181760584
30
0
41
1
10
76.9218432973505
20
6.24154550698316
30
0
41
1
10
77.0106780541149
20
5.82621270590985
30
0
41
1
10
77.1883475676436
20
4.93198218289837
30
0
41
1
10
77.277182324408
20
4.45326960980879
30
0
41
1
10
77.4548518379368
20
3.46256181488982
30
0
41
1
10
77.5436865947011
20
2.95075508840992
30
0
41
1
10
77.7213561082297
20
1.92419353562124
30
0
41
1
10
77.8101908649942
20
1.4095673067126
30
0
41
1
10
77.9434430001406
20
0.65447865539349
30
0
41
1
10
77.9878603785229
20
0.405540477804749
30
0
41
1
10
78.0544864460962
20
0.0381190754722809
30
0
41
1
10
78.0766951352873
20
-0.0829887961412794
30
0
41
1
10
78.1211125136694
20
-0.328419163955573
30
0
41
1
10
78.1433212028605
20
-0.452111036214205
30
0
41
1
10
78.2543646488159
20
-1.07471236514095
30
0
41
1
10
78.3431994055803
20
-1.58632899009959
30
0
41
1
10
78.5208689191091
20
-2.61296443229057
30
0
41
1
10
78.6097036758734
20
-3.12787242276221
30
0
41
1
10
78.7873731894021
20
-4.13161493525919
30
0
41
1
10
78.8762079461665
20
-4.62026983053536
30
0
41
1
10
79.0538774596952
20
-5.54073351923896
30
0
41
1
10
79.1427122164595
20
-5.9723498234012
30
0
41
1
10
79.3203817299882
20
-6.75250087598755
30
0
41
1
10
79.4092164867526
20
-7.1009046176209
30
0
41
1
10
79.5868860002813
20
-7.69806709142836
30
0
41
1
10
79.6757207570457
20
-7.94680372237448
30
0
41
1
10
79.8533902705744
20
-8.3401735675142
30
0
41
1
10
79.9422250273388
20
-8.48488635267634
30
0
41
1
10
80.1198945408676
20
-8.67691302335774
30
0
41
1
10
80.2087292976319
20
-8.72435918865844
30
0
41
1
10
80.3086683989918
20
-8.73109341369354
30
0
41
1
10
80.3197727435873
20
-8.7312005346792
30
0
41
1
10
80.3419814327784
20
-8.73014076634411
30
0
41
1
10
80.375294466565
20
-8.72662633056262
30
0
41
1
10
80.4086075003518
20
-8.71719083647631
30
0
41
1
10
80.475233567925
20
-8.69005722439837
30
0
41
1
10
80.5196509463071
20
-8.66093905128713
30
0
41
1
10
80.6529030814536
20
-8.53793142770863
30
0
41
1
10
80.741737838218
20
-8.40809212876241
30
0
41
1
10
80.9194073517468
20
-8.04483675820072
30
0
41
1
10
81.0082421085111
20
-7.81132979784266
30
0
41
1
10
81.1859116220397
20
-7.24323880551933
30
0
41
1
10
81.2747463788043
20
-6.90866023187601
30
0
41
1
10
81.4524158923329
20
-6.15306706906932
30
0
41
1
10
81.5412506490973
20
-5.73216934334727
30
0
41
1
10
81.718920162626
20
-4.82889092855322
30
0
41
1
10
81.8077549193904
20
-4.34669825103853
30
0
41
1
10
81.985424432919
20
-3.35131680892519
30
0
41
1
10
82.0742591896835
20
-2.83831391859548
30
0
41
1
10
82.2519287032121
20
-1.8114323276954
30
0
41
1
10
82.3407634599765
20
-1.29767639631902
30
0
41
1
10
82.474015595123
20
-0.54507577435561
30
0
41
1
10
82.5184329735053
20
-0.297162461148133
30
0
41
1
10
82.573954696483
20
0.0075414128044713
30
0
41
1
10
82.5850590410785
20
0.0682697555973562
30
0
41
1
10
82.6072677302696
20
0.190574038151368
30
0
41
1
10
82.6405807640563
20
0.374783404562095
30
0
41
1
10
82.6738937978429
20
0.561096084604714
30
0
41
1
10
82.7849372437984
20
1.18604894284806
30
0
41
1
10
82.8737720005627
20
1.69880073794542
30
0
41
1
10
83.0514415140914
20
2.72570555979107
30
0
41
1
10
83.1402762708558
20
3.23974174697616
30
0
41
1
10
83.3179457843845
20
4.23946792669452
30
0
41
1
10
83.4067805411489
20
4.72497500591714
30
0
41
1
10
83.5844500546775
20
5.63699917787338
30
0
41
1
10
83.6732848114419
20
6.06332581105832
30
0
41
1
10
83.8509543249706
20
6.83130986750169
30
0
41
1
10
83.9397890817349
20
7.17284323198985
30
0
41
1
10
84.1174585952637
20
7.75552111604694
30
0
41
1
10
84.2062933520281
20
7.99665189000555
30
0
41
1
10
84.3839628655568
20
8.37495257299722
30
0
41
1
10
84.4727976223212
20
8.51220785647632
30
0
41
1
10
84.6504671358499
20
8.69016465110485
30
0
41
1
10
84.7393018926142
20
8.73099999999999
30
0
41
1
10
84.8281366493786
20
8.73099999999999
30
0
0
SPLINE
5
D2
100
AcDbEntity
8
1
62
256
6
ByLayer
370
13
48
1
60
0
100
AcDbSpline
70
4
71
3
72
84
73
80
40
0
40
0
40
0
40
0
40
0.0312499999999995
40
0.0312499999999995
40
0.062499999999999
40
0.062499999999999
40
0.0937499999999984
40
0.0937499999999984
40
0.124999999999998
40
0.124999999999998
40
0.156249999999997
40
0.156249999999997
40
0.160156249999997
40
0.160156249999997
40
0.164062499999997
40
0.171874999999997
40
0.171874999999997
40
0.187499999999997
40
0.187499999999997
40
0.218749999999996
40
0.218749999999996
40
0.249999999999996
40
0.249999999999996
40
0.281249999999996
40
0.281249999999996
40
0.312499999999996
40
0.312499999999996
40
0.343749999999996
40
0.343749999999996
40
0.374999999999996
40
0.374999999999996
40
0.406249999999996
40
0.406249999999996
40
0.437499999999996
40
0.437499999999996
40
0.441406249999996
40
0.441406249999996
40
0.445312499999996
40
0.453124999999996
40
0.453124999999996
40
0.468749999999996
40
0.468749999999996
40
0.499999999999996
40
0.499999999999996
40
0.531249999999997
40
0.531249999999997
40
0.562499999999998
40
0.562499999999998
40
0.593749999999998
40
0.593749999999998
40
0.624999999999999
40
0.624999999999999
40
0.656249999999999
40
0.656249999999999
40
0.6875
40
0.6875
40
0.71875
40
0.71875
40
0.726562500000001
40
0.726562500000001
40
0.734375000000001
40
0.734375000000001
40
0.75
40
0.75
40
0.78125
40
0.78125
40
0.8125
40
0.8125
40
0.84375
40
0.84375
40
0.875
40
0.875
40
0.90625
40
0.90625
40
0.9375
40
0.9375
40
0.96875
40
0.96875
40
1
40
1
40
1
40
1
41
1
10
76.3000000000001
20
6.77318241436731
30
0
41
1
10
76.3836885100316
20
6.43537619088141
30
0
41
1
10
76.4673770200631
20
6.05746522495485
30
0
41
1
10
76.6347540401261
20
5.24030963958432
30
0
41
1
10
76.7184425501576
20
4.80119516933323
30
0
41
1
10
76.8858195702207
20
3.88620835620588
30
0
41
1
10
76.9695080802522
20
3.41048092901511
30
0
41
1
10
77.1368851003152
20
2.44808812327585
30
0
41
1
10
77.2205736103468
20
1.9615360151268
30
0
41
1
10
77.3879506304099
20
1.00051846056681
30
0
41
1
10
77.4716391404413
20
0.526110130625312
30
0
41
1
10
77.5657887142268
20
0.0091022227065878
30
0
41
1
10
77.5762497779807
20
-0.0480692399687257
30
0
41
1
10
77.5971719054887
20
-0.16316499983165
30
0
41
1
10
77.6285550967505
20
-0.336482806703856
30
0
41
1
10
77.6599382880124
20
-0.511694097616441
30
0
41
1
10
77.722704670536
20
-0.864263061862317
30
0
41
1
10
77.7645489255518
20
-1.10218236052864
30
0
41
1
10
77.8900816905991
20
-1.8211059323713
30
0
41
1
10
77.9737702006306
20
-2.30741453321636
30
0
41
1
10
78.1411472206937
20
-3.27171399759982
30
0
41
1
10
78.2248357307251
20
-3.7495964044906
30
0
41
1
10
78.3922127507882
20
-4.67140404371304
30
0
41
1
10
78.4759012608197
20
-5.11518561515558
30
0
41
1
10
78.6432782808827
20
-5.94388036108825
30
0
41
1
10
78.7269667909143
20
-6.32865973516988
30
0
41
1
10
78.8943438109773
20
-7.01951801627069
30
0
41
1
10
78.9780323210089
20
-7.32551982947027
30
0
41
1
10
79.1454093410719
20
-7.84740175420509
30
0
41
1
10
79.2290978511035
20
-8.06328375016463
30
0
41
1
10
79.3964748711666
20
-8.40309692139229
30
0
41
1
10
79.4801633811981
20
-8.52709643267599
30
0
41
1
10
79.6475404012611
20
-8.68977591246983
30
0
41
1
10
79.7312289112926
20
-8.72855579059254
30
0
41
1
10
79.825378485078
20
-8.73117885056854
30
0
41
1
10
79.835839548832
20
-8.73090722344892
30
0
41
1
10
79.8567616763399
20
-8.72921951902717
30
0
41
1
10
79.8881448676018
20
-8.72496742573333
30
0
41
1
10
79.9195280588635
20
-8.71543202394895
30
0
41
1
10
79.9822944413871
20
-8.689011101852
30
0
41
1
10
80.024138696403
20
-8.66158735650521
30
0
41
1
10
80.1496714614502
20
-8.5477403770287
30
0
41
1
10
80.2333599714818
20
-8.4295122540546
30
0
41
1
10
80.4007369915449
20
-8.10144358639531
30
0
41
1
10
80.4844255015764
20
-7.89153150197487
30
0
41
1
10
80.6518025216394
20
-7.38119328857087
30
0
41
1
10
80.7354910316709
20
-7.08076027005691
30
0
41
1
10
80.9028680517339
20
-6.4000340812515
30
0
41
1
10
80.9865565617655
20
-6.01981321374348
30
0
41
1
10
81.1539335818286
20
-5.19876467447887
30
0
41
1
10
81.2376220918601
20
-4.75806841944458
30
0
41
1
10
81.4049991119231
20
-3.84075476796502
30
0
41
1
10
81.4886876219547
20
-3.3642819186658
30
0
41
1
10
81.6560646420178
20
-2.40120256096495
30
0
41
1
10
81.7397531520492
20
-1.91470774287919
30
0
41
1
10
81.9071301721124
20
-0.954465892061705
30
0
41
1
10
81.9908186821439
20
-0.480774077990361
30
0
41
1
10
82.0954293196833
20
0.0924941679069491
30
0
41
1
10
82.1163514471912
20
0.207631324357493
30
0
41
1
10
82.1581957022069
20
0.439992583178452
30
0
41
1
10
82.1791178297148
20
0.556999259311993
30
0
41
1
10
82.2418842122385
20
0.910114233829773
30
0
41
1
10
82.2837284672543
20
1.14832888182048
30
0
41
1
10
82.4092612323014
20
1.8678969797364
30
0
41
1
10
82.4929497423331
20
2.35431057639758
30
0
41
1
10
82.6603267623962
20
3.31802542014796
30
0
41
1
10
82.7440152724275
20
3.79521658183629
30
0
41
1
10
82.9113922924906
20
4.71480386387674
30
0
41
1
10
82.9950808025221
20
5.15705585551933
30
0
41
1
10
83.1624578225852
20
5.98195090052144
30
0
41
1
10
83.2461463326167
20
6.3644613199248
30
0
41
1
10
83.4135233526798
20
7.05026964440478
30
0
41
1
10
83.4972118627113
20
7.3534928397317
30
0
41
1
10
83.6645888827744
20
7.86960938195978
30
0
41
1
10
83.7482773928059
20
8.08250712353487
30
0
41
1
10
83.915654412869
20
8.41644502022339
30
0
41
1
10
83.9993429229005
20
8.53755513256547
30
0
41
1
10
84.1667199429635
20
8.69478247856691
30
0
41
1
10
84.2504084529951
20
8.73099999999999
30
0
41
1
10
84.3340969630266
20
8.73099999999999
30
0
0
SPLINE
5
D3
100
AcDbEntity
8
1
62
256
6
ByLayer
370
13
48
1
60
0
100
AcDbSpline
70
4
71
3
72
84
73
80
40
0
40
0
40
0
40
0
40
0.0312499999999995
40
0.0312499999999995
40
0.0624999999999989
40
0.0624999999999989
40
0.0937499999999984
40
0.0937499999999984
40
0.101562499999998
40
0.101562499999998
40
0.105468749999998
40
0.105468749999998
40
0.109374999999998
40
0.124999999999998
40
0.124999999999998
40
0.156249999999998
40
0.156249999999998
40
0.187499999999997
40
0.187499999999997
40
0.218749999999997
40
0.218749999999997
40
0.249999999999997
40
0.249999999999997
40
0.281249999999996
40
0.281249999999996
40
0.312499999999996
40
0.312499999999996
40
0.343749999999996
40
0.343749999999996
40
0.374999999999995
40
0.374999999999995
40
0.390624999999995
40
0.390624999999995
40
0.398437499999995
40
0.398437499999995
40
0.406249999999995
40
0.406249999999995
40
0.437499999999995
40
0.437499999999995
40
0.468749999999995
40
0.468749999999995
40
0.499999999999995
40
0.499999999999995
40
0.531249999999996
40
0.531249999999996
40
0.562499999999996
40
0.562499999999996
40
0.593749999999996
40
0.593749999999996
40
0.624999999999996
40
0.624999999999996
40
0.656249999999996
40
0.656249999999996
40
0.687499999999996
40
0.687499999999996
40
0.695312499999996
40
0.699218749999997
40
0.699218749999997
40
0.703124999999997
40
0.703124999999997
40
0.718749999999997
40
0.718749999999997
40
0.749999999999997
40
0.749999999999997
40
0.781249999999997
40
0.781249999999997
40
0.812499999999998
40
0.812499999999998
40
0.843749999999998
40
0.843749999999998
40
0.874999999999998
40
0.874999999999998
40
0.906249999999999
40
0.906249999999999
40
0.937499999999999
40
0.937499999999999
40
0.96875
40
0.96875
40
1
40
1
40
1
40
1
41
1
10
76.3000000000001
20
4.38787692976069
30
0
41
1
10
76.3785422632988
20
3.95963288454786
30
0
41
1
10
76.4570845265974
20
3.5149558264076
30
0
41
1
10
76.6141690531948
20
2.61389099408498
30
0
41
1
10
76.6927113164935
20
2.15758904183798
30
0
41
1
10
76.8497958430909
20
1.25272421912706
30
0
41
1
10
76.9283381063896
20
0.804209615503254
30
0
41
1
10
77.0265159355129
20
0.258071538255848
30
0
41
1
10
77.0461515013376
20
0.149557960507991
30
0
41
1
10
77.0756048500747
20
-0.011995712534997
30
0
41
1
10
77.0854226329869
20
-0.0657119713698364
30
0
41
1
10
77.1050581988116
20
-0.173799066707915
30
0
41
1
10
77.1541471133733
20
-0.444998936220173
30
0
41
1
10
77.203236027935
20
-0.720838389966531
30
0
41
1
10
77.3210494228831
20
-1.38915242870579
30
0
41
1
10
77.3995916861817
20
-1.84321930206227
30
0
41
1
10
77.5566762127792
20
-2.75115448909418
30
0
41
1
10
77.6352184760779
20
-3.20495715712221
30
0
41
1
10
77.7923030026752
20
-4.09182363555331
30
0
41
1
10
77.8708452659739
20
-4.52478975735525
30
0
41
1
10
78.0279297925713
20
-5.34869854982659
30
0
41
1
10
78.10647205587
20
-5.73953561744784
30
0
41
1
10
78.2635565824673
20
-6.46031410418109
30
0
41
1
10
78.342098845766
20
-6.79017405165095
30
0
41
1
10
78.4991833723635
20
-7.37546910006392
30
0
41
1
10
78.5777256356621
20
-7.63087137465993
30
0
41
1
10
78.7348101622595
20
-8.06085928075987
30
0
41
1
10
78.8133524255583
20
-8.23546566054364
30
0
41
1
10
78.9704369521556
20
-8.50478655075784
30
0
41
1
10
79.0489792154543
20
-8.59956060715737
30
0
41
1
10
79.1667926104024
20
-8.68702661856614
30
0
41
1
10
79.2060637420518
20
-8.70710706101406
30
0
41
1
10
79.2649704395257
20
-8.72455557299801
30
0
41
1
10
79.2846060053504
20
-8.72826140720738
30
0
41
1
10
79.3238771369998
20
-8.73162642541644
30
0
41
1
10
79.3435127028244
20
-8.73131141682387
30
0
41
1
10
79.4416905319478
20
-8.71964175750884
30
0
41
1
10
79.5202327952464
20
-8.67757678011839
30
0
41
1
10
79.6773173218439
20
-8.5181380131508
30
0
41
1
10
79.7558595851425
20
-8.40069173081986
30
0
41
1
10
79.9129441117399
20
-8.08503952732937
30
0
41
1
10
79.9914863750386
20
-7.88678299457976
30
0
41
1
10
80.1485709016359
20
-7.41054273673731
30
0
41
1
10
80.2271131649346
20
-7.13255302329168
30
0
41
1
10
80.3841976915321
20
-6.50529246954119
30
0
41
1
10
80.4627399548308
20
-6.1560700641505
30
0
41
1
10
80.6198244814282
20
-5.40158639460191
30
0
41
1
10
80.6983667447269
20
-4.99641676536746
30
0
41
1
10
80.8554512713242
20
-4.14991167070315
30
0
41
1
10
80.9339935346229
20
-3.70868272549015
30
0
41
1
10
81.0910780612203
20
-2.81147041037087
30
0
41
1
10
81.169620324519
20
-2.35557726011169
30
0
41
1
10
81.3267048511164
20
-1.44891979529365
30
0
41
1
10
81.405247114415
20
-0.998209613723077
30
0
41
1
10
81.5034249435384
20
-0.448107594647269
30
0
41
1
10
81.5328782922755
20
-0.284057035540172
30
0
41
1
10
81.5623316410125
20
-0.121707208208505
30
0
41
1
10
81.5819672068371
20
-0.0138753423679248
30
0
41
1
10
81.5917849897495
20
0.039777998557696
30
0
41
1
10
81.6408739043112
20
0.309678210214059
30
0
41
1
10
81.6801450359606
20
0.528792561308109
30
0
41
1
10
81.7979584309086
20
1.1932383410701
30
0
41
1
10
81.8765006942073
20
1.64580385191471
30
0
41
1
10
82.0335852208046
20
2.55349217713686
30
0
41
1
10
82.1121274841033
20
3.0085550485324
30
0
41
1
10
82.2692120107008
20
3.90103732825378
30
0
41
1
10
82.3477542739994
20
4.33836254462526
30
0
41
1
10
82.5048388005968
20
5.17400433210273
30
0
41
1
10
82.5833810638954
20
5.57221449304271
30
0
41
1
10
82.7404655904929
20
6.31020598918539
30
0
41
1
10
82.8190078537916
20
6.64990047898593
30
0
41
1
10
82.976092380389
20
7.2564101084628
30
0
41
1
10
83.0546346436877
20
7.52318453059215
30
0
41
1
10
83.2117191702851
20
7.97637634442495
30
0
41
1
10
83.2902614335837
20
8.16280724400067
30
0
41
1
10
83.4473459601811
20
8.45522563964323
30
0
41
1
10
83.5258882234798
20
8.56126847400009
30
0
41
1
10
83.6829727500772
20
8.69911884611992
30
0
41
1
10
83.7615150133759
20
8.73099999999999
30
0
41
1
10
83.8400572766745
20
8.73099999999999
30
0
0
SPLINE
5
D4
100
AcDbEntity
8
1
62
256
6
ByLayer
370
13
48
1
60
0
100
AcDbSpline
70
4
71
3
72
8
73
4
40
0
40
0
40
0
40
0
40
1
40
1
40
1
40
1
41
1
10
85.1927148054448
20
8.73099999999999
30
0
41
1
10
85.2358684985038
20
8.73099999999999
30
0
41
1
10
85.2790221915629
20
8.72140274561048
30
0
41
1
10
85.3221758846219
20
8.70129520698686
30
0
0
SPLINE
5
D5
100
AcDbEntity
8
1
62
256
6
ByLayer
370
13
48
1
60
0
100
AcDbSpline
70
4
71
3
72
82
73
78
40
0
40
0
40
0
40
0
40
0.03125
40
0.03125
40
0.0390625
40
0.0390625
40
0.046875
40
0.046875
40
0.0625
40
0.0625
40
0.09375
40
0.09375
40
0.125
40
0.125
40
0.15625
40
0.15625
40
0.1875
40
0.1875
40
0.21875
40
0.21875
40
0.25
40
0.25
40
0.28125
40
0.28125
40
0.3125
40
0.3125
40
0.34375
40
0.34375
40
0.359375
40
0.359375
40
0.3671875
40
0.3671875
40
0.375
40
0.375
40
0.40625
40
0.40625
40
0.4375
40
0.4375
40
0.46875
40
0.46875
40
0.5
40
0.5
40
0.53125
40
0.53125
40
0.5625
40
0.5625
40
0.59375
40
0.59375
40
0.625
40
0.625
40
0.65625
40
0.65625
40
0.671875
40
0.671875
40
0.6796875
40
0.6796875
40
0.6875
40
0.6875
40
0.71875
40
0.71875
40
0.75
40
0.75
40
0.78125
40
0.78125
40
0.8125
40
0.8125
40
0.84375
40
0.84375
40
0.875
40
0.875
40
0.90625
40
0.90625
40
0.9375
40
0.9375
40
0.96875
40
0.96875
40
1
40
1
40
1
40
1
41
1
10
76.3
20
1.57401285892036
30
0
41
1
10
76.3733960165659
20
1.15197543550514
30
0
41
1
10
76.4467920331317
20
0.734073369528375
30
0
41
1
10
76.5385370538391
20
0.224558064017884
30
0
41
1
10
76.5568860579805
20
0.123289475683094
30
0
41
1
10
76.5935840662635
20
-0.0778217209053764
30
0
41
1
10
76.611933070405
20
-0.178692905570045
30
0
41
1
10
76.6669800828294
20
-0.483822975261631
30
0
41
1
10
76.7036780911122
20
-0.689837224027372
30
0
41
1
10
76.813772115961
20
-1.31354572030813
30
0
41
1
10
76.8871681325269
20
-1.73700340510027
30
0
41
1
10
77.0339601656587
20
-2.58536954786172
30
0
41
1
10
77.1073561822245
20
-3.01023398934905
30
0
41
1
10
77.2541482153562
20
-3.84490820440999
30
0
41
1
10
77.327544231922
20
-4.25465113780382
30
0
41
1
10
77.4743362650538
20
-5.04164699088895
30
0
41
1
10
77.5477322816196
20
-5.41882383517336
30
0
41
1
10
77.6945243147513
20
-6.12452764363357
30
0
41
1
10
77.7679203313172
20
-6.45298904171119
30
0
41
1
10
77.9147123644489
20
-7.04858123006923
30
0
41
1
10
77.9881083810147
20
-7.31567478635446
30
0
41
1
10
78.1349004141465
20
-7.78093442837229
30
0
41
1
10
78.2082964307124
20
-7.97909959453744
30
0
41
1
10
78.355088463844
20
-8.30458073928858
30
0
41
1
10
78.42848448041
20
-8.43192757201066
30
0
41
1
10
78.5752765135417
20
-8.61904789494793
30
0
41
1
10
78.6486725301075
20
-8.67887072063934
30
0
41
1
10
78.7587665549563
20
-8.72333548425297
30
0
41
1
10
78.7954645632393
20
-8.73063793290987
30
0
41
1
10
78.8505115756637
20
-8.73116130900846
30
0
41
1
10
78.8688605798052
20
-8.72960506864823
30
0
41
1
10
78.9055585880881
20
-8.72288756954507
30
0
41
1
10
78.9239075922295
20
-8.71772590334436
30
0
41
1
10
79.0156526129369
20
-8.68255707967705
30
0
41
1
10
79.0890486295027
20
-8.6243515460593
30
0
41
1
10
79.2358406626345
20
-8.44060576563376
30
0
41
1
10
79.3092366792004
20
-8.31501592045333
30
0
41
1
10
79.4560287123321
20
-7.99307271620043
30
0
41
1
10
79.5294247288979
20
-7.79668785312023
30
0
41
1
10
79.6762167620296
20
-7.33487270747705
30
0
41
1
10
79.7496127785955
20
-7.06944244121121
30
0
41
1
10
79.8964048117272
20
-6.47692056663578
30
0
41
1
10
79.969800828293
20
-6.14986532465485
30
0
41
1
10
80.1165928614247
20
-5.44660510902443
30
0
41
1
10
80.1899888779906
20
-5.07046518024541
30
0
41
1
10
80.3367809111223
20
-4.28511165453026
30
0
41
1
10
80.4101769276882
20
-3.8759741217109
30
0
41
1
10
80.5569689608199
20
-3.04207450278616
30
0
41
1
10
80.6303649773857
20
-2.6173796935602
30
0
41
1
10
80.7771570105175
20
-1.76896316683713
30
0
41
1
10
80.8505530270834
20
-1.34528612743623
30
0
41
1
10
80.9606470519321
20
-0.721016656142126
30
0
41
1
10
80.9973450602151
20
-0.514776955345639
30
0
41
1
10
81.0523920726395
20
-0.209259572022233
30
0
41
1
10
81.0707410767809
20
-0.108059036761574
30
0
41
1
10
81.1074390850638
20
0.0929085424494929
30
0
41
1
10
81.1257880892053
20
0.193971165757688
30
0
41
1
10
81.2175331099127
20
0.702845071787891
30
0
41
1
10
81.2909291264785
20
1.12036603354784
30
0
41
1
10
81.4377211596103
20
1.96403072003838
30
0
41
1
10
81.5111171761761
20
2.39014352559272
30
0
41
1
10
81.6579092093078
20
3.23559710278309
30
0
41
1
10
81.7313052258736
20
3.65488105044727
30
0
41
1
10
81.8780972590054
20
4.46944175294985
30
0
41
1
10
81.9514932755712
20
4.86464469662371
30
0
41
1
10
82.098285308703
20
5.61397210283866
30
0
41
1
10
82.1716813252689
20
5.96802331486847
30
0
41
1
10
82.3184733584005
20
6.62042004087036
30
0
41
1
10
82.3918693749664
20
6.91871276153475
30
0
41
1
10
82.5386614080982
20
7.4493750477003
30
0
41
1
10
82.612057424664
20
7.68172580473191
30
0
41
1
10
82.7588494577957
20
8.075812970127
30
0
41
1
10
82.8322454743616
20
8.23756601269713
30
0
41
1
10
82.9790375074933
20
8.49131879785054
30
0
41
1
10
83.0524335240591
20
8.58336080828812
30
0
41
1
10
83.1992255571909
20
8.70317500752049
30
0
41
1
10
83.2726215737567
20
8.73099999999999
30
0
41
1
10
83.3460175903226
20
8.73099999999999
30
0
0
SPLINE
5
D6
100
AcDbEntity
8
1
62
256
6
ByLayer
370
13
48
1
60
0
100
AcDbSpline
70
4
71
3
72
14
73
10
40
0
40
0
40
0
40
0
40
0.25
40
0.25
40
0.5
40
0.5
40
0.75
40
0.75
40
1
40
1
40
1
40
1
41
1
10
84.6986751190929
20
8.73099999999999
30
0
41
1
10
84.7506335162203
20
8.73099999999999
30
0
41
1
10
84.8025919133478
20
8.71707998607593
30
0
41
1
10
84.9065087076025
20
8.65825816012276
30
0
41
1
10
84.9584671047299
20
8.61334685269139
30
0
41
1
10
85.0623838989848
20
8.49004766683839
30
0
41
1
10
85.1143422961122
20
8.41165078109634
30
0
41
1
10
85.218259090367
20
8.21983262799318
30
0
41
1
10
85.2702174874943
20
8.10640420493147
30
0
41
1
10
85.3221758846217
20
7.97528712320656
30
0
0
SPLINE
5
D7
100
AcDbEntity
8
1
62
256
6
ByLayer
370
13
48
1
60
0
100
AcDbSpline
70
4
71
3
72
78
73
74
40
0
40
0
40
0
40
0
40
0.03125
40
0.03125
40
0.0625000000000001
40
0.0625000000000001
40
0.0937500000000001
40
0.0937500000000001
40
0.125
40
0.125
40
0.15625
40
0.15625
40
0.1875
40
0.1875
40
0.21875
40
0.21875
40
0.25
40
0.25
40
0.28125
40
0.28125
40
0.296875000000001
40
0.296875000000001
40
0.3046875
40
0.3046875
40
0.3125
40
0.3125
40
0.34375
40
0.34375
40
0.375
40
0.375
40
0.40625
40
0.40625
40
0.4375
40
0.4375
40
0.46875
40
0.46875
40
0.5
40
0.5
40
0.53125
40
0.53125
40
0.5625
40
0.5625
40
0.59375
40
0.59375
40
0.625
40
0.625
40
0.640625
40
0.640625
40
0.648437500000001
40
0.648437500000001
40
0.656250000000001
40
0.656250000000001
40
0.687500000000001
40
0.687500000000001
40
0.718750000000001
40
0.718750000000001
40
0.750000000000001
40
0.750000000000001
40
0.781250000000001
40
0.781250000000001
40
0.8125
40
0.8125
40
0.84375
40
0.84375
40
0.875
40
0.875
40
0.90625
40
0.90625
40
0.9375
40
0.9375
40
0.96875
40
0.96875
40
1
40
1
40
1
40
1
41
1
10
76.3000000000001
20
-1.20300651690428
30
0
41
1
10
76.3682497698331
20
-1.59271996407676
30
0
41
1
10
76.4364995396662
20
-1.98769880641521
30
0
41
1
10
76.5729990793321
20
-2.7765328222417
30
0
41
1
10
76.6412488491652
20
-3.17035423032649
30
0
41
1
10
76.7777483888312
20
-3.94340895910978
30
0
41
1
10
76.8459981586642
20
-4.32259453238842
30
0
41
1
10
76.9824976983302
20
-5.05237738497976
30
0
41
1
10
77.0507474681633
20
-5.40292169245169
30
0
41
1
10
77.1872470078294
20
-6.06243563637759
30
0
41
1
10
77.2554967776624
20
-6.37135908805618
30
0
41
1
10
77.3919963173284
20
-6.93719402969825
30
0
41
1
10
77.4602460871615
20
-7.19407706661599
30
0
41
1
10
77.5967456268275
20
-7.6491016354847
30
0
41
1
10
77.6649953966605
20
-7.84723806503769
30
0
41
1
10
77.8014949363265
20
-8.18226619556449
30
0
41
1
10
77.8697447061596
20
-8.31917464620128
30
0
41
1
10
78.0062442458257
20
-8.5332828347718
30
0
41
1
10
78.0744940156587
20
-8.61051404393265
30
0
41
1
10
78.1768686704083
20
-8.68519468513546
30
0
41
1
10
78.2109935553248
20
-8.70324966393309
30
0
41
1
10
78.2621808826996
20
-8.72068749779342
30
0
41
1
10
78.2792433251578
20
-8.72489364081966
30
0
41
1
10
78.3133682100743
20
-8.73020538046717
30
0
41
1
10
78.3304306525326
20
-8.73131274496325
30
0
41
1
10
78.4157428648239
20
-8.729374241572
30
0
41
1
10
78.4839926346569
20
-8.70365098572034
30
0
41
1
10
78.6204921743229
20
-8.59699988987782
30
0
41
1
10
78.6887419441559
20
-8.51603519956475
30
0
41
1
10
78.825241483822
20
-8.2942502486394
30
0
41
1
10
78.893491253655
20
-8.1533991898815
30
0
41
1
10
79.029990793321
20
-7.81051754280259
30
0
41
1
10
79.0982405631542
20
-7.60847144337052
30
0
41
1
10
79.2347401028202
20
-7.14593281174416
30
0
41
1
10
79.3029898726533
20
-6.88544691784196
30
0
41
1
10
79.4394894123192
20
-6.31297430086383
30
0
41
1
10
79.5077391821523
20
-6.00101741750657
30
0
41
1
10
79.6442387218184
20
-5.33621093181898
30
0
41
1
10
79.7124884916514
20
-4.98340831872318
30
0
41
1
10
79.8489880313174
20
-4.24999856468253
30
0
41
1
10
79.9172378011504
20
-3.8694444057125
30
0
41
1
10
80.0537373408165
20
-3.09455395299278
30
0
41
1
10
80.1219871106496
20
-2.70026471603916
30
0
41
1
10
80.2584866503156
20
-1.91131542166397
30
0
41
1
10
80.3267364201486
20
-1.51668805345523
30
0
41
1
10
80.4291110748982
20
-0.933150860905783
30
0
41
1
10
80.4632359598146
20
-0.74002175126364
30
0
41
1
10
80.5144232871894
20
-0.453308655872149
30
0
41
1
10
80.5314857296477
20
-0.358233091577091
30
0
41
1
10
80.5656106145641
20
-0.169207978022939
30
0
41
1
10
80.5826730570224
20
-0.075403113266276
30
0
41
1
10
80.6679852693138
20
0.392019759520224
30
0
41
1
10
80.7362350391468
20
0.775943702252505
30
0
41
1
10
80.8727345788128
20
1.5546927589989
30
0
41
1
10
80.9409843486459
20
1.94950194528548
30
0
41
1
10
81.0774838883119
20
2.73840672569193
30
0
41
1
10
81.1457336581449
20
3.13246909090984
30
0
41
1
10
81.282233197811
20
3.90645608436356
30
0
41
1
10
81.350482967644
20
4.28633330592476
30
0
41
1
10
81.48698250731
20
5.01794381998045
30
0
41
1
10
81.5552322771431
20
5.36962412914482
30
0
41
1
10
81.6917318168091
20
6.03179672334838
30
0
41
1
10
81.7599815866421
20
6.34224241543237
30
0
41
1
10
81.8964811263082
20
6.91140530179155
30
0
41
1
10
81.9647308961412
20
7.17009334656171
30
0
41
1
10
82.1012304358072
20
7.62887987870266
30
0
41
1
10
82.1694802056404
20
7.82897249646049
30
0
41
1
10
82.3059797453064
20
8.16792795729174
30
0
41
1
10
82.3742295151394
20
8.30680693455577
30
0
41
1
10
82.5107290548054
20
8.52475021171927
30
0
41
1
10
82.5789788246386
20
8.60384565127214
30
0
41
1
10
82.7154783643045
20
8.70695209707807
30
0
41
1
10
82.7837281341377
20
8.73099999999999
30
0
41
1
10
82.8519779039706
20
8.73099999999999
30
0
0
SPLINE
5
D8
100
AcDbEntity
8
1
62
256
6
ByLayer
370
13
48
1
60
0
100
AcDbSpline
70
4
71
3
72
20
73
16
40
0
40
0
40
0
40
0
40
0.25
40
0.25
40
0.375
40
0.375
40
0.5
40
0.5
40
0.625
40
0.625
40
0.75
40
0.75
40
0.875
40
0.875
40
1
40
1
40
1
40
1
41
1
10
84.2046354327409
20
8.73099999999999
30
0
41
1
10
84.297763803731
20
8.73099999999999
30
0
41
1
10
84.390892174721
20
8.68609554043667
30
0
41
1
10
84.5305847312061
20
8.53887456832052
30
0
41
1
10
84.5771489167012
20
8.47653754734145
30
0
41
1
10
84.6702772876912
20
8.32403955097365
30
0
41
1
10
84.7168414731863
20
8.233874009895
30
0
41
1
10
84.8099698441764
20
8.02513627297455
30
0
41
1
10
84.8565340296714
20
7.90656093296658
30
0
41
1
10
84.9496624006614
20
7.64126427083394
30
0
41
1
10
84.9962265861566
20
7.49454179477212
30
0
41
1
10
85.0893549571466
20
7.17412145286073
30
0
41
1
10
85.1359191426416
20
7.00042478202849
30
0
41
1
10
85.2290475136317
20
6.62813708422618
30
0
41
1
10
85.2756116991268
20
6.42954965012694
30
0
41
1
10
85.3221758846218
20
6.21997479409183
30
0
0
SPLINE
5
D9
100
AcDbEntity
8
1
62
256
6
ByLayer
370
13
48
1
60
0
100
AcDbSpline
70
4
71
3
72
78
73
74
40
0
40
0
40
0
40
0
40
0.031250000000002
40
0.031250000000002
40
0.062500000000004
40
0.062500000000004
40
0.093750000000006
40
0.093750000000006
40
0.125000000000008
40
0.125000000000008
40
0.15625000000001
40
0.15625000000001
40
0.187500000000012
40
0.187500000000012
40
0.218750000000013
40
0.218750000000013
40
0.250000000000015
40
0.250000000000015
40
0.257812500000015
40
0.257812500000015
40
0.265625000000015
40
0.265625000000015
40
0.281250000000015
40
0.281250000000015
40
0.312500000000015
40
0.312500000000015
40
0.343750000000014
40
0.343750000000014
40
0.375000000000014
40
0.375000000000014
40
0.406250000000014
40
0.406250000000014
40
0.437500000000013
40
0.437500000000013
40
0.468750000000013
40
0.468750000000013
40
0.500000000000013
40
0.500000000000013
40
0.531250000000012
40
0.531250000000012
40
0.562500000000012
40
0.562500000000012
40
0.593750000000012
40
0.593750000000012
40
0.625000000000011
40
0.625000000000011
40
0.632812500000011
40
0.632812500000011
40
0.64062500000001
40
0.64062500000001
40
0.65625000000001
40
0.65625000000001
40
0.687500000000009
40
0.687500000000009
40
0.718750000000008
40
0.718750000000008
40
0.750000000000007
40
0.750000000000007
40
0.781250000000006
40
0.781250000000006
40
0.812500000000005
40
0.812500000000005
40
0.843750000000005
40
0.843750000000005
40
0.875000000000004
40
0.875000000000004
40
0.906250000000003
40
0.906250000000003
40
0.937500000000002
40
0.937500000000002
40
0.968750000000001
40
0.968750000000001
40
1
40
1
40
1
40
1
41
1
10
76.3
20
-4.0314305347647
30
0
41
1
10
76.3631035231002
20
-4.38211228235105
30
0
41
1
10
76.4262070462004
20
-4.72404067118683
30
0
41
1
10
76.5524140924008
20
-5.37955205315973
30
0
41
1
10
76.615517615501
20
-5.69309980182447
30
0
41
1
10
76.7417246617014
20
-6.28207805672736
30
0
41
1
10
76.8048281848015
20
-6.55747983644278
30
0
41
1
10
76.9310352310019
20
-7.06251747210095
30
0
41
1
10
76.9941387541022
20
-7.29213688022662
30
0
41
1
10
77.1203458003025
20
-7.7007818684155
30
0
41
1
10
77.1834493234028
20
-7.87980579122305
30
0
41
1
10
77.3096563696031
20
-8.18553034598406
30
0
41
1
10
77.3727598927033
20
-8.31224278812576
30
0
41
1
10
77.4989669389037
20
-8.51455249816777
30
0
41
1
10
77.5620704620039
20
-8.59017080085161
30
0
41
1
10
77.6882775082043
20
-8.69392679197904
30
0
41
1
10
77.7513810313044
20
-8.72208935945321
30
0
41
1
10
77.8302604351797
20
-8.7309616850834
30
0
41
1
10
77.8460363159547
20
-8.73142919759673
30
0
41
1
10
77.8775880775048
20
-8.72979946260773
30
0
41
1
10
77.8933639582799
20
-8.72768822796823
30
0
41
1
10
77.940691600605
20
-8.71732807122979
30
0
41
1
10
77.9722433621552
20
-8.70505015563097
30
0
41
1
10
78.0668986468054
20
-8.65108392155554
30
0
41
1
10
78.1300021699056
20
-8.59220358922533
30
0
41
1
10
78.2562092161061
20
-8.42437665222917
30
0
41
1
10
78.3193127392062
20
-8.31540709158472
30
0
41
1
10
78.4455197854066
20
-8.04527809444238
30
0
41
1
10
78.5086233085067
20
-7.88410311852493
30
0
41
1
10
78.6348303547072
20
-7.51022534233627
30
0
41
1
10
78.6979338778074
20
-7.29751926700749
30
0
41
1
10
78.8241409240078
20
-6.82432662888289
30
0
41
1
10
78.8872444471079
20
-6.56385154248269
30
0
41
1
10
79.0134514933083
20
-6.00183698504907
30
0
41
1
10
79.0765550164085
20
-5.70032255650594
30
0
41
1
10
79.2027620626089
20
-5.0653579370188
30
0
41
1
10
79.2658655857091
20
-4.73194154234901
30
0
41
1
10
79.3920726319095
20
-4.04380985754557
30
0
41
1
10
79.4551761550097
20
-3.6891302147917
30
0
41
1
10
79.5813832012101
20
-2.96954773198669
30
0
41
1
10
79.6444867243102
20
-2.6046757041334
30
0
41
1
10
79.7706937705106
20
-1.87520138340238
30
0
41
1
10
79.8337972936109
20
-1.51062055705344
30
0
41
1
10
79.9600043398113
20
-0.790839739521545
30
0
41
1
10
80.0231078629114
20
-0.435650357223466
30
0
41
1
10
80.1019872667868
20
-0.0020547981996799
30
0
41
1
10
80.1177631475617
20
0.0841319765996218
30
0
41
1
10
80.1493149091119
20
0.258210839343576
30
0
41
1
10
80.1650907898868
20
0.345749403217979
30
0
41
1
10
80.212418432212
20
0.609706994526732
30
0
41
1
10
80.243970193762
20
0.787471760170831
30
0
41
1
10
80.3386254784124
20
1.32476085433748
30
0
41
1
10
80.4017290015125
20
1.68833365477858
30
0
41
1
10
80.527936047713
20
2.41746148961749
30
0
41
1
10
80.5910395708131
20
2.78299688943247
30
0
41
1
10
80.7172466170135
20
3.50576430464346
30
0
41
1
10
80.7803501401137
20
3.86296686583569
30
0
41
1
10
80.9065571863141
20
4.55803606679208
30
0
41
1
10
80.9696607094143
20
4.89586745236224
30
0
41
1
10
81.0958677556147
20
5.54140404182073
30
0
41
1
10
81.1589712787148
20
5.84907461959563
30
0
41
1
10
81.2851783249153
20
6.42481647102741
30
0
41
1
10
81.3482818480155
20
6.69286078032593
30
0
41
1
10
81.4744888942159
20
7.18214475704809
30
0
41
1
10
81.5375924173161
20
7.4033704349072
30
0
41
1
10
81.6637994635164
20
7.79471184709934
30
0
41
1
10
81.7269029866167
20
7.96482841989157
30
0
41
1
10
81.853110032817
20
8.2527470836834
30
0
41
1
10
81.9162135559172
20
8.37056291865366
30
0
41
1
10
82.0424206021177
20
8.55554688153828
30
0
41
1
10
82.1055241252178
20
8.622737085605
30
0
41
1
10
82.2317311714182
20
8.71045113490433
30
0
41
1
10
82.2948346945184
20
8.73099999999999
30
0
41
1
10
82.3579382176186
20
8.73099999999999
30
0
0
SPLINE
5
DA
100
AcDbEntity
8
1
62
256
6
ByLayer
370
13
48
1
60
0
100
AcDbSpline
70
4
71
3
72
22
73
18
40
0
40
0
40
0
40
0
40
0.125
40
0.125
40
0.25
40
0.25
40
0.375
40
0.375
40
0.5
40
0.5
40
0.625
40
0.625
40
0.75
40
0.75
40
0.875
40
0.875
40
1
40
1
40
1
40
1
41
1
10
83.7105957463889
20
8.73099999999999
30
0
41
1
10
83.7777449188152
20
8.73099999999999
30
0
41
1
10
83.8448940912416
20
8.70772375692502
30
0
41
1
10
83.9791924360943
20
8.60801930829678
30
0
41
1
10
84.0463416085207
20
8.53155705672529
30
0
41
1
10
84.1806399533734
20
8.32090183943239
30
0
41
1
10
84.2477891257998
20
8.18667984600191
30
0
41
1
10
84.3820874706526
20
7.85898712084767
30
0
41
1
10
84.449236643079
20
7.66550065543819
30
0
41
1
10
84.5835349879317
20
7.22152505484397
30
0
41
1
10
84.650684160358
20
6.97103991522286
30
0
41
1
10
84.7849825052108
20
6.41927468952574
30
0
41
1
10
84.8521316776372
20
6.11801986921952
30
0
41
1
10
84.9864300224899
20
5.47444577027457
30
0
41
1
10
85.0535791949163
20
5.13216830114249
30
0
41
1
10
85.187877539769
20
4.41877176294773
30
0
41
1
10
85.2550267121954
20
4.04770146915502
30
0
41
1
10
85.3221758846217
20
3.66886843670466
30
0
0
SPLINE
5
DB
100
AcDbEntity
8
1
62
256
6
ByLayer
370
13
48
1
60
0
100
AcDbSpline
70
4
71
3
72
76
73
72
40
0
40
0
40
0
40
0
40
0.0312499999999999
40
0.0312499999999999
40
0.0624999999999999
40
0.0624999999999999
40
0.0937499999999998
40
0.0937499999999998
40
0.125
40
0.125
40
0.15625
40
0.15625
40
0.1875
40
0.1875
40
0.1953125
40
0.1953125
40
0.203125
40
0.21875
40
0.21875
40
0.249999999999999
40
0.249999999999999
40
0.281249999999999
40
0.281249999999999
40
0.312499999999999
40
0.312499999999999
40
0.343749999999999
40
0.343749999999999
40
0.374999999999999
40
0.374999999999999
40
0.406249999999999
40
0.406249999999999
40
0.437499999999999
40
0.437499999999999
40
0.468749999999999
40
0.468749999999999
40
0.499999999999999
40
0.499999999999999
40
0.531249999999999
40
0.531249999999999
40
0.562499999999999
40
0.562499999999999
40
0.593749999999999
40
0.593749999999999
40
0.601562499999999
40
0.601562499999999
40
0.609374999999999
40
0.624999999999999
40
0.624999999999999
40
0.656249999999999
40
0.656249999999999
40
0.6875
40
0.6875
40
0.71875
40
0.71875
40
0.75
40
0.75
40
0.78125
40
0.78125
40
0.8125
40
0.8125
40
0.84375
40
0.84375
40
0.875
40
0.875
40
0.90625
40
0.90625
40
0.9375
40
0.9375
40
0.96875
40
0.96875
40
1
40
1
40
1
40
1
41
1
10
76.3
20
-6.50409285134674
30
0
41
1
10
76.3579572763674
20
-6.75188383736972
30
0
41
1
10
76.4159145527347
20
-6.98149990430639
30
0
41
1
10
76.5318291054695
20
-7.39968596228496
30
0
41
1
10
76.5897863818368
20
-7.58825026504621
30
0
41
1
10
76.7057009345716
20
-7.92176004953623
30
0
41
1
10
76.7636582109389
20
-8.0667086368266
30
0
41
1
10
76.8795727636736
20
-8.31260400818223
30
0
41
1
10
76.937530040041
20
-8.41356112376704
30
0
41
1
10
77.0534445927757
20
-8.5730712037147
30
0
41
1
10
77.111401869143
20
-8.63163901279219
30
0
41
1
10
77.2273164218777
20
-8.70955989735475
30
0
41
1
10
77.2852736982452
20
-8.72892935377411
30
0
41
1
10
77.3577202937044
20
-8.73132030812079
30
0
41
1
10
77.3722096127963
20
-8.7307192829291
30
0
41
1
10
77.4011882509799
20
-8.72730447037068
30
0
41
1
10
77.4446562082554
20
-8.71885567867648
30
0
41
1
10
77.4881241655309
20
-8.70010637618421
30
0
41
1
10
77.575060080082
20
-8.64809457777815
30
0
41
1
10
77.6330173564493
20
-8.59402692894457
30
0
41
1
10
77.748931909184
20
-8.44379946168641
30
0
41
1
10
77.8068891855514
20
-8.34762448662309
30
0
41
1
10
77.9228037382861
20
-8.11137944879738
30
0
41
1
10
77.9807610146535
20
-7.97129841185227
30
0
41
1
10
78.0966755673882
20
-7.64737783261094
30
0
41
1
10
78.1546328437555
20
-7.4635342836701
30
0
41
1
10
78.2705473964902
20
-7.05439972000195
30
0
41
1
10
78.3285046728576
20
-6.82911340031495
30
0
41
1
10
78.4444192255924
20
-6.34157376218818
30
0
41
1
10
78.5023765019597
20
-6.07933380979989
30
0
41
1
10
78.6182910546945
20
-5.52426382470054
30
0
41
1
10
78.6762483310617
20
-5.2314538424697
30
0
41
1
10
78.7921628837964
20
-4.62300640673354
30
0
41
1
10
78.8501201601638
20
-4.30739223119335
30
0
41
1
10
78.9660347128986
20
-3.66182032996133
30
0
41
1
10
79.0239919892659
20
-3.33188517230602
30
0
41
1
10
79.1399065420006
20
-2.66617360381051
30
0
41
1
10
79.197863818368
20
-2.33041571058573
30
0
41
1
10
79.3137783711027
20
-1.66095105285615
30
0
41
1
10
79.37173564747
20
-1.32725675370372
30
0
41
1
10
79.4876502002048
20
-0.668730652226515
30
0
41
1
10
79.5456074765722
20
-0.343904796763951
30
0
41
1
10
79.6180540720313
20
0.0531798911534906
30
0
41
1
10
79.6325433911232
20
0.132686742209671
30
0
41
1
10
79.6615220293069
20
0.29285840529954
30
0
41
1
10
79.7049899865824
20
0.534357316370006
30
0
41
1
10
79.7484579438579
20
0.779225366473497
30
0
41
1
10
79.835393858409
20
1.27238231416462
30
0
41
1
10
79.8933511347764
20
1.60575357001301
30
0
41
1
10
80.009265687511
20
2.27497825946668
30
0
41
1
10
80.0672229638784
20
2.61081958814441
30
0
41
1
10
80.1831375166132
20
3.27715327363356
30
0
41
1
10
80.2410947929804
20
3.60762740839141
30
0
41
1
10
80.3570093457153
20
4.25475120624699
30
0
41
1
10
80.4149666220826
20
4.57137844739125
30
0
41
1
10
80.5308811748172
20
5.18230727767138
30
0
41
1
10
80.5888384511846
20
5.47658552641937
30
0
41
1
10
80.7047530039194
20
6.03498981001641
30
0
41
1
10
80.7627102802867
20
6.29909551718461
30
0
41
1
10
80.8786248330214
20
6.79067324407973
30
0
41
1
10
80.9365821093888
20
7.01813146092937
30
0
41
1
10
81.0524966621235
20
7.43180250393914
30
0
41
1
10
81.1104539384909
20
7.61801013824928
30
0
41
1
10
81.2263684912256
20
7.94672939028567
30
0
41
1
10
81.284325767593
20
8.08924456671664
30
0
41
1
10
81.4002403203277
20
8.33031249793302
30
0
41
1
10
81.458197596695
20
8.42887590986135
30
0
41
1
10
81.5741121494297
20
8.58373702779974
30
0
41
1
10
81.6320694257971
20
8.64004973908447
30
0
41
1
10
81.7479839785319
20
8.71367303224343
30
0
41
1
10
81.8059412548992
20
8.73099999999999
30
0
41
1
10
81.8638985312666
20
8.73099999999999
30
0
0
SPLINE
5
DC
100
AcDbEntity
8
1
62
256
6
ByLayer
370
13
48
1
60
0
100
AcDbSpline
70
4
71
3
72
22
73
18
40
0
40
0
40
0
40
0
40
0.125
40
0.125
40
0.25
40
0.25
40
0.375
40
0.375
40
0.5
40
0.5
40
0.625
40
0.625
40
0.75
40
0.75
40
0.875
40
0.875
40
1
40
1
40
1
40
1
41
1
10
83.2165560600369
20
8.73099999999999
30
0
41
1
10
83.3042902193945
20
8.73099999999999
30
0
41
1
10
83.3920243787522
20
8.69117596605088
30
0
41
1
10
83.5674926974676
20
8.51776670835773
30
0
41
1
10
83.6552268568254
20
8.38405545305281
30
0
41
1
10
83.8306951755408
20
8.0154805628554
30
0
41
1
10
83.9184293348985
20
7.78053486544457
30
0
41
1
10
84.0938976536139
20
7.21238753480188
30
0
41
1
10
84.1816318129716
20
6.87919483222524
30
0
41
1
10
84.357100131687
20
6.12899665648851
30
0
41
1
10
84.4448342910447
20
5.71210323519995
30
0
41
1
10
84.6203026097602
20
4.81867726450682
30
0
41
1
10
84.7080367691178
20
4.34232182766516
30
0
41
1
10
84.8835050878332
20
3.35934700741538
30
0
41
1
10
84.9712392471911
20
2.85290238006874
30
0
41
1
10
85.1467075659065
20
1.83877961943327
30
0
41
1
10
85.2344417252641
20
1.33121788524116
30
0
41
1
10
85.3221758846218
20
0.835104734517586
30
0
0
SPLINE
5
DD
100
AcDbEntity
8
1
62
256
6
ByLayer
370
13
48
1
60
0
100
AcDbSpline
70
4
71
3
72
78
73
74
40
0
40
0
40
0
40
0
40
0.0312499999999997
40
0.0312499999999997
40
0.0624999999999995
40
0.0624999999999995
40
0.0937499999999992
40
0.0937499999999992
40
0.109374999999999
40
0.109374999999999
40
0.117187499999999
40
0.117187499999999
40
0.124999999999999
40
0.124999999999999
40
0.156249999999999
40
0.156249999999999
40
0.187499999999998
40
0.187499999999998
40
0.218749999999998
40
0.218749999999998
40
0.249999999999997
40
0.249999999999997
40
0.281249999999997
40
0.281249999999997
40
0.312499999999996
40
0.312499999999996
40
0.343749999999996
40
0.343749999999996
40
0.374999999999995
40
0.374999999999995
40
0.406249999999995
40
0.406249999999995
40
0.437499999999994
40
0.437499999999994
40
0.468749999999994
40
0.468749999999994
40
0.499999999999993
40
0.499999999999993
40
0.531249999999993
40
0.531249999999993
40
0.546874999999993
40
0.546874999999993
40
0.554687499999993
40
0.554687499999993
40
0.562499999999993
40
0.562499999999993
40
0.593749999999993
40
0.593749999999993
40
0.624999999999994
40
0.624999999999994
40
0.656249999999994
40
0.656249999999994
40
0.687499999999995
40
0.687499999999995
40
0.718749999999995
40
0.718749999999995
40
0.749999999999996
40
0.749999999999996
40
0.781249999999996
40
0.781249999999996
40
0.812499999999997
40
0.812499999999997
40
0.843749999999997
40
0.843749999999997
40
0.874999999999998
40
0.874999999999998
40
0.906249999999998
40
0.906249999999998
40
0.937499999999999
40
0.937499999999999
40
0.968749999999999
40
0.968749999999999
40
1
40
1
40
1
40
1
41
1
10
76.3000000000001
20
-8.12950362476235
30
0
41
1
10
76.3528110296346
20
-8.24787431236942
30
0
41
1
10
76.4056220592691
20
-8.34796328550613
30
0
41
1
10
76.5112441185382
20
-8.51249013328885
30
0
41
1
10
76.5640551481727
20
-8.57693682410624
30
0
41
1
10
76.6696772074417
20
-8.67227467570473
30
0
41
1
10
76.7224882370762
20
-8.70317601407467
30
0
41
1
10
76.8017047815281
20
-8.72659336841718
30
0
41
1
10
76.8281102963454
20
-8.730582602965
30
0
41
1
10
76.8677185685713
20
-8.73116203797986
30
0
41
1
10
76.8809213259798
20
-8.73045942896948
30
0
41
1
10
76.9073268407971
20
-8.72721153478957
30
0
41
1
10
76.9205295982057
20
-8.7246656693614
30
0
41
1
10
76.9865433852489
20
-8.70719459792758
30
0
41
1
10
77.0393544148834
20
-8.67801734180148
30
0
41
1
10
77.1449764741525
20
-8.58626795471969
30
0
41
1
10
77.197787503787
20
-8.5236856160264
30
0
41
1
10
77.3034095630561
20
-8.36297289138713
30
0
41
1
10
77.3562205926905
20
-8.26483357616689
30
0
41
1
10
77.4618426519596
20
-8.03200763931937
30
0
41
1
10
77.5146536815942
20
-7.89731493671781
30
0
41
1
10
77.6202757408631
20
-7.59176815946648
30
0
41
1
10
77.6730867704977
20
-7.42091223442711
30
0
41
1
10
77.7787088297667
20
-7.0449341212325
30
0
41
1
10
77.8315198594013
20
-6.83981512227041
30
0
41
1
10
77.9371419186704
20
-6.39869747907545
30
0
41
1
10
77.9899529483048
20
-6.1627070061941
30
0
41
1
10
78.0955750075739
20
-5.66455297925111
30
0
41
1
10
78.1483860372084
20
-5.40240158157931
30
0
41
1
10
78.2540080964775
20
-4.85764254944027
30
0
41
1
10
78.306819126112
20
-4.57504931938678
30
0
41
1
10
78.4124411853811
20
-3.99572802319193
30
0
41
1
10
78.4652522150155
20
-3.69901454751644
30
0
41
1
10
78.5708742742846
20
-3.09793567825665
30
0
41
1
10
78.6236853039192
20
-2.79358315750218
30
0
41
1
10
78.7293073631883
20
-2.18345162400237
30
0
41
1
10
78.7821183928228
20
-1.87768240794208
30
0
41
1
10
78.8877404520919
20
-1.27034071595966
30
0
41
1
10
78.9405514817263
20
-0.968774330756673
30
0
41
1
10
79.0197680261782
20
-0.523158035358335
30
0
41
1
10
79.0461735409954
20
-0.375734357298285
30
0
41
1
10
79.0857818132213
20
-0.156651540918347
30
0
41
1
10
79.09898457063
20
-0.0839655723074486
30
0
41
1
10
79.1253900854472
20
0.0606655470282078
30
0
41
1
10
79.1385928428558
20
0.133201184691927
30
0
41
1
10
79.204606629899
20
0.497970655306261
30
0
41
1
10
79.2574176595335
20
0.795341421686146
30
0
41
1
10
79.3630397188026
20
1.39692247765444
30
0
41
1
10
79.415850748437
20
1.70112864051387
30
0
41
1
10
79.5214728077061
20
2.31118579721001
30
0
41
1
10
79.5742838373407
20
2.61702891551016
30
0
41
1
10
79.6799058966097
20
3.22442206295025
30
0
41
1
10
79.7327169262442
20
3.52596071529061
30
0
41
1
10
79.8383389855134
20
4.11835423333343
30
0
41
1
10
79.8911500151478
20
4.4091952038907
30
0
41
1
10
79.9967720744169
20
4.97373353460031
30
0
41
1
10
80.0495831040514
20
5.24741613447492
30
0
41
1
10
80.1552051633204
20
5.77154560999278
30
0
41
1
10
80.208016192955
20
6.0219788963947
30
0
41
1
10
80.3136382522241
20
6.49431869654833
30
0
41
1
10
80.3664492818586
20
6.71621476042031
30
0
41
1
10
80.4720713411276
20
7.12735808661094
30
0
41
1
10
80.524882370762
20
7.31659946656717
30
0
41
1
10
80.6305044300312
20
7.65973024965618
30
0
41
1
10
80.6833154596657
20
7.8136188986648
30
0
41
1
10
80.7889375189348
20
8.08486071815227
30
0
41
1
10
80.8417485485693
20
8.20221788523966
30
0
41
1
10
80.9473706078384
20
8.40068196288644
30
0
41
1
10
81.0001816374729
20
8.48179649494853
30
0
41
1
10
81.1058036967419
20
8.60935003141356
30
0
41
1
10
81.1586147263765
20
8.65579876288388
30
0
41
1
10
81.2642367856455
20
8.71661859686731
30
0
41
1
10
81.3170478152801
20
8.73099999999999
30
0
41
1
10
81.3698588449146
20
8.73099999999999
30
0
0
SPLINE
5
DE
100
AcDbEntity
8
1
62
256
6
ByLayer
370
13
48
1
60
0
100
AcDbSpline
70
4
71
3
72
42
73
38
40
0
40
0
40
0
40
0
40
0.0624999999999999
40
0.0624999999999999
40
0.125
40
0.125
40
0.1875
40
0.1875
40
0.25
40
0.25
40
0.3125
40
0.3125
40
0.374999999999999
40
0.374999999999999
40
0.437499999999999
40
0.437499999999999
40
0.499999999999999
40
0.499999999999999
40
0.562499999999999
40
0.562499999999999
40
0.624999999999999
40
0.624999999999999
40
0.687499999999999
40
0.687499999999999
40
0.749999999999999
40
0.749999999999999
40
0.812499999999999
40
0.812499999999999
40
0.843749999999999
40
0.843749999999999
40
0.859375
40
0.859375
40
0.875
40
0.875
40
0.9375
40
0.9375
40
1
40
1
40
1
40
1
41
1
10
82.7225163736848
20
8.73099999999999
30
0
41
1
10
82.7766759468294
20
8.73099999999999
30
0
41
1
10
82.8308355199738
20
8.7158734058427
30
0
41
1
10
82.9391546662629
20
8.65182214125593
30
0
41
1
10
82.9933142394075
20
8.60288578680624
30
0
41
1
10
83.1016333856965
20
8.46844719925821
30
0
41
1
10
83.155792958841
20
8.38293401486203
30
0
41
1
10
83.26411210513
20
8.17371873807036
30
0
41
1
10
83.3182716782746
20
8.05000826135645
30
0
41
1
10
83.4265908245636
20
7.76421750370156
30
0
41
1
10
83.4807503977081
20
7.60213319555498
30
0
41
1
10
83.5890695439972
20
7.2410488900546
30
0
41
1
10
83.6432291171417
20
7.04205048908062
30
0
41
1
10
83.7515482634307
20
6.61026776827879
30
0
41
1
10
83.8057078365753
20
6.37749098134299
30
0
41
1
10
83.9140269828642
20
5.88282010663258
30
0
41
1
10
83.9681865560088
20
5.62093864781525
30
0
41
1
10
84.0765057022978
20
5.07395907471539
30
0
41
1
10
84.1306652754423
20
4.78887683345087
30
0
41
1
10
84.2389844217314
20
4.20219281959933
30
0
41
1
10
84.2931439948759
20
3.90060775532859
30
0
41
1
10
84.4014631411649
20
3.28791333953544
30
0
41
1
10
84.4556227143095
20
2.97681916824234
30
0
41
1
10
84.5639418605985
20
2.35191268784018
30
0
41
1
10
84.6181014337431
20
2.03811224229594
30
0
41
1
10
84.7264205800321
20
1.41399836750659
30
0
41
1
10
84.7805801531766
20
1.1036925623676
30
0
41
1
10
84.8618195128935
20
0.644830945489218
30
0
41
1
10
84.8888992994657
20
0.492968899292322
30
0
41
1
10
84.929518979324
20
0.267236860346486
30
0
41
1
10
84.9430588726101
20
0.192335825849426
30
0
41
1
10
84.9701386591823
20
0.0432838775455195
30
0
41
1
10
84.9836785524685
20
-0.0306513657111793
30
0
41
1
10
85.0513780188992
20
-0.403068149145412
30
0
41
1
10
85.1055375920437
20
-0.707072979802149
30
0
41
1
10
85.2138567383328
20
-1.32272692591277
30
0
41
1
10
85.2680163114773
20
-1.63437173042419
30
0
41
1
10
85.3221758846218
20
-1.94707300301169
30
0
0
SPLINE
5
DF
100
AcDbEntity
8
1
62
256
6
ByLayer
370
13
48
1
60
0
100
AcDbSpline
70
4
71
3
72
73
73
69
40
0
40
0
40
0
40
0
40
0.0078125
40
0.0078125
40
0.015625
40
0.015625
40
0.03125
40
0.03125
40
0.0625000000000001
40
0.0625000000000001
40
0.0937500000000001
40
0.0937500000000001
40
0.125
40
0.125
40
0.15625
40
0.15625
40
0.1875
40
0.1875
40
0.21875
40
0.21875
40
0.25
40
0.25
40
0.281250000000001
40
0.281250000000001
40
0.312500000000001
40
0.312500000000001
40
0.343750000000001
40
0.343750000000001
40
0.375000000000001
40
0.375000000000001
40
0.406250000000001
40
0.406250000000001
40
0.437500000000001
40
0.437500000000001
40
0.500000000000001
40
0.500000000000001
40
0.507812500000001
40
0.507812500000001
40
0.515625000000001
40
0.53125
40
0.53125
40
0.5625
40
0.5625
40
0.59375
40
0.59375
40
0.625
40
0.625
40
0.65625
40
0.65625
40
0.6875
40
0.6875
40
0.71875
40
0.71875
40
0.75
40
0.75
40
0.78125
40
0.78125
40
0.8125
40
0.8125
40
0.84375
40
0.84375
40
0.875
40
0.875
40
0.90625
40
0.90625
40
0.9375
40
0.9375
40
1
40
1
40
1
40
1
41
1
10
76.3
20
-8.72368963612081
30
0
41
1
10
76.3119161957254
20
-8.72640280582473
30
0
41
1
10
76.3238323914509
20
-8.72834894338877
30
0
41
1
10
76.3476647829018
20
-8.7307463253884
30
0
41
1
10
76.3595809786272
20
-8.73119875827891
30
0
41
1
10
76.3953295658035
20
-8.73036637975545
30
0
41
1
10
76.4191619572542
20
-8.72687098471201
30
0
41
1
10
76.4906591316068
20
-8.70709160194625
30
0
41
1
10
76.5383239145085
20
-8.68149936511688
30
0
41
1
10
76.6336534803119
20
-8.60328614673114
30
0
41
1
10
76.6813182632136
20
-8.55065902267881
30
0
41
1
10
76.776647829017
20
-8.41670306393331
30
0
41
1
10
76.8243126119186
20
-8.33536867240841
30
0
41
1
10
76.919642177722
20
-8.14305941008647
30
0
41
1
10
76.9673069606237
20
-8.03208033534628
30
0
41
1
10
77.062636526427
20
-7.78042657225333
30
0
41
1
10
77.1103013093288
20
-7.63974975564756
30
0
41
1
10
77.2056308751322
20
-7.32962669490269
30
0
41
1
10
77.2532956580339
20
-7.16018092092841
30
0
41
1
10
77.3486252238372
20
-6.79445409184731
30
0
41
1
10
77.396290006739
20
-6.5981762889588
30
0
41
1
10
77.4916195725423
20
-6.18167200570139
30
0
41
1
10
77.539284355444
20
-5.961451327666
30
0
41
1
10
77.6346139212475
20
-5.50076321715554
30
0
41
1
10
77.6822787041491
20
-5.26030350760806
30
0
41
1
10
77.7776082699525
20
-4.76344889518847
30
0
41
1
10
77.8252730528542
20
-4.50706272343555
30
0
41
1
10
77.9206026186576
20
-3.98302582023382
30
0
41
1
10
77.9682674015592
20
-3.71538381309532
30
0
41
1
10
78.0635969673627
20
-3.17359914785141
30
0
41
1
10
78.1112617502644
20
-2.89946428264773
30
0
41
1
10
78.2065913160677
20
-2.3492998857698
30
0
41
1
10
78.2542560989694
20
-2.07327653377013
30
0
41
1
10
78.3972504476745
20
-1.24871861195169
30
0
41
1
10
78.4925800134779
20
-0.704020066914808
30
0
41
1
10
78.5998257750067
20
-0.112143994821281
30
0
41
1
10
78.6117419707322
20
-0.0467623026319757
30
0
41
1
10
78.635574362183
20
0.0838173462651355
30
0
41
1
10
78.6713229493593
20
0.280589160830203
30
0
41
1
10
78.7070715365355
20
0.479882300670511
30
0
41
1
10
78.7785687108881
20
0.88127743033732
30
0
41
1
10
78.8262334937898
20
1.15263854391657
30
0
41
1
10
78.9215630595932
20
1.69946032870269
30
0
41
1
10
78.9692278424949
20
1.97491771999219
30
0
41
1
10
79.0645574082982
20
2.52592269297907
30
0
41
1
10
79.1122221912
20
2.80146496404194
30
0
41
1
10
79.2075517570033
20
3.34818158460084
30
0
41
1
10
79.255216539905
20
3.61934880539144
30
0
41
1
10
79.3505461057084
20
4.15259621091039
30
0
41
1
10
79.3982108886101
20
4.41466799020003
30
0
41
1
10
79.4935404544134
20
4.9249798420503
30
0
41
1
10
79.5412052373151
20
5.17321106201339
30
0
41
1
10
79.6365348031185
20
5.65133391600665
30
0
41
1
10
79.6841995860202
20
5.88121724692456
30
0
41
1
10
79.7795291518236
20
6.31863454460577
30
0
41
1
10
79.8271939347253
20
6.52616174102934
30
0
41
1
10
79.9225235005288
20
6.91558492382694
30
0
41
1
10
79.9701882834303
20
7.09747644941325
30
0
41
1
10
80.0655178492337
20
7.43324559247503
30
0
41
1
10
80.1131826321355
20
7.58712147901036
30
0
41
1
10
80.2085121979388
20
7.86546992036054
30
0
41
1
10
80.2561769808406
20
7.98994347430499
30
0
41
1
10
80.3515065466439
20
8.20910167917845
30
0
41
1
10
80.3991713295457
20
8.30378967560989
30
0
41
1
10
80.4945008953491
20
8.46392805914221
30
0
41
1
10
80.5421656782507
20
8.52938348650949
30
0
41
1
10
80.6851600269558
20
8.68393282237497
30
0
41
1
10
80.7804895927592
20
8.73099999999999
30
0
41
1
10
80.8758191585626
20
8.73099999999999
30
0
0
SPLINE
5
E0
100
AcDbEntity
8
1
62
256
6
ByLayer
370
13
48
1
60
0
100
AcDbSpline
70
4
71
3
72
42
73
38
40
0
40
0
40
0
40
0
40
0.0624999999999991
40
0.0624999999999991
40
0.124999999999998
40
0.124999999999998
40
0.187499999999997
40
0.187499999999997
40
0.249999999999996
40
0.249999999999996
40
0.312499999999995
40
0.312499999999995
40
0.374999999999995
40
0.374999999999995
40
0.437499999999994
40
0.437499999999994
40
0.499999999999993
40
0.499999999999993
40
0.562499999999992
40
0.562499999999992
40
0.624999999999991
40
0.624999999999991
40
0.68749999999999
40
0.68749999999999
40
0.71874999999999
40
0.71874999999999
40
0.73437499999999
40
0.73437499999999
40
0.74999999999999
40
0.74999999999999
40
0.812499999999993
40
0.812499999999993
40
0.874999999999995
40
0.874999999999995
40
0.937499999999998
40
0.937499999999998
40
1
40
1
40
1
40
1
41
1
10
82.2284766873328
20
8.73099999999999
30
0
41
1
10
82.292928753943
20
8.73099999999999
30
0
41
1
10
82.3573808205533
20
8.70956106423145
30
0
41
1
10
82.4862849537736
20
8.61793995135255
30
0
41
1
10
82.5507370203838
20
8.54772998608533
30
0
41
1
10
82.6796411536042
20
8.35438417705694
30
0
41
1
10
82.7440932202144
20
8.23122408045603
30
0
41
1
10
82.8729973534348
20
7.93033310364294
30
0
41
1
10
82.9374494200449
20
7.75258774589861
30
0
41
1
10
83.0663535532652
20
7.34402432841998
30
0
41
1
10
83.1308056198754
20
7.11320672067231
30
0
41
1
10
83.2597097530958
20
6.60336804962648
30
0
41
1
10
83.324161819706
20
6.3243642469657
30
0
41
1
10
83.4530659529264
20
5.72613109712776
30
0
41
1
10
83.5175180195366
20
5.40693319443966
30
0
41
1
10
83.6464221527569
20
4.73865318622882
30
0
41
1
10
83.7108742193672
20
4.38961016585006
30
0
41
1
10
83.8397783525875
20
3.67325842444495
30
0
41
1
10
83.9042304191977
20
3.30598822388461
30
0
41
1
10
84.0331345524181
20
2.56488160863384
30
0
41
1
10
84.0975866190282
20
2.19107606968214
30
0
41
1
10
84.2264907522485
20
1.44761302034982
30
0
41
1
10
84.2909428188589
20
1.07797474623737
30
0
41
1
10
84.3876209187741
20
0.533352213530037
30
0
41
1
10
84.4198469520793
20
0.353435116116941
30
0
41
1
10
84.4681860020369
20
0.0866848234093425
30
0
41
1
10
84.4842990186894
20
-0.0013431859696311
30
0
41
1
10
84.5165250519946
20
-0.178497099343986
30
0
41
1
10
84.5326380686471
20
-0.26761077796354
30
0
41
1
10
84.6132031519098
20
-0.715592977966594
30
0
41
1
10
84.67765521852
20
-1.08178549678911
30
0
41
1
10
84.8065593517404
20
-1.82153186443969
30
0
41
1
10
84.8710114183506
20
-2.19507058468639
30
0
41
1
10
84.9999155515709
20
-2.93933073482063
30
0
41
1
10
85.0643676181811
20
-3.31002487210989
30
0
41
1
10
85.1932717514014
20
-4.0371349605756
30
0
41
1
10
85.2577238180116
20
-4.39351425909973
30
0
41
1
10
85.3221758846218
20
-4.73686974067084
30
0
0
SPLINE
5
E1
100
AcDbEntity
8
1
62
256
6
ByLayer
370
13
48
1
60
0
100
AcDbSpline
70
4
71
3
72
44
73
40
40
0
40
0
40
0
40
0
40
0.0624999999999986
40
0.0624999999999986
40
0.124999999999997
40
0.124999999999997
40
0.187499999999996
40
0.187499999999996
40
0.249999999999995
40
0.249999999999995
40
0.312499999999993
40
0.312499999999993
40
0.374999999999992
40
0.374999999999992
40
0.437499999999991
40
0.437499999999991
40
0.445312499999992
40
0.445312499999992
40
0.453124999999992
40
0.453124999999992
40
0.468749999999992
40
0.468749999999992
40
0.499999999999992
40
0.499999999999992
40
0.562499999999993
40
0.562499999999993
40
0.624999999999994
40
0.624999999999994
40
0.687499999999995
40
0.687499999999995
40
0.749999999999996
40
0.749999999999996
40
0.812499999999997
40
0.812499999999997
40
0.874999999999998
40
0.874999999999998
40
0.937499999999999
40
0.937499999999999
40
1
40
1
40
1
40
1
41
1
10
76.3
20
-8.38331198067922
30
0
41
1
10
76.3850370723378
20
-8.24034491467944
30
0
41
1
10
76.4700741446754
20
-8.05057839137035
30
0
41
1
10
76.6401482893509
20
-7.57640472389627
30
0
41
1
10
76.7251853616887
20
-7.29197053583979
30
0
41
1
10
76.895259506364
20
-6.63728828132474
30
0
41
1
10
76.9802965787018
20
-6.26709968075255
30
0
41
1
10
77.1503707233772
20
-5.45935851417272
30
0
41
1
10
77.235407795715
20
-5.02193835374115
30
0
41
1
10
77.4054819403904
20
-4.10483656995098
30
0
41
1
10
77.4905190127281
20
-3.62531300375727
30
0
41
1
10
77.6605931574036
20
-2.65119846548907
30
0
41
1
10
77.7456302297413
20
-2.15673748045208
30
0
41
1
10
77.9157043744167
20
-1.1775155915719
30
0
41
1
10
78.0007414467544
20
-0.692824807544241
30
0
41
1
10
78.0964081531344
20
-0.163829400500134
30
0
41
1
10
78.1070377871766
20
-0.105274166087582
30
0
41
1
10
78.128297055261
20
0.0113620739496696
30
0
41
1
10
78.1389266893032
20
0.0695115282260019
30
0
41
1
10
78.1708155914299
20
0.245114373784105
30
0
41
1
10
78.1920748595143
20
0.363104705425599
30
0
41
1
10
78.2558526637676
20
0.71946023486754
30
0
41
1
10
78.2983711999364
20
0.960222432468584
30
0
41
1
10
78.425926808443
20
1.68857854959441
30
0
41
1
10
78.5109638807808
20
2.1823972461452
30
0
41
1
10
78.6810380254561
20
3.16349583791737
30
0
41
1
10
78.7660750977939
20
3.65066280113808
30
0
41
1
10
78.9361492424694
20
4.59167399200916
30
0
41
1
10
79.021186314807
20
5.04536385356852
30
0
41
1
10
79.1912604594825
20
5.8931134305914
30
0
41
1
10
79.2762975318202
20
6.28702650517846
30
0
41
1
10
79.4463716764956
20
6.99411509725979
30
0
41
1
10
79.5314087488333
20
7.30720459076093
30
0
41
1
10
79.7014828935088
20
7.84041991788462
30
0
41
1
10
79.7865199658465
20
8.060546405135
30
0
41
1
10
79.956594110522
20
8.40583518227447
30
0
41
1
10
80.0416311828597
20
8.53107143232282
30
0
41
1
10
80.2117053275352
20
8.69359965533548
30
0
41
1
10
80.2967423998728
20
8.73099999999999
30
0
41
1
10
80.3817794722106
20
8.73099999999999
30
0
0
SPLINE
5
E2
100
AcDbEntity
8
1
62
256
6
ByLayer
370
13
48
1
60
0
100
AcDbSpline
70
4
71
3
72
43
73
39
40
0
40
0
40
0
40
0
40
0.0624999999999976
40
0.0624999999999976
40
0.124999999999995
40
0.124999999999995
40
0.187499999999993
40
0.187499999999993
40
0.249999999999991
40
0.249999999999991
40
0.312499999999988
40
0.312499999999988
40
0.374999999999986
40
0.374999999999986
40
0.437499999999983
40
0.437499999999983
40
0.499999999999981
40
0.499999999999981
40
0.562499999999978
40
0.562499999999978
40
0.624999999999976
40
0.624999999999976
40
0.632812499999976
40
0.632812499999976
40
0.640624999999976
40
0.656249999999977
40
0.656249999999977
40
0.687499999999979
40
0.687499999999979
40
0.749999999999983
40
0.749999999999983
40
0.812499999999987
40
0.812499999999987
40
0.874999999999991
40
0.874999999999991
40
0.937499999999996
40
0.937499999999996
40
1
40
1
40
1
40
1
41
1
10
81.7344370009808
20
8.73099999999999
30
0
41
1
10
81.8091815610567
20
8.73099999999999
30
0
41
1
10
81.8839261211326
20
8.70213914153558
30
0
41
1
10
82.0334152412843
20
8.5777276286469
30
0
41
1
10
82.1081598013602
20
8.4821192285585
30
0
41
1
10
82.2576489215118
20
8.21851055702149
30
0
41
1
10
82.3323934815876
20
8.05046476991265
30
0
41
1
10
82.4818826017394
20
7.6412680464438
30
0
41
1
10
82.5566271618152
20
7.40010086006785
30
0
41
1
10
82.706116281967
20
6.84992710273596
30
0
41
1
10
82.7808608420427
20
6.54094409268998
30
0
41
1
10
82.9303499621944
20
5.86630405942773
30
0
41
1
10
83.0050945222704
20
5.5007076783111
30
0
41
1
10
83.154583642422
20
4.72861757655042
30
0
41
1
10
83.2293282024979
20
4.32220521911938
30
0
41
1
10
83.3788173226496
20
3.48666697676541
30
0
41
1
10
83.4535618827255
20
3.05762043446867
30
0
41
1
10
83.6030510028771
20
2.19490507378953
30
0
41
1
10
83.677795562953
20
1.76129465406396
30
0
41
1
10
83.8272846831047
20
0.905318623835598
30
0
41
1
10
83.9020292431806
20
0.482982015403195
30
0
41
1
10
83.9861168732659
20
0.0211029164364618
30
0
41
1
10
83.9954599432755
20
-0.0299540630699937
30
0
41
1
10
84.0141460832945
20
-0.132635619431255
30
0
41
1
10
84.0421752933229
20
-0.287200538962907
30
0
41
1
10
84.0702045033513
20
-0.443302055992717
30
0
41
1
10
84.1262629234081
20
-0.757288979797437
30
0
41
1
10
84.1636352034461
20
-0.968999536501229
30
0
41
1
10
84.2757520435598
20
-1.6088949698148
30
0
41
1
10
84.3504966036357
20
-2.04193999045012
30
0
41
1
10
84.4999857237874
20
-2.90553679099042
30
0
41
1
10
84.5747302838632
20
-3.33603342481166
30
0
41
1
10
84.724219404015
20
-4.17665136799789
30
0
41
1
10
84.7989639640908
20
-4.58669498482632
30
0
41
1
10
84.9484530842425
20
-5.36811492380932
30
0
41
1
10
85.0231976443184
20
-5.73940892293703
30
0
41
1
10
85.1726867644701
20
-6.4271063662338
30
0
41
1
10
85.247431324546
20
-6.74344566368308
30
0
41
1
10
85.3221758846219
20
-7.02640511140436
30
0
0
SPLINE
5
E3
100
AcDbEntity
8
1
62
256
6
ByLayer
370
13
48
1
60
0
100
AcDbSpline
70
4
71
3
72
43
73
39
40
0
40
0
40
0
40
0
40
0.0625000000000011
40
0.0625000000000011
40
0.125000000000002
40
0.125000000000002
40
0.187500000000003
40
0.187500000000003
40
0.250000000000004
40
0.250000000000004
40
0.312500000000005
40
0.312500000000005
40
0.343750000000005
40
0.343750000000005
40
0.359375000000005
40
0.367187500000004
40
0.367187500000004
40
0.375000000000004
40
0.375000000000004
40
0.437500000000004
40
0.437500000000004
40
0.500000000000003
40
0.500000000000003
40
0.562500000000003
40
0.562500000000003
40
0.625000000000002
40
0.625000000000002
40
0.687500000000002
40
0.687500000000002
40
0.750000000000002
40
0.750000000000002
40
0.812500000000001
40
0.812500000000001
40
0.875000000000001
40
0.875000000000001
40
0.9375
40
0.9375
40
1
40
1
40
1
40
1
41
1
10
76.3
20
-7.0264085269153
30
0
41
1
10
76.3747445788721
20
-6.74344927485635
30
0
41
1
10
76.4494891577442
20
-6.42711013783722
30
0
41
1
10
76.5989783154882
20
-5.73941293349523
30
0
41
1
10
76.6737228943603
20
-5.36811901286416
30
0
41
1
10
76.8232120521044
20
-4.58669914900546
30
0
41
1
10
76.8979566309764
20
-4.17665552888386
30
0
41
1
10
77.0474457887205
20
-3.33603750822368
30
0
41
1
10
77.1221903675927
20
-2.90554080036833
30
0
41
1
10
77.2716795253367
20
-2.04194379922177
30
0
41
1
10
77.3464241042088
20
-1.60889865216816
30
0
41
1
10
77.4585409725169
20
-0.969003005555635
30
0
41
1
10
77.4959132619529
20
-0.75729237381222
30
0
41
1
10
77.5519716961069
20
-0.443305333406926
30
0
41
1
10
77.580000913184
20
-0.287203757064873
30
0
41
1
10
77.608030130261
20
-0.132638777034515
30
0
41
1
10
77.626716274979
20
-0.0299571801123477
30
0
41
1
10
77.636059347338
20
0.0210998135030422
30
0
41
1
10
77.7201469985691
20
0.482978962901598
30
0
41
1
10
77.7948915774411
20
0.905315635135338
30
0
41
1
10
77.9443807351852
20
1.76129183089537
30
0
41
1
10
78.0191253140572
20
2.19490235238217
30
0
41
1
10
78.1686144718013
20
3.05761794909603
30
0
41
1
10
78.2433590506733
20
3.48666462564759
30
0
41
1
10
78.3928482084175
20
4.32220315782479
30
0
41
1
10
78.4675927872895
20
4.72861567074762
30
0
41
1
10
78.6170819450336
20
5.50070608924432
30
0
41
1
10
78.6918265239057
20
5.86630263148905
30
0
41
1
10
78.8413156816497
20
6.54094297582742
30
0
41
1
10
78.9160602605218
20
6.84992613570688
30
0
41
1
10
79.065549418266
20
7.40010016685406
30
0
41
1
10
79.1402939971381
20
7.64126747714104
30
0
41
1
10
79.2897831548821
20
8.05046441309989
30
0
41
1
10
79.3645277337542
20
8.21851028878049
30
0
41
1
10
79.5140168914983
20
8.48211909905751
30
0
41
1
10
79.5887614703703
20
8.57772754936036
30
0
41
1
10
79.7382506281144
20
8.70213912696391
30
0
41
1
10
79.8129952069866
20
8.73099999999999
30
0
41
1
10
79.8877397858586
20
8.73099999999999
30
0
0
SPLINE
5
E4
100
AcDbEntity
8
1
62
256
6
ByLayer
370
13
48
1
60
0
100
AcDbSpline
70
4
71
3
72
44
73
40
40
0
40
0
40
0
40
0
40
0.062500000000002
40
0.062500000000002
40
0.125000000000004
40
0.125000000000004
40
0.187500000000006
40
0.187500000000006
40
0.250000000000008
40
0.250000000000008
40
0.31250000000001
40
0.31250000000001
40
0.375000000000012
40
0.375000000000012
40
0.437500000000014
40
0.437500000000014
40
0.500000000000016
40
0.500000000000016
40
0.531250000000017
40
0.531250000000017
40
0.546875000000018
40
0.546875000000018
40
0.554687500000018
40
0.554687500000018
40
0.562500000000018
40
0.562500000000018
40
0.625000000000015
40
0.625000000000015
40
0.687500000000013
40
0.687500000000013
40
0.75000000000001
40
0.75000000000001
40
0.812500000000008
40
0.812500000000008
40
0.875000000000005
40
0.875000000000005
40
0.937500000000003
40
0.937500000000003
40
1
40
1
40
1
40
1
41
1
10
81.2403973146289
20
8.73099999999999
30
0
41
1
10
81.3254343681704
20
8.73099999999999
30
0
41
1
10
81.4104714217119
20
8.69359967195638
30
0
41
1
10
81.580545528795
20
8.5310715234753
30
0
41
1
10
81.6655825823365
20
8.40583533145366
30
0
41
1
10
81.8356566894195
20
8.06054671388191
30
0
41
1
10
81.920693742961
20
7.84042032822867
30
0
41
1
10
82.090767850044
20
7.30720524115171
30
0
41
1
10
82.1758049035856
20
6.9941158860434
30
0
41
1
10
82.3458790106686
20
6.28702759189358
30
0
41
1
10
82.4309160642101
20
5.89311467667992
30
0
41
1
10
82.6009901712932
20
5.04536541821923
30
0
41
1
10
82.6860272248347
20
4.59167571564768
30
0
41
1
10
82.8561013319178
20
3.65066482144073
30
0
41
1
10
82.9411383854592
20
3.1634979957534
30
0
41
1
10
83.1112124925423
20
2.18239964231609
30
0
41
1
10
83.1962495460839
20
1.68858104653188
30
0
41
1
10
83.3238051263961
20
0.960225047818824
30
0
41
1
10
83.3663236531669
20
0.719462884301151
30
0
41
1
10
83.430101443323
20
0.363107397834682
30
0
41
1
10
83.4513607067083
20
0.245117079163805
30
0
41
1
10
83.4832496017864
20
0.0695142510522828
30
0
41
1
10
83.4938792334792
20
0.0113647992669712
30
0
41
1
10
83.5151384968646
20
-0.105271400109189
30
0
41
1
10
83.5257681285572
20
-0.163826614316633
30
0
41
1
10
83.6214348137914
20
-0.692821840849518
30
0
41
1
10
83.7064718673329
20
-1.177512473766
30
0
41
1
10
83.876545974416
20
-2.1567341049784
30
0
41
1
10
83.9615830279574
20
-2.65119498368009
30
0
41
1
10
84.1316571350405
20
-3.62530938021217
30
0
41
1
10
84.216694188582
20
-4.10483291126764
30
0
41
1
10
84.3867682956651
20
-5.02193471479455
30
0
41
1
10
84.4718053492066
20
-5.45935493028239
30
0
41
1
10
84.6418794562896
20
-6.26709630160639
30
0
41
1
10
84.7269165098312
20
-6.6372850518591
30
0
41
1
10
84.8969906169143
20
-7.29196768757021
30
0
41
1
10
84.9820276704558
20
-7.57640210693955
30
0
41
1
10
85.1521017775387
20
-8.05057629191248
30
0
41
1
10
85.2371388310803
20
-8.24034310111409
30
0
41
1
10
85.3221758846218
20
-8.38331046384022
30
0
0
SPLINE
5
E5
100
AcDbEntity
8
1
62
256
6
ByLayer
370
13
48
1
60
0
100
AcDbSpline
70
4
71
3
72
42
73
38
40
0
40
0
40
0
40
0
40
0.0625000000000001
40
0.0625000000000001
40
0.125
40
0.125
40
0.1875
40
0.1875
40
0.25
40
0.25
40
0.265625
40
0.265625
40
0.28125
40
0.28125
40
0.3125
40
0.3125
40
0.375
40
0.375
40
0.4375
40
0.4375
40
0.5
40
0.5
40
0.5625
40
0.5625
40
0.625
40
0.625
40
0.6875
40
0.6875
40
0.75
40
0.75
40
0.8125
40
0.8125
40
0.875
40
0.875
40
0.9375
40
0.9375
40
1
40
1
40
1
40
1
41
1
10
76.3
20
-4.73687454705345
30
0
41
1
10
76.3644520854064
20
-4.39351908673723
30
0
41
1
10
76.4289041708129
20
-4.03713977494704
30
0
41
1
10
76.5578083416256
20
-3.31002959987973
30
0
41
1
10
76.6222604270319
20
-2.93933538933774
30
0
41
1
10
76.7511645978447
20
-2.19507504623075
30
0
41
1
10
76.8156166832511
20
-1.82153620635012
30
0
41
1
10
76.9445208540639
20
-1.08178956845541
30
0
41
1
10
77.0089729394703
20
-0.715596899091651
30
0
41
1
10
77.0895380462283
20
-0.267614500915215
30
0
41
1
10
77.1056510675799
20
-0.1785007821573
30
0
41
1
10
77.1378771102831
20
-0.001346787712464
30
0
41
1
10
77.1539901316347
20
0.0866812329580569
30
0
41
1
10
77.2023291956895
20
0.353431561646175
30
0
41
1
10
77.2345552383926
20
0.533348687120252
30
0
41
1
10
77.3312333665023
20
1.07797131636769
30
0
41
1
10
77.3956854519087
20
1.44760967142884
30
0
41
1
10
77.5245896227214
20
2.19107291410441
30
0
41
1
10
77.5890417081278
20
2.56487856545891
30
0
41
1
10
77.7179458789406
20
3.30598543156509
30
0
41
1
10
77.782397964347
20
3.6732557705601
30
0
41
1
10
77.9113021351597
20
4.3896078058913
30
0
41
1
10
77.975754220566
20
4.73865098171603
30
0
41
1
10
78.1046583913788
20
5.4069313062422
30
0
41
1
10
78.1691104767852
20
5.72612936973562
30
0
41
1
10
78.2980146475981
20
6.32436283402106
30
0
41
1
10
78.3624667330044
20
6.60336679025838
30
0
41
1
10
78.4913709038172
20
7.1132057497712
30
0
41
1
10
78.5558229892235
20
7.34402349236052
30
0
41
1
10
78.6847271600363
20
7.75258715216236
30
0
41
1
10
78.7491792454427
20
7.93033261736824
30
0
41
1
10
78.8780834162554
20
8.23122377698922
30
0
41
1
10
78.9425355016618
20
8.35438394894635
30
0
41
1
10
79.0714396724745
20
8.54772987588248
30
0
41
1
10
79.135891757881
20
8.61793988373259
30
0
41
1
10
79.2647959286938
20
8.70956105169282
30
0
41
1
10
79.3292480141002
20
8.73099999999999
30
0
41
1
10
79.3937000995065
20
8.73099999999999
30
0
0
SPLINE
5
E6
100
AcDbEntity
8
1
62
256
6
ByLayer
370
13
48
1
60
0
100
AcDbSpline
70
4
71
3
72
74
73
70
40
0
40
0
40
0
40
0
40
0.0625
40
0.0625
40
0.09375
40
0.09375
40
0.125
40
0.125
40
0.15625
40
0.15625
40
0.1875
40
0.1875
40
0.21875
40
0.21875
40
0.25
40
0.25
40
0.28125
40
0.28125
40
0.3125
40
0.3125
40
0.34375
40
0.34375
40
0.375
40
0.375
40
0.40625
40
0.40625
40
0.4375
40
0.4375
40
0.46875
40
0.46875
40
0.484375
40
0.484375
40
0.4921875
40
0.4921875
40
0.5
40
0.5
40
0.5625
40
0.5625
40
0.59375
40
0.59375
40
0.625
40
0.625
40
0.65625
40
0.65625
40
0.6875
40
0.6875
40
0.71875
40
0.71875
40
0.75
40
0.75
40
0.78125
40
0.78125
40
0.8125
40
0.8125
40
0.84375
40
0.84375
40
0.875
40
0.875
40
0.90625
40
0.90625
40
0.9375
40
0.9375
40
0.96875
40
0.96875
40
0.984375
40
0.984375
40
0.9921875
40
0.9921875
40
1
40
1
40
1
40
1
41
1
10
80.7463576282768
20
8.73099999999999
30
0
41
1
10
80.841687175284
20
8.73099999999999
30
0
41
1
10
80.9370167222912
20
8.68393284106486
30
0
41
1
10
81.0800110428019
20
8.52938356858235
30
0
41
1
10
81.1276758163057
20
8.46392816818877
30
0
41
1
10
81.2230053633128
20
8.30378985073469
30
0
41
1
10
81.2706701368164
20
8.20910189341191
30
0
41
1
10
81.3659996838235
20
7.98994377861047
30
0
41
1
10
81.4136644573271
20
7.86547027563108
30
0
41
1
10
81.5089940043343
20
7.58712194697222
30
0
41
1
10
81.5566587778379
20
7.43324612216156
30
0
41
1
10
81.6519883248451
20
7.09747711139579
30
0
41
1
10
81.6996530983487
20
6.91558565637573
30
0
41
1
10
81.7949826453559
20
6.52616262092025
30
0
41
1
10
81.8426474188595
20
6.31863550126457
30
0
41
1
10
81.9379769658667
20
5.8812183601668
30
0
41
1
10
81.9856417393703
20
5.65133510905468
30
0
41
1
10
82.0809712863775
20
5.17321241430457
30
0
41
1
10
82.128636059881
20
4.92498127376879
30
0
41
1
10
82.2239656068883
20
4.41466957703807
30
0
41
1
10
82.2716303803918
20
4.15259787343186
30
0
41
1
10
82.366959927399
20
3.61935061251546
30
0
41
1
10
82.4146247009026
20
3.34818346063773
30
0
41
1
10
82.5099542479098
20
2.80146696867936
30
0
41
1
10
82.5576190214134
20
2.525924757301
30
0
41
1
10
82.6529485684206
20
1.97491989271018
30
0
41
1
10
82.7006133419241
20
1.6994625501321
30
0
41
1
10
82.7959428889313
20
1.15264085081157
30
0
41
1
10
82.843607662435
20
0.881279773988894
30
0
41
1
10
82.9151048226903
20
0.479884690296416
30
0
41
1
10
82.9389372094421
20
0.347022610873012
30
0
41
1
10
82.9746857895698
20
0.149410585751212
30
0
41
1
10
82.9866019829458
20
0.083819773909795
30
0
41
1
10
83.0104343696976
20
-0.0467598641909603
30
0
41
1
10
83.0223505630734
20
-0.112141525338529
30
0
41
1
10
83.1295963034565
20
-0.70401741625659
30
0
41
1
10
83.2249258504637
20
-1.24871581026289
30
0
41
1
10
83.3679201709745
20
-2.0732735449902
30
0
41
1
10
83.415584944478
20
-2.34929684124444
30
0
41
1
10
83.5109144914852
20
-2.89946114402324
30
0
41
1
10
83.5585792649889
20
-3.17359597088622
30
0
41
1
10
83.6539088119961
20
-3.71538058061574
30
0
41
1
10
83.7015735854997
20
-3.98302257059342
30
0
41
1
10
83.7969031325068
20
-4.50705946361708
30
0
41
1
10
83.8445679060104
20
-4.76344564236342
30
0
41
1
10
83.9398974530177
20
-5.26030029473014
30
0
41
1
10
83.9875622265212
20
-5.50076003723777
30
0
41
1
10
84.0828917735284
20
-5.96144824002221
30
0
41
1
10
84.1305565470319
20
-6.18166897737223
30
0
41
1
10
84.2258860940391
20
-6.59817340446992
30
0
41
1
10
84.2735508675428
20
-6.79445129187891
30
0
41
1
10
84.3688804145499
20
-7.16017831259813
30
0
41
1
10
84.4165451880536
20
-7.32962419367976
30
0
41
1
10
84.5118747350608
20
-7.63974748738755
30
0
41
1
10
84.5595395085643
20
-7.78042442983519
30
0
41
1
10
84.6548690555715
20
-8.03207845864281
30
0
41
1
10
84.7025338290752
20
-8.14305767324097
30
0
41
1
10
84.7978633760822
20
-8.33536722415971
30
0
41
1
10
84.845528149586
20
-8.41670176440971
30
0
41
1
10
84.9408576965931
20
-8.55065802433884
30
0
41
1
10
84.9885224700967
20
-8.60328530083871
30
0
41
1
10
85.0838520171039
20
-8.68149882308438
30
0
41
1
10
85.1315167906075
20
-8.70709121131875
30
0
41
1
10
85.2030139508629
20
-8.72687081733156
30
0
41
1
10
85.2268463376146
20
-8.73036628615307
30
0
41
1
10
85.2625949177424
20
-8.73119877405927
30
0
41
1
10
85.2745111111183
20
-8.73074637776833
30
0
41
1
10
85.2983434978701
20
-8.72834907110229
30
0
41
1
10
85.310259691246
20
-8.72640297199834
30
0
41
1
10
85.3221758846219
20
-8.72368984154306
30
0
0
SPLINE
5
E7
100
AcDbEntity
8
1
62
256
6
ByLayer
370
13
48
1
60
0
100
AcDbSpline
70
4
71
3
72
41
73
37
40
0
40
0
40
0
40
0
40
0.0624999999999993
40
0.0624999999999993
40
0.124999999999999
40
0.124999999999999
40
0.140624999999998
40
0.140624999999998
40
0.156249999999998
40
0.187499999999998
40
0.187499999999998
40
0.249999999999997
40
0.249999999999997
40
0.312499999999997
40
0.312499999999997
40
0.374999999999998
40
0.374999999999998
40
0.437499999999998
40
0.437499999999998
40
0.499999999999998
40
0.499999999999998
40
0.562499999999998
40
0.562499999999998
40
0.624999999999999
40
0.624999999999999
40
0.687499999999999
40
0.687499999999999
40
0.749999999999999
40
0.749999999999999
40
0.812499999999999
40
0.812499999999999
40
0.875
40
0.875
40
0.9375
40
0.9375
40
1
40
1
40
1
40
1
41
1
10
76.3
20
-1.9470782121478
30
0
41
1
10
76.3541595919408
20
-1.63437681973403
30
0
41
1
10
76.4083191838815
20
-1.32273187951597
30
0
41
1
10
76.5166383677629
20
-0.707077641082265
30
0
41
1
10
76.5707979597037
20
-0.403072653838478
30
0
41
1
10
76.6384974496295
20
-0.0306556679572054
30
0
41
1
10
76.6520373476147
20
0.043279598366297
30
0
41
1
10
76.6791171435851
20
0.192331569776229
30
0
41
1
10
76.7197368375405
20
0.41703365733494
30
0
41
1
10
76.7603565314961
20
0.644826771587503
30
0
41
1
10
76.8415959194072
20
1.10368848875484
30
0
41
1
10
76.8957555113479
20
1.4139943746523
30
0
41
1
10
77.0040746952293
20
2.0381084375469
30
0
41
1
10
77.0582342871701
20
2.35190899044301
30
0
41
1
10
77.1665534710515
20
2.97681570875869
30
0
41
1
10
77.2207130629923
20
3.28791001060796
30
0
41
1
10
77.3290322468736
20
3.90060470514726
30
0
41
1
10
77.3831918388144
20
4.20218991759057
30
0
41
1
10
77.4915110226958
20
4.78887423798966
30
0
41
1
10
77.5456706146366
20
5.07395663760153
30
0
41
1
10
77.6539897985181
20
5.62093652899736
30
0
41
1
10
77.7081493904587
20
5.88281814773012
30
0
41
1
10
77.8164685743402
20
6.37748933503596
30
0
41
1
10
77.8706281662809
20
6.61026627461948
30
0
41
1
10
77.9789473501623
20
7.04204928541887
30
0
41
1
10
78.0331069421031
20
7.24104782371782
30
0
41
1
10
78.1414261259845
20
7.60213238216488
30
0
41
1
10
78.1955857179252
20
7.76421680592006
30
0
41
1
10
78.3039049018066
20
8.05000776892598
30
0
41
1
10
78.3580644937474
20
8.17371833538218
30
0
41
1
10
78.4663836776288
20
8.38293376407248
30
0
41
1
10
78.5205432695695
20
8.46844701063583
30
0
41
1
10
78.6288624534511
20
8.6028856954853
30
0
41
1
10
78.6830220453917
20
8.65182208508708
30
0
41
1
10
78.7913412292731
20
8.71587339532417
30
0
41
1
10
78.8455008212138
20
8.73099999999999
30
0
41
1
10
78.8996604131546
20
8.73099999999999
30
0
0
SPLINE
5
E8
100
AcDbEntity
8
1
62
256
6
ByLayer
370
13
48
1
60
0
100
AcDbSpline
70
4
71
3
72
77
73
73
40
0
40
0
40
0
40
0
40
0.0312500000000017
40
0.0312500000000017
40
0.0625000000000034
40
0.0625000000000034
40
0.0937500000000051
40
0.0937500000000051
40
0.125000000000007
40
0.125000000000007
40
0.156250000000008
40
0.156250000000008
40
0.18750000000001
40
0.18750000000001
40
0.218750000000012
40
0.218750000000012
40
0.250000000000013
40
0.250000000000013
40
0.281250000000015
40
0.281250000000015
40
0.312500000000017
40
0.312500000000017
40
0.343750000000018
40
0.343750000000018
40
0.37500000000002
40
0.37500000000002
40
0.406250000000022
40
0.406250000000022
40
0.437500000000023
40
0.437500000000023
40
0.445312500000023
40
0.445312500000023
40
0.453125000000023
40
0.468750000000023
40
0.468750000000023
40
0.500000000000022
40
0.500000000000022
40
0.53125000000002
40
0.53125000000002
40
0.562500000000019
40
0.562500000000019
40
0.593750000000017
40
0.593750000000017
40
0.625000000000016
40
0.625000000000016
40
0.656250000000015
40
0.656250000000015
40
0.687500000000013
40
0.687500000000013
40
0.718750000000012
40
0.718750000000012
40
0.75000000000001
40
0.75000000000001
40
0.781250000000009
40
0.781250000000009
40
0.812500000000007
40
0.812500000000007
40
0.843750000000006
40
0.843750000000006
40
0.875000000000004
40
0.875000000000004
40
0.882812500000004
40
0.882812500000004
40
0.890625000000004
40
0.890625000000004
40
0.906250000000003
40
0.906250000000003
40
0.937500000000002
40
0.937500000000002
40
0.968750000000001
40
0.968750000000001
40
1
40
1
40
1
40
1
41
1
10
80.2523179419248
20
8.73099999999999
30
0
41
1
10
80.3051289621613
20
8.73099999999999
30
0
41
1
10
80.3579399823977
20
8.71661860199464
30
0
41
1
10
80.4635620228705
20
8.6557987902265
30
0
41
1
10
80.516373043107
20
8.60935007585334
30
0
41
1
10
80.6219950835798
20
8.4817965867031
30
0
41
1
10
80.6748061038162
20
8.40068208486682
30
0
41
1
10
80.7804281442891
20
8.20221808112214
30
0
41
1
10
80.8332391645255
20
8.08486095771622
30
0
41
1
10
80.9388612049985
20
7.81361923833384
30
0
41
1
10
80.9916722252348
20
7.65973064574933
30
0
41
1
10
81.0972942657077
20
7.31659998641251
30
0
41
1
10
81.1501052859441
20
7.12735867377913
30
0
41
1
10
81.2557273264169
20
6.716215490238
30
0
41
1
10
81.3085383466533
20
6.49431950168213
30
0
41
1
10
81.4141603871262
20
6.02197985644179
30
0
41
1
10
81.4669714073627
20
5.77154664962285
30
0
41
1
10
81.5725934478356
20
5.24741733338666
30
0
41
1
10
81.6254044680719
20
4.97373481319556
30
0
41
1
10
81.7310265085448
20
4.40919663781321
30
0
41
1
10
81.7838375287812
20
4.11835574288634
30
0
41
1
10
81.889459569254
20
3.52596236835726
30
0
41
1
10
81.9422705894905
20
3.22442378389101
30
0
41
1
10
82.0478926299634
20
2.61703076153754
30
0
41
1
10
82.1007036501998
20
2.31118770044591
30
0
41
1
10
82.2063256906727
20
1.70113064558291
30
0
41
1
10
82.259136710909
20
1.39692452734917
30
0
41
1
10
82.3647587513819
20
0.795343547161593
30
0
41
1
10
82.4175697716183
20
0.49797281194148
30
0
41
1
10
82.4835835469139
20
0.133203371893131
30
0
41
1
10
82.496786301973
20
0.0606677272587604
30
0
41
1
10
82.5231918120912
20
-0.0839633513162994
30
0
41
1
10
82.5628000772684
20
-0.302020236586998
30
0
41
1
10
82.6024083424459
20
-0.523155694652928
30
0
41
1
10
82.6816248728005
20
-0.968771875113703
30
0
41
1
10
82.7344358930369
20
-1.27033818783076
30
0
41
1
10
82.8400579335097
20
-1.8776797481932
30
0
41
1
10
82.8928689537462
20
-2.18344890513561
30
0
41
1
10
82.998490994219
20
-2.79358033892862
30
0
41
1
10
83.0513020144555
20
-3.09793281911354
30
0
41
1
10
83.1569240549283
20
-3.69901163048047
30
0
41
1
10
83.2097350751648
20
-3.99572508885214
30
0
41
1
10
83.3153571156377
20
-4.5750463773476
30
0
41
1
10
83.368168135874
20
-4.85763961702128
30
0
41
1
10
83.4737901763468
20
-5.40239869737203
30
0
41
1
10
83.5266011965833
20
-5.66455013364379
30
0
41
1
10
83.6322232370561
20
-6.16270426684625
30
0
41
1
10
83.6850342572926
20
-6.39869480738602
30
0
41
1
10
83.7906562977654
20
-6.83981261295625
30
0
41
1
10
83.8434673180019
20
-7.04493170662434
30
0
41
1
10
83.9490893584748
20
-7.42091003238232
30
0
41
1
10
84.0019003787112
20
-7.59176607526072
30
0
41
1
10
84.1075224191841
20
-7.89731310597705
30
0
41
1
10
84.1603334394204
20
-8.03200594418263
30
0
41
1
10
84.2659554798933
20
-8.26483216382368
30
0
41
1
10
84.3187665001297
20
-8.36297162621199
30
0
41
1
10
84.4243885406026
20
-8.52368465040109
30
0
41
1
10
84.477199560839
20
-8.58626714145871
30
0
41
1
10
84.5828216013118
20
-8.67801683253603
30
0
41
1
10
84.6356326215483
20
-8.70719424028181
30
0
41
1
10
84.7016463968438
20
-8.72466549760685
30
0
41
1
10
84.7148491519029
20
-8.72721140003415
30
0
41
1
10
84.7412546620211
20
-8.73045936778544
30
0
41
1
10
84.7544574170803
20
-8.73116201316543
30
0
41
1
10
84.7940656822576
20
-8.73058268785567
30
0
41
1
10
84.8204711923757
20
-8.72659352997167
30
0
41
1
10
84.8996877227304
20
-8.70317641606968
30
0
41
1
10
84.9524987429669
20
-8.6722752519938
30
0
41
1
10
85.0581207834397
20
-8.5769377747589
30
0
41
1
10
85.1109318036761
20
-8.51249128401685
30
0
41
1
10
85.2165538441491
20
-8.3479648576965
30
0
41
1
10
85.2693648643854
20
-8.24787610594282
30
0
41
1
10
85.3221758846217
20
-8.12950564699179
30
0
0
SPLINE
5
E9
100
AcDbEntity
8
1
62
256
6
ByLayer
370
13
48
1
60
0
100
AcDbSpline
70
4
71
3
72
22
73
18
40
0
40
0
40
0
40
0
40
0.125
40
0.125
40
0.249999999999999
40
0.249999999999999
40
0.374999999999999
40
0.374999999999999
40
0.5
40
0.5
40
0.625
40
0.625
40
0.75
40
0.75
40
0.875
40
0.875
40
1
40
1
40
1
40
1
41
1
10
76.3
20
0.835099632719505
30
0
41
1
10
76.3877341969501
20
1.33121291940699
30
0
41
1
10
76.4754683939003
20
1.83877483505304
30
0
41
1
10
76.6509367878004
20
2.85289803927515
30
0
41
1
10
76.7386709847506
20
3.35934292872909
30
0
41
1
10
76.9141393786508
20
4.34231832500657
30
0
41
1
10
77.0018735756008
20
4.81867407548765
30
0
41
1
10
77.1773419695011
20
5.71210068198081
30
0
41
1
10
77.2650761664513
20
6.12899442498301
30
0
41
1
10
77.4405445603514
20
6.87919320638426
30
0
41
1
10
77.5282787573015
20
7.21238619251579
30
0
41
1
10
77.7037471512017
20
7.78053401676837
30
0
41
1
10
77.7914813481518
20
8.01547992407919
30
0
41
1
10
77.9669497420521
20
8.38405514426529
30
0
41
1
10
78.0546839390022
20
8.51776651977218
30
0
41
1
10
78.2301523329024
20
8.69117593172882
30
0
41
1
10
78.3178865298524
20
8.73099999999999
30
0
41
1
10
78.4056207268026
20
8.73099999999999
30
0
0
SPLINE
5
EA
100
AcDbEntity
8
1
62
256
6
ByLayer
370
13
48
1
60
0
100
AcDbSpline
70
4
71
3
72
78
73
74
40
0
40
0
40
0
40
0
40
0.0312500000000015
40
0.0312500000000015
40
0.0625000000000031
40
0.0625000000000031
40
0.0937500000000046
40
0.0937500000000046
40
0.125000000000006
40
0.125000000000006
40
0.156250000000008
40
0.156250000000008
40
0.187500000000009
40
0.187500000000009
40
0.218750000000011
40
0.218750000000011
40
0.250000000000013
40
0.250000000000013
40
0.281250000000014
40
0.281250000000014
40
0.312500000000016
40
0.312500000000016
40
0.343750000000017
40
0.343750000000017
40
0.375000000000019
40
0.375000000000019
40
0.39062500000002
40
0.39062500000002
40
0.39843750000002
40
0.39843750000002
40
0.406250000000021
40
0.406250000000021
40
0.43750000000002
40
0.43750000000002
40
0.46875000000002
40
0.46875000000002
40
0.50000000000002
40
0.50000000000002
40
0.53125000000002
40
0.53125000000002
40
0.562500000000019
40
0.562500000000019
40
0.593750000000019
40
0.593750000000019
40
0.625000000000018
40
0.625000000000018
40
0.656250000000018
40
0.656250000000018
40
0.687500000000018
40
0.687500000000018
40
0.718750000000017
40
0.718750000000017
40
0.750000000000017
40
0.750000000000017
40
0.781250000000017
40
0.781250000000017
40
0.796875000000017
40
0.796875000000017
40
0.804687500000016
40
0.804687500000016
40
0.812500000000016
40
0.812500000000016
40
0.843750000000013
40
0.843750000000013
40
0.875000000000011
40
0.875000000000011
40
0.906250000000008
40
0.906250000000008
40
0.937500000000005
40
0.937500000000005
40
0.968750000000003
40
0.968750000000003
40
1
40
1
40
1
40
1
41
1
10
79.7582782555729
20
8.73099999999999
30
0
41
1
10
79.8162355225421
20
8.73099999999999
30
0
41
1
10
79.8741927895113
20
8.71367303787471
30
0
41
1
10
79.9901073234498
20
8.6400497692685
30
0
41
1
10
80.0480645904191
20
8.5837370769184
30
0
41
1
10
80.1639791243576
20
8.42887601141229
30
0
41
1
10
80.221936391327
20
8.33031263299281
30
0
41
1
10
80.3378509252655
20
8.08924478347157
30
0
41
1
10
80.3958081922347
20
7.94672965523267
30
0
41
1
10
80.5117227261732
20
7.61801051294643
30
0
41
1
10
80.5696799931425
20
7.43180294019191
30
0
41
1
10
80.685594527081
20
7.01813203086292
30
0
41
1
10
80.7435517940502
20
6.79067388612688
30
0
41
1
10
80.8594663279887
20
6.29909630995525
30
0
41
1
10
80.917423594958
20
6.0349906813781
30
0
41
1
10
81.0333381288966
20
5.47658655657415
30
0
41
1
10
81.0912953958658
20
5.18230838800616
30
0
41
1
10
81.2072099298043
20
4.57137971462979
30
0
41
1
10
81.2651671967735
20
4.25475255018912
30
0
41
1
10
81.381081730712
20
3.60762889768819
30
0
41
1
10
81.4390389976813
20
3.27715483156732
30
0
41
1
10
81.5549535316198
20
2.61082127170374
30
0
41
1
10
81.6129107985892
20
2.27498000000864
30
0
41
1
10
81.7288253325277
20
1.60575541058364
30
0
41
1
10
81.786782599497
20
1.27238419778311
30
0
41
1
10
81.8737184999508
20
0.779227303518979
30
0
41
1
10
81.9026971334355
20
0.615981952745244
30
0
41
1
10
81.9461650836624
20
0.373360471823133
30
0
41
1
10
81.9606544004047
20
0.292860386075802
30
0
41
1
10
81.9896330338894
20
0.132688735262775
30
0
41
1
10
82.0041223506316
20
0.053181879746603
30
0
41
1
10
82.0765689343432
20
-0.34390270637104
30
0
41
1
10
82.1345262013125
20
-0.668728483039985
30
0
41
1
10
82.250440735251
20
-1.32725443797389
30
0
41
1
10
82.3083980022203
20
-1.66094866939576
30
0
41
1
10
82.4243125361589
20
-2.33041320895978
30
0
41
1
10
82.4822698031281
20
-2.66617105177556
30
0
41
1
10
82.5981843370665
20
-3.33188254279412
30
0
41
1
10
82.6561416040358
20
-3.66181767341024
30
0
41
1
10
82.7720561379743
20
-4.30738954890452
30
0
41
1
10
82.8300134049437
20
-4.62300372577147
30
0
41
1
10
82.9459279388822
20
-5.23145119561906
30
0
41
1
10
83.0038852058515
20
-5.52426121064971
30
0
41
1
10
83.11979973979
20
-6.0793312934091
30
0
41
1
10
83.1777570067592
20
-6.34157131065803
30
0
41
1
10
83.2936715406977
20
-6.82911110840561
30
0
41
1
10
83.351628807667
20
-7.05439752283775
30
0
41
1
10
83.4675433416055
20
-7.46353230119365
30
0
41
1
10
83.5255006085748
20
-7.64737597005018
30
0
41
1
10
83.6414151425133
20
-7.971296807725
30
0
41
1
10
83.6993724094825
20
-8.11137798315588
30
0
41
1
10
83.815286943421
20
-8.34762330897854
30
0
41
1
10
83.8732442103903
20
-8.44379843352306
30
0
41
1
10
83.989158744329
20
-8.59402620316931
30
0
41
1
10
84.047116011298
20
-8.64809400488716
30
0
41
1
10
84.1340519117521
20
-8.70010603007776
30
0
41
1
10
84.1630305452366
20
-8.71260564025204
30
0
41
1
10
84.2064984954635
20
-8.72448773616748
30
0
41
1
10
84.2209878122059
20
-8.72730434804842
30
0
41
1
10
84.2499664456905
20
-8.73071923414659
30
0
41
1
10
84.2644557624328
20
-8.73132029550769
30
0
41
1
10
84.3369023461444
20
-8.72892952518637
30
0
41
1
10
84.3948596131137
20
-8.70956023155233
30
0
41
1
10
84.5107741470521
20
-8.63163970205258
30
0
41
1
10
84.5687314140215
20
-8.57307208526515
30
0
41
1
10
84.68464594796
20
-8.41356241491263
30
0
41
1
10
84.7426032149292
20
-8.31260551663135
30
0
41
1
10
84.8585177488677
20
-8.06671059735368
30
0
41
1
10
84.916475015837
20
-7.9217622448179
30
0
41
1
10
85.0323895497754
20
-7.58825293700602
30
0
41
1
10
85.0903468167447
20
-7.39968887613048
30
0
41
1
10
85.2062613506832
20
-6.98150329690222
30
0
41
1
10
85.2642186176525
20
-6.75188746678023
30
0
41
1
10
85.3221758846217
20
-6.5040967086932
30
0
0
SPLINE
5
EB
100
AcDbEntity
8
1
62
256
6
ByLayer
370
13
48
1
60
0
100
AcDbSpline
70
4
71
3
72
22
73
18
40
0
40
0
40
0
40
0
40
0.125
40
0.125
40
0.25
40
0.25
40
0.375
40
0.375
40
0.5
40
0.5
40
0.625
40
0.625
40
0.75
40
0.75
40
0.875
40
0.875
40
1
40
1
40
1
40
1
41
1
10
76.3
20
3.66886334669627
30
0
41
1
10
76.3671492100188
20
4.04769666068833
30
0
41
1
10
76.4342984200375
20
4.41876725724362
30
0
41
1
10
76.5685968400751
20
5.13216441978688
30
0
41
1
10
76.6357460500939
20
5.47444221036343
30
0
41
1
10
76.7700444701314
20
6.11801694382382
30
0
41
1
10
76.8371936801502
20
6.41927207704319
30
0
41
1
10
76.9714921001877
20
6.97103789424912
30
0
41
1
10
77.0386413102065
20
7.22152331233963
30
0
41
1
10
77.172939730244
20
7.66549941530934
30
0
41
1
10
77.2400889402629
20
7.85898610456539
30
0
41
1
10
77.3743873603005
20
8.18667921120155
30
0
41
1
10
77.4415365703191
20
8.32090136228237
30
0
41
1
10
77.5758349903567
20
8.53155682628324
30
0
41
1
10
77.6429842003756
20
8.6080191669829
30
0
41
1
10
77.7772826204131
20
8.70772373078501
30
0
41
1
10
77.8444318304318
20
8.73099999999999
30
0
41
1
10
77.9115810404505
20
8.73099999999999
30
0
0
SPLINE
5
EC
100
AcDbEntity
8
1
62
256
6
ByLayer
370
13
48
1
60
0
100
AcDbSpline
70
4
71
3
72
78
73
74
40
0
40
0
40
0
40
0
40
0.0312500000000001
40
0.0312500000000001
40
0.0625000000000001
40
0.0625000000000001
40
0.0937500000000002
40
0.0937500000000002
40
0.125
40
0.125
40
0.15625
40
0.15625
40
0.1875
40
0.1875
40
0.21875
40
0.21875
40
0.25
40
0.25
40
0.28125
40
0.28125
40
0.3125
40
0.3125
40
0.34375
40
0.34375
40
0.359375
40
0.359375
40
0.367187500000001
40
0.367187500000001
40
0.375000000000001
40
0.375000000000001
40
0.406250000000001
40
0.406250000000001
40
0.437500000000001
40
0.437500000000001
40
0.468750000000001
40
0.468750000000001
40
0.5
40
0.5
40
0.53125
40
0.53125
40
0.562500000000001
40
0.562500000000001
40
0.593750000000001
40
0.593750000000001
40
0.625000000000001
40
0.625000000000001
40
0.656250000000001
40
0.656250000000001
40
0.687500000000001
40
0.687500000000001
40
0.71875
40
0.71875
40
0.734375000000001
40
0.734375000000001
40
0.742187500000001
40
0.742187500000001
40
0.750000000000001
40
0.750000000000001
40
0.78125
40
0.78125
40
0.8125
40
0.8125
40
0.84375
40
0.84375
40
0.875
40
0.875
40
0.90625
40
0.90625
40
0.9375
40
0.9375
40
0.96875
40
0.96875
40
1
40
1
40
1
40
1
41
1
10
79.2642385692208
20
8.73099999999999
30
0
41
1
10
79.3273420829229
20
8.73099999999999
30
0
41
1
10
79.3904455966249
20
8.71045114104098
30
0
41
1
10
79.5166526240291
20
8.62273711865851
30
0
41
1
10
79.5797561377312
20
8.55554693539051
30
0
41
1
10
79.7059631651355
20
8.37056303010101
30
0
41
1
10
79.7690666788376
20
8.25274723194184
30
0
41
1
10
79.8952737062418
20
7.96482865755442
30
0
41
1
10
79.9583772199438
20
7.79471213736082
30
0
41
1
10
80.0845842473481
20
7.40337084404226
30
0
41
1
10
80.1476877610502
20
7.1821452324501
30
0
41
1
10
80.2738947884544
20
6.69286139797049
30
0
41
1
10
80.3369983021564
20
6.42481716462635
30
0
41
1
10
80.4632053295607
20
5.84907546942594
30
0
41
1
10
80.5263088432627
20
5.54140497189843
30
0
41
1
10
80.6525158706669
20
4.89586854123925
30
0
41
1
10
80.715619384369
20
4.55803723419092
30
0
41
1
10
80.8418264117731
20
3.86296818286084
30
0
41
1
10
80.9049299254752
20
3.50576569275037
30
0
41
1
10
81.0311369528795
20
2.78299840768122
30
0
41
1
10
81.0942404665815
20
2.41746306691556
30
0
41
1
10
81.2204474939857
20
1.68833533518267
30
0
41
1
10
81.2835510076878
20
1.32476257879981
30
0
41
1
10
81.378206278241
20
0.787473538574915
30
0
41
1
10
81.4097580350921
20
0.60970878890069
30
0
41
1
10
81.4570856703687
20
0.345751218530722
30
0
41
1
10
81.4728615487942
20
0.258212661133968
30
0
41
1
10
81.5044133056452
20
0.0841338103498117
30
0
41
1
10
81.5201891840707
20
-0.0020529586797693
30
0
41
1
10
81.5990685761984
20
-0.435648416356884
30
0
41
1
10
81.6621720899004
20
-0.790837720646493
30
0
41
1
10
81.7883791173045
20
-1.51061839520634
30
0
41
1
10
81.8514826310067
20
-1.87519915662026
30
0
41
1
10
81.9776896584109
20
-2.60467336796523
30
0
41
1
10
82.040793172113
20
-2.96954535140557
30
0
41
1
10
82.1670001995171
20
-3.68912777279161
30
0
41
1
10
82.2301037132192
20
-4.04380739857922
30
0
41
1
10
82.3563107406234
20
-4.73193908206116
30
0
41
1
10
82.4194142543255
20
-5.06535549240627
30
0
41
1
10
82.5456212817296
20
-5.70032017824136
30
0
41
1
10
82.6087247954317
20
-6.00183465746841
30
0
41
1
10
82.7349318228361
20
-6.56384935017354
30
0
41
1
10
82.7980353365381
20
-6.82432452114855
30
0
41
1
10
82.9242423639422
20
-7.29751735776435
30
0
41
1
10
82.9873458776443
20
-7.51022354697602
30
0
41
1
10
83.1135529050487
20
-7.88410157295405
30
0
41
1
10
83.1766564187506
20
-8.04527668473372
30
0
41
1
10
83.3028634461548
20
-8.31540596675745
30
0
41
1
10
83.3659669598569
20
-8.42437567637808
30
0
41
1
10
83.4921739872611
20
-8.59220291542394
30
0
41
1
10
83.5552775009632
20
-8.65108340079533
30
0
41
1
10
83.6499327715163
20
-8.70504986143825
30
0
41
1
10
83.6814845283674
20
-8.71732785207112
30
0
41
1
10
83.7288121636439
20
-8.72768811998998
30
0
41
1
10
83.7445880420695
20
-8.72979939146208
30
0
41
1
10
83.7761397989206
20
-8.73142919956598
30
0
41
1
10
83.7919156773461
20
-8.73096172337654
30
0
41
1
10
83.8707950694737
20
-8.72208958683075
30
0
41
1
10
83.9338985831758
20
-8.69392718756035
30
0
41
1
10
84.06010561058
20
-8.59017156420816
30
0
41
1
10
84.1232091242821
20
-8.5145534611097
30
0
41
1
10
84.2494161516863
20
-8.31224417534335
30
0
41
1
10
84.3125196653883
20
-8.18553195788212
30
0
41
1
10
84.4387266927925
20
-7.87980786741477
30
0
41
1
10
84.5018302064946
20
-7.70078418418214
30
0
41
1
10
84.6280372338988
20
-7.29213967670523
30
0
41
1
10
84.6911407476009
20
-7.06252050965392
30
0
41
1
10
84.817347775005
20
-6.55748334267849
30
0
41
1
10
84.8804512887072
20
-6.28208179049795
30
0
41
1
10
85.0066583161114
20
-5.6931039626167
30
0
41
1
10
85.0697618298134
20
-5.37955641337348
30
0
41
1
10
85.1959688572176
20
-4.72404539021395
30
0
41
1
10
85.2590723709197
20
-4.38211716072999
30
0
41
1
10
85.3221758846217
20
-4.03143554860827
30
0
0
SPLINE
5
ED
100
AcDbEntity
8
1
62
256
6
ByLayer
370
13
48
1
60
0
100
AcDbSpline
70
4
71
3
72
20
73
16
40
0
40
0
40
0
40
0
40
0.125
40
0.125
40
0.249999999999999
40
0.249999999999999
40
0.374999999999999
40
0.374999999999999
40
0.499999999999998
40
0.499999999999998
40
0.624999999999998
40
0.624999999999998
40
0.749999999999999
40
0.749999999999999
40
1
40
1
40
1
40
1
41
1
10
76.3
20
6.21997073341348
30
0
41
1
10
76.3465642230875
20
6.42954590016106
30
0
41
1
10
76.3931284461749
20
6.62813363782604
30
0
41
1
10
76.4862568923498
20
7.0004219167312
30
0
41
1
10
76.5328211154372
20
7.17411886507307
30
0
41
1
10
76.6259495616121
20
7.49453972626156
30
0
41
1
10
76.6725137846996
20
7.64126244407427
30
0
41
1
10
76.7656422308744
20
7.90655954701822
30
0
41
1
10
76.8122064539619
20
8.02513508608226
30
0
41
1
10
76.9053349001368
20
8.23387317455783
30
0
41
1
10
76.9518991232242
20
8.32403886814257
30
0
41
1
10
77.0450275693991
20
8.47653712213398
30
0
41
1
10
77.0915917924865
20
8.53887424824632
30
0
41
1
10
77.2312844617488
20
8.68609546745435
30
0
41
1
10
77.3244129079237
20
8.73099999999999
30
0
41
1
10
77.4175413540985
20
8.73099999999999
30
0
0
SPLINE
5
EE
100
AcDbEntity
8
1
62
256
6
ByLayer
370
13
48
1
60
0
100
AcDbSpline
70
4
71
3
72
78
73
74
40
0
40
0
40
0
40
0
40
0.0312499999999997
40
0.0312499999999997
40
0.0624999999999994
40
0.0624999999999994
40
0.0937499999999991
40
0.0937499999999991
40
0.124999999999999
40
0.124999999999999
40
0.156249999999999
40
0.156249999999999
40
0.187499999999998
40
0.187499999999998
40
0.218749999999998
40
0.218749999999998
40
0.249999999999998
40
0.249999999999998
40
0.281249999999997
40
0.281249999999997
40
0.312499999999997
40
0.312499999999997
40
0.343749999999997
40
0.343749999999997
40
0.351562499999997
40
0.351562499999997
40
0.359374999999997
40
0.359374999999997
40
0.374999999999998
40
0.374999999999998
40
0.406249999999999
40
0.406249999999999
40
0.4375
40
0.4375
40
0.46875
40
0.46875
40
0.500000000000001
40
0.500000000000001
40
0.531250000000002
40
0.531250000000002
40
0.562500000000003
40
0.562500000000003
40
0.593750000000004
40
0.593750000000004
40
0.625000000000005
40
0.625000000000005
40
0.656250000000006
40
0.656250000000006
40
0.687500000000007
40
0.687500000000007
40
0.695312500000007
40
0.695312500000007
40
0.703125000000007
40
0.703125000000007
40
0.718750000000006
40
0.718750000000006
40
0.750000000000006
40
0.750000000000006
40
0.781250000000005
40
0.781250000000005
40
0.812500000000004
40
0.812500000000004
40
0.843750000000004
40
0.843750000000004
40
0.875000000000003
40
0.875000000000003
40
0.906250000000002
40
0.906250000000002
40
0.937500000000001
40
0.937500000000001
40
0.968750000000001
40
0.968750000000001
40
1
40
1
40
1
40
1
41
1
10
78.7701988828688
20
8.73099999999999
30
0
41
1
10
78.8384486433038
20
8.73099999999999
30
0
41
1
10
78.9066984037387
20
8.70695210372162
30
0
41
1
10
79.0431979246086
20
8.60384568722236
30
0
41
1
10
79.1114476850435
20
8.52475027035769
30
0
41
1
10
79.2479472059133
20
8.30680705598411
30
0
41
1
10
79.3161969663482
20
8.16792811884028
30
0
41
1
10
79.452696487218
20
7.82897275498416
30
0
41
1
10
79.520946247653
20
7.62888019408433
30
0
41
1
10
79.6574457685228
20
7.17009378928745
30
0
41
1
10
79.7256955289578
20
6.91140581498615
30
0
41
1
10
79.8621950498277
20
6.34224307785695
30
0
41
1
10
79.9304448102626
20
6.03179746449925
30
0
41
1
10
80.0669443311325
20
5.36962502927344
30
0
41
1
10
80.1351940915673
20
5.01794480031833
30
0
41
1
10
80.2716936124372
20
4.28633444120885
30
0
41
1
10
80.3399433728721
20
3.90645729434811
30
0
41
1
10
80.476442893742
20
3.13247043882637
30
0
41
1
10
80.544692654177
20
2.73840813681926
30
0
41
1
10
80.6811921750468
20
1.94950346726046
30
0
41
1
10
80.7494419354817
20
1.55469432860861
30
0
41
1
10
80.8859414563516
20
0.775945349691654
30
0
41
1
10
80.9541912167865
20
0.392021437166591
30
0
41
1
10
81.0395034173301
20
-0.0754014086374468
30
0
41
1
10
81.0565658574388
20
-0.169206241048329
30
0
41
1
10
81.0906907376563
20
-0.358231314629677
30
0
41
1
10
81.1077531777651
20
-0.453306859185034
30
0
41
1
10
81.1589404980913
20
-0.740019896282121
30
0
41
1
10
81.1930653783088
20
-0.933148968292585
30
0
41
1
10
81.2954400189611
20
-1.51668605319514
30
0
41
1
10
81.3636897793961
20
-1.91131335664031
30
0
41
1
10
81.5001893002659
20
-2.70026254412048
30
0
41
1
10
81.5684390607008
20
-3.09455173899519
30
0
41
1
10
81.7049385815707
20
-3.86944213815775
30
0
41
1
10
81.7731883420057
20
-4.24999628570308
30
0
41
1
10
81.9096878628756
20
-4.98340605307732
30
0
41
1
10
81.9779376233104
20
-5.33620869096833
30
0
41
1
10
82.1144371441802
20
-6.00101526420195
30
0
41
1
10
82.1826869046151
20
-6.31297221031559
30
0
41
1
10
82.319186425485
20
-6.88544498804038
30
0
41
1
10
82.3874361859199
20
-7.14593097990345
30
0
41
1
10
82.5239357067899
20
-7.60846983582647
30
0
41
1
10
82.5921854672248
20
-7.81051606153977
30
0
41
1
10
82.7286849880946
20
-8.15339797986883
30
0
41
1
10
82.7969347485296
20
-8.29424918353419
30
0
41
1
10
82.9334342693994
20
-8.5160344322606
30
0
41
1
10
83.0016840298343
20
-8.59699927541664
30
0
41
1
10
83.1381835507042
20
-8.70365067496078
30
0
41
1
10
83.2064333111391
20
-8.72937408164134
30
0
41
1
10
83.2917455116827
20
-8.73131276732738
30
0
41
1
10
83.3088079517915
20
-8.73020543975471
30
0
41
1
10
83.342932832009
20
-8.72489377682382
30
0
41
1
10
83.3599952721177
20
-8.72068767328966
30
0
41
1
10
83.4111825924439
20
-8.70324996126695
30
0
41
1
10
83.4453074726613
20
-8.68519506818521
30
0
41
1
10
83.5476821133137
20
-8.61051469697316
30
0
41
1
10
83.6159318737487
20
-8.53328368508855
30
0
41
1
10
83.7524313946186
20
-8.31917591866082
30
0
41
1
10
83.8206811550534
20
-8.18226769287864
30
0
41
1
10
83.9571806759233
20
-7.84724002776352
30
0
41
1
10
84.0254304363582
20
-7.64910383871378
30
0
41
1
10
84.161929957228
20
-7.19407975067685
30
0
41
1
10
84.230179717663
20
-6.93719695399906
30
0
41
1
10
84.3666792385328
20
-6.37136247497784
30
0
41
1
10
84.4349289989677
20
-6.06243924558001
30
0
41
1
10
84.5714285198376
20
-5.40292571179964
30
0
41
1
10
84.6396782802726
20
-5.05238159211135
30
0
41
1
10
84.7761778011425
20
-4.32259906808
30
0
41
1
10
84.8444275615774
20
-3.94341363553917
30
0
41
1
10
84.9809270824472
20
-3.17035913447202
30
0
41
1
10
85.0491768428822
20
-2.77653781337583
30
0
41
1
10
85.185676363752
20
-1.98770391728263
30
0
41
1
10
85.2539261241869
20
-1.5927251077365
30
0
41
1
10
85.3221758846219
20
-1.20301166866284
30
0
0
SPLINE
5
EF
100
AcDbEntity
8
1
62
256
6
ByLayer
370
13
48
1
60
0
100
AcDbSpline
70
4
71
3
72
14
73
10
40
0
40
0
40
0
40
0
40
0.25
40
0.25
40
0.5
40
0.5
40
0.75
40
0.75
40
1
40
1
40
1
40
1
41
1
10
76.3000000000001
20
7.97528484645758
30
0
41
1
10
76.3519584723123
20
8.10640232204699
30
0
41
1
10
76.4039169446245
20
8.2198310885253
30
0
41
1
10
76.5078338892489
20
8.41164982248134
30
0
41
1
10
76.5597923615611
20
8.49004694570016
30
0
41
1
10
76.6637093061855
20
8.61334650333109
30
0
41
1
10
76.7156677784977
20
8.65825794512529
30
0
41
1
10
76.8195847231221
20
8.71707994572427
30
0
41
1
10
76.8715431954344
20
8.73099999999999
30
0
41
1
10
76.9235016677466
20
8.73099999999999
30
0
0
SPLINE
5
F0
100
AcDbEntity
8
1
62
256
6
ByLayer
370
13
48
1
60
0
100
AcDbSpline
70
4
71
3
72
82
73
78
40
0
40
0
40
0
40
0
40
0.0312500000000004
40
0.0312500000000004
40
0.0625000000000007
40
0.0625000000000007
40
0.0937500000000011
40
0.0937500000000011
40
0.125000000000001
40
0.125000000000001
40
0.156250000000002
40
0.156250000000002
40
0.187500000000002
40
0.187500000000002
40
0.218750000000002
40
0.218750000000002
40
0.250000000000003
40
0.250000000000003
40
0.281250000000003
40
0.281250000000003
40
0.312500000000003
40
0.312500000000003
40
0.320312500000003
40
0.320312500000003
40
0.328125000000003
40
0.328125000000003
40
0.343750000000003
40
0.343750000000003
40
0.375000000000004
40
0.375000000000004
40
0.406250000000004
40
0.406250000000004
40
0.437500000000005
40
0.437500000000005
40
0.468750000000006
40
0.468750000000006
40
0.500000000000007
40
0.500000000000007
40
0.531250000000007
40
0.531250000000007
40
0.562500000000008
40
0.562500000000008
40
0.593750000000009
40
0.593750000000009
40
0.625000000000009
40
0.625000000000009
40
0.632812500000009
40
0.632812500000009
40
0.640625000000009
40
0.640625000000009
40
0.656250000000009
40
0.656250000000009
40
0.687500000000008
40
0.687500000000008
40
0.718750000000007
40
0.718750000000007
40
0.750000000000006
40
0.750000000000006
40
0.781250000000006
40
0.781250000000006
40
0.812500000000005
40
0.812500000000005
40
0.843750000000004
40
0.843750000000004
40
0.875000000000003
40
0.875000000000003
40
0.906250000000002
40
0.906250000000002
40
0.937500000000001
40
0.937500000000001
40
0.953125000000001
40
0.953125000000001
40
0.960937500000001
40
0.960937500000001
40
0.968750000000001
40
0.968750000000001
40
1
40
1
40
1
40
1
41
1
10
78.2761591965168
20
8.73099999999999
30
0
41
1
10
78.3495552036846
20
8.73099999999999
30
0
41
1
10
78.4229512108524
20
8.70317501467272
30
0
41
1
10
78.5697432251878
20
8.58336084716123
30
0
41
1
10
78.6431392323557
20
8.49131886132557
30
0
41
1
10
78.7899312466911
20
8.23756614417496
30
0
41
1
10
78.8633272538589
20
8.07581314502795
30
0
41
1
10
79.0101192681944
20
7.68172608398413
30
0
41
1
10
79.0835152753622
20
7.44937538787897
30
0
41
1
10
79.2303072896977
20
6.91871323674911
30
0
41
1
10
79.3037032968654
20
6.62042059016306
30
0
41
1
10
79.450495311201
20
5.96802401863198
30
0
41
1
10
79.5238913183687
20
5.61397288694241
30
0
41
1
10
79.6706833327042
20
4.86464563959677
30
0
41
1
10
79.7440793398721
20
4.46944277439698
30
0
41
1
10
79.8908713542077
20
3.65488221933387
30
0
41
1
10
79.9642673613753
20
3.23559834059642
30
0
41
1
10
80.1110593757108
20
2.39014488595535
30
0
41
1
10
80.1844553828786
20
1.96403213401106
30
0
41
1
10
80.3312473972143
20
1.12036753633851
30
0
41
1
10
80.4046434043819
20
0.702846609797888
30
0
41
1
10
80.4963884133416
20
0.193972736040223
30
0
41
1
10
80.5147374151335
20
0.0929101046544076
30
0
41
1
10
80.5514354187173
20
-0.108057433784751
30
0
41
1
10
80.5697844205093
20
-0.209257948867048
30
0
41
1
10
80.6248314258851
20
-0.514775272483575
30
0
41
1
10
80.6615294294692
20
-0.721014934577227
30
0
41
1
10
80.7716234402207
20
-1.34528429482364
30
0
41
1
10
80.8450194473884
20
-1.76896126693759
30
0
41
1
10
80.991811461724
20
-2.61737768253755
30
0
41
1
10
81.0652074688917
20
-3.04207244799625
30
0
41
1
10
81.2119994832273
20
-3.875972012163
30
0
41
1
10
81.2853954903949
20
-4.28510953406314
30
0
41
1
10
81.4321875047304
20
-5.07046307711937
30
0
41
1
10
81.5055835118983
20
-5.44660303420588
30
0
41
1
10
81.6523755262339
20
-6.14986334722391
30
0
41
1
10
81.7257715334017
20
-6.47691865828611
30
0
41
1
10
81.8725635477371
20
-7.06944070778451
30
0
41
1
10
81.9459595549048
20
-7.33487107984431
30
0
41
1
10
82.0927515692404
20
-7.79668646492863
30
0
41
1
10
82.1661475764082
20
-7.99307146157796
30
0
41
1
10
82.3129395907437
20
-8.31501494899567
30
0
41
1
10
82.3863355979114
20
-8.44060494369251
30
0
41
1
10
82.5331276122469
20
-8.62435102690361
30
0
41
1
10
82.6065236194148
20
-8.68255671373393
30
0
41
1
10
82.6982686283744
20
-8.71772572463482
30
0
41
1
10
82.7166176301664
20
-8.72288742807419
30
0
41
1
10
82.7533156337502
20
-8.72960500110102
30
0
41
1
10
82.7716646355422
20
-8.73116127800103
30
0
41
1
10
82.826711640918
20
-8.73063801140904
30
0
41
1
10
82.8634096445019
20
-8.72333564066531
30
0
41
1
10
82.9735036552535
20
-8.67887112520071
30
0
41
1
10
83.0468996624213
20
-8.61904848434693
30
0
41
1
10
83.1936916767568
20
-8.43192856397624
30
0
41
1
10
83.2670876839245
20
-8.30458194898449
30
0
41
1
10
83.41387969826
20
-7.97910126053247
30
0
41
1
10
83.4872757054278
20
-7.78093633287904
30
0
41
1
10
83.6340677197633
20
-7.3156771712348
30
0
41
1
10
83.7074637269311
20
-7.04858385670005
30
0
41
1
10
83.8542557412666
20
-6.45299213483858
30
0
41
1
10
83.9276517484343
20
-6.12453096137307
30
0
41
1
10
84.0744437627699
20
-5.41882756573614
30
0
41
1
10
84.1478397699376
20
-5.04165090955291
30
0
41
1
10
84.2946317842732
20
-4.25465538167299
30
0
41
1
10
84.368027791441
20
-3.84491258533407
30
0
41
1
10
84.5148198057765
20
-3.01023858609855
30
0
41
1
10
84.5882158129442
20
-2.58537422340203
30
0
41
1
10
84.7350078272797
20
-1.73700818039404
30
0
41
1
10
84.8084038344475
20
-1.31355051663434
30
0
41
1
10
84.9184978451992
20
-0.689842013594273
30
0
41
1
10
84.955195848783
20
-0.483827756232529
30
0
41
1
10
85.0102428541588
20
-0.178697665046002
30
0
41
1
10
85.0285918559508
20
-0.0778264367549752
30
0
41
1
10
85.0652898595346
20
0.123284689202365
30
0
41
1
10
85.0836388613266
20
0.224553243218452
30
0
41
1
10
85.1753838702863
20
0.734068382842935
30
0
41
1
10
85.248779877454
20
1.15197033438224
30
0
41
1
10
85.3221758846219
20
1.57400767104258
30
0
0
SPLINE
5
F1
100
AcDbEntity
8
1
62
256
6
ByLayer
370
13
48
1
60
0
100
AcDbSpline
70
4
71
3
72
8
73
4
40
0
40
0
40
0
40
0
40
1
40
1
40
1
40
1
41
1
10
76.3
20
8.70129478659547
30
0
41
1
10
76.3431539937982
20
8.72140261169832
30
0
41
1
10
76.3863079875964
20
8.73099999999999
30
0
41
1
10
76.4294619813945
20
8.73099999999999
30
0
0
SPLINE
5
F2
100
AcDbEntity
8
1
62
256
6
ByLayer
370
13
48
1
60
0
100
AcDbSpline
70
4
71
3
72
85
73
81
40
0
40
0
40
0
40
0
40
0.0312500000000002
40
0.0312500000000002
40
0.0625000000000003
40
0.0625000000000003
40
0.0937500000000004
40
0.0937500000000004
40
0.125000000000001
40
0.125000000000001
40
0.156250000000001
40
0.156250000000001
40
0.187500000000001
40
0.187500000000001
40
0.218750000000001
40
0.218750000000001
40
0.250000000000001
40
0.250000000000001
40
0.281250000000001
40
0.281250000000001
40
0.296875000000001
40
0.296875000000001
40
0.300781250000002
40
0.300781250000002
40
0.304687500000002
40
0.312500000000002
40
0.312500000000002
40
0.343750000000002
40
0.343750000000002
40
0.375000000000003
40
0.375000000000003
40
0.406250000000003
40
0.406250000000003
40
0.437500000000004
40
0.437500000000004
40
0.468750000000004
40
0.468750000000004
40
0.500000000000005
40
0.500000000000005
40
0.531250000000005
40
0.531250000000005
40
0.562500000000006
40
0.562500000000006
40
0.593750000000006
40
0.593750000000006
40
0.601562500000006
40
0.601562500000006
40
0.609375000000006
40
0.609375000000006
40
0.625000000000006
40
0.625000000000006
40
0.656250000000006
40
0.656250000000006
40
0.687500000000007
40
0.687500000000007
40
0.718750000000007
40
0.718750000000007
40
0.750000000000007
40
0.750000000000007
40
0.781250000000007
40
0.781250000000007
40
0.812500000000007
40
0.812500000000007
40
0.843750000000007
40
0.843750000000007
40
0.875000000000008
40
0.875000000000008
40
0.890625000000008
40
0.890625000000008
40
0.894531250000008
40
0.894531250000008
40
0.898437500000008
40
0.898437500000008
40
0.906250000000007
40
0.906250000000007
40
0.937500000000005
40
0.937500000000005
40
0.968750000000002
40
0.968750000000002
40
1
40
1
40
1
40
1
41
1
10
77.7821195101648
20
8.73099999999999
30
0
41
1
10
77.8606617640654
20
8.73099999999999
30
0
41
1
10
77.939204017966
20
8.69911885378278
30
0
41
1
10
78.0962885257672
20
8.56126851582133
30
0
41
1
10
78.1748307796678
20
8.45522570800301
30
0
41
1
10
78.331915287469
20
8.16280738557961
30
0
41
1
10
78.4104575413695
20
7.97637653270991
30
0
41
1
10
78.5675420491707
20
7.52318483035361
30
0
41
1
10
78.6460843030713
20
7.25641047298438
30
0
41
1
10
78.8031688108725
20
6.6499009853388
30
0
41
1
10
78.8817110647732
20
6.31020657255934
30
0
41
1
10
79.0387955725743
20
5.57221523425193
30
0
41
1
10
79.117337826475
20
5.17400515405353
30
0
41
1
10
79.2744223342762
20
4.33836352249531
30
0
41
1
10
79.3529645881767
20
3.90103838123596
30
0
41
1
10
79.5100490959779
20
3.00855623816932
30
0
41
1
10
79.5885913498785
20
2.55349342828191
30
0
41
1
10
79.7456758576797
20
1.6458052074311
30
0
41
1
10
79.8242181115803
20
1.19323973945194
30
0
41
1
10
79.9420314924312
20
0.528794008760826
30
0
41
1
10
79.9813026193814
20
0.309679671511901
30
0
41
1
10
80.0303915280692
20
0.0397794740676716
30
0
41
1
10
80.0402093098068
20
-0.0138738622454753
30
0
41
1
10
80.0598448732819
20
-0.121705707785679
30
0
41
1
10
80.0892982184948
20
-0.284055504844446
30
0
41
1
10
80.1187515637075
20
-0.448106034298803
30
0
41
1
10
80.2169293810832
20
-0.99820795631706
30
0
41
1
10
80.2954716349839
20
-1.44891806591539
30
0
41
1
10
80.4525561427851
20
-2.35557540940101
30
0
41
1
10
80.5310983966856
20
-2.81146851038542
30
0
41
1
10
80.6881829044868
20
-3.70868076061024
30
0
41
1
10
80.7667251583874
20
-4.1499096902989
30
0
41
1
10
80.9238096661886
20
-4.99641479546474
30
0
41
1
10
81.0023519200891
20
-5.40158445079101
30
0
41
1
10
81.1594364278903
20
-6.15606821624522
30
0
41
1
10
81.237978681791
20
-6.50529069145239
30
0
41
1
10
81.3950631895921
20
-7.13255142386609
30
0
41
1
10
81.4736054434927
20
-7.41054124609318
30
0
41
1
10
81.6306899512939
20
-7.88678174992927
30
0
41
1
10
81.7092322051945
20
-8.0850384197868
30
0
41
1
10
81.8663167129957
20
-8.40069091209821
30
0
41
1
10
81.9448589668964
20
-8.51813734604227
30
0
41
1
10
82.1019434746975
20
-8.67757641701931
30
0
41
1
10
82.1804857285981
20
-8.71964154674265
30
0
41
1
10
82.2786635459738
20
-8.73131138992275
30
0
41
1
10
82.298299109449
20
-8.73162643444363
30
0
41
1
10
82.3375702363992
20
-8.72826149119052
30
0
41
1
10
82.3572057998744
20
-8.72455569576758
30
0
41
1
10
82.4161124902998
20
-8.70710730402536
30
0
41
1
10
82.4553836172501
20
-8.68702694692894
30
0
41
1
10
82.573196998101
20
-8.59956120633612
30
0
41
1
10
82.6517392520016
20
-8.50478735040491
30
0
41
1
10
82.8088237598029
20
-8.23546689113434
30
0
41
1
10
82.8873660137034
20
-8.06086074179296
30
0
41
1
10
83.0444505215045
20
-7.63087330938382
30
0
41
1
10
83.1229927754051
20
-7.37547127791996
30
0
41
1
10
83.2800772832064
20
-6.79017670616767
30
0
41
1
10
83.358619537107
20
-6.46031699205585
30
0
41
1
10
83.5157040449081
20
-5.73953893927623
30
0
41
1
10
83.5942462988087
20
-5.34870207209022
30
0
41
1
10
83.7513308066099
20
-4.52479362904944
30
0
41
1
10
83.8298730605105
20
-4.09182765615614
30
0
41
1
10
83.9869575683118
20
-3.20496141383361
30
0
41
1
10
84.0654998222124
20
-2.75115883301692
30
0
41
1
10
84.2225843300134
20
-1.84322375801443
30
0
41
1
10
84.3011265839141
20
-1.38915690956227
30
0
41
1
10
84.418939964765
20
-0.720842866865922
30
0
41
1
10
84.4582110917154
20
-0.500171295717308
30
0
41
1
10
84.5073000004032
20
-0.228044074517072
30
0
41
1
10
84.5171177821406
20
-0.173803513635732
30
0
41
1
10
84.5367533456158
20
-0.0657164096431018
30
0
41
1
10
84.5465711273536
20
-0.0120001410614918
30
0
41
1
10
84.5760244725662
20
0.149553479198516
30
0
41
1
10
84.5956600360413
20
0.258067022834155
30
0
41
1
10
84.693837853417
20
0.804204935732514
30
0
41
1
10
84.7723801073177
20
1.25271942777505
30
0
41
1
10
84.9294646151189
20
2.15758408861649
30
0
41
1
10
85.0080068690195
20
2.61388599074962
30
0
41
1
10
85.1650913768206
20
3.51495080263609
30
0
41
1
10
85.2436336307213
20
3.9596278906227
30
0
41
1
10
85.3221758846218
20
4.3878720105065
30
0
0
SPLINE
5
F3
100
AcDbEntity
8
1
62
256
6
ByLayer
370
13
48
1
60
0
100
AcDbSpline
70
4
71
3
72
84
73
80
40
0
40
0
40
0
40
0
40
0.031249999999999
40
0.031249999999999
40
0.0624999999999981
40
0.0624999999999981
40
0.0937499999999971
40
0.0937499999999971
40
0.124999999999996
40
0.124999999999996
40
0.156249999999995
40
0.156249999999995
40
0.187499999999994
40
0.187499999999994
40
0.218749999999993
40
0.218749999999993
40
0.249999999999992
40
0.249999999999992
40
0.265624999999992
40
0.265624999999992
40
0.273437499999991
40
0.273437499999991
40
0.281249999999991
40
0.281249999999991
40
0.31249999999999
40
0.31249999999999
40
0.343749999999988
40
0.343749999999988
40
0.374999999999986
40
0.374999999999986
40
0.406249999999985
40
0.406249999999985
40
0.437499999999983
40
0.437499999999983
40
0.468749999999982
40
0.468749999999982
40
0.49999999999998
40
0.49999999999998
40
0.531249999999978
40
0.531249999999978
40
0.546874999999978
40
0.546874999999978
40
0.554687499999977
40
0.558593749999977
40
0.558593749999977
40
0.562499999999977
40
0.562499999999977
40
0.593749999999978
40
0.593749999999978
40
0.624999999999978
40
0.624999999999978
40
0.656249999999979
40
0.656249999999979
40
0.68749999999998
40
0.68749999999998
40
0.718749999999981
40
0.718749999999981
40
0.749999999999982
40
0.749999999999982
40
0.781249999999983
40
0.781249999999983
40
0.812499999999983
40
0.812499999999983
40
0.828124999999984
40
0.828124999999984
40
0.835937499999984
40
0.839843749999984
40
0.839843749999984
40
0.843749999999984
40
0.843749999999984
40
0.874999999999987
40
0.874999999999987
40
0.90624999999999
40
0.90624999999999
40
0.937499999999994
40
0.937499999999994
40
0.968749999999997
40
0.968749999999997
40
1
40
1
40
1
40
1
41
1
10
77.2880798238128
20
8.73099999999999
30
0
41
1
10
77.3717683244462
20
8.73099999999999
30
0
41
1
10
77.4554568250797
20
8.69478248674261
30
0
41
1
10
77.6228338263466
20
8.537555177359
30
0
41
1
10
77.70652232698
20
8.41644509351369
30
0
41
1
10
77.8738993282468
20
8.08250727524901
30
0
41
1
10
77.9575878288802
20
7.86960958362869
30
0
41
1
10
78.1249648301471
20
7.35349315969509
30
0
41
1
10
78.2086533307805
20
7.05027003268401
30
0
41
1
10
78.3760303320474
20
6.36446185582901
30
0
41
1
10
78.4597188326808
20
5.98195151565963
30
0
41
1
10
78.6270958339476
20
5.15705662989902
30
0
41
1
10
78.7107843345811
20
4.71480471816923
30
0
41
1
10
78.8781613358479
20
3.79521758637375
30
0
41
1
10
78.9618498364813
20
3.31802649494648
30
0
41
1
10
79.1292268377482
20
2.35431177429874
30
0
41
1
10
79.2129153383816
20
1.867898230457
30
0
41
1
10
79.3384480893318
20
1.14833019581536
30
0
41
1
10
79.3802923396485
20
0.910115566289733
30
0
41
1
10
79.4430587151236
20
0.557000615451642
30
0
41
1
10
79.4639808402819
20
0.439993946543495
30
0
41
1
10
79.5058250905986
20
0.207632700845295
30
0
41
1
10
79.526747215757
20
0.0924955380887695
30
0
41
1
10
79.6313578415488
20
-0.480772605980121
30
0
41
1
10
79.7150463421822
20
-0.954464342353248
30
0
41
1
10
79.882423343449
20
-1.91470605757422
30
0
41
1
10
79.9661118440824
20
-2.40120081785881
30
0
41
1
10
80.1334888453493
20
-3.36428009274167
30
0
41
1
10
80.2171773459827
20
-3.8407529171476
30
0
41
1
10
80.3845543472496
20
-4.75806656179356
30
0
41
1
10
80.4682428478831
20
-5.19876283498471
30
0
41
1
10
80.63561984915
20
-6.01981145733688
30
0
41
1
10
80.7193083497833
20
-6.40003238979264
30
0
41
1
10
80.8866853510502
20
-7.08075875084307
30
0
41
1
10
80.9703738516837
20
-7.38119187657676
30
0
41
1
10
81.1377508529504
20
-7.89153033500696
30
0
41
1
10
81.2214393535839
20
-8.10144255710023
30
0
41
1
10
81.3888163548508
20
-8.42951151495001
30
0
41
1
10
81.4725048554841
20
-8.54773979031486
30
0
41
1
10
81.5980376064343
20
-8.66158699783392
30
0
41
1
10
81.639881856751
20
-8.68901081911824
30
0
41
1
10
81.7026482322261
20
-8.71543185377686
30
0
41
1
10
81.7340314199637
20
-8.72496731150869
30
0
41
1
10
81.7654146077011
20
-8.72921946004686
30
0
41
1
10
81.7863367328595
20
-8.73090720112137
30
0
41
1
10
81.7967977954387
20
-8.7311788463378
30
0
41
1
10
81.8909473586513
20
-8.72855595168699
30
0
41
1
10
81.9746358592847
20
-8.6897762431777
30
0
41
1
10
82.1420128605516
20
-8.52709714328125
30
0
41
1
10
82.225701361185
20
-8.40309784231096
30
0
41
1
10
82.3930783624518
20
-8.06328511887648
30
0
41
1
10
82.4767668630853
20
-7.84740336032044
30
0
41
1
10
82.6441438643521
20
-7.32552191556871
30
0
41
1
10
82.7278323649855
20
-7.01952034476545
30
0
41
1
10
82.8952093662524
20
-6.32866252711173
30
0
41
1
10
82.9788978668859
20
-5.94388337385598
30
0
41
1
10
83.1462748681527
20
-5.11518902361166
30
0
41
1
10
83.2299633687861
20
-4.67140762686552
30
0
41
1
10
83.3973403700529
20
-3.74960027461003
30
0
41
1
10
83.4810288706864
20
-3.27171797995081
30
0
41
1
10
83.6484058719532
20
-2.30741867257368
30
0
41
1
10
83.7320943725867
20
-1.82111011658566
30
0
41
1
10
83.8576271235369
20
-1.10218656568043
30
0
41
1
10
83.8994713738536
20
-0.864267266342495
30
0
41
1
10
83.9622377493287
20
-0.511698290662082
30
0
41
1
10
83.9936209370661
20
-0.336486991429894
30
0
41
1
10
84.0250041248037
20
-0.163169172565119
30
0
41
1
10
84.045926249962
20
-0.0480734039183233
30
0
41
1
10
84.0563873125412
20
0.0090980599528336
30
0
41
1
10
84.1505368757539
20
0.526105810267154
30
0
41
1
10
84.2342253763873
20
1.00051401865923
30
0
41
1
10
84.4016023776541
20
1.9615313916797
30
0
41
1
10
84.4852908782876
20
2.44808344005611
30
0
41
1
10
84.6526678795544
20
3.41047620968061
30
0
41
1
10
84.7363563801878
20
3.88620366075102
30
0
41
1
10
84.9037333814547
20
4.80119061713322
30
0
41
1
10
84.987421882088
20
5.24030520687632
30
0
41
1
10
85.1547988833549
20
6.05746112347845
30
0
41
1
10
85.2384873839884
20
6.43537230107756
30
0
41
1
10
85.3221758846218
20
6.77317877259091
30
0
0
SPLINE
5
F4
100
AcDbEntity
8
1
62
256
6
ByLayer
370
13
48
1
60
0
100
AcDbSpline
70
4
71
3
72
86
73
82
40
0
40
0
40
0
40
0
40
0.0312500000000045
40
0.0312500000000045
40
0.062500000000009
40
0.062500000000009
40
0.0937500000000135
40
0.0937500000000135
40
0.125000000000018
40
0.125000000000018
40
0.156250000000023
40
0.156250000000023
40
0.187500000000027
40
0.187500000000027
40
0.218750000000032
40
0.218750000000032
40
0.250000000000036
40
0.250000000000036
40
0.257812500000037
40
0.257812500000037
40
0.261718750000037
40
0.261718750000037
40
0.265625000000038
40
0.265625000000038
40
0.281250000000038
40
0.281250000000038
40
0.312500000000039
40
0.312500000000039
40
0.34375000000004
40
0.34375000000004
40
0.37500000000004
40
0.37500000000004
40
0.406250000000041
40
0.406250000000041
40
0.437500000000042
40
0.437500000000042
40
0.468750000000043
40
0.468750000000043
40
0.500000000000043
40
0.500000000000043
40
0.515625000000044
40
0.515625000000044
40
0.523437500000044
40
0.523437500000044
40
0.527343750000044
40
0.527343750000044
40
0.531250000000044
40
0.531250000000044
40
0.562500000000041
40
0.562500000000041
40
0.593750000000038
40
0.593750000000038
40
0.625000000000035
40
0.625000000000035
40
0.656250000000032
40
0.656250000000032
40
0.687500000000029
40
0.687500000000029
40
0.718750000000026
40
0.718750000000026
40
0.750000000000023
40
0.750000000000023
40
0.78125000000002
40
0.78125000000002
40
0.789062500000019
40
0.789062500000019
40
0.796875000000018
40
0.796875000000018
40
0.812500000000017
40
0.812500000000017
40
0.843750000000014
40
0.843750000000014
40
0.875000000000011
40
0.875000000000011
40
0.906250000000009
40
0.906250000000009
40
0.937500000000006
40
0.937500000000006
40
0.968750000000003
40
0.968750000000003
40
1
40
1
40
1
40
1
41
1
10
76.7940401374608
20
8.73099999999999
30
0
41
1
10
76.8828748848271
20
8.73099999999999
30
0
41
1
10
76.9717096321933
20
8.69016465979578
30
0
41
1
10
77.1493791269259
20
8.51220790426515
30
0
41
1
10
77.2382138742921
20
8.37495265126128
30
0
41
1
10
77.4158833690246
20
7.99665205187097
30
0
41
1
10
77.5047181163909
20
7.75552133106674
30
0
41
1
10
77.6823876111234
20
7.17284357175944
30
0
41
1
10
77.7712223584896
20
6.8313102788232
30
0
41
1
10
77.9488918532221
20
6.06332637470527
30
0
41
1
10
78.0377266005884
20
5.63699982218782
30
0
41
1
10
78.215396095321
20
4.72497580888989
30
0
41
1
10
78.3042308426872
20
4.23946880754195
30
0
41
1
10
78.4819003374198
20
3.23974276988213
30
0
41
1
10
78.5707350847861
20
2.72570664681191
30
0
41
1
10
78.7484045795185
20
1.69880193235178
30
0
41
1
10
78.8372393268848
20
1.18605018052395
30
0
41
1
10
78.9482827610926
20
0.561097361961799
30
0
41
1
10
78.9704914479342
20
0.436888915827325
30
0
41
1
10
79.0038044781965
20
0.251978614274606
30
0
41
1
10
79.0149088216173
20
0.190575335604763
30
0
41
1
10
79.0371175084588
20
0.0682710588715452
30
0
41
1
10
79.0482218518796
20
0.0075427178542782
30
0
41
1
10
79.1037435689836
20
-0.297161105295146
30
0
41
1
10
79.1481609426667
20
-0.54507437890814
30
0
41
1
10
79.2814130637161
20
-1.29767488773874
30
0
41
1
10
79.3702478110823
20
-1.81143075122304
30
0
41
1
10
79.5479173058148
20
-2.83831223595985
30
0
41
1
10
79.6367520531811
20
-3.35131508816821
30
0
41
1
10
79.8144215479137
20
-4.34669649674899
30
0
41
1
10
79.90325629528
20
-4.82888917899461
30
0
41
1
10
80.0809257900124
20
-5.73216765272485
30
0
41
1
10
80.1697605373787
20
-6.15306543270475
30
0
41
1
10
80.3474300321112
20
-6.90865875071646
30
0
41
1
10
80.4362647794775
20
-7.24323742523077
30
0
41
1
10
80.61393427421
20
-7.81132865392732
30
0
41
1
10
80.7027690215763
20
-8.04483574962359
30
0
41
1
10
80.8804385163089
20
-8.4080914079936
30
0
41
1
10
80.9692732636751
20
-8.53793085924582
30
0
41
1
10
81.1025253847245
20
-8.66093871087708
30
0
41
1
10
81.1469427584076
20
-8.69005695995324
30
0
41
1
10
81.2135688189323
20
-8.71719068451407
30
0
41
1
10
81.2357775057739
20
-8.72348105115739
30
0
41
1
10
81.2690905360362
20
-8.72896913452641
30
0
41
1
10
81.280194879457
20
-8.73014072536807
30
0
41
1
10
81.3024035662985
20
-8.73120053024741
30
0
41
1
10
81.3135079097194
20
-8.73109342736757
30
0
41
1
10
81.4134470005064
20
-8.7243593699358
30
0
41
1
10
81.5022817478726
20
-8.67691337769793
30
0
41
1
10
81.6799512426051
20
-8.48488709534982
30
0
41
1
10
81.7687859899714
20
-8.34017452548298
30
0
41
1
10
81.9464554847039
20
-7.94680513650476
30
0
41
1
10
82.0352902320702
20
-7.69806874630291
30
0
41
1
10
82.2129597268026
20
-7.10090675328331
30
0
41
1
10
82.3017944741689
20
-6.75250325143918
30
0
41
1
10
82.4794639689014
20
-5.97235264762546
30
0
41
1
10
82.5682987162677
20
-5.5407365521707
30
0
41
1
10
82.7459682110002
20
-4.62027322459417
30
0
41
1
10
82.8348029583666
20
-4.13161848157864
30
0
41
1
10
83.0124724530991
20
-3.12787620348183
30
0
41
1
10
83.1013072004653
20
-2.61296829516994
30
0
41
1
10
83.2789766951978
20
-1.58633294720445
30
0
41
1
10
83.3678114425641
20
-1.07471633446315
30
0
41
1
10
83.4788548767719
20
-0.452114983900913
30
0
41
1
10
83.5010635636135
20
-0.328423105489179
30
0
41
1
10
83.5454809372966
20
-0.0829927219507454
30
0
41
1
10
83.5676896241382
20
0.0381151450457082
30
0
41
1
10
83.6343156846629
20
0.405536444246223
30
0
41
1
10
83.6787330583459
20
0.654474558220841
30
0
41
1
10
83.8119851793954
20
1.40956303929039
30
0
41
1
10
83.9008199267616
20
1.92418918232124
30
0
41
1
10
84.0784894214941
20
2.95075064486076
30
0
41
1
10
84.1673241688604
20
3.46255736726261
30
0
41
1
10
84.344993663593
20
4.45326525339541
30
0
41
1
10
84.4338284109592
20
4.93197792197506
30
0
41
1
10
84.6114979056917
20
5.826208736338
30
0
41
1
10
84.700332653058
20
6.24154173324106
30
0
41
1
10
84.8780021477905
20
6.98452851709456
30
0
41
1
10
84.9668368951567
20
7.31207286197881
30
0
41
1
10
85.1445063898893
20
7.86548477231446
30
0
41
1
10
85.2333411372555
20
8.09135507606629
30
0
41
1
10
85.3221758846218
20
8.26547659392489
30
0
0
SPLINE
5
F5
100
AcDbEntity
8
1
62
256
6
ByLayer
370
13
48
1
60
0
100
AcDbSpline
70
4
71
3
72
8
73
4
40
0
40
0
40
0
40
0
40
1
40
1
40
1
40
1
41
1
10
85.322175884622
20
-3.06429630118288
30
0
41
1
10
86.3814505897479
20
-2.05152440796306
30
0
41
1
10
87.4407252948739
20
-1.03008713549744
30
0
41
1
10
88.4999999999999
20
-1.421E-13
30
0
0
SPLINE
5
F6
100
AcDbEntity
8
1
62
256
6
ByLayer
370
13
48
1
60
0
100
AcDbSpline
70
4
71
3
72
8
73
4
40
0
40
0
40
0
40
0
40
1
40
1
40
1
40
1
41
1
10
85.3221758846217
20
-6.56179365274173
30
0
41
1
10
86.3814505897478
20
-4.36842808181942
30
0
41
1
10
87.440725294874
20
-2.18115249706548
30
0
41
1
10
88.5000000000001
20
1.705E-13
30
0
0
SPLINE
5
F7
100
AcDbEntity
8
1
62
256
6
ByLayer
370
13
48
1
60
0
100
AcDbSpline
70
4
71
3
72
8
73
4
40
0
40
0
40
0
40
0
40
1
40
1
40
1
40
1
41
1
10
85.322175884622
20
2.84245245035612
30
0
41
1
10
86.3814505897479
20
1.88622361542466
30
0
41
1
10
87.4407252948739
20
0.938734695912473
30
0
41
1
10
88.4999999999999
20
1.421E-13
30
0
0
SPLINE
5
F8
100
AcDbEntity
8
1
62
256
6
ByLayer
370
13
48
1
60
0
100
AcDbSpline
70
4
71
3
72
8
73
4
40
0
40
0
40
0
40
0
40
1
40
1
40
1
40
1
41
1
10
85.3221758846219
20
-1.39276489902665
30
0
41
1
10
86.3814505897479
20
-0.91937983470865
30
0
41
1
10
87.440725294874
20
-0.455122539580458
30
0
41
1
10
88.5000000000001
20
2.84E-14
30
0
0
SPLINE
5
F9
100
AcDbEntity
8
1
62
256
6
ByLayer
370
13
48
1
60
0
100
AcDbSpline
70
4
71
3
72
8
73
4
40
0
40
0
40
0
40
0
40
1
40
1
40
1
40
1
41
1
10
85.3221758846218
20
7.70927634048076
30
0
41
1
10
86.3814505897479
20
5.14385896113529
30
0
41
1
10
87.4407252948739
20
2.57408719823951
30
0
41
1
10
88.5
20
2.84E-14
30
0
0
SPLINE
5
FA
100
AcDbEntity
8
1
62
256
6
ByLayer
370
13
48
1
60
0
100
AcDbSpline
70
4
71
3
72
8
73
4
40
0
40
0
40
0
40
0
40
1
40
1
40
1
40
1
41
1
10
85.3221758846217
20
-8.60775523783101
30
0
41
1
10
86.3814505897478
20
-5.73695502545476
30
0
41
1
10
87.440725294874
20
-2.86768879446518
30
0
41
1
10
88.5000000000001
20
1.99E-13
30
0
0
SPLINE
5
FB
100
AcDbEntity
8
1
62
256
6
ByLayer
370
13
48
1
60
0
100
AcDbSpline
70
4
71
3
72
8
73
4
40
0
40
0
40
0
40
0
40
1
40
1
40
1
40
1
41
1
10
85.3221758846217
20
-7.56829937761043
30
0
41
1
10
86.3814505897479
20
-5.0501442571119
30
0
41
1
10
87.4407252948741
20
-2.52736505199565
30
0
41
1
10
88.5000000000003
20
7.39E-13
30
0
0
SPLINE
5
FC
100
AcDbEntity
8
1
62
256
6
ByLayer
370
13
48
1
60
0
100
AcDbSpline
70
4
71
3
72
8
73
4
40
0
40
0
40
0
40
0
40
1
40
1
40
1
40
1
41
1
10
85.3221758846219
20
1.00947406813586
30
0
41
1
10
86.3814505897479
20
0.68216921498265
30
0
41
1
10
87.4407252948739
20
0.345676144436936
30
0
41
1
10
88.5
20
0
30
0
0
SPLINE
5
FD
100
AcDbEntity
8
1
62
256
6
ByLayer
370
13
48
1
60
0
100
AcDbSpline
70
4
71
3
72
8
73
4
40
0
40
0
40
0
40
0
40
1
40
1
40
1
40
1
41
1
10
85.322175884622
20
7.44800918599594
30
0
41
1
10
86.3814505897479
20
4.96051335711499
30
0
41
1
10
87.4407252948739
20
2.47783110088091
30
0
41
1
10
88.4999999999999
20
3.411E-13
30
0
0
SPLINE
5
FE
100
AcDbEntity
8
1
62
256
6
ByLayer
370
13
48
1
60
0
100
AcDbSpline
70
4
71
3
72
8
73
4
40
0
40
0
40
0
40
0
40
1
40
1
40
1
40
1
41
1
10
85.322175884622
20
4.98512613093536
30
0
41
1
10
86.3814505897479
20
3.31582463895884
30
0
41
1
10
87.4407252948739
20
1.65410755099592
30
0
41
1
10
88.4999999999999
20
2.274E-13
30
0
0
SPLINE
5
FF
100
AcDbEntity
8
1
62
256
6
ByLayer
370
13
48
1
60
0
100
AcDbSpline
70
4
71
3
72
8
73
4
40
0
40
0
40
0
40
0
40
1
40
1
40
1
40
1
41
1
10
85.3221758846217
20
-8.46835276022804
30
0
41
1
10
86.3814505897478
20
-5.64781989858886
30
0
41
1
10
87.440725294874
20
-2.82502138836543
30
0
41
1
10
88.5000000000001
20
1.99E-13
30
0
0
SPLINE
5
100
100
AcDbEntity
8
1
62
256
6
ByLayer
370
13
48
1
60
0
100
AcDbSpline
70
4
71
3
72
8
73
4
40
0
40
0
40
0
40
0
40
1
40
1
40
1
40
1
41
1
10
85.3221758846219
20
2.19322869587455
30
0
41
1
10
86.3814505897479
20
1.47110443881371
30
0
41
1
10
87.4407252948739
20
0.740024500380798
30
0
41
1
10
88.5
20
2.84E-14
30
0
0
SPLINE
5
101
100
AcDbEntity
8
1
62
256
6
ByLayer
370
13
48
1
60
0
100
AcDbSpline
70
4
71
3
72
8
73
4
40
0
40
0
40
0
40
0
40
1
40
1
40
1
40
1
41
1
10
85.3221758846217
20
-7.8833102292692
30
0
41
1
10
86.3814505897478
20
-5.25156486820575
30
0
41
1
10
87.4407252948738
20
-2.62378153012983
30
0
41
1
10
88.4999999999999
20
-3.695E-13
30
0
0
SPLINE
5
102
100
AcDbEntity
8
1
62
256
6
ByLayer
370
13
48
1
60
0
100
AcDbSpline
70
4
71
3
72
8
73
4
40
0
40
0
40
0
40
0
40
1
40
1
40
1
40
1
41
1
10
85.322175884622
20
6.75023290257158
30
0
41
1
10
86.3814505897479
20
4.49428945718023
30
0
41
1
10
87.4407252948739
20
2.24420047159322
30
0
41
1
10
88.4999999999999
20
3.126E-13
30
0
0
SPLINE
5
103
100
AcDbEntity
8
1
62
256
6
ByLayer
370
13
48
1
60
0
100
AcDbSpline
70
4
71
3
72
8
73
4
40
0
40
0
40
0
40
0
40
1
40
1
40
1
40
1
41
1
10
85.3221758846218
20
8.19990365817364
30
0
41
1
10
86.3814505897479
20
5.46977883979613
30
0
41
1
10
87.4407252948739
20
2.73646381385885
30
0
41
1
10
88.5
20
8.53E-14
30
0
0
SPLINE
5
104
100
AcDbEntity
8
1
62
256
6
ByLayer
370
13
48
1
60
0
100
AcDbSpline
70
4
71
3
72
8
73
4
40
0
40
0
40
0
40
0
40
1
40
1
40
1
40
1
41
1
10
85.3221758846217
20
-5.70683123738704
30
0
41
1
10
86.3814505897478
20
-3.79755472955989
30
0
41
1
10
87.440725294874
20
-1.8952680570842
30
0
41
1
10
88.5000000000001
20
1.421E-13
30
0
0
SPLINE
5
105
100
AcDbEntity
8
1
62
256
6
ByLayer
370
13
48
1
60
0
100
AcDbSpline
70
4
71
3
72
8
73
4
40
0
40
0
40
0
40
0
40
1
40
1
40
1
40
1
41
1
10
85.322175884622
20
5.92403235138295
30
0
41
1
10
86.3814505897481
20
3.94256097673821
30
0
41
1
10
87.4407252948742
20
1.96787356701483
30
0
41
1
10
88.5000000000003
20
-5.684E-13
30
0
0
SPLINE
5
106
100
AcDbEntity
8
1
62
256
6
ByLayer
370
13
48
1
60
0
100
AcDbSpline
70
4
71
3
72
8
73
4
40
0
40
0
40
0
40
0
40
1
40
1
40
1
40
1
41
1
10
85.322175884622
20
-1.91015717197385
30
0
41
1
10
86.3814505897481
20
-1.28246259184303
30
0
41
1
10
87.4407252948742
20
-0.645740304357247
30
0
41
1
10
88.5000000000003
20
1.99E-13
30
0
0
SPLINE
5
107
100
AcDbEntity
8
1
62
256
6
ByLayer
370
13
48
1
60
0
100
AcDbSpline
70
4
71
3
72
8
73
4
40
0
40
0
40
0
40
0
40
1
40
1
40
1
40
1
41
1
10
85.3221758846217
20
-8.32472232480828
30
0
41
1
10
86.3814505897478
20
-5.54702648278547
30
0
41
1
10
87.440725294874
20
-2.77210503459446
30
0
41
1
10
88.5000000000001
20
1.99E-13
30
0
0
SPLINE
5
108
100
AcDbEntity
8
1
62
256
6
ByLayer
370
13
48
1
60
0
100
AcDbSpline
70
4
71
3
72
8
73
4
40
0
40
0
40
0
40
0
40
1
40
1
40
1
40
1
41
1
10
85.322175884622
20
0.484495152610492
30
0
41
1
10
86.3814505897479
20
0.313762491394357
30
0
41
1
10
87.4407252948739
20
0.152263307282652
30
0
41
1
10
88.4999999999999
20
2.84E-14
30
0
0
SPLINE
5
109
100
AcDbEntity
8
1
62
256
6
ByLayer
370
13
48
1
60
0
100
AcDbSpline
70
4
71
3
72
8
73
4
40
0
40
0
40
0
40
0
40
1
40
1
40
1
40
1
41
1
10
85.3221758846217
20
-7.29191688739905
30
0
41
1
10
86.3814505897478
20
-4.85619138650191
30
0
41
1
10
87.440725294874
20
-2.42554015962284
30
0
41
1
10
88.5000000000001
20
1.705E-13
30
0
0
SPLINE
5
10A
100
AcDbEntity
8
1
62
256
6
ByLayer
370
13
48
1
60
0
100
AcDbSpline
70
4
71
3
72
8
73
4
40
0
40
0
40
0
40
0
40
1
40
1
40
1
40
1
41
1
10
85.3221758846218
20
8.70677857847321
30
0
41
1
10
86.3814505897479
20
5.80520747313344
30
0
41
1
10
87.4407252948739
20
2.90293329149949
30
0
41
1
10
88.5
20
0
30
0
0
SPLINE
5
10B
100
AcDbEntity
8
1
62
256
6
ByLayer
370
13
48
1
60
0
100
AcDbSpline
70
4
71
3
72
8
73
4
40
0
40
0
40
0
40
0
40
1
40
1
40
1
40
1
41
1
10
85.3221758846219
20
3.33525679456272
30
0
41
1
10
86.3814505897479
20
2.23205166384739
30
0
41
1
10
87.4407252948739
20
1.12029377106038
30
0
41
1
10
88.5
20
2.84E-14
30
0
0
SPLINE
5
10C
100
AcDbEntity
8
1
62
256
6
ByLayer
370
13
48
1
60
0
100
AcDbSpline
70
4
71
3
72
8
73
4
40
0
40
0
40
0
40
0
40
1
40
1
40
1
40
1
41
1
10
85.322175884622
20
8.00408589552134
30
0
41
1
10
86.3814505897481
20
5.33236269178363
30
0
41
1
10
87.4407252948742
20
2.66432059454081
30
0
41
1
10
88.5000000000003
20
-7.674E-13
30
0
0
SPLINE
5
10D
100
AcDbEntity
8
1
62
256
6
ByLayer
370
13
48
1
60
0
100
AcDbSpline
70
4
71
3
72
8
73
4
40
0
40
0
40
0
40
0
40
1
40
1
40
1
40
1
41
1
10
85.322175884622
20
8.65171993009156
30
0
41
1
10
86.3814505897479
20
5.76656977616017
30
0
41
1
10
87.4407252948739
20
2.88264857324072
30
0
41
1
10
88.4999999999999
20
3.979E-13
30
0
0
SPLINE
5
10E
100
AcDbEntity
8
1
62
256
6
ByLayer
370
13
48
1
60
0
100
AcDbSpline
70
4
71
3
72
8
73
4
40
0
40
0
40
0
40
0
40
1
40
1
40
1
40
1
41
1
10
85.3221758846218
20
8.53452648857879
30
0
41
1
10
86.3814505897479
20
5.69163529539105
30
0
41
1
10
87.4407252948739
20
2.84677876484656
30
0
41
1
10
88.5
20
2.84E-14
30
0
0
SPLINE
5
10F
100
AcDbEntity
8
1
62
256
6
ByLayer
370
13
48
1
60
0
100
AcDbSpline
70
4
71
3
72
8
73
4
40
0
40
0
40
0
40
0
40
1
40
1
40
1
40
1
41
1
10
85.3221758846217
20
-8.72702422159858
30
0
41
1
10
86.3814505897478
20
-5.81773707511044
30
0
41
1
10
87.440725294874
20
-2.90871431332107
30
0
41
1
10
88.5000000000001
20
2.274E-13
30
0
0
SPLINE
5
110
100
AcDbEntity
8
1
62
256
6
ByLayer
370
13
48
1
60
0
100
AcDbSpline
70
4
71
3
72
8
73
4
40
0
40
0
40
0
40
0
40
1
40
1
40
1
40
1
41
1
10
85.322175884622
20
8.40788358222028
30
0
41
1
10
86.3814505897478
20
5.60276296772764
30
0
41
1
10
87.4407252948736
20
2.80012095993416
30
0
41
1
10
88.4999999999994
20
1.5916E-12
30
0
0
SPLINE
5
111
100
AcDbEntity
8
1
62
256
6
ByLayer
370
13
48
1
60
0
100
AcDbSpline
70
4
71
3
72
8
73
4
40
0
40
0
40
0
40
0
40
1
40
1
40
1
40
1
41
1
10
85.3221758846217
20
5.408431549721
30
0
41
1
10
86.3814505897478
20
3.61288144981361
30
0
41
1
10
87.4407252948739
20
1.81006181812708
30
0
41
1
10
88.5
20
5.68E-14
30
0
0
SPLINE
5
112
100
AcDbEntity
8
1
62
256
6
ByLayer
370
13
48
1
60
0
100
AcDbSpline
70
4
71
3
72
8
73
4
40
0
40
0
40
0
40
0
40
1
40
1
40
1
40
1
41
1
10
85.3221758846219
20
4.41383109575534
30
0
41
1
10
86.3814505897479
20
2.95053374661427
30
0
41
1
10
87.4407252948739
20
1.47924927237736
30
0
41
1
10
88.5
20
5.68E-14
30
0
0
SPLINE
5
113
100
AcDbEntity
8
1
62
256
6
ByLayer
370
13
48
1
60
0
100
AcDbSpline
70
4
71
3
72
8
73
4
40
0
40
0
40
0
40
0
40
1
40
1
40
1
40
1
41
1
10
85.322175884622
20
-0.719676995031193
30
0
41
1
10
86.3814505897479
20
-0.489001718435844
30
0
41
1
10
87.4407252948739
20
-0.249108159962333
30
0
41
1
10
88.4999999999999
20
-2.84E-14
30
0
0
SPLINE
5
114
100
AcDbEntity
8
1
62
256
6
ByLayer
370
13
48
1
60
0
100
AcDbSpline
70
4
71
3
72
8
73
4
40
0
40
0
40
0
40
0
40
1
40
1
40
1
40
1
41
1
10
85.3221758846219
20
-3.6895176810861
30
0
41
1
10
86.3814505897478
20
-2.45129626263315
30
0
41
1
10
87.4407252948739
20
-1.22145083991137
30
0
41
1
10
88.4999999999999
20
-1.705E-13
30
0
0
SPLINE
5
115
100
AcDbEntity
8
1
62
256
6
ByLayer
370
13
48
1
60
0
100
AcDbSpline
70
4
71
3
72
8
73
4
40
0
40
0
40
0
40
0
40
1
40
1
40
1
40
1
41
1
10
85.3221758846219
20
-0.19348596627529
30
0
41
1
10
86.3814505897479
20
-0.119744387993279
30
0
41
1
10
87.4407252948739
20
-0.0552487558089467
30
0
41
1
10
88.5
20
0
30
0
0
SPLINE
5
116
100
AcDbEntity
8
1
62
256
6
ByLayer
370
13
48
1
60
0
100
AcDbSpline
70
4
71
3
72
8
73
4
40
0
40
0
40
0
40
0
40
1
40
1
40
1
40
1
41
1
10
85.3221758846217
20
-6.8972770597708
30
0
41
1
10
86.3814505897479
20
-4.60385533260347
30
0
41
1
10
87.4407252948741
20
-2.30475136104383
30
0
41
1
10
88.5000000000003
20
6.537E-13
30
0
0
SPLINE
5
117
100
AcDbEntity
8
1
62
256
6
ByLayer
370
13
48
1
60
0
100
AcDbSpline
70
4
71
3
72
8
73
4
40
0
40
0
40
0
40
0
40
1
40
1
40
1
40
1
41
1
10
85.3221758846217
20
6.30013572269135
30
0
41
1
10
86.3814505897479
20
4.20649350175339
30
0
41
1
10
87.4407252948739
20
2.10643764636544
30
0
41
1
10
88.5
20
-5.68E-14
30
0
0
SPLINE
5
118
100
AcDbEntity
8
1
62
256
6
ByLayer
370
13
48
1
60
0
100
AcDbSpline
70
4
71
3
72
8
73
4
40
0
40
0
40
0
40
0
40
1
40
1
40
1
40
1
41
1
10
85.3221758846219
20
-2.56554625533778
30
0
41
1
10
86.3814505897478
20
-1.70152393204788
30
0
41
1
10
87.4407252948739
20
-0.846337543761507
30
0
41
1
10
88.4999999999999
20
-1.137E-13
30
0
0
SPLINE
5
119
100
AcDbEntity
8
1
62
256
6
ByLayer
370
13
48
1
60
0
100
AcDbSpline
70
4
71
3
72
8
73
4
40
0
40
0
40
0
40
0
40
1
40
1
40
1
40
1
41
1
10
85.3221758846217
20
-8.68026016449244
30
0
41
1
10
86.3814505897478
20
-5.78783574025187
30
0
41
1
10
87.440725294874
20
-2.89440107406068
30
0
41
1
10
88.5000000000001
20
2.274E-13
30
0
0
SPLINE
5
11A
100
AcDbEntity
8
1
62
256
6
ByLayer
370
13
48
1
60
0
100
AcDbSpline
70
4
71
3
72
8
73
4
40
0
40
0
40
0
40
0
40
1
40
1
40
1
40
1
41
1
10
85.3221758846217
20
-5.17682982813199
30
0
41
1
10
86.3814505897478
20
-3.45866733196573
30
0
41
1
10
87.440725294874
20
-1.73304866363458
30
0
41
1
10
88.5000000000001
20
1.421E-13
30
0
0
SPLINE
5
11B
100
AcDbEntity
8
1
62
256
6
ByLayer
370
13
48
1
60
0
100
AcDbSpline
70
4
71
3
72
8
73
4
40
0
40
0
40
0
40
0
40
1
40
1
40
1
40
1
41
1
10
85.322175884622
20
3.95137708323745
30
0
41
1
10
86.3814505897479
20
2.62600420357262
30
0
41
1
10
87.4407252948739
20
1.30887187250613
30
0
41
1
10
88.4999999999999
20
1.705E-13
30
0
0
SPLINE
5
11C
100
AcDbEntity
8
1
62
256
6
ByLayer
370
13
48
1
60
0
100
AcDbSpline
70
4
71
3
72
8
73
4
40
0
40
0
40
0
40
0
40
1
40
1
40
1
40
1
41
1
10
85.3221758846217
20
7.07197879921068
30
0
41
1
10
86.3814505897479
20
4.72007633757354
30
0
41
1
10
87.4407252948739
20
2.36273815924363
30
0
41
1
10
88.5
20
-5.68E-14
30
0
0
SPLINE
5
11D
100
AcDbEntity
8
1
62
256
6
ByLayer
370
13
48
1
60
0
100
AcDbSpline
70
4
71
3
72
8
73
4
40
0
40
0
40
0
40
0
40
1
40
1
40
1
40
1
41
1
10
85.3221758846217
20
-6.09503293540197
30
0
41
1
10
86.3814505897478
20
-4.06997731916806
30
0
41
1
10
87.440725294874
20
-2.03828940438166
30
0
41
1
10
88.5000000000001
20
1.421E-13
30
0
0
SPLINE
5
11E
100
AcDbEntity
8
1
62
256
6
ByLayer
370
13
48
1
60
0
100
AcDbSpline
70
4
71
3
72
8
73
4
40
0
40
0
40
0
40
0
40
1
40
1
40
1
40
1
41
1
10
85.322175884622
20
1.67944970196965
30
0
41
1
10
86.3814505897479
20
1.11055731930972
30
0
41
1
10
87.4407252948739
20
0.550737940592057
30
0
41
1
10
88.4999999999999
20
8.53E-14
30
0
0
SPLINE
5
11F
100
AcDbEntity
8
1
62
256
6
ByLayer
370
13
48
1
60
0
100
AcDbSpline
70
4
71
3
72
8
73
4
40
0
40
0
40
0
40
0
40
1
40
1
40
1
40
1
41
1
10
85.3221758846217
20
-4.74329543893668
30
0
41
1
10
86.3814505897478
20
-3.15443228716131
30
0
41
1
10
87.4407252948738
20
-1.57332583717746
30
0
41
1
10
88.4999999999999
20
-2.274E-13
30
0
0
SPLINE
5
120
100
AcDbEntity
8
1
62
256
6
ByLayer
370
13
48
1
60
0
100
AcDbSpline
70
4
71
3
72
8
73
4
40
0
40
0
40
0
40
0
40
1
40
1
40
1
40
1
41
1
10
85.322175884622
20
-4.16013669990778
30
0
41
1
10
86.3814505897479
20
-2.78155564192448
30
0
41
1
10
87.4407252948739
20
-1.39483639303972
30
0
41
1
10
88.4999999999999
20
-1.99E-13
30
0
0
SPLINE
5
121
100
AcDbEntity
8
1
62
256
6
ByLayer
370
13
48
1
60
0
100
AcDbSpline
70
4
71
3
72
8
73
4
40
0
40
0
40
0
40
0
40
1
40
1
40
1
40
1
41
1
10
85.3221758846217
20
-8.09533358128883
30
0
41
1
10
86.3814505897478
20
-5.40035337405172
30
0
41
1
10
87.440725294874
20
-2.70189521592585
30
0
41
1
10
88.5000000000001
20
1.99E-13
30
0
0
LINE
5
7D
100
AcDbEntity
8
80
62
256
6
ByLayer
370
18
48
1
60
0
100
AcDbLine
10
0
20
0
30
0
11
-5
21
0
31
0
39
0
210
0
220
0
230
1
0
LINE
5
7E
100
AcDbEntity
8
4
62
256
6
ByLayer
370
18
48
0.05
60
0
100
AcDbLine
10
-5
20
0
30
0
11
93.5
21
0
31
0
39
0
210
0
220
0
230
1
0
LINE
5
80
100
AcDbEntity
8
81
62
256
6
ByLayer
370
18
48
1
60
0
100
AcDbLine
10
88.5
20
0
30
0
11
93.5
21
0
31
0
39
0
210
0
220
0
230
1
0
LINE
5
81
100
AcDbEntity
8
SK4
62
256
6
ByLayer
370
18
48
0.05
60
0
100
AcDbLine
10
-53
20
0
30
0
11
93.5
21
0
31
0
39
0
210
0
220
0
230
1
0
LINE
5
83
100
AcDbEntity
8
1
62
256
6
ByLayer
370
18
48
1
60
0
100
AcDbLine
10
10
20
-8.1
30
0
11
43.591222
21
-8.1
31
0
39
0
210
0
220
0
230
1
0
LINE
5
84
100
AcDbEntity
8
1
62
256
6
ByLayer
370
18
48
1
60
0
100
AcDbLine
10
43.591222
20
8.1
30
0
11
10
21
8.1
31
0
39
0
210
0
220
0
230
1
0
LINE
5
85
100
AcDbEntity
8
1
62
256
6
ByLayer
370
18
48
1
60
0
100
AcDbLine
10
88.5
20
0
30
0
11
85.322176
21
8.731
31
0
39
0
210
0
220
0
230
1
0
LINE
5
86
100
AcDbEntity
8
1
62
256
6
ByLayer
370
18
48
1
60
0
100
AcDbLine
10
85.322176
20
-8.731
30
0
11
88.5
21
0
31
0
39
0
210
0
220
0
230
1
0
LINE
5
87
100
AcDbEntity
8
1
62
256
6
ByLayer
370
18
48
1
60
0
100
AcDbLine
10
10
20
8.1
30
0
11
0
21
9.525
31
0
39
0
210
0
220
0
230
1
0
LINE
5
88
100
AcDbEntity
8
1
62
256
6
ByLayer
370
18
48
1
60
0
100
AcDbLine
10
0
20
-9.525
30
0
11
10
21
-8.1
31
0
39
0
210
0
220
0
230
1
0
LINE
5
89
100
AcDbEntity
8
1
62
256
6
ByLayer
370
18
48
1
60
0
100
AcDbLine
10
88.5
20
0
30
0
11
85.322176
21
8.731
31
0
39
0
210
0
220
0
230
1
0
LINE
5
8A
100
AcDbEntity
8
1
62
256
6
ByLayer
370
18
48
1
60
0
100
AcDbLine
10
85.322176
20
-8.731
30
0
11
88.5
21
0
31
0
39
0
210
0
220
0
230
1
0
LINE
5
8B
100
AcDbEntity
8
1
62
256
6
ByLayer
370
18
48
1
60
0
100
AcDbLine
10
76.3
20
-8.731
30
0
11
85.322176
21
-8.731
31
0
39
0
210
0
220
0
230
1
0
LINE
5
8C
100
AcDbEntity
8
SK1
62
256
6
ByLayer
370
18
48
1
60
0
100
AcDbLine
10
-48
20
-8.525
30
0
11
-47
21
-9.525
31
0
39
0
210
0
220
0
230
1
0
LINE
5
8E
100
AcDbEntity
8
SK1
62
256
6
ByLayer
370
18
48
1
60
0
100
AcDbLine
10
-47
20
9.525
30
0
11
-48
21
8.525
31
0
39
0
210
0
220
0
230
1
0
LINE
5
8F
100
AcDbEntity
8
SK1
62
256
6
ByLayer
370
18
48
1
60
0
100
AcDbLine
10
-47
20
-9.525
30
0
11
0
21
-9.525
31
0
39
0
210
0
220
0
230
1
0
LINE
5
90
100
AcDbEntity
8
SK1
62
256
6
ByLayer
370
18
48
1
60
0
100
AcDbLine
10
0
20
9.525
30
0
11
-47
21
9.525
31
0
39
0
210
0
220
0
230
1
0
LINE
5
91
100
AcDbEntity
8
1
62
256
6
ByLayer
370
18
48
1
60
0
100
AcDbLine
10
0
20
9.525
30
0
11
0
21
-9.525
31
0
39
0
210
0
220
0
230
1
0
LINE
5
92
100
AcDbEntity
8
1
62
256
6
ByLayer
370
18
48
1
60
0
100
AcDbLine
10
85.322176
20
8.731
30
0
11
85.322176
21
8.453741
31
0
39
0
210
0
220
0
230
1
0
LINE
5
93
100
AcDbEntity
8
1
62
256
6
ByLayer
370
18
48
1
60
0
100
AcDbLine
10
85.322176
20
-8.731
30
0
11
85.322176
21
-1.246667
31
0
39
0
210
0
220
0
230
1
0
LINE
5
94
100
AcDbEntity
8
1
62
256
6
ByLayer
370
18
48
1
60
0
100
AcDbLine
10
10
20
-8.1
30
0
11
10
21
-1.188629
31
0
39
0
210
0
220
0
230
1
0
LINE
5
95
100
AcDbEntity
8
1
62
256
6
ByLayer
370
18
48
1
60
0
100
AcDbLine
10
10
20
8.1
30
0
11
10
21
7.506115
31
0
39
0
210
0
220
0
230
1
0
LINE
5
96
100
AcDbEntity
8
SK1
62
256
6
ByLayer
370
18
48
1
60
0
100
AcDbLine
10
-40.207362
20
-3.933192
30
0
11
-40.207362
21
3.933192
31
0
39
0
210
0
220
0
230
1
0
LINE
5
97
100
AcDbEntity
8
SK1
62
256
6
ByLayer
370
18
48
1
60
0
100
AcDbLine
10
-48
20
-8.525
30
0
11
-48
21
8.525
31
0
39
0
210
0
220
0
230
1
0
LINE
5
98
100
AcDbEntity
8
SK1
62
256
6
ByLayer
370
18
48
1
60
0
100
AcDbLine
10
0
20
9.525
30
0
11
0
21
-9.525
31
0
39
0
210
0
220
0
230
1
0
LINE
5
99
100
AcDbEntity
8
SK1
62
256
6
ByLayer
370
18
48
1
60
0
100
AcDbLine
10
-47
20
-9.525
30
0
11
-47
21
9.525
31
0
39
0
210
0
220
0
230
1
0
LINE
5
9A
100
AcDbEntity
8
SK1
62
256
6
ByLayer
370
18
48
1
60
0
100
AcDbLine
10
-5.911513
20
-3.933192
30
0
11
-40.207362
21
-3.933192
31
0
39
0
210
0
220
0
230
1
0
LINE
5
9B
100
AcDbEntity
8
SK1
62
256
6
ByLayer
370
18
48
1
60
0
100
AcDbLine
10
-40.207362
20
3.933192
30
0
11
-5.911513
21
3.933192
31
0
39
0
210
0
220
0
230
1
0
LINE
5
9C
100
AcDbEntity
8
SK1
62
256
6
ByLayer
370
18
48
1
60
0
100
AcDbLine
10
-5.911513
20
-3.933192
30
0
11
-5.911513
21
3.933192
31
0
39
0
210
0
220
0
230
1
0
LINE
5
9D
100
AcDbEntity
8
1
62
256
6
ByLayer
370
18
48
1
60
0
100
AcDbLine
10
85.322176
20
8.731
30
0
11
85.322176
21
-8.731
31
0
39
0
210
0
220
0
230
1
0
LINE
5
9E
100
AcDbEntity
8
1
62
256
6
ByLayer
370
18
48
1
60
0
100
AcDbLine
10
85.322176
20
8.731
30
0
11
85.322176
21
-8.731
31
0
39
0
210
0
220
0
230
1
0
LINE
5
9F
100
AcDbEntity
8
1
62
256
6
ByLayer
370
18
48
1
60
0
100
AcDbLine
10
85.322176
20
8.731
30
0
11
85.322176
21
-8.731
31
0
39
0
210
0
220
0
230
1
0
LINE
5
A0
100
AcDbEntity
8
1
62
256
6
ByLayer
370
18
48
1
60
0
100
AcDbLine
10
76.3
20
8.731
30
0
11
76.3
21
-8.731
31
0
39
0
210
0
220
0
230
1
0
LINE
5
A1
100
AcDbEntity
8
1
62
256
6
ByLayer
370
18
48
1
60
0
100
AcDbLine
10
76.3
20
8.731
30
0
11
76.3
21
-8.731
31
0
39
0
210
0
220
0
230
1
0
LINE
5
A2
100
AcDbEntity
8
1
62
256
6
ByLayer
370
18
48
1
60
0
100
AcDbLine
10
85.322176
20
8.731
30
0
11
85.322176
21
-8.731
31
0
39
0
210
0
220
0
230
1
0
LINE
5
A3
100
AcDbEntity
8
1
62
256
6
ByLayer
370
18
48
1
60
0
100
AcDbLine
10
76.3
20
8.731
30
0
11
76.3
21
-8.731
31
0
39
0
210
0
220
0
230
1
0
LINE
5
A4
100
AcDbEntity
8
1
62
256
6
ByLayer
370
18
48
1
60
0
100
AcDbLine
10
85.322176
20
8.731
30
0
11
85.322176
21
-8.731
31
0
39
0
210
0
220
0
230
1
0
LINE
5
A5
100
AcDbEntity
8
SK2
62
256
6
ByLayer
370
13
48
1
60
0
100
AcDbLine
10
-54.5
20
-9.525
30
0
11
-54.5
21
37.799683
31
0
39
0
210
0
220
0
230
1
0
LINE
5
A7
100
AcDbEntity
8
SK2
62
256
6
ByLayer
370
13
48
1
60
0
100
AcDbLine
10
-49.5875
20
9.525
30
0
11
-56.5
21
9.525
31
0
39
0
210
0
220
0
230
1
0
LINE
5
A8
100
AcDbEntity
8
SK2
62
256
6
ByLayer
370
13
48
1
60
0
100
AcDbLine
10
-49.5875
20
-9.525
30
0
11
-56.5
21
-9.525
31
0
39
0
210
0
220
0
230
1
0
LINE
5
A9
100
AcDbEntity
8
1
62
256
6
ByLayer
370
18
48
1
60
1
100
AcDbLine
10
-54.5
20
9.525
30
0
11
-54.039216
21
6.025002
31
0
39
0
210
0
220
0
230
1
0
LINE
5
AA
100
AcDbEntity
8
1
62
256
6
ByLayer
370
18
48
1
60
1
100
AcDbLine
10
-54.039216
20
6.025002
30
0
11
-54.960784
21
6.024998
31
0
39
0
210
0
220
0
230
1
0
LINE
5
AB
100
AcDbEntity
8
1
62
256
6
ByLayer
370
18
48
1
60
1
100
AcDbLine
10
-54.960784
20
6.024998
30
0
11
-54.5
21
9.525
31
0
39
0
210
0
220
0
230
1
0
LINE
5
AC
100
AcDbEntity
8
1
62
256
6
ByLayer
370
18
48
1
60
1
100
AcDbLine
10
-54.5
20
-9.525
30
0
11
-54.960784
21
-6.025002
31
0
39
0
210
0
220
0
230
1
0
LINE
5
AD
100
AcDbEntity
8
1
62
256
6
ByLayer
370
18
48
1
60
1
100
AcDbLine
10
-54.960784
20
-6.025002
30
0
11
-54.039216
21
-6.024998
31
0
39
0
210
0
220
0
230
1
0
LINE
5
AE
100
AcDbEntity
8
1
62
256
6
ByLayer
370
18
48
1
60
1
100
AcDbLine
10
-54.039216
20
-6.024998
30
0
11
-54.5
21
-9.525
31
0
39
0
210
0
220
0
230
1
0
LINE
5
AF
100
AcDbEntity
8
2
62
256
6
ByLayer
370
13
48
1
60
0
100
AcDbLine
10
96
20
-8.731
30
0
11
96
21
37.321569
31
0
39
0
210
0
220
0
230
1
0
LINE
5
B1
100
AcDbEntity
8
2
62
256
6
ByLayer
370
13
48
1
60
0
100
AcDbLine
10
86.909676
20
8.731
30
0
11
98
21
8.731
31
0
39
0
210
0
220
0
230
1
0
LINE
5
B2
100
AcDbEntity
8
2
62
256
6
ByLayer
370
13
48
1
60
0
100
AcDbLine
10
86.909676
20
-8.731
30
0
11
98
21
-8.731
31
0
39
0
210
0
220
0
230
1
0
LINE
5
B3
100
AcDbEntity
8
1
62
256
6
ByLayer
370
18
48
1
60
1
100
AcDbLine
10
96
20
8.731
30
0
11
96.460784
21
5.231002
31
0
39
0
210
0
220
0
230
1
0
LINE
5
B4
100
AcDbEntity
8
1
62
256
6
ByLayer
370
18
48
1
60
1
100
AcDbLine
10
96.460784
20
5.231002
30
0
11
95.539216
21
5.230998
31
0
39
0
210
0
220
0
230
1
0
LINE
5
B5
100
AcDbEntity
8
1
62
256
6
ByLayer
370
18
48
1
60
1
100
AcDbLine
10
95.539216
20
5.230998
30
0
11
96
21
8.731
31
0
39
0
210
0
220
0
230
1
0
LINE
5
B6
100
AcDbEntity
8
1
62
256
6
ByLayer
370
18
48
1
60
1
100
AcDbLine
10
96
20
-8.731
30
0
11
95.539216
21
-5.231002
31
0
39
0
210
0
220
0
230
1
0
LINE
5
B7
100
AcDbEntity
8
1
62
256
6
ByLayer
370
18
48
1
60
1
100
AcDbLine
10
95.539216
20
-5.231002
30
0
11
96.460784
21
-5.230998
31
0
39
0
210
0
220
0
230
1
0
LINE
5
B8
100
AcDbEntity
8
1
62
256
6
ByLayer
370
18
48
1
60
1
100
AcDbLine
10
96.460784
20
-5.230998
30
0
11
96
21
-8.731
31
0
39
0
210
0
220
0
230
1
0
LINE
5
B9
100
AcDbEntity
8
SK2
62
256
6
ByLayer
370
13
48
1
60
0
100
AcDbLine
10
89.042957
20
-1.491762
30
0
11
95.682423
21
-19.733545
31
0
39
0
210
0
220
0
230
1
0
LINE
5
BA
100
AcDbEntity
8
SK2
62
256
6
ByLayer
370
13
48
1
60
0
100
AcDbLine
10
89.042957
20
1.491762
30
0
11
95.682423
21
19.733545
31
0
39
0
210
0
220
0
230
1
0
LINE
5
BB
100
AcDbEntity
8
1
62
256
6
ByLayer
370
18
48
1
60
1
100
AcDbLine
10
94.998383
20
-17.85416
30
0
11
98.051575
21
-16.082064
31
0
39
0
210
0
220
0
230
1
0
LINE
5
BC
100
AcDbEntity
8
1
62
256
6
ByLayer
370
18
48
1
60
1
100
AcDbLine
10
98.051575
20
-16.082064
30
0
11
98.406196
21
-16.93267
31
0
39
0
210
0
220
0
230
1
0
LINE
5
BD
100
AcDbEntity
8
1
62
256
6
ByLayer
370
18
48
1
60
1
100
AcDbLine
10
98.406196
20
-16.93267
30
0
11
94.998383
21
-17.85416
31
0
39
0
210
0
220
0
230
1
0
LINE
5
BE
100
AcDbEntity
8
1
62
256
6
ByLayer
370
18
48
1
60
1
100
AcDbLine
10
94.998383
20
17.85416
30
0
11
98.406193
21
16.932671
31
0
39
0
210
0
220
0
230
1
0
LINE
5
BF
100
AcDbEntity
8
1
62
256
6
ByLayer
370
18
48
1
60
1
100
AcDbLine
10
98.406193
20
16.932671
30
0
11
98.051579
21
16.082063
31
0
39
0
210
0
220
0
230
1
0
LINE
5
C0
100
AcDbEntity
8
1
62
256
6
ByLayer
370
18
48
1
60
1
100
AcDbLine
10
98.051579
20
16.082063
30
0
11
94.998383
21
17.85416
31
0
39
0
210
0
220
0
230
1
0
LINE
5
126
100
AcDbEntity
8
1
62
256
6
ByLayer
370
18
48
1
60
1
100
AcDbLine
10
-54.5
20
9.525
30
0
11
-54.039216
21
6.025002
31
0
39
0
210
0
220
0
230
1
0
LINE
5
127
100
AcDbEntity
8
1
62
256
6
ByLayer
370
18
48
1
60
1
100
AcDbLine
10
-54.039216
20
6.025002
30
0
11
-54.960784
21
6.024998
31
0
39
0
210
0
220
0
230
1
0
LINE
5
128
100
AcDbEntity
8
1
62
256
6
ByLayer
370
18
48
1
60
1
100
AcDbLine
10
-54.960784
20
6.024998
30
0
11
-54.5
21
9.525
31
0
39
0
210
0
220
0
230
1
0
LINE
5
12A
100
AcDbEntity
8
1
62
256
6
ByLayer
370
18
48
1
60
1
100
AcDbLine
10
-54.5
20
-9.525
30
0
11
-54.960784
21
-6.025002
31
0
39
0
210
0
220
0
230
1
0
LINE
5
12B
100
AcDbEntity
8
1
62
256
6
ByLayer
370
18
48
1
60
1
100
AcDbLine
10
-54.960784
20
-6.025002
30
0
11
-54.039216
21
-6.024998
31
0
39
0
210
0
220
0
230
1
0
LINE
5
12C
100
AcDbEntity
8
1
62
256
6
ByLayer
370
18
48
1
60
1
100
AcDbLine
10
-54.039216
20
-6.024998
30
0
11
-54.5
21
-9.525
31
0
39
0
210
0
220
0
230
1
0
LINE
5
130
100
AcDbEntity
8
1
62
256
6
ByLayer
370
18
48
1
60
1
100
AcDbLine
10
96
20
8.731
30
0
11
96.460784
21
5.231002
31
0
39
0
210
0
220
0
230
1
0
LINE
5
131
100
AcDbEntity
8
1
62
256
6
ByLayer
370
18
48
1
60
1
100
AcDbLine
10
96.460784
20
5.231002
30
0
11
95.539216
21
5.230998
31
0
39
0
210
0
220
0
230
1
0
LINE
5
132
100
AcDbEntity
8
1
62
256
6
ByLayer
370
18
48
1
60
1
100
AcDbLine
10
95.539216
20
5.230998
30
0
11
96
21
8.731
31
0
39
0
210
0
220
0
230
1
0
LINE
5
134
100
AcDbEntity
8
1
62
256
6
ByLayer
370
18
48
1
60
1
100
AcDbLine
10
96
20
-8.731
30
0
11
95.539216
21
-5.231002
31
0
39
0
210
0
220
0
230
1
0
LINE
5
135
100
AcDbEntity
8
1
62
256
6
ByLayer
370
18
48
1
60
1
100
AcDbLine
10
95.539216
20
-5.231002
30
0
11
96.460784
21
-5.230998
31
0
39
0
210
0
220
0
230
1
0
LINE
5
136
100
AcDbEntity
8
1
62
256
6
ByLayer
370
18
48
1
60
1
100
AcDbLine
10
96.460784
20
-5.230998
30
0
11
96
21
-8.731
31
0
39
0
210
0
220
0
230
1
0
LINE
5
139
100
AcDbEntity
8
1
62
256
6
ByLayer
370
18
48
1
60
1
100
AcDbLine
10
94.998383
20
-17.85416
30
0
11
98.051575
21
-16.082064
31
0
39
0
210
0
220
0
230
1
0
LINE
5
13A
100
AcDbEntity
8
1
62
256
6
ByLayer
370
18
48
1
60
1
100
AcDbLine
10
98.051575
20
-16.082064
30
0
11
98.406196
21
-16.93267
31
0
39
0
210
0
220
0
230
1
0
LINE
5
13B
100
AcDbEntity
8
1
62
256
6
ByLayer
370
18
48
1
60
1
100
AcDbLine
10
98.406196
20
-16.93267
30
0
11
94.998383
21
-17.85416
31
0
39
0
210
0
220
0
230
1
0
LINE
5
13D
100
AcDbEntity
8
1
62
256
6
ByLayer
370
18
48
1
60
1
100
AcDbLine
10
94.998383
20
17.85416
30
0
11
98.406193
21
16.932671
31
0
39
0
210
0
220
0
230
1
0
LINE
5
13E
100
AcDbEntity
8
1
62
256
6
ByLayer
370
18
48
1
60
1
100
AcDbLine
10
98.406193
20
16.932671
30
0
11
98.051579
21
16.082063
31
0
39
0
210
0
220
0
230
1
0
LINE
5
13F
100
AcDbEntity
8
1
62
256
6
ByLayer
370
18
48
1
60
1
100
AcDbLine
10
98.051579
20
16.082063
30
0
11
94.998383
21
17.85416
31
0
39
0
210
0
220
0
230
1
0
MTEXT
5
122
100
AcDbEntity
8
SK2
62
256
6
ByLayer
370
18
48
1
60
0
100
AcDbMText
10
-55.841114
20
21.183437
30
0
210
0
220
0
230
1
1
%%c
40
3
41
0
44
1.084337
50
90
71
7
72
5
7
iso_b_vert
0
MTEXT
5
125
100
AcDbEntity
8
SK2
62
256
6
ByLayer
370
18
48
1
60
0
100
AcDbMText
10
-55.841114
20
27.16
30
0
210
0
220
0
230
1
1
\W0.7022;19.050
40
3
41
0
44
1.084337
50
90
71
7
72
5
7
iso_b_vert
0
MTEXT
5
12E
100
AcDbEntity
8
2
62
256
6
ByLayer
370
18
48
1
60
0
100
AcDbMText
10
94.658886
20
20.389437
30
0
210
0
220
0
230
1
1
%%c
40
3
41
0
44
1.084337
50
90
71
7
72
5
7
iso_b_vert
0
MTEXT
5
12F
100
AcDbEntity
8
2
62
256
6
ByLayer
370
18
48
1
60
0
100
AcDbMText
10
94.658886
20
26.366
30
0
210
0
220
0
230
1
1
\W0.7237;17.462
40
3
41
0
44
1.084337
50
90
71
7
72
5
7
iso_b_vert
0
MTEXT
5
138
100
AcDbEntity
8
SK2
62
256
6
ByLayer
370
18
48
1
60
0
100
AcDbMText
10
108.409114
20
3.734657
30
0
210
0
220
0
230
1
1
\W0.7071;140%%d
40
3
41
0
44
1.084337
50
270
71
7
72
5
7
iso_b_vert
0
MTEXT
5
141
100
AcDbEntity
8
SK6
62
256
6
ByLayer
370
18
48
1
60
0
100
AcDbMText
10
-5.726855
20
-67.114886
30
0
210
0
220
0
230
1
1
\W0.7025;H85311/16
40
3
41
0
44
1.084337
50
0
71
7
72
5
7
iso_b_vert
0
HATCH
5
129
100
AcDbEntity
8
SK2
62
256
6
ByLayer
370
13
48
1
60
0
100
AcDbHatch
10
0
20
0
30
0
210
0
220
0
230
1
2
ANSI31
70
0
71
0
91
1
92
5
93
3
72
1
10
-54.5
20
9.52499999999998
11
-54.0392162584472
21
6.02500169255316
72
1
10
-54.0392162584472
20
6.02500169255316
11
-54.9607837415528
21
6.02499830744679
72
1
10
-54.9607837415528
20
6.02499830744679
11
-54.5
21
9.52499999999998
97
0
75
0
76
1
52
0
41
0.0062
77
0
78
1
53
45
43
0
44
0
45
-0.0139193969876572
46
0.0139193969876572
79
0
47
0
98
1
10
0
20
0
0
HATCH
5
12D
100
AcDbEntity
8
SK2
62
256
6
ByLayer
370
13
48
1
60
0
100
AcDbHatch
10
0
20
0
30
0
210
0
220
0
230
1
2
ANSI31
70
0
71
0
91
1
92
5
93
3
72
1
10
-54.5
20
-9.52500000000001
11
-54.9607837415528
21
-6.02500169255319
72
1
10
-54.9607837415528
20
-6.02500169255319
11
-54.0392162584472
21
-6.02499830744682
72
1
10
-54.0392162584472
20
-6.02499830744682
11
-54.5
21
-9.52500000000001
97
0
75
0
76
1
52
0
41
0.0062
77
0
78
1
53
45
43
0
44
0
45
-0.0139193969876572
46
0.0139193969876572
79
0
47
0
98
1
10
0
20
0
0
HATCH
5
133
100
AcDbEntity
8
2
62
256
6
ByLayer
370
13
48
1
60
0
100
AcDbHatch
10
0
20
0
30
0
210
0
220
0
230
1
2
ANSI31
70
0
71
0
91
1
92
5
93
3
72
1
10
96
20
8.73099999999999
11
96.4607837415528
21
5.23100169255318
72
1
10
96.4607837415528
20
5.23100169255318
11
95.5392162584472
21
5.23099830744681
72
1
10
95.5392162584472
20
5.23099830744681
11
96
21
8.73099999999999
97
0
75
0
76
1
52
0
41
0.0062
77
0
78
1
53
45
43
0
44
0
45
-0.0139193969876572
46
0.0139193969876572
79
0
47
0
98
1
10
0
20
0
0
HATCH
5
137
100
AcDbEntity
8
2
62
256
6
ByLayer
370
13
48
1
60
0
100
AcDbHatch
10
0
20
0
30
0
210
0
220
0
230
1
2
ANSI31
70
0
71
0
91
1
92
5
93
3
72
1
10
96
20
-8.73100000000002
11
95.5392162584472
21
-5.23100169255321
72
1
10
95.5392162584472
20
-5.23100169255321
11
96.4607837415528
21
-5.23099830744684
72
1
10
96.4607837415528
20
-5.23099830744684
11
96
21
-8.73100000000002
97
0
75
0
76
1
52
0
41
0.0062
77
0
78
1
53
45
43
0
44
0
45
-0.0139193969876572
46
0.0139193969876572
79
0
47
0
98
1
10
0
20
0
0
HATCH
5
13C
100
AcDbEntity
8
SK2
62
256
6
ByLayer
370
13
48
1
60
0
100
AcDbHatch
10
0
20
0
30
0
210
0
220
0
230
1
2
ANSI31
70
0
71
0
91
1
92
5
93
3
72
1
10
94.9983827231877
20
-17.8541597949322
11
98.0515754256929
21
-16.0820638240607
72
1
10
98.0515754256929
20
-16.0820638240607
11
98.406195833975
21
-16.9326700737196
72
1
10
98.406195833975
20
-16.9326700737196
11
94.9983827231877
21
-17.8541597949322
97
0
75
0
76
1
52
0
41
0.0062
77
0
78
1
53
45
43
0
44
0
45
-0.0139193969876572
46
0.0139193969876572
79
0
47
0
98
1
10
0
20
0
0
HATCH
5
140
100
AcDbEntity
8
SK2
62
256
6
ByLayer
370
13
48
1
60
0
100
AcDbHatch
10
0
20
0
30
0
210
0
220
0
230
1
2
ANSI31
70
0
71
0
91
1
92
5
93
3
72
1
10
94.9983827231877
20
17.8541597949322
11
98.4061927095191
21
16.9326713763016
72
1
10
98.4061927095191
20
16.9326713763016
11
98.0515785501489
21
16.0820625214788
72
1
10
98.0515785501489
20
16.0820625214788
11
94.9983827231877
21
17.8541597949322
97
0
75
0
76
1
52
0
41
0.0062
77
0
78
1
53
45
43
0
44
0
45
-0.0139193969876572
46
0.0139193969876572
79
0
47
0
98
1
10
0
20
0
0
DIMENSION
5
144
100
AcDbEntity
8
SK2
62
256
6
ByLayer
370
18
48
1
60
0
100
AcDbDimension
2
_U0
10
88.5
20
-45.952229
30
0
11
20.25
21
-45.952229
31
0
70
32
71
1
72
1
41
1
210
0
220
0
230
1
3
Standard
100
AcDbAlignedDimension
13
-48
23
-9.525
33
0
14
88.5
24
0
34
0
50
0
100
AcDbRotatedDimension
1001
ACAD
1000
DSTYLE
1002
{
1070
   371
1070
    13
1070
   372
1070
    13
1070
     3
1000

1070
   170
1070
     0
1070
   144
1040
1.0
1070
   277
1070
     2
1070
   284
1070
     8
1070
   278
1070
    46
1070
   146
1040
1.166667
1070
   345
1005
16
1070
   347
1005
16
1070
   346
1005
16
1070
   344
1005
0
1070
   343
1005
0
1070
   172
1070
     1
1070
    76
1070
     0
1070
    75
1070
     0
1070
   282
1070
     0
1070
   281
1070
     0
1070
    71
1070
     0
1070
    74
1070
     0
1070
   279
1070
     0
1070
   173
1070
     1
1070
   340
1005
123
1070
   271
1070
     2
1070
   272
1070
     3
1070
    77
1070
     1
1070
    73
1070
     1
1070
   171
1070
     3
1070
   274
1070
     4
1070
   177
1070
     2
1070
   176
1070
     2
1070
   178
1070
     2
1070
    78
1070
     8
1070
    48
1040
-0.1
1070
    41
1040
3.5
1070
   147
1040
1.5
1070
    42
1040
1.5875
1070
    44
1040
2.0
1070
   140
1040
3.0
1002
}
1001
ACAD_DSTYLE_DIM_LINETYPE
1070
   380
1005
16
1001
ACAD_DSTYLE_DIM_EXT1_LINETYPE
1070
   381
1005
16
1001
ACAD_DSTYLE_DIM_EXT2_LINETYPE
1070
   382
1005
16
0
DIMENSION
5
15D
100
AcDbEntity
8
SK2
62
256
6
ByLayer
370
18
48
1
60
0
100
AcDbDimension
2
_U1
10
3
20
-35.952229
30
0
11
45.75
21
-35.952229
31
0
70
32
71
1
72
1
41
1
210
0
220
0
230
1
3
Standard
100
AcDbAlignedDimension
13
88.5
23
0
33
0
14
3
24
-8.731
34
0
50
0
100
AcDbRotatedDimension
1001
ACAD
1000
DSTYLE
1002
{
1070
   371
1070
    13
1070
   372
1070
    13
1070
     3
1000

1070
   170
1070
     0
1070
   144
1040
1.0
1070
   277
1070
     2
1070
   284
1070
     8
1070
   278
1070
    46
1070
   146
1040
1.166667
1070
   345
1005
16
1070
   347
1005
16
1070
   346
1005
16
1070
   344
1005
0
1070
   343
1005
0
1070
   172
1070
     1
1070
    76
1070
     0
1070
    75
1070
     0
1070
   282
1070
     0
1070
   281
1070
     0
1070
    71
1070
     0
1070
    74
1070
     0
1070
   279
1070
     0
1070
   173
1070
     1
1070
   340
1005
123
1070
   271
1070
     2
1070
   272
1070
     3
1070
    77
1070
     1
1070
    73
1070
     1
1070
   171
1070
     3
1070
   274
1070
     4
1070
   177
1070
     2
1070
   176
1070
     2
1070
   178
1070
     2
1070
    78
1070
     8
1070
    48
1040
-0.1
1070
    41
1040
3.5
1070
   147
1040
1.5
1070
    42
1040
1.5875
1070
    44
1040
2.0
1070
   140
1040
3.0
1002
}
1001
ACAD_DSTYLE_DIM_LINETYPE
1070
   380
1005
16
1001
ACAD_DSTYLE_DIM_EXT1_LINETYPE
1070
   381
1005
16
1001
ACAD_DSTYLE_DIM_EXT2_LINETYPE
1070
   382
1005
16
0
DIMENSION
5
175
100
AcDbEntity
8
SK2
62
256
6
ByLayer
370
18
48
1
60
0
100
AcDbDimension
2
_U2
10
0
20
-35.952229
30
0
11
-24
21
-35.952229
31
0
70
32
71
1
72
1
41
1
210
0
220
0
230
1
3
Standard
100
AcDbAlignedDimension
13
-48
23
-9.525
33
0
14
0
24
-9.525
34
0
50
0
100
AcDbRotatedDimension
1001
ACAD
1000
DSTYLE
1002
{
1070
   371
1070
    13
1070
   372
1070
    13
1070
     3
1000

1070
   170
1070
     0
1070
   144
1040
1.0
1070
   277
1070
     2
1070
   284
1070
     8
1070
   278
1070
    46
1070
   146
1040
1.166667
1070
   345
1005
16
1070
   347
1005
16
1070
   346
1005
16
1070
   344
1005
0
1070
   343
1005
0
1070
   172
1070
     1
1070
    76
1070
     0
1070
    75
1070
     0
1070
   282
1070
     0
1070
   281
1070
     0
1070
    71
1070
     0
1070
    74
1070
     0
1070
   279
1070
     0
1070
   173
1070
     1
1070
   340
1005
123
1070
   271
1070
     2
1070
   272
1070
     3
1070
    77
1070
     1
1070
    73
1070
     1
1070
   171
1070
     3
1070
   274
1070
     4
1070
   177
1070
     2
1070
   176
1070
     2
1070
   178
1070
     2
1070
    78
1070
     8
1070
    48
1040
-0.1
1070
    41
1040
3.5
1070
   147
1040
1.5
1070
    42
1040
1.5875
1070
    44
1040
2.0
1070
   140
1040
3.0
1002
}
1001
ACAD_DSTYLE_DIM_LINETYPE
1070
   380
1005
16
1001
ACAD_DSTYLE_DIM_EXT1_LINETYPE
1070
   381
1005
16
1001
ACAD_DSTYLE_DIM_EXT2_LINETYPE
1070
   382
1005
16
0
DIMENSION
5
18D
100
AcDbEntity
8
SK2
62
256
6
ByLayer
370
18
48
1
60
0
100
AcDbDimension
2
_U3
10
26
20
32.952229
30
0
11
57.25
21
32.952229
31
0
70
32
71
1
72
1
41
1
210
0
220
0
230
1
3
Standard
100
AcDbAlignedDimension
13
88.5
23
0
33
0
14
26
24
8.731
34
0
50
0
100
AcDbRotatedDimension
1001
ACAD
1000
DSTYLE
1002
{
1070
   371
1070
    13
1070
   372
1070
    13
1070
     3
1000

1070
   170
1070
     0
1070
   144
1040
1.0
1070
   277
1070
     2
1070
   284
1070
     8
1070
   278
1070
    46
1070
   146
1040
1.166667
1070
   345
1005
16
1070
   347
1005
16
1070
   346
1005
16
1070
   344
1005
0
1070
   343
1005
0
1070
   172
1070
     1
1070
    76
1070
     0
1070
    75
1070
     0
1070
   282
1070
     0
1070
   281
1070
     0
1070
    71
1070
     0
1070
    74
1070
     0
1070
   279
1070
     0
1070
   173
1070
     1
1070
   340
1005
123
1070
   271
1070
     2
1070
   272
1070
     3
1070
    77
1070
     1
1070
    73
1070
     1
1070
   171
1070
     3
1070
   274
1070
     4
1070
   177
1070
     2
1070
   176
1070
     2
1070
   178
1070
     2
1070
    78
1070
     8
1070
    48
1040
-0.1
1070
    41
1040
3.5
1070
   147
1040
1.5
1070
    42
1040
1.5875
1070
    44
1040
2.0
1070
   140
1040
3.0
1002
}
1001
ACAD_DSTYLE_DIM_LINETYPE
1070
   380
1005
16
1001
ACAD_DSTYLE_DIM_EXT1_LINETYPE
1070
   381
1005
16
1001
ACAD_DSTYLE_DIM_EXT2_LINETYPE
1070
   382
1005
16
0
ENDSEC
0
SECTION
2
OBJECTS
0
DICTIONARY
5
215
330
0
100
AcDbDictionary
280
0
281
1
3
ACAD_GROUP
350
216
3
ACAD_MLINESTYLE
350
217
0
DICTIONARY
5
216
330
0
100
AcDbDictionary
280
0
281
1
0
DICTIONARY
5
217
330
0
100
AcDbDictionary
280
0
281
1
3
Standard
350
18
0
MLINESTYLE
5
18
330
217
100
AcDbMlineStyle
2
Standard
70
0
3

62
256
51
90
52
90
71
2
49
-0.5
62
256
6
ByLayer
49
0.5
62
256
6
ByLayer
0
RASTERVARIABLES
5
203
330

100
AcDbRasterVariables
90
0
70
1
71
1
72
1
0
ENDSEC
0
EOF
