0
SECTION
2
HEADER
9
$ACADVER
1
AC1015
9
$DWGCODEPAGE
3
ANSI_1252
9
$HANDSEED
5
20d
9
$ANGBASE
50
0
9
$ANGDIR
70
0
9
$ATTMODE
70
1
9
$AUNITS
70
0
9
$AUPREC
70
0
9
$CECOLOR
62
256
9
$CELTSCALE
40
1
9
$CELTYPE
6
ByLayer
9
$CELWEIGHT
370
18
9
$CLAYER
8
0
9
$CMLJUST
70
0
9
$CMLSCALE
40
1
9
$CMLSTYLE
2
Standard
9
$DIMSTYLE
2
Standard
9
$TEXTSIZE
40
0.2
9
$TEXTSTYLE
7
Standard
9
$LUNITS
70
2
9
$LUPREC
70
4
9
$EXTNAMES
290
1
9
$INSUNITS
70
4
9
$LTSCALE
40
1
9
$LWDISPLAY
290
1
9
$PDMODE
70
0
9
$PDSIZE
40
0
9
$PLINEGEN
70
0
0
ENDSEC
0
SECTION
2
CLASSES
0
CLASS
1
RASTERVARIABLES
2
AcDbRasterVariables
3
ISM
90
0
280
0
281
0
0
ENDSEC
0
SECTION
2
TABLES
0
TABLE
2
VPORT
5
203
100
AcDbSymbolTable
0
VPORT
5
1
100
AcDbSymbolTableRecord
100
AcDbViewportTableRecord
2
*Active
70
0
10
0
20
0
11
1
21
1
12
-1
22
1
13
0
23
0
14
0.5
24
0.5
15
10
25
10
16
0
26
0
36
1
17
0
27
0
37
0
0
ENDTAB
0
TABLE
2
LTYPE
5
204
100
AcDbSymbolTable
0
LTYPE
5
14
100
AcDbSymbolTableRecord
100
AcDbLinetypeTableRecord
70
0
2
ByBlock
3

72
65
73
0
40
0
0
LTYPE
5
15
100
AcDbSymbolTableRecord
100
AcDbLinetypeTableRecord
70
0
2
ByLayer
3

72
65
73
0
40
0
0
LTYPE
5
16
100
AcDbSymbolTableRecord
100
AcDbLinetypeTableRecord
70
0
2
Continuous
3
Solid line
72
65
73
0
40
0
0
LTYPE
5
6E
100
AcDbSymbolTableRecord
100
AcDbLinetypeTableRecord
70
0
2
CENTER
3
____ _ ____ _ ____ _ ____
72
65
73
4
40
47.5
49
22
74
0
49
-8.5
74
0
49
8.5
74
0
49
-8.5
74
0
0
LTYPE
5
6F
100
AcDbSymbolTableRecord
100
AcDbLinetypeTableRecord
70
0
2
DASHED
3
__ __ __ __ __ __ __ __ __
72
65
73
2
40
25.72
49
12.86
74
0
49
-12.86
74
0
0
ENDTAB
0
TABLE
2
LAYER
5
205
100
AcDbSymbolTable
0
LAYER
5
10
100
AcDbSymbolTableRecord
100
AcDbLayerTableRecord
2
0
70
0
62
7
6
Continuous
290
1
370
-3
390
0
0
LAYER
5
71
100
AcDbSymbolTableRecord
100
AcDbLayerTableRecord
2
81
70
0
62
-3
6
Continuous
290
1
370
-3
390
0
0
LAYER
5
73
100
AcDbSymbolTableRecord
100
AcDbLayerTableRecord
2
80
70
0
62
-6
6
Continuous
290
1
370
-3
390
0
0
LAYER
5
75
100
AcDbSymbolTableRecord
100
AcDbLayerTableRecord
2
1
70
0
62
4
6
Continuous
290
1
370
-3
390
0
0
LAYER
5
7F
100
AcDbSymbolTableRecord
100
AcDbLayerTableRecord
2
4
70
0
62
-2
6
CENTER
290
1
370
-3
390
0
0
LAYER
5
B0
100
AcDbSymbolTableRecord
100
AcDbLayerTableRecord
2
2
70
0
62
7
6
Continuous
290
1
370
-3
390
0
0
LAYER
5
132
100
AcDbSymbolTableRecord
100
AcDbLayerTableRecord
2
Defpoints
70
0
62
7
6
Continuous
290
0
370
-3
390
0
0
LAYER
5
1ef
100
AcDbSymbolTableRecord
100
AcDbLayerTableRecord
2
SK4
70
0
62
2
6
CENTER
290
1
370
-3
390
0
0
LAYER
5
1f0
100
AcDbSymbolTableRecord
100
AcDbLayerTableRecord
2
SK1
70
0
62
4
6
Continuous
290
1
370
-3
390
0
0
LAYER
5
1f1
100
AcDbSymbolTableRecord
100
AcDbLayerTableRecord
2
SK2
70
0
62
7
6
Continuous
290
1
370
-3
390
0
0
LAYER
5
1f2
100
AcDbSymbolTableRecord
100
AcDbLayerTableRecord
2
SK6
70
0
62
5
6
Continuous
290
1
370
-3
390
0
0
ENDTAB
0
TABLE
2
STYLE
5
206
100
AcDbSymbolTable
0
STYLE
5
11
100
AcDbSymbolTableRecord
100
AcDbTextStyleTableRecord
2
Standard
3
txt
70
0
71
0
40
0
41
1
42
0
50
0
0
STYLE
5
10E
100
AcDbSymbolTableRecord
100
AcDbTextStyleTableRecord
2
iso_b_vert
3
simplex.shx
70
0
71
0
40
0
41
1
42
0
50
0
0
STYLE
5
10F
100
AcDbSymbolTableRecord
100
AcDbTextStyleTableRecord
2
DWGDirectTextStyle
3
simplex
70
0
71
0
40
0
41
1
42
0
50
0
0
ENDTAB
0
TABLE
2
DIMSTYLE
5
207
100
AcDbSymbolTable
100
AcDbDimStyleTable
0
DIMSTYLE
105
27
100
AcDbSymbolTableRecord
100
AcDbDimStyleTableRecord
2
Standard
70
0
3
<>
41
0.18
42
0.0625
44
0.18
140
0.18
147
0.09
73
0
74
0
77
1
271
2
275
0
278
52
280
0
340
11
0
ENDTAB
0
TABLE
2
VIEW
5
208
100
AcDbSymbolTable
0
ENDTAB
0
TABLE
2
UCS
5
209
100
AcDbSymbolTable
0
ENDTAB
0
TABLE
2
APPID
5
20a
100
AcDbSymbolTable
0
APPID
5
12
100
AcDbSymbolTableRecord
100
AcDbRegAppTableRecord
2
ACAD
70
0
0
APPID
5
12E
100
AcDbSymbolTableRecord
100
AcDbRegAppTableRecord
2
ACAD_DSTYLE_DIMBREAK
70
0
0
APPID
5
1AE
100
AcDbSymbolTableRecord
100
AcDbRegAppTableRecord
2
ACAD_DSTYLE_DIM_LINETYPE
70
0
0
APPID
5
1AF
100
AcDbSymbolTableRecord
100
AcDbRegAppTableRecord
2
ACAD_DSTYLE_DIM_EXT1_LINETYPE
70
0
0
APPID
5
1B0
100
AcDbSymbolTableRecord
100
AcDbRegAppTableRecord
2
ACAD_DSTYLE_DIM_EXT2_LINETYPE
70
0
0
APPID
5
1EB
100
AcDbSymbolTableRecord
100
AcDbRegAppTableRecord
2
ACAD_MLEADERVER
70
0
0
ENDTAB
0
TABLE
2
BLOCK_RECORD
5
20b
100
AcDbSymbolTable
0
BLOCK_RECORD
5
1F
100
AcDbSymbolTableRecord
100
AcDbBlockTableRecord
2
*Model_Space
340
0
70
0
0
BLOCK_RECORD
5
1B
100
AcDbSymbolTableRecord
100
AcDbBlockTableRecord
2
*Paper_Space
340
0
70
0
0
BLOCK_RECORD
5
23
100
AcDbSymbolTableRecord
100
AcDbBlockTableRecord
2
*Paper_Space0
340
0
70
0
0
BLOCK_RECORD
5
133
100
AcDbSymbolTableRecord
100
AcDbBlockTableRecord
2
*D1
340
0
70
0
0
BLOCK_RECORD
5
13F
100
AcDbSymbolTableRecord
100
AcDbBlockTableRecord
2
_U0
340
0
70
0
0
BLOCK_RECORD
5
14B
100
AcDbSymbolTableRecord
100
AcDbBlockTableRecord
2
*D3
340
0
70
0
0
BLOCK_RECORD
5
157
100
AcDbSymbolTableRecord
100
AcDbBlockTableRecord
2
_U1
340
0
70
0
0
BLOCK_RECORD
5
163
100
AcDbSymbolTableRecord
100
AcDbBlockTableRecord
2
*D5
340
0
70
0
0
BLOCK_RECORD
5
16F
100
AcDbSymbolTableRecord
100
AcDbBlockTableRecord
2
_U2
340
0
70
0
0
BLOCK_RECORD
5
17B
100
AcDbSymbolTableRecord
100
AcDbBlockTableRecord
2
*D7
340
0
70
0
0
BLOCK_RECORD
5
187
100
AcDbSymbolTableRecord
100
AcDbBlockTableRecord
2
_U3
340
0
70
0
0
ENDTAB
0
ENDSEC
0
SECTION
2
BLOCKS
0
BLOCK
5
20
100
AcDbEntity
8
0
100
AcDbBlockBegin
2
*Model_Space
70
0
10
0
20
0
30
0
3
*Model_Space
0
ENDBLK
5
21
100
AcDbEntity
8
0
100
AcDbBlockEnd
0
BLOCK
5
1C
100
AcDbEntity
8
0
100
AcDbBlockBegin
2
*Paper_Space
70
0
10
0
20
0
30
0
3
*Paper_Space
0
ENDBLK
5
1D
100
AcDbEntity
8
0
100
AcDbBlockEnd
0
BLOCK
5
24
100
AcDbEntity
8
0
100
AcDbBlockBegin
2
*Paper_Space0
70
0
10
0
20
0
30
0
3
*Paper_Space0
0
ENDBLK
5
25
100
AcDbEntity
8
0
100
AcDbBlockEnd
0
BLOCK
5
134
100
AcDbEntity
8
0
100
AcDbBlockBegin
2
*D1
70
1
10
0
20
0
30
0
3
*D1
0
LINE
5
136
100
AcDbEntity
8
0
62
256
6
ByLayer
370
-2
48
1
60
0
100
AcDbLine
10
-48
20
-9.525
30
0
11
-48
21
-47.952229
31
0
39
0
210
0
220
0
230
1
0
LINE
5
137
100
AcDbEntity
8
0
62
256
6
ByLayer
370
-2
48
1
60
0
100
AcDbLine
10
57
20
-1.5875
30
0
11
57
21
-47.952229
31
0
39
0
210
0
220
0
230
1
0
LINE
5
138
100
AcDbEntity
8
0
62
256
6
ByLayer
370
-2
48
1
60
0
100
AcDbLine
10
-44.5
20
-45.952229
30
0
11
53.5
21
-45.952229
31
0
39
0
210
0
220
0
230
1
0
SOLID
5
139
100
AcDbEntity
8
0
62
256
6
ByLayer
370
-1
48
1
60
0
100
AcDbTrace
10
-44.5
20
-45.368896
30
0
11
-44.5
21
-46.535563
31
0
12
-48
22
-45.952229
32
0
13
-48
23
-45.952229
33
0
39
0
210
0
220
0
230
1
0
SOLID
5
13A
100
AcDbEntity
8
0
62
256
6
ByLayer
370
-1
48
1
60
0
100
AcDbTrace
10
53.5
20
-46.535563
30
0
11
53.5
21
-45.368896
31
0
12
57
22
-45.952229
32
0
13
57
23
-45.952229
33
0
39
0
210
0
220
0
230
1
0
MTEXT
5
13B
100
AcDbEntity
8
0
62
256
6
ByLayer
370
18
48
1
60
0
100
AcDbMText
10
4.5
20
-39.952229
30
0
210
0
220
0
230
1
1
\A1;105
40
3
41
0
44
1
50
0
71
5
72
5
7
iso_b_vert
0
POINT
5
13C
100
AcDbEntity
8
Defpoints
62
0
6
ByLayer
370
-1
48
1
60
0
100
AcDbPoint
10
-48
20
-7.9375
30
0
39
0
210
0
220
0
230
1
50
360
0
POINT
5
13D
100
AcDbEntity
8
Defpoints
62
0
6
ByLayer
370
-1
48
1
60
0
100
AcDbPoint
10
57
20
0
30
0
39
0
210
0
220
0
230
1
50
360
0
POINT
5
13E
100
AcDbEntity
8
Defpoints
62
0
6
ByLayer
370
-1
48
1
60
0
100
AcDbPoint
10
57
20
-45.952229
30
0
39
0
210
0
220
0
230
1
50
360
0
ENDBLK
5
135
100
AcDbEntity
8
0
100
AcDbBlockEnd
0
BLOCK
5
146
100
AcDbEntity
8
0
100
AcDbBlockBegin
2
_U0
70
0
10
0
20
0
30
0
3
_U0
0
MTEXT
5
140
100
AcDbEntity
8
SK2
62
256
6
ByLayer
370
18
48
1
60
0
100
AcDbMText
10
-0.728342
20
-45.067115
30
0
210
0
220
0
230
1
1
\W0.7022;105.00
40
3
41
0
44
1.084337
50
0
71
7
72
5
7
iso_b_vert
0
LINE
5
141
100
AcDbEntity
8
SK2
62
256
6
ByLayer
370
13
48
1
60
0
100
AcDbLine
10
-48
20
-9.525
30
0
11
-48
21
-47.952229
31
0
39
0
210
0
220
0
230
1
0
LINE
5
142
100
AcDbEntity
8
SK2
62
256
6
ByLayer
370
13
48
1
60
0
100
AcDbLine
10
57
20
-1.5875
30
0
11
57
21
-47.952229
31
0
39
0
210
0
220
0
230
1
0
LINE
5
143
100
AcDbEntity
8
SK2
62
256
6
ByLayer
370
13
48
1
60
0
100
AcDbLine
10
-48
20
-45.952229
30
0
11
57
21
-45.952229
31
0
39
0
210
0
220
0
230
1
0
SOLID
5
144
100
AcDbEntity
8
SK2
62
256
6
ByLayer
370
18
48
1
60
0
100
AcDbTrace
10
-48
20
-45.952229
30
0
11
-44.500002
21
-45.491446
31
0
12
-44.499998
22
-46.413013
32
0
13
-44.499998
23
-46.413013
33
0
39
0
210
0
220
0
230
1
0
SOLID
5
145
100
AcDbEntity
8
SK2
62
256
6
ByLayer
370
18
48
1
60
0
100
AcDbTrace
10
57
20
-45.952229
30
0
11
53.500002
21
-46.413013
31
0
12
53.499998
22
-45.491446
32
0
13
53.499998
23
-45.491446
33
0
39
0
210
0
220
0
230
1
0
ENDBLK
5
147
100
AcDbEntity
8
0
100
AcDbBlockEnd
0
BLOCK
5
14C
100
AcDbEntity
8
0
100
AcDbBlockBegin
2
*D3
70
1
10
0
20
0
30
0
3
*D3
0
LINE
5
14E
100
AcDbEntity
8
0
62
256
6
ByLayer
370
-2
48
1
60
0
100
AcDbLine
10
57
20
-1.5875
30
0
11
57
21
-37.952229
31
0
39
0
210
0
220
0
230
1
0
LINE
5
14F
100
AcDbEntity
8
0
62
256
6
ByLayer
370
-2
48
1
60
0
100
AcDbLine
10
3
20
-7.9375
30
0
11
3
21
-37.952229
31
0
39
0
210
0
220
0
230
1
0
LINE
5
150
100
AcDbEntity
8
0
62
256
6
ByLayer
370
-2
48
1
60
0
100
AcDbLine
10
53.5
20
-35.952229
30
0
11
6.5
21
-35.952229
31
0
39
0
210
0
220
0
230
1
0
SOLID
5
151
100
AcDbEntity
8
0
62
256
6
ByLayer
370
-1
48
1
60
0
100
AcDbTrace
10
53.5
20
-36.535563
30
0
11
53.5
21
-35.368896
31
0
12
57
22
-35.952229
32
0
13
57
23
-35.952229
33
0
39
0
210
0
220
0
230
1
0
SOLID
5
152
100
AcDbEntity
8
0
62
256
6
ByLayer
370
-1
48
1
60
0
100
AcDbTrace
10
6.5
20
-35.368896
30
0
11
6.5
21
-36.535563
31
0
12
3
22
-35.952229
32
0
13
3
23
-35.952229
33
0
39
0
210
0
220
0
230
1
0
MTEXT
5
153
100
AcDbEntity
8
0
62
256
6
ByLayer
370
18
48
1
60
0
100
AcDbMText
10
30
20
-29.952229
30
0
210
0
220
0
230
1
1
\A1;54
40
3
41
0
44
1
50
0
71
5
72
5
7
iso_b_vert
0
POINT
5
154
100
AcDbEntity
8
Defpoints
62
0
6
ByLayer
370
-1
48
1
60
0
100
AcDbPoint
10
57
20
0
30
0
39
0
210
0
220
0
230
1
50
360
0
POINT
5
155
100
AcDbEntity
8
Defpoints
62
0
6
ByLayer
370
-1
48
1
60
0
100
AcDbPoint
10
3
20
-6.35
30
0
39
0
210
0
220
0
230
1
50
360
0
POINT
5
156
100
AcDbEntity
8
Defpoints
62
0
6
ByLayer
370
-1
48
1
60
0
100
AcDbPoint
10
3
20
-35.952229
30
0
39
0
210
0
220
0
230
1
50
360
0
ENDBLK
5
14D
100
AcDbEntity
8
0
100
AcDbBlockEnd
0
BLOCK
5
15E
100
AcDbEntity
8
0
100
AcDbBlockBegin
2
_U1
70
0
10
0
20
0
30
0
3
_U1
0
MTEXT
5
158
100
AcDbEntity
8
SK2
62
256
6
ByLayer
370
18
48
1
60
0
100
AcDbMText
10
25.359687
20
-35.067115
30
0
210
0
220
0
230
1
1
\W0.7694;54.00
40
3
41
0
44
1.084337
50
0
71
7
72
5
7
iso_b_vert
0
LINE
5
159
100
AcDbEntity
8
SK2
62
256
6
ByLayer
370
13
48
1
60
0
100
AcDbLine
10
57
20
-1.5875
30
0
11
57
21
-37.952229
31
0
39
0
210
0
220
0
230
1
0
LINE
5
15A
100
AcDbEntity
8
SK2
62
256
6
ByLayer
370
13
48
1
60
0
100
AcDbLine
10
3
20
-7.9375
30
0
11
3
21
-37.952229
31
0
39
0
210
0
220
0
230
1
0
LINE
5
15B
100
AcDbEntity
8
SK2
62
256
6
ByLayer
370
13
48
1
60
0
100
AcDbLine
10
57
20
-35.952229
30
0
11
3
21
-35.952229
31
0
39
0
210
0
220
0
230
1
0
SOLID
5
15C
100
AcDbEntity
8
SK2
62
256
6
ByLayer
370
18
48
1
60
0
100
AcDbTrace
10
57
20
-35.952229
30
0
11
53.500002
21
-36.413013
31
0
12
53.499998
22
-35.491446
32
0
13
53.499998
23
-35.491446
33
0
39
0
210
0
220
0
230
1
0
SOLID
5
15D
100
AcDbEntity
8
SK2
62
256
6
ByLayer
370
18
48
1
60
0
100
AcDbTrace
10
3
20
-35.952229
30
0
11
6.499998
21
-35.491446
31
0
12
6.500002
22
-36.413013
32
0
13
6.500002
23
-36.413013
33
0
39
0
210
0
220
0
230
1
0
ENDBLK
5
15F
100
AcDbEntity
8
0
100
AcDbBlockEnd
0
BLOCK
5
164
100
AcDbEntity
8
0
100
AcDbBlockBegin
2
*D5
70
1
10
0
20
0
30
0
3
*D5
0
LINE
5
166
100
AcDbEntity
8
0
62
256
6
ByLayer
370
-2
48
1
60
0
100
AcDbLine
10
-48
20
-9.525
30
0
11
-48
21
-37.952229
31
0
39
0
210
0
220
0
230
1
0
LINE
5
167
100
AcDbEntity
8
0
62
256
6
ByLayer
370
-2
48
1
60
0
100
AcDbLine
10
0
20
-9.525
30
0
11
0
21
-37.952229
31
0
39
0
210
0
220
0
230
1
0
LINE
5
168
100
AcDbEntity
8
0
62
256
6
ByLayer
370
-2
48
1
60
0
100
AcDbLine
10
-44.5
20
-35.952229
30
0
11
-3.5
21
-35.952229
31
0
39
0
210
0
220
0
230
1
0
SOLID
5
169
100
AcDbEntity
8
0
62
256
6
ByLayer
370
-1
48
1
60
0
100
AcDbTrace
10
-44.5
20
-35.368896
30
0
11
-44.5
21
-36.535563
31
0
12
-48
22
-35.952229
32
0
13
-48
23
-35.952229
33
0
39
0
210
0
220
0
230
1
0
SOLID
5
16A
100
AcDbEntity
8
0
62
256
6
ByLayer
370
-1
48
1
60
0
100
AcDbTrace
10
-3.5
20
-36.535563
30
0
11
-3.5
21
-35.368896
31
0
12
0
22
-35.952229
32
0
13
0
23
-35.952229
33
0
39
0
210
0
220
0
230
1
0
MTEXT
5
16B
100
AcDbEntity
8
0
62
256
6
ByLayer
370
18
48
1
60
0
100
AcDbMText
10
-24
20
-29.952229
30
0
210
0
220
0
230
1
1
\A1;48
40
3
41
0
44
1
50
0
71
5
72
5
7
iso_b_vert
0
POINT
5
16C
100
AcDbEntity
8
Defpoints
62
0
6
ByLayer
370
-1
48
1
60
0
100
AcDbPoint
10
-48
20
-7.9375
30
0
39
0
210
0
220
0
230
1
50
360
0
POINT
5
16D
100
AcDbEntity
8
Defpoints
62
0
6
ByLayer
370
-1
48
1
60
0
100
AcDbPoint
10
0
20
-7.9375
30
0
39
0
210
0
220
0
230
1
50
360
0
POINT
5
16E
100
AcDbEntity
8
Defpoints
62
0
6
ByLayer
370
-1
48
1
60
0
100
AcDbPoint
10
0
20
-35.952229
30
0
39
0
210
0
220
0
230
1
50
360
0
ENDBLK
5
165
100
AcDbEntity
8
0
100
AcDbBlockEnd
0
BLOCK
5
176
100
AcDbEntity
8
0
100
AcDbBlockBegin
2
_U2
70
0
10
0
20
0
30
0
3
_U2
0
MTEXT
5
170
100
AcDbEntity
8
SK2
62
256
6
ByLayer
370
18
48
1
60
0
100
AcDbMText
10
-28.640313
20
-35.067115
30
0
210
0
220
0
230
1
1
\W0.7694;48.00
40
3
41
0
44
1.084337
50
0
71
7
72
5
7
iso_b_vert
0
LINE
5
171
100
AcDbEntity
8
SK2
62
256
6
ByLayer
370
13
48
1
60
0
100
AcDbLine
10
-48
20
-9.525
30
0
11
-48
21
-37.952229
31
0
39
0
210
0
220
0
230
1
0
LINE
5
172
100
AcDbEntity
8
SK2
62
256
6
ByLayer
370
13
48
1
60
0
100
AcDbLine
10
0
20
-9.525
30
0
11
0
21
-37.952229
31
0
39
0
210
0
220
0
230
1
0
LINE
5
173
100
AcDbEntity
8
SK2
62
256
6
ByLayer
370
13
48
1
60
0
100
AcDbLine
10
-48
20
-35.952229
30
0
11
0
21
-35.952229
31
0
39
0
210
0
220
0
230
1
0
SOLID
5
174
100
AcDbEntity
8
SK2
62
256
6
ByLayer
370
18
48
1
60
0
100
AcDbTrace
10
-48
20
-35.952229
30
0
11
-44.500002
21
-35.491446
31
0
12
-44.499998
22
-36.413013
32
0
13
-44.499998
23
-36.413013
33
0
39
0
210
0
220
0
230
1
0
SOLID
5
175
100
AcDbEntity
8
SK2
62
256
6
ByLayer
370
18
48
1
60
0
100
AcDbTrace
10
0
20
-35.952229
30
0
11
-3.499998
21
-36.413013
31
0
12
-3.500002
22
-35.491446
32
0
13
-3.500002
23
-35.491446
33
0
39
0
210
0
220
0
230
1
0
ENDBLK
5
177
100
AcDbEntity
8
0
100
AcDbBlockEnd
0
BLOCK
5
17C
100
AcDbEntity
8
0
100
AcDbBlockBegin
2
*D7
70
1
10
0
20
0
30
0
3
*D7
0
LINE
5
17E
100
AcDbEntity
8
0
62
256
6
ByLayer
370
-2
48
1
60
0
100
AcDbLine
10
57
20
1.5875
30
0
11
57
21
34.952229
31
0
39
0
210
0
220
0
230
1
0
LINE
5
17F
100
AcDbEntity
8
0
62
256
6
ByLayer
370
-2
48
1
60
0
100
AcDbLine
10
13
20
7.9375
30
0
11
13
21
34.952229
31
0
39
0
210
0
220
0
230
1
0
LINE
5
180
100
AcDbEntity
8
0
62
256
6
ByLayer
370
-2
48
1
60
0
100
AcDbLine
10
53.5
20
32.952229
30
0
11
16.5
21
32.952229
31
0
39
0
210
0
220
0
230
1
0
SOLID
5
181
100
AcDbEntity
8
0
62
256
6
ByLayer
370
-1
48
1
60
0
100
AcDbTrace
10
53.5
20
32.368896
30
0
11
53.5
21
33.535563
31
0
12
57
22
32.952229
32
0
13
57
23
32.952229
33
0
39
0
210
0
220
0
230
1
0
SOLID
5
182
100
AcDbEntity
8
0
62
256
6
ByLayer
370
-1
48
1
60
0
100
AcDbTrace
10
16.5
20
33.535563
30
0
11
16.5
21
32.368896
31
0
12
13
22
32.952229
32
0
13
13
23
32.952229
33
0
39
0
210
0
220
0
230
1
0
MTEXT
5
183
100
AcDbEntity
8
0
62
256
6
ByLayer
370
18
48
1
60
0
100
AcDbMText
10
35
20
38.952229
30
0
210
0
220
0
230
1
1
\A1;44
40
3
41
0
44
1
50
0
71
5
72
5
7
iso_b_vert
0
POINT
5
184
100
AcDbEntity
8
Defpoints
62
0
6
ByLayer
370
-1
48
1
60
0
100
AcDbPoint
10
57
20
0
30
0
39
0
210
0
220
0
230
1
50
360
0
POINT
5
185
100
AcDbEntity
8
Defpoints
62
0
6
ByLayer
370
-1
48
1
60
0
100
AcDbPoint
10
13
20
6.35
30
0
39
0
210
0
220
0
230
1
50
360
0
POINT
5
186
100
AcDbEntity
8
Defpoints
62
0
6
ByLayer
370
-1
48
1
60
0
100
AcDbPoint
10
13
20
32.952229
30
0
39
0
210
0
220
0
230
1
50
360
0
ENDBLK
5
17D
100
AcDbEntity
8
0
100
AcDbBlockEnd
0
BLOCK
5
18E
100
AcDbEntity
8
0
100
AcDbBlockBegin
2
_U3
70
0
10
0
20
0
30
0
3
_U3
0
MTEXT
5
188
100
AcDbEntity
8
SK2
62
256
6
ByLayer
370
18
48
1
60
0
100
AcDbMText
10
30.201744
20
33.837344
30
0
210
0
220
0
230
1
1
\W0.7958;44.00
40
3
41
0
44
1.084337
50
0
71
7
72
5
7
iso_b_vert
0
LINE
5
189
100
AcDbEntity
8
SK2
62
256
6
ByLayer
370
13
48
1
60
0
100
AcDbLine
10
57
20
1.5875
30
0
11
57
21
34.952229
31
0
39
0
210
0
220
0
230
1
0
LINE
5
18A
100
AcDbEntity
8
SK2
62
256
6
ByLayer
370
13
48
1
60
0
100
AcDbLine
10
13
20
7.9375
30
0
11
13
21
34.952229
31
0
39
0
210
0
220
0
230
1
0
LINE
5
18B
100
AcDbEntity
8
SK2
62
256
6
ByLayer
370
13
48
1
60
0
100
AcDbLine
10
57
20
32.952229
30
0
11
13
21
32.952229
31
0
39
0
210
0
220
0
230
1
0
SOLID
5
18C
100
AcDbEntity
8
SK2
62
256
6
ByLayer
370
18
48
1
60
0
100
AcDbTrace
10
57
20
32.952229
30
0
11
53.500002
21
32.491446
31
0
12
53.499998
22
33.413013
32
0
13
53.499998
23
33.413013
33
0
39
0
210
0
220
0
230
1
0
SOLID
5
18D
100
AcDbEntity
8
SK2
62
256
6
ByLayer
370
18
48
1
60
0
100
AcDbTrace
10
13
20
32.952229
30
0
11
16.499998
21
33.413013
31
0
12
16.500002
22
32.491446
32
0
13
16.500002
23
32.491446
33
0
39
0
210
0
220
0
230
1
0
ENDBLK
5
18F
100
AcDbEntity
8
0
100
AcDbBlockEnd
0
ENDSEC
0
SECTION
2
ENTITIES
0
ARC
5
C1
100
AcDbEntity
8
SK2
62
256
6
ByLayer
370
13
48
1
60
0
100
AcDbCircle
39
0
10
57
20
0
30
0
40
18.9999999999999
210
0
220
0
230
1
100
AcDbArc
50
290
51
70
0
ELLIPSE
5
C2
100
AcDbEntity
8
SK1
62
256
6
ByLayer
370
18
48
1
60
0
100
AcDbEllipse
10
-15.511927
20
0
30
0
11
8.51192663582145
21
-9.64486143630667E-15
31
0
210
0
220
0
230
1
40
0.932515
41
-0.661655103696894
42
0.661655103696897
0
ELLIPSE
5
C3
100
AcDbEntity
8
SK1
62
256
6
ByLayer
370
18
48
1
60
0
100
AcDbEllipse
10
-33.598162
20
0
30
0
11
-1.45804694001977E-15
21
-7.93749999999999
31
0
210
0
220
0
230
1
40
0.932515
41
-2.23245143049182
42
-0.909141223097976
0
POINT
5
70
100
AcDbEntity
8
81
62
256
6
ByLayer
370
18
48
1
60
0
100
AcDbPoint
10
57
20
0
30
0
39
0
210
0
220
0
230
1
50
360
0
POINT
5
72
100
AcDbEntity
8
80
62
256
6
ByLayer
370
18
48
1
60
0
100
AcDbPoint
10
0
20
0
30
0
39
0
210
0
220
0
230
1
50
360
0
POINT
5
74
100
AcDbEntity
8
1
62
256
6
ByLayer
370
18
48
1
60
1
100
AcDbPoint
10
-48
20
-7.9375
30
0
39
0
210
0
220
0
230
1
50
360
0
POINT
5
76
100
AcDbEntity
8
1
62
256
6
ByLayer
370
18
48
1
60
1
100
AcDbPoint
10
57
20
0
30
0
39
0
210
0
220
0
230
1
50
360
0
POINT
5
77
100
AcDbEntity
8
1
62
256
6
ByLayer
370
18
48
1
60
1
100
AcDbPoint
10
57
20
0
30
0
39
0
210
0
220
0
230
1
50
360
0
POINT
5
78
100
AcDbEntity
8
1
62
256
6
ByLayer
370
18
48
1
60
1
100
AcDbPoint
10
3
20
-6.35
30
0
39
0
210
0
220
0
230
1
50
360
0
POINT
5
79
100
AcDbEntity
8
1
62
256
6
ByLayer
370
18
48
1
60
1
100
AcDbPoint
10
-48
20
-7.9375
30
0
39
0
210
0
220
0
230
1
50
360
0
POINT
5
7A
100
AcDbEntity
8
1
62
256
6
ByLayer
370
18
48
1
60
1
100
AcDbPoint
10
0
20
-7.9375
30
0
39
0
210
0
220
0
230
1
50
360
0
POINT
5
7B
100
AcDbEntity
8
1
62
256
6
ByLayer
370
18
48
1
60
1
100
AcDbPoint
10
57
20
0
30
0
39
0
210
0
220
0
230
1
50
360
0
POINT
5
7C
100
AcDbEntity
8
1
62
256
6
ByLayer
370
18
48
1
60
1
100
AcDbPoint
10
13
20
6.35
30
0
39
0
210
0
220
0
230
1
50
360
0
SPLINE
5
C4
100
AcDbEntity
8
1
62
256
6
ByLayer
370
18
48
1
60
0
100
AcDbSpline
70
4
71
3
72
22
73
18
40
0
40
0
40
0
40
0
40
0.125000000000005
40
0.125000000000005
40
0.25000000000001
40
0.25000000000001
40
0.375000000000016
40
0.375000000000016
40
0.437500000000016
40
0.437500000000016
40
0.500000000000016
40
0.500000000000016
40
0.75000000000001
40
0.75000000000001
40
0.875000000000005
40
0.875000000000005
40
1
40
1
40
1
40
1
41
1
10
54.6887890124186
20
-0.905944282887361
30
0
41
1
10
54.3929937866989
20
-0.799255725777556
30
0
41
1
10
54.0974105419683
20
-0.69214410261273
30
0
41
1
10
53.5063839598949
20
-0.477865967569244
30
0
41
1
10
53.2109209228711
20
-0.370753839383951
30
0
41
1
10
52.6201750492295
20
-0.156358845123691
30
0
41
1
10
52.3248933675112
20
-0.0490728344442743
30
0
41
1
10
51.8821360162565
20
0.11206644897814
30
0
41
1
10
51.7345786646753
20
0.165817057804503
30
0
41
1
10
51.439520212768
20
0.27339112506175
30
0
41
1
10
51.2920110808937
20
0.327192295574747
30
0
41
1
10
50.5543100353197
20
0.595562209256997
30
0
41
1
10
49.9638010108147
20
0.808638567274102
30
0
41
1
10
49.0777912381262
20
1.12658811330363
30
0
41
1
10
48.7824225146596
20
1.23231743580499
30
0
41
1
10
48.191458722444
20
1.4428214722694
30
0
41
1
10
47.8958595044134
20
1.54758464657667
30
0
41
1
10
47.6
20
1.65146879318169
30
0
0
SPLINE
5
C5
100
AcDbEntity
8
1
62
256
6
ByLayer
370
18
48
1
60
0
100
AcDbSpline
70
4
71
3
72
81
73
77
40
0
40
0
40
0
40
0
40
0.0624999999999991
40
0.0624999999999991
40
0.124999999999998
40
0.124999999999998
40
0.140624999999998
40
0.140624999999998
40
0.156249999999998
40
0.156249999999998
40
0.187499999999999
40
0.187499999999999
40
0.25
40
0.25
40
0.28125
40
0.28125
40
0.296875
40
0.296875
40
0.3125
40
0.3125
40
0.343750000000001
40
0.343750000000001
40
0.375000000000001
40
0.375000000000001
40
0.406250000000001
40
0.406250000000001
40
0.437500000000002
40
0.437500000000002
40
0.453125000000002
40
0.453125000000002
40
0.468750000000003
40
0.468750000000003
40
0.500000000000004
40
0.500000000000004
40
0.531250000000005
40
0.531250000000005
40
0.539062500000005
40
0.539062500000005
40
0.546875000000006
40
0.562500000000007
40
0.562500000000007
40
0.59375000000001
40
0.59375000000001
40
0.625000000000012
40
0.625000000000012
40
0.640625000000014
40
0.640625000000014
40
0.656250000000015
40
0.656250000000015
40
0.687500000000018
40
0.687500000000018
40
0.71875000000002
40
0.71875000000002
40
0.726562500000021
40
0.726562500000021
40
0.734375000000021
40
0.734375000000021
40
0.750000000000021
40
0.750000000000021
40
0.78125000000002
40
0.78125000000002
40
0.812500000000019
40
0.843750000000019
40
0.843750000000019
40
0.851562500000018
40
0.851562500000018
40
0.859375000000018
40
0.875000000000015
40
0.875000000000015
40
0.937500000000008
40
0.937500000000008
40
0.968750000000005
40
0.968750000000005
40
0.984375000000002
40
0.984375000000002
40
1
40
1
40
1
40
1
41
1
10
54.6887890124263
20
6.14836114316563
30
0
41
1
10
54.7681163846893
20
5.95164137625991
30
0
41
1
10
54.8477021158732
20
5.74905961012269
30
0
41
1
10
55.0078471275124
20
5.33377394829023
30
0
41
1
10
55.0884073899209
20
5.12106034498839
30
0
41
1
10
55.1898031396616
20
4.84930154932994
30
0
41
1
10
55.2101161879247
20
4.79465469278875
30
0
41
1
10
55.2508083280295
20
4.68477563565131
30
0
41
1
10
55.2711950892853
20
4.62952189621257
30
0
41
1
10
55.3320866710197
20
4.46387503006562
30
0
41
1
10
55.3724452177129
20
4.35327180685169
30
0
41
1
10
55.4927637080849
20
4.02094263445119
30
0
41
1
10
55.5720071438648
20
3.79871282635395
30
0
41
1
10
55.6886404954204
20
3.4641078574586
30
0
41
1
10
55.7271377636691
20
3.3523594815554
30
0
41
1
10
55.7840982508834
20
3.18434175520912
30
0
41
1
10
55.8029531428941
20
3.12826959864432
30
0
41
1
10
55.8403477885763
20
3.01597451370193
30
0
41
1
10
55.8588964343031
20
2.95972290376085
30
0
41
1
10
55.9137083412903
20
2.79152794029946
30
0
41
1
10
55.9492349477405
20
2.67988445016289
30
0
41
1
10
56.0176111330105
20
2.4573842058746
30
0
41
1
10
56.0504651938049
20
2.34652817076378
30
0
41
1
10
56.11249964243
20
2.12537060296077
30
0
41
1
10
56.1416852589452
20
2.01506953639751
30
0
41
1
10
56.1948810614009
20
1.79472278427744
30
0
41
1
10
56.2188935528393
20
1.68467623034445
30
0
41
1
10
56.2494262307097
20
1.5195239894868
30
0
41
1
10
56.2586905098334
20
1.46438124311498
30
0
41
1
10
56.2749138896939
20
1.35511405962941
30
0
41
1
10
56.2818968218255
20
1.30087059389842
30
0
41
1
10
56.299118982565
20
1.13935560635534
30
0
41
1
10
56.3055949489137
20
1.03329389072692
30
0
41
1
10
56.3073250905321
20
0.824777018382321
30
0
41
1
10
56.302569086855
20
0.722323635559945
30
0
41
1
10
56.2896537531723
20
0.596845295180458
30
0
41
1
10
56.2867218903767
20
0.571852241734319
30
0
41
1
10
56.280197994858
20
0.522256447534829
30
0
41
1
10
56.2694516557343
20
0.448653388008438
30
0
41
1
10
56.2559901950075
20
0.377393158788493
30
0
41
1
10
56.2258987047825
20
0.237921075698864
30
0
41
1
10
56.2016302970625
20
0.148998554856178
30
0
41
1
10
56.1468657771367
20
-0.0210450385617378
30
0
41
1
10
56.1163742869012
20
-0.102168423010795
30
0
41
1
10
56.0671812340979
20
-0.218091298812766
30
0
41
1
10
56.0501818561331
20
-0.255804253941903
30
0
41
1
10
56.0154957780792
20
-0.328644527673561
30
0
41
1
10
55.997773637264
20
-0.363860441387374
30
0
41
1
10
55.943675987675
20
-0.466003755268076
30
0
41
1
10
55.9063815648074
20
-0.529436465126821
30
0
41
1
10
55.8300576917264
20
-0.64728786387343
30
0
41
1
10
55.7910230855886
20
-0.701704866901423
30
0
41
1
10
55.7413803236017
20
-0.764101268796566
30
0
41
1
10
55.7314086646965
20
-0.776298646502141
30
0
41
1
10
55.7113828439709
20
-0.800127266160786
30
0
41
1
10
55.7013216120899
20
-0.811765822422814
30
0
41
1
10
55.6711480745969
20
-0.845685456630434
30
0
41
1
10
55.6510084634758
20
-0.867017924322482
30
0
41
1
10
55.5905493935072
20
-0.927259795074576
30
0
41
1
10
55.5501926995859
20
-0.962421414690795
30
0
41
1
10
55.4694513833438
20
-1.02299830784762
30
0
41
1
10
55.3886796210523
20
-1.07382684472472
30
0
41
1
10
55.30782656449
20
-1.10518804421687
30
0
41
1
10
55.2572255796501
20
-1.11857462868588
30
0
41
1
10
55.2470953089431
20
-1.12094134733212
30
0
41
1
10
55.2269173776341
20
-1.12503095745441
30
0
41
1
10
55.1967430527625
20
-1.13020900199859
30
0
41
1
10
55.1668365526356
20
-1.13254984261141
30
0
41
1
10
55.0676996754843
20
-1.13415483570228
30
0
41
1
10
54.9901533706484
20
-1.11573058901129
30
0
41
1
10
54.8756580764929
20
-1.05901060378488
30
0
41
1
10
54.8377973731186
20
-1.03523227269736
30
0
41
1
10
54.7813605618394
20
-0.992096331994702
30
0
41
1
10
54.7626589722867
20
-0.976508996844501
30
0
41
1
10
54.7255371796108
20
-0.942994737403922
30
0
41
1
10
54.7071041539943
20
-0.925058092312298
30
0
41
1
10
54.6887890124263
20
-0.905944282890147
30
0
0
SPLINE
5
C6
100
AcDbEntity
8
1
62
256
6
ByLayer
370
18
48
1
60
0
100
AcDbSpline
70
4
71
3
72
16
73
12
40
0
40
0
40
0
40
0
40
0.195595921302052
40
0.195595921302052
40
0.396696940976539
40
0.396696940976539
40
0.597797960651026
40
0.597797960651026
40
0.798898980325513
40
0.798898980325513
40
1
40
1
40
1
40
1
41
1
10
50.2825350915338
20
6.34920685062218
30
0
41
1
10
50.5698493963547
20
6.34926564507532
30
0
41
1
10
50.8571168365465
20
6.34674215977549
30
0
41
1
10
51.4398478218265
20
6.33634581901484
30
0
41
1
10
51.7351502815455
20
6.32832578397876
30
0
41
1
10
52.3259066193004
20
6.30691172806527
30
0
41
1
10
52.6213480066353
20
6.29352750069103
30
0
41
1
10
53.212146316495
20
6.26136119475964
30
0
41
1
10
53.5075137308341
20
6.24257970264219
30
0
41
1
10
54.0981384078648
20
6.19954050570425
30
0
41
1
10
54.3933326528944
20
6.17522930459796
30
0
41
1
10
54.6887890124186
20
6.14836114316637
30
0
0
SPLINE
5
C7
100
AcDbEntity
8
1
62
256
6
ByLayer
370
18
48
1
60
0
100
AcDbSpline
70
4
71
3
72
34
73
30
40
0
40
0
40
0
40
0
40
0.0931532982534896
40
0.0931532982534896
40
0.143533670572739
40
0.143533670572739
40
0.193914042891989
40
0.193914042891989
40
0.244294415211239
40
0.244294415211239
40
0.294674787530488
40
0.294674787530488
40
0.395435532168988
40
0.395435532168988
40
0.445815904488238
40
0.445815904488238
40
0.496196276807488
40
0.496196276807488
40
0.596957021445991
40
0.596957021445991
40
0.697717766084494
40
0.697717766084494
40
0.798478510722997
40
0.798478510722997
40
0.848858883042249
40
0.848858883042249
40
0.8992392553615
40
0.8992392553615
40
1
40
1
40
1
40
1
41
1
10
37.5405228496283
20
4.48406931138479
30
0
41
1
10
37.8533092766232
20
4.55802830582937
30
0
41
1
10
38.1661213261397
20
4.62982756975163
30
0
41
1
10
38.6480499818772
20
4.73729768456846
30
0
41
1
10
38.8171976034928
20
4.77441366337365
30
0
41
1
10
39.1555308217957
20
4.84732290295159
30
0
41
1
10
39.3247309005962
20
4.88312051116679
30
0
41
1
10
39.6629805148555
20
4.95323854178758
30
0
41
1
10
39.8320600368638
20
4.98756358003396
30
0
41
1
10
40.170189343487
20
5.05465697703983
30
0
41
1
10
40.3392350859878
20
5.08743341985974
30
0
41
1
10
40.8462568848476
20
5.18356524515968
30
0
41
1
10
41.184103465034
20
5.24474799023304
30
0
41
1
10
41.6905456912905
20
5.33225662687613
30
0
41
1
10
41.8593060368522
20
5.36071295945055
30
0
41
1
10
42.1967108393621
20
5.41619785119187
30
0
41
1
10
42.3653605563701
20
5.44321665109425
30
0
41
1
10
42.8714434680282
20
5.52172763928712
30
0
41
1
10
43.2089359987843
20
5.57078618717702
30
0
41
1
10
43.8839562020427
20
5.6626254950246
30
0
41
1
10
44.2214827025086
20
5.70540700614768
30
0
41
1
10
44.8964180263697
20
5.78479141533171
30
0
41
1
10
45.2338500581491
20
5.82135597644782
30
0
41
1
10
45.7402903382537
20
5.87117821795243
30
0
41
1
10
45.9091558360663
20
5.88694728492757
30
0
41
1
10
46.2470399931639
20
5.91678148667776
30
0
41
1
10
46.416051507108
20
5.93085306748276
30
0
41
1
10
46.9232347908383
20
5.97058002431663
30
0
41
1
10
47.2615441740874
20
5.99375724244683
30
0
41
1
10
47.6000000000001
20
6.01361078113106
30
0
0
SPLINE
5
C8
100
AcDbEntity
8
1
62
256
6
ByLayer
370
18
48
1
60
0
100
AcDbSpline
70
4
71
3
72
58
73
54
40
0
40
0
40
0
40
0
40
0.047659898781642
40
0.047659898781642
40
0.0714898481724631
40
0.0714898481724631
40
0.0953197975632841
40
0.0953197975632841
40
0.142979696344924
40
0.142979696344924
40
0.190639595126565
40
0.190639595126565
40
0.238299493908205
40
0.238299493908205
40
0.262129443299026
40
0.262129443299026
40
0.285959392689847
40
0.285959392689847
40
0.33361929147149
40
0.33361929147149
40
0.35744924086231
40
0.35744924086231
40
0.38127919025313
40
0.38127919025313
40
0.42893908903477
40
0.42893908903477
40
0.476598987816411
40
0.476598987816411
40
0.524258886598051
40
0.524258886598051
40
0.571918785379692
40
0.571918785379692
40
0.595748734770511
40
0.595748734770511
40
0.61957868416133
40
0.61957868416133
40
0.667238582942969
40
0.667238582942969
40
0.714898481724608
40
0.714898481724608
40
0.762558380506247
40
0.762558380506247
40
0.810218279287886
40
0.810218279287886
40
0.857878178069525
40
0.857878178069525
40
0.881708127460344
40
0.881708127460344
40
0.905538076851164
40
0.905538076851164
40
0.953197975632802
40
0.953197975632802
40
1
40
1
40
1
40
1
41
1
10
47.6000000000002
20
1.50045666377454
30
0
41
1
10
47.2330926294163
20
1.62474921948103
30
0
41
1
10
46.866243440147
20
1.74776153368646
30
0
41
1
10
46.3161461015322
20
1.93061462961188
30
0
41
1
10
46.1328080601543
20
1.99128299098786
30
0
41
1
10
45.7661954878309
20
2.11207289803974
30
0
41
1
10
45.582932902043
20
2.17222621072645
30
0
41
1
10
45.0331496486389
20
2.35161525021155
30
0
41
1
10
44.6664901746247
20
2.46940057347013
30
0
41
1
10
43.9329022660614
20
2.70140043427085
30
0
41
1
10
43.5658956587825
20
2.81568842629082
30
0
41
1
10
42.8322973706343
20
3.04068498298801
30
0
41
1
10
42.4656947781276
20
3.15140831110978
30
0
41
1
10
41.9158127528226
20
3.31414603391497
30
0
41
1
10
41.7325150774182
20
3.36781704293529
30
0
41
1
10
41.3658629500159
20
3.47389689950236
30
0
41
1
10
41.1825146475328
20
3.52632092032755
30
0
41
1
10
40.6324324937666
20
3.68181933002751
30
0
41
1
10
40.2656634283392
20
3.78312685769461
30
0
41
1
10
39.7154840784166
20
3.93162729434266
30
0
41
1
10
39.5320695189343
20
3.98058812061905
30
0
41
1
10
39.1654106900722
20
4.07710240955728
30
0
41
1
10
38.9821191378463
20
4.12460588882615
30
0
41
1
10
38.4323480309926
20
4.26485643144858
30
0
41
1
10
38.0659794861684
20
4.355364286899
30
0
41
1
10
37.333610008494
20
4.53059566746216
30
0
41
1
10
36.9676268742969
20
4.61534888031892
30
0
41
1
10
36.2359112917636
20
4.77880360867184
30
0
41
1
10
35.8701627145252
20
4.85746773026381
30
0
41
1
10
35.1384161617631
20
5.00788050792423
30
0
41
1
10
34.7724630280923
20
5.07971933657873
30
0
41
1
10
34.2234957740187
20
5.18256108661041
30
0
41
1
10
34.0404988766639
20
5.21601867386028
30
0
41
1
10
33.674497043772
20
5.28128910944673
30
0
41
1
10
33.4915071087712
20
5.31312248560454
30
0
41
1
10
32.9423826937262
20
5.40593360551284
30
0
41
1
10
32.5760055453343
20
5.46410877535732
30
0
41
1
10
31.8427209984134
20
5.57318701440883
30
0
41
1
10
31.4756904210515
20
5.62411713874866
30
0
41
1
10
30.7421433992367
20
5.71857767108006
30
0
41
1
10
30.3755600102144
20
5.76211005100748
30
0
41
1
10
29.6423874881015
20
5.84138884856773
30
0
41
1
10
29.2757295359891
20
5.87708582654048
30
0
41
1
10
28.5422817732963
20
5.94066566640021
30
0
41
1
10
28.175512226819
20
5.96856445022377
30
0
41
1
10
27.6253350248585
20
6.0045513181098
30
0
41
1
10
27.4419407157729
20
6.01557580831661
30
0
41
1
10
27.0752712895821
20
6.03558722414101
30
0
41
1
10
26.8919553034501
20
6.04457307026394
30
0
41
1
10
26.3420723132917
20
6.06850075157175
30
0
41
1
10
25.975571346407
20
6.08041805761056
30
0
41
1
10
25.2494149368622
20
6.09609770012787
30
0
41
1
10
24.8897733297703
20
6.09999859885374
30
0
41
1
10
24.5301837626963
20
6.09999999817882
30
0
0
SPLINE
5
C9
100
AcDbEntity
8
1
62
256
6
ByLayer
370
18
48
1
60
0
100
AcDbSpline
70
4
71
3
72
16
73
12
40
0
40
0
40
0
40
0
40
0.165159579992772
40
0.165159579992772
40
0.330319159985544
40
0.330319159985544
40
0.660638319971087
40
0.660638319971087
40
0.990957479956631
40
0.990957479956631
40
1
40
1
40
1
40
1
41
1
10
47.6
20
-6.27371447725631
30
0
41
1
10
47.7477462120568
20
-6.28198480935581
30
0
41
1
10
47.8954489573352
20
-6.28958759915756
30
0
41
1
10
48.1907622176826
20
-6.30345053929727
30
0
41
1
10
48.3383689600106
20
-6.30971008160492
30
0
41
1
10
48.7812803074451
20
-6.32640015908331
30
0
41
1
10
49.0766474415416
20
-6.33476200596323
30
0
41
1
10
49.667442660504
20
-6.34605507541684
30
0
41
1
10
49.962871733016
20
-6.3489858682706
30
0
41
1
10
50.266362073172
20
-6.34920149554881
30
0
41
1
10
50.2744487378671
20
-6.34920519592052
30
0
41
1
10
50.2825353654374
20
-6.34920685067826
30
0
0
SPLINE
5
CA
100
AcDbEntity
8
1
62
256
6
ByLayer
370
18
48
1
60
0
100
AcDbSpline
70
4
71
3
72
96
73
92
40
0
40
0
40
0
40
0
40
0.0624999999999963
40
0.0624999999999963
40
0.0781249999999957
40
0.0781249999999957
40
0.0937499999999951
40
0.0937499999999951
40
0.109374999999994
40
0.109374999999994
40
0.124999999999994
40
0.124999999999994
40
0.156249999999994
40
0.156249999999994
40
0.187499999999994
40
0.187499999999994
40
0.203124999999993
40
0.203124999999993
40
0.218749999999992
40
0.218749999999992
40
0.24999999999999
40
0.24999999999999
40
0.265624999999989
40
0.265624999999989
40
0.281249999999989
40
0.281249999999989
40
0.312499999999988
40
0.312499999999988
40
0.343749999999986
40
0.343749999999986
40
0.359374999999986
40
0.359374999999986
40
0.374999999999985
40
0.374999999999985
40
0.390624999999984
40
0.390624999999984
40
0.406249999999984
40
0.406249999999984
40
0.437499999999982
40
0.437499999999982
40
0.453124999999982
40
0.453124999999982
40
0.468749999999982
40
0.468749999999982
40
0.499999999999983
40
0.499999999999983
40
0.531249999999984
40
0.531249999999984
40
0.562499999999985
40
0.562499999999985
40
0.578124999999986
40
0.578124999999986
40
0.593749999999986
40
0.593749999999986
40
0.609374999999987
40
0.609374999999987
40
0.624999999999988
40
0.624999999999988
40
0.640624999999988
40
0.640624999999988
40
0.656249999999989
40
0.656249999999989
40
0.68749999999999
40
0.68749999999999
40
0.718749999999991
40
0.718749999999991
40
0.734374999999991
40
0.734374999999991
40
0.749999999999992
40
0.749999999999992
40
0.765624999999992
40
0.765624999999992
40
0.781249999999993
40
0.781249999999993
40
0.812499999999994
40
0.812499999999994
40
0.828124999999995
40
0.828124999999995
40
0.843749999999996
40
0.843749999999996
40
0.874999999999997
40
0.874999999999997
40
0.906249999999998
40
0.906249999999998
40
0.937499999999999
40
0.937499999999999
40
0.953125
40
0.953125
40
0.96875
40
0.96875
40
1
40
1
40
1
40
1
41
1
10
15.1580512156267
20
2.69238911737318
30
0
41
1
10
15.8346575367521
20
2.47907176387923
30
0
41
1
10
16.5110222170182
20
2.26192155140293
30
0
41
1
10
17.3555198756025
20
1.98401258527897
30
0
41
1
10
17.5243727171689
20
1.92810912040852
30
0
41
1
10
17.8619726099005
20
1.81562242427665
30
0
41
1
10
18.0307072678565
20
1.75900473014121
30
0
41
1
10
18.368128622796
20
1.64524645902918
30
0
41
1
10
18.5368532070892
20
1.58821118149194
30
0
41
1
10
18.8743686381394
20
1.47393948354622
30
0
41
1
10
19.0431504899983
20
1.41667811562797
30
0
41
1
10
19.5495357642544
20
1.24442956747879
30
0
41
1
10
19.8871795910412
20
1.12898112483293
30
0
41
1
10
20.562408428549
20
0.896375967357073
30
0
41
1
10
20.8999558177231
20
0.779108493771503
30
0
41
1
10
21.4064694614399
20
0.602588174363319
30
0
41
1
10
21.5753419931593
20
0.543652560918247
30
0
41
1
10
21.9132199917213
20
0.425776047705256
30
0
41
1
10
22.0822329877268
20
0.366857289474495
30
0
41
1
10
22.5894752254311
20
0.190108816475998
30
0
41
1
10
22.9279286325564
20
0.0721725516744129
30
0
41
1
10
23.4356713819564
20
-0.105161826693262
30
0
41
1
10
23.6048695536983
20
-0.164314572150857
30
0
41
1
10
23.943157899277
20
-0.282727671362863
30
0
41
1
10
24.1122317016825
20
-0.34203482399036
30
0
41
1
10
24.6194420172021
20
-0.519682943184137
30
0
41
1
10
24.9577052176374
20
-0.637357700505959
30
0
41
1
10
25.6343391390827
20
-0.871601133720105
30
0
41
1
10
25.9727045637569
20
-0.988184961524638
30
0
41
1
10
26.4801989337227
20
-1.16260903374086
30
0
41
1
10
26.6493495025556
20
-1.22068968933064
30
0
41
1
10
26.9876693042141
20
-1.33659525311245
30
0
41
1
10
27.1568698903566
20
-1.39442671264598
30
0
41
1
10
27.495183891389
20
-1.50960941554155
30
0
41
1
10
27.664288802246
20
-1.56695517036491
30
0
41
1
10
28.0024582329898
20
-1.68097939550083
30
0
41
1
10
28.1715291603217
20
-1.73764031186178
30
0
41
1
10
28.6786562226725
20
-1.90670521153441
30
0
41
1
10
29.016603642878
20
-2.01825758054434
30
0
41
1
10
29.5232141213281
20
-2.18413393871958
30
0
41
1
10
29.6920346596622
20
-2.23917754152515
30
0
41
1
10
30.0295675957615
20
-2.34878612377955
30
0
41
1
10
30.1982622043748
20
-2.40339759818471
30
0
41
1
10
30.7044078588894
20
-2.56591238341613
30
0
41
1
10
31.0419670820329
20
-2.67238131770244
30
0
41
1
10
31.7171665850456
20
-2.88207844632728
30
0
41
1
10
32.0548084480042
20
-2.98530243876684
30
0
41
1
10
32.7300096566992
20
-3.18890262163362
30
0
41
1
10
33.067556568258
20
-3.28930216080704
30
0
41
1
10
33.57413261496
20
-3.43695474793555
30
0
41
1
10
33.7430352088278
20
-3.48567877699844
30
0
41
1
10
34.0809910938726
20
-3.5819929485456
30
0
41
1
10
34.2500469190025
20
-3.62957770949922
30
0
41
1
10
34.5882747996803
20
-3.7237000302836
30
0
41
1
10
34.757445134301
20
-3.77024153783057
30
0
41
1
10
35.0958730822744
20
-3.86234247295803
30
0
41
1
10
35.2651591219177
20
-3.90790448283102
30
0
41
1
10
35.6035933049334
20
-3.99799341839136
30
0
41
1
10
35.7727595972965
20
-4.04252546780475
30
0
41
1
10
36.1109817291846
20
-4.13057408762256
30
0
41
1
10
36.2800252356603
20
-4.1741147063326
30
0
41
1
10
36.7872755758053
20
-4.30260936235217
30
0
41
1
10
37.1255660559117
20
-4.3855249962165
30
0
41
1
10
37.8022168616249
20
-4.54628752510962
30
0
41
1
10
38.1405785639725
20
-4.62413153248517
30
0
41
1
10
38.6480499818736
20
-4.73729768456766
30
0
41
1
10
38.8171976034891
20
-4.77441366337288
30
0
41
1
10
39.155530821792
20
-4.84732290295079
30
0
41
1
10
39.3247309005925
20
-4.88312051116603
30
0
41
1
10
39.6629805148518
20
-4.95323854178685
30
0
41
1
10
39.83206003686
20
-4.98756358003322
30
0
41
1
10
40.1701893434831
20
-5.05465697703909
30
0
41
1
10
40.339235085984
20
-5.08743341985902
30
0
41
1
10
40.8462568848436
20
-5.18356524515897
30
0
41
1
10
41.18410346503
20
-5.24474799023236
30
0
41
1
10
41.6905456912866
20
-5.33225662687545
30
0
41
1
10
41.8593060368481
20
-5.3607129594499
30
0
41
1
10
42.196710839358
20
-5.41619785119121
30
0
41
1
10
42.3653605563659
20
-5.44321665109359
30
0
41
1
10
42.8714434680239
20
-5.5217276392865
30
0
41
1
10
43.20893599878
20
-5.57078618717642
30
0
41
1
10
43.8839562020383
20
-5.66262549502403
30
0
41
1
10
44.2214827025041
20
-5.70540700614714
30
0
41
1
10
44.8964180263651
20
-5.7847914153312
30
0
41
1
10
45.2338500581445
20
-5.82135597644734
30
0
41
1
10
45.740290338249
20
-5.87117821795201
30
0
41
1
10
45.9091558360616
20
-5.88694728492715
30
0
41
1
10
46.2470399931591
20
-5.91678148667737
30
0
41
1
10
46.4160515071032
20
-5.93085306748236
30
0
41
1
10
46.9232347908335
20
-5.97058002431629
30
0
41
1
10
47.2615441740875
20
-5.99375724244683
30
0
41
1
10
47.6
20
-6.01361078113106
30
0
0
SPLINE
5
CB
100
AcDbEntity
8
1
62
256
6
ByLayer
370
18
48
1
60
0
100
AcDbSpline
70
4
71
3
72
58
73
54
40
0
40
0
40
0
40
0
40
0.0374097596749683
40
0.0374097596749683
40
0.0811638615079237
40
0.0811638615079237
40
0.124917963340879
40
0.124917963340879
40
0.146795014257357
40
0.146795014257357
40
0.168672065173836
40
0.168672065173836
40
0.212426167006793
40
0.212426167006793
40
0.256180268839749
40
0.256180268839749
40
0.299934370672706
40
0.299934370672706
40
0.343688472505663
40
0.343688472505663
40
0.387442574338619
40
0.387442574338619
40
0.409319625255098
40
0.409319625255098
40
0.431196676171576
40
0.431196676171576
40
0.474950778004533
40
0.474950778004533
40
0.51870487983749
40
0.51870487983749
40
0.562458981670447
40
0.562458981670447
40
0.606213083503403
40
0.606213083503403
40
0.628090134419882
40
0.628090134419882
40
0.64996718533636
40
0.64996718533636
40
0.693721287169315
40
0.693721287169315
40
0.737475389002271
40
0.737475389002271
40
0.781229490835226
40
0.781229490835226
40
0.824983592668181
40
0.824983592668181
40
0.868737694501136
40
0.868737694501136
40
0.890614745417614
40
0.890614745417614
40
0.912491796334092
40
0.912491796334092
40
1
40
1
40
1
40
1
41
1
10
37.5405169351212
20
-4.48091173811491
30
0
41
1
10
37.2274775785358
20
-4.55511047067165
30
0
41
1
10
36.9145775163688
20
-4.62719934325344
30
0
41
1
10
36.2359112917636
20
-4.77880360867184
30
0
41
1
10
35.8701627145252
20
-4.85746773026381
30
0
41
1
10
35.1384161617631
20
-5.00788050792423
30
0
41
1
10
34.7724630280923
20
-5.07971933657873
30
0
41
1
10
34.2234957740187
20
-5.18256108661041
30
0
41
1
10
34.0404988766639
20
-5.21601867386028
30
0
41
1
10
33.6744970437721
20
-5.2812891094467
30
0
41
1
10
33.4915071087712
20
-5.31312248560451
30
0
41
1
10
32.9423826937262
20
-5.40593360551287
30
0
41
1
10
32.5760055453343
20
-5.46410877535732
30
0
41
1
10
31.8427209984134
20
-5.57318701440883
30
0
41
1
10
31.4756904210515
20
-5.62411713874866
30
0
41
1
10
30.7421433992367
20
-5.71857767108006
30
0
41
1
10
30.3755600102144
20
-5.76211005100748
30
0
41
1
10
29.6423874881015
20
-5.84138884856773
30
0
41
1
10
29.275729535989
20
-5.87708582654048
30
0
41
1
10
28.5422817732963
20
-5.94066566640021
30
0
41
1
10
28.175512226819
20
-5.96856445022377
30
0
41
1
10
27.6253350248585
20
-6.0045513181098
30
0
41
1
10
27.4419407157729
20
-6.01557580831661
30
0
41
1
10
27.075271289582
20
-6.03558722414101
30
0
41
1
10
26.8919553034501
20
-6.04457307026394
30
0
41
1
10
26.3420723132917
20
-6.06850075157172
30
0
41
1
10
25.9755713464069
20
-6.08041805761056
30
0
41
1
10
25.2428202055264
20
-6.09624009786543
30
0
41
1
10
24.8765890180841
20
-6.10014030519346
30
0
41
1
10
24.144231259061
20
-6.09985198366081
30
0
41
1
10
23.7780801904253
20
-6.09565598671594
30
0
41
1
10
23.0453994397332
20
-6.07924878454233
30
0
41
1
10
22.6789236058742
20
-6.06704382991174
30
0
41
1
10
22.1290821479651
20
-6.04270161022924
30
0
41
1
10
21.9457790087749
20
-6.0335808433226
30
0
41
1
10
21.5791348013406
20
-6.0133079093782
30
0
41
1
10
21.3957943160263
20
-6.00214485919281
30
0
41
1
10
20.8456118134211
20
-5.96569922586241
30
0
41
1
10
20.478849870452
20
-5.93750062491441
30
0
41
1
10
19.7454464434624
20
-5.87334726355391
30
0
41
1
10
19.3788145528669
20
-5.83738394763674
30
0
41
1
10
18.6457050024343
20
-5.75763849162269
30
0
41
1
10
18.2792246791342
20
-5.71384653575791
30
0
41
1
10
17.5460015404056
20
-5.61880615969955
30
0
41
1
10
17.1791741997852
20
-5.56763468647435
30
0
41
1
10
16.4452867523713
20
-5.4579778341967
30
0
41
1
10
16.0785086229815
20
-5.39952093035825
30
0
41
1
10
15.5286379790135
20
-5.30629480713236
30
0
41
1
10
15.3454103512547
20
-5.27427436994435
30
0
41
1
10
14.9789036761587
20
-5.20859481810297
30
0
41
1
10
14.7956297567553
20
-5.17493047546503
30
0
41
1
10
13.8791661560727
20
-5.00250092707145
30
0
41
1
10
13.1456777834445
20
-4.8515213653103
30
0
41
1
10
12.412195945349
20
-4.68676618431366
30
0
0
SPLINE
5
CC
100
AcDbEntity
8
1
62
256
6
ByLayer
370
18
48
1
60
0
100
AcDbSpline
70
4
71
3
72
110
73
106
40
0
40
0
40
0
40
0
40
0.0624999999999893
40
0.0624999999999893
40
0.124999999999979
40
0.124999999999979
40
0.156249999999973
40
0.156249999999973
40
0.187499999999968
40
0.187499999999968
40
0.218749999999963
40
0.218749999999963
40
0.23437499999996
40
0.23437499999996
40
0.24218749999996
40
0.24218749999996
40
0.249999999999959
40
0.249999999999959
40
0.281249999999958
40
0.281249999999958
40
0.312499999999957
40
0.312499999999957
40
0.343749999999956
40
0.343749999999956
40
0.359374999999956
40
0.359374999999956
40
0.374999999999955
40
0.374999999999955
40
0.382812499999955
40
0.382812499999955
40
0.390624999999955
40
0.390624999999955
40
0.406249999999954
40
0.406249999999954
40
0.421874999999953
40
0.421874999999953
40
0.429687499999953
40
0.429687499999953
40
0.433593749999953
40
0.433593749999953
40
0.437499999999953
40
0.437499999999953
40
0.453124999999954
40
0.453124999999954
40
0.468749999999955
40
0.468749999999955
40
0.472656249999955
40
0.472656249999955
40
0.476562499999955
40
0.484374999999955
40
0.484374999999955
40
0.499999999999955
40
0.499999999999955
40
0.503906249999955
40
0.503906249999955
40
0.507812499999955
40
0.507812499999955
40
0.515624999999955
40
0.515624999999955
40
0.531249999999955
40
0.531249999999955
40
0.539062499999955
40
0.539062499999955
40
0.542968749999955
40
0.542968749999955
40
0.546874999999955
40
0.546874999999955
40
0.562499999999955
40
0.562499999999955
40
0.578124999999956
40
0.578124999999956
40
0.593749999999956
40
0.593749999999956
40
0.601562499999957
40
0.601562499999957
40
0.609374999999957
40
0.609374999999957
40
0.624999999999958
40
0.624999999999958
40
0.656249999999961
40
0.656249999999961
40
0.687499999999964
40
0.687499999999964
40
0.695312499999965
40
0.695312499999965
40
0.703124999999966
40
0.718749999999968
40
0.718749999999968
40
0.749999999999972
40
0.749999999999972
40
0.781249999999975
40
0.781249999999975
40
0.812499999999979
40
0.812499999999979
40
0.843749999999982
40
0.843749999999982
40
0.874999999999986
40
0.874999999999986
40
0.906249999999989
40
0.906249999999989
40
0.937499999999993
40
0.937499999999993
40
0.968749999999996
40
0.968749999999996
40
1
40
1
40
1
40
1
41
1
10
10
20
3.57629475520542
30
0
41
1
10
9.62712580979999
20
3.60743118931074
30
0
41
1
10
9.25738779792488
20
3.62590919700011
30
0
41
1
10
8.52445048718647
20
3.63500147121587
30
0
41
1
10
8.16124613912893
20
3.62565050786691
30
0
41
1
10
7.6215247358106
20
3.58746878120442
30
0
41
1
10
7.44246543280843
20
3.57069850757989
30
0
41
1
10
7.08608640382442
20
3.52823246092001
30
0
41
1
10
6.90876634057847
20
3.5025404412626
30
0
41
1
10
6.55592766794393
20
3.44110047969653
30
0
41
1
10
6.38040851298175
20
3.40535906485715
30
0
41
1
10
6.11855065905433
20
3.34302455558185
30
0
41
1
10
6.03150181211146
20
3.3207886201528
30
0
41
1
10
5.90129648313189
20
3.28505263292516
30
0
41
1
10
5.85793001539969
20
3.27273493165325
30
0
41
1
10
5.77162173794846
20
3.2473576452368
30
0
41
1
10
5.72864801699765
20
3.2342898099358
30
0
41
1
10
5.51469886850882
20
3.16699166817986
30
0
41
1
10
5.34647077350277
20
3.10691600676438
30
0
41
1
10
5.01648114330206
20
2.97222166550074
30
0
41
1
10
4.85469057258842
20
2.89761386874605
30
0
41
1
10
4.53864650261167
20
2.73074278803242
30
0
41
1
10
4.38631268012449
20
2.63949692404418
30
0
41
1
10
4.1676421308245
20
2.48858251349887
30
0
41
1
10
4.09639707967142
20
2.43592612469453
30
0
41
1
10
3.95753063587745
20
2.32533685688747
30
0
41
1
10
3.88990755331324
20
2.2674066638034
30
0
41
1
10
3.79153228224467
20
2.17597897997746
30
0
41
1
10
3.7592515374738
20
2.14474591101967
30
0
41
1
10
3.69578625959233
20
2.08064223412083
30
0
41
1
10
3.66453868505772
20
2.04769882392139
30
0
41
1
10
3.57326959895366
20
1.94698110109209
30
0
41
1
10
3.51558739066056
20
1.87722220028496
30
0
41
1
10
3.40720866559522
20
1.73186500071682
30
0
41
1
10
3.35650804211795
20
1.65627024396903
30
0
41
1
10
3.28640073354737
20
1.5378595635863
30
0
41
1
10
3.26402483010969
20
1.49755069281522
30
0
41
1
10
3.23206934462632
20
1.43572339617205
30
0
41
1
10
3.22167422191328
20
1.41486055647047
30
0
41
1
10
3.201564469343
20
1.37291939469716
30
0
41
1
10
3.19183623251436
20
1.35181655554675
30
0
41
1
10
3.14485237480949
20
1.24563005573742
30
0
41
1
10
3.11255485779338
20
1.15853492992767
30
0
41
1
10
3.0593654274075
20
0.979689176637152
30
0
41
1
10
3.0384683537624
20
0.887940643893216
30
0
41
1
10
3.0202570191515
20
0.770013380805722
30
0
41
1
10
3.01702424729024
20
0.746337343651334
30
0
41
1
10
3.01140965444586
20
0.699058923521704
30
0
41
1
10
3.00424623579653
20
0.628136139664036
30
0
41
1
10
3.0008252342754
20
0.557197807232114
30
0
41
1
10
2.9989146252305
20
0.415300309961481
30
0
41
1
10
3.00420688663823
20
0.320674163840238
30
0
41
1
10
3.0189813958485
20
0.202357008102098
30
0
41
1
10
3.02234498186957
20
0.178691856318494
30
0
41
1
10
3.02989116906605
20
0.131358130557118
30
0
41
1
10
3.03407952792872
20
0.107660276905676
30
0
41
1
10
3.04783892396091
20
0.0367568525482227
30
0
41
1
10
3.05853485470618
20
-0.0099304779024862
30
0
41
1
10
3.09491383844718
20
-0.148354577715423
30
0
41
1
10
3.12487662721324
20
-0.238457794504825
30
0
41
1
10
3.17753386859954
20
-0.370673179339661
30
0
41
1
10
3.19637494255252
20
-0.414253874877147
30
0
41
1
10
3.22648678408518
20
-0.478920495814663
30
0
41
1
10
3.23684854597076
20
-0.500390049597883
30
0
41
1
10
3.25809046698009
20
-0.542928070698366
30
0
41
1
10
3.26896383317529
20
-0.563985729341482
30
0
41
1
10
3.32453659011315
20
-0.668265101995587
30
0
41
1
10
3.37283787533772
20
-0.748473514965525
30
0
41
1
10
3.475975343182
20
-0.90344357822903
30
0
41
1
10
3.53081649751903
20
-0.978201049596407
30
0
41
1
10
3.64620445368269
20
-1.12297914987732
30
0
41
1
10
3.70675408495092
20
-1.19299740009708
30
0
41
1
10
3.8013810405206
20
-1.29488041876112
30
0
41
1
10
3.83353512547632
20
-1.32828656247165
30
0
41
1
10
3.8985717314888
20
-1.39365455270362
30
0
41
1
10
3.93151115168047
20
-1.42567844351703
30
0
41
1
10
4.03149500592232
20
-1.51992804298433
30
0
41
1
10
4.09970181311664
20
-1.58033700267302
30
0
41
1
10
4.30833638727455
20
-1.75532109627659
30
0
41
1
10
4.45275124238344
20
-1.86369888110687
30
0
41
1
10
4.74980570890199
20
-2.0677611612758
30
0
41
1
10
4.90246100852585
20
-2.16342007719018
30
0
41
1
10
5.09737854889053
20
-2.27667642557907
30
0
41
1
10
5.1365884131929
20
-2.29902052560118
30
0
41
1
10
5.21516404589252
20
-2.3429776610196
30
0
41
1
10
5.33333926673299
20
-2.40786240329666
30
0
41
1
10
5.45238558587897
20
-2.46980322938831
30
0
41
1
10
5.69149051491712
20
-2.59023180500631
30
0
41
1
10
5.85223880293822
20
-2.66593167043584
30
0
41
1
10
6.17577492108154
20
-2.81011662577939
30
0
41
1
10
6.33856434603462
20
-2.87859506416515
30
0
41
1
10
6.66567098053565
20
-3.00976345863228
30
0
41
1
10
6.82998881220192
20
-3.07245004851825
30
0
41
1
10
7.15974199201284
20
-3.19309616658904
30
0
41
1
10
7.32517742612555
20
-3.25105399688411
30
0
41
1
10
7.65684786747127
20
-3.3630097450833
30
0
41
1
10
7.82308266444676
20
-3.41700679141016
30
0
41
1
10
8.156128926739
20
-3.52154948842818
30
0
41
1
10
8.32294005572052
20
-3.5720945775976
30
0
41
1
10
8.6570199514731
20
-3.67000290142883
30
0
41
1
10
8.82428840057187
20
-3.71736553363826
30
0
41
1
10
9.1592781425112
20
-3.80895571156554
30
0
41
1
10
9.32699926116953
20
-3.85318238619311
30
0
41
1
10
9.66301162693702
20
-3.93834597079902
30
0
41
1
10
9.83130293366168
20
-3.979281641244
30
0
41
1
10
10
20
-4.01841006644082
30
0
0
SPLINE
5
CD
100
AcDbEntity
8
1
62
256
6
ByLayer
370
18
48
1
60
0
100
AcDbSpline
70
4
71
3
72
14
73
10
40
0
40
0
40
0
40
0
40
0.25
40
0.25
40
0.5
40
0.5
40
0.75
40
0.75
40
1
40
1
40
1
40
1
41
1
10
12.412195945349
20
-4.68676618431366
30
0
41
1
10
12.2086563169825
20
-4.63964491075006
30
0
41
1
10
12.0059860586858
20
-4.59015612176702
30
0
41
1
10
11.6019681435354
20
-4.4868354559427
30
0
41
1
10
11.4006193575618
20
-4.43300639261244
30
0
41
1
10
10.9989241841185
20
-4.32131967714068
30
0
41
1
10
10.7985770062415
20
-4.26346484054224
30
0
41
1
10
10.3986928915446
20
-4.14387255539907
30
0
41
1
10
10.199155618896
20
-4.08213751114172
30
0
41
1
10
9.99999999999997
20
-4.01841006644079
30
0
0
SPLINE
5
CE
100
AcDbEntity
8
1
62
256
6
ByLayer
370
18
48
1
60
0
100
AcDbSpline
70
4
71
4
72
16
73
11
40
0
40
0
40
0
40
0
40
0
40
0.289494878247166
40
0.289494878247166
40
0.289494878247166
40
0.710505121752831
40
0.710505121752831
40
0.710505121752831
40
1
40
1
40
1
40
1
40
1
41
0.996687399872188
10
15.1580512156267
20
2.69238911737321
30
0
41
0.994697811226446
10
15.0740094440833
20
2.61914787318013
30
0
41
0.994342167339714
10
14.9272509058157
20
2.36795710784971
30
0
41
1
10
14.7246186918475
20
1.93485136723965
30
0
41
1
10
14.1955898600588
20
0.698911938705237
30
0
41
0.988033871712585
10
13.7851235804878
20
-0.345797344665359
30
0
41
1
10
13.3746573009169
20
-1.50724543298571
30
0
41
1
10
12.8456284691282
20
-3.11470853268716
30
0
41
0.994342167339713
10
12.64299625516
20
-3.77070212821556
30
0
41
0.994697811226446
10
12.4962377168925
20
-4.30830315205733
30
0
41
0.996687399872188
10
12.412195945349
20
-4.68676618431368
30
0
0
SPLINE
5
CF
100
AcDbEntity
8
1
62
256
6
ByLayer
370
18
48
1
60
0
100
AcDbSpline
70
4
71
3
72
20
73
16
40
0
40
0
40
0
40
0
40
0.125000000000001
40
0.125000000000001
40
0.250000000000002
40
0.250000000000002
40
0.5
40
0.5
40
0.624999999999999
40
0.624999999999999
40
0.6875
40
0.6875
40
0.750000000000002
40
0.750000000000002
40
1
40
1
40
1
40
1
41
1
10
10
20
3.57629475520542
30
0
41
1
10
10.2222114251282
20
3.57805310815365
30
0
41
1
10
10.4433243997831
20
3.57404783202449
30
0
41
1
10
10.8835277310711
20
3.55537353643328
30
0
41
1
10
11.10261739618
20
3.54069966595236
30
0
41
1
10
11.7570856097361
20
3.48163596715779
30
0
41
1
10
12.1896552559243
20
3.42218649007614
30
0
41
1
10
12.8338744591161
20
3.30624096479366
30
0
41
1
10
13.0478432086131
20
3.26313068871539
30
0
41
1
10
13.3677824074918
20
3.19226149554146
30
0
41
1
10
13.4742599917103
20
3.16760533785904
30
0
41
1
10
13.686903267254
20
3.11631986836605
30
0
41
1
10
13.7931170378513
20
3.08967789693412
30
0
41
1
10
14.322854962566
20
2.95195066366424
30
0
41
1
10
14.7419062729309
20
2.82745276336544
30
0
41
1
10
15.1580512156266
20
2.69238911737318
30
0
0
SPLINE
5
D0
100
AcDbEntity
8
1
62
256
6
ByLayer
370
13
48
1
60
0
100
AcDbSpline
70
4
71
3
72
82
73
78
40
0
40
0
40
0
40
0
40
0.03125
40
0.03125
40
0.0468749999999999
40
0.0468749999999999
40
0.0546874999999999
40
0.0546874999999999
40
0.0624999999999999
40
0.0624999999999999
40
0.0937499999999999
40
0.0937499999999999
40
0.125
40
0.125
40
0.15625
40
0.15625
40
0.1875
40
0.1875
40
0.21875
40
0.21875
40
0.25
40
0.25
40
0.28125
40
0.28125
40
0.3125
40
0.3125
40
0.34375
40
0.34375
40
0.359375
40
0.359375
40
0.3671875
40
0.3671875
40
0.375
40
0.375
40
0.40625
40
0.40625
40
0.4375
40
0.4375
40
0.46875
40
0.46875
40
0.499999999999999
40
0.499999999999999
40
0.531249999999999
40
0.531249999999999
40
0.562499999999999
40
0.562499999999999
40
0.593749999999999
40
0.593749999999999
40
0.624999999999999
40
0.624999999999999
40
0.656249999999999
40
0.656249999999999
40
0.671874999999999
40
0.671874999999999
40
0.679687499999999
40
0.679687499999999
40
0.687499999999999
40
0.687499999999999
40
0.718749999999999
40
0.718749999999999
40
0.75
40
0.75
40
0.78125
40
0.78125
40
0.8125
40
0.8125
40
0.84375
40
0.84375
40
0.875
40
0.875
40
0.90625
40
0.90625
40
0.9375
40
0.9375
40
0.96875
40
0.96875
40
1
40
1
40
1
40
1
41
1
10
47.6
20
1.43155126858733
30
0
41
1
10
47.6582276864575
20
1.1203116797715
30
0
41
1
10
47.7164553729148
20
0.810466795804217
30
0
41
1
10
47.8037969026009
20
0.355286691403165
30
0
41
1
10
47.8329107458296
20
0.205138542484946
30
0
41
1
10
47.8765815106727
20
-0.0169654723960662
30
0
41
1
10
47.8911384322871
20
-0.090662547494702
30
0
41
1
10
47.9202522755157
20
-0.23970965115825
30
0
41
1
10
47.9348091971301
20
-0.314723207401187
30
0
41
1
10
48.0075938052019
20
-0.691928726313591
30
0
41
1
10
48.0658214916593
20
-1.00063550510089
30
0
41
1
10
48.1822768645741
20
-1.62226517229541
30
0
41
1
10
48.2405045510316
20
-1.93516021323234
30
0
41
1
10
48.3569599239464
20
-2.55324767596409
30
0
41
1
10
48.4151876104037
20
-2.85839309622125
30
0
41
1
10
48.5316429833186
20
-3.44796154256918
30
0
41
1
10
48.589870669776
20
-3.7323270055592
30
0
41
1
10
48.7063260426909
20
-4.26782417715651
30
0
41
1
10
48.7645537291483
20
-4.51890236629831
30
0
41
1
10
48.881009102063
20
-4.97754851703621
30
0
41
1
10
48.9392367885205
20
-5.185081897169
30
0
41
1
10
49.0556921614353
20
-5.54997277125389
30
0
41
1
10
49.1139198478928
20
-5.7073230768589
30
0
41
1
10
49.2303752208076
20
-5.96944351003523
30
0
41
1
10
49.288602907265
20
-6.07423248553658
30
0
41
1
10
49.4050582801798
20
-6.23289794057018
30
0
41
1
10
49.4632859666373
20
-6.28681005536509
30
0
41
1
10
49.5506274963234
20
-6.33315493219575
30
0
41
1
10
49.5797413395521
20
-6.34287080241447
30
0
41
1
10
49.6234121043951
20
-6.34945144197036
30
0
41
1
10
49.6379690260095
20
-6.35031609770337
30
0
41
1
10
49.6670828692382
20
-6.34948173349346
30
0
41
1
10
49.6816397908526
20
-6.34777004785724
30
0
41
1
10
49.7544243989243
20
-6.33246900758587
30
0
41
1
10
49.8126520853817
20
-6.29857246133415
30
0
41
1
10
49.9291074582965
20
-6.18166485299881
30
0
41
1
10
49.9873351447539
20
-6.0986146986117
30
0
41
1
10
50.1037905176688
20
-5.88022963755171
30
0
41
1
10
50.1620182041262
20
-5.74486743624618
30
0
41
1
10
50.278473577041
20
-5.42244204019957
30
0
41
1
10
50.3367012634984
20
-5.23537440407841
30
0
41
1
10
50.4531566364133
20
-4.81439165634185
30
0
41
1
10
50.5113843228707
20
-4.58050012693809
30
0
41
1
10
50.6278396957855
20
-4.07471740297032
30
0
41
1
10
50.686067382243
20
-3.8028733673853
30
0
41
1
10
50.8025227551577
20
-3.23293955353739
30
0
41
1
10
50.8607504416151
20
-2.93490760070395
30
0
41
1
10
50.97720581453
20
-2.32562732305246
30
0
41
1
10
51.0354335009874
20
-2.01443190797045
30
0
41
1
10
51.1518888739022
20
-1.3914090814165
30
0
41
1
10
51.2101165603596
20
-1.07961808332595
30
0
41
1
10
51.2974580900458
20
-0.619528229372975
30
0
41
1
10
51.3265719332745
20
-0.467413439024369
30
0
41
1
10
51.3702426981175
20
-0.241939249319103
30
0
41
1
10
51.3847996197319
20
-0.167229531048292
30
0
41
1
10
51.4139134629606
20
-0.0188281732085898
30
0
41
1
10
51.428470384575
20
0.0547046584448765
30
0
41
1
10
51.5012549926467
20
0.426522930631165
30
0
41
1
10
51.5594826791041
20
0.732077158531496
30
0
41
1
10
51.6759380520189
20
1.35047930220793
30
0
41
1
10
51.7341657384764
20
1.66330541349066
30
0
41
1
10
51.8506211113912
20
2.28489142292875
30
0
41
1
10
51.9088487978486
20
2.59360934587213
30
0
41
1
10
52.0253041707634
20
3.19412916510581
30
0
41
1
10
52.0835318572208
20
3.48587524791901
30
0
41
1
10
52.1999872301357
20
4.03961103355391
30
0
41
1
10
52.258214916593
20
4.3015443839835
30
0
41
1
10
52.3746702895079
20
4.78456309292156
30
0
41
1
10
52.4328979759653
20
5.00560710519036
30
0
41
1
10
52.5493533488802
20
5.39902875977219
30
0
41
1
10
52.6075810353376
20
5.571390954436
30
0
41
1
10
52.7240364082524
20
5.86379035458666
30
0
41
1
10
52.7822640947098
20
5.98383953433773
30
0
41
1
10
52.8987194676247
20
6.17216237610842
30
0
41
1
10
52.9569471540821
20
6.24046801546567
30
0
41
1
10
53.0734025269969
20
6.32936669148577
30
0
41
1
10
53.1316302134543
20
6.34999999999999
30
0
41
1
10
53.1898578999117
20
6.34999999999999
30
0
0
SPLINE
5
D1
100
AcDbEntity
8
1
62
256
6
ByLayer
370
13
48
1
60
0
100
AcDbSpline
70
4
71
3
72
78
73
74
40
0
40
0
40
0
40
0
40
0.0312499999999995
40
0.0312499999999995
40
0.0624999999999989
40
0.0624999999999989
40
0.0937499999999984
40
0.0937499999999984
40
0.124999999999998
40
0.124999999999998
40
0.156249999999997
40
0.156249999999997
40
0.187499999999997
40
0.187499999999997
40
0.218749999999996
40
0.218749999999996
40
0.249999999999996
40
0.249999999999996
40
0.281249999999995
40
0.281249999999995
40
0.296874999999995
40
0.296874999999995
40
0.304687499999995
40
0.304687499999995
40
0.312499999999995
40
0.312499999999995
40
0.343749999999995
40
0.343749999999995
40
0.374999999999995
40
0.374999999999995
40
0.406249999999995
40
0.406249999999995
40
0.437499999999995
40
0.437499999999995
40
0.468749999999995
40
0.468749999999995
40
0.499999999999995
40
0.499999999999995
40
0.531249999999995
40
0.531249999999995
40
0.562499999999995
40
0.562499999999995
40
0.593749999999996
40
0.593749999999996
40
0.624999999999996
40
0.624999999999996
40
0.640624999999996
40
0.640624999999996
40
0.648437499999996
40
0.648437499999996
40
0.656249999999996
40
0.656249999999996
40
0.687499999999997
40
0.687499999999997
40
0.718749999999997
40
0.718749999999997
40
0.749999999999997
40
0.749999999999997
40
0.781249999999998
40
0.781249999999998
40
0.812499999999998
40
0.812499999999998
40
0.843749999999998
40
0.843749999999998
40
0.874999999999999
40
0.874999999999999
40
0.906249999999999
40
0.906249999999999
40
0.937499999999999
40
0.937499999999999
40
0.96875
40
0.96875
40
1
40
1
40
1
40
1
41
1
10
47.6
20
-1.1813085283307
30
0
41
1
10
47.6530230633083
20
-1.46373582987266
30
0
41
1
10
47.7060461266167
20
-1.74850415273576
30
0
41
1
10
47.8120922532333
20
-2.31401609881607
30
0
41
1
10
47.8651153165416
20
-2.59473270761367
30
0
41
1
10
47.9711614431583
20
-3.1424331623133
30
0
41
1
10
48.0241845064666
20
-3.4093821369361
30
0
41
1
10
48.1302306330833
20
-3.91981501687846
30
0
41
1
10
48.1832536963916
20
-4.16326307784723
30
0
41
1
10
48.2892998230082
20
-4.61802763906178
30
0
41
1
10
48.3423228863165
20
-4.82931552463799
30
0
41
1
10
48.4483690129331
20
-5.21315763721339
30
0
41
1
10
48.5013920762415
20
-5.38569697545782
30
0
41
1
10
48.6074382028582
20
-5.68817895934009
30
0
41
1
10
48.6604612661665
20
-5.81812279492507
30
0
41
1
10
48.7665073927831
20
-6.03449981139403
30
0
41
1
10
48.8195304560915
20
-6.12094795620737
30
0
41
1
10
48.9255765827082
20
-6.25211347926322
30
0
41
1
10
48.9785996460165
20
-6.29685413421541
30
0
41
1
10
49.058134240979
20
-6.33557485555119
30
0
41
1
10
49.0846457726331
20
-6.34376409878485
30
0
41
1
10
49.1244130701144
20
-6.34943275160359
30
0
41
1
10
49.1376688359414
20
-6.35022155251789
30
0
41
1
10
49.1641803675956
20
-6.34967288548225
30
0
41
1
10
49.1774361334228
20
-6.34832721192404
30
0
41
1
10
49.2437149625581
20
-6.336037299271
30
0
41
1
10
49.2967380258664
20
-6.30835623945669
30
0
41
1
10
49.4027841524831
20
-6.21278793156793
30
0
41
1
10
49.4558072157914
20
-6.14487576154835
30
0
41
1
10
49.5618533424081
20
-5.9660532095123
30
0
41
1
10
49.6148764057164
20
-5.85512346961633
30
0
41
1
10
49.720922532333
20
-5.58992707176179
30
0
41
1
10
49.7739455956413
20
-5.43565270000281
30
0
41
1
10
49.8799917222579
20
-5.0863104711398
30
0
41
1
10
49.9330147855663
20
-4.89125049687681
30
0
41
1
10
50.0390609121829
20
-4.46577210876404
30
0
41
1
10
50.0920839754913
20
-4.23537692108823
30
0
41
1
10
50.1981301021079
20
-3.74708241593129
30
0
41
1
10
50.2511531654163
20
-3.48921677148186
30
0
41
1
10
50.3571992920329
20
-2.95537841281839
30
0
41
1
10
50.4102223553413
20
-2.67944198203122
30
0
41
1
10
50.516268481958
20
-2.11932063362812
30
0
41
1
10
50.5692915452663
20
-1.83516681318318
30
0
41
1
10
50.6753376718829
20
-1.26789130530736
30
0
41
1
10
50.7283607351912
20
-0.984790390093508
30
0
41
1
10
50.8078953301537
20
-0.566844085654679
30
0
41
1
10
50.8344068618079
20
-0.428633536161527
30
0
41
1
10
50.8741741592891
20
-0.223588539710931
30
0
41
1
10
50.8874299251162
20
-0.155617764815901
30
0
41
1
10
50.9139414567704
20
-0.0205224384754104
30
0
41
1
10
50.9271972225974
20
0.046449221647805
30
0
41
1
10
50.9934760517328
20
0.38472668284254
30
0
41
1
10
51.0464991150412
20
0.662101663732102
30
0
41
1
10
51.1525452416579
20
1.22375722579619
30
0
41
1
10
51.2055683049662
20
1.50802553568013
30
0
41
1
10
51.3116144315828
20
2.07513489241376
30
0
41
1
10
51.3646374948911
20
2.3579519481614
30
0
41
1
10
51.4706836215078
20
2.91263969295082
30
0
41
1
10
51.5237066848161
20
3.18447715120436
30
0
41
1
10
51.6297528114328
20
3.70737212171702
30
0
41
1
10
51.6827758747411
20
3.95839323759563
30
0
41
1
10
51.7888220013577
20
4.43057858534718
30
0
41
1
10
51.8418450646661
20
4.65171137446967
30
0
41
1
10
51.9478911912828
20
5.05684959856546
30
0
41
1
10
52.0009142545911
20
5.24083582634481
30
0
41
1
10
52.1069603812077
20
5.56700259264414
30
0
41
1
10
52.159983444516
20
5.70917983069327
30
0
41
1
10
52.2660295711326
20
5.94998988810951
30
0
41
1
10
52.319052634441
20
6.04863424513573
30
0
41
1
10
52.4250987610576
20
6.20344736235597
30
0
41
1
10
52.478121824366
20
6.25963769487649
30
0
41
1
10
52.5841679509827
20
6.3329013240442
30
0
41
1
10
52.637191014291
20
6.34999999999999
30
0
41
1
10
52.6902140775993
20
6.34999999999999
30
0
0
SPLINE
5
D2
100
AcDbEntity
8
1
62
256
6
ByLayer
370
13
48
1
60
0
100
AcDbSpline
70
4
71
3
72
78
73
74
40
0
40
0
40
0
40
0
40
0.0312500000000014
40
0.0312500000000014
40
0.0625000000000027
40
0.0625000000000027
40
0.0937500000000041
40
0.0937500000000041
40
0.125000000000005
40
0.125000000000005
40
0.156250000000007
40
0.156250000000007
40
0.187500000000008
40
0.187500000000008
40
0.218750000000009
40
0.218750000000009
40
0.22656250000001
40
0.22656250000001
40
0.23437500000001
40
0.23437500000001
40
0.25000000000001
40
0.25000000000001
40
0.28125000000001
40
0.28125000000001
40
0.312500000000011
40
0.312500000000011
40
0.343750000000011
40
0.343750000000011
40
0.375000000000011
40
0.375000000000011
40
0.406250000000012
40
0.406250000000012
40
0.437500000000012
40
0.437500000000012
40
0.468750000000013
40
0.468750000000013
40
0.500000000000013
40
0.500000000000013
40
0.531250000000014
40
0.531250000000014
40
0.562500000000014
40
0.562500000000014
40
0.593750000000015
40
0.593750000000015
40
0.609375000000015
40
0.609375000000015
40
0.617187500000015
40
0.617187500000015
40
0.625000000000015
40
0.625000000000015
40
0.656250000000013
40
0.656250000000013
40
0.687500000000012
40
0.687500000000012
40
0.718750000000011
40
0.718750000000011
40
0.75000000000001
40
0.75000000000001
40
0.781250000000009
40
0.781250000000009
40
0.812500000000007
40
0.812500000000007
40
0.843750000000006
40
0.843750000000006
40
0.875000000000005
40
0.875000000000005
40
0.906250000000004
40
0.906250000000004
40
0.937500000000003
40
0.937500000000003
40
0.968750000000001
40
0.968750000000001
40
1
40
1
40
1
40
1
41
1
10
47.6
20
-3.77187958183828
30
0
41
1
10
47.6478184401593
20
-3.99898360110367
30
0
41
1
10
47.6956368803185
20
-4.21599443385281
30
0
41
1
10
47.7912737606369
20
-4.62363288489058
30
0
41
1
10
47.8390922007962
20
-4.81424368332173
30
0
41
1
10
47.9347290811146
20
-5.16423442627573
30
0
41
1
10
47.9825475212739
20
-5.32360495881846
30
0
41
1
10
48.0781844015924
20
-5.60806313986643
30
0
41
1
10
48.1260028417516
20
-5.7331500612878
30
0
41
1
10
48.2216397220701
20
-5.94793962688632
30
0
41
1
10
48.2694581622293
20
-6.03764941425746
30
0
41
1
10
48.3650950425478
20
-6.1824326902053
30
0
41
1
10
48.412913482707
20
-6.23751879292061
30
0
41
1
10
48.5085503630255
20
-6.3153452770234
30
0
41
1
10
48.5563688031847
20
-6.33810070214327
30
0
41
1
10
48.6161418533838
20
-6.34845787274753
30
0
41
1
10
48.6280964634237
20
-6.34962703375152
30
0
41
1
10
48.6520056835033
20
-6.35022097350728
30
0
41
1
10
48.663960293543
20
-6.34965299814559
30
0
41
1
10
48.6998241236625
20
-6.34527716367967
30
0
41
1
10
48.723733343742
20
-6.33878996197973
30
0
41
1
10
48.7954610039809
20
-6.30793301659395
30
0
41
1
10
48.8432794441402
20
-6.27213296021037
30
0
41
1
10
48.9389163244587
20
-6.16710479016663
30
0
41
1
10
48.9867347646179
20
-6.09786227108145
30
0
41
1
10
49.0823716449364
20
-5.92424371049961
30
0
41
1
10
49.1301900850956
20
-5.81985696767967
30
0
41
1
10
49.2258269654141
20
-5.57592838179261
30
0
41
1
10
49.2736454055733
20
-5.43638243936445
30
0
41
1
10
49.3692822858918
20
-5.12403050003368
30
0
41
1
10
49.4171007260511
20
-4.95122884791596
30
0
41
1
10
49.5127376063696
20
-4.57617912182411
30
0
41
1
10
49.5605560465288
20
-4.37394380615373
30
0
41
1
10
49.6561929268472
20
-3.94550022773575
30
0
41
1
10
49.7040113670065
20
-3.71931102042558
30
0
41
1
10
49.799648247325
20
-3.24960565991654
30
0
41
1
10
49.8474666874842
20
-3.00611123545912
30
0
41
1
10
49.9431035678026
20
-2.50898715385981
30
0
41
1
10
49.9909220079619
20
-2.25537790703279
30
0
41
1
10
50.0865588882804
20
-1.74511424839713
30
0
41
1
10
50.1343773284396
20
-1.48847574512069
30
0
41
1
10
50.2300142087581
20
-0.978586038123353
30
0
41
1
10
50.2778326489173
20
-0.725344586261116
30
0
41
1
10
50.3495603091562
20
-0.352061695765172
30
0
41
1
10
50.3734695292358
20
-0.228721555639254
30
0
41
1
10
50.4093333593553
20
-0.0457598090509634
30
0
41
1
10
50.4212879693951
20
0.0146615877429497
30
0
41
1
10
50.4451971894747
20
0.136401555468808
30
0
41
1
10
50.4571517995145
20
0.197617809729792
30
0
41
1
10
50.5169248497135
20
0.505264894371294
30
0
41
1
10
50.5647432898728
20
0.756441060741224
30
0
41
1
10
50.6603801701912
20
1.26389352050052
30
0
41
1
10
50.7081986103505
20
1.5201619375336
30
0
41
1
10
50.8038354906689
20
2.03165379190986
30
0
41
1
10
50.8516539308282
20
2.28686302694854
30
0
41
1
10
50.9472908111466
20
2.78929810726913
30
0
41
1
10
50.9951092513058
20
3.03650459042731
30
0
41
1
10
51.0907461316244
20
3.51571212992855
30
0
41
1
10
51.1385645717836
20
3.7476914463461
30
0
41
1
10
51.234201452102
20
4.18956780303648
30
0
41
1
10
51.2820198922613
20
4.39944458955742
30
0
41
1
10
51.3776567725798
20
4.79122976263136
30
0
41
1
10
51.425475212739
20
4.97312324384831
30
0
41
1
10
51.5211120930575
20
5.30458819649544
30
0
41
1
10
51.5689305332167
20
5.45415276149919
30
0
41
1
10
51.6645674135352
20
5.71847460541821
30
0
41
1
10
51.7123858536945
20
5.83323363109284
30
0
41
1
10
51.808022734013
20
6.02740533715368
30
0
41
1
10
51.8558411741722
20
6.10682705852824
30
0
41
1
10
51.9514780544907
20
6.23156253806337
30
0
41
1
10
51.9992964946499
20
6.27688993924696
30
0
41
1
10
52.0949333749683
20
6.33610106969692
30
0
41
1
10
52.1427518151276
20
6.34999999999999
30
0
41
1
10
52.1905702552868
20
6.34999999999999
30
0
0
SPLINE
5
D3
100
AcDbEntity
8
1
62
256
6
ByLayer
370
13
48
1
60
0
100
AcDbSpline
70
4
71
3
72
75
73
71
40
0
40
0
40
0
40
0
40
0.0312500000000001
40
0.0312500000000001
40
0.0625000000000001
40
0.0625000000000001
40
0.0937500000000002
40
0.0937500000000002
40
0.125
40
0.125
40
0.140625
40
0.140625
40
0.15625
40
0.15625
40
0.1875
40
0.1875
40
0.21875
40
0.21875
40
0.250000000000001
40
0.250000000000001
40
0.281250000000001
40
0.281250000000001
40
0.312500000000001
40
0.312500000000001
40
0.343750000000001
40
0.343750000000001
40
0.375000000000001
40
0.375000000000001
40
0.406250000000001
40
0.406250000000001
40
0.437500000000001
40
0.437500000000001
40
0.468750000000001
40
0.468750000000001
40
0.500000000000001
40
0.500000000000001
40
0.531250000000001
40
0.531250000000001
40
0.562500000000001
40
0.562500000000001
40
0.570312500000001
40
0.570312500000001
40
0.578125000000001
40
0.593750000000001
40
0.593750000000001
40
0.625000000000001
40
0.625000000000001
40
0.656250000000001
40
0.656250000000001
40
0.687500000000001
40
0.687500000000001
40
0.718750000000001
40
0.718750000000001
40
0.75
40
0.75
40
0.78125
40
0.78125
40
0.8125
40
0.8125
40
0.84375
40
0.84375
40
0.875
40
0.875
40
0.90625
40
0.90625
40
0.9375
40
0.9375
40
0.96875
40
0.96875
40
1
40
1
40
1
40
1
41
1
10
47.6
20
-5.65985076524726
30
0
41
1
10
47.6426138170102
20
-5.77173168175801
30
0
41
1
10
47.6852276340203
20
-5.86970690915365
30
0
41
1
10
47.7704552680406
20
-6.03764248880299
30
0
41
1
10
47.8130690850508
20
-6.10760821166912
30
0
41
1
10
47.898296719071
20
-6.22043115605899
30
0
41
1
10
47.9409105360812
20
-6.26329601504546
30
0
41
1
10
48.0261381701016
20
-6.32372949967996
30
0
41
1
10
48.0687519871117
20
-6.34130665901878
30
0
41
1
10
48.1326727126269
20
-6.35055294184605
30
0
41
1
10
48.153979621132
20
-6.35082495401065
30
0
41
1
10
48.1965934381421
20
-6.34580004206222
30
0
41
1
10
48.2179003466472
20
-6.34045536986162
30
0
41
1
10
48.2818210721624
20
-6.31543627954409
30
0
41
1
10
48.3244348891726
20
-6.28675587378709
30
0
41
1
10
48.4096625231929
20
-6.20320331592285
30
0
41
1
10
48.452276340203
20
-6.14832286928777
30
0
41
1
10
48.5375039742233
20
-6.01093366448777
30
0
41
1
10
48.5801177912335
20
-5.92841811842075
30
0
41
1
10
48.6653454252537
20
-5.73532382018246
30
0
41
1
10
48.7079592422639
20
-5.62474114350172
30
0
41
1
10
48.7931868762842
20
-5.37624523113959
30
0
41
1
10
48.8358006932944
20
-5.23833200336099
30
0
41
1
10
48.9210283273146
20
-4.93713762905705
30
0
41
1
10
48.9636421443248
20
-4.77386086417349
30
0
41
1
10
49.0488697783451
20
-4.42506717307182
30
0
41
1
10
49.0914835953552
20
-4.23955861183038
30
0
41
1
10
49.1767112293755
20
-3.85040064024636
30
0
41
1
10
49.2193250463857
20
-3.64676239066114
30
0
41
1
10
49.304552680406
20
-3.22611772237553
30
0
41
1
10
49.3471664974162
20
-3.00912355767952
30
0
41
1
10
49.4323941314365
20
-2.56685495010615
30
0
41
1
10
49.4750079484466
20
-2.34159206732096
30
0
41
1
10
49.5602355824669
20
-1.88782508374183
30
0
41
1
10
49.602849399477
20
-1.65933039603334
30
0
41
1
10
49.6880770334973
20
-1.20377024658575
30
0
41
1
10
49.7306908505075
20
-0.976711199252549
30
0
41
1
10
49.8159184845278
20
-0.528084052136649
30
0
41
1
10
49.858532301538
20
-0.306519175467685
30
0
41
1
10
49.9117995728006
20
-0.0350625883418161
30
0
41
1
10
49.9224530270532
20
0.018788876280297
30
0
41
1
10
49.9437599355583
20
0.127261559440058
30
0
41
1
10
49.9757202983158
20
0.290795738957939
30
0
41
1
10
50.0076806610735
20
0.456600980339431
30
0
41
1
10
50.0716013865888
20
0.790624502645386
30
0
41
1
10
50.1142152035989
20
1.01654680273489
30
0
41
1
10
50.1994428376192
20
1.47101757813445
30
0
41
1
10
50.2420566546293
20
1.69956052384799
30
0
41
1
10
50.3272842886496
20
2.15475580504943
30
0
41
1
10
50.3698981056598
20
2.38139949601347
30
0
41
1
10
50.4551257396801
20
2.82783450209604
30
0
41
1
10
50.4977395566902
20
3.04761472513067
30
0
41
1
10
50.5829671907105
20
3.47521537318047
30
0
41
1
10
50.6255810077207
20
3.68302356422939
30
0
41
1
10
50.710808641741
20
4.08178261541681
30
0
41
1
10
50.7534224587511
20
4.27272183233154
30
0
41
1
10
50.8386500927714
20
4.63342045498851
30
0
41
1
10
50.8812639097816
20
4.80317057954164
30
0
41
1
10
50.9664915438019
20
5.11806417649538
30
0
41
1
10
51.009105360812
20
5.26320209596636
30
0
41
1
10
51.0943329948323
20
5.52656733062329
30
0
41
1
10
51.1369468118425
20
5.6447934455579
30
0
41
1
10
51.2221744458627
20
5.85325693074734
30
0
41
1
10
51.2647882628729
20
5.94349722938091
30
0
41
1
10
51.3500158968932
20
6.0961091811815
30
0
41
1
10
51.3926297139034
20
6.1584869643919
30
0
41
1
10
51.4778573479237
20
6.25655220235208
30
0
41
1
10
51.5204711649338
20
6.29224767490172
30
0
41
1
10
51.6056987989542
20
6.33896729473167
30
0
41
1
10
51.6483126159643
20
6.34999999999999
30
0
41
1
10
51.6909264329744
20
6.34999999999999
30
0
0
SPLINE
5
D4
100
AcDbEntity
8
1
62
256
6
ByLayer
370
13
48
1
60
0
100
AcDbSpline
70
4
71
3
72
48
73
44
40
0
40
0
40
0
40
0
40
0.0078125000000003
40
0.0078125000000003
40
0.0156250000000005
40
0.0156250000000005
40
0.0312500000000006
40
0.0312500000000006
40
0.0625000000000004
40
0.0625000000000004
40
0.125
40
0.125
40
0.1875
40
0.1875
40
0.25
40
0.25
40
0.3125
40
0.3125
40
0.375
40
0.375
40
0.4375
40
0.4375
40
0.5
40
0.5
40
0.515625
40
0.515625
40
0.53125
40
0.53125
40
0.5625
40
0.5625
40
0.625
40
0.625
40
0.6875
40
0.6875
40
0.75
40
0.75
40
0.8125
40
0.8125
40
0.875
40
0.875
40
0.9375
40
0.9375
40
1
40
1
40
1
40
1
41
1
10
47.6
20
-6.34548687116802
30
0
41
1
10
47.6093522984653
20
-6.34730066372356
30
0
41
1
10
47.6187045969305
20
-6.34855981203307
30
0
41
1
10
47.6374091938611
20
-6.34999734578892
30
0
41
1
10
47.6467614923263
20
-6.35017787760765
30
0
41
1
10
47.674818387722
20
-6.34912641418239
30
0
41
1
10
47.6935229846526
20
-6.34628339133587
30
0
41
1
10
47.7496367754442
20
-6.33098774705192
30
0
41
1
10
47.7870459693053
20
-6.31175750906155
30
0
41
1
10
47.8992735508885
20
-6.22457408718677
30
0
41
1
10
47.9740919386106
20
-6.12684713197214
30
0
41
1
10
48.1237287140548
20
-5.84476682757082
30
0
41
1
10
48.198547101777
20
-5.6603198120356
30
0
41
1
10
48.3481838772212
20
-5.20732460495211
30
0
41
1
10
48.4230022649434
20
-4.93878970448816
30
0
41
1
10
48.5726390403876
20
-4.3317811119199
30
0
41
1
10
48.6474574281098
20
-3.99344100163845
30
0
41
1
10
48.797094203554
20
-3.27040224969156
30
0
41
1
10
48.8719125912761
20
-2.88590260175383
30
0
41
1
10
49.0215493667204
20
-2.09828583753358
30
0
41
1
10
49.0963677544425
20
-1.69534617604648
30
0
41
1
10
49.2460045298868
20
-0.89677059309804
30
0
41
1
10
49.3208229176089
20
-0.501230942448785
30
0
41
1
10
49.4143459022615
20
-0.0237543040180128
30
0
41
1
10
49.433050499192
20
0.070653173881567
30
0
41
1
10
49.4704596930531
20
0.262181831949022
30
0
41
1
10
49.4891642899836
20
0.358755120173385
30
0
41
1
10
49.5452780807752
20
0.65049925533134
30
0
41
1
10
49.5826872746363
20
0.847708268040236
30
0
41
1
10
49.6949148562195
20
1.44373469124241
30
0
41
1
10
49.7697332439416
20
1.84710593573541
30
0
41
1
10
49.9193700193858
20
2.64130383465007
30
0
41
1
10
49.994188407108
20
3.03196680630671
30
0
41
1
10
50.1438251825522
20
3.77299533225255
30
0
41
1
10
50.2186435702743
20
4.12315930821882
30
0
41
1
10
50.3682803457186
20
4.75814497673326
30
0
41
1
10
50.4430987334407
20
5.04281293870909
30
0
41
1
10
50.592735508885
20
5.53014070472997
30
0
41
1
10
50.6675538966071
20
5.73276086361048
30
0
41
1
10
50.8171906720513
20
6.05081192568727
30
0
41
1
10
50.8920090597735
20
6.16631830556997
30
0
41
1
10
51.0416458352177
20
6.31584446044178
30
0
41
1
10
51.1164642229398
20
6.34999999999999
30
0
41
1
10
51.191282610662
20
6.34999999999999
30
0
0
SPLINE
5
D5
100
AcDbEntity
8
1
62
256
6
ByLayer
370
13
48
1
60
0
100
AcDbSpline
70
4
71
3
72
44
73
40
40
0
40
0
40
0
40
0
40
0.0624999999999975
40
0.0624999999999975
40
0.124999999999995
40
0.124999999999995
40
0.187499999999993
40
0.187499999999993
40
0.24999999999999
40
0.24999999999999
40
0.312499999999987
40
0.312499999999987
40
0.374999999999985
40
0.374999999999985
40
0.406249999999984
40
0.406249999999984
40
0.421874999999983
40
0.421874999999983
40
0.429687499999983
40
0.429687499999983
40
0.437499999999983
40
0.437499999999983
40
0.499999999999985
40
0.499999999999985
40
0.562499999999987
40
0.562499999999987
40
0.624999999999989
40
0.624999999999989
40
0.687499999999991
40
0.687499999999991
40
0.749999999999992
40
0.749999999999992
40
0.812499999999994
40
0.812499999999994
40
0.874999999999996
40
0.874999999999996
40
0.937499999999998
40
0.937499999999998
40
1
40
1
40
1
40
1
41
1
10
47.6
20
-5.8835750969468
30
0
41
1
10
47.664409141424
20
-5.74540239659456
30
0
41
1
10
47.728818282848
20
-5.5750108293671
30
0
41
1
10
47.8576365656958
20
-5.1726560327125
30
0
41
1
10
47.9220457071197
20
-4.94070419555237
30
0
41
1
10
48.0508639899676
20
-4.42440045696173
30
0
41
1
10
48.1152731313916
20
-4.14010945862262
30
0
41
1
10
48.2440914142395
20
-3.53358031824075
30
0
41
1
10
48.3085005556634
20
-3.21143400863653
30
0
41
1
10
48.4373188385114
20
-2.54654712425892
30
0
41
1
10
48.5017279799352
20
-2.20389851824487
30
0
41
1
10
48.6305462627832
20
-1.5153801691155
30
0
41
1
10
48.6949554042071
20
-1.16957604595027
30
0
41
1
10
48.791569116343
20
-0.659657876895096
30
0
41
1
10
48.823773687055
20
-0.491124662449806
30
0
41
1
10
48.872080543123
20
-0.241613048261399
30
0
41
1
10
48.888182828479
20
-0.158988576451179
30
0
41
1
10
48.912336256513
20
-0.0359939804539238
30
0
41
1
10
48.9203873991909
20
0.0047402662927993
30
0
41
1
10
48.9364896845469
20
0.0865754099716014
30
0
41
1
10
48.9445408272249
20
0.127652339573842
30
0
41
1
10
49.0170011113269
20
0.498690143467598
30
0
41
1
10
49.0814102527508
20
0.838234229186725
30
0
41
1
10
49.2102285355987
20
1.52438471539614
30
0
41
1
10
49.2746376770226
20
1.8709498118246
30
0
41
1
10
49.4034559598705
20
2.55521949315397
30
0
41
1
10
49.4678651012945
20
2.89284729295039
30
0
41
1
10
49.5966833841424
20
3.54159826153665
30
0
41
1
10
49.6610925255663
20
3.85262596947305
30
0
41
1
10
49.7899108084142
20
4.43147712207914
30
0
41
1
10
49.8543199498382
20
4.69921616453024
30
0
41
1
10
49.9831382326861
20
5.17855463461623
30
0
41
1
10
50.0475473741101
20
5.39010907535956
30
0
41
1
10
50.176365656958
20
5.74994761319854
30
0
41
1
10
50.2407747983819
20
5.89823772146107
30
0
41
1
10
50.3695930812298
20
6.13082997643497
30
0
41
1
10
50.4340022226538
20
6.2151793671047
30
0
41
1
10
50.5628205055016
20
6.32473139607876
30
0
41
1
10
50.6272296469256
20
6.34999999999999
30
0
41
1
10
50.6916387883495
20
6.34999999999999
30
0
0
SPLINE
5
D6
100
AcDbEntity
8
1
62
256
6
ByLayer
370
13
48
1
60
0
100
AcDbSpline
70
4
71
3
72
14
73
10
40
0
40
0
40
0
40
0
40
0.25
40
0.25
40
0.5
40
0.5
40
0.75
40
0.75
40
1
40
1
40
1
40
1
41
1
10
54.0953700445011
20
6.34999999999999
30
0
41
1
10
54.1448216251601
20
6.34999999999999
30
0
41
1
10
54.1942732058192
20
6.33513300056038
30
0
41
1
10
54.2931763671373
20
6.27168148675804
30
0
41
1
10
54.3426279477963
20
6.22307901007463
30
0
41
1
10
54.4415311091144
20
6.08927388498643
30
0
41
1
10
54.4909826897734
20
6.00405536706086
30
0
41
1
10
54.5898858510915
20
5.79579114095608
30
0
41
1
10
54.6393374317505
20
5.67273550449954
30
0
41
1
10
54.6887890124095
20
5.53118159321087
30
0
0
SPLINE
5
D7
100
AcDbEntity
8
1
62
256
6
ByLayer
370
13
48
1
60
0
100
AcDbSpline
70
4
71
3
72
42
73
38
40
0
40
0
40
0
40
0
40
0.0625
40
0.0625
40
0.125
40
0.125
40
0.1875
40
0.1875
40
0.25
40
0.25
40
0.3125
40
0.3125
40
0.328125
40
0.328125
40
0.34375
40
0.34375
40
0.375
40
0.375
40
0.4375
40
0.4375
40
0.5
40
0.5
40
0.5625
40
0.5625
40
0.625
40
0.625
40
0.6875
40
0.6875
40
0.75
40
0.75
40
0.8125
40
0.8125
40
0.875
40
0.875
40
0.9375
40
0.9375
40
1
40
1
40
1
40
1
41
1
10
47.6
20
-4.20345348143815
30
0
41
1
10
47.6539998951258
20
-3.96339577582086
30
0
41
1
10
47.7079997902516
20
-3.70779788643279
30
0
41
1
10
47.8159995805031
20
-3.17502694258718
30
0
41
1
10
47.8699994756289
20
-2.89789375135791
30
0
41
1
10
47.9779992658804
20
-2.33245111781258
30
0
41
1
10
48.0319991610061
20
-2.04417788998313
30
0
41
1
10
48.1399989512577
20
-1.46650315988708
30
0
41
1
10
48.1939988463835
20
-1.17712741600187
30
0
41
1
10
48.301998636635
20
-0.605992135054095
30
0
41
1
10
48.3559985317608
20
-0.32424526197164
30
0
41
1
10
48.423498400668
20
0.0188916717051484
30
0
41
1
10
48.4369983744495
20
0.0872624972146241
30
0
41
1
10
48.4639983220123
20
0.225415545160274
30
0
41
1
10
48.4774982957938
20
0.294915475799655
30
0
41
1
10
48.5179982171382
20
0.504537026505858
30
0
41
1
10
48.544998164701
20
0.645784296323853
30
0
41
1
10
48.6259980073897
20
1.07269428462516
30
0
41
1
10
48.6799979025154
20
1.36157770978079
30
0
41
1
10
48.787997692767
20
1.93940728244334
30
0
41
1
10
48.8419975878928
20
2.2283292024359
30
0
41
1
10
48.9499973781443
20
2.79632335828796
30
0
41
1
10
49.0039972732701
20
3.07536035759688
30
0
41
1
10
49.1119970635216
20
3.61317738222263
30
0
41
1
10
49.1659969586474
20
3.87191751625869
30
0
41
1
10
49.273996748899
20
4.35939407907955
30
0
41
1
10
49.3279966440247
20
4.58809503651318
30
0
41
1
10
49.4359964342763
20
5.00757399576563
30
0
41
1
10
49.489996329402
20
5.19832948345035
30
0
41
1
10
49.5979961196536
20
5.53672629554131
30
0
41
1
10
49.6519960147794
20
5.68436269599596
30
0
41
1
10
49.7599958050309
20
5.93448276554045
30
0
41
1
10
49.8139957001567
20
6.03697827689976
30
0
41
1
10
49.9219954904082
20
6.19781855889613
30
0
41
1
10
49.975995385534
20
6.25618666583748
30
0
41
1
10
50.0839951757856
20
6.33226349816417
30
0
41
1
10
50.1379950709114
20
6.34999999999999
30
0
41
1
10
50.1919949660371
20
6.34999999999999
30
0
0
SPLINE
5
D8
100
AcDbEntity
8
1
62
256
6
ByLayer
370
13
48
1
60
0
100
AcDbSpline
70
4
71
3
72
22
73
18
40
0
40
0
40
0
40
0
40
0.125
40
0.125
40
0.25
40
0.25
40
0.375
40
0.375
40
0.5
40
0.5
40
0.625
40
0.625
40
0.75
40
0.75
40
0.875
40
0.875
40
1
40
1
40
1
40
1
41
1
10
53.5957262221887
20
6.34999999999999
30
0
41
1
10
53.6412705051145
20
6.34999999999999
30
0
41
1
10
53.6868147880405
20
6.3373944191982
30
0
41
1
10
53.7779033538922
20
6.28383215303398
30
0
41
1
10
53.8234476368181
20
6.2428635414125
30
0
41
1
10
53.9145362026698
20
6.1301987708502
30
0
41
1
10
53.9600804855956
20
6.05849169113216
30
0
41
1
10
54.0511690514474
20
5.88310957234793
30
0
41
1
10
54.0967133343732
20
5.77942677853554
30
0
41
1
10
54.187801900225
20
5.54027754365845
30
0
41
1
10
54.2333461831508
20
5.40480851601856
30
0
41
1
10
54.3244347490026
20
5.10385829151522
30
0
41
1
10
54.3699790319285
20
4.93838087840331
30
0
41
1
10
54.4610675977802
20
4.58075816055438
30
0
41
1
10
54.5066118807061
20
4.38862290722525
30
0
41
1
10
54.5977004465578
20
3.98239223933817
30
0
41
1
10
54.6432447294837
20
3.76831162379358
30
0
41
1
10
54.6887890124095
20
3.54609654528284
30
0
0
SPLINE
5
D9
100
AcDbEntity
8
1
62
256
6
ByLayer
370
13
48
1
60
0
100
AcDbSpline
70
4
71
3
72
42
73
38
40
0
40
0
40
0
40
0
40
0.0625000000000014
40
0.0625000000000014
40
0.125000000000003
40
0.125000000000003
40
0.140625000000003
40
0.140625000000003
40
0.156250000000003
40
0.156250000000003
40
0.187500000000003
40
0.187500000000003
40
0.250000000000002
40
0.250000000000002
40
0.312500000000002
40
0.312500000000002
40
0.375000000000002
40
0.375000000000002
40
0.437500000000002
40
0.437500000000002
40
0.500000000000002
40
0.500000000000002
40
0.562500000000001
40
0.562500000000001
40
0.625000000000001
40
0.625000000000001
40
0.687500000000001
40
0.687500000000001
40
0.750000000000001
40
0.750000000000001
40
0.812500000000001
40
0.812500000000001
40
0.875
40
0.875
40
0.9375
40
0.9375
40
1
40
1
40
1
40
1
41
1
10
47.6
20
-1.68234666741222
30
0
41
1
10
47.6435906488276
20
-1.44913160021721
30
0
41
1
10
47.6871812976552
20
-1.21580870210113
30
0
41
1
10
47.7743625953104
20
-0.753533023357733
30
0
41
1
10
47.817953244138
20
-0.524585064371223
30
0
41
1
10
47.8724415551725
20
-0.243519139805869
30
0
41
1
10
47.8833392173794
20
-0.187559841977645
30
0
41
1
10
47.9051345417932
20
-0.0762001733477291
30
0
41
1
10
47.9160322040001
20
-0.0209702561860468
30
0
41
1
10
47.9487251906208
20
0.145062956362267
30
0
41
1
10
47.9705205150347
20
0.256928043864349
30
0
41
1
10
48.035906488276
20
0.595441850505665
30
0
41
1
10
48.0794971371035
20
0.825034923994423
30
0
41
1
10
48.1666784347588
20
1.28815842447403
30
0
41
1
10
48.2102690835863
20
1.52168365015012
30
0
41
1
10
48.2974503812416
20
1.98800449129882
30
0
41
1
10
48.3410410300692
20
2.22079126529363
30
0
41
1
10
48.4282223277244
20
2.68041245416649
30
0
41
1
10
48.4718129765519
20
2.90723497193343
30
0
41
1
10
48.5589942742071
20
3.34946326982677
30
0
41
1
10
48.6025849230347
20
3.56485546753092
30
0
41
1
10
48.6897662206899
20
3.9789053794841
30
0
41
1
10
48.7333568695175
20
4.17754978258682
30
0
41
1
10
48.8205381671727
20
4.55334441525085
30
0
41
1
10
48.8641288160003
20
4.73048370870407
30
0
41
1
10
48.9513101136555
20
5.05943827221989
30
0
41
1
10
48.9949007624831
20
5.21124668786169
30
0
41
1
10
49.0820820601383
20
5.48691235738031
30
0
41
1
10
49.1256727089659
20
5.61076770318789
30
0
41
1
10
49.2128540066211
20
5.82923666381697
30
0
41
1
10
49.2564446554487
20
5.92385316567004
30
0
41
1
10
49.3436259531039
20
6.08387421564666
30
0
41
1
10
49.3872166019315
20
6.14928542390609
30
0
41
1
10
49.4743978995867
20
6.25209814959217
30
0
41
1
10
49.5179885484143
20
6.28950858061788
30
0
41
1
10
49.6051698460695
20
6.33845471405098
30
0
41
1
10
49.6487604948971
20
6.34999999999999
30
0
41
1
10
49.6923511437246
20
6.34999999999999
30
0
0
SPLINE
5
DA
100
AcDbEntity
8
1
62
256
6
ByLayer
370
13
48
1
60
0
100
AcDbSpline
70
4
71
3
72
22
73
18
40
0
40
0
40
0
40
0
40
0.125
40
0.125
40
0.25
40
0.25
40
0.375
40
0.375
40
0.5
40
0.5
40
0.625
40
0.625
40
0.75
40
0.75
40
0.875
40
0.875
40
1
40
1
40
1
40
1
41
1
10
53.0960823998763
20
6.34999999999999
30
0
41
1
10
53.1624451753984
20
6.34999999999999
30
0
41
1
10
53.2288079509207
20
6.32316723378139
30
0
41
1
10
53.3615335019651
20
6.2066124555765
30
0
41
1
10
53.4278962774873
20
6.11681417352881
30
0
41
1
10
53.5606218285318
20
5.86922273539372
30
0
41
1
10
53.626984604054
20
5.7113770332964
30
0
41
1
10
53.7597101550985
20
5.3288937372337
30
0
41
1
10
53.8260729306207
20
5.10425445092346
30
0
41
1
10
53.9587984816652
20
4.59660507692126
30
0
41
1
10
54.0251612571874
20
4.31365395117683
30
0
41
1
10
54.1578868082318
20
3.70417397354348
30
0
41
1
10
54.2242495837541
20
3.37774735816467
30
0
41
1
10
54.3569751347985
20
2.69997054965441
30
0
41
1
10
54.4233379103207
20
2.34872944996596
30
0
41
1
10
54.5560634613652
20
1.64051953557842
30
0
41
1
10
54.6224262368874
20
1.28363203334084
30
0
41
1
10
54.6887890124096
20
0.932260485372211
30
0
0
SPLINE
5
DB
100
AcDbEntity
8
1
62
256
6
ByLayer
370
13
48
1
60
0
100
AcDbSpline
70
4
71
3
72
22
73
18
40
0
40
0
40
0
40
0
40
0.125
40
0.125
40
0.25
40
0.25
40
0.375
40
0.375
40
0.5
40
0.5
40
0.625
40
0.625
40
0.75
40
0.75
40
0.875
40
0.875
40
1
40
1
40
1
40
1
41
1
10
47.6
20
0.932256732065383
30
0
41
1
10
47.6663628050588
20
1.28362839823225
30
0
41
1
10
47.7327256101176
20
1.64051605008282
30
0
41
1
10
47.8654512202353
20
2.34872631607769
30
0
41
1
10
47.9318140252942
20
2.69996761770366
30
0
41
1
10
48.0645396354119
20
3.37774486016943
30
0
41
1
10
48.1309024404707
20
3.70417170735854
30
0
41
1
10
48.2636280505884
20
4.31365214836796
30
0
41
1
10
48.3299908556473
20
4.59660350539295
30
0
41
1
10
48.4627164657649
20
5.10425331112759
30
0
41
1
10
48.5290792708238
20
5.32889279765877
30
0
41
1
10
48.6618048809415
20
5.7113764407564
30
0
41
1
10
48.7281676860003
20
5.86922228959097
30
0
41
1
10
48.860893296118
20
6.11681395814617
30
0
41
1
10
48.9272561011769
20
6.20661232395801
30
0
41
1
10
49.0599817112945
20
6.3231672097719
30
0
41
1
10
49.1263445163534
20
6.34999999999999
30
0
41
1
10
49.1927073214122
20
6.34999999999999
30
0
0
SPLINE
5
DC
100
AcDbEntity
8
1
62
256
6
ByLayer
370
13
48
1
60
0
100
AcDbSpline
70
4
71
3
72
42
73
38
40
0
40
0
40
0
40
0
40
0.0625
40
0.0625
40
0.125
40
0.125
40
0.1875
40
0.1875
40
0.25
40
0.25
40
0.3125
40
0.3125
40
0.375
40
0.375
40
0.4375
40
0.4375
40
0.5
40
0.5
40
0.5625
40
0.5625
40
0.625
40
0.625
40
0.6875
40
0.6875
40
0.75
40
0.75
40
0.8125
40
0.8125
40
0.84375
40
0.84375
40
0.859375
40
0.859375
40
0.875
40
0.875
40
0.9375
40
0.9375
40
1
40
1
40
1
40
1
41
1
10
52.5964385775638
20
6.34999999999999
30
0
41
1
10
52.6400292116231
20
6.34999999999999
30
0
41
1
10
52.6836198456824
20
6.33845472188901
30
0
41
1
10
52.770801113801
20
6.28950862252802
30
0
41
1
10
52.8143917478603
20
6.2520982177526
30
0
41
1
10
52.9015730159789
20
6.14928556474047
30
0
41
1
10
52.9451636500381
20
6.08387440291875
30
0
41
1
10
53.0323449181567
20
5.92385346632739
30
0
41
1
10
53.0759355522159
20
5.82923703143001
30
0
41
1
10
53.1631168203345
20
5.61076822376998
30
0
41
1
10
53.2067074543938
20
5.48691296397468
30
0
41
1
10
53.2938887225124
20
5.21124748218085
30
0
41
1
10
53.3374793565717
20
5.05943916823983
30
0
41
1
10
53.4246606246903
20
4.73048481875296
30
0
41
1
10
53.4682512587495
20
4.55334563760684
30
0
41
1
10
53.5554325268681
20
4.17755123389759
30
0
41
1
10
53.5990231609274
20
3.97890694741616
30
0
41
1
10
53.686204429046
20
3.56485726627514
30
0
41
1
10
53.7297950631053
20
3.34946518273577
30
0
41
1
10
53.8169763312238
20
2.90723710429646
30
0
41
1
10
53.8605669652831
20
2.68041469179815
30
0
41
1
10
53.9477482334017
20
2.22079369918771
30
0
41
1
10
53.991338867461
20
1.98800701617498
30
0
41
1
10
54.0785201355795
20
1.52168633885626
30
0
41
1
10
54.1221107696389
20
1.28816118602612
30
0
41
1
10
54.2092920377575
20
0.825037810990125
30
0
41
1
10
54.2528826718168
20
0.595444790105233
30
0
41
1
10
54.3182686229057
20
0.256931046854476
30
0
41
1
10
54.3400639399353
20
0.145065977909127
30
0
41
1
10
54.3727569154797
20
-0.020967210605022
30
0
41
1
10
54.3836545739946
20
-0.0761970900501012
30
0
41
1
10
54.4054498910242
20
-0.187556700132688
30
0
41
1
10
54.416347549539
20
-0.243515968958434
30
0
41
1
10
54.4708358421132
20
-0.524581750158148
30
0
41
1
10
54.5144264761725
20
-0.753529599693422
30
0
41
1
10
54.601607744291
20
-1.21580507800698
30
0
41
1
10
54.6451983783502
20
-1.44912788517124
30
0
41
1
10
54.6887890124096
20
-1.6823428748273
30
0
0
SPLINE
5
DD
100
AcDbEntity
8
1
62
256
6
ByLayer
370
13
48
1
60
0
100
AcDbSpline
70
4
71
3
72
22
73
18
40
0
40
0
40
0
40
0
40
0.125
40
0.125
40
0.25
40
0.25
40
0.375
40
0.375
40
0.5
40
0.5
40
0.625
40
0.625
40
0.75
40
0.75
40
0.875
40
0.875
40
1
40
1
40
1
40
1
41
1
10
47.6
20
3.5460930865917
30
0
41
1
10
47.6455443124624
20
3.76830839332061
30
0
41
1
10
47.691088624925
20
3.98238924212015
30
0
41
1
10
47.78217724985
20
4.38862037197362
30
0
41
1
10
47.8277215623124
20
4.58075585395008
30
0
41
1
10
47.9188101872374
20
4.9383790103135
30
0
41
1
10
47.9643544996999
20
5.1038566332378
30
0
41
1
10
48.0554431246249
20
5.40480724668748
30
0
41
1
10
48.1009874370874
20
5.54027645342779
30
0
41
1
10
48.1920760620124
20
5.77942600763356
30
0
41
1
10
48.2376203744749
20
5.8831089416671
30
0
41
1
10
48.3287089993999
20
6.05849129815496
30
0
41
1
10
48.3742533118623
20
6.13019847537225
30
0
41
1
10
48.4653419367873
20
6.24286339849456
30
0
41
1
10
48.5108862492498
20
6.2838320652094
30
0
41
1
10
48.6019748741748
20
6.33739440281332
30
0
41
1
10
48.6475191866373
20
6.34999999999999
30
0
41
1
10
48.6930634990998
20
6.34999999999999
30
0
0
SPLINE
5
DE
100
AcDbEntity
8
1
62
256
6
ByLayer
370
13
48
1
60
0
100
AcDbSpline
70
4
71
3
72
42
73
38
40
0
40
0
40
0
40
0
40
0.0624999999999988
40
0.0624999999999988
40
0.124999999999998
40
0.124999999999998
40
0.187499999999996
40
0.187499999999996
40
0.249999999999995
40
0.249999999999995
40
0.312499999999994
40
0.312499999999994
40
0.374999999999993
40
0.374999999999993
40
0.437499999999992
40
0.437499999999992
40
0.499999999999991
40
0.499999999999991
40
0.562499999999989
40
0.562499999999989
40
0.624999999999988
40
0.624999999999988
40
0.656249999999988
40
0.656249999999988
40
0.671874999999988
40
0.671874999999988
40
0.687499999999988
40
0.687499999999988
40
0.74999999999999
40
0.74999999999999
40
0.812499999999993
40
0.812499999999993
40
0.874999999999995
40
0.874999999999995
40
0.937499999999998
40
0.937499999999998
40
1
40
1
40
1
40
1
41
1
10
52.0967947552514
20
6.34999999999999
30
0
41
1
10
52.1507946356088
20
6.34999999999999
30
0
41
1
10
52.2047945159663
20
6.33226350789641
30
0
41
1
10
52.3127942766812
20
6.25618671852348
30
0
41
1
10
52.3667941570387
20
6.19781864484119
30
0
41
1
10
52.4747939177536
20
6.03697845488176
30
0
41
1
10
52.5287937981111
20
5.93448300232765
30
0
41
1
10
52.636793558826
20
5.68436307485163
30
0
41
1
10
52.6907934391835
20
5.53672675766424
30
0
41
1
10
52.7987931998984
20
5.19833013189592
30
0
41
1
10
52.8527930802559
20
5.00757474724003
30
0
41
1
10
52.9607928409708
20
4.58809600587398
30
0
41
1
10
53.0147927213282
20
4.35939516324521
30
0
41
1
10
53.1227924820431
20
3.87191883183249
30
0
41
1
10
53.1767923624006
20
3.61317881433652
30
0
41
1
10
53.2847921231156
20
3.07536201429656
30
0
41
1
10
53.338792003473
20
2.79632512297962
30
0
41
1
10
53.446791764188
20
2.22833116589084
30
0
41
1
10
53.5007916445454
20
1.9394093366401
30
0
41
1
10
53.6087914052604
20
1.36157992237548
30
0
41
1
10
53.6627912856178
20
1.07269656487429
30
0
41
1
10
53.743791106154
20
0.645786658839057
30
0
41
1
10
53.7707910463328
20
0.504539413266343
30
0
41
1
10
53.8112909566008
20
0.29491789414206
30
0
41
1
10
53.8247909266902
20
0.225417973233732
30
0
41
1
10
53.8517908668689
20
0.0872649431700836
30
0
41
1
10
53.8652908369583
20
0.0188941196526002
30
0
41
1
10
53.9327906874052
20
-0.324242666387363
30
0
41
1
10
53.9867905677626
20
-0.60598942611216
30
0
41
1
10
54.0947903284775
20
-1.17712450179783
30
0
41
1
10
54.148790208835
20
-1.46650015383867
30
0
41
1
10
54.2567899695499
20
-2.04417473453986
30
0
41
1
10
54.3107898499073
20
-2.3324479048984
30
0
41
1
10
54.4187896106223
20
-2.89789046932287
30
0
41
1
10
54.4727894909797
20
-3.17502364898087
30
0
41
1
10
54.5807892516947
20
-3.70779462325316
30
0
41
1
10
54.6347891320521
20
-3.96339255469016
30
0
41
1
10
54.6887890124095
20
-4.20345033010079
30
0
0
SPLINE
5
DF
100
AcDbEntity
8
1
62
256
6
ByLayer
370
13
48
1
60
0
100
AcDbSpline
70
4
71
3
72
14
73
10
40
0
40
0
40
0
40
0
40
0.25
40
0.25
40
0.5
40
0.5
40
0.75
40
0.75
40
1
40
1
40
1
40
1
41
1
10
47.6
20
5.53117956406155
30
0
41
1
10
47.6494516397323
20
5.67273382035296
30
0
41
1
10
47.6989032794646
20
5.79578976203871
30
0
41
1
10
47.7978065589291
20
6.0040545069061
30
0
41
1
10
47.8472581986614
20
6.08927323839606
30
0
41
1
10
47.946161478126
20
6.22307869762901
30
0
41
1
10
47.9956131178582
20
6.27168129497755
30
0
41
1
10
48.0945163973228
20
6.33513296494942
30
0
41
1
10
48.1439680370551
20
6.34999999999999
30
0
41
1
10
48.1934196767874
20
6.34999999999999
30
0
0
SPLINE
5
E0
100
AcDbEntity
8
1
62
256
6
ByLayer
370
13
48
1
60
0
100
AcDbSpline
70
4
71
3
72
44
73
40
40
0
40
0
40
0
40
0
40
0.0625000000000005
40
0.0625000000000005
40
0.125000000000001
40
0.125000000000001
40
0.187500000000002
40
0.187500000000002
40
0.250000000000002
40
0.250000000000002
40
0.312500000000003
40
0.312500000000003
40
0.375000000000004
40
0.375000000000004
40
0.437500000000004
40
0.437500000000004
40
0.500000000000005
40
0.500000000000005
40
0.562500000000005
40
0.562500000000005
40
0.570312500000005
40
0.570312500000005
40
0.578125000000006
40
0.578125000000006
40
0.593750000000006
40
0.593750000000006
40
0.625000000000005
40
0.625000000000005
40
0.687500000000004
40
0.687500000000004
40
0.750000000000004
40
0.750000000000004
40
0.812500000000003
40
0.812500000000003
40
0.875000000000002
40
0.875000000000002
40
0.937500000000001
40
0.937500000000001
40
1
40
1
40
1
40
1
41
1
10
51.5971509329389
20
6.34999999999999
30
0
41
1
10
51.6615600595946
20
6.34999999999999
30
0
41
1
10
51.7259691862502
20
6.32473140772242
30
0
41
1
10
51.8547874395615
20
6.21517943081824
30
0
41
1
10
51.9191965662171
20
6.13083008064837
30
0
41
1
10
52.0480148195284
20
5.89823793723275
30
0
41
1
10
52.1124239461841
20
5.74994790006809
30
0
41
1
10
52.2412421994953
20
5.39010953105318
30
0
41
1
10
52.305651326151
20
5.1785551880088
30
0
41
1
10
52.4344695794623
20
4.69921693002223
30
0
41
1
10
52.4988787061179
20
4.43147800187546
30
0
41
1
10
52.6276969594292
20
3.85262708053992
30
0
41
1
10
52.6921060860848
20
3.54159948944269
30
0
41
1
10
52.8209243393961
20
2.89284874257092
30
0
41
1
10
52.8853334660517
20
2.55522104754803
30
0
41
1
10
53.014151719363
20
1.87095155223676
30
0
41
1
10
53.0785608460186
20
1.52438653701333
30
0
41
1
10
53.20737909933
20
0.83823618341242
30
0
41
1
10
53.2717882259855
20
0.498692149119137
30
0
41
1
10
53.3442484934731
20
0.127654385889883
30
0
41
1
10
53.3522996343051
20
0.0865774605702256
30
0
41
1
10
53.368401915969
20
0.0047423249888254
30
0
41
1
10
53.3764530568009
20
-0.035991908279982
30
0
41
1
10
53.4006064792968
20
-0.15898646010811
30
0
41
1
10
53.4167087609607
20
-0.24161090284494
30
0
41
1
10
53.4650156059525
20
-0.491122431311425
30
0
41
1
10
53.4972201692802
20
-0.659655590601886
30
0
41
1
10
53.5938338592637
20
-1.16957360341817
30
0
41
1
10
53.6582429859193
20
-1.51537763474809
30
0
41
1
10
53.7870612392306
20
-2.20389584291181
30
0
41
1
10
53.8514703658863
20
-2.54654439995812
30
0
41
1
10
53.9802886191975
20
-3.21143124469097
30
0
41
1
10
54.0446977458532
20
-3.5335775637646
30
0
41
1
10
54.1735159991645
20
-4.14010678934892
30
0
41
1
10
54.2379251258201
20
-4.42439786347734
30
0
41
1
10
54.3667433791314
20
-4.94070181695807
30
0
41
1
10
54.431152505787
20
-5.17265379314892
30
0
41
1
10
54.5599707590983
20
-5.57500891742905
30
0
41
1
10
54.6243798857539
20
-5.74540067308658
30
0
41
1
10
54.6887890124096
20
-5.8835735762342
30
0
0
SPLINE
5
E1
100
AcDbEntity
8
1
62
256
6
ByLayer
370
13
48
1
60
0
100
AcDbSpline
70
4
71
3
72
8
73
4
40
0
40
0
40
0
40
0
40
1
40
1
40
1
40
1
41
1
10
47.6
20
6.3316822551183
30
0
41
1
10
47.6312586181583
20
6.34406843804908
30
0
41
1
10
47.6625172363166
20
6.34999999999999
30
0
41
1
10
47.6937758544749
20
6.34999999999999
30
0
0
SPLINE
5
E2
100
AcDbEntity
8
1
62
256
6
ByLayer
370
13
48
1
60
0
100
AcDbSpline
70
4
71
3
72
48
73
44
40
0
40
0
40
0
40
0
40
0.0624999999999998
40
0.0624999999999998
40
0.125
40
0.125
40
0.187499999999999
40
0.187499999999999
40
0.249999999999999
40
0.249999999999999
40
0.312499999999999
40
0.312499999999999
40
0.374999999999999
40
0.374999999999999
40
0.437499999999998
40
0.437499999999998
40
0.468749999999998
40
0.468749999999998
40
0.484374999999998
40
0.484374999999998
40
0.499999999999998
40
0.499999999999998
40
0.562499999999998
40
0.562499999999998
40
0.624999999999999
40
0.624999999999999
40
0.687499999999999
40
0.687499999999999
40
0.749999999999999
40
0.749999999999999
40
0.812499999999999
40
0.812499999999999
40
0.874999999999999
40
0.874999999999999
40
0.937499999999999
40
0.937499999999999
40
0.968749999999999
40
0.968749999999999
40
0.984374999999999
40
0.984374999999999
40
0.9921875
40
0.9921875
40
1
40
1
40
1
40
1
41
1
10
51.0975071106265
20
6.34999999999999
30
0
41
1
10
51.1723254835803
20
6.34999999999999
30
0
41
1
10
51.2471438565341
20
6.31584447401934
30
0
41
1
10
51.3967806024418
20
6.16631838053678
30
0
41
1
10
51.4715989753955
20
6.05081204859334
30
0
41
1
10
51.6212357213032
20
5.73276111738264
30
0
41
1
10
51.696054094257
20
5.5301410414653
30
0
41
1
10
51.8456908401647
20
5.04281346771097
30
0
41
1
10
51.9205092131185
20
4.75814561492433
30
0
41
1
10
52.0701459590261
20
4.12316017409617
30
0
41
1
10
52.1449643319799
20
3.77299631640599
30
0
41
1
10
52.2946010778875
20
3.03196801621388
30
0
41
1
10
52.3694194508413
20
2.64130515183493
30
0
41
1
10
52.5190561967489
20
1.84710744033407
30
0
41
1
10
52.5938745697028
20
1.44373627590136
30
0
41
1
10
52.7061021291335
20
0.847709946338284
30
0
41
1
10
52.7435113156104
20
0.650500960504189
30
0
41
1
10
52.7996250953258
20
0.358756859002881
30
0
41
1
10
52.8183296885642
20
0.262183580892071
30
0
41
1
10
52.8557388750411
20
0.0706549408602086
30
0
41
1
10
52.8744434682796
20
-0.0237525237606917
30
0
41
1
10
52.9679664344719
20
-0.501229015619629
30
0
41
1
10
53.0427848074257
20
-0.896768556189642
30
0
41
1
10
53.1924215533333
20
-1.69534395694879
30
0
41
1
10
53.2672399262871
20
-2.09828354658541
30
0
41
1
10
53.4168766721948
20
-2.88590022870048
30
0
41
1
10
53.4916950451486
20
-3.2703998666756
30
0
41
1
10
53.6413317910562
20
-3.99343867490245
30
0
41
1
10
53.71615016401
20
-4.33177885157326
30
0
41
1
10
53.8657869099176
20
-4.93878765143302
30
0
41
1
10
53.9406052828715
20
-5.20732269268584
30
0
41
1
10
54.0902420287791
20
-5.66031823706956
30
0
41
1
10
54.1650604017329
20
-5.84476544880857
30
0
41
1
10
54.3146971476405
20
-6.12684617219395
30
0
41
1
10
54.3895155205943
20
-6.22457334987541
30
0
41
1
10
54.5017430800251
20
-6.31175710330939
30
0
41
1
10
54.539152266502
20
-6.33098745149209
30
0
41
1
10
54.5952660462174
20
-6.34628325832975
30
0
41
1
10
54.6139706394558
20
-6.34912633490916
30
0
41
1
10
54.6420275293135
20
-6.35017787801638
30
0
41
1
10
54.6513798259327
20
-6.34999737260992
30
0
41
1
10
54.6700844191711
20
-6.34855989331993
30
0
41
1
10
54.6794367157904
20
-6.34730077281998
30
0
41
1
10
54.6887890124096
20
-6.34548700864752
30
0
0
SPLINE
5
E3
100
AcDbEntity
8
1
62
256
6
ByLayer
370
13
48
1
60
0
100
AcDbSpline
70
4
71
3
72
76
73
72
40
0
40
0
40
0
40
0
40
0.0312500000000002
40
0.0312500000000002
40
0.0625000000000004
40
0.0625000000000004
40
0.0937500000000006
40
0.0937500000000006
40
0.125000000000001
40
0.125000000000001
40
0.156250000000001
40
0.156250000000001
40
0.187500000000001
40
0.187500000000001
40
0.218750000000001
40
0.218750000000001
40
0.250000000000002
40
0.250000000000002
40
0.281250000000002
40
0.281250000000002
40
0.312500000000002
40
0.312500000000002
40
0.343750000000002
40
0.343750000000002
40
0.375000000000002
40
0.375000000000002
40
0.406250000000002
40
0.406250000000002
40
0.421875000000002
40
0.421875000000002
40
0.429687500000002
40
0.429687500000002
40
0.437500000000002
40
0.437500000000002
40
0.468750000000002
40
0.468750000000002
40
0.500000000000002
40
0.500000000000002
40
0.531250000000002
40
0.531250000000002
40
0.562500000000001
40
0.562500000000001
40
0.593750000000001
40
0.593750000000001
40
0.625000000000001
40
0.625000000000001
40
0.656250000000001
40
0.656250000000001
40
0.6875
40
0.6875
40
0.71875
40
0.71875
40
0.75
40
0.75
40
0.78125
40
0.78125
40
0.8125
40
0.8125
40
0.843749999999999
40
0.843749999999999
40
0.859374999999999
40
0.859374999999999
40
0.874999999999999
40
0.874999999999999
40
0.906249999999999
40
0.906249999999999
40
0.9375
40
0.9375
40
0.96875
40
0.96875
40
1
40
1
40
1
40
1
41
1
10
50.597863288314
20
6.34999999999999
30
0
41
1
10
50.6404770979401
20
6.34999999999999
30
0
41
1
10
50.683090907566
20
6.33896729856215
30
0
41
1
10
50.768318526818
20
6.29224769535804
30
0
41
1
10
50.8109323364441
20
6.2565522356112
30
0
41
1
10
50.896159955696
20
6.1584870330897
30
0
41
1
10
50.938773765322
20
6.09610927252169
30
0
41
1
10
51.024001384574
20
5.94349737604315
30
0
41
1
10
51.0666151942
20
5.85325711009315
30
0
41
1
10
51.151842813452
20
5.64479369968461
30
0
41
1
10
51.194456623078
20
5.52656762684725
30
0
41
1
10
51.27968424233
20
5.26320248428431
30
0
41
1
10
51.3222980519559
20
5.11806461480523
30
0
41
1
10
51.407525671208
20
4.8031711234018
30
0
41
1
10
51.450139480834
20
4.63342105439793
30
0
41
1
10
51.5353671000859
20
4.27272254546688
30
0
41
1
10
51.5779809097119
20
4.08178338671701
30
0
41
1
10
51.6632085289639
20
3.68302445126372
30
0
41
1
10
51.7058223385899
20
3.47521631777192
30
0
41
1
10
51.7910499578419
20
3.04761578110327
30
0
41
1
10
51.8336637674679
20
2.82783561188259
30
0
41
1
10
51.9188913867199
20
2.38140070698489
30
0
41
1
10
51.9615051963459
20
2.15475706338546
30
0
41
1
10
52.0467328155979
20
1.69956186843939
30
0
41
1
10
52.0893466252239
20
1.47101896161465
30
0
41
1
10
52.1745742444759
20
1.01654825429239
30
0
41
1
10
52.2171880541018
20
0.79062598339334
30
0
41
1
10
52.2811087685408
20
0.456602497279818
30
0
41
1
10
52.3024156733539
20
0.346065680496792
30
0
41
1
10
52.3343760305734
20
0.181774751778391
30
0
41
1
10
52.3450294829798
20
0.127263105976141
30
0
41
1
10
52.3663363877929
20
0.018790431122369
30
0
41
1
10
52.3769898401994
20
-0.0350610225622745
30
0
41
1
10
52.4302571022318
20
-0.306517536167462
30
0
41
1
10
52.4728709118578
20
-0.528082356010003
30
0
41
1
10
52.5580985311099
20
-0.97670939714871
30
0
41
1
10
52.6007123407358
20
-1.20376839534194
30
0
41
1
10
52.6859399599878
20
-1.6593284581661
30
0
41
1
10
52.7285537696138
20
-1.88782310840557
30
0
41
1
10
52.8137813888658
20
-2.34159003257344
30
0
41
1
10
52.8563951984917
20
-2.56685289343244
30
0
41
1
10
52.9416228177438
20
-3.00912147597416
30
0
41
1
10
52.9842366273698
20
-3.22611563757934
30
0
41
1
10
53.0694642466217
20
-3.64676032074786
30
0
41
1
10
53.1120780562478
20
-3.85039858831684
30
0
41
1
10
53.1973056754998
20
-4.23955661774366
30
0
41
1
10
53.2399194851257
20
-4.42506521884695
30
0
41
1
10
53.3251471043777
20
-4.7738590107254
30
0
41
1
10
53.3677609140038
20
-4.93713583651845
30
0
41
1
10
53.4529885332557
20
-5.23833035127973
30
0
41
1
10
53.4956023428817
20
-5.37624365859355
30
0
41
1
10
53.5808299621337
20
-5.62473974493659
30
0
41
1
10
53.6234437717597
20
-5.73532251604604
30
0
41
1
10
53.7086713910116
20
-5.92841701346964
30
0
41
1
10
53.7512852006377
20
-6.01093266427534
30
0
41
1
10
53.8365128198897
20
-6.14832208398059
30
0
41
1
10
53.8791266295157
20
-6.20320264076673
30
0
41
1
10
53.9643542487677
20
-6.28675541965362
30
0
41
1
10
54.0069680583937
20
-6.31543593627134
30
0
41
1
10
54.0708887728326
20
-6.34045519033529
30
0
41
1
10
54.0921956776456
20
-6.34579991669958
30
0
41
1
10
54.1348094872717
20
-6.35082493570286
30
0
41
1
10
54.1561163920847
20
-6.35055297576196
30
0
41
1
10
54.2200371065237
20
-6.34130686035462
30
0
41
1
10
54.2626509161497
20
-6.32372982317378
30
0
41
1
10
54.3478785354017
20
-6.2632966026103
30
0
41
1
10
54.3904923450276
20
-6.22043188554306
30
0
41
1
10
54.4757199642796
20
-6.10760924168707
30
0
41
1
10
54.5183337739056
20
-6.03764367743406
30
0
41
1
10
54.6035613931576
20
-5.86970842682078
30
0
41
1
10
54.6461752027836
20
-5.77173336983697
30
0
41
1
10
54.6887890124096
20
-5.65985262637989
30
0
0
SPLINE
5
E4
100
AcDbEntity
8
1
62
256
6
ByLayer
370
13
48
1
60
0
100
AcDbSpline
70
4
71
3
72
78
73
74
40
0
40
0
40
0
40
0
40
0.0312499999999995
40
0.0312499999999995
40
0.0624999999999991
40
0.0624999999999991
40
0.0937499999999986
40
0.0937499999999986
40
0.124999999999998
40
0.124999999999998
40
0.156249999999998
40
0.156249999999998
40
0.187499999999997
40
0.187499999999997
40
0.218749999999997
40
0.218749999999997
40
0.249999999999996
40
0.249999999999996
40
0.281249999999996
40
0.281249999999996
40
0.312499999999995
40
0.312499999999995
40
0.343749999999994
40
0.343749999999994
40
0.374999999999994
40
0.374999999999994
40
0.382812499999994
40
0.382812499999994
40
0.390624999999993
40
0.390624999999993
40
0.406249999999993
40
0.406249999999993
40
0.437499999999993
40
0.437499999999993
40
0.468749999999993
40
0.468749999999993
40
0.499999999999994
40
0.499999999999994
40
0.531249999999994
40
0.531249999999994
40
0.562499999999994
40
0.562499999999994
40
0.593749999999994
40
0.593749999999994
40
0.624999999999994
40
0.624999999999994
40
0.656249999999994
40
0.656249999999994
40
0.687499999999994
40
0.687499999999994
40
0.718749999999994
40
0.718749999999994
40
0.749999999999994
40
0.749999999999994
40
0.765624999999995
40
0.765624999999995
40
0.773437499999995
40
0.773437499999995
40
0.781249999999995
40
0.781249999999995
40
0.812499999999996
40
0.812499999999996
40
0.843749999999996
40
0.843749999999996
40
0.874999999999997
40
0.874999999999997
40
0.906249999999998
40
0.906249999999998
40
0.937499999999999
40
0.937499999999999
40
0.968749999999999
40
0.968749999999999
40
1
40
1
40
1
40
1
41
1
10
50.0982194660016
20
6.34999999999999
30
0
41
1
10
50.1460378987767
20
6.34999999999999
30
0
41
1
10
50.1938563315518
20
6.33610107399974
30
0
41
1
10
50.2894931971019
20
6.27688996237444
30
0
41
1
10
50.337311629877
20
6.23156257572435
30
0
41
1
10
50.4329484954272
20
6.10682713643766
30
0
41
1
10
50.4807669282023
20
6.02740544078756
30
0
41
1
10
50.5764037937525
20
5.83323379731604
30
0
41
1
10
50.6242222265276
20
5.71847480851042
30
0
41
1
10
50.7198590920777
20
5.45415304820799
30
0
41
1
10
50.7676775248528
20
5.30458852994803
30
0
41
1
10
50.8633143904029
20
4.97312367817122
30
0
41
1
10
50.911132823178
20
4.79123025106872
30
0
41
1
10
51.0067696887282
20
4.39944519011499
30
0
41
1
10
51.0545881215033
20
4.1895684615819
30
0
41
1
10
51.1502249870535
20
3.74769222073223
30
0
41
1
10
51.1980434198285
20
3.51571296214823
30
0
41
1
10
51.2936802853786
20
3.03650553419663
30
0
41
1
10
51.3414987181538
20
2.78929910473843
30
0
41
1
10
51.4371355837039
20
2.2868641243108
30
0
41
1
10
51.484954016479
20
2.03165493545575
30
0
41
1
10
51.5805908820292
20
1.52016316353499
30
0
41
1
10
51.6284093148043
20
1.26389478277207
30
0
41
1
10
51.7240461803544
20
0.756442384387441
30
0
41
1
10
51.7718646131295
20
0.505266243126641
30
0
41
1
10
51.8316376540984
20
0.197619182795393
30
0
41
1
10
51.8435922622921
20
0.136402933045019
30
0
41
1
10
51.8675014786797
20
0.0146629736442492
30
0
41
1
10
51.8794560868735
20
-0.0457584110743881
30
0
41
1
10
51.9153199114548
20
-0.228720113631567
30
0
41
1
10
51.9392291278423
20
-0.352060224978118
30
0
41
1
10
52.0109567770049
20
-0.725343031713379
30
0
41
1
10
52.05877520978
20
-0.978584431163256
30
0
41
1
10
52.1544120753302
20
-1.48847404510562
30
0
41
1
10
52.2022305081053
20
-1.74511250776081
30
0
41
1
10
52.2978673736554
20
-2.25537610188277
30
0
41
1
10
52.3456858064305
20
-2.50898532484266
30
0
41
1
10
52.4413226719807
20
-3.00610937969714
30
0
41
1
10
52.4891411047557
20
-3.24960380130037
30
0
41
1
10
52.5847779703059
20
-3.71930917989863
30
0
41
1
10
52.632596403081
20
-3.94549840816723
30
0
41
1
10
52.7282332686312
20
-4.37394205305256
30
0
41
1
10
52.7760517014062
20
-4.57617741423354
30
0
41
1
10
52.8716885669564
20
-4.95122725432651
30
0
41
1
10
52.9195069997315
20
-5.12402897492206
30
0
41
1
10
53.0151438652816
20
-5.43638107045959
30
0
41
1
10
53.0629622980567
20
-5.57592710059288
30
0
41
1
10
53.1585991636069
20
-5.81985587581863
30
0
41
1
10
53.206417596382
20
-5.92424272024377
30
0
41
1
10
53.3020544619321
20
-6.09786149185675
30
0
41
1
10
53.3498728947072
20
-6.16710412034192
30
0
41
1
10
53.4455097602574
20
-6.27213251095603
30
0
41
1
10
53.4933281930325
20
-6.30793267849128
30
0
41
1
10
53.5650558421951
20
-6.33878978795374
30
0
41
1
10
53.5889650585827
20
-6.34527704391166
30
0
41
1
10
53.624828883164
20
-6.34965295869793
30
0
41
1
10
53.6367834913578
20
-6.35022096041618
30
0
41
1
10
53.6606927077453
20
-6.34962707408121
30
0
41
1
10
53.672647315939
20
-6.34845794052583
30
0
41
1
10
53.7324203569079
20
-6.33810091083507
30
0
41
1
10
53.780238789683
20
-6.31534561028207
30
0
41
1
10
53.8758756552332
20
-6.23751939706571
30
0
41
1
10
53.9236940880083
20
-6.18243344067784
30
0
41
1
10
54.0193309535585
20
-6.03765047474295
30
0
41
1
10
54.0671493863335
20
-5.94794085105045
30
0
41
1
10
54.1627862518836
20
-5.73315162322919
30
0
41
1
10
54.2106046846588
20
-5.60806487588226
30
0
41
1
10
54.3062415502089
20
-5.3236070443817
30
0
41
1
10
54.354059982984
20
-5.16423668727282
30
0
41
1
10
54.4496968485342
20
-4.81424628644476
30
0
41
1
10
54.4975152813092
20
-4.62363565465952
30
0
41
1
10
54.5931521468594
20
-4.21599751822731
30
0
41
1
10
54.6409705796345
20
-3.99898683339566
30
0
41
1
10
54.6887890124096
20
-3.77188294851456
30
0
0
SPLINE
5
E5
100
AcDbEntity
8
1
62
256
6
ByLayer
370
13
48
1
60
0
100
AcDbSpline
70
4
71
3
72
78
73
74
40
0
40
0
40
0
40
0
40
0.0312500000000004
40
0.0312500000000004
40
0.0625000000000009
40
0.0625000000000009
40
0.0937500000000013
40
0.0937500000000013
40
0.125000000000002
40
0.125000000000002
40
0.156250000000002
40
0.156250000000002
40
0.187500000000003
40
0.187500000000003
40
0.218750000000003
40
0.218750000000003
40
0.250000000000003
40
0.250000000000003
40
0.281250000000004
40
0.281250000000004
40
0.312500000000004
40
0.312500000000004
40
0.343750000000005
40
0.343750000000005
40
0.351562500000005
40
0.351562500000005
40
0.359375000000005
40
0.359375000000005
40
0.375000000000005
40
0.375000000000005
40
0.406250000000005
40
0.406250000000005
40
0.437500000000006
40
0.437500000000006
40
0.468750000000006
40
0.468750000000006
40
0.500000000000006
40
0.500000000000006
40
0.531250000000007
40
0.531250000000007
40
0.562500000000007
40
0.562500000000007
40
0.593750000000008
40
0.593750000000008
40
0.625000000000008
40
0.625000000000008
40
0.656250000000008
40
0.656250000000008
40
0.687500000000008
40
0.687500000000008
40
0.695312500000008
40
0.695312500000008
40
0.703125000000008
40
0.703125000000008
40
0.718750000000008
40
0.718750000000008
40
0.750000000000007
40
0.750000000000007
40
0.781250000000006
40
0.781250000000006
40
0.812500000000005
40
0.812500000000005
40
0.843750000000004
40
0.843750000000004
40
0.875000000000003
40
0.875000000000003
40
0.906250000000002
40
0.906250000000002
40
0.937500000000002
40
0.937500000000002
40
0.968750000000001
40
0.968750000000001
40
1
40
1
40
1
40
1
41
1
10
49.5985756436892
20
6.34999999999999
30
0
41
1
10
49.6515986996134
20
6.34999999999999
30
0
41
1
10
49.7046217555376
20
6.33290132882109
30
0
41
1
10
49.8106678673859
20
6.25963772070833
30
0
41
1
10
49.8636909233101
20
6.20344740448331
30
0
41
1
10
49.9697370351584
20
6.0486343323669
30
0
41
1
10
50.0227600910826
20
5.949990004162
30
0
41
1
10
50.1288062029309
20
5.7091800164643
30
0
41
1
10
50.1818292588551
20
5.56700281931501
30
0
41
1
10
50.2878753707034
20
5.24083614474978
30
0
41
1
10
50.3408984266276
20
5.0568499677934
30
0
41
1
10
50.4469445384759
20
4.65171185155361
30
0
41
1
10
50.4999675944001
20
4.43057911944047
30
0
41
1
10
50.6060137062485
20
3.95839388714603
30
0
41
1
10
50.6590367621726
20
3.70737282968591
30
0
41
1
10
50.7650828740209
20
3.18447797245463
30
0
41
1
10
50.8181059299451
20
2.91264056903805
30
0
41
1
10
50.9241520417934
20
2.35795292601472
30
0
41
1
10
50.9771750977176
20
2.07513591718063
30
0
41
1
10
51.0832212095659
20
1.50802664330291
30
0
41
1
10
51.1362442654902
20
1.22375836935853
30
0
41
1
10
51.2422903773385
20
0.662102866706277
30
0
41
1
10
51.2953134332627
20
0.3847279092968
30
0
41
1
10
51.3615922531678
20
0.0464504696497841
30
0
41
1
10
51.3748480171489
20
-0.0205211832506507
30
0
41
1
10
51.401359545111
20
-0.155616480178935
30
0
41
1
10
51.414615309092
20
-0.223587240523614
30
0
41
1
10
51.4543826010351
20
-0.428632193919015
30
0
41
1
10
51.4808941289973
20
-0.566842715501735
30
0
41
1
10
51.5604287128835
20
-0.984788939676264
30
0
41
1
10
51.6134517688077
20
-1.26788980600125
30
0
41
1
10
51.719497880656
20
-1.83516523146849
30
0
41
1
10
51.7725209365802
20
-2.11931901842934
30
0
41
1
10
51.8785670484286
20
-2.67944032105251
30
0
41
1
10
51.9315901043527
20
-2.95537673958171
30
0
41
1
10
52.0376362162011
20
-3.48921509923952
30
0
41
1
10
52.0906592721253
20
-3.74708075696969
30
0
41
1
10
52.1967053839736
20
-4.23537531598242
30
0
41
1
10
52.2497284398977
20
-4.46577054424142
30
0
41
1
10
52.3557745517461
20
-4.89124903947391
30
0
41
1
10
52.4087976076702
20
-5.08630908025725
30
0
41
1
10
52.5148437195186
20
-5.43565146375894
30
0
41
1
10
52.5678667754427
20
-5.5899259236009
30
0
41
1
10
52.6739128872911
20
-5.85512251264851
30
0
41
1
10
52.7269359432153
20
-5.96605235561174
30
0
41
1
10
52.8329820550636
20
-6.14487512124515
30
0
41
1
10
52.8860051109878
20
-6.21278740175703
30
0
41
1
10
52.9920512228361
20
-6.30835593079092
30
0
41
1
10
53.0450742787604
20
-6.33603710123364
30
0
41
1
10
53.1113530986655
20
-6.3483271484717
30
0
41
1
10
53.1246088626466
20
-6.34967284876569
30
0
41
1
10
53.1511203906087
20
-6.35022156883224
30
0
41
1
10
53.1643761545897
20
-6.34943279476946
30
0
41
1
10
53.2041434465328
20
-6.34376422559876
30
0
41
1
10
53.2306549744949
20
-6.33557504139793
30
0
41
1
10
53.3101895583811
20
-6.29685450666685
30
0
41
1
10
53.3632126143053
20
-6.25211398890238
30
0
41
1
10
53.4692587261536
20
-6.1209487617559
30
0
41
1
10
53.5222817820778
20
-6.03450077566313
30
0
41
1
10
53.6283278939262
20
-5.8181240906541
30
0
41
1
10
53.6813509498503
20
-5.68818042777923
30
0
41
1
10
53.7873970616987
20
-5.38569879273371
30
0
41
1
10
53.8404201176229
20
-5.21315963056011
30
0
41
1
10
53.9464662294712
20
-4.82931786114742
30
0
41
1
10
53.9994892853953
20
-4.61803014259363
30
0
41
1
10
54.1055353972437
20
-4.16326589419461
30
0
41
1
10
54.1585584531679
20
-3.91981797895619
30
0
41
1
10
54.2646045650163
20
-3.40938535920478
30
0
41
1
10
54.3176276209404
20
-3.14243649900499
30
0
41
1
10
54.4236737327887
20
-2.59473623562192
30
0
41
1
10
54.4766967887129
20
-2.31401970371391
30
0
41
1
10
54.5827429005612
20
-1.74850787204662
30
0
41
1
10
54.6357659564854
20
-1.46373958673251
30
0
41
1
10
54.6887890124096
20
-1.18131230417362
30
0
0
SPLINE
5
E6
100
AcDbEntity
8
1
62
256
6
ByLayer
370
13
48
1
60
0
100
AcDbSpline
70
4
71
3
72
82
73
78
40
0
40
0
40
0
40
0
40
0.0312500000000005
40
0.0312500000000005
40
0.062500000000001
40
0.062500000000001
40
0.0937500000000015
40
0.0937500000000015
40
0.125000000000002
40
0.125000000000002
40
0.156250000000003
40
0.156250000000003
40
0.187500000000003
40
0.187500000000003
40
0.218750000000004
40
0.218750000000004
40
0.250000000000004
40
0.250000000000004
40
0.281250000000005
40
0.281250000000005
40
0.312500000000005
40
0.312500000000005
40
0.320312500000005
40
0.320312500000005
40
0.328125000000005
40
0.328125000000005
40
0.343750000000006
40
0.343750000000006
40
0.375000000000006
40
0.375000000000006
40
0.406250000000006
40
0.406250000000006
40
0.437500000000007
40
0.437500000000007
40
0.468750000000007
40
0.468750000000007
40
0.500000000000007
40
0.500000000000007
40
0.531250000000008
40
0.531250000000008
40
0.562500000000008
40
0.562500000000008
40
0.593750000000008
40
0.593750000000008
40
0.625000000000008
40
0.625000000000008
40
0.632812500000008
40
0.632812500000008
40
0.640625000000008
40
0.640625000000008
40
0.656250000000008
40
0.656250000000008
40
0.687500000000007
40
0.687500000000007
40
0.718750000000007
40
0.718750000000007
40
0.750000000000006
40
0.750000000000006
40
0.781250000000006
40
0.781250000000006
40
0.812500000000005
40
0.812500000000005
40
0.843750000000004
40
0.843750000000004
40
0.875000000000004
40
0.875000000000004
40
0.906250000000003
40
0.906250000000003
40
0.937500000000003
40
0.937500000000003
40
0.945312500000002
40
0.945312500000002
40
0.953125000000002
40
0.953125000000002
40
0.968750000000001
40
0.968750000000001
40
1
40
1
40
1
40
1
41
1
10
49.0989318213767
20
6.34999999999999
30
0
41
1
10
49.15715950045
20
6.34999999999999
30
0
41
1
10
49.2153871795232
20
6.32936669673887
30
0
41
1
10
49.3318425376697
20
6.24046804403366
30
0
41
1
10
49.390070216743
20
6.17216242276328
30
0
41
1
10
49.5065255748896
20
5.98383963097604
30
0
41
1
10
49.5647532539628
20
5.86379048313802
30
0
41
1
10
49.6812086121093
20
5.57139115961078
30
0
41
1
10
49.7394362911826
20
5.39902900965538
30
0
41
1
10
49.8558916493291
20
5.00560745400924
30
0
41
1
10
49.9141193284024
20
4.78456349594356
30
0
41
1
10
50.0305746865489
20
4.30154489977309
30
0
41
1
10
50.0888023656222
20
4.03961160786804
30
0
41
1
10
50.2052577237687
20
3.48587593760277
30
0
41
1
10
50.2634854028419
20
3.19412991159345
30
0
41
1
10
50.3799407609885
20
2.59361019864016
30
0
41
1
10
50.4381684400617
20
2.28489232514519
30
0
41
1
10
50.5546237982082
20
1.66330640311133
30
0
41
1
10
50.6128514772815
20
1.3504803297765
30
0
41
1
10
50.729306835428
20
0.732078248378144
30
0
41
1
10
50.7875345145013
20
0.426524044817825
30
0
41
1
10
50.8603191133428
20
0.0547057944643825
30
0
41
1
10
50.8748760331111
20
-0.0188270305049798
30
0
41
1
10
50.9039898726477
20
-0.167228358947796
30
0
41
1
10
50.9185467924161
20
-0.241938062692299
30
0
41
1
10
50.962217551721
20
-0.467412209490561
30
0
41
1
10
50.9913313912577
20
-0.619526972128682
30
0
41
1
10
51.0786729098676
20
-1.07961674695343
30
0
41
1
10
51.1369005889408
20
-1.39140769763236
30
0
41
1
10
51.2533559470873
20
-2.01443044743931
30
0
41
1
10
51.3115836261606
20
-2.32562583323914
30
0
41
1
10
51.4280389843071
20
-2.93490607714341
30
0
41
1
10
51.4862666633803
20
-3.23293802556469
30
0
41
1
10
51.6027220215269
20
-3.8028718597547
30
0
41
1
10
51.6609497006001
20
-4.07471592012564
30
0
41
1
10
51.7774050587467
20
-4.58049872344046
30
0
41
1
10
51.8356327378199
20
-4.81439030740049
30
0
41
1
10
51.9520880959665
20
-5.23537319044289
30
0
41
1
10
52.0103157750397
20
-5.42244090727272
30
0
41
1
10
52.1267711331863
20
-5.74486648386198
30
0
41
1
10
52.1849988122594
20
-5.88022878494081
30
0
41
1
10
52.3014541704059
20
-6.09861405571647
30
0
41
1
10
52.3596818494792
20
-6.18166431998802
30
0
41
1
10
52.4761372076257
20
-6.29857214928143
30
0
41
1
10
52.534364886699
20
-6.33246880656827
30
0
41
1
10
52.6071494855406
20
-6.34776998168687
30
0
41
1
10
52.6217064053089
20
-6.34948169410012
30
0
41
1
10
52.6508202448455
20
-6.35031611138407
30
0
41
1
10
52.6653771646139
20
-6.34945148243855
30
0
41
1
10
52.7090479239188
20
-6.34287092676993
30
0
41
1
10
52.7381617634554
20
-6.33315511606463
30
0
41
1
10
52.8255032820653
20
-6.28681042815737
30
0
41
1
10
52.8837309611386
20
-6.23289845330206
30
0
41
1
10
53.0001863192851
20
-6.07423330080204
30
0
41
1
10
53.0584139983583
20
-5.96944448788699
30
0
41
1
10
53.1748693565048
20
-5.70732439262463
30
0
41
1
10
53.2330970355781
20
-5.549974262294
30
0
41
1
10
53.3495523937246
20
-5.18508373783428
30
0
41
1
10
53.4077800727979
20
-4.97755053196138
30
0
41
1
10
53.5242354309444
20
-4.51890471361918
30
0
41
1
10
53.5824631100177
20
-4.26782668251303
30
0
41
1
10
53.6989184681642
20
-3.73232979711722
30
0
41
1
10
53.7571461472374
20
-3.44796446221955
30
0
41
1
10
53.873601505384
20
-2.8583962326351
30
0
41
1
10
53.9318291844572
20
-2.55325090102607
30
0
41
1
10
54.0482845426037
20
-1.93516357233179
30
0
41
1
10
54.106512221677
20
-1.62226857681182
30
0
41
1
10
54.2229675798235
20
-1.00063895897594
30
0
41
1
10
54.2811952588968
20
-0.69193218418917
30
0
41
1
10
54.3539798577384
20
-0.31472664811767
30
0
41
1
10
54.3685367775066
20
-0.239713087342551
30
0
41
1
10
54.3976506170433
20
-0.0906659725325767
30
0
41
1
10
54.4122075368116
20
-0.0169688832538952
30
0
41
1
10
54.4558782961166
20
0.20513505538625
30
0
41
1
10
54.4849921356532
20
0.355283156481477
30
0
41
1
10
54.572333654263
20
0.810463129030779
30
0
41
1
10
54.6305613333364
20
1.12030794062929
30
0
41
1
10
54.6887890124095
20
1.43154747947631
30
0
0
SPLINE
5
E7
100
AcDbEntity
8
1
62
256
6
ByLayer
370
13
48
1
60
0
100
AcDbSpline
70
4
71
3
72
84
73
80
40
0
40
0
40
0
40
0
40
0.0312499999999986
40
0.0312499999999986
40
0.0624999999999971
40
0.0624999999999971
40
0.0937499999999957
40
0.0937499999999957
40
0.124999999999994
40
0.124999999999994
40
0.156249999999993
40
0.156249999999993
40
0.187499999999991
40
0.187499999999991
40
0.21874999999999
40
0.21874999999999
40
0.249999999999988
40
0.249999999999988
40
0.281249999999987
40
0.281249999999987
40
0.289062499999987
40
0.289062499999987
40
0.292968749999986
40
0.292968749999986
40
0.296874999999986
40
0.312499999999987
40
0.312499999999987
40
0.343749999999988
40
0.343749999999988
40
0.374999999999988
40
0.374999999999988
40
0.406249999999989
40
0.406249999999989
40
0.43749999999999
40
0.43749999999999
40
0.468749999999991
40
0.468749999999991
40
0.499999999999992
40
0.499999999999992
40
0.531249999999992
40
0.531249999999992
40
0.562499999999993
40
0.562499999999993
40
0.578124999999994
40
0.578124999999994
40
0.585937499999994
40
0.585937499999994
40
0.593749999999994
40
0.593749999999994
40
0.624999999999994
40
0.624999999999994
40
0.656249999999994
40
0.656249999999994
40
0.687499999999995
40
0.687499999999995
40
0.718749999999995
40
0.718749999999995
40
0.749999999999995
40
0.749999999999995
40
0.781249999999996
40
0.781249999999996
40
0.812499999999996
40
0.812499999999996
40
0.843749999999996
40
0.843749999999996
40
0.859374999999996
40
0.859374999999996
40
0.867187499999997
40
0.871093749999997
40
0.871093749999997
40
0.874999999999997
40
0.874999999999997
40
0.906249999999997
40
0.906249999999997
40
0.937499999999998
40
0.937499999999998
40
0.968749999999999
40
0.968749999999999
40
1
40
1
40
1
40
1
41
1
10
48.5992879990643
20
6.34999999999999
30
0
41
1
10
48.6627203012867
20
6.34999999999999
30
0
41
1
10
48.726152603509
20
6.32549559572348
30
0
41
1
10
48.8530172079537
20
6.21935908791329
30
0
41
1
10
48.9164495101761
20
6.137665750102
30
0
41
1
10
49.0433141146208
20
5.91239196264806
30
0
41
1
10
49.1067464168431
20
5.76876685286007
30
0
41
1
10
49.2336110212877
20
5.42001613954164
30
0
41
1
10
49.2970433235101
20
5.21488288390466
30
0
41
1
10
49.4239079279548
20
4.74950726458934
30
0
41
1
10
49.4873402301772
20
4.48930382551154
30
0
41
1
10
49.6142048346218
20
3.92573553881135
30
0
41
1
10
49.6776371368442
20
3.62244695142678
30
0
41
1
10
49.8045017412889
20
2.98842982028279
30
0
41
1
10
49.8679340435113
20
2.65779006102929
30
0
41
1
10
49.9947986479559
20
1.98598466631779
30
0
41
1
10
50.0582309501783
20
1.64489304680069
30
0
41
1
10
50.185095554623
20
0.96774810770691
30
0
41
1
10
50.2485278568453
20
0.631737329384549
30
0
41
1
10
50.3278182346232
20
0.222632215632103
30
0
41
1
10
50.3436763101789
20
0.141347582626622
30
0
41
1
10
50.3674634235122
20
0.0203418513649751
30
0
41
1
10
50.37539246129
20
-0.0197602675050632
30
0
41
1
10
50.3912505368456
20
-0.100427798382981
30
0
41
1
10
50.4308957257346
20
-0.302861557730182
30
0
41
1
10
50.4705409146236
20
-0.508909143467065
30
0
41
1
10
50.5656893679571
20
-1.00831431809883
30
0
41
1
10
50.6291216701794
20
-1.3478738013153
30
0
41
1
10
50.755986274624
20
-2.02660838267681
30
0
41
1
10
50.8194185768464
20
-2.36572817619577
30
0
41
1
10
50.9462831812911
20
-3.02730599832907
30
0
41
1
10
51.0097154835135
20
-3.349681749909
30
0
41
1
10
51.1365800879581
20
-3.96099588388591
30
0
41
1
10
51.2000123901805
20
-4.24984676917077
30
0
41
1
10
51.3268769946252
20
-4.77948026779325
30
0
41
1
10
51.3903092968476
20
-5.02019831235828
30
0
41
1
10
51.5171739012923
20
-5.44346907929142
30
0
41
1
10
51.5806062035147
20
-5.62600030674997
30
0
41
1
10
51.7074708079593
20
-5.92868854403872
30
0
41
1
10
51.7709031101816
20
-6.04886902113168
30
0
41
1
10
51.8977677146263
20
-6.22849388221067
30
0
41
1
10
51.9612000168488
20
-6.28799171971909
30
0
41
1
10
52.0563484701822
20
-6.33638276812749
30
0
41
1
10
52.0880646212934
20
-6.34573439222928
30
0
41
1
10
52.1356388479602
20
-6.35038658859744
30
0
41
1
10
52.1514969235157
20
-6.35039385397303
30
0
41
1
10
52.1832130746269
20
-6.34732247525034
30
0
41
1
10
52.1990711501825
20
-6.34422570272557
30
0
41
1
10
52.2783615279604
20
-6.32059486874817
30
0
41
1
10
52.3417938301828
20
-6.27549760167688
30
0
41
1
10
52.4686584346275
20
-6.12588659880561
30
0
41
1
10
52.5320907368498
20
-6.02131525899651
30
0
41
1
10
52.6589553412945
20
-5.74975720211242
30
0
41
1
10
52.7223876435169
20
-5.58273761069205
30
0
41
1
10
52.8492522479615
20
-5.18888022166342
30
0
41
1
10
52.9126845501839
20
-4.96205202021386
30
0
41
1
10
53.0395491546286
20
-4.45717877463252
30
0
41
1
10
53.1029814568509
20
-4.17918875516423
30
0
41
1
10
53.2298460612956
20
-3.58562074115079
30
0
41
1
10
53.293278363518
20
-3.27012707357025
30
0
41
1
10
53.4201429679626
20
-2.61803876744003
30
0
41
1
10
53.483575270185
20
-2.28153023087114
30
0
41
1
10
53.6104398746297
20
-1.6040904212611
30
0
41
1
10
53.673872176852
20
-1.2632225174298
30
0
41
1
10
53.7690206301856
20
-0.759510123972944
30
0
41
1
10
53.8007367812967
20
-0.592848255480902
30
0
41
1
10
53.8483110079635
20
-0.345832950560435
30
0
41
1
10
53.8720981212969
20
-0.223066941159317
30
0
41
1
10
53.8958852346303
20
-0.101596900300478
30
0
41
1
10
53.9117433101858
20
-0.0209234570208139
30
0
41
1
10
53.9196723479636
20
0.019178705447132
30
0
41
1
10
53.9910336879638
20
0.382169285703668
30
0
41
1
10
54.0544659901862
20
0.714809595013207
30
0
41
1
10
54.1813305946308
20
1.38865918011331
30
0
41
1
10
54.2447628968532
20
1.7298346264889
30
0
41
1
10
54.3716275012979
20
2.40591778177335
30
0
41
1
10
54.4350598035202
20
2.74075840547886
30
0
41
1
10
54.5619244079649
20
3.38741822363781
30
0
41
1
10
54.6253567101872
20
3.69915001587509
30
0
41
1
10
54.6887890124096
20
3.99122722045905
30
0
0
SPLINE
5
E8
100
AcDbEntity
8
1
62
256
6
ByLayer
370
13
48
1
60
0
100
AcDbSpline
70
4
71
3
72
86
73
82
40
0
40
0
40
0
40
0
40
0.0312500000000006
40
0.0312500000000006
40
0.0625000000000012
40
0.0625000000000012
40
0.0937500000000018
40
0.0937500000000018
40
0.125000000000002
40
0.125000000000002
40
0.156250000000003
40
0.156250000000003
40
0.187500000000004
40
0.187500000000004
40
0.218750000000004
40
0.218750000000004
40
0.250000000000005
40
0.250000000000005
40
0.265625000000005
40
0.265625000000005
40
0.273437500000005
40
0.273437500000005
40
0.281250000000005
40
0.281250000000005
40
0.312500000000007
40
0.312500000000007
40
0.343750000000008
40
0.343750000000008
40
0.375000000000009
40
0.375000000000009
40
0.40625000000001
40
0.40625000000001
40
0.437500000000012
40
0.437500000000012
40
0.468750000000013
40
0.468750000000013
40
0.500000000000014
40
0.500000000000014
40
0.531250000000016
40
0.531250000000016
40
0.535156250000016
40
0.535156250000016
40
0.539062500000016
40
0.539062500000016
40
0.546875000000016
40
0.546875000000016
40
0.562500000000015
40
0.562500000000015
40
0.593750000000015
40
0.593750000000015
40
0.625000000000014
40
0.625000000000014
40
0.656250000000013
40
0.656250000000013
40
0.687500000000013
40
0.687500000000013
40
0.718750000000012
40
0.718750000000012
40
0.750000000000012
40
0.750000000000012
40
0.781250000000011
40
0.781250000000011
40
0.796875000000011
40
0.796875000000011
40
0.80468750000001
40
0.80468750000001
40
0.80859375000001
40
0.80859375000001
40
0.81250000000001
40
0.81250000000001
40
0.843750000000008
40
0.843750000000008
40
0.875000000000007
40
0.875000000000007
40
0.906250000000005
40
0.906250000000005
40
0.937500000000003
40
0.937500000000003
40
0.968750000000002
40
0.968750000000002
40
1
40
1
40
1
40
1
41
1
10
48.0996441767519
20
6.34999999999999
30
0
41
1
10
48.1682811021233
20
6.34999999999999
30
0
41
1
10
48.2369180274947
20
6.32128621431036
30
0
41
1
10
48.3741918782376
20
6.19629014546322
30
0
41
1
10
48.442828803609
20
6.09991808717407
30
0
41
1
10
48.5801026543519
20
5.83425912383225
30
0
41
1
10
48.6487395797234
20
5.66491336190057
30
0
41
1
10
48.7860134304663
20
5.25529971270711
30
0
41
1
10
48.8546503558376
20
5.01503721234482
30
0
41
1
10
48.9919242065805
20
4.47383917234853
30
0
41
1
10
49.0605611319519
20
4.17298227179097
30
0
41
1
10
49.1978349826948
20
3.52784144663801
30
0
41
1
10
49.2664719080663
20
3.18368309411576
30
0
41
1
10
49.4037457588091
20
2.47298591745053
30
0
41
1
10
49.4723826841806
20
2.10657213667224
30
0
41
1
10
49.6096565349234
20
1.37226244105742
30
0
41
1
10
49.6782934602949
20
1.00445097297248
30
0
41
1
10
49.7812488483521
20
0.464726656597378
30
0
41
1
10
49.8155673110378
20
0.286782758914626
30
0
41
1
10
49.8670450050664
20
0.0240873031657145
30
0
41
1
10
49.8842042364092
20
-0.0625406370782855
30
0
41
1
10
49.9185226990949
20
-0.238078287814204
30
0
41
1
10
49.9356819304378
20
-0.326533724857882
30
0
41
1
10
50.021478087152
20
-0.771731471385067
30
0
41
1
10
50.0901150125235
20
-1.13742731154241
30
0
41
1
10
50.2273888632664
20
-1.87158143005428
30
0
41
1
10
50.2960257886378
20
-2.23996669427882
30
0
41
1
10
50.4332996393807
20
-2.95919361304612
30
0
41
1
10
50.501936564752
20
-3.30991626267476
30
0
41
1
10
50.6392104154949
20
-3.9724959476047
30
0
41
1
10
50.7078473408664
20
-4.28422335362148
30
0
41
1
10
50.8451211916092
20
-4.85036460148322
30
0
41
1
10
50.9137581169807
20
-5.1046864883366
30
0
41
1
10
51.0510319677236
20
-5.54395188414034
30
0
41
1
10
51.119668893095
20
-5.72887395215366
30
0
41
1
10
51.2569427438378
20
-6.02545736892387
30
0
41
1
10
51.3255796692092
20
-6.13716618254207
30
0
41
1
10
51.4628535199521
20
-6.29119256892173
30
0
41
1
10
51.5314904453236
20
-6.33359651646484
30
0
41
1
10
51.6087069863665
20
-6.34760160058283
30
0
41
1
10
51.6172866020379
20
-6.34869219993459
30
0
41
1
10
51.6344458333807
20
-6.3499644259995
30
0
41
1
10
51.6430254490522
20
-6.35014744595574
30
0
41
1
10
51.6687642960665
20
-6.34935698706744
30
0
41
1
10
51.6859235274094
20
-6.34703029942358
30
0
41
1
10
51.7374012214379
20
-6.33438701568824
30
0
41
1
10
51.7717196841236
20
-6.31839969361701
30
0
41
1
10
51.8746750721808
20
-6.24587632690495
30
0
41
1
10
51.9433119975522
20
-6.16459013544034
30
0
41
1
10
52.0805858482951
20
-5.92969304931142
30
0
41
1
10
52.1492227736665
20
-5.77601351543038
30
0
41
1
10
52.2864966244094
20
-5.39661532088977
30
0
41
1
10
52.3551335497809
20
-5.17088645086522
30
0
41
1
10
52.4924074005237
20
-4.65590583010754
30
0
41
1
10
52.5610443258951
20
-4.36671814804598
30
0
41
1
10
52.698318176638
20
-3.74078928975686
30
0
41
1
10
52.7669551020094
20
-3.40416735252725
30
0
41
1
10
52.9042289527523
20
-2.70393466722163
30
0
41
1
10
52.9728658781237
20
-2.34045310508216
30
0
41
1
10
53.1101397288666
20
-1.6077475150114
30
0
41
1
10
53.1787766542381
20
-1.23861874795369
30
0
41
1
10
53.2817320422952
20
-0.694424154777437
30
0
41
1
10
53.3160505049809
20
-0.514577866491891
30
0
41
1
10
53.3675281990095
20
-0.248515602461424
30
0
41
1
10
53.3846874303524
20
-0.160443515922651
30
0
41
1
10
53.4104262773666
20
-0.0294074996197367
30
0
41
1
10
53.419005893038
20
0.0139822349468943
30
0
41
1
10
53.4361651243809
20
0.101254946012631
30
0
41
1
10
53.4447447400524
20
0.145071207292545
30
0
41
1
10
53.5219612810952
20
0.540928545656413
30
0
41
1
10
53.5905982064667
20
0.903757863683268
30
0
41
1
10
53.7278720572095
20
1.63606856845999
30
0
41
1
10
53.796508982581
20
2.00548870624712
30
0
41
1
10
53.9337828333238
20
2.73132212071329
30
0
41
1
10
54.0024197586953
20
3.08762409466553
30
0
41
1
10
54.1396936094381
20
3.76580476433079
30
0
41
1
10
54.2083305348095
20
4.0875520863363
30
0
41
1
10
54.3456043855524
20
4.67723227498308
30
0
41
1
10
54.4142413109238
20
4.94506144207568
30
0
41
1
10
54.5515151616668
20
5.41325511749957
30
0
41
1
10
54.6201520870382
20
5.61358203006819
30
0
41
1
10
54.6887890124095
20
5.77734400256298
30
0
0
SPLINE
5
E9
100
AcDbEntity
8
1
62
256
6
ByLayer
370
13
48
1
60
0
100
AcDbSpline
70
4
71
3
72
70
73
66
40
0
40
0
40
0
40
0
40
0.03125
40
0.03125
40
0.0625
40
0.0625
40
0.09375
40
0.09375
40
0.125
40
0.125
40
0.15625
40
0.15625
40
0.1875
40
0.1875
40
0.21875
40
0.21875
40
0.25
40
0.25
40
0.28125
40
0.28125
40
0.3125
40
0.3125
40
0.34375
40
0.34375
40
0.375
40
0.375
40
0.40625
40
0.40625
40
0.4375
40
0.4375
40
0.46875
40
0.46875
40
0.5
40
0.5
40
0.53125
40
0.53125
40
0.5625
40
0.5625
40
0.59375
40
0.59375
40
0.625
40
0.625
40
0.65625
40
0.65625
40
0.6875
40
0.6875
40
0.71875
40
0.71875
40
0.75
40
0.75
40
0.78125
40
0.78125
40
0.8125
40
0.8125
40
0.84375
40
0.84375
40
0.875
40
0.875
40
0.90625
40
0.90625
40
0.9375
40
0.9375
40
0.96875
40
0.96875
40
1
40
1
40
1
40
1
41
1
10
47.6000003544394
20
6.34999999999999
30
0
41
1
10
47.67384190296
20
6.34999999999999
30
0
41
1
10
47.7476834514805
20
6.31673649818083
30
0
41
1
10
47.8953665485215
20
6.17124170253391
30
0
41
1
10
47.9692080970421
20
6.05888289042429
30
0
41
1
10
48.1168911940831
20
5.74942862590487
30
0
41
1
10
48.1907327426036
20
5.552260159241
30
0
41
1
10
48.3384158396447
20
5.07758304684057
30
0
41
1
10
48.4122573881652
20
4.80010687476067
30
0
41
1
10
48.5599404852062
20
4.18014961828285
30
0
41
1
10
48.6337820337267
20
3.83780810140323
30
0
41
1
10
48.7814651307678
20
3.11175631112695
30
0
41
1
10
48.8553066792883
20
2.72823455099885
30
0
41
1
10
49.0029897763294
20
1.94656896393596
30
0
41
1
10
49.0768313248499
20
1.54858357595515
30
0
41
1
10
49.2245144218909
20
0.762348015226451
30
0
41
1
10
49.2983559704115
20
0.374177779641201
30
0
41
1
10
49.4460390674526
20
-0.374176881615625
30
0
41
1
10
49.519880615973
20
-0.762347079205
30
0
41
1
10
49.6675637130141
20
-1.54858262501122
30
0
41
1
10
49.7414052615346
20
-1.94656801421527
30
0
41
1
10
49.8890883585756
20
-2.72823362472209
30
0
41
1
10
49.9629299070962
20
-3.11175540712088
30
0
41
1
10
50.1106130041372
20
-3.83780726288489
30
0
41
1
10
50.1844545526577
20
-4.18014882297513
30
0
41
1
10
50.3321376496988
20
-4.80010618217082
30
0
41
1
10
50.4059791982193
20
-5.07758241368913
30
0
41
1
10
50.5536622952603
20
-5.55225965316723
30
0
41
1
10
50.6275038437808
20
-5.74942818737668
30
0
41
1
10
50.7751869408219
20
-6.05888258626209
30
0
41
1
10
50.8490284893424
20
-6.17124146512407
30
0
41
1
10
50.9967115863834
20
-6.31673638640297
30
0
41
1
10
51.070553134904
20
-6.34999994708326
30
0
41
1
10
51.2182362319451
20
-6.35000005291661
30
0
41
1
10
51.2920777804656
20
-6.31673660995853
30
0
41
1
10
51.4397608775067
20
-6.17124193994354
30
0
41
1
10
51.5136024260271
20
-6.05888319458631
30
0
41
1
10
51.6612855230682
20
-5.74942906443292
30
0
41
1
10
51.7351270715887
20
-5.55226066531463
30
0
41
1
10
51.8828101686298
20
-5.07758367999188
30
0
41
1
10
51.9566517171503
20
-4.80010756735038
30
0
41
1
10
52.1043348141912
20
-4.18015041359047
30
0
41
1
10
52.1781763627118
20
-3.83780893992145
30
0
41
1
10
52.3258594597528
20
-3.11175721513297
30
0
41
1
10
52.3997010082734
20
-2.72823547727557
30
0
41
1
10
52.5473841053144
20
-1.94656991365667
30
0
41
1
10
52.621225653835
20
-1.54858452689905
30
0
41
1
10
52.768908750876
20
-0.762348951247901
30
0
41
1
10
52.8427502993966
20
-0.374178699585627
30
0
41
1
10
52.9904333964376
20
0.374176005508787
30
0
41
1
10
53.0642749449581
20
0.762346143183606
30
0
41
1
10
53.2119580419991
20
1.54858167406732
30
0
41
1
10
53.2857995905197
20
1.94656706449456
30
0
41
1
10
53.4334826875607
20
2.72823269844531
30
0
41
1
10
53.5073242360812
20
3.11175450311472
30
0
41
1
10
53.6550073331223
20
3.83780642436648
30
0
41
1
10
53.7288488816428
20
4.18014802766731
30
0
41
1
10
53.8765319786838
20
4.80010548958086
30
0
41
1
10
53.9503735272044
20
5.07758178053751
30
0
41
1
10
54.0980566242454
20
5.55225914709328
30
0
41
1
10
54.171898172766
20
5.74942774884832
30
0
41
1
10
54.319581269807
20
6.05888228209972
30
0
41
1
10
54.3934228183275
20
6.17124122771412
30
0
41
1
10
54.5411059153685
20
6.31673627462496
30
0
41
1
10
54.6149474638891
20
6.34999989416639
30
0
41
1
10
54.6887890124095
20
6.34999999999974
30
0
0
SPLINE
5
EA
100
AcDbEntity
8
1
62
256
6
ByLayer
370
13
48
1
60
0
100
AcDbSpline
70
4
71
3
72
86
73
82
40
0
40
0
40
0
40
0
40
0.0312499999999993
40
0.0312499999999993
40
0.0624999999999986
40
0.0624999999999986
40
0.0937499999999979
40
0.0937499999999979
40
0.124999999999997
40
0.124999999999997
40
0.156249999999996
40
0.156249999999996
40
0.187499999999996
40
0.187499999999996
40
0.191406249999996
40
0.191406249999996
40
0.195312499999996
40
0.195312499999996
40
0.203124999999996
40
0.203124999999996
40
0.218749999999996
40
0.218749999999996
40
0.249999999999996
40
0.249999999999996
40
0.281249999999996
40
0.281249999999996
40
0.312499999999996
40
0.312499999999996
40
0.343749999999996
40
0.343749999999996
40
0.374999999999996
40
0.374999999999996
40
0.406249999999997
40
0.406249999999997
40
0.437499999999997
40
0.437499999999997
40
0.453124999999997
40
0.453124999999997
40
0.460937499999997
40
0.460937499999997
40
0.464843749999997
40
0.464843749999997
40
0.468749999999997
40
0.468749999999997
40
0.499999999999998
40
0.499999999999998
40
0.531249999999998
40
0.531249999999998
40
0.562499999999999
40
0.562499999999999
40
0.593749999999999
40
0.593749999999999
40
0.624999999999999
40
0.624999999999999
40
0.65625
40
0.65625
40
0.6875
40
0.6875
40
0.718750000000001
40
0.718750000000001
40
0.726562500000001
40
0.726562500000001
40
0.734375000000001
40
0.734375000000001
40
0.75
40
0.75
40
0.78125
40
0.78125
40
0.8125
40
0.8125
40
0.84375
40
0.84375
40
0.875
40
0.875
40
0.90625
40
0.90625
40
0.9375
40
0.9375
40
0.96875
40
0.96875
40
1
40
1
40
1
40
1
41
1
10
47.6
20
5.7773456938875
30
0
41
1
10
47.6686369327556
20
5.61358395317563
30
0
41
1
10
47.7372738655112
20
5.41325726190649
30
0
41
1
10
47.8745477310224
20
4.94506398203961
30
0
41
1
10
47.943184663778
20
4.67723498897323
30
0
41
1
10
48.0804585292891
20
4.08755508189648
30
0
41
1
10
48.1490954620448
20
3.76580786732569
30
0
41
1
10
48.2863693275559
20
3.08762733924175
30
0
41
1
10
48.3550062603115
20
2.73132539949759
30
0
41
1
10
48.4922801258226
20
2.00549198678863
30
0
41
1
10
48.5609170585782
20
1.63607181672955
30
0
41
1
10
48.6981909240894
20
0.903760996922898
30
0
41
1
10
48.766827856845
20
0.540931596332314
30
0
41
1
10
48.8440444061951
20
0.145074147779809
30
0
41
1
10
48.8526240227895
20
0.10125787401654
30
0
41
1
10
48.8697832559784
20
0.0139851375409137
30
0
41
1
10
48.8783628725728
20
-0.0294045988026994
30
0
41
1
10
48.9041017223562
20
-0.160440605471791
30
0
41
1
10
48.9212609555451
20
-0.248512686785119
30
0
41
1
10
48.9727386551117
20
-0.514574938982975
30
0
41
1
10
49.0070571214896
20
-0.694421224514116
30
0
41
1
10
49.110012520623
20
-1.23861582658111
30
0
41
1
10
49.1786494533786
20
-1.60774462267582
30
0
41
1
10
49.3159233188897
20
-2.34045032190642
30
0
41
1
10
49.3845602516453
20
-2.70393196424377
30
0
41
1
10
49.5218341171565
20
-3.40416485752641
30
0
41
1
10
49.5904710499121
20
-3.74078692250248
30
0
41
1
10
49.7277449154233
20
-4.3667160709123
30
0
41
1
10
49.7963818481789
20
-4.65590391520186
30
0
41
1
10
49.9336557136901
20
-5.1708848753762
30
0
41
1
10
50.0022926464457
20
-5.3966139223954
30
0
41
1
10
50.1395665119568
20
-5.77601246491975
30
0
41
1
10
50.2082034447124
20
-5.92969216964124
30
0
41
1
10
50.3454773102236
20
-6.16458957466864
30
0
41
1
10
50.4141142429792
20
-6.24587591414203
30
0
41
1
10
50.5170696421126
20
-6.31839947867536
30
0
41
1
10
50.5513881084904
20
-6.33438686271577
30
0
41
1
10
50.602865808057
20
-6.3470302330883
30
0
41
1
10
50.6200250412459
20
-6.3493569485619
30
0
41
1
10
50.6457638910293
20
-6.35014744760483
30
0
41
1
10
50.6543435076237
20
-6.34996444079792
30
0
41
1
10
50.6715027408127
20
-6.34869224138902
30
0
41
1
10
50.6800823574071
20
-6.34760165543247
30
0
41
1
10
50.7572989067571
20
-6.3335966924015
30
0
41
1
10
50.8259358395127
20
-6.29119285639575
30
0
41
1
10
50.9632097050239
20
-6.13716669045601
30
0
41
1
10
51.0318466377795
20
-6.02545798565998
30
0
41
1
10
51.1691205032906
20
-5.72887477124476
30
0
41
1
10
51.2377574360462
20
-5.54395279664709
30
0
41
1
10
51.3750313015574
20
-5.10468756064088
30
0
41
1
10
51.443668234313
20
-4.85036574006685
30
0
41
1
10
51.5809420998242
20
-4.28422459041366
30
0
41
1
10
51.6495790325798
20
-3.97249721629271
30
0
41
1
10
51.786852898091
20
-3.30991756014581
30
0
41
1
10
51.8554898308465
20
-2.95919490745604
30
0
41
1
10
51.9927636963577
20
-2.23996795329236
30
0
41
1
10
52.0614006291133
20
-1.87158265683456
30
0
41
1
10
52.1986744946245
20
-1.13742845423357
30
0
41
1
10
52.2673114273801
20
-0.771732562318334
30
0
41
1
10
52.3531075933246
20
-0.326534745306759
30
0
41
1
10
52.3702668265134
20
-0.23807929387479
30
0
41
1
10
52.4045852928913
20
-0.0625416139257595
30
0
41
1
10
52.4217445260801
20
0.0240863379737846
30
0
41
1
10
52.4732222256468
20
0.28678180662331
30
0
41
1
10
52.5075406920246
20
0.464725714915744
30
0
41
1
10
52.610496091158
20
1.00445006921228
30
0
41
1
10
52.6791330239136
20
1.37226157080798
30
0
41
1
10
52.8164068894248
20
2.10657134794019
30
0
41
1
10
52.8850438221804
20
2.47298517671933
30
0
41
1
10
53.0223176876915
20
3.18368245858824
30
0
41
1
10
53.0909546204472
20
3.52784086826196
30
0
41
1
10
53.2282284859583
20
4.17298180907579
30
0
41
1
10
53.2968654187139
20
4.47383876806262
30
0
41
1
10
53.4341392842251
20
5.01503691794727
30
0
41
1
10
53.5027762169807
20
5.25529946969843
30
0
41
1
10
53.6400500824919
20
5.66491320830264
30
0
41
1
10
53.7086870152474
20
5.8342590082292
30
0
41
1
10
53.8459608807586
20
6.09991803129506
30
0
41
1
10
53.9145978135142
20
6.19629011133398
30
0
41
1
10
54.0518716790254
20
6.32128620809729
30
0
41
1
10
54.120508611781
20
6.34999999999999
30
0
41
1
10
54.1891455445366
20
6.34999999999999
30
0
0
SPLINE
5
EB
100
AcDbEntity
8
1
62
256
6
ByLayer
370
13
48
1
60
0
100
AcDbSpline
70
4
71
3
72
85
73
81
40
0
40
0
40
0
40
0
40
0.0312499999999996
40
0.0312499999999996
40
0.0624999999999992
40
0.0624999999999992
40
0.0937499999999988
40
0.0937499999999988
40
0.124999999999998
40
0.124999999999998
40
0.128906249999998
40
0.128906249999998
40
0.132812499999998
40
0.140624999999998
40
0.140624999999998
40
0.156249999999998
40
0.156249999999998
40
0.187499999999997
40
0.187499999999997
40
0.218749999999997
40
0.218749999999997
40
0.249999999999997
40
0.249999999999997
40
0.281249999999997
40
0.281249999999997
40
0.312499999999997
40
0.312499999999997
40
0.343749999999996
40
0.343749999999996
40
0.374999999999996
40
0.374999999999996
40
0.406249999999996
40
0.406249999999996
40
0.414062499999996
40
0.414062499999996
40
0.421874999999996
40
0.421874999999996
40
0.437499999999996
40
0.437499999999996
40
0.468749999999997
40
0.468749999999997
40
0.499999999999998
40
0.499999999999998
40
0.531249999999999
40
0.531249999999999
40
0.562499999999999
40
0.562499999999999
40
0.59375
40
0.59375
40
0.625000000000001
40
0.625000000000001
40
0.656250000000002
40
0.656250000000002
40
0.687500000000002
40
0.687500000000002
40
0.703125000000003
40
0.703125000000003
40
0.707031250000003
40
0.707031250000003
40
0.710937500000003
40
0.710937500000003
40
0.718750000000003
40
0.718750000000003
40
0.750000000000003
40
0.750000000000003
40
0.781250000000002
40
0.781250000000002
40
0.812500000000002
40
0.812500000000002
40
0.843750000000002
40
0.843750000000002
40
0.875000000000001
40
0.875000000000001
40
0.906250000000001
40
0.906250000000001
40
0.937500000000001
40
0.937500000000001
40
0.96875
40
0.96875
40
1
40
1
40
1
40
1
41
1
10
47.6
20
3.99123048452648
30
0
41
1
10
47.6634323096065
20
3.69915339172144
30
0
41
1
10
47.726864619213
20
3.38742167845004
30
0
41
1
10
47.853729238426
20
2.74076195148967
30
0
41
1
10
47.9171615480325
20
2.40592134009969
30
0
41
1
10
48.0440261672455
20
1.72983815141865
30
0
41
1
10
48.107458476852
20
1.38866265947252
30
0
41
1
10
48.234323096065
20
0.71481294018119
30
0
41
1
10
48.2977554056715
20
0.382172542387309
30
0
41
1
10
48.3691167539789
20
0.0191818478440098
30
0
41
1
10
48.3770457926797
20
-0.0209203189310756
30
0
41
1
10
48.3929038700813
20
-0.101593755680369
30
0
41
1
10
48.4166909861837
20
-0.223063787570169
30
0
41
1
10
48.4404781022862
20
-0.345829790565801
30
0
41
1
10
48.488052334491
20
-0.592845086302901
30
0
41
1
10
48.5197684892943
20
-0.759506953517018
30
0
41
1
10
48.614916953704
20
-1.26321935912122
30
0
41
1
10
48.6783492633105
20
-1.60408729254664
30
0
41
1
10
48.8052138825235
20
-2.28152720844494
30
0
41
1
10
48.86864619213
20
-2.61803582176469
30
0
41
1
10
48.995510811343
20
-3.2701243260245
30
0
41
1
10
49.0589431209496
20
-3.58561811496921
30
0
41
1
10
49.1858077401626
20
-4.17918640634224
30
0
41
1
10
49.2492400497691
20
-4.45717658171171
30
0
41
1
10
49.376104668982
20
-4.96205015784486
30
0
41
1
10
49.4395369785885
20
-5.18887853380537
30
0
41
1
10
49.5664015978015
20
-5.5827362725187
30
0
41
1
10
49.6298339074081
20
-5.74975603898653
30
0
41
1
10
49.7566985266211
20
-6.02131443056047
30
0
41
1
10
49.8201308362276
20
-6.1258859299449
30
0
41
1
10
49.9469954554406
20
-6.27549722556347
30
0
41
1
10
50.010427765047
20
-6.32059462580804
30
0
41
1
10
50.0897181520552
20
-6.34422560666079
30
0
41
1
10
50.1055762294568
20
-6.34732240759499
30
0
41
1
10
50.13729238426
20
-6.35039384118133
30
0
41
1
10
50.1531504616617
20
-6.35038660195772
30
0
41
1
10
50.2007246938666
20
-6.34573448573451
30
0
41
1
10
50.2324408486699
20
-6.3363829160368
30
0
41
1
10
50.3275893130796
20
-6.28799203228525
30
0
41
1
10
50.3910216226861
20
-6.22849430653406
30
0
41
1
10
50.5178862418991
20
-6.04886966322434
30
0
41
1
10
50.5813185515055
20
-5.92868929207432
30
0
41
1
10
50.7081831707185
20
-5.62600125003888
30
0
41
1
10
50.7716154803251
20
-5.44347011180352
30
0
41
1
10
50.8984800995381
20
-5.02019949712863
30
0
41
1
10
50.9619124091446
20
-4.77948151552846
30
0
41
1
10
51.0887770283576
20
-4.24984811093012
30
0
41
1
10
51.1522093379641
20
-3.96099725668395
30
0
41
1
10
51.2790739571771
20
-3.34968315247107
30
0
41
1
10
51.3425062667836
20
-3.02730739965355
30
0
41
1
10
51.4693708859966
20
-2.36572954738534
30
0
41
1
10
51.5328031956031
20
-2.02660972504211
30
0
41
1
10
51.6596678148161
20
-1.34787506632952
30
0
41
1
10
51.7231001244226
20
-1.00831553466077
30
0
41
1
10
51.8182485888324
20
-0.508910279258998
30
0
41
1
10
51.8499647436356
20
-0.344072182397639
30
0
41
1
10
51.8896099371397
20
-0.140916095535147
30
0
41
1
10
51.8975389758405
20
-0.100428862189403
30
0
41
1
10
51.9133970532421
20
-0.0197613165630628
30
0
41
1
10
51.9213260919429
20
0.020340806927436
30
0
41
1
10
51.9451132080453
20
0.141346544347982
30
0
41
1
10
51.960971285447
20
0.222631181920832
30
0
41
1
10
52.0402616724551
20
0.631736320845249
30
0
41
1
10
52.1036939820616
20
0.967747126871188
30
0
41
1
10
52.2305586012746
20
1.64489213580163
30
0
41
1
10
52.2939909108811
20
1.98598379745934
30
0
41
1
10
52.4208555300941
20
2.65778928758536
30
0
41
1
10
52.4842878397006
20
2.98842910009071
30
0
41
1
10
52.6111524589136
20
3.62244634311188
30
0
41
1
10
52.6745847685202
20
3.92573498907183
30
0
41
1
10
52.8014493877332
20
4.48930339117618
30
0
41
1
10
52.8648816973396
20
4.74950688702319
30
0
41
1
10
52.9917463165527
20
5.21488261137822
30
0
41
1
10
53.0551786261591
20
5.42001591524206
30
0
41
1
10
53.1820432453721
20
5.76876671177698
30
0
41
1
10
53.2454755549786
20
5.91239185654334
30
0
41
1
10
53.3723401741917
20
6.13766569886198
30
0
41
1
10
53.4357724837982
20
6.21935905657895
30
0
41
1
10
53.5626371030111
20
6.32549558999176
30
0
41
1
10
53.6260694126177
20
6.34999999999999
30
0
41
1
10
53.6895017222241
20
6.34999999999999
30
0
0
SPLINE
5
EC
100
AcDbEntity
8
1
62
256
6
ByLayer
370
13
48
1
60
0
100
AcDbSpline
70
4
71
3
72
8
73
4
40
0
40
0
40
0
40
0
40
1
40
1
40
1
40
1
41
1
10
54.6887890124096
20
3.55101389263871
30
0
41
1
10
55.4591926749397
20
2.37139822713041
30
0
41
1
10
56.2295963374699
20
1.18772376456869
30
0
41
1
10
57
20
2.84E-14
30
0
0
SPLINE
5
ED
100
AcDbEntity
8
1
62
256
6
ByLayer
370
13
48
1
60
0
100
AcDbSpline
70
4
71
3
72
8
73
4
40
0
40
0
40
0
40
0
40
1
40
1
40
1
40
1
41
1
10
54.6887890124098
20
0.358562364447067
30
0
41
1
10
55.4591926749398
20
0.234157318359365
30
0
41
1
10
56.2295963374698
20
0.114636215336986
30
0
41
1
10
56.9999999999999
20
2.84E-14
30
0
0
SPLINE
5
EE
100
AcDbEntity
8
1
62
256
6
ByLayer
370
13
48
1
60
0
100
AcDbSpline
70
4
71
3
72
8
73
4
40
0
40
0
40
0
40
0
40
1
40
1
40
1
40
1
41
1
10
54.6887890124098
20
4.62019544914477
30
0
41
1
10
55.4591926749399
20
3.07677428330322
30
0
41
1
10
56.2295963374701
20
1.53670502329763
30
0
41
1
10
57.0000000000003
20
-6.537E-13
30
0
0
SPLINE
5
EF
100
AcDbEntity
8
1
62
256
6
ByLayer
370
13
48
1
60
0
100
AcDbSpline
70
4
71
3
72
8
73
4
40
0
40
0
40
0
40
0
40
1
40
1
40
1
40
1
41
1
10
54.6887890124096
20
-2.20388533450748
30
0
41
1
10
55.4591926749398
20
-1.46466891823661
30
0
41
1
10
56.22959633747
20
-0.730038515405226
30
0
41
1
10
57.0000000000001
20
8.53E-14
30
0
0
SPLINE
5
F0
100
AcDbEntity
8
1
62
256
6
ByLayer
370
13
48
1
60
0
100
AcDbSpline
70
4
71
3
72
8
73
4
40
0
40
0
40
0
40
0
40
1
40
1
40
1
40
1
41
1
10
54.6887890124098
20
5.35831161096976
30
0
41
1
10
55.4591926749397
20
3.56958259690103
30
0
41
1
10
56.2295963374695
20
1.78347395850531
30
0
41
1
10
56.9999999999994
20
1.3358E-12
30
0
0
SPLINE
5
F1
100
AcDbEntity
8
1
62
256
6
ByLayer
370
13
48
1
60
0
100
AcDbSpline
70
4
71
3
72
8
73
4
40
0
40
0
40
0
40
0
40
1
40
1
40
1
40
1
41
1
10
54.6887890124098
20
1.54684149714396
30
0
41
1
10
55.4591926749398
20
1.02648296748649
30
0
41
1
10
56.2295963374698
20
0.510867762203674
30
0
41
1
10
56.9999999999999
20
8.53E-14
30
0
0
SPLINE
5
F2
100
AcDbEntity
8
1
62
256
6
ByLayer
370
13
48
1
60
0
100
AcDbSpline
70
4
71
3
72
8
73
4
40
0
40
0
40
0
40
0
40
1
40
1
40
1
40
1
41
1
10
54.6887890124096
20
5.2473078231603
30
0
41
1
10
55.4591926749397
20
3.50096023113835
30
0
41
1
10
56.2295963374699
20
1.75185294938018
30
0
41
1
10
57
20
2.84E-14
30
0
0
SPLINE
5
F3
100
AcDbEntity
8
1
62
256
6
ByLayer
370
13
48
1
60
0
100
AcDbSpline
70
4
71
3
72
8
73
4
40
0
40
0
40
0
40
0
40
1
40
1
40
1
40
1
41
1
10
54.6887890124095
20
-3.28663143780224
30
0
41
1
10
55.4591926749397
20
-2.1869018048136
30
0
41
1
10
56.2295963374699
20
-1.09135506990955
30
0
41
1
10
57.0000000000001
20
1.421E-13
30
0
0
SPLINE
5
F4
100
AcDbEntity
8
1
62
256
6
ByLayer
370
13
48
1
60
0
100
AcDbSpline
70
4
71
3
72
8
73
4
40
0
40
0
40
0
40
0
40
1
40
1
40
1
40
1
41
1
10
54.6887890124095
20
-4.25161196119623
30
0
41
1
10
55.4591926749397
20
-2.83077428983546
30
0
41
1
10
56.2295963374699
20
-1.41356652087009
30
0
41
1
10
57.0000000000001
20
1.705E-13
30
0
0
SPLINE
5
F5
100
AcDbEntity
8
1
62
256
6
ByLayer
370
13
48
1
60
0
100
AcDbSpline
70
4
71
3
72
8
73
4
40
0
40
0
40
0
40
0
40
1
40
1
40
1
40
1
41
1
10
54.6887890124098
20
-3.11229052152706
30
0
41
1
10
55.4591926749398
20
-2.07912452657794
30
0
41
1
10
56.2295963374698
20
-1.04169157812211
30
0
41
1
10
56.9999999999999
20
-1.705E-13
30
0
0
SPLINE
5
F6
100
AcDbEntity
8
1
62
256
6
ByLayer
370
13
48
1
60
0
100
AcDbSpline
70
4
71
3
72
8
73
4
40
0
40
0
40
0
40
0
40
1
40
1
40
1
40
1
41
1
10
54.6887890124096
20
2.49537558603089
30
0
41
1
10
55.4591926749397
20
1.66808222181442
30
0
41
1
10
56.2295963374699
20
0.836288134210434
30
0
41
1
10
57
20
2.84E-14
30
0
0
SPLINE
5
F7
100
AcDbEntity
8
1
62
256
6
ByLayer
370
13
48
1
60
0
100
AcDbSpline
70
4
71
3
72
8
73
4
40
0
40
0
40
0
40
0
40
1
40
1
40
1
40
1
41
1
10
54.6887890124096
20
-1.04217028097776
30
0
41
1
10
55.4591926749397
20
-0.689954459635942
30
0
41
1
10
56.2295963374699
20
-0.342563442447187
30
0
41
1
10
57
20
0
30
0
0
SPLINE
5
F8
100
AcDbEntity
8
1
62
256
6
ByLayer
370
13
48
1
60
0
100
AcDbSpline
70
4
71
3
72
8
73
4
40
0
40
0
40
0
40
0
40
1
40
1
40
1
40
1
41
1
10
54.6887890124098
20
-0.842564666037816
30
0
41
1
10
55.4591926749398
20
-0.566558584712084
30
0
41
1
10
56.2295963374698
20
-0.285702941595616
30
0
41
1
10
56.9999999999999
20
-5.68E-14
30
0
0
SPLINE
5
F9
100
AcDbEntity
8
1
62
256
6
ByLayer
370
13
48
1
60
0
100
AcDbSpline
70
4
71
3
72
8
73
4
40
0
40
0
40
0
40
0
40
1
40
1
40
1
40
1
41
1
10
54.6887890124098
20
-2.01350117520093
30
0
41
1
10
55.4591926749398
20
-1.34697373257597
30
0
41
1
10
56.2295963374698
20
-0.675804877460649
30
0
41
1
10
56.9999999999999
20
-1.137E-13
30
0
0
SPLINE
5
FA
100
AcDbEntity
8
1
62
256
6
ByLayer
370
13
48
1
60
0
100
AcDbSpline
70
4
71
3
72
8
73
4
40
0
40
0
40
0
40
0
40
1
40
1
40
1
40
1
41
1
10
54.6887890124095
20
-4.93993768293092
30
0
41
1
10
55.4591926749398
20
-3.29636564282291
30
0
41
1
10
56.2295963374701
20
-1.64971534783663
30
0
41
1
10
57.0000000000003
20
7.105E-13
30
0
0
SPLINE
5
FB
100
AcDbEntity
8
1
62
256
6
ByLayer
370
13
48
1
60
0
100
AcDbSpline
70
4
71
3
72
8
73
4
40
0
40
0
40
0
40
0
40
1
40
1
40
1
40
1
41
1
10
54.6887890124095
20
-4.09956121873725
30
0
41
1
10
55.4591926749396
20
-2.73677676173904
30
0
41
1
10
56.2295963374697
20
-1.37025270240051
30
0
41
1
10
56.9999999999999
20
-2.274E-13
30
0
0
SPLINE
5
FC
100
AcDbEntity
8
1
62
256
6
ByLayer
370
13
48
1
60
0
100
AcDbSpline
70
4
71
3
72
8
73
4
40
0
40
0
40
0
40
0
40
1
40
1
40
1
40
1
41
1
10
54.6887890124096
20
5.82718235792845
30
0
41
1
10
55.4591926749397
20
3.88673210702302
30
0
41
1
10
56.2295963374698
20
1.94433279814561
30
0
41
1
10
56.9999999999999
20
1.137E-13
30
0
0
SPLINE
5
FD
100
AcDbEntity
8
1
62
256
6
ByLayer
370
13
48
1
60
0
100
AcDbSpline
70
4
71
3
72
8
73
4
40
0
40
0
40
0
40
0
40
1
40
1
40
1
40
1
41
1
10
54.6887890124096
20
0.156887501670582
30
0
41
1
10
55.4591926749397
20
0.109482237701229
30
0
41
1
10
56.2295963374699
20
0.057186259782867
30
0
41
1
10
57
20
0
30
0
0
SPLINE
5
FE
100
AcDbEntity
8
1
62
256
6
ByLayer
370
13
48
1
60
0
100
AcDbSpline
70
4
71
3
72
8
73
4
40
0
40
0
40
0
40
0
40
1
40
1
40
1
40
1
41
1
10
54.6887890124098
20
5.90443037786437
30
0
41
1
10
55.4591926749397
20
3.93448671056504
30
0
41
1
10
56.2295963374695
20
1.9663379962702
30
0
41
1
10
56.9999999999994
20
1.4779E-12
30
0
0
SPLINE
5
FF
100
AcDbEntity
8
1
62
256
6
ByLayer
370
13
48
1
60
0
100
AcDbSpline
70
4
71
3
72
8
73
4
40
0
40
0
40
0
40
0
40
1
40
1
40
1
40
1
41
1
10
54.6887890124098
20
6.23898338796775
30
0
41
1
10
55.4591926749399
20
4.15841149087433
30
0
41
1
10
56.2295963374701
20
2.07874480790576
30
0
41
1
10
57.0000000000003
20
-8.811E-13
30
0
0
SPLINE
5
100
100
AcDbEntity
8
1
62
256
6
ByLayer
370
13
48
1
60
0
100
AcDbSpline
70
4
71
3
72
8
73
4
40
0
40
0
40
0
40
0
40
1
40
1
40
1
40
1
41
1
10
54.6887890124095
20
-5.60330779977079
30
0
41
1
10
55.4591926749396
20
-3.73784015092758
30
0
41
1
10
56.2295963374697
20
-1.87006589376253
30
0
41
1
10
56.9999999999999
20
-3.126E-13
30
0
0
SPLINE
5
101
100
AcDbEntity
8
1
62
256
6
ByLayer
370
13
48
1
60
0
100
AcDbSpline
70
4
71
3
72
8
73
4
40
0
40
0
40
0
40
0
40
1
40
1
40
1
40
1
41
1
10
54.6887890124096
20
6.34724163202759
30
0
41
1
10
55.4591926749397
20
4.23163859939655
30
0
41
1
10
56.2295963374699
20
2.11588573775538
30
0
41
1
10
57
20
0
30
0
0
SPLINE
5
102
100
AcDbEntity
8
1
62
256
6
ByLayer
370
13
48
1
60
0
100
AcDbSpline
70
4
71
3
72
8
73
4
40
0
40
0
40
0
40
0
40
1
40
1
40
1
40
1
41
1
10
54.6887890124095
20
-6.31114443038345
30
0
41
1
10
55.4591926749396
20
-4.20796997809984
30
0
41
1
10
56.2295963374697
20
-2.10424954879085
30
0
41
1
10
56.9999999999999
20
-3.411E-13
30
0
0
SPLINE
5
103
100
AcDbEntity
8
1
62
256
6
ByLayer
370
13
48
1
60
0
100
AcDbSpline
70
4
71
3
72
8
73
4
40
0
40
0
40
0
40
0
40
1
40
1
40
1
40
1
41
1
10
54.6887890124095
20
-6.06590189262076
30
0
41
1
10
55.4591926749396
20
-4.04538150550366
30
0
41
1
10
56.2295963374697
20
-2.02340880631021
30
0
41
1
10
56.9999999999999
20
-3.411E-13
30
0
0
SPLINE
5
104
100
AcDbEntity
8
1
62
256
6
ByLayer
370
13
48
1
60
0
100
AcDbSpline
70
4
71
3
72
8
73
4
40
0
40
0
40
0
40
0
40
1
40
1
40
1
40
1
41
1
10
54.6887890124096
20
1.35032373898807
30
0
41
1
10
55.4591926749397
20
0.904996000734457
30
0
41
1
10
56.2295963374699
20
0.454886881313399
30
0
41
1
10
57
20
0
30
0
0
SPLINE
5
105
100
AcDbEntity
8
1
62
256
6
ByLayer
370
13
48
1
60
0
100
AcDbSpline
70
4
71
3
72
8
73
4
40
0
40
0
40
0
40
0
40
1
40
1
40
1
40
1
41
1
10
54.6887890124098
20
3.71652984661736
30
0
41
1
10
55.4591926749398
20
2.47371992765579
30
0
41
1
10
56.2295963374698
20
1.2348733402207
30
0
41
1
10
56.9999999999999
20
1.99E-13
30
0
0
SPLINE
5
106
100
AcDbEntity
8
1
62
256
6
ByLayer
370
13
48
1
60
0
100
AcDbSpline
70
4
71
3
72
8
73
4
40
0
40
0
40
0
40
0
40
1
40
1
40
1
40
1
41
1
10
54.6887890124095
20
-6.12252796040241
30
0
41
1
10
55.4591926749397
20
-4.08038765089429
30
0
41
1
10
56.2295963374699
20
-2.03953954780369
30
0
41
1
10
57.0000000000001
20
2.558E-13
30
0
0
SPLINE
5
107
100
AcDbEntity
8
1
62
256
6
ByLayer
370
13
48
1
60
0
100
AcDbSpline
70
4
71
3
72
8
73
4
40
0
40
0
40
0
40
0
40
1
40
1
40
1
40
1
41
1
10
54.6887890124095
20
-5.69542740074954
30
0
41
1
10
55.4591926749397
20
-3.79478834230883
30
0
41
1
10
56.2295963374699
20
-1.89630747344657
30
0
41
1
10
57.0000000000001
20
2.558E-13
30
0
0
SPLINE
5
108
100
AcDbEntity
8
1
62
256
6
ByLayer
370
13
48
1
60
0
100
AcDbSpline
70
4
71
3
72
8
73
4
40
0
40
0
40
0
40
0
40
1
40
1
40
1
40
1
41
1
10
54.6887890124095
20
-6.33024795689815
30
0
41
1
10
55.4591926749398
20
-4.2197797479254
30
0
41
1
10
56.2295963374701
20
-2.10969146026122
30
0
41
1
10
57.0000000000003
20
8.811E-13
30
0
0
SPLINE
5
109
100
AcDbEntity
8
1
62
256
6
ByLayer
370
13
48
1
60
0
100
AcDbSpline
70
4
71
3
72
8
73
4
40
0
40
0
40
0
40
0
40
1
40
1
40
1
40
1
41
1
10
54.6887890124096
20
6.19825906350428
30
0
41
1
10
55.4591926749397
20
4.13323577801023
30
0
41
1
10
56.2295963374699
20
2.06714390436198
30
0
41
1
10
57
20
0
30
0
0
SPLINE
5
10A
100
AcDbEntity
8
1
62
256
6
ByLayer
370
13
48
1
60
0
100
AcDbSpline
70
4
71
3
72
8
73
4
40
0
40
0
40
0
40
0
40
1
40
1
40
1
40
1
41
1
10
54.6887890124095
20
-5.06425001553086
30
0
41
1
10
55.4591926749397
20
-3.37321532989026
30
0
41
1
10
56.2295963374699
20
-1.68512748539524
30
0
41
1
10
57.0000000000001
20
2.274E-13
30
0
0
SPLINE
5
10B
100
AcDbEntity
8
1
62
256
6
ByLayer
370
13
48
1
60
0
100
AcDbSpline
70
4
71
3
72
8
73
4
40
0
40
0
40
0
40
0
40
1
40
1
40
1
40
1
41
1
10
54.6887890124096
20
4.4794133474872
30
0
41
1
10
55.4591926749397
20
2.9897430110976
30
0
41
1
10
56.2295963374699
20
1.49660123757243
30
0
41
1
10
57
20
2.84E-14
30
0
0
SPLINE
5
10C
100
AcDbEntity
8
1
62
256
6
ByLayer
370
13
48
1
60
0
100
AcDbSpline
70
4
71
3
72
8
73
4
40
0
40
0
40
0
40
0
40
1
40
1
40
1
40
1
41
1
10
54.6887890124098
20
2.67969467491622
30
0
41
1
10
55.4591926749398
20
1.78202799054952
30
0
41
1
10
56.2295963374698
20
0.888794050507926
30
0
41
1
10
56.9999999999999
20
1.421E-13
30
0
0
LINE
5
7D
100
AcDbEntity
8
81
62
256
6
ByLayer
370
18
48
1
60
0
100
AcDbLine
10
57
20
0
30
0
11
62
21
0
31
0
39
0
210
0
220
0
230
1
0
LINE
5
7E
100
AcDbEntity
8
4
62
256
6
ByLayer
370
18
48
0.05
60
0
100
AcDbLine
10
-5
20
0
30
0
11
62
21
0
31
0
39
0
210
0
220
0
230
1
0
LINE
5
80
100
AcDbEntity
8
80
62
256
6
ByLayer
370
18
48
1
60
0
100
AcDbLine
10
0
20
0
30
0
11
-5
21
0
31
0
39
0
210
0
220
0
230
1
0
LINE
5
81
100
AcDbEntity
8
SK4
62
256
6
ByLayer
370
18
48
0.05
60
0
100
AcDbLine
10
-53
20
0
30
0
11
62
21
0
31
0
39
0
210
0
220
0
230
1
0
LINE
5
83
100
AcDbEntity
8
1
62
256
6
ByLayer
370
18
48
1
60
0
100
AcDbLine
10
10
20
-6.1
30
0
11
24.529885
21
-6.1
31
0
39
0
210
0
220
0
230
1
0
LINE
5
84
100
AcDbEntity
8
1
62
256
6
ByLayer
370
18
48
1
60
0
100
AcDbLine
10
24.529885
20
6.1
30
0
11
10
21
6.1
31
0
39
0
210
0
220
0
230
1
0
LINE
5
85
100
AcDbEntity
8
1
62
256
6
ByLayer
370
18
48
1
60
0
100
AcDbLine
10
57
20
0
30
0
11
54.688789
21
6.35
31
0
39
0
210
0
220
0
230
1
0
LINE
5
86
100
AcDbEntity
8
1
62
256
6
ByLayer
370
18
48
1
60
0
100
AcDbLine
10
54.688789
20
-6.35
30
0
11
57
21
0
31
0
39
0
210
0
220
0
230
1
0
LINE
5
87
100
AcDbEntity
8
1
62
256
6
ByLayer
370
18
48
1
60
0
100
AcDbLine
10
10
20
6.1
30
0
11
0
21
7.9375
31
0
39
0
210
0
220
0
230
1
0
LINE
5
88
100
AcDbEntity
8
1
62
256
6
ByLayer
370
18
48
1
60
0
100
AcDbLine
10
0
20
-7.9375
30
0
11
10
21
-6.1
31
0
39
0
210
0
220
0
230
1
0
LINE
5
89
100
AcDbEntity
8
1
62
256
6
ByLayer
370
18
48
1
60
0
100
AcDbLine
10
47.6
20
-6.35
30
0
11
54.688789
21
-6.35
31
0
39
0
210
0
220
0
230
1
0
LINE
5
8A
100
AcDbEntity
8
1
62
256
6
ByLayer
370
18
48
1
60
0
100
AcDbLine
10
57
20
0
30
0
11
54.688789
21
6.35
31
0
39
0
210
0
220
0
230
1
0
LINE
5
8B
100
AcDbEntity
8
1
62
256
6
ByLayer
370
18
48
1
60
0
100
AcDbLine
10
54.688789
20
-6.35
30
0
11
57
21
0
31
0
39
0
210
0
220
0
230
1
0
LINE
5
8C
100
AcDbEntity
8
SK1
62
256
6
ByLayer
370
18
48
1
60
0
100
AcDbLine
10
-48
20
-6.9375
30
0
11
-47
21
-7.9375
31
0
39
0
210
0
220
0
230
1
0
LINE
5
8E
100
AcDbEntity
8
SK1
62
256
6
ByLayer
370
18
48
1
60
0
100
AcDbLine
10
-47
20
7.9375
30
0
11
-48
21
6.9375
31
0
39
0
210
0
220
0
230
1
0
LINE
5
8F
100
AcDbEntity
8
SK1
62
256
6
ByLayer
370
18
48
1
60
0
100
AcDbLine
10
-47
20
-7.9375
30
0
11
0
21
-7.9375
31
0
39
0
210
0
220
0
230
1
0
LINE
5
90
100
AcDbEntity
8
SK1
62
256
6
ByLayer
370
18
48
1
60
0
100
AcDbLine
10
0
20
7.9375
30
0
11
-47
21
7.9375
31
0
39
0
210
0
220
0
230
1
0
LINE
5
91
100
AcDbEntity
8
1
62
256
6
ByLayer
370
18
48
1
60
0
100
AcDbLine
10
0
20
7.9375
30
0
11
0
21
-7.9375
31
0
39
0
210
0
220
0
230
1
0
LINE
5
92
100
AcDbEntity
8
1
62
256
6
ByLayer
370
18
48
1
60
0
100
AcDbLine
10
54.688789
20
6.35
30
0
11
54.688789
21
6.148361
31
0
39
0
210
0
220
0
230
1
0
LINE
5
93
100
AcDbEntity
8
1
62
256
6
ByLayer
370
18
48
1
60
0
100
AcDbLine
10
54.688789
20
-6.35
30
0
11
54.688789
21
-0.905944
31
0
39
0
210
0
220
0
230
1
0
LINE
5
94
100
AcDbEntity
8
1
62
256
6
ByLayer
370
18
48
1
60
0
100
AcDbLine
10
10
20
-6.1
30
0
11
10
21
-4.01841
31
0
39
0
210
0
220
0
230
1
0
LINE
5
95
100
AcDbEntity
8
1
62
256
6
ByLayer
370
18
48
1
60
0
100
AcDbLine
10
10
20
3.576295
30
0
11
10
21
6.1
31
0
39
0
210
0
220
0
230
1
0
LINE
5
96
100
AcDbEntity
8
SK1
62
256
6
ByLayer
370
18
48
1
60
0
100
AcDbLine
10
-8.796218
20
-4.876987
30
0
11
-8.796218
21
4.876987
31
0
39
0
210
0
220
0
230
1
0
LINE
5
97
100
AcDbEntity
8
SK1
62
256
6
ByLayer
370
18
48
1
60
0
100
AcDbLine
10
-48
20
-6.9375
30
0
11
-48
21
6.9375
31
0
39
0
210
0
220
0
230
1
0
LINE
5
98
100
AcDbEntity
8
SK1
62
256
6
ByLayer
370
18
48
1
60
0
100
AcDbLine
10
0
20
7.9375
30
0
11
0
21
-7.9375
31
0
39
0
210
0
220
0
230
1
0
LINE
5
99
100
AcDbEntity
8
SK1
62
256
6
ByLayer
370
18
48
1
60
0
100
AcDbLine
10
-47
20
-7.9375
30
0
11
-47
21
7.9375
31
0
39
0
210
0
220
0
230
1
0
LINE
5
9A
100
AcDbEntity
8
SK1
62
256
6
ByLayer
370
18
48
1
60
0
100
AcDbLine
10
-8.796218
20
-4.876987
30
0
11
-39.438037
21
-4.876987
31
0
39
0
210
0
220
0
230
1
0
LINE
5
9B
100
AcDbEntity
8
SK1
62
256
6
ByLayer
370
18
48
1
60
0
100
AcDbLine
10
-39.438037
20
4.876987
30
0
11
-8.796218
21
4.876987
31
0
39
0
210
0
220
0
230
1
0
LINE
5
9C
100
AcDbEntity
8
SK1
62
256
6
ByLayer
370
18
48
1
60
0
100
AcDbLine
10
-39.438037
20
-4.876987
30
0
11
-39.438037
21
4.876987
31
0
39
0
210
0
220
0
230
1
0
LINE
5
9D
100
AcDbEntity
8
1
62
256
6
ByLayer
370
18
48
1
60
0
100
AcDbLine
10
54.688789
20
6.35
30
0
11
54.688789
21
-6.35
31
0
39
0
210
0
220
0
230
1
0
LINE
5
9E
100
AcDbEntity
8
1
62
256
6
ByLayer
370
18
48
1
60
0
100
AcDbLine
10
54.688789
20
6.35
30
0
11
54.688789
21
-6.35
31
0
39
0
210
0
220
0
230
1
0
LINE
5
9F
100
AcDbEntity
8
1
62
256
6
ByLayer
370
18
48
1
60
0
100
AcDbLine
10
54.688789
20
6.35
30
0
11
54.688789
21
-6.35
31
0
39
0
210
0
220
0
230
1
0
LINE
5
A0
100
AcDbEntity
8
1
62
256
6
ByLayer
370
18
48
1
60
0
100
AcDbLine
10
47.6
20
6.35
30
0
11
47.6
21
-6.35
31
0
39
0
210
0
220
0
230
1
0
LINE
5
A1
100
AcDbEntity
8
1
62
256
6
ByLayer
370
18
48
1
60
0
100
AcDbLine
10
47.6
20
6.35
30
0
11
47.6
21
-6.35
31
0
39
0
210
0
220
0
230
1
0
LINE
5
A2
100
AcDbEntity
8
1
62
256
6
ByLayer
370
18
48
1
60
0
100
AcDbLine
10
54.688789
20
6.35
30
0
11
54.688789
21
-6.35
31
0
39
0
210
0
220
0
230
1
0
LINE
5
A3
100
AcDbEntity
8
1
62
256
6
ByLayer
370
18
48
1
60
0
100
AcDbLine
10
47.6
20
6.35
30
0
11
47.6
21
-6.35
31
0
39
0
210
0
220
0
230
1
0
LINE
5
A4
100
AcDbEntity
8
1
62
256
6
ByLayer
370
18
48
1
60
0
100
AcDbLine
10
54.688789
20
6.35
30
0
11
54.688789
21
-6.35
31
0
39
0
210
0
220
0
230
1
0
LINE
5
A5
100
AcDbEntity
8
SK2
62
256
6
ByLayer
370
13
48
1
60
0
100
AcDbLine
10
-54.5
20
-7.9375
30
0
11
-54.5
21
36.212183
31
0
39
0
210
0
220
0
230
1
0
LINE
5
A7
100
AcDbEntity
8
SK2
62
256
6
ByLayer
370
13
48
1
60
0
100
AcDbLine
10
-49.5875
20
7.9375
30
0
11
-56.5
21
7.9375
31
0
39
0
210
0
220
0
230
1
0
LINE
5
A8
100
AcDbEntity
8
SK2
62
256
6
ByLayer
370
13
48
1
60
0
100
AcDbLine
10
-49.5875
20
-7.9375
30
0
11
-56.5
21
-7.9375
31
0
39
0
210
0
220
0
230
1
0
LINE
5
A9
100
AcDbEntity
8
1
62
256
6
ByLayer
370
18
48
1
60
1
100
AcDbLine
10
-54.5
20
7.9375
30
0
11
-54.039216
21
4.437502
31
0
39
0
210
0
220
0
230
1
0
LINE
5
AA
100
AcDbEntity
8
1
62
256
6
ByLayer
370
18
48
1
60
1
100
AcDbLine
10
-54.039216
20
4.437502
30
0
11
-54.960784
21
4.437498
31
0
39
0
210
0
220
0
230
1
0
LINE
5
AB
100
AcDbEntity
8
1
62
256
6
ByLayer
370
18
48
1
60
1
100
AcDbLine
10
-54.960784
20
4.437498
30
0
11
-54.5
21
7.9375
31
0
39
0
210
0
220
0
230
1
0
LINE
5
AC
100
AcDbEntity
8
1
62
256
6
ByLayer
370
18
48
1
60
1
100
AcDbLine
10
-54.5
20
-7.9375
30
0
11
-54.960784
21
-4.437502
31
0
39
0
210
0
220
0
230
1
0
LINE
5
AD
100
AcDbEntity
8
1
62
256
6
ByLayer
370
18
48
1
60
1
100
AcDbLine
10
-54.960784
20
-4.437502
30
0
11
-54.039216
21
-4.437498
31
0
39
0
210
0
220
0
230
1
0
LINE
5
AE
100
AcDbEntity
8
1
62
256
6
ByLayer
370
18
48
1
60
1
100
AcDbLine
10
-54.039216
20
-4.437498
30
0
11
-54.5
21
-7.9375
31
0
39
0
210
0
220
0
230
1
0
LINE
5
AF
100
AcDbEntity
8
2
62
256
6
ByLayer
370
13
48
1
60
0
100
AcDbLine
10
64.5
20
-6.35
30
0
11
64.5
21
34.624683
31
0
39
0
210
0
220
0
230
1
0
LINE
5
B1
100
AcDbEntity
8
2
62
256
6
ByLayer
370
13
48
1
60
0
100
AcDbLine
10
56.276289
20
6.35
30
0
11
66.5
21
6.35
31
0
39
0
210
0
220
0
230
1
0
LINE
5
B2
100
AcDbEntity
8
2
62
256
6
ByLayer
370
13
48
1
60
0
100
AcDbLine
10
56.276289
20
-6.35
30
0
11
66.5
21
-6.35
31
0
39
0
210
0
220
0
230
1
0
LINE
5
B3
100
AcDbEntity
8
1
62
256
6
ByLayer
370
18
48
1
60
1
100
AcDbLine
10
64.5
20
6.35
30
0
11
64.960784
21
2.850002
31
0
39
0
210
0
220
0
230
1
0
LINE
5
B4
100
AcDbEntity
8
1
62
256
6
ByLayer
370
18
48
1
60
1
100
AcDbLine
10
64.960784
20
2.850002
30
0
11
64.039216
21
2.849998
31
0
39
0
210
0
220
0
230
1
0
LINE
5
B5
100
AcDbEntity
8
1
62
256
6
ByLayer
370
18
48
1
60
1
100
AcDbLine
10
64.039216
20
2.849998
30
0
11
64.5
21
6.35
31
0
39
0
210
0
220
0
230
1
0
LINE
5
B6
100
AcDbEntity
8
1
62
256
6
ByLayer
370
18
48
1
60
1
100
AcDbLine
10
64.5
20
-6.35
30
0
11
64.039216
21
-2.850002
31
0
39
0
210
0
220
0
230
1
0
LINE
5
B7
100
AcDbEntity
8
1
62
256
6
ByLayer
370
18
48
1
60
1
100
AcDbLine
10
64.039216
20
-2.850002
30
0
11
64.960784
21
-2.849998
31
0
39
0
210
0
220
0
230
1
0
LINE
5
B8
100
AcDbEntity
8
1
62
256
6
ByLayer
370
18
48
1
60
1
100
AcDbLine
10
64.960784
20
-2.849998
30
0
11
64.5
21
-6.35
31
0
39
0
210
0
220
0
230
1
0
LINE
5
B9
100
AcDbEntity
8
SK2
62
256
6
ByLayer
370
13
48
1
60
0
100
AcDbLine
10
57.542957
20
-1.491762
30
0
11
64.182423
21
-19.733545
31
0
39
0
210
0
220
0
230
1
0
LINE
5
BA
100
AcDbEntity
8
SK2
62
256
6
ByLayer
370
13
48
1
60
0
100
AcDbLine
10
57.542957
20
1.491762
30
0
11
64.182423
21
19.733545
31
0
39
0
210
0
220
0
230
1
0
LINE
5
BB
100
AcDbEntity
8
1
62
256
6
ByLayer
370
18
48
1
60
1
100
AcDbLine
10
63.498383
20
-17.85416
30
0
11
66.551575
21
-16.082064
31
0
39
0
210
0
220
0
230
1
0
LINE
5
BC
100
AcDbEntity
8
1
62
256
6
ByLayer
370
18
48
1
60
1
100
AcDbLine
10
66.551575
20
-16.082064
30
0
11
66.906196
21
-16.93267
31
0
39
0
210
0
220
0
230
1
0
LINE
5
BD
100
AcDbEntity
8
1
62
256
6
ByLayer
370
18
48
1
60
1
100
AcDbLine
10
66.906196
20
-16.93267
30
0
11
63.498383
21
-17.85416
31
0
39
0
210
0
220
0
230
1
0
LINE
5
BE
100
AcDbEntity
8
1
62
256
6
ByLayer
370
18
48
1
60
1
100
AcDbLine
10
63.498383
20
17.85416
30
0
11
66.906193
21
16.932671
31
0
39
0
210
0
220
0
230
1
0
LINE
5
BF
100
AcDbEntity
8
1
62
256
6
ByLayer
370
18
48
1
60
1
100
AcDbLine
10
66.906193
20
16.932671
30
0
11
66.551579
21
16.082063
31
0
39
0
210
0
220
0
230
1
0
LINE
5
C0
100
AcDbEntity
8
1
62
256
6
ByLayer
370
18
48
1
60
1
100
AcDbLine
10
66.551579
20
16.082063
30
0
11
63.498383
21
17.85416
31
0
39
0
210
0
220
0
230
1
0
LINE
5
111
100
AcDbEntity
8
1
62
256
6
ByLayer
370
18
48
1
60
1
100
AcDbLine
10
-54.5
20
7.9375
30
0
11
-54.039216
21
4.437502
31
0
39
0
210
0
220
0
230
1
0
LINE
5
112
100
AcDbEntity
8
1
62
256
6
ByLayer
370
18
48
1
60
1
100
AcDbLine
10
-54.039216
20
4.437502
30
0
11
-54.960784
21
4.437498
31
0
39
0
210
0
220
0
230
1
0
LINE
5
113
100
AcDbEntity
8
1
62
256
6
ByLayer
370
18
48
1
60
1
100
AcDbLine
10
-54.960784
20
4.437498
30
0
11
-54.5
21
7.9375
31
0
39
0
210
0
220
0
230
1
0
LINE
5
115
100
AcDbEntity
8
1
62
256
6
ByLayer
370
18
48
1
60
1
100
AcDbLine
10
-54.5
20
-7.9375
30
0
11
-54.960784
21
-4.437502
31
0
39
0
210
0
220
0
230
1
0
LINE
5
116
100
AcDbEntity
8
1
62
256
6
ByLayer
370
18
48
1
60
1
100
AcDbLine
10
-54.960784
20
-4.437502
30
0
11
-54.039216
21
-4.437498
31
0
39
0
210
0
220
0
230
1
0
LINE
5
117
100
AcDbEntity
8
1
62
256
6
ByLayer
370
18
48
1
60
1
100
AcDbLine
10
-54.039216
20
-4.437498
30
0
11
-54.5
21
-7.9375
31
0
39
0
210
0
220
0
230
1
0
LINE
5
11B
100
AcDbEntity
8
1
62
256
6
ByLayer
370
18
48
1
60
1
100
AcDbLine
10
64.5
20
6.35
30
0
11
64.960784
21
2.850002
31
0
39
0
210
0
220
0
230
1
0
LINE
5
11C
100
AcDbEntity
8
1
62
256
6
ByLayer
370
18
48
1
60
1
100
AcDbLine
10
64.960784
20
2.850002
30
0
11
64.039216
21
2.849998
31
0
39
0
210
0
220
0
230
1
0
LINE
5
11D
100
AcDbEntity
8
1
62
256
6
ByLayer
370
18
48
1
60
1
100
AcDbLine
10
64.039216
20
2.849998
30
0
11
64.5
21
6.35
31
0
39
0
210
0
220
0
230
1
0
LINE
5
11F
100
AcDbEntity
8
1
62
256
6
ByLayer
370
18
48
1
60
1
100
AcDbLine
10
64.5
20
-6.35
30
0
11
64.039216
21
-2.850002
31
0
39
0
210
0
220
0
230
1
0
LINE
5
120
100
AcDbEntity
8
1
62
256
6
ByLayer
370
18
48
1
60
1
100
AcDbLine
10
64.039216
20
-2.850002
30
0
11
64.960784
21
-2.849998
31
0
39
0
210
0
220
0
230
1
0
LINE
5
121
100
AcDbEntity
8
1
62
256
6
ByLayer
370
18
48
1
60
1
100
AcDbLine
10
64.960784
20
-2.849998
30
0
11
64.5
21
-6.35
31
0
39
0
210
0
220
0
230
1
0
LINE
5
124
100
AcDbEntity
8
1
62
256
6
ByLayer
370
18
48
1
60
1
100
AcDbLine
10
63.498383
20
-17.85416
30
0
11
66.551575
21
-16.082064
31
0
39
0
210
0
220
0
230
1
0
LINE
5
125
100
AcDbEntity
8
1
62
256
6
ByLayer
370
18
48
1
60
1
100
AcDbLine
10
66.551575
20
-16.082064
30
0
11
66.906196
21
-16.93267
31
0
39
0
210
0
220
0
230
1
0
LINE
5
126
100
AcDbEntity
8
1
62
256
6
ByLayer
370
18
48
1
60
1
100
AcDbLine
10
66.906196
20
-16.93267
30
0
11
63.498383
21
-17.85416
31
0
39
0
210
0
220
0
230
1
0
LINE
5
128
100
AcDbEntity
8
1
62
256
6
ByLayer
370
18
48
1
60
1
100
AcDbLine
10
63.498383
20
17.85416
30
0
11
66.906193
21
16.932671
31
0
39
0
210
0
220
0
230
1
0
LINE
5
129
100
AcDbEntity
8
1
62
256
6
ByLayer
370
18
48
1
60
1
100
AcDbLine
10
66.906193
20
16.932671
30
0
11
66.551579
21
16.082063
31
0
39
0
210
0
220
0
230
1
0
LINE
5
12A
100
AcDbEntity
8
1
62
256
6
ByLayer
370
18
48
1
60
1
100
AcDbLine
10
66.551579
20
16.082063
30
0
11
63.498383
21
17.85416
31
0
39
0
210
0
220
0
230
1
0
MTEXT
5
10D
100
AcDbEntity
8
SK2
62
256
6
ByLayer
370
18
48
1
60
0
100
AcDbMText
10
-55.841114
20
19.595938
30
0
210
0
220
0
230
1
1
%%c
40
3
41
0
44
1.084337
50
90
71
7
72
5
7
iso_b_vert
0
MTEXT
5
110
100
AcDbEntity
8
SK2
62
256
6
ByLayer
370
18
48
1
60
0
100
AcDbMText
10
-55.841114
20
25.5725
30
0
210
0
220
0
230
1
1
\W0.7022;15.875
40
3
41
0
44
1.084337
50
90
71
7
72
5
7
iso_b_vert
0
MTEXT
5
119
100
AcDbEntity
8
2
62
256
6
ByLayer
370
18
48
1
60
0
100
AcDbMText
10
63.158886
20
18.008437
30
0
210
0
220
0
230
1
1
%%c
40
3
41
0
44
1.084337
50
90
71
7
72
5
7
iso_b_vert
0
MTEXT
5
11A
100
AcDbEntity
8
2
62
256
6
ByLayer
370
18
48
1
60
0
100
AcDbMText
10
63.158886
20
23.985
30
0
210
0
220
0
230
1
1
\W0.7022;12.700
40
3
41
0
44
1.084337
50
90
71
7
72
5
7
iso_b_vert
0
MTEXT
5
123
100
AcDbEntity
8
SK2
62
256
6
ByLayer
370
18
48
1
60
0
100
AcDbMText
10
76.909114
20
3.734657
30
0
210
0
220
0
230
1
1
\W0.7071;140%%d
40
3
41
0
44
1.084337
50
270
71
7
72
5
7
iso_b_vert
0
MTEXT
5
12C
100
AcDbEntity
8
SK6
62
256
6
ByLayer
370
18
48
1
60
0
100
AcDbMText
10
-18.492969
20
-67.114886
30
0
210
0
220
0
230
1
1
\W0.7494;H8531/2
40
3
41
0
44
1.084337
50
0
71
7
72
5
7
iso_b_vert
0
HATCH
5
114
100
AcDbEntity
8
SK2
62
256
6
ByLayer
370
13
48
1
60
0
100
AcDbHatch
10
0
20
0
30
0
210
0
220
0
230
1
2
ANSI31
70
0
71
0
91
1
92
5
93
3
72
1
10
-54.5
20
7.9375
11
-54.0392162584472
21
4.43750169255318
72
1
10
-54.0392162584472
20
4.43750169255318
11
-54.9607837415528
21
4.43749830744682
72
1
10
-54.9607837415528
20
4.43749830744682
11
-54.5
21
7.9375
97
0
75
0
76
1
52
0
41
0.0062
77
0
78
1
53
45
43
0
44
0
45
-0.0139193969876572
46
0.0139193969876572
79
0
47
0
98
1
10
0
20
0
0
HATCH
5
118
100
AcDbEntity
8
SK2
62
256
6
ByLayer
370
13
48
1
60
0
100
AcDbHatch
10
0
20
0
30
0
210
0
220
0
230
1
2
ANSI31
70
0
71
0
91
1
92
5
93
3
72
1
10
-54.5
20
-7.9375
11
-54.9607837415528
21
-4.43750169255318
72
1
10
-54.9607837415528
20
-4.43750169255318
11
-54.0392162584472
21
-4.43749830744682
72
1
10
-54.0392162584472
20
-4.43749830744682
11
-54.5
21
-7.9375
97
0
75
0
76
1
52
0
41
0.0062
77
0
78
1
53
45
43
0
44
0
45
-0.0139193969876572
46
0.0139193969876572
79
0
47
0
98
1
10
0
20
0
0
HATCH
5
11E
100
AcDbEntity
8
2
62
256
6
ByLayer
370
13
48
1
60
0
100
AcDbHatch
10
0
20
0
30
0
210
0
220
0
230
1
2
ANSI31
70
0
71
0
91
1
92
5
93
3
72
1
10
64.5
20
6.34999999999999
11
64.9607837415528
21
2.85000169255318
72
1
10
64.9607837415528
20
2.85000169255318
11
64.0392162584472
21
2.84999830744681
72
1
10
64.0392162584472
20
2.84999830744681
11
64.5
21
6.34999999999999
97
0
75
0
76
1
52
0
41
0.0062
77
0
78
1
53
45
43
0
44
0
45
-0.0139193969876572
46
0.0139193969876572
79
0
47
0
98
1
10
0
20
0
0
HATCH
5
122
100
AcDbEntity
8
2
62
256
6
ByLayer
370
13
48
1
60
0
100
AcDbHatch
10
0
20
0
30
0
210
0
220
0
230
1
2
ANSI31
70
0
71
0
91
1
92
5
93
3
72
1
10
64.5
20
-6.34999999999999
11
64.0392162584472
21
-2.85000169255318
72
1
10
64.0392162584472
20
-2.85000169255318
11
64.9607837415528
21
-2.84999830744681
72
1
10
64.9607837415528
20
-2.84999830744681
11
64.5
21
-6.34999999999999
97
0
75
0
76
1
52
0
41
0.0062
77
0
78
1
53
45
43
0
44
0
45
-0.0139193969876572
46
0.0139193969876572
79
0
47
0
98
1
10
0
20
0
0
HATCH
5
127
100
AcDbEntity
8
SK2
62
256
6
ByLayer
370
13
48
1
60
0
100
AcDbHatch
10
0
20
0
30
0
210
0
220
0
230
1
2
ANSI31
70
0
71
0
91
1
92
5
93
3
72
1
10
63.4983827231877
20
-17.8541597949322
11
66.5515754256929
21
-16.0820638240608
72
1
10
66.5515754256929
20
-16.0820638240608
11
66.906195833975
21
-16.9326700737196
72
1
10
66.906195833975
20
-16.9326700737196
11
63.4983827231877
21
-17.8541597949322
97
0
75
0
76
1
52
0
41
0.0062
77
0
78
1
53
45
43
0
44
0
45
-0.0139193969876572
46
0.0139193969876572
79
0
47
0
98
1
10
0
20
0
0
HATCH
5
12B
100
AcDbEntity
8
SK2
62
256
6
ByLayer
370
13
48
1
60
0
100
AcDbHatch
10
0
20
0
30
0
210
0
220
0
230
1
2
ANSI31
70
0
71
0
91
1
92
5
93
3
72
1
10
63.4983827231877
20
17.8541597949322
11
66.906192709519
21
16.9326713763016
72
1
10
66.906192709519
20
16.9326713763016
11
66.5515785501489
21
16.0820625214788
72
1
10
66.5515785501489
20
16.0820625214788
11
63.4983827231877
21
17.8541597949322
97
0
75
0
76
1
52
0
41
0.0062
77
0
78
1
53
45
43
0
44
0
45
-0.0139193969876572
46
0.0139193969876572
79
0
47
0
98
1
10
0
20
0
0
DIMENSION
5
12F
100
AcDbEntity
8
SK2
62
256
6
ByLayer
370
18
48
1
60
0
100
AcDbDimension
2
_U0
10
57
20
-45.952229
30
0
11
4.5
21
-45.952229
31
0
70
32
71
1
72
1
41
1
210
0
220
0
230
1
3
Standard
100
AcDbAlignedDimension
13
-48
23
-7.9375
33
0
14
57
24
0
34
0
50
0
100
AcDbRotatedDimension
1001
ACAD
1000
DSTYLE
1002
{
1070
   371
1070
    13
1070
   372
1070
    13
1070
     3
1000

1070
   170
1070
     0
1070
   144
1040
1.0
1070
   277
1070
     2
1070
   284
1070
     8
1070
   278
1070
    46
1070
   146
1040
1.166667
1070
   345
1005
16
1070
   347
1005
16
1070
   346
1005
16
1070
   344
1005
0
1070
   343
1005
0
1070
   172
1070
     1
1070
    76
1070
     0
1070
    75
1070
     0
1070
   282
1070
     0
1070
   281
1070
     0
1070
    71
1070
     0
1070
    74
1070
     0
1070
   279
1070
     0
1070
   173
1070
     1
1070
   340
1005
10E
1070
   271
1070
     2
1070
   272
1070
     3
1070
    77
1070
     1
1070
    73
1070
     1
1070
   171
1070
     3
1070
   274
1070
     4
1070
   177
1070
     2
1070
   176
1070
     2
1070
   178
1070
     2
1070
    78
1070
     8
1070
    48
1040
-0.1
1070
    41
1040
3.5
1070
   147
1040
1.5
1070
    42
1040
1.5875
1070
    44
1040
2.0
1070
   140
1040
3.0
1002
}
1001
ACAD_DSTYLE_DIM_LINETYPE
1070
   380
1005
16
1001
ACAD_DSTYLE_DIM_EXT1_LINETYPE
1070
   381
1005
16
1001
ACAD_DSTYLE_DIM_EXT2_LINETYPE
1070
   382
1005
16
0
DIMENSION
5
148
100
AcDbEntity
8
SK2
62
256
6
ByLayer
370
18
48
1
60
0
100
AcDbDimension
2
_U1
10
3
20
-35.952229
30
0
11
30
21
-35.952229
31
0
70
32
71
1
72
1
41
1
210
0
220
0
230
1
3
Standard
100
AcDbAlignedDimension
13
57
23
0
33
0
14
3
24
-6.35
34
0
50
0
100
AcDbRotatedDimension
1001
ACAD
1000
DSTYLE
1002
{
1070
   371
1070
    13
1070
   372
1070
    13
1070
     3
1000

1070
   170
1070
     0
1070
   144
1040
1.0
1070
   277
1070
     2
1070
   284
1070
     8
1070
   278
1070
    46
1070
   146
1040
1.166667
1070
   345
1005
16
1070
   347
1005
16
1070
   346
1005
16
1070
   344
1005
0
1070
   343
1005
0
1070
   172
1070
     1
1070
    76
1070
     0
1070
    75
1070
     0
1070
   282
1070
     0
1070
   281
1070
     0
1070
    71
1070
     0
1070
    74
1070
     0
1070
   279
1070
     0
1070
   173
1070
     1
1070
   340
1005
10E
1070
   271
1070
     2
1070
   272
1070
     3
1070
    77
1070
     1
1070
    73
1070
     1
1070
   171
1070
     3
1070
   274
1070
     4
1070
   177
1070
     2
1070
   176
1070
     2
1070
   178
1070
     2
1070
    78
1070
     8
1070
    48
1040
-0.1
1070
    41
1040
3.5
1070
   147
1040
1.5
1070
    42
1040
1.5875
1070
    44
1040
2.0
1070
   140
1040
3.0
1002
}
1001
ACAD_DSTYLE_DIM_LINETYPE
1070
   380
1005
16
1001
ACAD_DSTYLE_DIM_EXT1_LINETYPE
1070
   381
1005
16
1001
ACAD_DSTYLE_DIM_EXT2_LINETYPE
1070
   382
1005
16
0
DIMENSION
5
160
100
AcDbEntity
8
SK2
62
256
6
ByLayer
370
18
48
1
60
0
100
AcDbDimension
2
_U2
10
0
20
-35.952229
30
0
11
-24
21
-35.952229
31
0
70
32
71
1
72
1
41
1
210
0
220
0
230
1
3
Standard
100
AcDbAlignedDimension
13
-48
23
-7.9375
33
0
14
0
24
-7.9375
34
0
50
0
100
AcDbRotatedDimension
1001
ACAD
1000
DSTYLE
1002
{
1070
   371
1070
    13
1070
   372
1070
    13
1070
     3
1000

1070
   170
1070
     0
1070
   144
1040
1.0
1070
   277
1070
     2
1070
   284
1070
     8
1070
   278
1070
    46
1070
   146
1040
1.166667
1070
   345
1005
16
1070
   347
1005
16
1070
   346
1005
16
1070
   344
1005
0
1070
   343
1005
0
1070
   172
1070
     1
1070
    76
1070
     0
1070
    75
1070
     0
1070
   282
1070
     0
1070
   281
1070
     0
1070
    71
1070
     0
1070
    74
1070
     0
1070
   279
1070
     0
1070
   173
1070
     1
1070
   340
1005
10E
1070
   271
1070
     2
1070
   272
1070
     3
1070
    77
1070
     1
1070
    73
1070
     1
1070
   171
1070
     3
1070
   274
1070
     4
1070
   177
1070
     2
1070
   176
1070
     2
1070
   178
1070
     2
1070
    78
1070
     8
1070
    48
1040
-0.1
1070
    41
1040
3.5
1070
   147
1040
1.5
1070
    42
1040
1.5875
1070
    44
1040
2.0
1070
   140
1040
3.0
1002
}
1001
ACAD_DSTYLE_DIM_LINETYPE
1070
   380
1005
16
1001
ACAD_DSTYLE_DIM_EXT1_LINETYPE
1070
   381
1005
16
1001
ACAD_DSTYLE_DIM_EXT2_LINETYPE
1070
   382
1005
16
0
DIMENSION
5
178
100
AcDbEntity
8
SK2
62
256
6
ByLayer
370
18
48
1
60
0
100
AcDbDimension
2
_U3
10
13
20
32.952229
30
0
11
35
21
32.952229
31
0
70
32
71
1
72
1
41
1
210
0
220
0
230
1
3
Standard
100
AcDbAlignedDimension
13
57
23
0
33
0
14
13
24
6.35
34
0
50
0
100
AcDbRotatedDimension
1001
ACAD
1000
DSTYLE
1002
{
1070
   371
1070
    13
1070
   372
1070
    13
1070
     3
1000

1070
   170
1070
     0
1070
   144
1040
1.0
1070
   277
1070
     2
1070
   284
1070
     8
1070
   278
1070
    46
1070
   146
1040
1.166667
1070
   345
1005
16
1070
   347
1005
16
1070
   346
1005
16
1070
   344
1005
0
1070
   343
1005
0
1070
   172
1070
     1
1070
    76
1070
     0
1070
    75
1070
     0
1070
   282
1070
     0
1070
   281
1070
     0
1070
    71
1070
     0
1070
    74
1070
     0
1070
   279
1070
     0
1070
   173
1070
     1
1070
   340
1005
10E
1070
   271
1070
     2
1070
   272
1070
     3
1070
    77
1070
     1
1070
    73
1070
     1
1070
   171
1070
     3
1070
   274
1070
     4
1070
   177
1070
     2
1070
   176
1070
     2
1070
   178
1070
     2
1070
    78
1070
     8
1070
    48
1040
-0.1
1070
    41
1040
3.5
1070
   147
1040
1.5
1070
    42
1040
1.5875
1070
    44
1040
2.0
1070
   140
1040
3.0
1002
}
1001
ACAD_DSTYLE_DIM_LINETYPE
1070
   380
1005
16
1001
ACAD_DSTYLE_DIM_EXT1_LINETYPE
1070
   381
1005
16
1001
ACAD_DSTYLE_DIM_EXT2_LINETYPE
1070
   382
1005
16
0
ENDSEC
0
SECTION
2
OBJECTS
0
DICTIONARY
5
200
330
0
100
AcDbDictionary
280
0
281
1
3
ACAD_GROUP
350
201
3
ACAD_MLINESTYLE
350
202
0
DICTIONARY
5
201
330
0
100
AcDbDictionary
280
0
281
1
0
DICTIONARY
5
202
330
0
100
AcDbDictionary
280
0
281
1
3
Standard
350
18
0
MLINESTYLE
5
18
330
202
100
AcDbMlineStyle
2
Standard
70
0
3

62
256
51
90
52
90
71
2
49
-0.5
62
256
6
ByLayer
49
0.5
62
256
6
ByLayer
0
RASTERVARIABLES
5
1ee
330

100
AcDbRasterVariables
90
0
70
1
71
1
72
1
0
ENDSEC
0
EOF
