0
SECTION
2
HEADER
9
$ACADVER
1
AC1015
9
$DWGCODEPAGE
3
ANSI_1252
9
$HANDSEED
5
235
9
$ANGBASE
50
0
9
$ANGDIR
70
0
9
$ATTMODE
70
1
9
$AUNITS
70
0
9
$AUPREC
70
0
9
$CECOLOR
62
256
9
$CELTSCALE
40
1
9
$CELTYPE
6
ByLayer
9
$CELWEIGHT
370
18
9
$CLAYER
8
0
9
$CMLJUST
70
0
9
$CMLSCALE
40
1
9
$CMLSTYLE
2
Standard
9
$DIMSTYLE
2
Standard
9
$TEXTSIZE
40
0.2
9
$TEXTSTYLE
7
Standard
9
$LUNITS
70
2
9
$LUPREC
70
4
9
$EXTNAMES
290
1
9
$INSUNITS
70
4
9
$LTSCALE
40
1
9
$LWDISPLAY
290
1
9
$PDMODE
70
0
9
$PDSIZE
40
0
9
$PLINEGEN
70
0
0
ENDSEC
0
SECTION
2
CLASSES
0
CLASS
1
RASTERVARIABLES
2
AcDbRasterVariables
3
ISM
90
0
280
0
281
0
0
ENDSEC
0
SECTION
2
TABLES
0
TABLE
2
VPORT
5
22b
100
AcDbSymbolTable
0
VPORT
5
1
100
AcDbSymbolTableRecord
100
AcDbViewportTableRecord
2
*Active
70
0
10
0
20
0
11
1
21
1
12
-1
22
1
13
0
23
0
14
0.5
24
0.5
15
10
25
10
16
0
26
0
36
1
17
0
27
0
37
0
0
ENDTAB
0
TABLE
2
LTYPE
5
22c
100
AcDbSymbolTable
0
LTYPE
5
14
100
AcDbSymbolTableRecord
100
AcDbLinetypeTableRecord
70
0
2
ByBlock
3

72
65
73
0
40
0
0
LTYPE
5
15
100
AcDbSymbolTableRecord
100
AcDbLinetypeTableRecord
70
0
2
ByLayer
3

72
65
73
0
40
0
0
LTYPE
5
16
100
AcDbSymbolTableRecord
100
AcDbLinetypeTableRecord
70
0
2
Continuous
3
Solid line
72
65
73
0
40
0
0
LTYPE
5
6E
100
AcDbSymbolTableRecord
100
AcDbLinetypeTableRecord
70
0
2
CENTER
3
____ _ ____ _ ____ _ ____
72
65
73
4
40
47.5
49
22
74
0
49
-8.5
74
0
49
8.5
74
0
49
-8.5
74
0
0
LTYPE
5
6F
100
AcDbSymbolTableRecord
100
AcDbLinetypeTableRecord
70
0
2
DASHED
3
__ __ __ __ __ __ __ __ __
72
65
73
2
40
25.72
49
12.86
74
0
49
-12.86
74
0
0
ENDTAB
0
TABLE
2
LAYER
5
22d
100
AcDbSymbolTable
0
LAYER
5
10
100
AcDbSymbolTableRecord
100
AcDbLayerTableRecord
2
0
70
0
62
7
6
Continuous
290
1
370
-3
390
0
0
LAYER
5
71
100
AcDbSymbolTableRecord
100
AcDbLayerTableRecord
2
81
70
0
62
-3
6
Continuous
290
1
370
-3
390
0
0
LAYER
5
73
100
AcDbSymbolTableRecord
100
AcDbLayerTableRecord
2
80
70
0
62
-6
6
Continuous
290
1
370
-3
390
0
0
LAYER
5
75
100
AcDbSymbolTableRecord
100
AcDbLayerTableRecord
2
1
70
0
62
4
6
Continuous
290
1
370
-3
390
0
0
LAYER
5
80
100
AcDbSymbolTableRecord
100
AcDbLayerTableRecord
2
4
70
0
62
-2
6
CENTER
290
1
370
-3
390
0
0
LAYER
5
AC
100
AcDbSymbolTableRecord
100
AcDbLayerTableRecord
2
2
70
0
62
7
6
Continuous
290
1
370
-3
390
0
0
LAYER
5
15A
100
AcDbSymbolTableRecord
100
AcDbLayerTableRecord
2
Defpoints
70
0
62
7
6
Continuous
290
0
370
-3
390
0
0
LAYER
5
217
100
AcDbSymbolTableRecord
100
AcDbLayerTableRecord
2
SK4
70
0
62
2
6
CENTER
290
1
370
-3
390
0
0
LAYER
5
218
100
AcDbSymbolTableRecord
100
AcDbLayerTableRecord
2
SK1
70
0
62
4
6
Continuous
290
1
370
-3
390
0
0
LAYER
5
219
100
AcDbSymbolTableRecord
100
AcDbLayerTableRecord
2
SK2
70
0
62
7
6
Continuous
290
1
370
-3
390
0
0
LAYER
5
21a
100
AcDbSymbolTableRecord
100
AcDbLayerTableRecord
2
SK6
70
0
62
5
6
Continuous
290
1
370
-3
390
0
0
ENDTAB
0
TABLE
2
STYLE
5
22e
100
AcDbSymbolTable
0
STYLE
5
11
100
AcDbSymbolTableRecord
100
AcDbTextStyleTableRecord
2
Standard
3
txt
70
0
71
0
40
0
41
1
42
0
50
0
0
STYLE
5
136
100
AcDbSymbolTableRecord
100
AcDbTextStyleTableRecord
2
iso_b_vert
3
simplex.shx
70
0
71
0
40
0
41
1
42
0
50
0
0
STYLE
5
137
100
AcDbSymbolTableRecord
100
AcDbTextStyleTableRecord
2
DWGDirectTextStyle
3
simplex
70
0
71
0
40
0
41
1
42
0
50
0
0
ENDTAB
0
TABLE
2
DIMSTYLE
5
22f
100
AcDbSymbolTable
100
AcDbDimStyleTable
0
DIMSTYLE
105
27
100
AcDbSymbolTableRecord
100
AcDbDimStyleTableRecord
2
Standard
70
0
3
<>
41
0.18
42
0.0625
44
0.18
140
0.18
147
0.09
73
0
74
0
77
1
271
2
275
0
278
52
280
0
340
11
0
ENDTAB
0
TABLE
2
VIEW
5
230
100
AcDbSymbolTable
0
ENDTAB
0
TABLE
2
UCS
5
231
100
AcDbSymbolTable
0
ENDTAB
0
TABLE
2
APPID
5
232
100
AcDbSymbolTable
0
APPID
5
12
100
AcDbSymbolTableRecord
100
AcDbRegAppTableRecord
2
ACAD
70
0
0
APPID
5
156
100
AcDbSymbolTableRecord
100
AcDbRegAppTableRecord
2
ACAD_DSTYLE_DIMBREAK
70
0
0
APPID
5
1D6
100
AcDbSymbolTableRecord
100
AcDbRegAppTableRecord
2
ACAD_DSTYLE_DIM_LINETYPE
70
0
0
APPID
5
1D7
100
AcDbSymbolTableRecord
100
AcDbRegAppTableRecord
2
ACAD_DSTYLE_DIM_EXT1_LINETYPE
70
0
0
APPID
5
1D8
100
AcDbSymbolTableRecord
100
AcDbRegAppTableRecord
2
ACAD_DSTYLE_DIM_EXT2_LINETYPE
70
0
0
APPID
5
213
100
AcDbSymbolTableRecord
100
AcDbRegAppTableRecord
2
ACAD_MLEADERVER
70
0
0
ENDTAB
0
TABLE
2
BLOCK_RECORD
5
233
100
AcDbSymbolTable
0
BLOCK_RECORD
5
1F
100
AcDbSymbolTableRecord
100
AcDbBlockTableRecord
2
*Model_Space
340
0
70
0
0
BLOCK_RECORD
5
1B
100
AcDbSymbolTableRecord
100
AcDbBlockTableRecord
2
*Paper_Space
340
0
70
0
0
BLOCK_RECORD
5
23
100
AcDbSymbolTableRecord
100
AcDbBlockTableRecord
2
*Paper_Space0
340
0
70
0
0
BLOCK_RECORD
5
15B
100
AcDbSymbolTableRecord
100
AcDbBlockTableRecord
2
*D1
340
0
70
0
0
BLOCK_RECORD
5
167
100
AcDbSymbolTableRecord
100
AcDbBlockTableRecord
2
_U0
340
0
70
0
0
BLOCK_RECORD
5
173
100
AcDbSymbolTableRecord
100
AcDbBlockTableRecord
2
*D3
340
0
70
0
0
BLOCK_RECORD
5
17F
100
AcDbSymbolTableRecord
100
AcDbBlockTableRecord
2
_U1
340
0
70
0
0
BLOCK_RECORD
5
18B
100
AcDbSymbolTableRecord
100
AcDbBlockTableRecord
2
*D5
340
0
70
0
0
BLOCK_RECORD
5
197
100
AcDbSymbolTableRecord
100
AcDbBlockTableRecord
2
_U2
340
0
70
0
0
BLOCK_RECORD
5
1A3
100
AcDbSymbolTableRecord
100
AcDbBlockTableRecord
2
*D7
340
0
70
0
0
BLOCK_RECORD
5
1AF
100
AcDbSymbolTableRecord
100
AcDbBlockTableRecord
2
_U3
340
0
70
0
0
ENDTAB
0
ENDSEC
0
SECTION
2
BLOCKS
0
BLOCK
5
20
100
AcDbEntity
8
0
100
AcDbBlockBegin
2
*Model_Space
70
0
10
0
20
0
30
0
3
*Model_Space
0
ENDBLK
5
21
100
AcDbEntity
8
0
100
AcDbBlockEnd
0
BLOCK
5
1C
100
AcDbEntity
8
0
100
AcDbBlockBegin
2
*Paper_Space
70
0
10
0
20
0
30
0
3
*Paper_Space
0
ENDBLK
5
1D
100
AcDbEntity
8
0
100
AcDbBlockEnd
0
BLOCK
5
24
100
AcDbEntity
8
0
100
AcDbBlockBegin
2
*Paper_Space0
70
0
10
0
20
0
30
0
3
*Paper_Space0
0
ENDBLK
5
25
100
AcDbEntity
8
0
100
AcDbBlockEnd
0
BLOCK
5
15C
100
AcDbEntity
8
0
100
AcDbBlockBegin
2
*D1
70
1
10
0
20
0
30
0
3
*D1
0
LINE
5
15E
100
AcDbEntity
8
0
62
256
6
ByLayer
370
-2
48
1
60
0
100
AcDbLine
10
-57.1
20
-14.2875
30
0
11
-57.1
21
-46.079558
31
0
39
0
210
0
220
0
230
1
0
LINE
5
15F
100
AcDbEntity
8
0
62
256
6
ByLayer
370
-2
48
1
60
0
100
AcDbLine
10
60.9
20
-1.5875
30
0
11
60.9
21
-46.079558
31
0
39
0
210
0
220
0
230
1
0
LINE
5
160
100
AcDbEntity
8
0
62
256
6
ByLayer
370
-2
48
1
60
0
100
AcDbLine
10
-53.6
20
-44.079558
30
0
11
57.4
21
-44.079558
31
0
39
0
210
0
220
0
230
1
0
SOLID
5
161
100
AcDbEntity
8
0
62
256
6
ByLayer
370
-1
48
1
60
0
100
AcDbTrace
10
-53.6
20
-43.496224
30
0
11
-53.6
21
-44.662891
31
0
12
-57.1
22
-44.079558
32
0
13
-57.1
23
-44.079558
33
0
39
0
210
0
220
0
230
1
0
SOLID
5
162
100
AcDbEntity
8
0
62
256
6
ByLayer
370
-1
48
1
60
0
100
AcDbTrace
10
57.4
20
-44.662891
30
0
11
57.4
21
-43.496224
31
0
12
60.9
22
-44.079558
32
0
13
60.9
23
-44.079558
33
0
39
0
210
0
220
0
230
1
0
MTEXT
5
163
100
AcDbEntity
8
0
62
256
6
ByLayer
370
18
48
1
60
0
100
AcDbMText
10
1.9
20
-38.079558
30
0
210
0
220
0
230
1
1
\A1;118
40
3
41
0
44
1
50
0
71
5
72
5
7
iso_b_vert
0
POINT
5
164
100
AcDbEntity
8
Defpoints
62
0
6
ByLayer
370
-1
48
1
60
0
100
AcDbPoint
10
-57.1
20
-12.7
30
0
39
0
210
0
220
0
230
1
50
360
0
POINT
5
165
100
AcDbEntity
8
Defpoints
62
0
6
ByLayer
370
-1
48
1
60
0
100
AcDbPoint
10
60.9
20
0
30
0
39
0
210
0
220
0
230
1
50
360
0
POINT
5
166
100
AcDbEntity
8
Defpoints
62
0
6
ByLayer
370
-1
48
1
60
0
100
AcDbPoint
10
60.9
20
-44.079558
30
0
39
0
210
0
220
0
230
1
50
360
0
ENDBLK
5
15D
100
AcDbEntity
8
0
100
AcDbBlockEnd
0
BLOCK
5
16E
100
AcDbEntity
8
0
100
AcDbBlockBegin
2
_U0
70
0
10
0
20
0
30
0
3
_U0
0
MTEXT
5
168
100
AcDbEntity
8
SK2
62
256
6
ByLayer
370
18
48
1
60
0
100
AcDbMText
10
-2.953399
20
-43.194443
30
0
210
0
220
0
230
1
1
\W0.6532;118.00
40
3
41
0
44
1.084337
50
0
71
7
72
5
7
iso_b_vert
0
LINE
5
169
100
AcDbEntity
8
SK2
62
256
6
ByLayer
370
13
48
1
60
0
100
AcDbLine
10
-57.1
20
-14.2875
30
0
11
-57.1
21
-46.079558
31
0
39
0
210
0
220
0
230
1
0
LINE
5
16A
100
AcDbEntity
8
SK2
62
256
6
ByLayer
370
13
48
1
60
0
100
AcDbLine
10
60.9
20
-1.5875
30
0
11
60.9
21
-46.079558
31
0
39
0
210
0
220
0
230
1
0
LINE
5
16B
100
AcDbEntity
8
SK2
62
256
6
ByLayer
370
13
48
1
60
0
100
AcDbLine
10
-57.1
20
-44.079558
30
0
11
60.9
21
-44.079558
31
0
39
0
210
0
220
0
230
1
0
SOLID
5
16C
100
AcDbEntity
8
SK2
62
256
6
ByLayer
370
18
48
1
60
0
100
AcDbTrace
10
-57.1
20
-44.079558
30
0
11
-53.600002
21
-43.618774
31
0
12
-53.599998
22
-44.540342
32
0
13
-53.599998
23
-44.540342
33
0
39
0
210
0
220
0
230
1
0
SOLID
5
16D
100
AcDbEntity
8
SK2
62
256
6
ByLayer
370
18
48
1
60
0
100
AcDbTrace
10
60.9
20
-44.079558
30
0
11
57.400002
21
-44.540342
31
0
12
57.399998
22
-43.618774
32
0
13
57.399998
23
-43.618774
33
0
39
0
210
0
220
0
230
1
0
ENDBLK
5
16F
100
AcDbEntity
8
0
100
AcDbBlockEnd
0
BLOCK
5
174
100
AcDbEntity
8
0
100
AcDbBlockBegin
2
*D3
70
1
10
0
20
0
30
0
3
*D3
0
LINE
5
176
100
AcDbEntity
8
0
62
256
6
ByLayer
370
-2
48
1
60
0
100
AcDbLine
10
60.9
20
-1.5875
30
0
11
60.9
21
-36.079558
31
0
39
0
210
0
220
0
230
1
0
LINE
5
177
100
AcDbEntity
8
0
62
256
6
ByLayer
370
-2
48
1
60
0
100
AcDbLine
10
6
20
-13.2955
30
0
11
6
21
-36.079558
31
0
39
0
210
0
220
0
230
1
0
LINE
5
178
100
AcDbEntity
8
0
62
256
6
ByLayer
370
-2
48
1
60
0
100
AcDbLine
10
57.4
20
-34.079558
30
0
11
9.5
21
-34.079558
31
0
39
0
210
0
220
0
230
1
0
SOLID
5
179
100
AcDbEntity
8
0
62
256
6
ByLayer
370
-1
48
1
60
0
100
AcDbTrace
10
57.4
20
-34.662891
30
0
11
57.4
21
-33.496224
31
0
12
60.9
22
-34.079558
32
0
13
60.9
23
-34.079558
33
0
39
0
210
0
220
0
230
1
0
SOLID
5
17A
100
AcDbEntity
8
0
62
256
6
ByLayer
370
-1
48
1
60
0
100
AcDbTrace
10
9.5
20
-33.496224
30
0
11
9.5
21
-34.662891
31
0
12
6
22
-34.079558
32
0
13
6
23
-34.079558
33
0
39
0
210
0
220
0
230
1
0
MTEXT
5
17B
100
AcDbEntity
8
0
62
256
6
ByLayer
370
18
48
1
60
0
100
AcDbMText
10
33.45
20
-28.079558
30
0
210
0
220
0
230
1
1
\A1;54.9
40
3
41
0
44
1
50
0
71
5
72
5
7
iso_b_vert
0
POINT
5
17C
100
AcDbEntity
8
Defpoints
62
0
6
ByLayer
370
-1
48
1
60
0
100
AcDbPoint
10
60.9
20
0
30
0
39
0
210
0
220
0
230
1
50
360
0
POINT
5
17D
100
AcDbEntity
8
Defpoints
62
0
6
ByLayer
370
-1
48
1
60
0
100
AcDbPoint
10
6
20
-11.708
30
0
39
0
210
0
220
0
230
1
50
360
0
POINT
5
17E
100
AcDbEntity
8
Defpoints
62
0
6
ByLayer
370
-1
48
1
60
0
100
AcDbPoint
10
6
20
-34.079558
30
0
39
0
210
0
220
0
230
1
50
360
0
ENDBLK
5
175
100
AcDbEntity
8
0
100
AcDbBlockEnd
0
BLOCK
5
186
100
AcDbEntity
8
0
100
AcDbBlockBegin
2
_U1
70
0
10
0
20
0
30
0
3
_U1
0
MTEXT
5
180
100
AcDbEntity
8
SK2
62
256
6
ByLayer
370
18
48
1
60
0
100
AcDbMText
10
28.809687
20
-33.194443
30
0
210
0
220
0
230
1
1
\W0.7694;54.90
40
3
41
0
44
1.084337
50
0
71
7
72
5
7
iso_b_vert
0
LINE
5
181
100
AcDbEntity
8
SK2
62
256
6
ByLayer
370
13
48
1
60
0
100
AcDbLine
10
60.9
20
-1.5875
30
0
11
60.9
21
-36.079558
31
0
39
0
210
0
220
0
230
1
0
LINE
5
182
100
AcDbEntity
8
SK2
62
256
6
ByLayer
370
13
48
1
60
0
100
AcDbLine
10
6
20
-13.2955
30
0
11
6
21
-36.079558
31
0
39
0
210
0
220
0
230
1
0
LINE
5
183
100
AcDbEntity
8
SK2
62
256
6
ByLayer
370
13
48
1
60
0
100
AcDbLine
10
60.9
20
-34.079558
30
0
11
6
21
-34.079558
31
0
39
0
210
0
220
0
230
1
0
SOLID
5
184
100
AcDbEntity
8
SK2
62
256
6
ByLayer
370
18
48
1
60
0
100
AcDbTrace
10
60.9
20
-34.079558
30
0
11
57.400002
21
-34.540342
31
0
12
57.399998
22
-33.618774
32
0
13
57.399998
23
-33.618774
33
0
39
0
210
0
220
0
230
1
0
SOLID
5
185
100
AcDbEntity
8
SK2
62
256
6
ByLayer
370
18
48
1
60
0
100
AcDbTrace
10
6
20
-34.079558
30
0
11
9.499998
21
-33.618774
31
0
12
9.500002
22
-34.540342
32
0
13
9.500002
23
-34.540342
33
0
39
0
210
0
220
0
230
1
0
ENDBLK
5
187
100
AcDbEntity
8
0
100
AcDbBlockEnd
0
BLOCK
5
18C
100
AcDbEntity
8
0
100
AcDbBlockBegin
2
*D5
70
1
10
0
20
0
30
0
3
*D5
0
LINE
5
18E
100
AcDbEntity
8
0
62
256
6
ByLayer
370
-2
48
1
60
0
100
AcDbLine
10
-57.1
20
-14.2875
30
0
11
-57.1
21
-36.079558
31
0
39
0
210
0
220
0
230
1
0
LINE
5
18F
100
AcDbEntity
8
0
62
256
6
ByLayer
370
-2
48
1
60
0
100
AcDbLine
10
0
20
-14.2875
30
0
11
0
21
-36.079558
31
0
39
0
210
0
220
0
230
1
0
LINE
5
190
100
AcDbEntity
8
0
62
256
6
ByLayer
370
-2
48
1
60
0
100
AcDbLine
10
-53.6
20
-34.079558
30
0
11
-3.5
21
-34.079558
31
0
39
0
210
0
220
0
230
1
0
SOLID
5
191
100
AcDbEntity
8
0
62
256
6
ByLayer
370
-1
48
1
60
0
100
AcDbTrace
10
-53.6
20
-33.496224
30
0
11
-53.6
21
-34.662891
31
0
12
-57.1
22
-34.079558
32
0
13
-57.1
23
-34.079558
33
0
39
0
210
0
220
0
230
1
0
SOLID
5
192
100
AcDbEntity
8
0
62
256
6
ByLayer
370
-1
48
1
60
0
100
AcDbTrace
10
-3.5
20
-34.662891
30
0
11
-3.5
21
-33.496224
31
0
12
0
22
-34.079558
32
0
13
0
23
-34.079558
33
0
39
0
210
0
220
0
230
1
0
MTEXT
5
193
100
AcDbEntity
8
0
62
256
6
ByLayer
370
18
48
1
60
0
100
AcDbMText
10
-28.55
20
-28.079558
30
0
210
0
220
0
230
1
1
\A1;57.1
40
3
41
0
44
1
50
0
71
5
72
5
7
iso_b_vert
0
POINT
5
194
100
AcDbEntity
8
Defpoints
62
0
6
ByLayer
370
-1
48
1
60
0
100
AcDbPoint
10
-57.1
20
-12.7
30
0
39
0
210
0
220
0
230
1
50
360
0
POINT
5
195
100
AcDbEntity
8
Defpoints
62
0
6
ByLayer
370
-1
48
1
60
0
100
AcDbPoint
10
0
20
-12.7
30
0
39
0
210
0
220
0
230
1
50
360
0
POINT
5
196
100
AcDbEntity
8
Defpoints
62
0
6
ByLayer
370
-1
48
1
60
0
100
AcDbPoint
10
0
20
-34.079558
30
0
39
0
210
0
220
0
230
1
50
360
0
ENDBLK
5
18D
100
AcDbEntity
8
0
100
AcDbBlockEnd
0
BLOCK
5
19E
100
AcDbEntity
8
0
100
AcDbBlockBegin
2
_U2
70
0
10
0
20
0
30
0
3
_U2
0
MTEXT
5
198
100
AcDbEntity
8
SK2
62
256
6
ByLayer
370
18
48
1
60
0
100
AcDbMText
10
-32.657428
20
-33.194443
30
0
210
0
220
0
230
1
1
\W0.6864;57.10
40
3
41
0
44
1.084337
50
0
71
7
72
5
7
iso_b_vert
0
LINE
5
199
100
AcDbEntity
8
SK2
62
256
6
ByLayer
370
13
48
1
60
0
100
AcDbLine
10
-57.1
20
-14.2875
30
0
11
-57.1
21
-36.079558
31
0
39
0
210
0
220
0
230
1
0
LINE
5
19A
100
AcDbEntity
8
SK2
62
256
6
ByLayer
370
13
48
1
60
0
100
AcDbLine
10
0
20
-14.2875
30
0
11
0
21
-36.079558
31
0
39
0
210
0
220
0
230
1
0
LINE
5
19B
100
AcDbEntity
8
SK2
62
256
6
ByLayer
370
13
48
1
60
0
100
AcDbLine
10
-57.1
20
-34.079558
30
0
11
0
21
-34.079558
31
0
39
0
210
0
220
0
230
1
0
SOLID
5
19C
100
AcDbEntity
8
SK2
62
256
6
ByLayer
370
18
48
1
60
0
100
AcDbTrace
10
-57.1
20
-34.079558
30
0
11
-53.600002
21
-33.618774
31
0
12
-53.599998
22
-34.540342
32
0
13
-53.599998
23
-34.540342
33
0
39
0
210
0
220
0
230
1
0
SOLID
5
19D
100
AcDbEntity
8
SK2
62
256
6
ByLayer
370
18
48
1
60
0
100
AcDbTrace
10
0
20
-34.079558
30
0
11
-3.499998
21
-34.540342
31
0
12
-3.500002
22
-33.618774
32
0
13
-3.500002
23
-33.618774
33
0
39
0
210
0
220
0
230
1
0
ENDBLK
5
19F
100
AcDbEntity
8
0
100
AcDbBlockEnd
0
BLOCK
5
1A4
100
AcDbEntity
8
0
100
AcDbBlockBegin
2
*D7
70
1
10
0
20
0
30
0
3
*D7
0
LINE
5
1A6
100
AcDbEntity
8
0
62
256
6
ByLayer
370
-2
48
1
60
0
100
AcDbLine
10
60.9
20
1.5875
30
0
11
60.9
21
33.079558
31
0
39
0
210
0
220
0
230
1
0
LINE
5
1A7
100
AcDbEntity
8
0
62
256
6
ByLayer
370
-2
48
1
60
0
100
AcDbLine
10
13.9
20
13.2955
30
0
11
13.9
21
33.079558
31
0
39
0
210
0
220
0
230
1
0
LINE
5
1A8
100
AcDbEntity
8
0
62
256
6
ByLayer
370
-2
48
1
60
0
100
AcDbLine
10
57.4
20
31.079558
30
0
11
17.4
21
31.079558
31
0
39
0
210
0
220
0
230
1
0
SOLID
5
1A9
100
AcDbEntity
8
0
62
256
6
ByLayer
370
-1
48
1
60
0
100
AcDbTrace
10
57.4
20
30.496224
30
0
11
57.4
21
31.662891
31
0
12
60.9
22
31.079558
32
0
13
60.9
23
31.079558
33
0
39
0
210
0
220
0
230
1
0
SOLID
5
1AA
100
AcDbEntity
8
0
62
256
6
ByLayer
370
-1
48
1
60
0
100
AcDbTrace
10
17.4
20
31.662891
30
0
11
17.4
21
30.496224
31
0
12
13.9
22
31.079558
32
0
13
13.9
23
31.079558
33
0
39
0
210
0
220
0
230
1
0
MTEXT
5
1AB
100
AcDbEntity
8
0
62
256
6
ByLayer
370
18
48
1
60
0
100
AcDbMText
10
37.4
20
37.079558
30
0
210
0
220
0
230
1
1
\A1;47
40
3
41
0
44
1
50
0
71
5
72
5
7
iso_b_vert
0
POINT
5
1AC
100
AcDbEntity
8
Defpoints
62
0
6
ByLayer
370
-1
48
1
60
0
100
AcDbPoint
10
60.9
20
0
30
0
39
0
210
0
220
0
230
1
50
360
0
POINT
5
1AD
100
AcDbEntity
8
Defpoints
62
0
6
ByLayer
370
-1
48
1
60
0
100
AcDbPoint
10
13.9
20
11.708
30
0
39
0
210
0
220
0
230
1
50
360
0
POINT
5
1AE
100
AcDbEntity
8
Defpoints
62
0
6
ByLayer
370
-1
48
1
60
0
100
AcDbPoint
10
13.9
20
31.079558
30
0
39
0
210
0
220
0
230
1
50
360
0
ENDBLK
5
1A5
100
AcDbEntity
8
0
100
AcDbBlockEnd
0
BLOCK
5
1B6
100
AcDbEntity
8
0
100
AcDbBlockBegin
2
_U3
70
0
10
0
20
0
30
0
3
_U3
0
MTEXT
5
1B0
100
AcDbEntity
8
SK2
62
256
6
ByLayer
370
18
48
1
60
0
100
AcDbMText
10
32.759687
20
31.964672
30
0
210
0
220
0
230
1
1
\W0.7694;47.00
40
3
41
0
44
1.084337
50
0
71
7
72
5
7
iso_b_vert
0
LINE
5
1B1
100
AcDbEntity
8
SK2
62
256
6
ByLayer
370
13
48
1
60
0
100
AcDbLine
10
60.9
20
1.5875
30
0
11
60.9
21
33.079558
31
0
39
0
210
0
220
0
230
1
0
LINE
5
1B2
100
AcDbEntity
8
SK2
62
256
6
ByLayer
370
13
48
1
60
0
100
AcDbLine
10
13.9
20
13.2955
30
0
11
13.9
21
33.079558
31
0
39
0
210
0
220
0
230
1
0
LINE
5
1B3
100
AcDbEntity
8
SK2
62
256
6
ByLayer
370
13
48
1
60
0
100
AcDbLine
10
60.9
20
31.079558
30
0
11
13.9
21
31.079558
31
0
39
0
210
0
220
0
230
1
0
SOLID
5
1B4
100
AcDbEntity
8
SK2
62
256
6
ByLayer
370
18
48
1
60
0
100
AcDbTrace
10
60.9
20
31.079558
30
0
11
57.400002
21
30.618774
31
0
12
57.399998
22
31.540342
32
0
13
57.399998
23
31.540342
33
0
39
0
210
0
220
0
230
1
0
SOLID
5
1B5
100
AcDbEntity
8
SK2
62
256
6
ByLayer
370
18
48
1
60
0
100
AcDbTrace
10
13.9
20
31.079558
30
0
11
17.399998
21
31.540342
31
0
12
17.400002
22
30.618774
32
0
13
17.400002
23
30.618774
33
0
39
0
210
0
220
0
230
1
0
ENDBLK
5
1B7
100
AcDbEntity
8
0
100
AcDbBlockEnd
0
ENDSEC
0
SECTION
2
ENTITIES
0
ARC
5
BD
100
AcDbEntity
8
SK2
62
256
6
ByLayer
370
13
48
1
60
0
100
AcDbCircle
39
0
10
60.9
20
0
30
0
40
19
210
0
220
0
230
1
100
AcDbArc
50
290
51
70
0
POINT
5
70
100
AcDbEntity
8
81
62
256
6
ByLayer
370
18
48
1
60
0
100
AcDbPoint
10
60.9
20
0
30
0
39
0
210
0
220
0
230
1
50
360
0
POINT
5
72
100
AcDbEntity
8
80
62
256
6
ByLayer
370
18
48
1
60
0
100
AcDbPoint
10
0
20
0
30
0
39
0
210
0
220
0
230
1
50
360
0
POINT
5
74
100
AcDbEntity
8
1
62
256
6
ByLayer
370
18
48
1
60
1
100
AcDbPoint
10
-57.1
20
-12.7
30
0
39
0
210
0
220
0
230
1
50
360
0
POINT
5
76
100
AcDbEntity
8
1
62
256
6
ByLayer
370
18
48
1
60
1
100
AcDbPoint
10
60.9
20
0
30
0
39
0
210
0
220
0
230
1
50
360
0
POINT
5
77
100
AcDbEntity
8
1
62
256
6
ByLayer
370
18
48
1
60
1
100
AcDbPoint
10
60.9
20
0
30
0
39
0
210
0
220
0
230
1
50
360
0
POINT
5
78
100
AcDbEntity
8
1
62
256
6
ByLayer
370
18
48
1
60
1
100
AcDbPoint
10
6
20
-11.708
30
0
39
0
210
0
220
0
230
1
50
360
0
POINT
5
79
100
AcDbEntity
8
1
62
256
6
ByLayer
370
18
48
1
60
1
100
AcDbPoint
10
-57.1
20
-12.7
30
0
39
0
210
0
220
0
230
1
50
360
0
POINT
5
7A
100
AcDbEntity
8
1
62
256
6
ByLayer
370
18
48
1
60
1
100
AcDbPoint
10
0
20
-12.7
30
0
39
0
210
0
220
0
230
1
50
360
0
POINT
5
7B
100
AcDbEntity
8
1
62
256
6
ByLayer
370
18
48
1
60
1
100
AcDbPoint
10
60.9
20
0
30
0
39
0
210
0
220
0
230
1
50
360
0
POINT
5
7C
100
AcDbEntity
8
1
62
256
6
ByLayer
370
18
48
1
60
1
100
AcDbPoint
10
13.9
20
11.708
30
0
39
0
210
0
220
0
230
1
50
360
0
SPLINE
5
BE
100
AcDbEntity
8
1
62
256
6
ByLayer
370
18
48
1
60
0
100
AcDbSpline
70
4
71
3
72
18
73
14
40
0
40
0
40
0
40
0
40
0.0739668960458925
40
0.0739668960458925
40
0.305475172034422
40
0.305475172034422
40
0.421229310028686
40
0.421229310028686
40
0.536983448022951
40
0.536983448022951
40
0.768491724011476
40
0.768491724011476
40
1
40
1
40
1
40
1
41
1
10
25.0135581454086
20
-8.31486106240109
30
0
41
1
10
24.8241640058654
20
-8.35994290275673
30
0
41
1
10
24.6347686789844
20
-8.40457934292499
30
0
41
1
10
23.8525438033405
20
-8.58701038628163
30
0
41
1
10
23.2596552543673
20
-8.72080675586116
30
0
41
1
10
22.3703036466302
20
-8.91496813304528
30
0
41
1
10
22.0738492450863
20
-8.9785972693615
30
0
41
1
10
21.4809362499174
20
-9.10366924485487
30
0
41
1
10
21.1844753623345
20
-9.16510644129835
30
0
41
1
10
20.2948334109108
20
-9.34570502805789
30
0
41
1
10
19.7014399258404
20
-9.46124171270228
30
0
41
1
10
18.514113534621
20
-9.68270158745838
30
0
41
1
10
17.9201834418448
20
-9.78863026417704
30
0
41
1
10
17.3260380593685
20
-9.8897859112069
30
0
0
SPLINE
5
BF
100
AcDbEntity
8
1
62
256
6
ByLayer
370
18
48
1
60
0
100
AcDbSpline
70
4
71
3
72
10
73
6
40
0
40
0
40
0
40
0
40
0.5
40
0.5
40
1
40
1
40
1
40
1
41
1
10
17.3260380593683
20
9.88978591120699
30
0
41
1
10
16.9321489345921
20
9.95903055897776
30
0
41
1
10
16.5418066752716
20
10.0300341862136
30
0
41
1
10
15.7667814950824
20
10.1722515433686
30
0
41
1
10
15.3820889938893
20
10.2434684569635
30
0
41
1
10
15
20
10.3137740147874
30
0
0
SPLINE
5
C0
100
AcDbEntity
8
1
62
256
6
ByLayer
370
18
48
1
60
0
100
AcDbSpline
70
4
71
3
72
46
73
42
40
0
40
0
40
0
40
0
40
0.124999999999995
40
0.124999999999995
40
0.156249999999994
40
0.156249999999994
40
0.187499999999992
40
0.187499999999992
40
0.249999999999991
40
0.249999999999991
40
0.31249999999999
40
0.31249999999999
40
0.374999999999989
40
0.374999999999989
40
0.406249999999989
40
0.406249999999989
40
0.437499999999989
40
0.437499999999989
40
0.499999999999988
40
0.499999999999988
40
0.531249999999988
40
0.531249999999988
40
0.562499999999988
40
0.562499999999988
40
0.624999999999989
40
0.624999999999989
40
0.65624999999999
40
0.65624999999999
40
0.68749999999999
40
0.68749999999999
40
0.749999999999992
40
0.749999999999992
40
0.812499999999995
40
0.812499999999995
40
0.874999999999997
40
0.874999999999997
40
0.906249999999998
40
0.906249999999998
40
0.937499999999999
40
0.937499999999999
40
1
40
1
40
1
40
1
41
1
10
22.4010362363183
20
-7.66917039115864
30
0
41
1
10
23.3771119032411
20
-7.92170356215149
30
0
41
1
10
24.3526994097814
20
-8.16200764150591
30
0
41
1
10
25.5710251875097
20
-8.44846894430776
30
0
41
1
10
25.8146327494352
20
-8.50506104786606
30
0
41
1
10
26.3017203661459
20
-8.6168627231277
30
0
41
1
10
26.5451915145568
20
-8.67208795257602
30
0
41
1
10
27.2755578997326
20
-8.83541464859303
30
0
41
1
10
27.7624976607656
20
-8.94100658749488
30
0
41
1
10
28.7363330459491
20
-9.14585089491243
30
0
41
1
10
29.2232192953325
20
-9.24512022553949
30
0
41
1
10
30.1967795661517
20
-9.43758020429888
30
0
41
1
10
30.6834535630229
20
-9.53076102017943
30
0
41
1
10
31.4136051556853
20
-9.66547393869436
30
0
41
1
10
31.6570146528192
20
-9.70953290529604
30
0
41
1
10
32.1439358039841
20
-9.7958913143824
30
0
41
1
10
32.38744247703
20
-9.83819876331461
30
0
41
1
10
33.1180499714447
20
-9.96258405725041
30
0
41
1
10
33.6052284885868
20
-10.042140067918
30
0
41
1
10
34.336095738463
20
-10.1564735922914
30
0
41
1
10
34.5797297766872
20
-10.1937567589774
30
0
41
1
10
35.0670538451162
20
-10.2666160396956
30
0
41
1
10
35.3107558343271
20
-10.3021766027938
30
0
41
1
10
36.042156042238
20
-10.4060467388079
30
0
41
1
10
36.5300934976946
20
-10.4716181564081
30
0
41
1
10
37.2623868004606
20
-10.5646088399877
30
0
41
1
10
37.5065230430924
20
-10.5947065747708
30
0
41
1
10
37.9946208992095
20
-10.6530906566909
30
0
41
1
10
38.2386107590798
20
-10.6813854418834
30
0
41
1
10
38.9704392584863
20
-10.7635338778614
30
0
41
1
10
39.4581450892223
20
-10.8146373911495
30
0
41
1
10
40.4336291072892
20
-10.9091712592655
30
0
41
1
10
40.9214449929849
20
-10.9525857602552
30
0
41
1
10
41.897000410239
20
-11.0319120938745
30
0
41
1
10
42.3847447971679
20
-11.067817470667
30
0
41
1
10
43.1162591257838
20
-11.1160256337052
30
0
41
1
10
43.3600762863645
20
-11.1311532968831
30
0
41
1
10
43.8478035619995
20
-11.1594550460543
30
0
41
1
10
44.0917243670877
20
-11.1726257024126
30
0
41
1
10
44.8236315307321
20
-11.2092239160519
30
0
41
1
10
45.3117595992825
20
-11.2297429874064
30
0
41
1
10
45.8
20
-11.2464090001839
30
0
0
SPLINE
5
C1
100
AcDbEntity
8
1
62
256
6
ByLayer
370
18
48
1
60
0
100
AcDbSpline
70
4
71
3
72
12
73
8
40
0
40
0
40
0
40
0
40
0.499656410849339
40
0.499656410849339
40
0.999312821698679
40
0.999312821698679
40
1
40
1
40
1
40
1
41
1
10
45.8
20
-11.6643901213102
30
0
41
1
10
46.2521770256813
20
-11.6783287079742
30
0
41
1
10
46.7040977051203
20
-11.6888263624481
30
0
41
1
10
47.6075453415948
20
-11.7028889797464
30
0
41
1
10
48.0590931817543
20
-11.7064465595287
30
0
41
1
10
48.511273259436
20
-11.7065370691777
30
0
41
1
10
48.5118942893788
20
-11.7065371869481
30
0
41
1
10
48.512515319347
20
-11.7065372981817
30
0
0
SPLINE
5
C2
100
AcDbEntity
8
1
62
256
6
ByLayer
370
18
48
1
60
0
100
AcDbSpline
70
4
71
3
72
22
73
18
40
0
40
0
40
0
40
0
40
0.125
40
0.125
40
0.25
40
0.25
40
0.375
40
0.375
40
0.5
40
0.5
40
0.625
40
0.625
40
0.75
40
0.75
40
0.875
40
0.875
40
1
40
1
40
1
40
1
41
1
10
56.6386364972173
20
-1.67051565945229
30
0
41
1
10
56.1864813725977
20
-1.50779961211634
30
0
41
1
10
55.7345244615645
20
-1.34462451580797
30
0
41
1
10
54.8310442418474
20
-1.01725365095183
30
0
41
1
10
54.3795170254361
20
-0.853068958469066
30
0
41
1
10
53.4764210350372
20
-0.524993861859372
30
0
41
1
10
53.0249040710796
20
-0.36095988007159
30
0
41
1
10
52.1219864671559
20
-0.0327484155749005
30
0
41
1
10
51.6705972455573
20
0.131460575393618
30
0
41
1
10
50.7679279015574
20
0.460001412923106
30
0
41
1
10
50.3166336722218
20
0.624294201570109
30
0
41
1
10
49.413854614009
20
0.952175601845141
30
0
41
1
10
48.9623432989868
20
1.11569134969585
30
0
41
1
10
48.0591319402701
20
1.44202459518874
30
0
41
1
10
47.6074354103851
20
1.60485176137732
30
0
41
1
10
46.7038954098268
20
1.92992196597456
30
0
41
1
10
46.2520921150514
20
2.09227525543858
30
0
41
1
10
45.8
20
2.253743922512
30
0
0
SPLINE
5
C3
100
AcDbEntity
8
1
62
256
6
ByLayer
370
18
48
1
60
0
100
AcDbSpline
70
4
71
3
72
92
73
88
40
0
40
0
40
0
40
0
40
0.0312500000000019
40
0.0312500000000019
40
0.0625000000000037
40
0.0625000000000037
40
0.0937500000000056
40
0.0937500000000056
40
0.125000000000007
40
0.125000000000007
40
0.140625000000008
40
0.140625000000008
40
0.148437500000008
40
0.148437500000008
40
0.156250000000008
40
0.187500000000009
40
0.187500000000009
40
0.21875000000001
40
0.21875000000001
40
0.250000000000011
40
0.250000000000011
40
0.281250000000012
40
0.281250000000012
40
0.296875000000012
40
0.296875000000012
40
0.312500000000012
40
0.312500000000012
40
0.343750000000011
40
0.343750000000011
40
0.375000000000011
40
0.375000000000011
40
0.40625000000001
40
0.40625000000001
40
0.43750000000001
40
0.43750000000001
40
0.44531250000001
40
0.44531250000001
40
0.45312500000001
40
0.46875000000001
40
0.46875000000001
40
0.50000000000001
40
0.50000000000001
40
0.53125000000001
40
0.53125000000001
40
0.53906250000001
40
0.53906250000001
40
0.54687500000001
40
0.56250000000001
40
0.56250000000001
40
0.59375000000001
40
0.59375000000001
40
0.62500000000001
40
0.62500000000001
40
0.63281250000001
40
0.63281250000001
40
0.64062500000001
40
0.656250000000009
40
0.656250000000009
40
0.687500000000009
40
0.687500000000009
40
0.718750000000009
40
0.718750000000009
40
0.726562500000009
40
0.726562500000009
40
0.734375000000009
40
0.734375000000009
40
0.750000000000009
40
0.750000000000009
40
0.78125000000001
40
0.78125000000001
40
0.81250000000001
40
0.81250000000001
40
0.84375000000001
40
0.84375000000001
40
0.85156250000001
40
0.85156250000001
40
0.85937500000001
40
0.875000000000009
40
0.875000000000009
40
0.906250000000007
40
0.937500000000005
40
0.968750000000003
40
0.968750000000003
40
0.976562500000002
40
0.976562500000002
40
0.984375000000002
40
1
40
1
40
1
40
1
41
1
10
56.6386364972113
20
11.336254365431
30
0
41
1
10
56.71176414036
20
11.1549151324623
30
0
41
1
10
56.7850064006584
20
10.9708566403349
30
0
41
1
10
56.9318438372747
20
10.5977344645515
30
0
41
1
10
57.0054389004116
20
10.4086695500229
30
0
41
1
10
57.1530690227301
20
10.0258424089523
30
0
41
1
10
57.2271041377795
20
9.83207963718627
30
0
41
1
10
57.3756660854271
20
9.44007051326949
30
0
41
1
10
57.4501931756284
20
9.24182393118281
30
0
41
1
10
57.5623614565523
20
8.94118914140441
30
0
41
1
10
57.5998134905066
20
8.84043274480112
30
0
41
1
10
57.6560830205646
20
8.68848766205082
30
0
41
1
10
57.6748677342105
20
8.63766896602908
30
0
41
1
10
57.7124003680305
20
8.53594225711902
30
0
41
1
10
57.8060938938722
20
8.28152498209772
30
0
41
1
10
57.8991064246454
20
8.02661317494884
30
0
41
1
10
58.0469939372957
20
7.61811688034598
30
0
41
1
10
58.1204723396884
20
7.41355033023189
30
0
41
1
10
58.2663293583199
20
7.00373245028891
30
0
41
1
10
58.3387096463539
20
6.79848170518471
30
0
41
1
10
58.4820586208016
20
6.38719215118456
30
0
41
1
10
58.5530300376285
20
6.18115427894745
30
0
41
1
10
58.6580370206958
20
5.87136972991246
30
0
41
1
10
58.6927958349666
20
5.76798626421421
30
0
41
1
10
58.7617325361538
20
5.56094212635929
30
0
41
1
10
58.7959254480883
20
5.4572327922501
30
0
41
1
10
58.8969691916666
20
5.14713409057592
30
0
41
1
10
58.9624654705608
20
4.94129200184767
30
0
41
1
10
59.0885354971491
20
4.53104473021895
30
0
41
1
10
59.1491167746152
20
4.32664170544146
30
0
41
1
10
59.2635148107824
20
3.91885228887114
30
0
41
1
10
59.3173412250921
20
3.71546675673684
30
0
41
1
10
59.4154583753673
20
3.30916505877431
30
0
41
1
10
59.4597535037938
20
3.10624722772923
30
0
41
1
10
59.5066954388512
20
2.85247410210255
30
0
41
1
10
59.5156649154142
20
2.80168076634342
30
0
41
1
10
59.5326590185072
20
2.70021067832752
30
0
41
1
10
59.5566749534624
20
2.54853955296517
30
0
41
1
10
59.5760070173517
20
2.39849102578305
30
0
41
1
10
59.607797095301
20
2.10064082485474
30
0
41
1
10
59.6197574254984
20
1.90505958840657
30
0
41
1
10
59.6229783313576
20
1.52056302765053
30
0
41
1
10
59.6142201461874
20
1.33165095892031
30
0
41
1
10
59.5904166120679
20
1.1002918557391
30
0
41
1
10
59.5850131534851
20
1.05421362939373
30
0
41
1
10
59.5729858992901
20
0.962757032246572
30
0
41
1
10
59.5531731316098
20
0.827031913091673
30
0
41
1
10
59.5283520036946
20
0.695631893953504
30
0
41
1
10
59.4728658174265
20
0.438458172203156
30
0
41
1
10
59.4281151932965
20
0.27450030552896
30
0
41
1
10
59.3271311590365
20
-0.0390216291835941
30
0
41
1
10
59.2709062287661
20
-0.188589924703024
30
0
41
1
10
59.1953162468721
20
-0.366692755144612
30
0
41
1
10
59.1799171960031
20
-0.40189773275236
30
0
41
1
10
59.1486769135977
20
-0.471289050338441
30
0
41
1
10
59.101231633989
20
-0.573676711308167
30
0
41
1
10
59.0522134754231
20
-0.671066654541079
30
0
41
1
10
58.9524607289439
20
-0.859383382231073
30
0
41
1
10
58.88369303396
20
-0.976328288988867
30
0
41
1
10
58.7429602016789
20
-1.19359517172251
30
0
41
1
10
58.6709855499708
20
-1.29391402178649
30
0
41
1
10
58.5794518876631
20
-1.40894050729548
30
0
41
1
10
58.5610657238433
20
-1.43142598351048
30
0
41
1
10
58.5241413738699
20
-1.47535301937543
30
0
41
1
10
58.5055899412804
20
-1.49680831138838
30
0
41
1
10
58.4499540510294
20
-1.55933812645094
30
0
41
1
10
58.4128194942528
20
-1.59866337801145
30
0
41
1
10
58.3013420096504
20
-1.70971470989105
30
0
41
1
10
58.2269307992026
20
-1.7745306476113
30
0
41
1
10
58.0780576973589
20
-1.88619381962843
30
0
41
1
10
58.0035934845999
20
-1.93303919484231
30
0
41
1
10
57.8545913639715
20
-2.00878644177527
30
0
41
1
10
57.7800523945683
20
-2.0376883244065
30
0
41
1
10
57.6867547442197
20
-2.06236158232477
30
0
41
1
10
57.6680765022499
20
-2.06672377559838
30
0
41
1
10
57.6308721011232
20
-2.07426150740727
30
0
41
1
10
57.5752361316954
20
-2.08380533445077
30
0
41
1
10
57.5200938141276
20
-2.08811977208308
30
0
41
1
10
57.4104190139483
20
-2.08989485268412
30
0
41
1
10
57.2658117244562
20
-2.0740088825815
30
0
41
1
10
57.0530158805628
20
-1.99641264814966
30
0
41
1
10
56.9133955069243
20
-1.90877210209555
30
0
41
1
10
56.8266767967788
20
-1.84252895787475
30
0
41
1
10
56.8093727493819
20
-1.82871479939428
30
0
41
1
10
56.7749072864278
20
-1.8000113958164
30
0
41
1
10
56.7233930378094
20
-1.75532066475625
30
0
41
1
10
56.67240881386
20
-1.70573921701035
30
0
41
1
10
56.6386364972113
20
-1.67051565945016
30
0
0
SPLINE
5
C4
100
AcDbEntity
8
1
62
256
6
ByLayer
370
18
48
1
60
0
100
AcDbSpline
70
4
71
3
72
20
73
16
40
0
40
0
40
0
40
0
40
0.166475659844123
40
0.166475659844123
40
0.333180527875302
40
0.333180527875302
40
0.41653296189089
40
0.41653296189089
40
0.499885395906477
40
0.499885395906477
40
0.666590263937651
40
0.666590263937651
40
0.833295131968826
40
0.833295131968826
40
1
40
1
40
1
40
1
41
1
10
48.5125148212268
20
11.7065372980923
30
0
41
1
10
48.9634530422141
20
11.7066180688169
30
0
41
1
10
49.4144046661251
20
11.7032523908776
30
0
41
1
10
50.3167521238029
20
11.6896357795834
30
0
41
1
10
50.7681582917303
20
11.6793736598163
30
0
41
1
10
51.4451109814062
20
11.6587661290492
30
0
41
1
10
51.6707306655914
20
11.6510251949511
30
0
41
1
10
52.1220079828063
20
11.6338227344653
30
0
41
1
10
52.3476811629404
20
11.6243666426841
30
0
41
1
10
53.0248111767474
20
11.5934494348644
30
0
41
1
10
53.476364223527
20
11.569438241721
30
0
41
1
10
54.3796070727896
20
11.5145790189797
30
0
41
1
10
54.8312786723612
20
11.4837197715283
30
0
41
1
10
55.7347384383218
20
11.4150959446394
30
0
41
1
10
56.1865546002442
20
11.3773408513832
30
0
41
1
10
56.6386364972172
20
11.3362543654304
30
0
0
SPLINE
5
C5
100
AcDbEntity
8
1
62
256
6
ByLayer
370
18
48
1
60
0
100
AcDbSpline
70
4
71
3
72
46
73
42
40
0
40
0
40
0
40
0
40
0.0150728884244261
40
0.0150728884244261
40
0.050248856694981
40
0.050248856694981
40
0.0854248249655359
40
0.0854248249655359
40
0.155776761506647
40
0.155776761506647
40
0.226128698047759
40
0.226128698047759
40
0.296480634588871
40
0.296480634588871
40
0.331656602859427
40
0.331656602859427
40
0.366832571129982
40
0.366832571129982
40
0.437184507671094
40
0.437184507671094
40
0.47236047594165
40
0.47236047594165
40
0.507536444212207
40
0.507536444212207
40
0.577888380753321
40
0.577888380753321
40
0.613064349023877
40
0.613064349023877
40
0.648240317294434
40
0.648240317294434
40
0.718592253835547
40
0.718592253835547
40
0.78894419037666
40
0.78894419037666
40
0.859296126917773
40
0.859296126917773
40
0.89447209518833
40
0.89447209518833
40
0.929648063458887
40
0.929648063458887
40
1
40
1
40
1
40
1
41
1
10
25.014097394296
20
8.31714285762359
30
0
41
1
10
25.1185285506465
20
8.3419494791458
30
0
41
1
10
25.2229496096492
20
8.36662697286613
30
0
41
1
10
25.5710251875097
20
8.44846894430773
30
0
41
1
10
25.8146327494352
20
8.50506104786606
30
0
41
1
10
26.3017203661459
20
8.6168627231277
30
0
41
1
10
26.5451915145568
20
8.67208795257599
30
0
41
1
10
27.2755578997326
20
8.83541464859297
30
0
41
1
10
27.7624976607657
20
8.94100658749488
30
0
41
1
10
28.7363330459491
20
9.14585089491243
30
0
41
1
10
29.2232192953325
20
9.24512022553947
30
0
41
1
10
30.1967795661517
20
9.43758020429888
30
0
41
1
10
30.6834535630229
20
9.5307610201794
30
0
41
1
10
31.4136051556853
20
9.66547393869436
30
0
41
1
10
31.6570146528192
20
9.70953290529604
30
0
41
1
10
32.1439358039841
20
9.79589131438237
30
0
41
1
10
32.3874424770299
20
9.83819876331461
30
0
41
1
10
33.1180499714448
20
9.96258405725041
30
0
41
1
10
33.6052284885867
20
10.042140067918
30
0
41
1
10
34.336095738463
20
10.1564735922914
30
0
41
1
10
34.5797297766871
20
10.1937567589774
30
0
41
1
10
35.0670538451162
20
10.2666160396956
30
0
41
1
10
35.3107558343272
20
10.3021766027938
30
0
41
1
10
36.0421560422381
20
10.4060467388079
30
0
41
1
10
36.5300934976946
20
10.4716181564081
30
0
41
1
10
37.2623868004606
20
10.5646088399877
30
0
41
1
10
37.5065230430924
20
10.5947065747708
30
0
41
1
10
37.9946208992094
20
10.6530906566909
30
0
41
1
10
38.2386107590798
20
10.6813854418834
30
0
41
1
10
38.9704392584863
20
10.7635338778614
30
0
41
1
10
39.4581450892223
20
10.8146373911495
30
0
41
1
10
40.4336291072892
20
10.9091712592655
30
0
41
1
10
40.9214449929849
20
10.9525857602552
30
0
41
1
10
41.897000410239
20
11.0319120938745
30
0
41
1
10
42.3847447971679
20
11.067817470667
30
0
41
1
10
43.1162591257838
20
11.1160256337051
30
0
41
1
10
43.3600762863645
20
11.1311532968831
30
0
41
1
10
43.8478035619995
20
11.1594550460543
30
0
41
1
10
44.0917243670876
20
11.1726257024126
30
0
41
1
10
44.8236315307319
20
11.2092239160519
30
0
41
1
10
45.3117595992824
20
11.2297429874064
30
0
41
1
10
45.8
20
11.2464090001839
30
0
0
SPLINE
5
C6
100
AcDbEntity
8
1
62
256
6
ByLayer
370
18
48
1
60
0
100
AcDbSpline
70
4
71
3
72
48
73
44
40
0
40
0
40
0
40
0
40
0.0625000000000002
40
0.0625000000000002
40
0.125
40
0.125
40
0.156250000000001
40
0.156250000000001
40
0.187500000000002
40
0.187500000000002
40
0.250000000000005
40
0.250000000000005
40
0.281250000000005
40
0.281250000000005
40
0.312500000000006
40
0.312500000000006
40
0.375000000000006
40
0.375000000000006
40
0.437500000000007
40
0.437500000000007
40
0.500000000000007
40
0.500000000000007
40
0.531250000000006
40
0.531250000000006
40
0.562500000000006
40
0.562500000000006
40
0.593750000000005
40
0.593750000000005
40
0.625000000000004
40
0.625000000000004
40
0.687500000000003
40
0.687500000000003
40
0.750000000000002
40
0.750000000000002
40
0.812500000000001
40
0.812500000000001
40
0.84375
40
0.84375
40
0.875
40
0.875
40
0.9375
40
0.9375
40
1
40
1
40
1
40
1
41
1
10
45.8
20
2.03081760675894
30
0
41
1
10
45.2057597819125
20
2.23624422956718
30
0
41
1
10
44.6118208456355
20
2.44017553982746
30
0
41
1
10
43.4246407417563
20
2.84535174046488
30
0
41
1
10
42.8314388487815
20
3.04670370635819
30
0
41
1
10
41.9419989095254
20
3.34625640019368
30
0
41
1
10
41.6455727461713
20
3.44567632065846
30
0
41
1
10
41.0527493164528
20
3.64344089430858
30
0
41
1
10
40.7563507429081
20
3.74178249217152
30
0
41
1
10
39.8672240948035
20
4.03527188783349
30
0
41
1
10
39.2745698049198
20
4.22889865951873
30
0
41
1
10
38.3857855776027
20
4.51641675677291
30
0
41
1
10
38.0895693206864
20
4.61180022995475
30
0
41
1
10
37.4970673653943
20
4.80123416388275
30
0
41
1
10
37.2007738507756
20
4.89526511089861
30
0
41
1
10
36.3117815642027
20
5.17534776333403
30
0
41
1
10
35.7189724388336
20
5.35939500152045
30
0
41
1
10
34.5331570529799
20
5.72238050784711
30
0
41
1
10
33.940167415019
20
5.90135427182943
30
0
41
1
10
32.7535282625622
20
6.25301097865136
30
0
41
1
10
32.1598148478496
20
6.42554328122702
30
0
41
1
10
31.2687022690126
20
6.6795169249861
30
0
41
1
10
30.9715114794705
20
6.76339204136116
30
0
41
1
10
30.37739047003
20
6.92943360203853
30
0
41
1
10
30.0804504019106
20
7.0116229590196
30
0
41
1
10
29.4867587073769
20
7.17421353257569
30
0
41
1
10
29.1899779253243
20
7.25454852501082
30
0
41
1
10
28.596480473476
20
7.41316208515138
30
0
41
1
10
28.2997741956348
20
7.49146436662767
30
0
41
1
10
27.4098008524177
20
7.72340874762216
30
0
41
1
10
26.8166950616573
20
7.87412414399918
30
0
41
1
10
25.6308994084668
20
8.16770062215397
30
0
41
1
10
25.0381821070339
20
8.31049497553312
30
0
41
1
10
23.8525438033405
20
8.58701038628166
30
0
41
1
10
23.2596552543673
20
8.72080675586116
30
0
41
1
10
22.3703036466302
20
8.91496813304531
30
0
41
1
10
22.0738492450863
20
8.9785972693615
30
0
41
1
10
21.4809362499174
20
9.10366924485493
30
0
41
1
10
21.1844753623345
20
9.16510644129846
30
0
41
1
10
20.2948334109108
20
9.34570502805798
30
0
41
1
10
19.7014399258404
20
9.46124171270228
30
0
41
1
10
18.514113534621
20
9.68270158745838
30
0
41
1
10
17.9201834418448
20
9.78863026417707
30
0
41
1
10
17.3260380593685
20
9.88978591120693
30
0
0
SPLINE
5
C7
100
AcDbEntity
8
1
62
256
6
ByLayer
370
18
48
1
60
0
100
AcDbSpline
70
4
71
3
72
10
73
6
40
0
40
0
40
0
40
0
40
0.5
40
0.5
40
1
40
1
40
1
40
1
41
1
10
17.3260380593683
20
-9.88978591120696
30
0
41
1
10
16.9321489345921
20
-9.95903055897776
30
0
41
1
10
16.5418066752716
20
-10.0300341862135
30
0
41
1
10
15.7667814950823
20
-10.1722515433685
30
0
41
1
10
15.3820889938893
20
-10.2434684569635
30
0
41
1
10
15
20
-10.3137740147874
30
0
0
SPLINE
5
C8
100
AcDbEntity
8
1
62
256
6
ByLayer
370
18
48
1
60
0
100
AcDbSpline
70
4
71
4
72
10
73
5
40
0
40
0
40
0
40
0
40
0
40
1
40
1
40
1
40
1
40
1
41
0.996897067326731
10
17.8969283533434
20
-6.82281230348667
30
0
41
0.995672798137132
10
17.7056520098705
20
-7.50795664468123
30
0
41
0.994921397676567
10
17.5411655811604
20
-8.26761612798363
30
0
41
0.995583747927886
10
17.4140093271429
20
-9.07433574294277
30
0
41
0.996768041689617
10
17.3260380593685
20
-9.88978591120695
30
0
0
SPLINE
5
C9
100
AcDbEntity
8
1
62
256
6
ByLayer
370
18
48
1
60
0
100
AcDbSpline
70
4
71
3
72
24
73
20
40
0
40
0
40
0
40
0
40
0.125000000000007
40
0.125000000000007
40
0.250000000000015
40
0.250000000000015
40
0.375000000000022
40
0.375000000000022
40
0.50000000000003
40
0.50000000000003
40
0.531250000000029
40
0.531250000000029
40
0.562500000000028
40
0.625000000000026
40
0.750000000000018
40
0.750000000000018
40
0.875000000000009
40
0.875000000000009
40
1
40
1
40
1
40
1
41
1
10
15.0000000000004
20
-6.86072236223919
30
0
41
1
10
15.3141945593517
20
-6.82868819151454
30
0
41
1
10
15.6280398504743
20
-6.80661838145164
30
0
41
1
10
16.2550775722962
20
-6.78141849432254
30
0
41
1
10
16.5682697913806
20
-6.77829250858872
30
0
41
1
10
17.1940385719809
20
-6.78994195858527
30
0
41
1
10
17.5066149552097
20
-6.80472099411097
30
0
41
1
10
18.1311870859333
20
-6.85096848522252
30
0
41
1
10
18.4431826786658
20
-6.88243983088495
30
0
41
1
10
18.8328379130586
20
-6.93128208724283
30
0
41
1
10
18.9107883272361
20
-6.94152995921442
30
0
41
1
10
19.066485487848
20
-6.96292435453438
30
0
41
1
10
19.2995544722743
20
-6.99633874394794
30
0
41
1
10
19.8401468171063
20
-7.08318605784896
30
0
41
1
10
20.2983152487944
20
-7.17153296300748
30
0
41
1
10
20.9052174063396
20
-7.29930266029547
30
0
41
1
10
21.2066749120616
20
-7.36816992727495
30
0
41
1
10
21.8062290687706
20
-7.51351277225197
30
0
41
1
10
22.1043278276064
20
-7.58998166285627
30
0
41
1
10
22.4010362363181
20
-7.66917039115859
30
0
0
SPLINE
5
CA
100
AcDbEntity
8
1
62
256
6
ByLayer
370
18
48
1
60
0
100
AcDbSpline
70
4
71
3
72
33
73
29
40
0
40
0
40
0
40
0
40
0.0843330033208926
40
0.0843330033208926
40
0.107224678237872
40
0.107224678237872
40
0.130116353154851
40
0.175899702988806
40
0.175899702988806
40
0.267466402656717
40
0.267466402656717
40
0.359033102324627
40
0.359033102324627
40
0.450599801992538
40
0.450599801992538
40
0.496383151826494
40
0.496383151826494
40
0.542166501660449
40
0.542166501660449
40
0.633733201328359
40
0.633733201328359
40
0.72529990099627
40
0.72529990099627
40
0.816866600664179
40
0.816866600664179
40
0.90843330033209
40
0.90843330033209
40
1
40
1
40
1
40
1
41
1
10
7.63211751156268
20
13.5717612083098
30
0
41
1
10
7.79542237788243
20
13.5212787160559
30
0
41
1
10
7.96705231676506
20
13.4637946943449
30
0
41
1
10
8.19481189046391
20
13.3831326251206
30
0
41
1
10
8.24404902551325
20
13.3654498553009
30
0
41
1
10
8.34329970847327
20
13.3293483232328
30
0
41
1
10
8.49323798199194
20
13.274130659548
30
0
41
1
10
8.64621739144485
20
13.2159173748582
30
0
41
1
10
8.95588398292551
20
13.0959469290487
30
0
41
1
10
9.1672648741241
20
13.0112605595055
30
0
41
1
10
9.59829719410274
20
12.8343063145166
30
0
41
1
10
9.81795219785633
20
12.7420320689687
30
0
41
1
10
10.2641331122507
20
12.5511740060862
30
0
41
1
10
10.4906593926132
20
12.4525864415007
30
0
41
1
10
10.8346511805921
20
12.3006319559719
30
0
41
1
10
10.9500165300137
20
12.2492988414801
30
0
41
1
10
11.1820060620867
20
12.1453506153261
30
0
41
1
10
11.2987035555442
20
12.0927018176186
30
0
41
1
10
11.6496573824523
20
11.9333079092532
30
0
41
1
10
11.8849289406921
20
11.8250492841759
30
0
41
1
10
12.357462067393
20
11.6048606929949
30
0
41
1
10
12.5947209221311
20
11.4929266114463
30
0
41
1
10
13.0708931001642
20
11.2656073663735
30
0
41
1
10
13.3098044183633
20
11.1502181669944
30
0
41
1
10
13.7893049251537
20
10.9162398865138
30
0
41
1
10
14.0298937327811
20
10.7976473920615
30
0
41
1
10
14.5131703887193
20
10.5576587505094
30
0
41
1
10
14.7558596658969
20
10.4362603978258
30
0
41
1
10
15
20
10.3137740147873
30
0
0
SPLINE
5
CB
100
AcDbEntity
8
1
62
256
6
ByLayer
370
18
48
1
60
0
100
AcDbSpline
70
4
71
3
72
108
73
104
40
0
40
0
40
0
40
0
40
0.0312500000000005
40
0.0312500000000005
40
0.0625000000000011
40
0.0625000000000011
40
0.0937500000000016
40
0.0937500000000016
40
0.125000000000002
40
0.125000000000002
40
0.140625000000002
40
0.140625000000002
40
0.148437500000002
40
0.148437500000002
40
0.156250000000002
40
0.156250000000002
40
0.1875
40
0.1875
40
0.218749999999998
40
0.218749999999998
40
0.249999999999997
40
0.249999999999997
40
0.257812499999996
40
0.257812499999996
40
0.265624999999995
40
0.265624999999995
40
0.281249999999995
40
0.281249999999995
40
0.312499999999995
40
0.312499999999995
40
0.343749999999996
40
0.343749999999996
40
0.347656249999996
40
0.347656249999996
40
0.351562499999996
40
0.351562499999996
40
0.359374999999996
40
0.374999999999996
40
0.374999999999996
40
0.406249999999998
40
0.406249999999998
40
0.414062499999998
40
0.417968749999998
40
0.417968749999998
40
0.421874999999999
40
0.421874999999999
40
0.437499999999999
40
0.437499999999999
40
0.468750000000001
40
0.468750000000001
40
0.484375000000002
40
0.484375000000002
40
0.488281250000003
40
0.488281250000003
40
0.492187500000003
40
0.492187500000003
40
0.500000000000003
40
0.500000000000003
40
0.531250000000006
40
0.531250000000006
40
0.546875000000007
40
0.546875000000007
40
0.550781250000007
40
0.550781250000007
40
0.554687500000007
40
0.562500000000009
40
0.562500000000009
40
0.593750000000012
40
0.593750000000012
40
0.601562500000012
40
0.605468750000012
40
0.609375000000012
40
0.609375000000012
40
0.625000000000015
40
0.625000000000015
40
0.656250000000019
40
0.656250000000019
40
0.687500000000022
40
0.687500000000022
40
0.695312500000022
40
0.695312500000022
40
0.703125000000023
40
0.718750000000022
40
0.718750000000022
40
0.750000000000019
40
0.750000000000019
40
0.781250000000017
40
0.781250000000017
40
0.812500000000014
40
0.812500000000014
40
0.828125000000013
40
0.828125000000013
40
0.843750000000012
40
0.843750000000012
40
0.87500000000001
40
0.87500000000001
40
0.906250000000007
40
0.906250000000007
40
0.937500000000005
40
0.937500000000005
40
0.968750000000002
40
0.968750000000002
40
1
40
1
40
1
40
1
41
1
10
15.0000000000004
20
-6.86072236223919
30
0
41
1
10
14.7286161192119
20
-6.94932286197067
30
0
41
1
10
14.4594536811968
20
-7.04345468187614
30
0
41
1
10
13.9255267982121
20
-7.24273758784187
30
0
41
1
10
13.6607621119085
20
-7.34788799693519
30
0
41
1
10
13.1355911302237
20
-7.56919663414581
30
0
41
1
10
12.8751845375986
20
-7.68535397381254
30
0
41
1
10
12.358703830083
20
-7.92872118094695
30
0
41
1
10
12.1026293198838
20
-8.055929802359
30
0
41
1
10
11.7217653856027
20
-8.25513127598592
30
0
41
1
10
11.5953522684761
20
-8.32293065406159
30
0
41
1
10
11.4065472812963
20
-8.42674951297371
30
0
41
1
10
11.3437238358136
20
-8.46172361883472
30
0
41
1
10
11.218787260439
20
-8.5321330827835
30
0
41
1
10
11.1566218277503
20
-8.56759680477495
30
0
41
1
10
10.847308633178
20
-8.74618977343434
30
0
41
1
10
10.6046962201716
20
-8.89313948257092
30
0
41
1
10
10.1292393444936
20
-9.19470335827415
30
0
41
1
10
9.89639275675924
20
-9.34931714607796
30
0
41
1
10
9.4407553146348
20
-9.66579479112377
30
0
41
1
10
9.21796059940513
20
-9.82765788319861
30
0
41
1
10
8.94610964462242
20
-10.034314302957
30
0
41
1
10
8.8920724584593
20
-10.0758622186626
30
0
41
1
10
8.78467706767097
20
-10.1593873402519
30
0
41
1
10
8.73127127314112
20
-10.201403416403
30
0
41
1
10
8.57287085901456
20
-10.3274666978259
30
0
41
1
10
8.46947129764223
20
-10.4116972340555
30
0
41
1
10
8.16596884608296
20
-10.6647396399151
30
0
41
1
10
7.97253733240811
20
-10.8339056682457
30
0
41
1
10
7.60449457115178
20
-11.1719860770445
30
0
41
1
10
7.42986767070914
20
-11.3409049884497
30
0
41
1
10
7.24510596459319
20
-11.5300393795001
30
0
41
1
10
7.2247401397789
20
-11.5510416571919
30
0
41
1
10
7.1843404761309
20
-11.5930179407207
30
0
41
1
10
7.16428985853671
20
-11.6140097980602
30
0
41
1
10
7.1048281597659
20
-11.6767440855859
30
0
41
1
10
6.98857114241417
20
-11.8013426426952
30
0
41
1
10
6.88036110421339
20
-11.9232128459283
30
0
41
1
10
6.67493016291712
20
-12.1629632420171
30
0
41
1
10
6.55255949207839
20
-12.3175010350525
30
0
41
1
10
6.41956228485279
20
-12.50259784646
30
0
41
1
10
6.38116869273372
20
-12.557518392634
30
0
41
1
10
6.34510967820455
20
-12.6114753582044
30
0
41
1
10
6.32159902016835
20
-12.6472263536405
30
0
41
1
10
6.31011483827726
20
-12.6649821673823
30
0
41
1
10
6.25431276076665
20
-12.7527553176041
30
0
41
1
10
6.21461264949937
20
-12.8201085217731
30
0
41
1
10
6.1102985309056
20
-13.0134136973518
30
0
41
1
10
6.06038745126131
20
-13.1306460208428
30
0
41
1
10
6.01622635289979
20
-13.2878459141043
30
0
41
1
10
6.00664339533702
20
-13.3371296986161
30
0
41
1
10
6.00138891155873
20
-13.3946417782659
30
0
41
1
10
6.00067473849802
20
-13.4059393349735
30
0
41
1
10
5.9999295451407
20
-13.4281188409774
30
0
41
1
10
5.99990007102787
20
-13.4389766535785
30
0
41
1
10
6.00083396884881
20
-13.470753564327
30
0
41
1
10
6.00281753436769
20
-13.4909208686464
30
0
41
1
10
6.01941384493071
20
-13.586773263122
30
0
41
1
10
6.05395863616818
20
-13.647562824938
30
0
41
1
10
6.13657758242147
20
-13.7161388302256
30
0
41
1
10
6.16927141382087
20
-13.7352181199862
30
0
41
1
10
6.21660875145787
20
-13.7543948155213
30
0
41
1
10
6.22640735362444
20
-13.75799804748
30
0
41
1
10
6.24655994484627
20
-13.7647090081597
30
0
41
1
10
6.27765040302791
20
-13.7740450733351
30
0
41
1
10
6.31128161790437
20
-13.7812372638735
30
0
41
1
10
6.42886228724549
20
-13.8006359488137
30
0
41
1
10
6.54037584124723
20
-13.8015761469342
30
0
41
1
10
6.69973627021298
20
-13.7868404183859
30
0
41
1
10
6.74904865835427
20
-13.7812209703872
30
0
41
1
10
6.81776110129115
20
-13.7713986635821
30
0
41
1
10
6.85310004706037
20
-13.765719944463
30
0
41
1
10
6.94232783756408
20
-13.7506385560509
30
0
41
1
10
7.01678361922725
20
-13.7357098688151
30
0
41
1
10
7.24864778430324
20
-13.6832547852868
30
0
41
1
10
7.41452398967888
20
-13.6380966380123
30
0
41
1
10
7.76603434246047
20
-13.5310963146578
30
0
41
1
10
7.95168697714971
20
-13.4692363979254
30
0
41
1
10
8.19481189046388
20
-13.3831326251206
30
0
41
1
10
8.24404902551319
20
-13.3654498553009
30
0
41
1
10
8.34329970847327
20
-13.3293483232329
30
0
41
1
10
8.49323798199194
20
-13.274130659548
30
0
41
1
10
8.64621739144482
20
-13.2159173748582
30
0
41
1
10
8.95588398292543
20
-13.0959469290487
30
0
41
1
10
9.16726487412407
20
-13.0112605595056
30
0
41
1
10
9.59829719410271
20
-12.8343063145166
30
0
41
1
10
9.81795219785633
20
-12.7420320689687
30
0
41
1
10
10.2641331122507
20
-12.5511740060862
30
0
41
1
10
10.4906593926132
20
-12.4525864415008
30
0
41
1
10
10.8346511805921
20
-12.3006319559719
30
0
41
1
10
10.9500165300136
20
-12.2492988414801
30
0
41
1
10
11.1820060620867
20
-12.1453506153261
30
0
41
1
10
11.2987035555442
20
-12.0927018176186
30
0
41
1
10
11.6496573824523
20
-11.9333079092532
30
0
41
1
10
11.8849289406921
20
-11.8250492841759
30
0
41
1
10
12.357462067393
20
-11.6048606929949
30
0
41
1
10
12.5947209221311
20
-11.4929266114462
30
0
41
1
10
13.0708931001642
20
-11.2656073663735
30
0
41
1
10
13.3098044183633
20
-11.1502181669944
30
0
41
1
10
13.7893049251537
20
-10.9162398865138
30
0
41
1
10
14.0298937327811
20
-10.7976473920615
30
0
41
1
10
14.5131703887193
20
-10.5576587505094
30
0
41
1
10
14.7558596658969
20
-10.4362603978258
30
0
41
1
10
15
20
-10.3137740147873
30
0
0
SPLINE
5
CC
100
AcDbEntity
8
1
62
256
6
ByLayer
370
13
48
1
60
0
100
AcDbSpline
70
4
71
3
72
140
73
136
40
0
40
0
40
0
40
0
40
0.015625
40
0.015625
40
0.03125
40
0.03125
40
0.046875
40
0.046875
40
0.0625
40
0.0625
40
0.078125
40
0.078125
40
0.09375
40
0.09375
40
0.109375
40
0.109375
40
0.125
40
0.125
40
0.140625
40
0.140625
40
0.15625
40
0.15625
40
0.171875
40
0.171875
40
0.1875
40
0.1875
40
0.203125
40
0.203125
40
0.21875
40
0.21875
40
0.234375
40
0.234375
40
0.25
40
0.25
40
0.2578125
40
0.2578125
40
0.265625
40
0.265625
40
0.28125
40
0.28125
40
0.296875
40
0.296875
40
0.3125
40
0.3125
40
0.328125
40
0.328125
40
0.34375
40
0.34375
40
0.359375
40
0.359375
40
0.375
40
0.375
40
0.390625
40
0.390625
40
0.40625
40
0.40625
40
0.421875
40
0.421875
40
0.4375
40
0.4375
40
0.453125
40
0.453125
40
0.46875
40
0.46875
40
0.484375
40
0.484375
40
0.5
40
0.5
40
0.515625
40
0.515625
40
0.5234375
40
0.5234375
40
0.53125
40
0.53125
40
0.546875
40
0.546875
40
0.5625
40
0.5625
40
0.578125
40
0.578125
40
0.59375
40
0.59375
40
0.609375
40
0.609375
40
0.625
40
0.625
40
0.640625
40
0.640625
40
0.65625
40
0.65625
40
0.671875
40
0.671875
40
0.6875
40
0.6875
40
0.703125
40
0.703125
40
0.71875
40
0.71875
40
0.734375
40
0.734375
40
0.75
40
0.75
40
0.765625
40
0.765625
40
0.78125
40
0.78125
40
0.7890625
40
0.7890625
40
0.796875
40
0.796875
40
0.8125
40
0.8125
40
0.828125
40
0.828125
40
0.84375
40
0.84375
40
0.859375
40
0.859375
40
0.875
40
0.875
40
0.890625
40
0.890625
40
0.90625
40
0.90625
40
0.921875
40
0.921875
40
0.9375
40
0.9375
40
0.953125
40
0.953125
40
0.96875
40
0.96875
40
0.984375
40
0.984375
40
1
40
1
40
1
40
1
41
1
10
46.2867744418141
20
11.708
30
0
41
1
10
46.3406903900193
20
11.708
30
0
41
1
10
46.3946063382245
20
11.694078818271
30
0
41
1
10
46.5024382346348
20
11.6356471561658
30
0
41
1
10
46.55635418284
20
11.5911305626003
30
0
41
1
10
46.6641860792504
20
11.4692170823289
30
0
41
1
10
46.7181020274556
20
11.3918142090942
30
0
41
1
10
46.825933923866
20
11.2024882224417
30
0
41
1
10
46.8798498720712
20
11.0905598853761
30
0
41
1
10
46.9876817684816
20
10.8313647999209
30
0
41
1
10
47.0415977166868
20
10.684094269874
30
0
41
1
10
47.1494296130971
20
10.3543561293391
30
0
41
1
10
47.2033455613024
20
10.1718867905362
30
0
41
1
10
47.3111774577127
20
9.77293677645898
30
0
41
1
10
47.3650934059179
20
9.556456847291
30
0
41
1
10
47.4729253023283
20
9.09173194378056
30
0
41
1
10
47.5268412505336
20
8.84349031695754
30
0
41
1
10
47.6346731469439
20
8.31848762344111
30
0
41
1
10
47.6885890951491
20
8.04173228503132
30
0
41
1
10
47.7964209915595
20
7.46380974540048
30
0
41
1
10
47.8503369397647
20
7.16265010240951
30
0
41
1
10
47.9581688361751
20
6.54068676491761
30
0
41
1
10
48.0120847843803
20
6.21989166669653
30
0
41
1
10
48.1199166807907
20
5.5638398818173
30
0
41
1
10
48.1738326289958
20
5.22859193571549
30
0
41
1
10
48.2816645254062
20
4.54896800210645
30
0
41
1
10
48.3355804736114
20
4.20460005665501
30
0
41
1
10
48.4434123700218
20
3.51196583989011
30
0
41
1
10
48.497328318227
20
3.16370624865675
30
0
41
1
10
48.6051602146374
20
2.46819141602046
30
0
41
1
10
48.6590761628426
20
2.12094108519617
30
0
41
1
10
48.766908059253
20
1.43184521543967
30
0
41
1
10
48.8208240074582
20
1.09000268219302
30
0
41
1
10
48.901697929766
20
0.584126861968059
30
0
41
1
10
48.9286559038686
20
0.416644463260326
30
0
41
1
10
48.9825718520737
20
0.0843737225045516
30
0
41
1
10
49.0095298261763
20
-0.0796822612447556
30
0
41
1
10
49.0904037484841
20
-0.578011926773655
30
0
41
1
10
49.1443196966893
20
-0.91564851078013
30
0
41
1
10
49.2521515930998
20
-1.5983209372142
30
0
41
1
10
49.3060675413049
20
-1.94335470938091
30
0
41
1
10
49.4138994377153
20
-2.63672713997639
30
0
41
1
10
49.4678153859205
20
-2.98506184851817
30
0
41
1
10
49.5756472823309
20
-3.68037224112837
30
0
41
1
10
49.629563230536
20
-4.02734210467202
30
0
41
1
10
49.7373951269465
20
-4.71483618630288
30
0
41
1
10
49.7913110751516
20
-5.05535298180479
30
0
41
1
10
49.899142971562
20
-5.7246315651085
30
0
41
1
10
49.9530589197672
20
-6.05338486832156
30
0
41
1
10
50.0608908161776
20
-6.69384533793342
30
0
41
1
10
50.1148067643828
20
-7.00554372325138
30
0
41
1
10
50.2226386607932
20
-7.60688361700855
30
0
41
1
10
50.2765546089985
20
-7.89651693429471
30
0
41
1
10
50.3843865054088
20
-8.44925443997397
30
0
41
1
10
50.438302453614
20
-8.71235188966074
30
0
41
1
10
50.5461343500245
20
-9.20831111505197
30
0
41
1
10
50.6000502982296
20
-9.44116829200638
30
0
41
1
10
50.70788219464
20
-9.87387864657063
30
0
41
1
10
50.7617981428452
20
-10.0737297596154
30
0
41
1
10
50.8696300392555
20
-10.4386990497581
30
0
41
1
10
50.9235459874607
20
-10.6038177424272
30
0
41
1
10
51.0313778838712
20
-10.8986557222565
30
0
41
1
10
51.0852938320764
20
-11.0283778219846
30
0
41
1
10
51.1931257284868
20
-11.2527673024385
30
0
41
1
10
51.2470416766919
20
-11.34743926249
30
0
41
1
10
51.3548735731023
20
-11.5029711744199
30
0
41
1
10
51.4087895213075
20
-11.5638368122671
30
0
41
1
10
51.5166214177179
20
-11.653740192202
30
0
41
1
10
51.5705373659231
20
-11.6827840568986
30
0
41
1
10
51.6514112882309
20
-11.7043882882173
30
0
41
1
10
51.6783692623334
20
-11.7079332395291
30
0
41
1
10
51.7322852105386
20
-11.7080648915392
30
0
41
1
10
51.7592431846412
20
-11.7046549833212
30
0
41
1
10
51.8401171069491
20
-11.6834657570857
30
0
41
1
10
51.8940330551543
20
-11.6547116555493
30
0
41
1
10
52.0018649515646
20
-11.5654095589044
30
0
41
1
10
52.0557808997698
20
-11.5048554400377
30
0
41
1
10
52.1636127961802
20
-11.3499621560422
30
0
41
1
10
52.2175287443854
20
-11.2556172977425
30
0
41
1
10
52.3253606407958
20
-11.0318898198164
30
0
41
1
10
52.379276589001
20
-10.9025026071899
30
0
41
1
10
52.4871084854114
20
-10.6083330981135
30
0
41
1
10
52.5410244336166
20
-10.4435479695854
30
0
41
1
10
52.648856330027
20
-10.0792345916781
30
0
41
1
10
52.7027722782321
20
-9.87970580318961
30
0
41
1
10
52.8106041746425
20
-9.44761881288457
30
0
41
1
10
52.8645201228477
20
-9.21506265087092
30
0
41
1
10
52.9723520192581
20
-8.71967468172804
30
0
41
1
10
53.0262679674633
20
-8.45684745068192
30
0
41
1
10
53.1340998638737
20
-7.90461142447833
30
0
41
1
10
53.1880158120789
20
-7.61520935060975
30
0
41
1
10
53.2958477084893
20
-7.01428671937757
30
0
41
1
10
53.3497636566945
20
-6.70277434330126
30
0
41
1
10
53.4575955531049
20
-6.06263673614887
30
0
41
1
10
53.5115115013101
20
-5.73402028480936
30
0
41
1
10
53.6193433977205
20
-5.06496482283151
30
0
41
1
10
53.6732593459257
20
-4.72453430346624
30
0
41
1
10
53.781091242336
20
-4.03716318724446
30
0
41
1
10
53.8350071905412
20
-3.69023002596776
30
0
41
1
10
53.9428390869516
20
-2.99494656569544
30
0
41
1
10
53.9967550351568
20
-2.64660210408218
30
0
41
1
10
54.1045869315672
20
-1.95316847118278
30
0
41
1
10
54.1585028797724
20
-1.60808326790777
30
0
41
1
10
54.2663347761828
20
-0.925272185754949
30
0
41
1
10
54.320250724388
20
-0.587548394276496
30
0
41
1
10
54.4011246466958
20
-0.0890659414513379
30
0
41
1
10
54.4280826207983
20
0.0749915586181089
30
0
41
1
10
54.4819985690036
20
0.407160302699083
30
0
41
1
10
54.5089565431061
20
0.574595359330601
30
0
41
1
10
54.5898304654139
20
1.08034134789341
30
0
41
1
10
54.6437464136192
20
1.4221136059011
30
0
41
1
10
54.7515783100295
20
2.11110771273854
30
0
41
1
10
54.8054942582348
20
2.45832657375473
30
0
41
1
10
54.9133261546451
20
3.1538226677375
30
0
41
1
10
54.9672421028503
20
3.50209500793486
30
0
41
1
10
55.0750739992607
20
4.19480294577767
30
0
41
1
10
55.1289899474659
20
4.53923187861585
30
0
41
1
10
55.2368218438763
20
5.21902813486886
30
0
41
1
10
55.2907377920815
20
5.55438742637122
30
0
41
1
10
55.3985696884919
20
6.21071208595308
30
0
41
1
10
55.4524856366971
20
6.53166871633206
30
0
41
1
10
55.5603175331074
20
7.15400264669628
30
0
41
1
10
55.6142334813127
20
7.45537134480898
30
0
41
1
10
55.722065377723
20
8.03375441425564
30
0
41
1
10
55.7759813259282
20
8.31076121354187
30
0
41
1
10
55.8838132223386
20
8.83630197923347
30
0
41
1
10
55.9377291705438
20
9.08483019698235
30
0
41
1
10
56.0455610669542
20
9.55015452413556
30
0
41
1
10
56.0994770151594
20
9.76694726189413
30
0
41
1
10
56.2073089115697
20
10.1665392660843
30
0
41
1
10
56.261224859775
20
10.3493377618566
30
0
41
1
10
56.3690567561854
20
10.6797405035059
30
0
41
1
10
56.4229727043906
20
10.8273464558585
30
0
41
1
10
56.530804600801
20
11.0872090780928
30
0
41
1
10
56.5847205490061
20
11.1994695128585
30
0
41
1
10
56.6386364972113
20
11.2944586915471
30
0
0
SPLINE
5
CD
100
AcDbEntity
8
1
62
256
6
ByLayer
370
13
48
1
60
0
100
AcDbSpline
70
4
71
3
72
8
73
4
40
0
40
0
40
0
40
0
40
1
40
1
40
1
40
1
41
1
10
56.5090263393407
20
11.708
30
0
41
1
10
56.5522297252976
20
11.708
30
0
41
1
10
56.5954331112544
20
11.69906492445
30
0
41
1
10
56.6386364972113
20
11.6804782793014
30
0
0
SPLINE
5
CE
100
AcDbEntity
8
1
62
256
6
ByLayer
370
13
48
1
60
0
100
AcDbSpline
70
4
71
3
72
10
73
6
40
0
40
0
40
0
40
0
40
0.5
40
0.5
40
1
40
1
40
1
40
1
41
1
10
45.8
20
11.0326378911922
30
0
41
1
10
45.9027308569361
20
11.2668718670799
30
0
41
1
10
46.0054617138722
20
11.4367906578739
30
0
41
1
10
46.2109234277443
20
11.6572800675026
30
0
41
1
10
46.3136542846804
20
11.708
30
0
41
1
10
46.4163851416165
20
11.708
30
0
0
SPLINE
5
CF
100
AcDbEntity
8
1
62
256
6
ByLayer
370
13
48
1
60
0
100
AcDbSpline
70
4
71
3
72
134
73
130
40
0
40
0
40
0
40
0
40
0.015625
40
0.015625
40
0.03125
40
0.03125
40
0.046875
40
0.046875
40
0.0625
40
0.0625
40
0.078125
40
0.078125
40
0.09375
40
0.09375
40
0.109375
40
0.109375
40
0.125
40
0.125
40
0.140625
40
0.140625
40
0.15625
40
0.15625
40
0.171875
40
0.171875
40
0.1875
40
0.1875
40
0.203125
40
0.203125
40
0.21875
40
0.21875
40
0.234375
40
0.234375
40
0.25
40
0.25
40
0.265625
40
0.265625
40
0.28125
40
0.28125
40
0.296875
40
0.296875
40
0.3125
40
0.3125
40
0.328125
40
0.328125
40
0.34375
40
0.34375
40
0.359375
40
0.359375
40
0.375
40
0.375
40
0.390625
40
0.390625
40
0.40625
40
0.40625
40
0.421875
40
0.421875
40
0.4375
40
0.4375
40
0.453125
40
0.453125
40
0.46875
40
0.46875
40
0.484375
40
0.484375
40
0.5
40
0.5
40
0.515625
40
0.515625
40
0.53125
40
0.53125
40
0.546875
40
0.546875
40
0.5625
40
0.5625
40
0.578125
40
0.578125
40
0.59375
40
0.59375
40
0.609375
40
0.609375
40
0.625
40
0.625
40
0.640625
40
0.640625
40
0.65625
40
0.65625
40
0.671875
40
0.671875
40
0.6875
40
0.6875
40
0.703125
40
0.703125
40
0.71875
40
0.71875
40
0.734375
40
0.734375
40
0.75
40
0.75
40
0.765625
40
0.765625
40
0.78125
40
0.78125
40
0.796875
40
0.796875
40
0.8125
40
0.8125
40
0.828125
40
0.828125
40
0.84375
40
0.84375
40
0.859375
40
0.859375
40
0.875
40
0.875
40
0.890625
40
0.890625
40
0.90625
40
0.90625
40
0.921875
40
0.921875
40
0.9375
40
0.9375
40
0.953125
40
0.953125
40
0.96875
40
0.96875
40
0.984375
40
0.984375
40
1
40
1
40
1
40
1
41
1
10
45.8000005419318
20
11.708
30
0
41
1
10
45.8564517708656
20
11.708
30
0
41
1
10
45.9129029997994
20
11.6927370617156
30
0
41
1
10
46.0258054576668
20
11.6285430879926
30
0
41
1
10
46.0822566866006
20
11.5796043549358
30
0
41
1
10
46.1951591444681
20
11.4454741921457
30
0
41
1
10
46.2516103734018
20
11.3602752878346
30
0
41
1
10
46.3645128312693
20
11.1518428108675
30
0
41
1
10
46.420964060203
20
11.0286028738329
30
0
41
1
10
46.5338665180705
20
10.7433201550146
30
0
41
1
10
46.5903177470043
20
10.5812730506301
30
0
41
1
10
46.7032202048718
20
10.218785525161
30
0
41
1
10
46.7596714338056
20
10.0183436277792
30
0
41
1
10
46.872573891673
20
9.58074365675677
30
0
41
1
10
46.9290251206068
20
9.34358744785709
30
0
41
1
10
47.0419275784743
20
8.83549932588801
30
0
41
1
10
47.098378807408
20
8.56457266141533
30
0
41
1
10
47.2112812652755
20
7.99304041268761
30
0
41
1
10
47.2677324942093
20
7.69244299956978
30
0
41
1
10
47.3806349520767
20
7.06661877305734
30
0
41
1
10
47.4370861810105
20
6.74140215135282
30
0
41
1
10
47.549988638878
20
6.07206243792331
30
0
41
1
10
47.6064398678118
20
5.72795038349153
30
0
41
1
10
47.7193423256793
20
5.0268929642526
30
0
41
1
10
47.775793554613
20
4.66995825980496
30
0
41
1
10
47.8886960124805
20
3.94934875639299
30
0
41
1
10
47.9451472414142
20
3.5856831898916
30
0
41
1
10
48.0580496992817
20
2.857422989035
30
0
41
1
10
48.1145009282155
20
2.49283543638268
30
0
41
1
10
48.2274033860829
20
1.76801292102741
30
0
41
1
10
48.2838546150167
20
1.40778255865936
30
0
41
1
10
48.3967570728842
20
0.696250560100282
30
0
41
1
10
48.453208301818
20
0.344951078825289
30
0
41
1
10
48.5661107596855
20
-0.344949423064094
30
0
41
1
10
48.6225619886192
20
-0.696248866606339
30
0
41
1
10
48.7354644464867
20
-1.40778083679973
30
0
41
1
10
48.7919156754205
20
-1.7680111883318
30
0
41
1
10
48.9048181332879
20
-2.49283368993017
30
0
41
1
10
48.9612693622217
20
-2.85742123966563
30
0
41
1
10
49.0741718200892
20
-3.58568144361195
30
0
41
1
10
49.1306230490229
20
-3.94934701612374
30
0
41
1
10
49.2435255068904
20
-4.66995654114848
30
0
41
1
10
49.2999767358241
20
-5.0268912612014
30
0
41
1
10
49.4128791936916
20
-5.72794872146699
30
0
41
1
10
49.4693304226254
20
-6.07206080132164
30
0
41
1
10
49.5822328804929
20
-6.74140057512364
30
0
41
1
10
49.6386841094266
20
-7.0666172317774
30
0
41
1
10
49.7515865672941
20
-7.69244153689317
30
0
41
1
10
49.8080377962279
20
-7.99303899366279
30
0
41
1
10
49.9209402540954
20
-8.56457133708508
30
0
41
1
10
49.9773914830291
20
-8.83549805259648
30
0
41
1
10
50.0902939408966
20
-9.3435862823253
30
0
41
1
10
50.1467451698304
20
-9.58074254794087
30
0
41
1
10
50.2596476276979
20
-10.0183426361149
30
0
41
1
10
50.3160988566316
20
-10.218784593927
30
0
41
1
10
50.4290013144991
20
-10.5812722419237
30
0
41
1
10
50.4854525434328
20
-10.7433194084006
30
0
41
1
10
50.5983550013003
20
-11.0286022510896
30
0
41
1
10
50.6548062302341
20
-11.1518422498984
30
0
41
1
10
50.7677086881016
20
-11.3602748483275
30
0
41
1
10
50.8241599170354
20
-11.4454738123238
30
0
41
1
10
50.9370623749029
20
-11.5796040909327
30
0
41
1
10
50.9935136038366
20
-11.6285428801221
30
0
41
1
10
51.1064160617041
20
-11.6927369614548
30
0
41
1
10
51.1628672906379
20
-11.7079999512166
30
0
41
1
10
51.2757697485053
20
-11.7080000487832
30
0
41
1
10
51.3322209774391
20
-11.6927371619762
30
0
41
1
10
51.4451234353066
20
-11.6285432958629
30
0
41
1
10
51.5015746642403
20
-11.5796046189387
30
0
41
1
10
51.6144771221078
20
-11.4454745719674
30
0
41
1
10
51.6709283510416
20
-11.3602757273415
30
0
41
1
10
51.7838308089091
20
-11.1518433718363
30
0
41
1
10
51.8402820378428
20
-11.028603496576
30
0
41
1
10
51.9531844957103
20
-10.7433209016283
30
0
41
1
10
52.0096357246441
20
-10.5812738593362
30
0
41
1
10
52.1225381825115
20
-10.2187864563948
30
0
41
1
10
52.1789894114453
20
-10.0183446194432
30
0
41
1
10
52.2918918693128
20
-9.5807447655724
30
0
41
1
10
52.3483430982465
20
-9.34358861338856
30
0
41
1
10
52.461245556114
20
-8.83550059917928
30
0
41
1
10
52.5176967850478
20
-8.56457398574534
30
0
41
1
10
52.6305992429153
20
-7.99304183171219
30
0
41
1
10
52.687050471849
20
-7.69244446224616
30
0
41
1
10
52.7999529297165
20
-7.06662031433711
30
0
41
1
10
52.8564041586503
20
-6.7414037275818
30
0
41
1
10
52.9693066165177
20
-6.07206407452483
30
0
41
1
10
53.0257578454515
20
-5.72795204551596
30
0
41
1
10
53.138660303319
20
-5.02689466730374
30
0
41
1
10
53.1951115322527
20
-4.66995997846141
30
0
41
1
10
53.3080139901202
20
-3.94935049666219
30
0
41
1
10
53.3644652190539
20
-3.58568493617122
30
0
41
1
10
53.4773676769215
20
-2.85742473840438
30
0
41
1
10
53.5338189058552
20
-2.49283718283516
30
0
41
1
10
53.6467213637227
20
-1.76801465372307
30
0
41
1
10
53.7031725926564
20
-1.40778428051908
30
0
41
1
10
53.8160750505239
20
-0.696252253594281
30
0
41
1
10
53.8725262794577
20
-0.344952754793269
30
0
41
1
10
53.9854287373252
20
0.344947787509511
30
0
41
1
10
54.0418799662589
20
0.696247173112511
30
0
41
1
10
54.1547824241264
20
1.40777911494016
30
0
41
1
10
54.2112336530602
20
1.76800945563625
30
0
41
1
10
54.3241361109277
20
2.49283194347771
30
0
41
1
10
54.3805873398614
20
2.85741949029625
30
0
41
1
10
54.493489797729
20
3.58567969733227
30
0
41
1
10
54.5499410266627
20
3.94934527585448
30
0
41
1
10
54.6628434845302
20
4.66995482249192
30
0
41
1
10
54.7192947134639
20
5.02688955815009
30
0
41
1
10
54.8321971713314
20
5.72794705944233
30
0
41
1
10
54.8886484002652
20
6.07205916471986
30
0
41
1
10
55.0015508581327
20
6.74139899889431
30
0
41
1
10
55.0580020870664
20
7.06661569049732
30
0
41
1
10
55.1709045449339
20
7.69244007421639
30
0
41
1
10
55.2273557738676
20
7.99303757463775
30
0
41
1
10
55.3402582317351
20
8.56457001275459
30
0
41
1
10
55.3967094606689
20
8.83549677930469
30
0
41
1
10
55.5096119185364
20
9.34358511679329
30
0
41
1
10
55.5660631474702
20
9.58074143912472
30
0
41
1
10
55.6789656053377
20
10.0183416444503
30
0
41
1
10
55.7354168342714
20
10.2187836626926
30
0
41
1
10
55.8483192921389
20
10.581271433217
30
0
41
1
10
55.9047705210726
20
10.7433186617863
30
0
41
1
10
56.0176729789401
20
11.0286016283459
30
0
41
1
10
56.0741242078738
20
11.1518416889291
30
0
41
1
10
56.1870266657413
20
11.3602744088201
30
0
41
1
10
56.2434778946751
20
11.4454734325016
30
0
41
1
10
56.3563803525426
20
11.5796038269293
30
0
41
1
10
56.4128315814763
20
11.6285426722513
30
0
41
1
10
56.5257340393438
20
11.6927368611938
30
0
41
1
10
56.5821852682776
20
11.7079999024328
30
0
41
1
10
56.6386364972113
20
11.7079999999995
30
0
0
SPLINE
5
D0
100
AcDbEntity
8
1
62
256
6
ByLayer
370
13
48
1
60
0
100
AcDbSpline
70
4
71
3
72
10
73
6
40
0
40
0
40
0
40
0
40
0.5
40
0.5
40
1
40
1
40
1
40
1
41
1
10
56.0222524394585
20
11.708
30
0
41
1
10
56.1249831157506
20
11.708
30
0
41
1
10
56.2277137920428
20
11.6572802468313
30
0
41
1
10
56.433175144627
20
11.4367916416827
30
0
41
1
10
56.5359058209192
20
11.2668734773111
30
0
41
1
10
56.6386364972113
20
11.0326403624794
30
0
0
SPLINE
5
D1
100
AcDbEntity
8
1
62
256
6
ByLayer
370
13
48
1
60
0
100
AcDbSpline
70
4
71
3
72
8
73
4
40
0
40
0
40
0
40
0
40
1
40
1
40
1
40
1
41
1
10
45.8
20
11.6804778130075
30
0
41
1
10
45.8432037472448
20
11.6990647749031
30
0
41
1
10
45.8864074944895
20
11.708
30
0
41
1
10
45.9296112417343
20
11.708
30
0
0
SPLINE
5
D2
100
AcDbEntity
8
1
62
256
6
ByLayer
370
13
48
1
60
0
100
AcDbSpline
70
4
71
3
72
140
73
136
40
0
40
0
40
0
40
0
40
0.015625
40
0.015625
40
0.03125
40
0.03125
40
0.046875
40
0.046875
40
0.0625
40
0.0625
40
0.078125
40
0.078125
40
0.09375
40
0.09375
40
0.109375
40
0.109375
40
0.125
40
0.125
40
0.140625
40
0.140625
40
0.15625
40
0.15625
40
0.171875
40
0.171875
40
0.1875
40
0.1875
40
0.203125
40
0.203125
40
0.2109375
40
0.2109375
40
0.21875
40
0.21875
40
0.234375
40
0.234375
40
0.25
40
0.25
40
0.265625
40
0.265625
40
0.28125
40
0.28125
40
0.296875
40
0.296875
40
0.3125
40
0.3125
40
0.328125
40
0.328125
40
0.34375
40
0.34375
40
0.359375
40
0.359375
40
0.375
40
0.375
40
0.390625
40
0.390625
40
0.40625
40
0.40625
40
0.421875
40
0.421875
40
0.4375
40
0.4375
40
0.453125
40
0.453125
40
0.46875
40
0.46875
40
0.4765625
40
0.4765625
40
0.484375
40
0.484375
40
0.5
40
0.5
40
0.515625
40
0.515625
40
0.53125
40
0.53125
40
0.546875
40
0.546875
40
0.5625
40
0.5625
40
0.578125
40
0.578125
40
0.59375
40
0.59375
40
0.609375
40
0.609375
40
0.625
40
0.625
40
0.640625
40
0.640625
40
0.65625
40
0.65625
40
0.671875
40
0.671875
40
0.6875
40
0.6875
40
0.703125
40
0.703125
40
0.71875
40
0.71875
40
0.734375
40
0.734375
40
0.7421875
40
0.7421875
40
0.75
40
0.75
40
0.765625
40
0.765625
40
0.78125
40
0.78125
40
0.796875
40
0.796875
40
0.8125
40
0.8125
40
0.828125
40
0.828125
40
0.84375
40
0.84375
40
0.859375
40
0.859375
40
0.875
40
0.875
40
0.890625
40
0.890625
40
0.90625
40
0.90625
40
0.921875
40
0.921875
40
0.9375
40
0.9375
40
0.953125
40
0.953125
40
0.96875
40
0.96875
40
0.984375
40
0.984375
40
1
40
1
40
1
40
1
41
1
10
45.8
20
11.294460601097
30
0
41
1
10
45.8539159538503
20
11.1994716434371
30
0
41
1
10
45.9078319077006
20
11.0872114302482
30
0
41
1
10
46.0156638154013
20
10.8273492460503
30
0
41
1
10
46.0695797692516
20
10.6797435101434
30
0
41
1
10
46.1774116769522
20
10.3493411896843
30
0
41
1
10
46.2313276308025
20
10.1665428986408
30
0
41
1
10
46.3391595385032
20
9.76695128572342
30
0
41
1
10
46.3930754923534
20
9.55015873449273
30
0
41
1
10
46.5009074000541
20
9.08483475631522
30
0
41
1
10
46.5548233539045
20
8.83630670099996
30
0
41
1
10
46.6626552616051
20
8.31076623125372
30
0
41
1
10
46.7165712154554
20
8.03375956546896
30
0
41
1
10
46.824403123156
20
7.45537673069018
30
0
41
1
10
46.8783190770064
20
7.15400813373898
30
0
41
1
10
46.9861509847071
20
6.53167437161056
30
0
41
1
10
47.0400669385574
20
6.21071780830684
30
0
41
1
10
47.147898846258
20
5.5543932487563
30
0
41
1
10
47.2018148001082
20
5.21903399021636
30
0
41
1
10
47.3096467078089
20
4.5392377673441
30
0
41
1
10
47.3635626616592
20
4.19480883493466
30
0
41
1
10
47.4713945693598
20
3.50210086833047
30
0
41
1
10
47.5253105232102
20
3.15382849895556
30
0
41
1
10
47.6331424309108
20
2.4583323209217
30
0
41
1
10
47.6870583847611
20
2.11111340504496
30
0
41
1
10
47.7948902924617
20
1.42211916731944
30
0
41
1
10
47.8488062463121
20
1.08034683329609
30
0
41
1
10
47.9296801770876
20
0.574600718402309
30
0
41
1
10
47.9566381540127
20
0.407165617609905
30
0
41
1
10
48.010554107863
20
0.0749967816927892
30
0
41
1
10
48.0375120847882
20
-0.0890607329604904
30
0
41
1
10
48.1183860155636
20
-0.587543153583823
30
0
41
1
10
48.172301969414
20
-0.925266932843783
30
0
41
1
10
48.2801338771146
20
-1.60807801151299
30
0
41
1
10
48.3340498309649
20
-1.95316322353108
30
0
41
1
10
48.4418817386656
20
-2.64659689674565
30
0
41
1
10
48.4957976925159
20
-2.9949413899385
30
0
41
1
10
48.6036296002165
20
-3.69022493723932
30
0
41
1
10
48.6575455540668
20
-4.03715815397061
30
0
41
1
10
48.7653774617674
20
-4.72452940497246
30
0
41
1
10
48.8192934156178
20
-5.06496000366593
30
0
41
1
10
48.9271253233184
20
-5.73401564700328
30
0
41
1
10
48.9810412771687
20
-6.06263220037297
30
0
41
1
10
49.0888731848694
20
-6.70277003192513
30
0
41
1
10
49.1427891387197
20
-7.01428253036576
30
0
41
1
10
49.2506210464203
20
-7.61520542320164
30
0
41
1
10
49.3045370002706
20
-7.9046076363006
30
0
41
1
10
49.4123689079712
20
-8.45684395349093
30
0
41
1
10
49.4662848618216
20
-8.71967133628178
30
0
41
1
10
49.5741167695222
20
-9.21505961652039
30
0
41
1
10
49.6280327233725
20
-9.44761593787234
30
0
41
1
10
49.7358646310732
20
-9.87970324934062
30
0
41
1
10
49.7897805849234
20
-10.079232199642
30
0
41
1
10
49.8976124926241
20
-10.4435458987198
30
0
41
1
10
49.9515284464744
20
-10.6083311865956
30
0
41
1
10
50.0593603541751
20
-10.902501007481
30
0
41
1
10
50.1132763080254
20
-11.0318883725623
30
0
41
1
10
50.221108215726
20
-11.2556161448445
30
0
41
1
10
50.2750241695764
20
-11.3499611450424
30
0
41
1
10
50.382856077277
20
-11.5048546995264
30
0
41
1
10
50.4367720311273
20
-11.5654089469836
30
0
41
1
10
50.5446039388279
20
-11.6547112857047
30
0
41
1
10
50.5985198926782
20
-11.6834655007296
30
0
41
1
10
50.6793938234537
20
-11.7046548852052
30
0
41
1
10
50.7063518003789
20
-11.7080648441303
30
0
41
1
10
50.7602677542292
20
-11.7079332897077
30
0
41
1
10
50.7872257311543
20
-11.7043883877411
30
0
41
1
10
50.8680996619298
20
-11.682784305728
30
0
41
1
10
50.9220156157802
20
-11.6537405422749
30
0
41
1
10
51.0298475234808
20
-11.5638373658498
30
0
41
1
10
51.0837634773311
20
-11.5029718302652
30
0
41
1
10
51.1915953850317
20
-11.3474401211065
30
0
41
1
10
51.245511338882
20
-11.252768261558
30
0
41
1
10
51.3533432465827
20
-11.0283789773323
30
0
41
1
10
51.407259200433
20
-10.8986569733224
30
0
41
1
10
51.5150911081337
20
-10.6038191770687
30
0
41
1
10
51.5690070619839
20
-10.4387005722491
30
0
41
1
10
51.6768389696846
20
-10.0737314470255
30
0
41
1
10
51.7307549235349
20
-9.87388041104268
30
0
41
1
10
51.8385868312355
20
-9.44117019730038
30
0
41
1
10
51.8925027850858
20
-9.20831308409964
30
0
41
1
10
52.0003346927865
20
-8.71235397100145
30
0
41
1
10
52.0542506466368
20
-8.44925656984998
30
0
41
1
10
52.1620825543375
20
-7.89651914488419
30
0
41
1
10
52.2159985081878
20
-7.60688585977493
30
0
41
1
10
52.3238304158884
20
-7.0055460137242
30
0
41
1
10
52.3777463697387
20
-6.6938476439374
30
0
41
1
10
52.4855782774394
20
-6.05338718929687
30
0
41
1
10
52.5394942312897
20
-5.72463388552825
30
0
41
1
10
52.6473261389903
20
-5.0553552863347
30
0
41
1
10
52.7012420928406
20
-4.71483847550462
30
0
41
1
10
52.8090740005412
20
-4.0273443503489
30
0
41
1
10
52.8629899543915
20
-3.6803744586154
30
0
41
1
10
52.9708218620922
20
-2.98506399906634
30
0
41
1
10
53.0247378159425
20
-2.6367292517823
30
0
41
1
10
53.1325697236432
20
-1.94335673564271
30
0
41
1
10
53.1864856774935
20
-1.59832291668005
30
0
41
1
10
53.294317585194
20
-0.915650391091987
30
0
41
1
10
53.3482335390444
20
-0.578013754731984
30
0
41
1
10
53.4291074698199
20
-0.0796840082547021
30
0
41
1
10
53.4560654467451
20
0.0843719923252877
30
0
41
1
10
53.5099814005954
20
0.416642749278566
30
0
41
1
10
53.5369393775205
20
0.584125157035601
30
0
41
1
10
53.617813308296
20
1.09000100728798
30
0
41
1
10
53.6717292621464
20
1.43184356440426
30
0
41
1
10
53.779561169847
20
2.12093948948552
30
0
41
1
10
53.8334771236972
20
2.46818985176631
30
0
41
1
10
53.9413090313979
20
3.16370475438717
30
0
41
1
10
53.9952249852482
20
3.51196438414874
30
0
41
1
10
54.1030568929489
20
4.20459868410131
30
0
41
1
10
54.1569728467992
20
4.54896667421087
30
0
41
1
10
54.2648047544998
20
5.22859070191652
30
0
41
1
10
54.3187207083501
20
5.563838697454
30
0
41
1
10
54.4265526160508
20
6.21989058428576
30
0
41
1
10
54.480468569901
20
6.54068573501951
30
0
41
1
10
54.5883004776017
20
7.16264917867804
30
0
41
1
10
54.642216431452
20
7.46380887531785
30
0
41
1
10
54.7500483391526
20
8.04173152134896
30
0
41
1
10
54.803964293003
20
8.31848691250485
30
0
41
1
10
54.9117962007036
20
8.84348970863815
30
0
41
1
10
54.9657121545539
20
9.09173138532708
30
0
41
1
10
55.0735440622546
20
9.55645638393148
30
0
41
1
10
55.1274600161049
20
9.77293635832388
30
0
41
1
10
55.2352919238055
20
10.1718864567937
30
0
41
1
10
55.2892078776558
20
10.3543558347627
30
0
41
1
10
55.3970397853565
20
10.6840940465853
30
0
41
1
10
55.4509557392068
20
10.8313646087535
30
0
41
1
10
55.5587876469074
20
11.0905597508837
30
0
41
1
10
55.6127036007577
20
11.2024881125042
30
0
41
1
10
55.7205355084584
20
11.391814140626
30
0
41
1
10
55.7744514623087
20
11.4692170307776
30
0
41
1
10
55.8822833700093
20
11.5911305375639
30
0
41
1
10
55.9361993238596
20
11.6356471407306
30
0
41
1
10
56.0440312315602
20
11.6940788153524
30
0
41
1
10
56.0979471854106
20
11.708
30
0
41
1
10
56.1518631392609
20
11.708
30
0
0
SPLINE
5
D3
100
AcDbEntity
8
1
62
256
6
ByLayer
370
13
48
1
60
0
100
AcDbSpline
70
4
71
3
72
14
73
10
40
0
40
0
40
0
40
0
40
0.25
40
0.25
40
0.5
40
0.5
40
0.75
40
0.75
40
1
40
1
40
1
40
1
41
1
10
55.5354785395763
20
11.708
30
0
41
1
10
55.6274083693792
20
11.708
30
0
41
1
10
55.7193381991822
20
11.6674270651574
30
0
41
1
10
55.903197858788
20
11.4922764908135
30
0
41
1
10
55.9951276885909
20
11.3576119477478
30
0
41
1
10
56.1789873481967
20
10.9862870446607
30
0
41
1
10
56.2709171779996
20
10.749559640343
30
0
41
1
10
56.4547768376055
20
10.1735621140989
30
0
41
1
10
56.5467066674084
20
9.83427147153435
30
0
41
1
10
56.6386364972113
20
9.44786432723362
30
0
0
SPLINE
5
D4
100
AcDbEntity
8
1
62
256
6
ByLayer
370
13
48
1
60
0
100
AcDbSpline
70
4
71
3
72
126
73
122
40
0
40
0
40
0
40
0
40
0.0156249999999999
40
0.0156249999999999
40
0.0312499999999998
40
0.0312499999999998
40
0.0468749999999997
40
0.0468749999999997
40
0.0624999999999997
40
0.0624999999999997
40
0.0781249999999996
40
0.0781249999999996
40
0.0937499999999996
40
0.0937499999999996
40
0.109375
40
0.109375
40
0.124999999999999
40
0.124999999999999
40
0.156249999999999
40
0.156249999999999
40
0.171874999999999
40
0.171874999999999
40
0.179687499999999
40
0.179687499999999
40
0.187499999999999
40
0.187499999999999
40
0.218749999999999
40
0.218749999999999
40
0.234374999999999
40
0.234374999999999
40
0.249999999999999
40
0.249999999999999
40
0.265624999999999
40
0.265624999999999
40
0.281249999999999
40
0.281249999999999
40
0.296874999999999
40
0.296874999999999
40
0.312499999999999
40
0.312499999999999
40
0.328124999999999
40
0.328124999999999
40
0.343749999999999
40
0.343749999999999
40
0.359374999999999
40
0.359374999999999
40
0.374999999999999
40
0.374999999999999
40
0.390624999999999
40
0.390624999999999
40
0.406249999999998
40
0.406249999999998
40
0.437499999999998
40
0.437499999999998
40
0.445312499999998
40
0.445312499999998
40
0.449218749999998
40
0.449218749999998
40
0.453124999999998
40
0.453124999999998
40
0.468749999999998
40
0.468749999999998
40
0.499999999999998
40
0.499999999999998
40
0.515624999999998
40
0.515624999999998
40
0.531249999999998
40
0.531249999999998
40
0.546874999999998
40
0.546874999999998
40
0.562499999999998
40
0.562499999999998
40
0.578124999999998
40
0.578124999999998
40
0.593749999999998
40
0.593749999999998
40
0.609374999999998
40
0.609374999999998
40
0.624999999999998
40
0.624999999999998
40
0.640624999999998
40
0.640624999999998
40
0.656249999999998
40
0.656249999999998
40
0.687499999999998
40
0.687499999999998
40
0.718749999999998
40
0.718749999999998
40
0.722656249999998
40
0.722656249999998
40
0.726562499999998
40
0.726562499999998
40
0.734374999999998
40
0.734374999999998
40
0.749999999999998
40
0.749999999999998
40
0.781249999999998
40
0.781249999999998
40
0.796874999999999
40
0.796874999999999
40
0.812499999999999
40
0.812499999999999
40
0.828124999999999
40
0.828124999999999
40
0.843749999999999
40
0.843749999999999
40
0.859374999999999
40
0.859374999999999
40
0.874999999999999
40
0.874999999999999
40
0.890624999999999
40
0.890624999999999
40
0.906249999999999
40
0.906249999999999
40
0.921874999999999
40
0.921874999999999
40
0.9375
40
0.9375
40
0.96875
40
0.96875
40
1
40
1
40
1
40
1
41
1
10
45.8
20
9.96107166660533
30
0
41
1
10
45.8513806731218
20
9.7703651893585
30
0
41
1
10
45.9027613462435
20
9.5642339146105
30
0
41
1
10
46.0055226924871
20
9.12306055321477
30
0
41
1
10
46.0569033656088
20
8.88802104199047
30
0
41
1
10
46.1596647118524
20
8.39179773653689
30
0
41
1
10
46.2110453849741
20
8.13061831800226
30
0
41
1
10
46.3138067312177
20
7.58560313391163
30
0
41
1
10
46.3651874043394
20
7.30177316648232
30
0
41
1
10
46.467948750583
20
6.71551194273417
30
0
41
1
10
46.5193294237048
20
6.41308735671817
30
0
41
1
10
46.6220907699483
20
5.79406977083858
30
0
41
1
10
46.67347144307
20
5.47748367866345
30
0
41
1
10
46.7762327893135
20
4.83474758798459
30
0
41
1
10
46.8276134624353
20
4.5086041151738
30
0
41
1
10
46.9303748086788
20
3.85132554200786
30
0
41
1
10
46.9817554818006
20
3.52019607023669
30
0
41
1
10
47.1358975011659
20
2.52585399672677
30
0
41
1
10
47.2386588474094
20
1.86194010119277
30
0
41
1
10
47.3928008667747
20
0.887016350012516
30
0
41
1
10
47.4441815398964
20
0.565474317896246
30
0
41
1
10
47.5212525495791
20
0.0905303116766163
30
0
41
1
10
47.5469428861399
20
-0.065844515777826
30
0
41
1
10
47.5983235592617
20
-0.382217400834293
30
0
41
1
10
47.6240138958226
20
-0.541636323307614
30
0
41
1
10
47.7524655786271
20
-1.34401706057932
30
0
41
1
10
47.8552269248706
20
-2.00316582857124
30
0
41
1
10
48.0093689442358
20
-2.9968440332228
30
0
41
1
10
48.0607496173576
20
-3.32882828425122
30
0
41
1
10
48.1635109636012
20
-3.99014439222077
30
0
41
1
10
48.2148916367229
20
-4.31947124528165
30
0
41
1
10
48.3176529829665
20
-4.9709952299703
30
0
41
1
10
48.3690336560882
20
-5.29318625312374
30
0
41
1
10
48.4717950023317
20
-5.92582783735617
30
0
41
1
10
48.5231756754535
20
-6.23627161932924
30
0
41
1
10
48.625937021697
20
-6.84086974232341
30
0
41
1
10
48.6773176948188
20
-7.13501720767871
30
0
41
1
10
48.7800790410624
20
-7.70274265205305
30
0
41
1
10
48.8314597141841
20
-7.97631429779759
30
0
41
1
10
48.9342210604276
20
-8.49907764119641
30
0
41
1
10
48.9856017335494
20
-8.74826415497401
30
0
41
1
10
49.0883630797929
20
-9.21909140624552
30
0
41
1
10
49.1397437529146
20
-9.4407285871593
30
0
41
1
10
49.2425050991582
20
-9.8540687866126
30
0
41
1
10
49.2938857722799
20
-10.0457701502384
30
0
41
1
10
49.3966471185234
20
-10.3977067960739
30
0
41
1
10
49.4480277916453
20
-10.5579423615739
30
0
41
1
10
49.5507891378888
20
-10.8462924468445
30
0
41
1
10
49.6021698110105
20
-10.9744089986751
30
0
41
1
10
49.7049311572541
20
-11.1987073800756
30
0
41
1
10
49.7563118303758
20
-11.2948926264785
30
0
41
1
10
49.9104538497411
20
-11.5369627662986
30
0
41
1
10
50.0132151959847
20
-11.6361244573112
30
0
41
1
10
50.1416668787891
20
-11.6914675564362
30
0
41
1
10
50.1673572153499
20
-11.6991245215374
30
0
41
1
10
50.2058927201913
20
-11.7057136540409
30
0
41
1
10
50.2187378884717
20
-11.7070941387864
30
0
41
1
10
50.2444282250326
20
-11.7082619161268
30
0
41
1
10
50.257273393313
20
-11.7080550108819
30
0
41
1
10
50.3214992347153
20
-11.7030287270539
30
0
41
1
10
50.3728799078371
20
-11.6861675038965
30
0
41
1
10
50.5270219272024
20
-11.5935607077716
30
0
41
1
10
50.6297832734458
20
-11.4755048498834
30
0
41
1
10
50.7839252928111
20
-11.2039377606232
30
0
41
1
10
50.8353059659329
20
-11.0977333968715
30
0
41
1
10
50.9380673121764
20
-10.8532504582544
30
0
41
1
10
50.9894479852981
20
-10.7149688570274
30
0
41
1
10
51.0922093315417
20
-10.4064008959016
30
0
41
1
10
51.1435900046635
20
-10.2361130239825
30
0
41
1
10
51.246351350907
20
-9.86445955168244
30
0
41
1
10
51.2977320240288
20
-9.66309426983904
30
0
41
1
10
51.4004933702723
20
-9.23108956398215
30
0
41
1
10
51.4518740433941
20
-9.0004524110465
30
0
41
1
10
51.5546353896376
20
-8.51254552166822
30
0
41
1
10
51.6060160627593
20
-8.25527989628614
30
0
41
1
10
51.7087774090029
20
-7.7174991856929
30
0
41
1
10
51.7601580821247
20
-7.4369897070095
30
0
41
1
10
51.8629194283681
20
-6.85669865910134
30
0
41
1
10
51.9143001014899
20
-6.55692366363749
30
0
41
1
10
52.0170614477334
20
-5.94248828652476
30
0
41
1
10
52.0684421208552
20
-5.62783481781352
30
0
41
1
10
52.1712034670987
20
-4.98823372941888
30
0
41
1
10
52.2225841402205
20
-4.66329273358625
30
0
41
1
10
52.3767261595857
20
-3.67991397739473
30
0
41
1
10
52.4794875058293
20
-3.01311105573257
30
0
41
1
10
52.6850101983164
20
-1.69086588671848
30
0
41
1
10
52.7877715445599
20
-1.03552578489482
30
0
41
1
10
52.9033780590839
20
-0.319710567383652
30
0
41
1
10
52.9162232273644
20
-0.240467772316521
30
0
41
1
10
52.9419135639252
20
-0.0826087494624801
30
0
41
1
10
52.9547587322056
20
-0.0042098736801677
30
0
41
1
10
52.993294237047
20
0.231878523002564
30
0
41
1
10
53.0189845736079
20
0.390554919614488
30
0
41
1
10
53.0960555832905
20
0.869927666929811
30
0
41
1
10
53.1474362564123
20
1.19398482514959
30
0
41
1
10
53.3015782757775
20
2.17487713472667
30
0
41
1
10
53.4043396220211
20
2.84065122818632
30
0
41
1
10
53.5584816413864
20
3.83373454112154
30
0
41
1
10
53.6098623145081
20
4.16377305909532
30
0
41
1
10
53.7126236607517
20
4.81744116203734
30
0
41
1
10
53.7640043338734
20
5.14106478850067
30
0
41
1
10
53.866765680117
20
5.77730100372747
30
0
41
1
10
53.9181463532387
20
6.08990688400169
30
0
41
1
10
54.0209076994823
20
6.69953519461959
30
0
41
1
10
54.072288372604
20
6.99655072264343
30
0
41
1
10
54.1750497188476
20
7.57066206280584
30
0
41
1
10
54.2264303919693
20
7.84775141360396
30
0
41
1
10
54.3291917382129
20
8.37811324951218
30
0
41
1
10
54.3805724113346
20
8.63138033304855
30
0
41
1
10
54.4833337575781
20
9.1108198985543
30
0
41
1
10
54.5347144306999
20
9.33698854279348
30
0
41
1
10
54.6374757769434
20
9.75971331322955
30
0
41
1
10
54.6888564500652
20
9.95626747550693
30
0
41
1
10
54.7916177963087
20
10.3180932070617
30
0
41
1
10
54.8429984694305
20
10.483364760714
30
0
41
1
10
54.945759815674
20
10.7818327948808
30
0
41
1
10
54.9971404887957
20
10.915031051766
30
0
41
1
10
55.1512825081611
20
11.2666000456454
30
0
41
1
10
55.2540438544046
20
11.4366245825353
30
0
41
1
10
55.4595665468916
20
11.657249795552
30
0
41
1
10
55.5623278931352
20
11.708
30
0
41
1
10
55.6650892393787
20
11.708
30
0
0
SPLINE
5
D5
100
AcDbEntity
8
1
62
256
6
ByLayer
370
13
48
1
60
0
100
AcDbSpline
70
4
71
3
72
22
73
18
40
0
40
0
40
0
40
0
40
0.125
40
0.125
40
0.25
40
0.25
40
0.375
40
0.375
40
0.5
40
0.5
40
0.625
40
0.625
40
0.75
40
0.75
40
0.875
40
0.875
40
1
40
1
40
1
40
1
41
1
10
55.048704639694
20
11.708
30
0
41
1
10
55.1149518004239
20
11.708
30
0
41
1
10
55.1811989611538
20
11.6869696591002
30
0
41
1
10
55.3136932826136
20
11.5978390913124
30
0
41
1
10
55.3799404433434
20
11.5297217204586
30
0
41
1
10
55.5124347648032
20
11.342536412588
30
0
41
1
10
55.5786819255331
20
11.2234524982757
30
0
41
1
10
55.7111762469929
20
10.9321204700318
30
0
41
1
10
55.7774234077228
20
10.759860342129
30
0
41
1
10
55.9099177291826
20
10.36206031713
30
0
41
1
10
55.9761648899124
20
10.1365150649972
30
0
41
1
10
56.1086592113722
20
9.63439786083688
30
0
41
1
10
56.1749063721021
20
9.35782905002515
30
0
41
1
10
56.3074006935619
20
8.75832558591222
30
0
41
1
10
56.3736478542918
20
8.43540289066198
30
0
41
1
10
56.5061421757516
20
7.75003335307835
30
0
41
1
10
56.5723893364815
20
7.3876058201644
30
0
41
1
10
56.6386364972113
20
7.00968926969315
30
0
0
SPLINE
5
D6
100
AcDbEntity
8
1
62
256
6
ByLayer
370
13
48
1
60
0
100
AcDbSpline
70
4
71
3
72
82
73
78
40
0
40
0
40
0
40
0
40
0.0312500000000007
40
0.0312500000000007
40
0.0625000000000014
40
0.0625000000000014
40
0.0937500000000021
40
0.0937500000000021
40
0.125000000000003
40
0.125000000000003
40
0.132812500000003
40
0.132812500000003
40
0.140625000000003
40
0.140625000000003
40
0.156250000000003
40
0.156250000000003
40
0.187500000000003
40
0.187500000000003
40
0.218750000000004
40
0.218750000000004
40
0.250000000000004
40
0.250000000000004
40
0.281250000000004
40
0.281250000000004
40
0.312500000000004
40
0.312500000000004
40
0.343750000000004
40
0.343750000000004
40
0.375000000000004
40
0.375000000000004
40
0.406250000000005
40
0.406250000000005
40
0.421875000000005
40
0.421875000000005
40
0.429687500000005
40
0.429687500000005
40
0.437500000000005
40
0.437500000000005
40
0.468750000000005
40
0.468750000000005
40
0.500000000000004
40
0.500000000000004
40
0.531250000000004
40
0.531250000000004
40
0.562500000000004
40
0.562500000000004
40
0.593750000000004
40
0.593750000000004
40
0.625000000000004
40
0.625000000000004
40
0.656250000000004
40
0.656250000000004
40
0.687500000000004
40
0.687500000000004
40
0.703125000000004
40
0.703125000000004
40
0.710937500000004
40
0.710937500000004
40
0.718750000000004
40
0.718750000000004
40
0.750000000000003
40
0.750000000000003
40
0.781250000000003
40
0.781250000000003
40
0.812500000000002
40
0.812500000000002
40
0.843750000000002
40
0.843750000000002
40
0.875000000000002
40
0.875000000000002
40
0.906250000000001
40
0.906250000000001
40
0.937500000000001
40
0.937500000000001
40
0.96875
40
0.96875
40
1
40
1
40
1
40
1
41
1
10
45.8
20
7.72813866750022
30
0
41
1
10
45.8976907847864
20
7.20331828581337
30
0
41
1
10
45.9953815695729
20
6.63852224677692
30
0
41
1
10
46.1907631391457
20
5.4584172820536
30
0
41
1
10
46.2884539239321
20
4.8432779263035
30
0
41
1
10
46.483835493505
20
3.59434828693602
30
0
41
1
10
46.5815262782914
20
2.96069781771598
30
0
41
1
10
46.7769078478642
20
1.70390427729311
30
0
41
1
10
46.8745986326507
20
1.08083982813488
30
0
41
1
10
46.9967121136337
20
0.323003695050858
30
0
41
1
10
47.0211348098303
20
0.172468918222791
30
0
41
1
10
47.0699802022235
20
-0.126248396671372
30
0
41
1
10
47.0944028984201
20
-0.276328176538897
30
0
41
1
10
47.1676709870099
20
-0.730386539823712
30
0
41
1
10
47.2165163794031
20
-1.0372981716267
30
0
41
1
10
47.3630525565828
20
-1.96671818720972
30
0
41
1
10
47.4607433413692
20
-2.59809969420627
30
0
41
1
10
47.656124910942
20
-3.85835812814298
30
0
41
1
10
47.7538156957285
20
-4.48712540779041
30
0
41
1
10
47.9491972653013
20
-5.71128206392109
30
0
41
1
10
48.0468880500877
20
-6.30651186663076
30
0
41
1
10
48.2422696196606
20
-7.43210564509516
30
0
41
1
10
48.3399604044469
20
-7.96230387701937
30
0
41
1
10
48.5353419740198
20
-8.93080346585472
30
0
41
1
10
48.6330327588063
20
-9.36898727751901
30
0
41
1
10
48.8284143283791
20
-10.1353397183748
30
0
41
1
10
48.9261051131654
20
-10.4634755537244
30
0
41
1
10
49.1214866827384
20
-11.002892839183
30
0
41
1
10
49.2191774675247
20
-11.2142264504893
30
0
41
1
10
49.4145590370976
20
-11.5241531649166
30
0
41
1
10
49.512249821884
20
-11.6228521011305
30
0
41
1
10
49.6587859990637
20
-11.6957618188405
30
0
41
1
10
49.7076313914569
20
-11.707596935749
30
0
41
1
10
49.7808994800467
20
-11.70818633057
30
0
41
1
10
49.8053221762433
20
-11.7055328808537
30
0
41
1
10
49.8541675686365
20
-11.6942629552964
30
0
41
1
10
49.8785902648331
20
-11.6856460558725
30
0
41
1
10
50.0007037458161
20
-11.6270276671116
30
0
41
1
10
50.0983945306026
20
-11.5301752174886
30
0
41
1
10
50.2937761001755
20
-11.2240965871574
30
0
41
1
10
50.3914668849618
20
-11.0147640182269
30
0
41
1
10
50.5868484545347
20
-10.4793341659434
30
0
41
1
10
50.6845392393211
20
-10.1531834700456
30
0
41
1
10
50.879920808894
20
-9.39058859500088
30
0
41
1
10
50.9776115936803
20
-8.95417563921831
30
0
41
1
10
51.1729931632532
20
-7.98882287171611
30
0
41
1
10
51.2706839480396
20
-7.45999936680184
30
0
41
1
10
51.4660655176125
20
-6.33663859552328
30
0
41
1
10
51.5637563023989
20
-5.74226669368466
30
0
41
1
10
51.7591378719717
20
-4.5192744150973
30
0
41
1
10
51.8568286567582
20
-3.89081415424692
30
0
41
1
10
52.0522102263311
20
-2.63066722756426
30
0
41
1
10
52.1499010111174
20
-1.99909128870385
30
0
41
1
10
52.296437188297
20
-1.06908272887648
30
0
41
1
10
52.3452825806903
20
-0.761925771002979
30
0
41
1
10
52.4185506692801
20
-0.307437462918159
30
0
41
1
10
52.4429733654767
20
-0.156978994972974
30
0
41
1
10
52.4918187578699
20
0.141576338910312
30
0
41
1
10
52.5162414540664
20
0.291878944914174
30
0
41
1
10
52.6383549350495
20
1.04900205832044
30
0
41
1
10
52.736045719836
20
1.67166254704114
30
0
41
1
10
52.9314272894088
20
2.92810105823162
30
0
41
1
10
53.0291180741952
20
3.56180160804124
30
0
41
1
10
53.224499643768
20
4.81136631906307
30
0
41
1
10
53.3221904285545
20
5.42709153707702
30
0
41
1
10
53.5175719981273
20
6.60891299591586
30
0
41
1
10
53.6152627829138
20
7.17483976542343
30
0
41
1
10
53.8106443524865
20
8.22720814469454
30
0
41
1
10
53.908335137273
20
8.71350219112304
30
0
41
1
10
54.1037167068458
20
9.58365427930812
30
0
41
1
10
54.2014074916323
20
9.9674354201164
30
0
41
1
10
54.3967890612051
20
10.6200530647909
30
0
41
1
10
54.4944798459915
20
10.8889023246939
30
0
41
1
10
54.6898614155644
20
11.3105889776083
30
0
41
1
10
54.7875522003508
20
11.4635109473069
30
0
41
1
10
54.9829337699236
20
11.6621579828572
30
0
41
1
10
55.0806245547101
20
11.708
30
0
41
1
10
55.1783153394964
20
11.708
30
0
0
SPLINE
5
D7
100
AcDbEntity
8
1
62
256
6
ByLayer
370
13
48
1
60
0
100
AcDbSpline
70
4
71
3
72
22
73
18
40
0
40
0
40
0
40
0
40
0.125
40
0.125
40
0.25
40
0.25
40
0.375
40
0.375
40
0.5
40
0.5
40
0.625
40
0.625
40
0.75
40
0.75
40
0.875
40
0.875
40
1
40
1
40
1
40
1
41
1
10
54.5619307398118
20
11.708
30
0
41
1
10
54.6484601463701
20
11.708
30
0
41
1
10
54.7349895529284
20
11.672070580505
30
0
41
1
10
54.9080483660451
20
11.5175330769201
30
0
41
1
10
54.9945777726034
20
11.3988604473528
30
0
41
1
10
55.16763658572
20
11.0717259134264
30
0
41
1
10
55.2541659922783
20
10.8632115630481
30
0
41
1
10
55.4272248053949
20
10.3549353024991
30
0
41
1
10
55.5137542119533
20
10.0551509001053
30
0
41
1
10
55.6868130250699
20
9.36972029142595
30
0
41
1
10
55.7733424316282
20
8.98409368198105
30
0
41
1
10
55.9464012447448
20
8.13928914356984
30
0
41
1
10
56.0329306513031
20
7.68017231408314
30
0
41
1
10
56.2059894644198
20
6.70639525012575
30
0
41
1
10
56.2925188709781
20
6.19182282753769
30
0
41
1
10
56.4655776840947
20
5.12853686420172
30
0
41
1
10
56.552107090653
20
4.57991474325596
30
0
41
1
10
56.6386364972113
20
4.02522970743499
30
0
0
SPLINE
5
D8
100
AcDbEntity
8
1
62
256
6
ByLayer
370
13
48
1
60
0
100
AcDbSpline
70
4
71
3
72
80
73
76
40
0
40
0
40
0
40
0
40
0.0312499999999999
40
0.0312499999999999
40
0.0624999999999998
40
0.0624999999999998
40
0.0781249999999997
40
0.0781249999999997
40
0.0859374999999997
40
0.0859374999999997
40
0.0937499999999997
40
0.0937499999999997
40
0.125
40
0.125
40
0.156249999999999
40
0.156249999999999
40
0.187499999999999
40
0.187499999999999
40
0.218749999999999
40
0.218749999999999
40
0.249999999999999
40
0.249999999999999
40
0.281249999999999
40
0.281249999999999
40
0.312499999999999
40
0.312499999999999
40
0.343749999999998
40
0.343749999999998
40
0.374999999999998
40
0.374999999999998
40
0.390624999999998
40
0.390624999999998
40
0.406249999999998
40
0.406249999999998
40
0.437499999999998
40
0.437499999999998
40
0.468749999999998
40
0.468749999999998
40
0.499999999999998
40
0.499999999999998
40
0.531249999999998
40
0.531249999999998
40
0.562499999999997
40
0.562499999999997
40
0.593749999999997
40
0.593749999999997
40
0.624999999999997
40
0.624999999999997
40
0.656249999999997
40
0.656249999999997
40
0.687499999999997
40
0.687499999999997
40
0.695312499999997
40
0.695312499999997
40
0.703124999999997
40
0.703124999999997
40
0.718749999999997
40
0.718749999999997
40
0.749999999999997
40
0.749999999999997
40
0.781249999999998
40
0.781249999999998
40
0.812499999999998
40
0.812499999999998
40
0.843749999999998
40
0.843749999999998
40
0.874999999999999
40
0.874999999999999
40
0.906249999999999
40
0.906249999999999
40
0.937499999999999
40
0.937499999999999
40
0.96875
40
0.96875
40
1
40
1
40
1
40
1
41
1
10
45.8
20
4.85018263077143
30
0
41
1
10
45.8926202233293
20
4.26584525457505
30
0
41
1
10
45.9852404466586
20
3.66843166907952
30
0
41
1
10
46.1704808933173
20
2.47330206196358
30
0
41
1
10
46.2631011166466
20
1.87566603387941
30
0
41
1
10
46.4020314516406
20
0.995527748340635
30
0
41
1
10
46.4483415633052
20
0.704828744030749
30
0
41
1
10
46.5178067308022
20
0.274466128381789
30
0
41
1
10
46.5409617866345
20
0.132048495722984
30
0
41
1
10
46.5872718982992
20
-0.151028426251514
30
0
41
1
10
46.6104269541315
20
-0.293627693745435
30
0
41
1
10
46.7262022332932
20
-1.01131937943117
30
0
41
1
10
46.8188224566225
20
-1.6007228175406
30
0
41
1
10
47.0040629032811
20
-2.79076593555951
30
0
41
1
10
47.0966831266104
20
-3.39134910074154
30
0
41
1
10
47.281923573269
20
-4.57942053411637
30
0
41
1
10
47.3745437965984
20
-5.16680657525117
30
0
41
1
10
47.559784243257
20
-6.30150580136529
30
0
41
1
10
47.6524044665863
20
-6.84869024753257
30
0
41
1
10
47.8376449132449
20
-7.87692004326158
30
0
41
1
10
47.9302651365743
20
-8.35784505257431
30
0
41
1
10
48.1155055832329
20
-9.23228263152575
30
0
41
1
10
48.2081258065622
20
-9.62571935741181
30
0
41
1
10
48.3933662532208
20
-10.3117742196812
30
0
41
1
10
48.4859864765502
20
-10.6043807790187
30
0
41
1
10
48.6712269232088
20
-11.0846018959369
30
0
41
1
10
48.7638471465381
20
-11.2722642214458
30
0
41
1
10
48.9490875931967
20
-11.5470714731691
30
0
41
1
10
49.041707816526
20
-11.6342997494
30
0
41
1
10
49.18063815152
20
-11.6980434671352
30
0
41
1
10
49.2269482631847
20
-11.7081512313034
30
0
41
1
10
49.319568486514
20
-11.7078453503545
30
0
41
1
10
49.3658785981786
20
-11.6974180823207
30
0
41
1
10
49.5048089331726
20
-11.6326784972528
30
0
41
1
10
49.5974291565019
20
-11.5447362667998
30
0
41
1
10
49.7826696031605
20
-11.2684399374988
30
0
41
1
10
49.8752898264898
20
-11.0800026450248
30
0
41
1
10
50.0605302731485
20
-10.5982281414153
30
0
41
1
10
50.1531504964778
20
-10.3048435320941
30
0
41
1
10
50.3383909431365
20
-9.61729778966139
30
0
41
1
10
50.4310111664657
20
-9.22314872458136
30
0
41
1
10
50.6162516131244
20
-8.34741793620395
30
0
41
1
10
50.7088718364537
20
-7.86591249029925
30
0
41
1
10
50.8941122831123
20
-6.83670251078962
30
0
41
1
10
50.9867325064416
20
-6.2891185237041
30
0
41
1
10
51.1719729531003
20
-5.15382290898498
30
0
41
1
10
51.2645931764296
20
-4.56623993893876
30
0
41
1
10
51.4498336230882
20
-3.37797015594077
30
0
41
1
10
51.5424538464175
20
-2.77738527574226
30
0
41
1
10
51.7276942930761
20
-1.58750388904011
30
0
41
1
10
51.8203145164056
20
-0.998263534862105
30
0
41
1
10
51.9360897955672
20
-0.280852006101213
30
0
41
1
10
51.9592448513995
20
-0.138343879734521
30
0
41
1
10
52.0055549630641
20
0.144669816205834
30
0
41
1
10
52.0287100188965
20
0.287239195372877
30
0
41
1
10
52.0981751863935
20
0.717770244628213
30
0
41
1
10
52.1444852980581
20
1.00856635208342
30
0
41
1
10
52.2834156330521
20
1.88894213225325
30
0
41
1
10
52.3760358563814
20
2.48666431286503
30
0
41
1
10
52.56127630304
20
3.68178440808816
30
0
41
1
10
52.6538965263694
20
4.27910198175672
30
0
41
1
10
52.839136973028
20
5.44738261833567
30
0
41
1
10
52.9317571963573
20
6.01822669178733
30
0
41
1
10
53.1169976430159
20
7.10654468475889
30
0
41
1
10
53.2096178663452
20
7.6238891592979
30
0
41
1
10
53.3948583130039
20
8.58105892414929
30
0
41
1
10
53.4874785363332
20
9.02078210609736
30
0
41
1
10
53.6727189829918
20
9.80504771995436
30
0
41
1
10
53.765339206321
20
10.1495452455989
30
0
41
1
10
53.9505796529797
20
10.7344897734944
30
0
41
1
10
54.0431998763091
20
10.9749567236138
30
0
41
1
10
54.2284403229677
20
11.3521416808914
30
0
41
1
10
54.321060546297
20
11.4889287355067
30
0
41
1
10
54.5063009929556
20
11.6668128212466
30
0
41
1
10
54.5989212162849
20
11.708
30
0
41
1
10
54.6915414396142
20
11.708
30
0
0
SPLINE
5
D9
100
AcDbEntity
8
1
62
256
6
ByLayer
370
13
48
1
60
0
100
AcDbSpline
70
4
71
3
72
36
73
32
40
0
40
0
40
0
40
0
40
0.125
40
0.125
40
0.1875
40
0.1875
40
0.25
40
0.25
40
0.3125
40
0.3125
40
0.375
40
0.375
40
0.4375
40
0.4375
40
0.5
40
0.5
40
0.562499999999999
40
0.562499999999999
40
0.625
40
0.625
40
0.6875
40
0.6875
40
0.75
40
0.75
40
0.8125
40
0.8125
40
0.875
40
0.875
40
0.9375
40
0.9375
40
1
40
1
40
1
40
1
41
1
10
54.0751568399296
20
11.708
30
0
41
1
10
54.1819684923163
20
11.708
30
0
41
1
10
54.2887801447031
20
11.6531465331445
30
0
41
1
10
54.4489976232832
20
11.4738516672398
30
0
41
1
10
54.5024034494766
20
11.3979694694689
30
0
41
1
10
54.6092151018633
20
11.2123713598455
30
0
41
1
10
54.6626209280567
20
11.1026504366311
30
0
41
1
10
54.7694325804434
20
10.8485510244187
30
0
41
1
10
54.8228384066367
20
10.7041688653488
30
0
41
1
10
54.9296500590235
20
10.3808426434956
30
0
41
1
10
54.9830558852169
20
10.2018968287105
30
0
41
1
10
55.0898675376036
20
9.81054194268762
30
0
41
1
10
55.143273363797
20
9.5981334426078
30
0
41
1
10
55.2500850161837
20
9.14197389236654
30
0
41
1
10
55.303490842377
20
8.89822587299903
30
0
41
1
10
55.4103024947638
20
8.38247625516979
30
0
41
1
10
55.4637083209572
20
8.11047996248328
30
0
41
1
10
55.570519973344
20
7.54216494443972
30
0
41
1
10
55.6239257995373
20
7.24585330551707
30
0
41
1
10
55.7307374519241
20
6.63349282924801
30
0
41
1
10
55.7841432781174
20
6.31745213234663
30
0
41
1
10
55.8909549305042
20
5.67064145042661
30
0
41
1
10
55.9443607566975
20
5.33987982607866
30
0
41
1
10
56.0511724090843
20
4.66880706618707
30
0
41
1
10
56.1045782352777
20
4.32850371149297
30
0
41
1
10
56.2113898876644
20
3.64345398140233
30
0
41
1
10
56.2647957138578
20
3.2987141623793
30
0
41
1
10
56.3716073662444
20
2.60960732269925
30
0
41
1
10
56.4250131924379
20
2.26524522120462
30
0
41
1
10
56.5318248448246
20
1.58124545612807
30
0
41
1
10
56.5852306710179
20
1.24161091518806
30
0
41
1
10
56.6386364972113
20
0.906221814313597
30
0
0
SPLINE
5
DA
100
AcDbEntity
8
1
62
256
6
ByLayer
370
13
48
1
60
0
100
AcDbSpline
70
4
71
3
72
85
73
81
40
0
40
0
40
0
40
0
40
0.03125
40
0.03125
40
0.0351562499999999
40
0.0351562499999999
40
0.0390624999999999
40
0.0468749999999998
40
0.0468749999999998
40
0.0624999999999995
40
0.0624999999999995
40
0.0937499999999988
40
0.0937499999999988
40
0.124999999999998
40
0.124999999999998
40
0.156249999999997
40
0.156249999999997
40
0.187499999999997
40
0.187499999999997
40
0.218749999999996
40
0.218749999999996
40
0.249999999999995
40
0.249999999999995
40
0.281249999999995
40
0.281249999999995
40
0.312499999999994
40
0.312499999999994
40
0.343749999999993
40
0.343749999999993
40
0.351562499999993
40
0.351562499999993
40
0.359374999999993
40
0.359374999999993
40
0.374999999999993
40
0.374999999999993
40
0.406249999999993
40
0.406249999999993
40
0.437499999999993
40
0.437499999999993
40
0.468749999999993
40
0.468749999999993
40
0.499999999999992
40
0.499999999999992
40
0.531249999999992
40
0.531249999999992
40
0.562499999999992
40
0.562499999999992
40
0.593749999999992
40
0.593749999999992
40
0.624999999999992
40
0.624999999999992
40
0.656249999999992
40
0.656249999999992
40
0.671874999999991
40
0.671874999999991
40
0.675781249999992
40
0.675781249999992
40
0.679687499999992
40
0.679687499999992
40
0.687499999999992
40
0.687499999999992
40
0.718749999999993
40
0.718749999999993
40
0.749999999999993
40
0.749999999999993
40
0.781249999999994
40
0.781249999999994
40
0.812499999999995
40
0.812499999999995
40
0.843749999999996
40
0.843749999999996
40
0.874999999999997
40
0.874999999999997
40
0.906249999999998
40
0.906249999999998
40
0.937499999999998
40
0.937499999999998
40
0.968749999999999
40
0.968749999999999
40
1
40
1
40
1
40
1
41
1
10
45.8
20
1.72751606229471
30
0
41
1
10
45.8875496618723
20
1.16845195565546
30
0
41
1
10
45.9750993237444
20
0.616897702357051
30
0
41
1
10
46.0735926933507
20
0.0133531215748235
30
0
41
1
10
46.0845364010847
20
-0.0534178409040464
30
0
41
1
10
46.1064238165527
20
-0.18772328062181
30
0
41
1
10
46.1392549397548
20
-0.38987097663923
30
0
41
1
10
46.1720860629569
20
-0.593973688538057
30
0
41
1
10
46.2377483093611
20
-1.00445644274134
30
0
41
1
10
46.2815231402971
20
-1.28115705861239
30
0
41
1
10
46.4128476331055
20
-2.11742717644344
30
0
41
1
10
46.5003972949777
20
-2.68328311985627
30
0
41
1
10
46.6754966187221
20
-3.81265730537612
30
0
41
1
10
46.7630462805943
20
-4.37611169532926
30
0
41
1
10
46.9381456043388
20
-5.47856277853907
30
0
41
1
10
47.0256952662109
20
-6.01746882280517
30
0
41
1
10
47.2007945899553
20
-7.04802444848914
30
0
41
1
10
47.2883442518276
20
-7.53957608635522
30
0
41
1
10
47.463443575572
20
-8.45486013383163
30
0
41
1
10
47.5509932374442
20
-8.87851294535275
30
0
41
1
10
47.7260925611886
20
-9.64243616153649
30
0
41
1
10
47.8136422230608
20
-9.98266639608906
30
0
41
1
10
47.9887415468052
20
-10.57104924427
30
0
41
1
10
48.0762912086775
20
-10.8192084761173
30
0
41
1
10
48.2513905324218
20
-11.2221383024008
30
0
41
1
10
48.338940194294
20
-11.3769540775725
30
0
41
1
10
48.5140395180385
20
-11.5984483721513
30
0
41
1
10
48.6015891799107
20
-11.6651926587363
30
0
41
1
10
48.711026257251
20
-11.6998340922831
30
0
41
1
10
48.732913672719
20
-11.7043318097649
30
0
41
1
10
48.7766885036552
20
-11.7086527708494
30
0
41
1
10
48.7985759191232
20
-11.7085019760406
30
0
41
1
10
48.8642381655274
20
-11.7010870168243
30
0
41
1
10
48.9080129964634
20
-11.6867639875357
30
0
41
1
10
49.0393374892717
20
-11.6134873613617
30
0
41
1
10
49.1268871511439
20
-11.5240845241252
30
0
41
1
10
49.3019864748884
20
-11.2553118497006
30
0
41
1
10
49.3895361367606
20
-11.0758797740984
30
0
41
1
10
49.564635460505
20
-10.6233529222498
30
0
41
1
10
49.6521851223772
20
-10.35022173551
30
0
41
1
10
49.8272844461216
20
-9.71346230723088
30
0
41
1
10
49.9148341079938
20
-9.34983970803566
30
0
41
1
10
50.0899334317382
20
-8.54264101054261
30
0
41
1
10
50.1774830936104
20
-8.09911698628096
30
0
41
1
10
50.3525824173548
20
-7.14917307673645
30
0
41
1
10
50.440132079227
20
-6.64284013386637
30
0
41
1
10
50.6152314029715
20
-5.58870505020917
30
0
41
1
10
50.7027810648437
20
-5.04100133251762
30
0
41
1
10
50.8778803885881
20
-3.92704234735152
30
0
41
1
10
50.9654300504603
20
-3.3608720417522
30
0
41
1
10
51.1405293742048
20
-2.23154504915942
30
0
41
1
10
51.2280790360769
20
-1.6684432866023
30
0
41
1
10
51.3594035288852
20
-0.83959669999058
30
0
41
1
10
51.4031783598213
20
-0.565916460053444
30
0
41
1
10
51.4578968984915
20
-0.228207459163002
30
0
41
1
10
51.4688406062255
20
-0.16088449558282
30
0
41
1
10
51.4907280216935
20
-0.0267017828734595
30
0
41
1
10
51.5016717294276
20
0.0400566965461735
30
0
41
1
10
51.5345028526296
20
0.241422976840738
30
0
41
1
10
51.5563902680977
20
0.376590858921844
30
0
41
1
10
51.665827345438
20
1.05652455923664
30
0
41
1
10
51.7533770073103
20
1.61375236103871
30
0
41
1
10
51.9284763310547
20
2.73841890990121
30
0
41
1
10
52.0160259929268
20
3.30581541557262
30
0
41
1
10
52.1911253166712
20
4.43040587580862
30
0
41
1
10
52.2786749785434
20
4.98752460333913
30
0
41
1
10
52.4537743022878
20
6.06887465194339
30
0
41
1
10
52.54132396416
20
6.59300986217281
30
0
41
1
10
52.7164232879045
20
7.5860664242428
30
0
41
1
10
52.8039729497767
20
8.05489357478803
30
0
41
1
10
52.9790722735211
20
8.91831652925777
30
0
41
1
10
53.0666219353933
20
9.31284533017296
30
0
41
1
10
53.2417212591377
20
10.0144760285849
30
0
41
1
10
53.3292709210099
20
10.3215549335215
30
0
41
1
10
53.5043702447544
20
10.8423144491624
30
0
41
1
10
53.5919199066265
20
11.0560174736365
30
0
41
1
10
53.7670192303709
20
11.3912765605839
30
0
41
1
10
53.8545688922432
20
11.5128876749378
30
0
41
1
10
54.0296682159876
20
11.6712152049179
30
0
41
1
10
54.1172178778598
20
11.708
30
0
41
1
10
54.204767539732
20
11.708
30
0
0
SPLINE
5
DB
100
AcDbEntity
8
1
62
256
6
ByLayer
370
13
48
1
60
0
100
AcDbSpline
70
4
71
3
72
41
73
37
40
0
40
0
40
0
40
0
40
0.0625000000000001
40
0.0625000000000001
40
0.125
40
0.125
40
0.1875
40
0.1875
40
0.250000000000001
40
0.250000000000001
40
0.312500000000001
40
0.312500000000001
40
0.375000000000001
40
0.375000000000001
40
0.437500000000001
40
0.437500000000001
40
0.500000000000001
40
0.500000000000001
40
0.562500000000001
40
0.562500000000001
40
0.625000000000001
40
0.625000000000001
40
0.687500000000001
40
0.687500000000001
40
0.750000000000001
40
0.750000000000001
40
0.812500000000001
40
0.812500000000001
40
0.875000000000002
40
0.875000000000002
40
0.890625000000001
40
0.890625000000001
40
0.906250000000001
40
0.937500000000001
40
0.937500000000001
40
1
40
1
40
1
40
1
41
1
10
53.5883829400474
20
11.708
30
0
41
1
10
53.651929889155
20
11.708
30
0
41
1
10
53.7154768382625
20
11.6886520109897
30
0
41
1
10
53.8425707364777
20
11.6068216386285
30
0
41
1
10
53.9061176855853
20
11.5443253296338
30
0
41
1
10
54.0332115838005
20
11.3726988309142
30
0
41
1
10
54.096758532908
20
11.2635554970541
30
0
41
1
10
54.2238524311232
20
10.9965136071878
30
0
41
1
10
54.2873993802308
20
10.83860476698
30
0
41
1
10
54.414493278446
20
10.4736484133298
30
0
41
1
10
54.4780402275536
20
10.2665955348001
30
0
41
1
10
54.6051341257687
20
9.80494804855169
30
0
41
1
10
54.6686810748763
20
9.55035451645892
30
0
41
1
10
54.7957749730915
20
8.99727254508662
30
0
41
1
10
54.859321922199
20
8.69879212431076
30
0
41
1
10
54.9864158204142
20
8.0634974401529
30
0
41
1
10
55.0499627695218
20
7.726697365088
30
0
41
1
10
55.1770566677369
20
7.02190130167384
30
0
41
1
10
55.2406036168445
20
6.65392372318334
30
0
41
1
10
55.3676975150596
20
5.89498990729808
30
0
41
1
10
55.4312444641673
20
5.50405362637994
30
0
41
1
10
55.5583383623824
20
4.70791265822365
30
0
41
1
10
55.62188531149
20
4.30272671617752
30
0
41
1
10
55.7489792097052
20
3.48669863597678
30
0
41
1
10
55.8125261588127
20
3.07587180206087
30
0
41
1
10
55.9396200570279
20
2.25655740174523
30
0
41
1
10
56.0031670061354
20
1.84808038349297
30
0
41
1
10
56.1302609043506
20
1.04045236495188
30
0
41
1
10
56.1938078534583
20
0.641306839360141
30
0
41
1
10
56.2732415398427
20
0.151789530882724
30
0
41
1
10
56.2891282771196
20
0.0545820263966732
30
0
41
1
10
56.3209017516734
20
-0.139863681793315
30
0
41
1
10
56.3685619635041
20
-0.433015481038837
30
0
41
1
10
56.4162221753348
20
-0.730274899820273
30
0
41
1
10
56.5115425989962
20
-1.3292411479824
30
0
41
1
10
56.5750895481037
20
-1.73452019007612
30
0
41
1
10
56.6386364972113
20
-2.14253883820697
30
0
0
SPLINE
5
DC
100
AcDbEntity
8
1
62
256
6
ByLayer
370
13
48
1
60
0
100
AcDbSpline
70
4
71
3
72
80
73
76
40
0
40
0
40
0
40
0
40
0.0312500000000012
40
0.0312500000000012
40
0.0625000000000024
40
0.0625000000000024
40
0.0937500000000036
40
0.0937500000000036
40
0.125000000000005
40
0.125000000000005
40
0.156250000000006
40
0.156250000000006
40
0.187500000000007
40
0.187500000000007
40
0.218750000000008
40
0.218750000000008
40
0.25000000000001
40
0.25000000000001
40
0.281250000000011
40
0.281250000000011
40
0.312500000000012
40
0.312500000000012
40
0.316406250000012
40
0.316406250000012
40
0.320312500000012
40
0.328125000000012
40
0.328125000000012
40
0.343750000000012
40
0.343750000000012
40
0.375000000000012
40
0.375000000000012
40
0.406250000000012
40
0.406250000000012
40
0.437500000000012
40
0.437500000000012
40
0.468750000000013
40
0.468750000000013
40
0.500000000000013
40
0.500000000000013
40
0.531250000000013
40
0.531250000000013
40
0.562500000000013
40
0.562500000000013
40
0.593750000000013
40
0.593750000000013
40
0.625000000000013
40
0.625000000000013
40
0.656250000000013
40
0.656250000000013
40
0.660156250000013
40
0.660156250000013
40
0.664062500000013
40
0.671875000000013
40
0.671875000000013
40
0.687500000000012
40
0.687500000000012
40
0.718750000000011
40
0.718750000000011
40
0.75000000000001
40
0.75000000000001
40
0.781250000000009
40
0.781250000000009
40
0.812500000000007
40
0.812500000000007
40
0.843750000000006
40
0.843750000000006
40
0.875000000000005
40
0.875000000000005
40
0.906250000000004
40
0.906250000000004
40
0.937500000000003
40
0.937500000000003
40
0.968750000000001
40
0.968750000000001
40
1
40
1
40
1
40
1
41
1
10
45.8
20
-1.31514795885559
30
0
41
1
10
45.8824791004151
20
-1.83794278923904
30
0
41
1
10
45.9649582008302
20
-2.36921514960048
30
0
41
1
10
46.1299164016604
20
-3.43338854397089
30
0
41
1
10
46.2123955020755
20
-3.96624723532304
30
0
41
1
10
46.3773537029057
20
-5.01554536717106
30
0
41
1
10
46.4598328033208
20
-5.53192161973607
30
0
41
1
10
46.6247910041511
20
-6.52912517311788
30
0
41
1
10
46.7072701045662
20
-7.00987942977909
30
0
41
1
10
46.8722283053964
20
-7.91772095438199
30
0
41
1
10
46.9547074058115
20
-8.34474169546763
30
0
41
1
10
47.1196656066416
20
-9.13016979832278
30
0
41
1
10
47.2021447070568
20
-9.48853315173622
30
0
41
1
10
47.367102907887
20
-10.1265881494196
30
0
41
1
10
47.4495820083021
20
-10.4062676395317
30
0
41
1
10
47.6145402091323
20
-10.8826545242954
30
0
41
1
10
47.6970193095474
20
-11.0793810390184
30
0
41
1
10
47.8619775103776
20
-11.391203272923
30
0
41
1
10
47.9444566107927
20
-11.5063403237903
30
0
41
1
10
48.1094148116229
20
-11.661018625186
30
0
41
1
10
48.191893912038
20
-11.7006105858738
30
0
41
1
10
48.284682900005
20
-11.7078586252206
30
0
41
1
10
48.2949927875569
20
-11.7081482387642
30
0
41
1
10
48.3156125626606
20
-11.7077114877212
30
0
41
1
10
48.3465422253163
20
-11.7055244194843
30
0
41
1
10
48.377471887972
20
-11.69865015637
30
0
41
1
10
48.4393312132833
20
-11.678418772571
30
0
41
1
10
48.4805707634908
20
-11.6562822269085
30
0
41
1
10
48.6042894141135
20
-11.5622213931523
30
0
41
1
10
48.6867685145286
20
-11.4625251685315
30
0
41
1
10
48.8517267153588
20
-11.1824460694808
30
0
41
1
10
48.9342058157739
20
-11.0020189839651
30
0
41
1
10
49.0991640166041
20
-10.5580795642645
30
0
41
1
10
49.1816431170192
20
-10.2945428352821
30
0
41
1
10
49.3466013178494
20
-9.68747703055081
30
0
41
1
10
49.4290804182645
20
-9.34395360437463
30
0
41
1
10
49.5940386190947
20
-8.58581425173443
30
0
41
1
10
49.6765177195098
20
-8.17123651865953
30
0
41
1
10
49.84147592034
20
-7.28503790494162
30
0
41
1
10
49.9239550207551
20
-6.81348026064165
30
0
41
1
10
50.0889132215853
20
-5.83096070979718
30
0
41
1
10
50.1713923220004
20
-5.320071943719
30
0
41
1
10
50.3363505228306
20
-4.27800934604809
30
0
41
1
10
50.4188296232457
20
-3.74690173487588
30
0
41
1
10
50.5837878240759
20
-2.68284690374418
30
0
41
1
10
50.666266924491
20
-2.14994662034041
30
0
41
1
10
50.8312251253212
20
-1.09833918234898
30
0
41
1
10
50.9137042257363
20
-0.579654958487367
30
0
41
1
10
51.0064932137034
20
-0.0111844322194656
30
0
41
1
10
51.0168031012552
20
0.0517267018050802
30
0
41
1
10
51.0374228763589
20
0.178229584411895
30
0
41
1
10
51.0683525390147
20
0.368596828347677
30
0
41
1
10
51.0992822016703
20
0.560708009162852
30
0
41
1
10
51.1611415269817
20
0.946981916190254
30
0
41
1
10
51.2023810771892
20
1.20724038265502
30
0
41
1
10
51.3260997278119
20
1.99379047728203
30
0
41
1
10
51.408578828227
20
2.5259529262303
30
0
41
1
10
51.5735370290572
20
3.59023191404745
30
0
41
1
10
51.6560161294723
20
4.12230379472578
30
0
41
1
10
51.8209743303025
20
5.16816611646374
30
0
41
1
10
51.9034534307175
20
5.68189179582359
30
0
41
1
10
52.0684116315478
20
6.67193377119463
30
0
41
1
10
52.1508907319629
20
7.1481768921374
30
0
41
1
10
52.3158489327931
20
8.04535485562698
30
0
41
1
10
52.3983280332081
20
8.46622473866856
30
0
41
1
10
52.5632862340384
20
9.23812520349946
30
0
41
1
10
52.6457653344534
20
9.58911464254518
30
0
41
1
10
52.8107235352837
20
10.2117388088223
30
0
41
1
10
52.8932026356987
20
10.4833646425079
30
0
41
1
10
53.058160836529
20
10.9435359958897
30
0
41
1
10
53.140639936944
20
11.1321033217865
30
0
41
1
10
53.3055981377743
20
11.4280128293466
30
0
41
1
10
53.3880772381894
20
11.5353978467393
30
0
41
1
10
53.5530354390196
20
11.6753659564771
30
0
41
1
10
53.6355145394348
20
11.708
30
0
41
1
10
53.7179936398498
20
11.708
30
0
0
SPLINE
5
DD
100
AcDbEntity
8
1
62
256
6
ByLayer
370
13
48
1
60
0
100
AcDbSpline
70
4
71
3
72
42
73
38
40
0
40
0
40
0
40
0
40
0.0624999999999999
40
0.0624999999999999
40
0.125
40
0.125
40
0.1875
40
0.1875
40
0.249999999999999
40
0.249999999999999
40
0.312499999999999
40
0.312499999999999
40
0.374999999999999
40
0.374999999999999
40
0.437499999999999
40
0.437499999999999
40
0.499999999999999
40
0.499999999999999
40
0.562499999999998
40
0.562499999999998
40
0.624999999999998
40
0.624999999999998
40
0.687499999999998
40
0.687499999999998
40
0.749999999999998
40
0.749999999999998
40
0.765624999999998
40
0.765624999999998
40
0.781249999999998
40
0.781249999999998
40
0.812499999999998
40
0.812499999999998
40
0.874999999999999
40
0.874999999999999
40
0.937499999999999
40
0.937499999999999
40
1
40
1
40
1
40
1
41
1
10
53.1016090401652
20
11.708
30
0
41
1
10
53.175297112187
20
11.708
30
0
41
1
10
53.2489851842087
20
11.6819681453935
30
0
41
1
10
53.3963613282524
20
11.5710222441931
30
0
41
1
10
53.4700494002741
20
11.4860790577663
30
0
41
1
10
53.6174255443177
20
11.2523018471092
30
0
41
1
10
53.6911136163395
20
11.1034417615941
30
0
41
1
10
53.8384897603831
20
10.7395354031084
30
0
41
1
10
53.9121778324049
20
10.5244720759938
30
0
41
1
10
54.0595539764485
20
10.02924720645
30
0
41
1
10
54.1332420484703
20
9.74908281656406
30
0
41
1
10
54.2806181925139
20
9.12844415341655
30
0
41
1
10
54.3543062645357
20
8.78798377465952
30
0
41
1
10
54.5016824085793
20
8.05508250715673
30
0
41
1
10
54.575370480601
20
7.66267081696191
30
0
41
1
10
54.7227466246446
20
6.83708122617992
30
0
41
1
10
54.7964346966664
20
6.40394251372854
30
0
41
1
10
54.9438108407101
20
5.50994843828823
30
0
41
1
10
55.0174989127318
20
5.04913467189712
30
0
41
1
10
55.1648750567755
20
4.11343299698422
30
0
41
1
10
55.2385631287972
20
3.63858165088149
30
0
41
1
10
55.3859392728408
20
2.68784021295735
30
0
41
1
10
55.4596273448626
20
2.21197643669009
30
0
41
1
10
55.6070034889062
20
1.27067775077933
30
0
41
1
10
55.680691560928
20
0.805256891319516
30
0
41
1
10
55.7728016509552
20
0.23580480320166
30
0
41
1
10
55.7912236689606
20
0.122524838764576
30
0
41
1
10
55.8280677049716
20
-0.102692778894891
30
0
41
1
10
55.846489722977
20
-0.215821700828116
30
0
41
1
10
55.9017557769934
20
-0.557277384369883
30
0
41
1
10
55.9385998130043
20
-0.787375769540148
30
0
41
1
10
56.049131921037
20
-1.48343488825202
30
0
41
1
10
56.1228199930588
20
-1.95522710005554
30
0
41
1
10
56.2701961371024
20
-2.90395812653941
30
0
41
1
10
56.3438842091241
20
-3.38087688891912
30
0
41
1
10
56.4912603531677
20
-4.32755660343832
30
0
41
1
10
56.5649484251895
20
-4.79728581070808
30
0
41
1
10
56.6386364972113
20
-5.25670991510276
30
0
0
SPLINE
5
DE
100
AcDbEntity
8
1
62
256
6
ByLayer
370
13
48
1
60
0
100
AcDbSpline
70
4
71
3
72
81
73
77
40
0
40
0
40
0
40
0
40
0.0312499999999998
40
0.0312499999999998
40
0.0624999999999997
40
0.0624999999999997
40
0.0937499999999995
40
0.0937499999999995
40
0.124999999999999
40
0.124999999999999
40
0.156249999999999
40
0.156249999999999
40
0.187499999999999
40
0.187499999999999
40
0.218749999999999
40
0.218749999999999
40
0.249999999999999
40
0.249999999999999
40
0.265624999999999
40
0.265624999999999
40
0.269531249999999
40
0.269531249999999
40
0.273437499999999
40
0.273437499999999
40
0.281249999999999
40
0.281249999999999
40
0.312499999999998
40
0.312499999999998
40
0.343749999999998
40
0.343749999999998
40
0.374999999999998
40
0.374999999999998
40
0.406249999999998
40
0.406249999999998
40
0.437499999999998
40
0.437499999999998
40
0.468749999999998
40
0.468749999999998
40
0.499999999999997
40
0.499999999999997
40
0.531249999999997
40
0.531249999999997
40
0.562499999999997
40
0.562499999999997
40
0.593749999999997
40
0.593749999999997
40
0.624999999999997
40
0.624999999999997
40
0.632812499999997
40
0.632812499999997
40
0.636718749999997
40
0.636718749999997
40
0.640624999999997
40
0.656249999999997
40
0.656249999999997
40
0.687499999999997
40
0.687499999999997
40
0.718749999999997
40
0.718749999999997
40
0.749999999999998
40
0.749999999999998
40
0.781249999999998
40
0.781249999999998
40
0.812499999999998
40
0.812499999999998
40
0.843749999999999
40
0.843749999999999
40
0.874999999999999
40
0.874999999999999
40
0.906249999999999
40
0.906249999999999
40
0.937499999999999
40
0.937499999999999
40
0.96875
40
0.96875
40
1
40
1
40
1
40
1
41
1
10
45.8
20
-4.43934147337305
30
0
41
1
10
45.877408538958
20
-4.93223635027752
30
0
41
1
10
45.954817077916
20
-5.41811736722318
30
0
41
1
10
46.109634155832
20
-6.36014329098066
30
0
41
1
10
46.18704269479
20
-6.81623514445158
30
0
41
1
10
46.341859772706
20
-7.68350855007529
30
0
41
1
10
46.419268311664
20
-8.09464001966126
30
0
41
1
10
46.57408538958
20
-8.85903339784261
30
0
41
1
10
46.651493928538
20
-9.21225884877583
30
0
41
1
10
46.806311006454
20
-9.85143375097979
30
0
41
1
10
46.883719545412
20
-10.137367603743
30
0
41
1
10
47.0385366233279
20
-10.6369098066167
30
0
41
1
10
47.1159451622859
20
-10.8505248503648
30
0
41
1
10
47.2707622402019
20
-11.2048700652888
30
0
41
1
10
47.3481707791599
20
-11.3456249471857
30
0
41
1
10
47.5029878570759
20
-11.5576883374513
30
0
41
1
10
47.580396396034
20
-11.6290318400323
30
0
41
1
10
47.696509204471
20
-11.6888440100023
30
0
41
1
10
47.7352134739499
20
-11.7009347252694
30
0
41
1
10
47.7835938107986
20
-11.706867042639
30
0
41
1
10
47.7932698781684
20
-11.7075947019156
30
0
41
1
10
47.8126220129079
20
-11.7081490230166
30
0
41
1
10
47.8222980802776
20
-11.707978173326
30
0
41
1
10
47.8513262823869
20
-11.7061078599656
30
0
41
1
10
47.8706784171264
20
-11.7030460119123
30
0
41
1
10
47.9674390908239
20
-11.6783357423501
30
0
41
1
10
48.0448476297819
20
-11.6284033597994
30
0
41
1
10
48.1996647076978
20
-11.4610093724851
30
0
41
1
10
48.2770732466559
20
-11.3435112428114
30
0
41
1
10
48.4318903245718
20
-11.0364115624788
30
0
41
1
10
48.5092988635299
20
-10.8467810040879
30
0
41
1
10
48.6641159414458
20
-10.3945563688065
30
0
41
1
10
48.7415244804038
20
-10.1319490055431
30
0
41
1
10
48.8963415583198
20
-9.53729013857389
30
0
41
1
10
48.9737500972779
20
-9.20524679409192
30
0
41
1
10
49.1285671751938
20
-8.47970999169377
30
0
41
1
10
49.2059757141518
20
-8.08624670872331
30
0
41
1
10
49.3607927920678
20
-7.24975996561957
30
0
41
1
10
49.4382013310258
20
-6.80678320755399
30
0
41
1
10
49.5930184089418
20
-5.88587534742231
30
0
41
1
10
49.6704269478998
20
-5.40799755919932
30
0
41
1
10
49.8252440258157
20
-4.43306784430669
30
0
41
1
10
49.9026525647738
20
-3.93606497011851
30
0
41
1
10
50.0574696426898
20
-2.9382628565663
30
0
41
1
10
50.1348781816478
20
-2.43750011425448
30
0
41
1
10
50.2896952595638
20
-1.44584184627294
30
0
41
1
10
50.3671037985217
20
-0.954966526308738
30
0
41
1
10
50.4638644722192
20
-0.354469918489798
30
0
41
1
10
50.4832166069588
20
-0.235018557751886
30
0
41
1
10
50.512244809068
20
-0.0569218082861482
30
0
41
1
10
50.5219208764378
20
0.0021403134335571
30
0
41
1
10
50.5412730111773
20
0.120647796413976
30
0
41
1
10
50.5896533480259
20
0.417827794520065
30
0
41
1
10
50.6380336848747
20
0.719365470291166
30
0
41
1
10
50.7541464933117
20
1.44957351124111
30
0
41
1
10
50.8315550322698
20
1.94515149975936
30
0
41
1
10
50.9863721101857
20
2.94188439064308
30
0
41
1
10
51.0637806491437
20
3.44301348815134
30
0
41
1
10
51.2185977270597
20
4.4365187103771
30
0
41
1
10
51.2960062660177
20
4.92885345295309
30
0
41
1
10
51.4508233439337
20
5.88911242108244
30
0
41
1
10
51.5282318828917
20
6.35698504547625
30
0
41
1
10
51.6830489608077
20
7.25275495140502
30
0
41
1
10
51.7604574997657
20
7.68059989644934
30
0
41
1
10
51.9152745776817
20
8.48244136518187
30
0
41
1
10
51.9926831166397
20
8.85639580011247
30
0
41
1
10
52.1475001945556
20
9.53973365389649
30
0
41
1
10
52.2249087335136
20
9.84909398425506
30
0
41
1
10
52.3797258114296
20
10.3966792594737
30
0
41
1
10
52.4571343503877
20
10.6349036218264
30
0
41
1
10
52.6119514283036
20
11.0381736411475
30
0
41
1
10
52.6893599672616
20
11.2032387004491
30
0
41
1
10
52.8441770451776
20
11.4623704744965
30
0
41
1
10
52.9215855841356
20
11.5564696746587
30
0
41
1
10
53.0764026620516
20
11.6792658295594
30
0
41
1
10
53.1538112010096
20
11.708
30
0
41
1
10
53.2312197399676
20
11.708
30
0
0
SPLINE
5
DF
100
AcDbEntity
8
1
62
256
6
ByLayer
370
13
48
1
60
0
100
AcDbSpline
70
4
71
3
72
44
73
40
40
0
40
0
40
0
40
0
40
0.0625000000000002
40
0.0625000000000002
40
0.125000000000001
40
0.125000000000001
40
0.187500000000001
40
0.187500000000001
40
0.250000000000001
40
0.250000000000001
40
0.312500000000001
40
0.312500000000001
40
0.375000000000001
40
0.375000000000001
40
0.437500000000002
40
0.437500000000002
40
0.500000000000002
40
0.500000000000002
40
0.562500000000002
40
0.562500000000002
40
0.625000000000002
40
0.625000000000002
40
0.656250000000002
40
0.656250000000002
40
0.671875000000002
40
0.671875000000002
40
0.679687500000002
40
0.679687500000002
40
0.687500000000002
40
0.687500000000002
40
0.750000000000002
40
0.750000000000002
40
0.812500000000001
40
0.812500000000001
40
0.875000000000001
40
0.875000000000001
40
0.9375
40
0.9375
40
1
40
1
40
1
40
1
41
1
10
52.6148351402829
20
11.708
30
0
41
1
10
52.6986643352189
20
11.708
30
0
41
1
10
52.7824935301549
20
11.674285308237
30
0
41
1
10
52.950151920027
20
11.5295451958025
30
0
41
1
10
53.033981114963
20
11.4184645699639
30
0
41
1
10
53.201639504835
20
11.1123292859365
30
0
41
1
10
53.285468699771
20
10.9172287204879
30
0
41
1
10
53.453127089643
20
10.4412818479363
30
0
41
1
10
53.536956284579
20
10.1604133510677
30
0
41
1
10
53.7046146744511
20
9.51712708352841
30
0
41
1
10
53.788443869387
20
9.15472131648045
30
0
41
1
10
53.956102259259
20
8.35871153861547
30
0
41
1
10
54.0399314541951
20
7.92515473035448
30
0
41
1
10
54.2075898440671
20
7.002453110061
30
0
41
1
10
54.2914190390031
20
6.51338042259061
30
0
41
1
10
54.4590774288751
20
5.49867662604467
30
0
41
1
10
54.5429066238112
20
4.97312466867265
30
0
41
1
10
54.7105650136832
20
3.90556863024148
30
0
41
1
10
54.7943942086191
20
3.36363246684525
30
0
41
1
10
54.9620525984911
20
2.28221744958731
30
0
41
1
10
55.0458817934272
20
1.74278324658039
30
0
41
1
10
55.1716255858312
20
0.94746384818535
30
0
41
1
10
55.2135401832992
20
0.684635773093419
30
0
41
1
10
55.2764120795012
20
0.295037864705876
30
0
41
1
10
55.2973693782352
20
0.165943989830254
30
0
41
1
10
55.3288053263362
20
-0.0264030421415669
30
0
41
1
10
55.3392839757032
20
-0.0904471844742716
30
0
41
1
10
55.3602412744372
20
-0.219194158580876
30
0
41
1
10
55.3707199238042
20
-0.283776493624089
30
0
41
1
10
55.4650277681072
20
-0.866794930729526
30
0
41
1
10
55.5488569630432
20
-1.39783395324625
30
0
41
1
10
55.7165153529152
20
-2.471647430269
30
0
41
1
10
55.8003445478512
20
-3.01439189295496
30
0
41
1
10
55.9680029377232
20
-4.09419840489912
30
0
41
1
10
56.0518321326593
20
-4.63120438371416
30
0
41
1
10
56.2194905225313
20
-5.67986742000681
30
0
41
1
10
56.3033197174672
20
-6.19144951588856
30
0
41
1
10
56.4709781073393
20
-7.16935216870178
30
0
41
1
10
56.5548073022753
20
-7.63559432194211
30
0
41
1
10
56.6386364972113
20
-8.07030987993272
30
0
0
SPLINE
5
E0
100
AcDbEntity
8
1
62
256
6
ByLayer
370
13
48
1
60
0
100
AcDbSpline
70
4
71
3
72
78
73
74
40
0
40
0
40
0
40
0
40
0.0312499999999999
40
0.0312499999999999
40
0.0624999999999998
40
0.0624999999999998
40
0.0937499999999997
40
0.0937499999999997
40
0.125
40
0.125
40
0.15625
40
0.15625
40
0.187499999999999
40
0.187499999999999
40
0.218749999999999
40
0.218749999999999
40
0.226562499999999
40
0.226562499999999
40
0.234374999999999
40
0.234374999999999
40
0.249999999999999
40
0.249999999999999
40
0.28125
40
0.28125
40
0.3125
40
0.3125
40
0.34375
40
0.34375
40
0.375
40
0.375
40
0.40625
40
0.40625
40
0.4375
40
0.4375
40
0.46875
40
0.46875
40
0.5
40
0.5
40
0.53125
40
0.53125
40
0.5625
40
0.5625
40
0.59375
40
0.59375
40
0.609375
40
0.609375
40
0.6171875
40
0.6171875
40
0.625
40
0.625
40
0.65625
40
0.65625
40
0.6875
40
0.6875
40
0.71875
40
0.71875
40
0.75
40
0.75
40
0.78125
40
0.78125
40
0.8125
40
0.8125
40
0.84375
40
0.84375
40
0.875
40
0.875
40
0.90625
40
0.90625
40
0.9375
40
0.9375
40
0.96875
40
0.96875
40
1
40
1
40
1
40
1
41
1
10
45.8
20
-7.37429482547591
30
0
41
1
10
45.8723379775009
20
-7.77544343821432
30
0
41
1
10
45.9446759550018
20
-8.1563574881078
30
0
41
1
10
46.0893519100036
20
-8.86737302326159
30
0
41
1
10
46.1616898875044
20
-9.19744889196198
30
0
41
1
10
46.3063658425063
20
-9.79911085858222
30
0
41
1
10
46.3787038200071
20
-10.0706852711135
30
0
41
1
10
46.5233797750089
20
-10.550977484849
30
0
41
1
10
46.5957177525098
20
-10.7596985577295
30
0
41
1
10
46.7403937075116
20
-11.1133543301412
30
0
41
1
10
46.8127316850125
20
-11.2583048846405
30
0
41
1
10
46.9574076400143
20
-11.4866279834554
30
0
41
1
10
47.0297456175151
20
-11.570024348123
30
0
41
1
10
47.1744215725169
20
-11.6799711117922
30
0
41
1
10
47.2467595500178
20
-11.7065480823864
30
0
41
1
10
47.3371820218939
20
-11.7082904068337
30
0
41
1
10
47.3552665162691
20
-11.7070777288577
30
0
41
1
10
47.3914355050196
20
-11.7014290366212
30
0
41
1
10
47.4095199993948
20
-11.6969917883553
30
0
41
1
10
47.4637734825205
20
-11.6786848974279
30
0
41
1
10
47.4999424712709
20
-11.6598171069706
30
0
41
1
10
47.6084494375222
20
-11.582068155538
30
0
41
1
10
47.6807874150231
20
-11.5019733920699
30
0
41
1
10
47.8254633700249
20
-11.2804575545898
30
0
41
1
10
47.8978013475258
20
-11.1390123726907
30
0
41
1
10
48.0424773025276
20
-10.7924133954089
30
0
41
1
10
48.1148152800285
20
-10.5872431681566
30
0
41
1
10
48.2594912350302
20
-10.1139133445026
30
0
41
1
10
48.3318292125311
20
-9.8457496873018
30
0
41
1
10
48.4765051675329
20
-9.25057812281588
30
0
41
1
10
48.5488431450338
20
-8.92358106269194
30
0
41
1
10
48.6935191000356
20
-8.2182188848567
30
0
41
1
10
48.7658570775364
20
-7.83987869797218
30
0
41
1
10
48.9105330325383
20
-7.04209408849616
30
0
41
1
10
48.9828710100391
20
-6.62268441464832
30
0
41
1
10
49.1275469650409
20
-5.75489754366032
30
0
41
1
10
49.1998849425418
20
-5.30655841972845
30
0
41
1
10
49.3445608975436
20
-4.39380342278767
30
0
41
1
10
49.4168988750444
20
-3.92942222584745
30
0
41
1
10
49.5615748300462
20
-2.99711130942515
30
0
41
1
10
49.6339128075471
20
-2.52920780563383
30
0
41
1
10
49.7785887625489
20
-1.60108710703827
30
0
41
1
10
49.8509267400498
20
-1.14088529130544
30
0
41
1
10
49.9594337063011
20
-0.463330490085951
30
0
41
1
10
49.9956026950516
20
-0.239587145589382
30
0
41
1
10
50.0498561781773
20
0.0921491500874083
30
0
41
1
10
50.0679406725525
20
0.203103284275471
30
0
41
1
10
50.1041096613029
20
0.426464580372055
30
0
41
1
10
50.1221941556781
20
0.538739691763993
30
0
41
1
10
50.2126166275542
20
1.10278055742592
30
0
41
1
10
50.2849546050551
20
1.56262566898968
30
0
41
1
10
50.4296305600569
20
2.49031918003362
30
0
41
1
10
50.5019685375578
20
2.9581525085224
30
0
41
1
10
50.6466444925596
20
3.89065582626947
30
0
41
1
10
50.7189824700605
20
4.35529988211783
30
0
41
1
10
50.8636584250622
20
5.26893812954521
30
0
41
1
10
50.9359964025631
20
5.71789782285148
30
0
41
1
10
51.0806723575649
20
6.58727918637945
30
0
41
1
10
51.1530103350658
20
7.00766279090416
30
0
41
1
10
51.2976862900676
20
7.80771247053178
30
0
41
1
10
51.3700242675685
20
8.18734361085671
30
0
41
1
10
51.5147002225702
20
8.89553943439759
30
0
41
1
10
51.5870382000711
20
9.22407884219859
30
0
41
1
10
51.7317141550729
20
9.82250019793855
30
0
41
1
10
51.8040521325738
20
10.0923708792477
30
0
41
1
10
51.9487280875756
20
10.569183851066
30
0
41
1
10
52.0210660650764
20
10.776129808802
30
0
41
1
10
52.1657420200783
20
11.1262565825309
30
0
41
1
10
52.2380799975791
20
11.2694535437971
30
0
41
1
10
52.3827559525809
20
11.4943702265772
30
0
41
1
10
52.4550939300818
20
11.5761139142678
30
0
41
1
10
52.5997698850836
20
11.6829155114825
30
0
41
1
10
52.6721078625845
20
11.708
30
0
41
1
10
52.7444458400853
20
11.708
30
0
0
SPLINE
5
E1
100
AcDbEntity
8
1
62
256
6
ByLayer
370
13
48
1
60
0
100
AcDbSpline
70
4
71
3
72
42
73
38
40
0
40
0
40
0
40
0
40
0.0624999999999998
40
0.0624999999999998
40
0.125
40
0.125
40
0.187499999999999
40
0.187499999999999
40
0.249999999999999
40
0.249999999999999
40
0.312499999999999
40
0.312499999999999
40
0.374999999999999
40
0.374999999999999
40
0.437499999999998
40
0.437499999999998
40
0.499999999999998
40
0.499999999999998
40
0.562499999999998
40
0.562499999999998
40
0.593749999999998
40
0.593749999999998
40
0.609374999999998
40
0.609374999999998
40
0.624999999999997
40
0.624999999999997
40
0.687499999999998
40
0.687499999999998
40
0.749999999999998
40
0.749999999999998
40
0.812499999999999
40
0.812499999999999
40
0.874999999999999
40
0.874999999999999
40
0.9375
40
0.9375
40
1
40
1
40
1
40
1
41
1
10
52.1280612404007
20
11.708
30
0
41
1
10
52.222031558251
20
11.708
30
0
41
1
10
52.3160018761011
20
11.6655981138422
30
0
41
1
10
52.5039425118016
20
11.4823038733832
30
0
41
1
10
52.5979128296518
20
11.3413147562817
30
0
41
1
10
52.7858534653523
20
10.9525321961642
30
0
41
1
10
52.8798237832024
20
10.70466570619
30
0
41
1
10
53.0677644189029
20
10.1020382509335
30
0
41
1
10
53.1617347367531
20
9.74725871361886
30
0
41
1
10
53.3496753724536
20
8.94042610868229
30
0
41
1
10
53.4436456903038
20
8.48842538381345
30
0
41
1
10
53.6315863260042
20
7.5060172101746
30
0
41
1
10
53.7255566438545
20
6.97572292724567
30
0
41
1
10
53.9134972795548
20
5.86229068038639
30
0
41
1
10
54.0074675974051
20
5.27929242364615
30
0
41
1
10
54.1954082331056
20
4.08876901444592
30
0
41
1
10
54.2893785509558
20
3.4813685819654
30
0
41
1
10
54.4773191866562
20
2.26898776378903
30
0
41
1
10
54.5712895045064
20
1.66408783685102
30
0
41
1
10
54.7122449812818
20
0.775356292649462
30
0
41
1
10
54.7592301402068
20
0.482172653098871
30
0
41
1
10
54.8297078785945
20
0.0486524602539191
30
0
41
1
10
54.8532004580571
20
-0.0944031380637966
30
0
41
1
10
54.9001856169823
20
-0.383853858925704
30
0
41
1
10
54.9236781964448
20
-0.529605211969454
30
0
41
1
10
55.0411410937576
20
-1.26282260918668
30
0
41
1
10
55.1351114116078
20
-1.86390306191396
30
0
41
1
10
55.3230520473082
20
-3.07410696218281
30
0
41
1
10
55.4170223651584
20
-3.68316166781173
30
0
41
1
10
55.6049630008589
20
-4.88325277588814
30
0
41
1
10
55.6989333187092
20
-5.47417252703815
30
0
41
1
10
55.8868739544096
20
-6.60969027575894
30
0
41
1
10
55.9808442722598
20
-7.15414848023852
30
0
41
1
10
56.1687849079602
20
-8.1701612697002
30
0
41
1
10
56.2627552258105
20
-8.64159319025822
30
0
41
1
10
56.4506958615109
20
-9.49079351636951
30
0
41
1
10
56.5446661793611
20
-9.86849409178501
30
0
41
1
10
56.6386364972113
20
-10.1933890426566
30
0
0
SPLINE
5
E2
100
AcDbEntity
8
1
62
256
6
ByLayer
370
13
48
1
60
0
100
AcDbSpline
70
4
71
3
72
78
73
74
40
0
40
0
40
0
40
0
40
0.03125
40
0.03125
40
0.0624999999999999
40
0.0624999999999999
40
0.0937499999999999
40
0.0937499999999999
40
0.125
40
0.125
40
0.15625
40
0.15625
40
0.1640625
40
0.1640625
40
0.171875
40
0.1875
40
0.1875
40
0.21875
40
0.21875
40
0.25
40
0.25
40
0.28125
40
0.28125
40
0.312500000000001
40
0.312500000000001
40
0.343750000000001
40
0.343750000000001
40
0.375000000000001
40
0.375000000000001
40
0.406250000000001
40
0.406250000000001
40
0.437500000000001
40
0.437500000000001
40
0.468750000000001
40
0.468750000000001
40
0.500000000000001
40
0.500000000000001
40
0.531250000000001
40
0.531250000000001
40
0.562500000000001
40
0.562500000000001
40
0.578125000000001
40
0.578125000000001
40
0.582031250000001
40
0.582031250000001
40
0.585937500000001
40
0.593750000000001
40
0.593750000000001
40
0.625000000000001
40
0.625000000000001
40
0.656250000000001
40
0.656250000000001
40
0.687500000000001
40
0.687500000000001
40
0.718750000000001
40
0.718750000000001
40
0.750000000000001
40
0.750000000000001
40
0.781250000000001
40
0.781250000000001
40
0.812500000000001
40
0.812500000000001
40
0.843750000000001
40
0.843750000000001
40
0.875
40
0.875
40
0.90625
40
0.90625
40
0.9375
40
0.9375
40
0.96875
40
0.96875
40
1
40
1
40
1
40
1
41
1
10
45.8
20
-9.71243237613646
30
0
41
1
10
45.8672674160438
20
-9.97885730428121
30
0
41
1
10
45.9345348320876
20
-10.2194073858206
30
0
41
1
10
46.0690696641752
20
-10.645838746119
30
0
41
1
10
46.1363370802189
20
-10.8317240018148
30
0
41
1
10
46.2708719123065
20
-11.1484478063748
30
0
41
1
10
46.3381393283503
20
-11.2792981360341
30
0
41
1
10
46.4726741604379
20
-11.4878819174724
30
0
41
1
10
46.5399415764817
20
-11.565632075484
30
0
41
1
10
46.6744764085692
20
-11.6718138952254
30
0
41
1
10
46.741743824613
20
-11.7002640425786
30
0
41
1
10
46.8258280946677
20
-11.7082069993225
30
0
41
1
10
46.8426449486786
20
-11.7084260840638
30
0
41
1
10
46.8762786567005
20
-11.7061464920757
30
0
41
1
10
46.9267292187334
20
-11.698613856743
30
0
41
1
10
46.9771797807662
20
-11.6783482124763
30
0
41
1
10
47.0780809048319
20
-11.6198746601199
30
0
41
1
10
47.1453483208757
20
-11.5569224788128
30
0
41
1
10
47.2798831529632
20
-11.3788711039494
30
0
41
1
10
47.3471505690071
20
-11.2637543714299
30
0
41
1
10
47.4816854010946
20
-10.9788410852572
30
0
41
1
10
47.5489528171384
20
-10.8090309933791
30
0
41
1
10
47.683487649226
20
-10.414388182819
30
0
41
1
10
47.7507550652698
20
-10.1895489718541
30
0
41
1
10
47.8852898973573
20
-9.68700700566535
30
0
41
1
10
47.9525573134011
20
-9.40930696057256
30
0
41
1
10
48.0870921454886
20
-8.80576812128729
30
0
41
1
10
48.1543595615324
20
-8.4799417306649
30
0
41
1
10
48.28889439362
20
-7.78721400708906
30
0
41
1
10
48.3561618096638
20
-7.42033324874538
30
0
41
1
10
48.4906966417513
20
-6.65439706912042
30
0
41
1
10
48.557964057795
20
-6.25536714706919
30
0
41
1
10
48.6924988898827
20
-5.43516431185606
30
0
41
1
10
48.7597663059264
20
-5.01401770804389
30
0
41
1
10
48.894301138014
20
-4.1599511058312
30
0
41
1
10
48.9615685540578
20
-3.72705433292614
30
0
41
1
10
49.0961033861453
20
-2.8594374237401
30
0
41
1
10
49.1633708021891
20
-2.42473465782243
30
0
41
1
10
49.2979056342767
20
-1.56241784418768
30
0
41
1
10
49.3651730503205
20
-1.13481409157058
30
0
41
1
10
49.4660741743862
20
-0.50431691155427
30
0
41
1
10
49.4997078824081
20
-0.295956967126443
30
0
41
1
10
49.5417500174355
20
-0.0382493840710936
30
0
41
1
10
49.5501584444408
20
0.0130679621235856
30
0
41
1
10
49.5669752984518
20
0.116061354340644
30
0
41
1
10
49.5922005794682
20
0.270964682903326
30
0
41
1
10
49.6174258604847
20
0.427056947141153
30
0
41
1
10
49.7015101305394
20
0.949765456108906
30
0
41
1
10
49.7687775465832
20
1.3756786012186
30
0
41
1
10
49.9033123786708
20
2.23579385113095
30
0
41
1
10
49.9705797947145
20
2.66998669950414
30
0
41
1
10
50.1051146268021
20
3.5379544051242
30
0
41
1
10
50.1723820428459
20
3.97171288281908
30
0
41
1
10
50.3069168749335
20
4.82899088341509
30
0
41
1
10
50.3741842909772
20
5.25248789466966
30
0
41
1
10
50.5087191230648
20
6.07889678651944
30
0
41
1
10
50.5759865391086
20
6.48178258275823
30
0
41
1
10
50.7105213711961
20
7.25683805103827
30
0
41
1
10
50.7777887872399
20
7.62898184365699
30
0
41
1
10
50.9123236193275
20
8.33343252536119
30
0
41
1
10
50.9795910353712
20
8.66571789003407
30
0
41
1
10
51.1141258674588
20
9.28306821625307
30
0
41
1
10
51.1813932835027
20
9.56811944432815
30
0
41
1
10
51.3159281155903
20
10.0858963266292
30
0
41
1
10
51.383195531634
20
10.3186178450731
30
0
41
1
10
51.5177303637216
20
10.7291816808213
30
0
41
1
10
51.5849977797653
20
10.9070292540881
30
0
41
1
10
51.7195326118529
20
11.2078236146659
30
0
41
1
10
51.7868000278966
20
11.3307830936836
30
0
41
1
10
51.9213348599842
20
11.524033529335
30
0
41
1
10
51.988602276028
20
11.594341642136
30
0
41
1
10
52.1231371081156
20
11.6863156259274
30
0
41
1
10
52.1904045241593
20
11.708
30
0
41
1
10
52.2576719402032
20
11.708
30
0
0
SPLINE
5
E3
100
AcDbEntity
8
1
62
256
6
ByLayer
370
13
48
1
60
0
100
AcDbSpline
70
4
71
3
72
68
73
64
40
0
40
0
40
0
40
0
40
0.0624999999999993
40
0.0624999999999993
40
0.093749999999999
40
0.093749999999999
40
0.124999999999999
40
0.124999999999999
40
0.156249999999998
40
0.156249999999998
40
0.187499999999998
40
0.187499999999998
40
0.218749999999998
40
0.218749999999998
40
0.249999999999997
40
0.249999999999997
40
0.281249999999997
40
0.281249999999997
40
0.312499999999997
40
0.312499999999997
40
0.343749999999997
40
0.343749999999997
40
0.374999999999996
40
0.374999999999996
40
0.406249999999996
40
0.406249999999996
40
0.437499999999996
40
0.437499999999996
40
0.499999999999995
40
0.499999999999995
40
0.531249999999995
40
0.531249999999995
40
0.539062499999995
40
0.539062499999995
40
0.546874999999995
40
0.546874999999995
40
0.562499999999995
40
0.562499999999995
40
0.624999999999996
40
0.624999999999996
40
0.656249999999996
40
0.656249999999996
40
0.687499999999997
40
0.687499999999997
40
0.718749999999997
40
0.718749999999997
40
0.749999999999997
40
0.749999999999997
40
0.781249999999998
40
0.781249999999998
40
0.812499999999998
40
0.812499999999998
40
0.843749999999998
40
0.843749999999998
40
0.874999999999999
40
0.874999999999999
40
0.906249999999999
40
0.906249999999999
40
0.937499999999999
40
0.937499999999999
40
0.96875
40
0.96875
40
1
40
1
40
1
40
1
41
1
10
51.6412873405185
20
11.708
30
0
41
1
10
51.7453987812829
20
11.708
30
0
41
1
10
51.8495102220474
20
11.6559001043325
30
0
41
1
10
52.005677383194
20
11.4858877848547
30
0
41
1
10
52.0577331035762
20
11.4139529969187
30
0
41
1
10
52.1618445443406
20
11.2380330921104
30
0
41
1
10
52.2139002647229
20
11.1340434980397
30
0
41
1
10
52.3180117054873
20
10.8931814111984
30
0
41
1
10
52.3700674258696
20
10.7563055440857
30
0
41
1
10
52.474178866634
20
10.4496580234216
30
0
41
1
10
52.5262345870162
20
10.2798845904221
30
0
41
1
10
52.6303460277806
20
9.90832787926644
30
0
41
1
10
52.6824017481629
20
9.70654477887135
30
0
41
1
10
52.7865131889273
20
9.27277877426604
30
0
41
1
10
52.8385689093095
20
9.04079815749645
30
0
41
1
10
52.9426803500739
20
8.54933464303969
30
0
41
1
10
52.9947360704561
20
8.28985603657503
30
0
41
1
10
53.0988475112205
20
7.74688219213161
30
0
41
1
10
53.1509032316028
20
7.4633928843844
30
0
41
1
10
53.2550146723673
20
6.87651643124141
30
0
41
1
10
53.3070703927495
20
6.57313628307546
30
0
41
1
10
53.411181833514
20
5.95103377933754
30
0
41
1
10
53.4632375538961
20
5.63231880175084
30
0
41
1
10
53.5673489946605
20
4.98432073850631
30
0
41
1
10
53.6194047150427
20
4.65504472286457
30
0
41
1
10
53.7235161558072
20
3.99069779061267
30
0
41
1
10
53.7755718761894
20
3.65563304847708
30
0
41
1
10
53.931739037336
20
2.64860370285291
30
0
41
1
10
54.0358504781005
20
1.9750648762965
30
0
41
1
10
54.1920176392471
20
0.985197228979388
30
0
41
1
10
54.2440733596294
20
0.658587901695995
30
0
41
1
10
54.3091430101071
20
0.2564697082735
30
0
41
1
10
54.3221569402027
20
0.176351794321931
30
0
41
1
10
54.3481848003938
20
0.0167705820359174
30
0
41
1
10
54.3611987304893
20
-0.0626079287008565
30
0
41
1
10
54.400240520776
20
-0.302354093097932
30
0
41
1
10
54.4262683809671
20
-0.463479079601569
30
0
41
1
10
54.5564076819227
20
-1.27467914259384
30
0
41
1
10
54.6605191226871
20
-1.94182842818094
30
0
41
1
10
54.8166862838337
20
-2.94830492936251
30
0
41
1
10
54.8687420042159
20
-3.28468402667687
30
0
41
1
10
54.9728534449804
20
-3.95489902056445
30
0
41
1
10
55.0249091653626
20
-4.28872963027538
30
0
41
1
10
55.1290206061271
20
-4.94919923298193
30
0
41
1
10
55.1810763265093
20
-5.27583173256269
30
0
41
1
10
55.2851877672737
20
-5.91711093053775
30
0
41
1
10
55.3372434876558
20
-6.23175039937109
30
0
41
1
10
55.4413549284203
20
-6.84431145038013
30
0
41
1
10
55.4934106488026
20
-7.14222569392851
30
0
41
1
10
55.5975220895669
20
-7.71688740051428
30
0
41
1
10
55.6495778099492
20
-7.99362811555173
30
0
41
1
10
55.7536892507137
20
-8.52199111745341
30
0
41
1
10
55.8057449710958
20
-8.77360791050671
30
0
41
1
10
55.9098564118603
20
-9.24845479740117
30
0
41
1
10
55.9619121322425
20
-9.47168117009181
30
0
41
1
10
56.0660235730069
20
-9.88730238601912
30
0
41
1
10
56.1180792933892
20
-10.0796955715208
30
0
41
1
10
56.2221907341536
20
-10.4321105979394
30
0
41
1
10
56.2742464545358
20
-10.5921328710154
30
0
41
1
10
56.3783578953002
20
-10.8791895059372
30
0
41
1
10
56.4304136156824
20
-11.0062261679368
30
0
41
1
10
56.5345250564469
20
-11.227576196701
30
0
41
1
10
56.5865807768291
20
-11.3218933213982
30
0
41
1
10
56.6386364972113
20
-11.4003753902792
30
0
0
SPLINE
5
E4
100
AcDbEntity
8
1
62
256
6
ByLayer
370
13
48
1
60
0
100
AcDbSpline
70
4
71
3
72
78
73
74
40
0
40
0
40
0
40
0
40
0.0312500000000002
40
0.0312500000000002
40
0.0625000000000004
40
0.0625000000000004
40
0.0781250000000005
40
0.0781250000000005
40
0.0859375000000004
40
0.0859375000000004
40
0.0937500000000003
40
0.0937500000000003
40
0.125
40
0.125
40
0.156249999999999
40
0.156249999999999
40
0.187499999999999
40
0.187499999999999
40
0.218749999999998
40
0.218749999999998
40
0.249999999999998
40
0.249999999999998
40
0.281249999999997
40
0.281249999999997
40
0.312499999999997
40
0.312499999999997
40
0.343749999999996
40
0.343749999999996
40
0.374999999999996
40
0.374999999999996
40
0.406249999999996
40
0.406249999999996
40
0.437499999999995
40
0.437499999999995
40
0.468749999999995
40
0.468749999999995
40
0.499999999999994
40
0.499999999999994
40
0.531249999999994
40
0.531249999999994
40
0.539062499999994
40
0.539062499999994
40
0.546874999999994
40
0.546874999999994
40
0.562499999999994
40
0.562499999999994
40
0.593749999999994
40
0.593749999999994
40
0.624999999999995
40
0.624999999999995
40
0.656249999999995
40
0.656249999999995
40
0.687499999999996
40
0.687499999999996
40
0.718749999999996
40
0.718749999999996
40
0.749999999999996
40
0.749999999999996
40
0.781249999999997
40
0.781249999999997
40
0.812499999999997
40
0.812499999999997
40
0.843749999999998
40
0.843749999999998
40
0.874999999999998
40
0.874999999999998
40
0.906249999999999
40
0.906249999999999
40
0.937499999999999
40
0.937499999999999
40
0.96875
40
0.96875
40
1
40
1
40
1
40
1
41
1
10
45.8
20
-11.1719478544661
30
0
41
1
10
45.8621968545867
20
-11.2975614787261
30
0
41
1
10
45.9243937091733
20
-11.3998962507649
30
0
41
1
10
46.0487874183467
20
-11.5601125394134
30
0
41
1
10
46.1109842729333
20
-11.618005995835
30
0
41
1
10
46.2042795548133
20
-11.6740267789265
30
0
41
1
10
46.2353779821067
20
-11.6875723073962
30
0
41
1
10
46.2820256230467
20
-11.7005759291894
30
0
41
1
10
46.2975748366934
20
-11.7036917420573
30
0
41
1
10
46.3286732639868
20
-11.707552938307
30
0
41
1
10
46.3442224776335
20
-11.7083001126374
30
0
41
1
10
46.4219685458668
20
-11.7062635552286
30
0
41
1
10
46.4841654004535
20
-11.686002303467
30
0
41
1
10
46.6085591096268
20
-11.6040771040148
30
0
41
1
10
46.6707559642134
20
-11.5424006426568
30
0
41
1
10
46.7951496733868
20
-11.3743768167814
30
0
41
1
10
46.8573465279735
20
-11.2680176432881
30
0
41
1
10
46.9817402371469
20
-11.0086251782143
30
0
41
1
10
47.0439370917335
20
-10.8555825726886
30
0
41
1
10
47.1683308009069
20
-10.5024090302007
30
0
41
1
10
47.2305276554936
20
-10.3022730533408
30
0
41
1
10
47.3549213646669
20
-9.85630959058093
30
0
41
1
10
47.4171182192536
20
-9.6104826790303
30
0
41
1
10
47.5415119284269
20
-9.07641676585982
30
0
41
1
10
47.6037087830136
20
-8.78818445109857
30
0
41
1
10
47.728102492187
20
-8.1743617907218
30
0
41
1
10
47.7902993467737
20
-7.84878367300368
30
0
41
1
10
47.914693055947
20
-7.16681108587863
30
0
41
1
10
47.9768899105336
20
-6.81043280020867
30
0
41
1
10
48.101283619707
20
-6.07445596107192
30
0
41
1
10
48.1634804742937
20
-5.69487529286059
30
0
41
1
10
48.287874183467
20
-4.92062394242711
30
0
41
1
10
48.3500710380537
20
-4.52597044540832
30
0
41
1
10
48.4744647472271
20
-3.7297025619583
30
0
41
1
10
48.5366616018137
20
-3.32810263288857
30
0
41
1
10
48.6610553109871
20
-2.52558789445655
30
0
41
1
10
48.7232521655738
20
-2.12468351874671
30
0
41
1
10
48.8476458747471
20
-1.3303451452397
30
0
41
1
10
48.9098427293339
20
-0.936917109356472
30
0
41
1
10
48.9875887975672
20
-0.453349550144623
30
0
41
1
10
49.0031380112138
20
-0.357044017067778
30
0
41
1
10
49.0342364385072
20
-0.165325684778253
30
0
41
1
10
49.0497856521538
20
-0.0700589906295761
30
0
41
1
10
49.0964332930938
20
0.215237146896271
30
0
41
1
10
49.1275317203872
20
0.407341803726268
30
0
41
1
10
49.2208270022672
20
0.988474856920703
30
0
41
1
10
49.2830238568539
20
1.38235887913297
30
0
41
1
10
49.4074175660272
20
2.17733365201241
30
0
41
1
10
49.4696144206139
20
2.57841824592694
30
0
41
1
10
49.5940081297873
20
3.3809738762632
30
0
41
1
10
49.6562049843739
20
3.78243428688935
30
0
41
1
10
49.7805986935473
20
4.57807348039614
30
0
41
1
10
49.8427955481339
20
4.9722376528299
30
0
41
1
10
49.9671892573073
20
5.74514978014281
30
0
41
1
10
50.029386111894
20
6.12388047218917
30
0
41
1
10
50.1537798210673
20
6.85780864908949
30
0
41
1
10
50.215976675654
20
7.21298827206482
30
0
41
1
10
50.3403703848274
20
7.89225037006469
30
0
41
1
10
50.402567239414
20
8.21631679087483
30
0
41
1
10
50.5269609485873
20
8.82685982528383
30
0
41
1
10
50.5891578031741
20
9.11332442753061
30
0
41
1
10
50.7135515123474
20
9.64367171207684
30
0
41
1
10
50.7757483669341
20
9.88754797195065
30
0
41
1
10
50.9001420761074
20
10.3295086714372
30
0
41
1
10
50.9623389306941
20
10.5275928009617
30
0
41
1
10
51.0867326398674
20
10.8766435281263
30
0
41
1
10
51.1489294944541
20
11.0276153862256
30
0
41
1
10
51.2733232036275
20
11.2829227390455
30
0
41
1
10
51.3355200582141
20
11.3872676961239
30
0
41
1
10
51.4599137673875
20
11.5513825110172
30
0
41
1
10
51.5221106219742
20
11.6111642449699
30
0
41
1
10
51.6465043311475
20
11.6894667356416
30
0
41
1
10
51.7087011857342
20
11.708
30
0
41
1
10
51.7708980403209
20
11.708
30
0
0
SPLINE
5
E5
100
AcDbEntity
8
1
62
256
6
ByLayer
370
13
48
1
60
0
100
AcDbSpline
70
4
71
3
72
78
73
74
40
0
40
0
40
0
40
0
40
0.0312499999999998
40
0.0312499999999998
40
0.0624999999999996
40
0.0624999999999996
40
0.0937499999999994
40
0.0937499999999994
40
0.124999999999999
40
0.124999999999999
40
0.156249999999999
40
0.156249999999999
40
0.187499999999999
40
0.187499999999999
40
0.218749999999999
40
0.218749999999999
40
0.249999999999999
40
0.249999999999999
40
0.281249999999999
40
0.281249999999999
40
0.312499999999998
40
0.312499999999998
40
0.343749999999998
40
0.343749999999998
40
0.374999999999998
40
0.374999999999998
40
0.406249999999998
40
0.406249999999998
40
0.437499999999998
40
0.437499999999998
40
0.468749999999998
40
0.468749999999998
40
0.484374999999998
40
0.484374999999998
40
0.492187499999998
40
0.492187499999998
40
0.499999999999998
40
0.499999999999998
40
0.531249999999998
40
0.531249999999998
40
0.562499999999998
40
0.562499999999998
40
0.593749999999998
40
0.593749999999998
40
0.624999999999999
40
0.624999999999999
40
0.656249999999999
40
0.656249999999999
40
0.687499999999999
40
0.687499999999999
40
0.718749999999999
40
0.718749999999999
40
0.749999999999999
40
0.749999999999999
40
0.781249999999999
40
0.781249999999999
40
0.812499999999999
40
0.812499999999999
40
0.84375
40
0.84375
40
0.875
40
0.875
40
0.90625
40
0.90625
40
0.9375
40
0.9375
40
0.96875
40
0.96875
40
0.984375
40
0.984375
40
0.9921875
40
0.9921875
40
1
40
1
40
1
40
1
41
1
10
51.1545134406363
20
11.708
30
0
41
1
10
51.2116397224756
20
11.708
30
0
41
1
10
51.2687660043149
20
11.6923693513451
30
0
41
1
10
51.3830185679936
20
11.626593441547
30
0
41
1
10
51.4401448498329
20
11.5764400101581
30
0
41
1
10
51.5543974135116
20
11.4389526992732
30
0
41
1
10
51.6115236953509
20
11.3516109052594
30
0
41
1
10
51.7257762590296
20
11.1379283625182
30
0
41
1
10
51.7829025408688
20
11.0115809216852
30
0
41
1
10
51.8971551045474
20
10.7191389085485
30
0
41
1
10
51.9542813863868
20
10.5530398768476
30
0
41
1
10
52.0685339500654
20
10.1815880086006
30
0
41
1
10
52.1256602319047
20
9.97623380735917
30
0
41
1
10
52.2399127955834
20
9.5280969084028
30
0
41
1
10
52.2970390774227
20
9.28531645210322
30
0
41
1
10
52.4112916411014
20
8.76547274541775
30
0
41
1
10
52.4684179229407
20
8.48841535008992
30
0
41
1
10
52.5826704866194
20
7.90436190557054
30
0
41
1
10
52.6397967684587
20
7.59737477948588
30
0
41
1
10
52.7540493321373
20
6.95878012800662
30
0
41
1
10
52.8111756139767
20
6.62718357640043
30
0
41
1
10
52.9254281776553
20
5.9453596399255
30
0
41
1
10
52.9825544594946
20
5.59514398562052
30
0
41
1
10
53.0968070231732
20
4.88239695644853
30
0
41
1
10
53.1539333050126
20
4.51987675167049
30
0
41
1
10
53.2681858686913
20
3.78881272781626
30
0
41
1
10
53.3253121505306
20
3.42027841588245
30
0
41
1
10
53.4395647142092
20
2.68314111101588
30
0
41
1
10
53.4966909960486
20
2.31454523622048
30
0
41
1
10
53.6109435597272
20
1.58265075071421
30
0
41
1
10
53.6680698415665
20
1.21935657562759
30
0
41
1
10
53.7537592643255
20
0.681840439015758
30
0
41
1
10
53.7823224052451
20
0.503899555720011
30
0
41
1
10
53.8251671166246
20
0.239206296638059
30
0
41
1
10
53.8394486870845
20
0.151344464677294
30
0
41
1
10
53.8680118280041
20
-0.0235839160881994
30
0
41
1
10
53.882293398464
20
-0.110815014779263
30
0
41
1
10
53.9537012507632
20
-0.550136803514164
30
0
41
1
10
54.0108275326024
20
-0.907760896606248
30
0
41
1
10
54.1250800962811
20
-1.63127168714479
30
0
41
1
10
54.1822063781204
20
-1.99715558892109
30
0
41
1
10
54.2964589417991
20
-2.73228460766214
30
0
41
1
10
54.3535852236384
20
-3.10152426681904
30
0
41
1
10
54.467837787317
20
-3.83775653014845
30
0
41
1
10
54.5249640691563
20
-4.2047410549454
30
0
41
1
10
54.639216632835
20
-4.93035149723545
30
0
41
1
10
54.6963429146743
20
-5.28896717069742
30
0
41
1
10
54.810595478353
20
-5.99150214590901
30
0
41
1
10
54.8677217601923
20
-6.33540991985691
30
0
41
1
10
54.981974323871
20
-7.00229552748101
30
0
41
1
10
55.0391006057103
20
-7.32526175743979
30
0
41
1
10
55.1533531693889
20
-7.94448683372039
30
0
41
1
10
55.2104794512282
20
-8.24073533923453
30
0
41
1
10
55.3247320149069
20
-8.80153805317912
30
0
41
1
10
55.3818582967462
20
-9.06608440123941
30
0
41
1
10
55.4961108604248
20
-9.55956394552442
30
0
41
1
10
55.5532371422641
20
-9.78849261847674
30
0
41
1
10
55.6674897059428
20
-10.2080746728375
30
0
41
1
10
55.7246159877822
20
-10.3987272069056
30
0
41
1
10
55.8388685514608
20
-10.7404329065575
30
0
41
1
10
55.8959948333001
20
-10.8914886902769
30
0
41
1
10
56.0102473969787
20
-11.1539869938549
30
0
41
1
10
56.0673736788181
20
-11.2654349313124
30
0
41
1
10
56.1816262424967
20
-11.4498903357465
30
0
41
1
10
56.2387525243361
20
-11.5229050772883
30
0
41
1
10
56.3530050880147
20
-11.6326593458872
30
0
41
1
10
56.4101313698541
20
-11.669406990298
30
0
41
1
10
56.495820792613
20
-11.6995142228
30
0
41
1
10
56.5243839335327
20
-11.7053860656739
30
0
41
1
10
56.5672286449121
20
-11.7082590000363
30
0
41
1
10
56.581510215372
20
-11.7082346753096
30
0
41
1
10
56.6100733562916
20
-11.7062200638944
30
0
41
1
10
56.6243549267515
20
-11.7042231665456
30
0
41
1
10
56.6386364972113
20
-11.7012103452244
30
0
0
SPLINE
5
E6
100
AcDbEntity
8
1
62
256
6
ByLayer
370
13
48
1
60
0
100
AcDbSpline
70
4
71
3
72
77
73
73
40
0
40
0
40
0
40
0
40
0.0078125000000002
40
0.0078125000000002
40
0.0156250000000005
40
0.0156250000000005
40
0.0312500000000007
40
0.0312500000000007
40
0.0625000000000012
40
0.0625000000000012
40
0.0937500000000018
40
0.0937500000000018
40
0.125000000000002
40
0.125000000000002
40
0.156250000000003
40
0.156250000000003
40
0.187500000000003
40
0.187500000000003
40
0.218750000000004
40
0.218750000000004
40
0.250000000000004
40
0.250000000000004
40
0.281250000000005
40
0.281250000000005
40
0.312500000000005
40
0.312500000000005
40
0.343750000000006
40
0.343750000000006
40
0.375000000000006
40
0.375000000000006
40
0.406250000000007
40
0.406250000000007
40
0.437500000000007
40
0.437500000000007
40
0.468750000000008
40
0.468750000000008
40
0.500000000000008
40
0.500000000000008
40
0.507812500000008
40
0.507812500000008
40
0.515625000000008
40
0.531250000000008
40
0.531250000000008
40
0.562500000000007
40
0.562500000000007
40
0.593750000000007
40
0.593750000000007
40
0.625000000000006
40
0.625000000000006
40
0.656250000000006
40
0.656250000000006
40
0.687500000000005
40
0.687500000000005
40
0.718750000000005
40
0.718750000000005
40
0.750000000000004
40
0.750000000000004
40
0.781250000000004
40
0.781250000000004
40
0.812500000000003
40
0.812500000000003
40
0.843750000000003
40
0.843750000000003
40
0.875000000000002
40
0.875000000000002
40
0.906250000000002
40
0.906250000000002
40
0.937500000000001
40
0.937500000000001
40
0.968750000000001
40
0.968750000000001
40
1
40
1
40
1
40
1
41
1
10
45.8
20
-11.7012101165719
30
0
41
1
10
45.8142815732824
20
-11.7042229898858
30
0
41
1
10
45.8285631465648
20
-11.70621993817
30
0
41
1
10
45.8571262931296
20
-11.708234649331
30
0
41
1
10
45.871407866412
20
-11.7082590225169
30
0
41
1
10
45.9142525862591
20
-11.7053862353344
30
0
41
1
10
45.9428157328239
20
-11.6995144916847
30
0
41
1
10
46.0285051725183
20
-11.6694075592773
30
0
41
1
10
46.0856314656479
20
-11.632660118189
30
0
41
1
10
46.199884051907
20
-11.5229062572144
30
0
41
1
10
46.2570103450365
20
-11.4498917199641
30
0
41
1
10
46.3712629312957
20
-11.2654367186886
30
0
41
1
10
46.4283892244253
20
-11.1539889800831
30
0
41
1
10
46.5426418106844
20
-10.8914910619047
30
0
41
1
10
46.599768103814
20
-10.7404354647143
30
0
41
1
10
46.7140206900731
20
-10.3987301189642
30
0
41
1
10
46.7711469832027
20
-10.2080777522492
30
0
41
1
10
46.8853995694618
20
-9.78849600719525
30
0
41
1
10
46.9425258625914
20
-9.5595674761785
30
0
41
1
10
47.0567784488505
20
-9.06608818530546
30
0
41
1
10
47.1139047419801
20
-8.80154194870821
30
0
41
1
10
47.2281573282392
20
-8.24073942383495
30
0
41
1
10
47.2852836213688
20
-7.94449099592268
30
0
41
1
10
47.399536207628
20
-7.32526603956356
30
0
41
1
10
47.4566625007576
20
-7.0022998519259
30
0
41
1
10
47.5709150870167
20
-6.33541429427865
30
0
41
1
10
47.6280413801462
20
-5.99150652799528
30
0
41
1
10
47.7422939664054
20
-5.28897153594926
30
0
41
1
10
47.799420259535
20
-4.93035583800267
30
0
41
1
10
47.9136728457941
20
-4.20474531861018
30
0
41
1
10
47.9707991389236
20
-3.8377607412126
30
0
41
1
10
48.0850517251828
20
-3.10152834962344
30
0
41
1
10
48.1421780183123
20
-2.73228861482468
30
0
41
1
10
48.2564306045714
20
-1.99715942733369
30
0
41
1
10
48.313556897701
20
-1.63127543246432
30
0
41
1
10
48.4278094839602
20
-0.907764443891153
30
0
41
1
10
48.4849357770899
20
-0.550140245868931
30
0
41
1
10
48.5563436435018
20
-0.110818321842657
30
0
41
1
10
48.5706252167841
20
-0.0235871905537977
30
0
41
1
10
48.5991883633489
20
0.15134120498675
30
0
41
1
10
48.6420330831961
20
0.41492587804342
30
0
41
1
10
48.6848778030433
20
0.681837231191167
30
0
41
1
10
48.7705672427377
20
1.21935343031791
30
0
41
1
10
48.8276935358672
20
1.58264765525254
30
0
41
1
10
48.9419461221263
20
2.31454225641741
30
0
41
1
10
48.9990724152559
20
2.68313819702647
30
0
41
1
10
49.113325001515
20
3.42027564814373
30
0
41
1
10
49.1704512946446
20
3.78881004051422
30
0
41
1
10
49.2847038809038
20
4.51987423751117
30
0
41
1
10
49.3418301740333
20
4.88239453499085
30
0
41
1
10
49.4560827602925
20
5.59514175853551
30
0
41
1
10
49.513209053422
20
5.94535751450306
30
0
41
1
10
49.6274616396812
20
6.62718165922098
30
0
41
1
10
49.6845879328108
20
6.95877831739591
30
0
41
1
10
49.7988405190699
20
7.59737318243452
30
0
41
1
10
49.8559668121994
20
7.90436041549646
30
0
41
1
10
49.9702193984586
20
8.48841406983519
30
0
41
1
10
50.0273456915882
20
8.76547156799217
30
0
41
1
10
50.1415982778473
20
9.28531547198523
30
0
41
1
10
50.1987245709769
20
9.52809602275278
30
0
41
1
10
50.312977157236
20
9.97623309878023
30
0
41
1
10
50.3701034503655
20
10.1815873826182
30
0
41
1
10
50.4843560366247
20
10.5530394016425
30
0
41
1
10
50.5414823297543
20
10.7191385015221
30
0
41
1
10
50.6557349160135
20
11.0115806351444
30
0
41
1
10
50.712861209143
20
11.1379281282865
30
0
41
1
10
50.8271137954021
20
11.3516107594076
30
0
41
1
10
50.8842400885317
20
11.4389525894977
30
0
41
1
10
50.9984926747909
20
11.5764399568985
30
0
41
1
10
51.0556189679204
20
11.6265934087346
30
0
41
1
10
51.1698715541795
20
11.6923693451584
30
0
41
1
10
51.2269978473091
20
11.708
30
0
41
1
10
51.2841241404386
20
11.708
30
0
0
SPLINE
5
E7
100
AcDbEntity
8
1
62
256
6
ByLayer
370
13
48
1
60
0
100
AcDbSpline
70
4
71
3
72
77
73
73
40
0
40
0
40
0
40
0
40
0.0312500000000004
40
0.0312500000000004
40
0.0625000000000007
40
0.0625000000000007
40
0.0937500000000011
40
0.0937500000000011
40
0.125000000000001
40
0.125000000000001
40
0.156250000000002
40
0.156250000000002
40
0.187500000000002
40
0.187500000000002
40
0.218750000000002
40
0.218750000000002
40
0.250000000000003
40
0.250000000000003
40
0.281250000000003
40
0.281250000000003
40
0.312500000000004
40
0.312500000000004
40
0.343750000000004
40
0.343750000000004
40
0.375000000000004
40
0.375000000000004
40
0.406250000000005
40
0.406250000000005
40
0.437500000000005
40
0.437500000000005
40
0.453125000000005
40
0.453125000000005
40
0.460937500000005
40
0.460937500000005
40
0.468750000000005
40
0.468750000000005
40
0.500000000000005
40
0.500000000000005
40
0.531250000000005
40
0.531250000000005
40
0.562500000000004
40
0.562500000000004
40
0.593750000000004
40
0.593750000000004
40
0.625000000000004
40
0.625000000000004
40
0.656250000000004
40
0.656250000000004
40
0.687500000000004
40
0.687500000000004
40
0.718750000000003
40
0.718750000000003
40
0.750000000000003
40
0.750000000000003
40
0.781250000000003
40
0.781250000000003
40
0.812500000000002
40
0.812500000000002
40
0.843750000000002
40
0.843750000000002
40
0.875000000000002
40
0.875000000000002
40
0.906250000000001
40
0.906250000000001
40
0.914062500000001
40
0.914062500000001
40
0.921875000000001
40
0.937500000000001
40
0.937500000000001
40
0.968750000000001
40
0.968750000000001
40
1
40
1
40
1
40
1
41
1
10
50.667739540754
20
11.708
30
0
41
1
10
50.7299363840505
20
11.708
30
0
41
1
10
50.7921332273469
20
11.6894667423811
30
0
41
1
10
50.9165269139397
20
11.6111642808718
30
0
41
1
10
50.9787237572362
20
11.5513825693534
30
0
41
1
10
51.1031174438291
20
11.3872678165327
30
0
41
1
10
51.1653142871255
20
11.2829228991029
30
0
41
1
10
51.2897079737184
20
11.0276156432687
30
0
41
1
10
51.3519048170147
20
10.8766438425133
30
0
41
1
10
51.4762985036076
20
10.5275932469094
30
0
41
1
10
51.538495346904
20
10.3295091916029
30
0
41
1
10
51.6628890334969
20
9.88754865518456
30
0
41
1
10
51.7250858767934
20
9.64367248415525
30
0
41
1
10
51.8494795633862
20
9.11332538832946
30
0
41
1
10
51.9116764066827
20
8.82686088594625
30
0
41
1
10
52.0360700932755
20
8.21631805760973
30
0
41
1
10
52.098266936572
20
7.89225174299133
30
0
41
1
10
52.2226606231648
20
7.2129898584013
30
0
41
1
10
52.2848574664612
20
6.85781034262519
30
0
41
1
10
52.409251153054
20
6.12388237575166
30
0
41
1
10
52.4714479963505
20
5.74515178651575
30
0
41
1
10
52.5958416829433
20
4.9722398555289
30
0
41
1
10
52.6580385262398
20
4.57807577659818
30
0
41
1
10
52.7824322128327
20
3.78243675680858
30
0
41
1
10
52.8446290561291
20
3.38097642639022
30
0
41
1
10
52.969022742722
20
2.57842094040311
30
0
41
1
10
53.0312195860184
20
2.17733641062978
30
0
41
1
10
53.1556132726113
20
1.38236174850087
30
0
41
1
10
53.2178101159077
20
0.988477772902826
30
0
41
1
10
53.3111053808523
20
0.40734477630798
30
0
41
1
10
53.3422038025005
20
0.215240136133389
30
0
41
1
10
53.3888514349729
20
-0.0700559796738389
30
0
41
1
10
53.404400645797
20
-0.165322631798546
30
0
41
1
10
53.4354990674452
20
-0.357040910172827
30
0
41
1
10
53.4510482782693
20
-0.453346416528206
30
0
41
1
10
53.5287943323898
20
-0.936913843547615
30
0
41
1
10
53.5909911756862
20
-1.33034177818214
30
0
41
1
10
53.7153848622791
20
-2.12467996459861
30
0
41
1
10
53.7775817055756
20
-2.52558425448487
30
0
41
1
10
53.9019753921684
20
-3.32809884338431
30
0
41
1
10
53.9641722354648
20
-3.72969870876798
30
0
41
1
10
54.0885659220577
20
-4.52596649332813
30
0
41
1
10
54.1507627653541
20
-4.92061995516775
30
0
41
1
10
54.2751564519469
20
-5.69487126902567
30
0
41
1
10
54.3373532952434
20
-6.07445193586244
30
0
41
1
10
54.4617469818362
20
-6.8104288095524
30
0
41
1
10
54.5239438251327
20
-7.16680713116455
30
0
41
1
10
54.6483375117256
20
-7.84877982865297
30
0
41
1
10
54.710534355022
20
-8.17435802079592
30
0
41
1
10
54.8349280416149
20
-8.78818086705292
30
0
41
1
10
54.8971248849113
20
-9.07641329326108
30
0
41
1
10
55.0215185715042
20
-9.61047946235357
30
0
41
1
10
55.0837154148006
20
-9.85630651836021
30
0
41
1
10
55.2081091013934
20
-10.3022702969253
30
0
41
1
10
55.2703059446899
20
-10.5024064451085
30
0
41
1
10
55.3946996312827
20
-10.855580349557
30
0
41
1
10
55.4568964745792
20
-11.0086231456925
30
0
41
1
10
55.581290161172
20
-11.2680160030943
30
0
41
1
10
55.6434870044684
20
-11.3743753782813
30
0
41
1
10
55.7678806910613
20
-11.5423996106195
30
0
41
1
10
55.8300775343577
20
-11.6040762767281
30
0
41
1
10
55.9544712209506
20
-11.686001881551
30
0
41
1
10
56.016668064247
20
-11.7062633339218
30
0
41
1
10
56.0944141183675
20
-11.7083001357996
30
0
41
1
10
56.1099633291917
20
-11.7075530106235
30
0
41
1
10
56.1410617508399
20
-11.703691915754
30
0
41
1
10
56.1877093833122
20
-11.694345400861
30
0
41
1
10
56.2343570157845
20
-11.6740272740237
30
0
41
1
10
56.3276522807291
20
-11.61800683608
30
0
41
1
10
56.3898491240256
20
-11.5601136277316
30
0
41
1
10
56.5142428106184
20
-11.3998978671768
30
0
41
1
10
56.576439653915
20
-11.2975633751616
30
0
41
1
10
56.6386364972113
20
-11.1719500434497
30
0
0
SPLINE
5
E8
100
AcDbEntity
8
1
62
256
6
ByLayer
370
13
48
1
60
0
100
AcDbSpline
70
4
71
3
72
68
73
64
40
0
40
0
40
0
40
0
40
0.0312500000000004
40
0.0312500000000004
40
0.0625000000000007
40
0.0625000000000007
40
0.0937500000000011
40
0.0937500000000011
40
0.125000000000001
40
0.125000000000001
40
0.156250000000002
40
0.156250000000002
40
0.187500000000002
40
0.187500000000002
40
0.218750000000002
40
0.218750000000002
40
0.250000000000003
40
0.250000000000003
40
0.281250000000003
40
0.281250000000003
40
0.312500000000004
40
0.312500000000004
40
0.343750000000004
40
0.343750000000004
40
0.375000000000004
40
0.375000000000004
40
0.437500000000005
40
0.437500000000005
40
0.453125000000005
40
0.453125000000005
40
0.460937500000005
40
0.460937500000005
40
0.468750000000005
40
0.468750000000005
40
0.500000000000005
40
0.500000000000005
40
0.562500000000004
40
0.562500000000004
40
0.593750000000004
40
0.593750000000004
40
0.625000000000004
40
0.625000000000004
40
0.656250000000003
40
0.656250000000003
40
0.687500000000003
40
0.687500000000003
40
0.718750000000003
40
0.718750000000003
40
0.750000000000002
40
0.750000000000002
40
0.781250000000002
40
0.781250000000002
40
0.812500000000002
40
0.812500000000002
40
0.843750000000001
40
0.843750000000001
40
0.875000000000001
40
0.875000000000001
40
0.906250000000001
40
0.906250000000001
40
0.9375
40
0.9375
40
1
40
1
40
1
40
1
41
1
10
45.8
20
-11.4003770243693
30
0
41
1
10
45.8520557316725
20
-11.3218951578574
30
0
41
1
10
45.9041114633449
20
-11.2275782335287
30
0
41
1
10
46.0082229266898
20
-11.0062285958582
30
0
41
1
10
46.0602786583623
20
-10.8791921245717
30
0
41
1
10
46.1643901217072
20
-10.5921358556917
30
0
41
1
10
46.2164458533797
20
-10.4321137579309
30
0
41
1
10
46.3205573167246
20
-10.079699061326
30
0
41
1
10
46.3726130483971
20
-9.8873060303099
30
0
41
1
10
46.476724511742
20
-9.47168509782094
30
0
41
1
10
46.5287802434145
20
-9.248458854072
30
0
41
1
10
46.6328917067594
20
-8.77361219589778
30
0
41
1
10
46.6849474384318
20
-8.52199550261554
30
0
41
1
10
46.7890589017768
20
-7.99363266883174
30
0
41
1
10
46.8411146334493
20
-7.71689202213841
30
0
41
1
10
46.9452260967942
20
-7.1422304200822
30
0
41
1
10
46.9972818284667
20
-6.84431621272151
30
0
41
1
10
47.1013932918116
20
-6.2317552027298
30
0
41
1
10
47.1534490234841
20
-5.91711573873283
30
0
41
1
10
47.2575604868291
20
-5.2758365212716
30
0
41
1
10
47.3096162185015
20
-4.94920399737833
30
0
41
1
10
47.4137276818464
20
-4.28873432022939
30
0
41
1
10
47.4657834135188
20
-3.95490366040033
30
0
41
1
10
47.5698948768637
20
-3.28468854460883
30
0
41
1
10
47.6219506085363
20
-2.94830937552064
30
0
41
1
10
47.7781178035536
20
-1.94183263340801
30
0
41
1
10
47.8822292668985
20
-1.27468315318569
30
0
41
1
10
48.0123685960797
20
-0.463482827315659
30
0
41
1
10
48.0383964619159
20
-0.302357787248326
30
0
41
1
10
48.0774382606702
20
-0.0626115414156914
30
0
41
1
10
48.0904521935884
20
0.0167669922644791
30
0
41
1
10
48.1164800594246
20
0.176348219574606
30
0
41
1
10
48.1294939923427
20
0.2564661414944
30
0
41
1
10
48.1945636569333
20
0.658584377056457
30
0
41
1
10
48.2466193886058
20
0.985193745430649
30
0
41
1
10
48.4027865836232
20
1.97506153826808
30
0
41
1
10
48.5068980469681
20
2.64860049188806
30
0
41
1
10
48.6630652419854
20
3.65563006730136
30
0
41
1
10
48.715120973658
20
3.99069489247063
30
0
41
1
10
48.8192324370029
20
4.65504200154771
30
0
41
1
10
48.8712881686753
20
4.98431811097745
30
0
41
1
10
48.9753996320202
20
5.63231636973805
30
0
41
1
10
49.0274553636927
20
5.95103144904678
30
0
41
1
10
49.1315668270376
20
6.57313416079512
30
0
41
1
10
49.1836225587101
20
6.87651441524139
30
0
41
1
10
49.287734022055
20
7.46339108179541
30
0
41
1
10
49.3397897537275
20
7.74688049666409
30
0
41
1
10
49.4439012170724
20
8.28985455240468
30
0
41
1
10
49.4959569487449
20
8.54933326303589
30
0
41
1
10
49.6000684120899
20
9.04079697928245
30
0
41
1
10
49.6521241437623
20
9.27277769366742
30
0
41
1
10
49.7562356071072
20
9.7065438838209
30
0
41
1
10
49.8082913387796
20
9.90832707214307
30
0
41
1
10
49.9124028021245
20
10.2798839469957
30
0
41
1
10
49.964458533797
20
10.4496574557622
30
0
41
1
10
50.068569997142
20
10.7563051141237
30
0
41
1
10
50.1206257288145
20
10.8931810431667
30
0
41
1
10
50.2247371921594
20
11.1340432391911
30
0
41
1
10
50.2767929238318
20
11.238032880517
30
0
41
1
10
50.3809043871767
20
11.4139528651182
30
0
41
1
10
50.4329601188492
20
11.4858876855963
30
0
41
1
10
50.5891273138666
20
11.6559000816079
30
0
41
1
10
50.6932387772115
20
11.708
30
0
41
1
10
50.7973502405564
20
11.708
30
0
0
SPLINE
5
E9
100
AcDbEntity
8
1
62
256
6
ByLayer
370
13
48
1
60
0
100
AcDbSpline
70
4
71
3
72
79
73
75
40
0
40
0
40
0
40
0
40
0.03125
40
0.03125
40
0.0624999999999999
40
0.0624999999999999
40
0.0937499999999999
40
0.0937499999999999
40
0.125
40
0.125
40
0.15625
40
0.15625
40
0.1875
40
0.1875
40
0.21875
40
0.21875
40
0.25
40
0.25
40
0.28125
40
0.28125
40
0.3125
40
0.3125
40
0.34375
40
0.34375
40
0.375
40
0.375
40
0.40625
40
0.40625
40
0.4140625
40
0.41796875
40
0.41796875
40
0.421875
40
0.421875
40
0.4375
40
0.4375
40
0.46875
40
0.46875
40
0.5
40
0.5
40
0.53125
40
0.53125
40
0.5625
40
0.5625
40
0.59375
40
0.59375
40
0.625
40
0.625
40
0.65625
40
0.65625
40
0.6875
40
0.6875
40
0.71875
40
0.71875
40
0.750000000000001
40
0.750000000000001
40
0.781250000000001
40
0.781250000000001
40
0.812500000000001
40
0.812500000000001
40
0.828125000000001
40
0.828125000000001
40
0.835937500000001
40
0.835937500000001
40
0.843750000000001
40
0.843750000000001
40
0.875
40
0.875
40
0.90625
40
0.90625
40
0.9375
40
0.9375
40
0.96875
40
0.96875
40
1
40
1
40
1
40
1
41
1
10
50.1809656408718
20
11.708
30
0
41
1
10
50.2482330456253
20
11.708
30
0
41
1
10
50.3155004503789
20
11.6863156332208
30
0
41
1
10
50.4500352598859
20
11.5943416811537
30
0
41
1
10
50.5173026646395
20
11.5240335927992
30
0
41
1
10
50.6518374741466
20
11.3307832248317
30
0
41
1
10
50.7191048789001
20
11.2078237890649
30
0
41
1
10
50.8536396884072
20
10.9070295340603
30
0
41
1
10
50.9209070931607
20
10.7291820231234
30
0
41
1
10
51.0554419026678
20
10.3186183296854
30
0
41
1
10
51.1227093074213
20
10.0858968912203
30
0
41
1
10
51.2572441169284
20
9.56812018330157
30
0
41
1
10
51.324511521682
20
9.28306904961826
30
0
41
1
10
51.459046331189
20
8.66571892177186
30
0
41
1
10
51.5263137359426
20
8.33343366105922
30
0
41
1
10
51.6608485454497
20
7.62898319091207
30
0
41
1
10
51.7281159502032
20
7.25683950586478
30
0
41
1
10
51.8626507597102
20
6.48178425000194
30
0
41
1
10
51.9299181644638
20
6.07889855858423
30
0
41
1
10
52.0644529739708
20
5.25248986765291
30
0
41
1
10
52.1317203787244
20
4.82899295247668
30
0
41
1
10
52.2662551882315
20
3.97171513035528
30
0
41
1
10
52.333522592985
20
3.53795673504638
30
0
41
1
10
52.4680574024921
20
2.66998917704734
30
0
41
1
10
52.5353248072456
20
2.23579639390817
30
0
41
1
10
52.6698596167527
20
1.37568125550243
30
0
41
1
10
52.7371270215062
20
0.949768156671922
30
0
41
1
10
52.8212112774481
20
0.42705969355012
30
0
41
1
10
52.8464365542307
20
0.27096744217107
30
0
41
1
10
52.8716618310134
20
0.116064125135068
30
0
41
1
10
52.8884786822018
20
0.0130707403081374
30
0
41
1
10
52.8968871077959
20
-0.0382465948266031
30
0
41
1
10
52.9389292357668
20
-0.295954109822503
30
0
41
1
10
52.9725629381436
20
-0.50431400070471
30
0
41
1
10
53.0734640452739
20
-1.13481102410236
30
0
41
1
10
53.1407314500274
20
-1.56241467764835
30
0
41
1
10
53.2752662595345
20
-2.42473131140758
30
0
41
1
10
53.3425336642881
20
-2.85943399654758
30
0
41
1
10
53.4770684737951
20
-3.7270507702678
30
0
41
1
10
53.5443358785486
20
-4.15994748851736
30
0
41
1
10
53.6788706880557
20
-5.01401401463025
30
0
41
1
10
53.7461380928092
20
-5.435160597031
30
0
41
1
10
53.8806729023163
20
-6.25536342804546
30
0
41
1
10
53.9479403070698
20
-6.65439336733527
30
0
41
1
10
54.0824751165769
20
-7.42032962285617
30
0
41
1
10
54.1497425213304
20
-7.78721043986923
30
0
41
1
10
54.2842773308375
20
-8.47993832178679
30
0
41
1
10
54.3515447355911
20
-8.80576481207595
30
0
41
1
10
54.4860795450981
20
-9.40930388796377
30
0
41
1
10
54.5533469498517
20
-9.68700406997007
30
0
41
1
10
54.6878817593588
20
-10.1895463406279
30
0
41
1
10
54.7551491641123
20
-10.4143857191144
30
0
41
1
10
54.8896839736194
20
-10.809028886705
30
0
41
1
10
54.9569513783729
20
-10.9788391680542
30
0
41
1
10
55.09148618788
20
-11.263752845576
30
0
41
1
10
55.1587535926335
20
-11.3788697799395
30
0
41
1
10
55.2932884021406
20
-11.5569215614927
30
0
41
1
10
55.3605558068941
20
-11.6198739476209
30
0
41
1
10
55.4614569140244
20
-11.6783478032104
30
0
41
1
10
55.4950906164013
20
-11.6918583331436
30
0
41
1
10
55.5455411699664
20
-11.7036351115002
30
0
41
1
10
55.5623580211547
20
-11.7061463816027
30
0
41
1
10
55.5959917235314
20
-11.7084260717165
30
0
41
1
10
55.6128085747199
20
-11.7082070354709
30
0
41
1
10
55.6968928306618
20
-11.7002643299209
30
0
41
1
10
55.7641602354154
20
-11.6718144036546
30
0
41
1
10
55.8986950449224
20
-11.5656330640733
30
0
41
1
10
55.965962449676
20
-11.4878831651488
30
0
41
1
10
56.1004972591831
20
-11.2792999341334
30
0
41
1
10
56.1677646639366
20
-11.1484498958074
30
0
41
1
10
56.3022994734436
20
-10.8317266967163
30
0
41
1
10
56.3695668781972
20
-10.6458417551331
30
0
41
1
10
56.5041016877043
20
-10.2194110330692
30
0
41
1
10
56.5713690924578
20
-9.97886127560835
30
0
41
1
10
56.6386364972113
20
-9.71243666897473
30
0
0
SPLINE
5
EA
100
AcDbEntity
8
1
62
256
6
ByLayer
370
13
48
1
60
0
100
AcDbSpline
70
4
71
3
72
42
73
38
40
0
40
0
40
0
40
0
40
0.0625
40
0.0625
40
0.125
40
0.125
40
0.1875
40
0.1875
40
0.25
40
0.25
40
0.3125
40
0.3125
40
0.375
40
0.375
40
0.390625
40
0.390625
40
0.40625
40
0.40625
40
0.4375
40
0.4375
40
0.5
40
0.5
40
0.5625
40
0.5625
40
0.625
40
0.625
40
0.6875
40
0.6875
40
0.75
40
0.75
40
0.8125
40
0.8125
40
0.875
40
0.875
40
0.9375
40
0.9375
40
1
40
1
40
1
40
1
41
1
10
45.8
20
-10.1933927900271
30
0
41
1
10
45.8939703404307
20
-9.86849816403941
30
0
41
1
10
45.9879406808614
20
-9.49079787444072
30
0
41
1
10
46.1758813617229
20
-8.6415980147772
30
0
41
1
10
46.2698517021536
20
-8.17016627468738
30
0
41
1
10
46.457792383015
20
-7.15415372919836
30
0
41
1
10
46.5517627234457
20
-6.60969558824121
30
0
41
1
10
46.7397034043072
20
-5.4741778560151
30
0
41
1
10
46.8336737447379
20
-4.88325805801799
30
0
41
1
10
47.0216144255993
20
-3.68316676716515
30
0
41
1
10
47.11558476603
20
-3.0741119258592
30
0
41
1
10
47.3035254468914
20
-1.86390769478919
30
0
41
1
10
47.3974957873222
20
-1.26282704716013
30
0
41
1
10
47.5149587128605
20
-0.529609388105996
30
0
41
1
10
47.5384512979682
20
-0.38385798177751
30
0
41
1
10
47.5854364681835
20
-0.0944071529411872
30
0
41
1
10
47.6089290532912
20
0.0486484859483483
30
0
41
1
10
47.6794068086143
20
0.482168726074434
30
0
41
1
10
47.7263919788296
20
0.775352403772956
30
0
41
1
10
47.8673474894757
20
1.66408408254003
30
0
41
1
10
47.9613178299064
20
2.26898412629464
30
0
41
1
10
48.1492585107679
20
3.48136522759526
30
0
41
1
10
48.2432288511986
20
4.08876582638646
30
0
41
1
10
48.43116953206
20
5.27928960412015
30
0
41
1
10
48.5251398724907
20
5.86228806298939
30
0
41
1
10
48.7130805533522
20
6.97572072872521
30
0
41
1
10
48.8070508937828
20
7.50601522822731
30
0
41
1
10
48.9949915746443
20
8.48842382476033
30
0
41
1
10
49.088961915075
20
8.94042475575893
30
0
41
1
10
49.2769025959363
20
9.74725774001868
30
0
41
1
10
49.3708729363671
20
10.1020374503961
30
0
41
1
10
49.5588136172285
20
10.704665203458
30
0
41
1
10
49.6527839576592
20
10.9525318181488
30
0
41
1
10
49.8407246385206
20
11.3413145737646
30
0
41
1
10
49.9346949789514
20
11.4823037617156
30
0
41
1
10
50.1226356598128
20
11.6655980933763
30
0
41
1
10
50.2166060002436
20
11.708
30
0
41
1
10
50.3105763406742
20
11.708
30
0
0
SPLINE
5
EB
100
AcDbEntity
8
1
62
256
6
ByLayer
370
13
48
1
60
0
100
AcDbSpline
70
4
71
3
72
78
73
74
40
0
40
0
40
0
40
0
40
0.0312499999999999
40
0.0312499999999999
40
0.0624999999999998
40
0.0624999999999998
40
0.0937499999999997
40
0.0937499999999997
40
0.125
40
0.125
40
0.156249999999999
40
0.156249999999999
40
0.187499999999999
40
0.187499999999999
40
0.218749999999999
40
0.218749999999999
40
0.249999999999999
40
0.249999999999999
40
0.281249999999999
40
0.281249999999999
40
0.312499999999999
40
0.312499999999999
40
0.343749999999999
40
0.343749999999999
40
0.374999999999999
40
0.374999999999999
40
0.382812499999999
40
0.382812499999999
40
0.390624999999999
40
0.390624999999999
40
0.406249999999998
40
0.406249999999998
40
0.437499999999998
40
0.437499999999998
40
0.468749999999998
40
0.468749999999998
40
0.499999999999998
40
0.499999999999998
40
0.531249999999998
40
0.531249999999998
40
0.562499999999998
40
0.562499999999998
40
0.593749999999997
40
0.593749999999997
40
0.624999999999997
40
0.624999999999997
40
0.656249999999997
40
0.656249999999997
40
0.687499999999997
40
0.687499999999997
40
0.718749999999997
40
0.718749999999997
40
0.749999999999997
40
0.749999999999997
40
0.765624999999997
40
0.765624999999997
40
0.773437499999997
40
0.773437499999997
40
0.781249999999997
40
0.781249999999997
40
0.812499999999997
40
0.812499999999997
40
0.843749999999998
40
0.843749999999998
40
0.874999999999998
40
0.874999999999998
40
0.906249999999998
40
0.906249999999998
40
0.937499999999999
40
0.937499999999999
40
0.968749999999999
40
0.968749999999999
40
1
40
1
40
1
40
1
41
1
10
49.6941917409896
20
11.708
30
0
41
1
10
49.7665297072002
20
11.708
30
0
41
1
10
49.8388676734109
20
11.6829155193309
30
0
41
1
10
49.9835436058322
20
11.576113956427
30
0
41
1
10
50.0558815720428
20
11.4943702952194
30
0
41
1
10
50.2005575044641
20
11.2694536857799
30
0
41
1
10
50.2728954706747
20
11.1262567713883
30
0
41
1
10
50.417571403096
20
10.776130111763
30
0
41
1
10
50.4899093693067
20
10.5691842212638
30
0
41
1
10
50.634585301728
20
10.0923714020805
30
0
41
1
10
50.7069232679386
20
9.82250080616348
30
0
41
1
10
50.8515992003599
20
9.22407963496471
30
0
41
1
10
50.9239371665705
20
8.89554032629215
30
0
41
1
10
51.0686130989918
20
8.18734470854889
30
0
41
1
10
51.1409510652024
20
7.80771367486193
30
0
41
1
10
51.2856269976238
20
7.00766420881908
30
0
41
1
10
51.3579649638344
20
6.58728071120677
30
0
41
1
10
51.5026408962557
20
5.71789955458047
30
0
41
1
10
51.5749788624663
20
5.26893996123425
30
0
41
1
10
51.7196547948876
20
4.35530190055593
30
0
41
1
10
51.7919927610982
20
3.89065793147881
30
0
41
1
10
51.9366686935195
20
2.95815476956389
30
0
41
1
10
52.0090066597301
20
2.49032151013174
30
0
41
1
10
52.1536825921515
20
1.5626281169946
30
0
41
1
10
52.2260205583621
20
1.10278305428832
30
0
41
1
10
52.3164430161254
20
0.538742236751915
30
0
41
1
10
52.3345275076781
20
0.426467134342204
30
0
41
1
10
52.3706964907834
20
0.203105854933
30
0
41
1
10
52.388780982336
20
0.0921517115709776
30
0
41
1
10
52.4430344569941
20
-0.239584502129389
30
0
41
1
10
52.4792034400994
20
-0.463327792892358
30
0
41
1
10
52.5877103894153
20
-1.14088243717214
30
0
41
1
10
52.660048355626
20
-1.60108415394041
30
0
41
1
10
52.8047242880472
20
-2.52920467470952
30
0
41
1
10
52.8770622542579
20
-2.99710809967522
30
0
41
1
10
53.0217381866791
20
-3.92941888757235
30
0
41
1
10
53.0940761528898
20
-4.39380003485718
30
0
41
1
10
53.2387520853111
20
-5.30655496960503
30
0
41
1
10
53.3110900515218
20
-5.75489408104218
30
0
41
1
10
53.455765983943
20
-6.62268096977533
30
0
41
1
10
53.5281039501536
20
-7.04209067389317
30
0
41
1
10
53.672779882575
20
-7.83987538874834
30
0
41
1
10
53.7451178487856
20
-8.2182156507499
30
0
41
1
10
53.8897937812069
20
-8.92357802164801
30
0
41
1
10
53.9621317474175
20
-9.25057519970014
30
0
41
1
10
54.1068076798388
20
-9.84574703688421
30
0
41
1
10
54.1791456460494
20
-10.1139108488163
30
0
41
1
10
54.3238215784707
20
-10.5872410096793
30
0
41
1
10
54.3961595446814
20
-10.79241141936
30
0
41
1
10
54.5408354771027
20
-11.1390107784082
30
0
41
1
10
54.6131734433133
20
-11.2804561595976
30
0
41
1
10
54.7578493757346
20
-11.5019724014967
30
0
41
1
10
54.8301873419453
20
-11.5820673700569
30
0
41
1
10
54.9386942912613
20
-11.6598166260059
30
0
41
1
10
54.9748632743666
20
-11.6786845174602
30
0
41
1
10
55.0291167490246
20
-11.6969915583183
30
0
41
1
10
55.0472012405772
20
-11.7014288563014
30
0
41
1
10
55.0833702236825
20
-11.7070776473318
30
0
41
1
10
55.1014547152352
20
-11.7082903740661
30
0
41
1
10
55.1918771729985
20
-11.7065482950319
30
0
41
1
10
55.2642151392091
20
-11.6799715424711
30
0
41
1
10
55.4088910716304
20
-11.5700252559282
30
0
41
1
10
55.481229037841
20
-11.4866291503728
30
0
41
1
10
55.6259049702623
20
-11.2583066042222
30
0
41
1
10
55.6982429364729
20
-11.1133563432711
30
0
41
1
10
55.8429188688943
20
-10.7597011811687
30
0
41
1
10
55.9152568351049
20
-10.5509804250157
30
0
41
1
10
56.0599327675262
20
-10.0706888526583
30
0
41
1
10
56.1322707337368
20
-9.79911476471545
30
0
41
1
10
56.2769466661581
20
-9.19745343729218
30
0
41
1
10
56.3492846323688
20
-8.86737788312075
30
0
41
1
10
56.4939605647901
20
-8.15636294870581
30
0
41
1
10
56.5662985310007
20
-7.77544918494317
30
0
41
1
10
56.6386364972113
20
-7.37430083601552
30
0
0
SPLINE
5
EC
100
AcDbEntity
8
1
62
256
6
ByLayer
370
13
48
1
60
0
100
AcDbSpline
70
4
71
3
72
44
73
40
40
0
40
0
40
0
40
0
40
0.0624999999999985
40
0.0624999999999985
40
0.124999999999997
40
0.124999999999997
40
0.187499999999995
40
0.187499999999995
40
0.249999999999994
40
0.249999999999994
40
0.312499999999992
40
0.312499999999992
40
0.320312499999992
40
0.320312499999992
40
0.328124999999993
40
0.328124999999993
40
0.343749999999993
40
0.343749999999993
40
0.374999999999993
40
0.374999999999993
40
0.437499999999994
40
0.437499999999994
40
0.499999999999994
40
0.499999999999994
40
0.562499999999995
40
0.562499999999995
40
0.624999999999996
40
0.624999999999996
40
0.687499999999996
40
0.687499999999996
40
0.749999999999997
40
0.749999999999997
40
0.812499999999998
40
0.812499999999998
40
0.874999999999998
40
0.874999999999998
40
0.937499999999999
40
0.937499999999999
40
1
40
1
40
1
40
1
41
1
10
45.8
20
-8.07031550055493
30
0
41
1
10
45.8838292175165
20
-7.63560009595716
30
0
41
1
10
45.967658435033
20
-7.16935804467184
30
0
41
1
10
46.135316870066
20
-6.19145549340655
30
0
41
1
10
46.2191460875825
20
-5.67987339719826
30
0
41
1
10
46.3868045226155
20
-4.63121027030914
30
0
41
1
10
46.470633740132
20
-4.0942042013711
30
0
41
1
10
46.638292175165
20
-3.01439744002411
30
0
41
1
10
46.7221213926815
20
-2.47165281821776
30
0
41
1
10
46.8897798277145
20
-1.39783897814419
30
0
41
1
10
46.9736090452311
20
-0.866799751823635
30
0
41
1
10
47.0679169149371
20
-0.283781073428344
30
0
41
1
10
47.0783955671266
20
-0.219198711406506
30
0
41
1
10
47.0993528715058
20
-0.0904516830470072
30
0
41
1
10
47.1098315236953
20
-0.0264075051917132
30
0
41
1
10
47.141267480264
20
0.165939548643593
30
0
41
1
10
47.1622247846431
20
0.295033439561252
30
0
41
1
10
47.2250966977806
20
0.684631400527479
30
0
41
1
10
47.2670113065387
20
0.947459516619148
30
0
41
1
10
47.3927551328135
20
1.74277905593127
30
0
41
1
10
47.47658435033
20
2.2822133769705
30
0
41
1
10
47.644242785363
20
3.36362867454284
30
0
41
1
10
47.7280720028795
20
3.90556500022487
30
0
41
1
10
47.8957304379125
20
4.97312139724403
30
0
41
1
10
47.979559655429
20
5.4986735508673
30
0
41
1
10
48.147218090462
20
6.51337775796856
30
0
41
1
10
48.2310473079786
20
7.00245065964194
30
0
41
1
10
48.3987057430115
20
7.92515270702123
30
0
41
1
10
48.482534960528
20
8.35870972804139
30
0
41
1
10
48.650193395561
20
9.15471991081915
30
0
41
1
10
48.7340226130775
20
9.51712586991457
30
0
41
1
10
48.9016810481105
20
10.1604124853502
30
0
41
1
10
48.985510265627
20
10.4412811380121
30
0
41
1
10
49.15316870066
20
10.9172282765892
30
0
41
1
10
49.2369979181765
20
11.1123289522753
30
0
41
1
10
49.4046563532096
20
11.4184644088557
30
0
41
1
10
49.4884855707261
20
11.5295450970623
30
0
41
1
10
49.6561440057591
20
11.6742852900142
30
0
41
1
10
49.7399732232755
20
11.708
30
0
41
1
10
49.823802440792
20
11.708
30
0
0
SPLINE
5
ED
100
AcDbEntity
8
1
62
256
6
ByLayer
370
13
48
1
60
0
100
AcDbSpline
70
4
71
3
72
81
73
77
40
0
40
0
40
0
40
0
40
0.0312499999999997
40
0.0312499999999997
40
0.0624999999999993
40
0.0624999999999993
40
0.093749999999999
40
0.093749999999999
40
0.124999999999999
40
0.124999999999999
40
0.156249999999998
40
0.156249999999998
40
0.187499999999998
40
0.187499999999998
40
0.218749999999998
40
0.218749999999998
40
0.249999999999998
40
0.249999999999998
40
0.281249999999997
40
0.281249999999997
40
0.312499999999997
40
0.312499999999997
40
0.343749999999997
40
0.343749999999997
40
0.359374999999997
40
0.359374999999997
40
0.363281249999997
40
0.363281249999997
40
0.367187499999996
40
0.367187499999996
40
0.374999999999996
40
0.374999999999996
40
0.406249999999996
40
0.406249999999996
40
0.437499999999996
40
0.437499999999996
40
0.468749999999996
40
0.468749999999996
40
0.499999999999995
40
0.499999999999995
40
0.531249999999995
40
0.531249999999995
40
0.562499999999995
40
0.562499999999995
40
0.593749999999994
40
0.593749999999994
40
0.624999999999994
40
0.624999999999994
40
0.656249999999994
40
0.656249999999994
40
0.687499999999993
40
0.687499999999993
40
0.718749999999993
40
0.718749999999993
40
0.726562499999993
40
0.726562499999993
40
0.730468749999993
40
0.730468749999993
40
0.734374999999993
40
0.749999999999993
40
0.749999999999993
40
0.781249999999994
40
0.781249999999994
40
0.812499999999995
40
0.812499999999995
40
0.843749999999996
40
0.843749999999996
40
0.874999999999997
40
0.874999999999997
40
0.906249999999997
40
0.906249999999997
40
0.937499999999998
40
0.937499999999998
40
0.968749999999999
40
0.968749999999999
40
1
40
1
40
1
40
1
41
1
10
49.2074178411074
20
11.708
30
0
41
1
10
49.2848263687752
20
11.708
30
0
41
1
10
49.3622348964429
20
11.6792658379642
30
0
41
1
10
49.5170519517784
20
11.5564697199843
30
0
41
1
10
49.5944604794461
20
11.4623705483652
30
0
41
1
10
49.7492775347817
20
11.2032388533507
30
0
41
1
10
49.8266860624494
20
11.0381738445601
30
0
41
1
10
49.9815031177848
20
10.634903947776
30
0
41
1
10
50.0589116454526
20
10.3966796574561
30
0
41
1
10
50.2137287007881
20
9.84909454467422
30
0
41
1
10
50.2911372284559
20
9.53973430470617
30
0
41
1
10
50.4459542837913
20
8.85639664430295
30
0
41
1
10
50.5233628114591
20
8.48244231232994
30
0
41
1
10
50.6781798667946
20
7.68060105441481
30
0
41
1
10
50.7555883944624
20
7.2527562171864
30
0
41
1
10
50.9104054497979
20
6.35698652335483
30
0
41
1
10
50.9878139774656
20
5.88911400319947
30
0
41
1
10
51.1426310328011
20
4.92885523218916
30
0
41
1
10
51.2200395604688
20
4.43652058246337
30
0
41
1
10
51.3748566158043
20
3.44301552851192
30
0
41
1
10
51.4522651434721
20
2.94188650641578
30
0
41
1
10
51.6070821988076
20
1.94515374527288
30
0
41
1
10
51.6844907264754
20
1.44957581108878
30
0
41
1
10
51.800603517977
20
0.719367834960821
30
0
41
1
10
51.8393077818109
20
0.478137713190222
30
0
41
1
10
51.8876881116032
20
0.180086557254612
30
0
41
1
10
51.8973641775617
20
0.1206502039322
30
0
41
1
10
51.9167163094786
20
0.002142728329801
30
0
41
1
10
51.9263923754371
20
-0.056919380144393
30
0
41
1
10
51.9554205733125
20
-0.235016088833134
30
0
41
1
10
51.9747727052295
20
-0.354467422651595
30
0
41
1
10
52.0715333648141
20
-0.95496389755678
30
0
41
1
10
52.1489418924819
20
-1.44583911653626
30
0
41
1
10
52.3037589478174
20
-2.43749720318502
30
0
41
1
10
52.3811674754852
20
-2.93825986519491
30
0
41
1
10
52.5359845308207
20
-3.93606184913935
30
0
41
1
10
52.6133930584884
20
-4.43306467407942
30
0
41
1
10
52.7682101138239
20
-5.40799433059948
30
0
41
1
10
52.8456186414916
20
-5.88587210975356
30
0
41
1
10
53.0004356968271
20
-6.80677999801009
30
0
41
1
10
53.0778442244949
20
-7.24975679330583
30
0
41
1
10
53.2326612798304
20
-8.08624365883887
30
0
41
1
10
53.3100698074981
20
-8.47970702701249
30
0
41
1
10
53.4648868628337
20
-9.20524404441002
30
0
41
1
10
53.5422953905013
20
-9.53728751865702
30
0
41
1
10
53.6971124458368
20
-10.1319466816994
30
0
41
1
10
53.7745209735046
20
-10.3945542112139
30
0
41
1
10
53.9293380288401
20
-10.8467792041871
30
0
41
1
10
54.0067465565079
20
-11.036409953953
30
0
41
1
10
54.1615636118434
20
-11.3435100294818
30
0
41
1
10
54.2389721395111
20
-11.4610083629196
30
0
41
1
10
54.3937891948466
20
-11.6284027579815
30
0
41
1
10
54.4711977225143
20
-11.6783353444785
30
0
41
1
10
54.567958382099
20
-11.7030458626988
30
0
41
1
10
54.5873105140159
20
-11.7061077601761
30
0
41
1
10
54.6163387118914
20
-11.7079781471108
30
0
41
1
10
54.6260147778499
20
-11.7081490210799
30
0
41
1
10
54.6453669097668
20
-11.7075947492067
30
0
41
1
10
54.6937472395591
20
-11.7039575762447
30
0
41
1
10
54.7421275693515
20
-11.6888443160291
30
0
41
1
10
54.8582403608531
20
-11.6290324841978
30
0
41
1
10
54.9356488885208
20
-11.5576892296898
30
0
41
1
10
55.0904659438563
20
-11.3456263746962
30
0
41
1
10
55.1678744715241
20
-11.2048717800018
30
0
41
1
10
55.3226915268596
20
-10.8505271668614
30
0
41
1
10
55.4001000545273
20
-10.6369124376574
30
0
41
1
10
55.5549171098628
20
-10.1373708743256
30
0
41
1
10
55.6323256375306
20
-9.85143734648244
30
0
41
1
10
55.7871426928661
20
-9.21226308420336
30
0
41
1
10
55.8645512205338
20
-8.85903794817125
30
0
41
1
10
56.0193682758694
20
-8.09464516885984
30
0
41
1
10
56.0967768035371
20
-7.6835139831397
30
0
41
1
10
56.2515938588726
20
-6.81624109586141
30
0
41
1
10
56.3290023865403
20
-6.36014947679618
30
0
41
1
10
56.4838194418758
20
-5.41812395933101
30
0
41
1
10
56.5612279695435
20
-4.9322431142451
30
0
41
1
10
56.6386364972113
20
-4.43934837481828
30
0
0
SPLINE
5
EE
100
AcDbEntity
8
1
62
256
6
ByLayer
370
13
48
1
60
0
100
AcDbSpline
70
4
71
3
72
42
73
38
40
0
40
0
40
0
40
0
40
0.0625000000000006
40
0.0625000000000006
40
0.125000000000001
40
0.125000000000001
40
0.187500000000002
40
0.187500000000002
40
0.218750000000002
40
0.218750000000002
40
0.234375000000002
40
0.234375000000002
40
0.250000000000003
40
0.250000000000003
40
0.312500000000002
40
0.312500000000002
40
0.375000000000002
40
0.375000000000002
40
0.437500000000002
40
0.437500000000002
40
0.500000000000001
40
0.500000000000001
40
0.562500000000001
40
0.562500000000001
40
0.625000000000001
40
0.625000000000001
40
0.687500000000001
40
0.687500000000001
40
0.750000000000001
40
0.750000000000001
40
0.8125
40
0.8125
40
0.875
40
0.875
40
0.9375
40
0.9375
40
1
40
1
40
1
40
1
41
1
10
45.8
20
-5.25671667268247
30
0
41
1
10
45.8736880946022
20
-4.79729252876541
30
0
41
1
10
45.9473761892046
20
-4.32756324213463
30
0
41
1
10
46.0947523784092
20
-3.38088330446848
30
0
41
1
10
46.1684404730115
20
-2.90396439839938
30
0
41
1
10
46.315816662216
20
-1.95523303855967
30
0
41
1
10
46.3895047568183
20
-1.4834406371736
30
0
41
1
10
46.5000368987218
20
-0.787381213616754
30
0
41
1
10
46.5368809460229
20
-0.557282723413465
30
0
41
1
10
46.5921470169746
20
-0.215826878815932
30
0
41
1
10
46.6105690406252
20
-0.102697865803293
30
0
41
1
10
46.6474130879263
20
0.122519780583843
30
0
41
1
10
46.6658351115769
20
0.235799760672165
30
0
41
1
10
46.7579452298297
20
0.80525193355686
30
0
41
1
10
46.831633324432
20
1.27067288180641
30
0
41
1
10
46.9790095136366
20
2.21197178696414
30
0
41
1
10
47.0526976082389
20
2.68783569370828
30
0
41
1
10
47.2000737974435
20
3.63857742996038
30
0
41
1
10
47.2737618920457
20
4.11342894391004
30
0
41
1
10
47.4211380812503
20
5.04913098325235
30
0
41
1
10
47.4948261758526
20
5.50994494619255
30
0
41
1
10
47.6422023650572
20
6.40393943103061
30
0
41
1
10
47.7158904596595
20
6.83707835627092
30
0
41
1
10
47.8632666488641
20
7.66266837411627
30
0
41
1
10
47.9369547434663
20
8.05508027851189
30
0
41
1
10
48.0843309326709
20
8.78798196076508
30
0
41
1
10
48.1580190272732
20
9.12844254000277
30
0
41
1
10
48.3053952164778
20
9.74908157721046
30
0
41
1
10
48.3790833110801
20
10.0292461406291
30
0
41
1
10
48.5264595002847
20
10.5244713207727
30
0
41
1
10
48.6001475948869
20
10.7395347849391
30
0
41
1
10
48.7475237840915
20
11.1034413761454
30
0
41
1
10
48.8212118786938
20
11.2523015573445
30
0
41
1
10
48.9685880678984
20
11.4860789177079
30
0
41
1
10
49.0422761625007
20
11.5710221581932
30
0
41
1
10
49.1896523517052
20
11.6819681294007
30
0
41
1
10
49.2633404463075
20
11.708
30
0
41
1
10
49.3370285409098
20
11.708
30
0
0
SPLINE
5
EF
100
AcDbEntity
8
1
62
256
6
ByLayer
370
13
48
1
60
0
100
AcDbSpline
70
4
71
3
72
80
73
76
40
0
40
0
40
0
40
0
40
0.0312499999999999
40
0.0312499999999999
40
0.0624999999999999
40
0.0624999999999999
40
0.0937499999999998
40
0.0937499999999998
40
0.125
40
0.125
40
0.15625
40
0.15625
40
0.1875
40
0.1875
40
0.218749999999999
40
0.218749999999999
40
0.249999999999999
40
0.249999999999999
40
0.281249999999999
40
0.281249999999999
40
0.312499999999999
40
0.312499999999999
40
0.328124999999999
40
0.328124999999999
40
0.335937499999999
40
0.339843749999999
40
0.339843749999999
40
0.343749999999999
40
0.343749999999999
40
0.374999999999999
40
0.374999999999999
40
0.406249999999999
40
0.406249999999999
40
0.4375
40
0.4375
40
0.46875
40
0.46875
40
0.5
40
0.5
40
0.53125
40
0.53125
40
0.5625
40
0.5625
40
0.59375
40
0.59375
40
0.625000000000001
40
0.625000000000001
40
0.656250000000001
40
0.656250000000001
40
0.671875000000001
40
0.671875000000001
40
0.679687500000001
40
0.683593750000001
40
0.683593750000001
40
0.687500000000001
40
0.687500000000001
40
0.718750000000001
40
0.718750000000001
40
0.75
40
0.75
40
0.78125
40
0.78125
40
0.8125
40
0.8125
40
0.84375
40
0.84375
40
0.875
40
0.875
40
0.90625
40
0.90625
40
0.9375
40
0.9375
40
0.96875
40
0.96875
40
1
40
1
40
1
40
1
41
1
10
48.7206439412251
20
11.708
30
0
41
1
10
48.80312303035
20
11.708
30
0
41
1
10
48.885602119475
20
11.6753659654398
30
0
41
1
10
49.0505602977246
20
11.5353978952558
30
0
41
1
10
49.1330393868494
20
11.4280129084888
30
0
41
1
10
49.2979975650992
20
11.1321034856797
30
0
41
1
10
49.380476654224
20
10.9435362139333
30
0
41
1
10
49.5454348324737
20
10.483364991384
30
0
41
1
10
49.6279139215985
20
10.2117392343843
30
0
41
1
10
49.7928720998483
20
9.5891152397266
30
0
41
1
10
49.8753511889731
20
9.23812589559012
30
0
41
1
10
50.0403093672228
20
8.46622563151502
30
0
41
1
10
50.1227884563477
20
8.04535585427166
30
0
41
1
10
50.2877466345974
20
7.1481781040948
30
0
41
1
10
50.3702257237223
20
6.67193509060851
30
0
41
1
10
50.535183901972
20
5.68189332239325
30
0
41
1
10
50.6176629910969
20
5.16816774268329
30
0
41
1
10
50.7826211693466
20
4.1223056044436
30
0
41
1
10
50.8651002584714
20
3.59023380758634
30
0
41
1
10
51.0300584367212
20
2.52595496618773
30
0
41
1
10
51.112537525846
20
1.99379257983526
30
0
41
1
10
51.2362561595332
20
1.20724256141278
30
0
41
1
10
51.2774957040957
20
0.946984117425103
30
0
41
1
10
51.3393550209393
20
0.560710239704918
30
0
41
1
10
51.3702846793612
20
0.368599072443203
30
0
41
1
10
51.401214337783
20
0.178231840423052
30
0
41
1
10
51.4218341100642
20
0.051728965398496
30
0
41
1
10
51.4321439962048
20
-0.0111821632476676
30
0
41
1
10
51.5249329714703
20
-0.579652566907498
30
0
41
1
10
51.6074120605951
20
-1.0983366861019
30
0
41
1
10
51.7723702388448
20
-2.14994393437002
30
0
41
1
10
51.8548493279697
20
-2.68284413277254
30
0
41
1
10
52.0198075062194
20
-3.74689882532729
30
0
41
1
10
52.1022865953443
20
-4.27800638299681
30
0
41
1
10
52.2672447735939
20
-5.32006891572493
30
0
41
1
10
52.3497238627188
20
-5.83095767043548
30
0
41
1
10
52.5146820409686
20
-6.81347724780372
30
0
41
1
10
52.5971611300934
20
-7.28503493004243
30
0
41
1
10
52.7621193083431
20
-8.17123367075894
30
0
41
1
10
52.8445983974679
20
-8.58581149289668
30
0
41
1
10
53.0095565757177
20
-9.3439510704938
30
0
41
1
10
53.0920356648425
20
-9.6874746325193
30
0
41
1
10
53.2569938430923
20
-10.2945407459717
30
0
41
1
10
53.339472932217
20
-10.5580776477487
30
0
41
1
10
53.5044311104668
20
-11.0020174366374
30
0
41
1
10
53.5869101995917
20
-11.1824447184627
30
0
41
1
10
53.7518683778414
20
-11.462524219211
30
0
41
1
10
53.8343474669662
20
-11.5622206491531
30
0
41
1
10
53.9580661006535
20
-11.6562817877423
30
0
41
1
10
53.999305645216
20
-11.6784184345071
30
0
41
1
10
54.0611649620596
20
-11.6986499681485
30
0
41
1
10
54.0920946204814
20
-11.7055243057335
30
0
41
1
10
54.1230242789032
20
-11.7077114475903
30
0
41
1
10
54.1436440511844
20
-11.7081482475061
30
0
41
1
10
54.153953937325
20
-11.7078586584317
30
0
41
1
10
54.2467429125905
20
-11.7006108440353
30
0
41
1
10
54.3292220017154
20
-11.6610191080831
30
0
41
1
10
54.4941801799651
20
-11.5063413018498
30
0
41
1
10
54.5766592690899
20
-11.391204521434
30
0
41
1
10
54.7416174473397
20
-11.079382863763
30
0
41
1
10
54.8240965364645
20
-10.8826566547975
30
0
41
1
10
54.9890547147143
20
-10.4062703998339
30
0
41
1
10
55.0715338038391
20
-10.1265912336823
30
0
41
1
10
55.2364919820888
20
-9.48853688005991
30
0
41
1
10
55.3189710712136
20
-9.13017384662044
30
0
41
1
10
55.4839292494633
20
-8.34474635581938
30
0
41
1
10
55.5664083385882
20
-7.91772590667773
30
0
41
1
10
55.7313665168379
20
-7.00988491623886
30
0
41
1
10
55.8138456059628
20
-6.52913090169432
30
0
41
1
10
55.9788037842125
20
-5.53192776694942
30
0
41
1
10
56.0612828733373
20
-5.01555169086348
30
0
41
1
10
56.2262410515871
20
-3.96625383872364
30
0
41
1
10
56.308720140712
20
-3.43339525062564
30
0
41
1
10
56.4736783189617
20
-2.36922199031105
30
0
41
1
10
56.5561574080865
20
-1.83794966082314
30
0
41
1
10
56.6386364972113
20
-1.31515482893946
30
0
0
SPLINE
5
F0
100
AcDbEntity
8
1
62
256
6
ByLayer
370
13
48
1
60
0
100
AcDbSpline
70
4
71
3
72
42
73
38
40
0
40
0
40
0
40
0
40
0.0625
40
0.0625
40
0.0937499999999998
40
0.0937499999999998
40
0.109375
40
0.109375
40
0.124999999999999
40
0.124999999999999
40
0.187499999999999
40
0.187499999999999
40
0.25
40
0.25
40
0.3125
40
0.3125
40
0.375
40
0.375
40
0.4375
40
0.4375
40
0.5
40
0.5
40
0.5625
40
0.5625
40
0.625
40
0.625
40
0.6875
40
0.6875
40
0.75
40
0.75
40
0.8125
40
0.8125
40
0.875
40
0.875
40
0.9375
40
0.9375
40
1
40
1
40
1
40
1
41
1
10
45.8
20
-2.14254579741734
30
0
41
1
10
45.8635469716881
20
-1.73452697372767
30
0
41
1
10
45.9270939433762
20
-1.32924773795889
30
0
41
1
10
46.0224144009082
20
-0.730281182363711
30
0
41
1
10
46.0541878867523
20
-0.532108131206172
30
0
41
1
10
46.1018481155183
20
-0.237587395748022
30
0
41
1
10
46.1177348584403
20
-0.139869643869503
30
0
41
1
10
46.1495083442844
20
0.0545761734867369
30
0
41
1
10
46.1653950872065
20
0.151783670209937
30
0
41
1
10
46.2448288018165
20
0.64130105964378
30
0
41
1
10
46.3083757735046
20
1.0404466680032
30
0
41
1
10
46.4354697168808
20
1.84807488826229
30
0
41
1
10
46.4990166885688
20
2.25655202547793
30
0
41
1
10
46.6261106319449
20
3.07586669759215
30
0
41
1
10
46.6896576036331
20
3.48669368434611
30
0
41
1
10
46.8167515470092
20
4.30272209900207
30
0
41
1
10
46.8802985186973
20
4.70790822265488
30
0
41
1
10
47.0073924620734
20
5.50404957503173
30
0
41
1
10
47.0709394337615
20
5.89498605853922
30
0
41
1
10
47.1980333771376
20
6.65392029068437
30
0
41
1
10
47.2615803488257
20
7.02189808280963
30
0
41
1
10
47.3886742922018
20
7.72669457341257
30
0
41
1
10
47.45222126389
20
8.06349486199048
30
0
41
1
10
47.5793152072661
20
8.69878996187353
30
0
41
1
10
47.6428621789542
20
8.99727058482307
30
0
41
1
10
47.7699561223303
20
9.55035293918715
30
0
41
1
10
47.8335030940184
20
9.80494665206936
30
0
41
1
10
47.9605970373946
20
10.2665944706853
30
0
41
1
10
48.0241440090826
20
10.473647500779
30
0
41
1
10
48.1512379524587
20
10.8386041233468
30
0
41
1
10
48.2147849241468
20
10.9965130809095
30
0
41
1
10
48.341878867523
20
11.2635551693269
30
0
41
1
10
48.4054258392111
20
11.3726985843974
30
0
41
1
10
48.5325197825872
20
11.5443252102406
30
0
41
1
10
48.5960667542753
20
11.6068215651705
30
0
41
1
10
48.7231606976514
20
11.6886519972159
30
0
41
1
10
48.7867076693395
20
11.708
30
0
41
1
10
48.8502546410276
20
11.708
30
0
0
SPLINE
5
F1
100
AcDbEntity
8
1
62
256
6
ByLayer
370
13
48
1
60
0
100
AcDbSpline
70
4
71
3
72
84
73
80
40
0
40
0
40
0
40
0
40
0.03125
40
0.03125
40
0.0625000000000001
40
0.0625000000000001
40
0.0937500000000001
40
0.0937500000000001
40
0.125
40
0.125
40
0.15625
40
0.15625
40
0.1875
40
0.1875
40
0.21875
40
0.21875
40
0.25
40
0.25
40
0.28125
40
0.28125
40
0.3125
40
0.3125
40
0.3203125
40
0.3203125
40
0.32421875
40
0.32421875
40
0.328125000000001
40
0.343750000000001
40
0.343750000000001
40
0.375000000000001
40
0.375000000000001
40
0.406250000000001
40
0.406250000000001
40
0.437500000000001
40
0.437500000000001
40
0.468750000000001
40
0.468750000000001
40
0.500000000000001
40
0.500000000000001
40
0.531250000000001
40
0.531250000000001
40
0.562500000000001
40
0.562500000000001
40
0.593750000000001
40
0.593750000000001
40
0.625000000000001
40
0.625000000000001
40
0.640625000000001
40
0.640625000000001
40
0.648437500000001
40
0.648437500000001
40
0.656250000000001
40
0.656250000000001
40
0.687500000000001
40
0.687500000000001
40
0.718750000000001
40
0.718750000000001
40
0.750000000000001
40
0.750000000000001
40
0.781250000000001
40
0.781250000000001
40
0.812500000000001
40
0.812500000000001
40
0.843750000000001
40
0.843750000000001
40
0.875000000000001
40
0.875000000000001
40
0.906250000000001
40
0.906250000000001
40
0.937500000000001
40
0.937500000000001
40
0.953125000000001
40
0.953125000000001
40
0.960937500000001
40
0.964843750000001
40
0.964843750000001
40
0.968750000000001
40
0.968750000000001
40
1
40
1
40
1
40
1
41
1
10
48.2338700413429
20
11.708
30
0
41
1
10
48.3214196919249
20
11.708
30
0
41
1
10
48.4089693425069
20
11.67121521444
30
0
41
1
10
48.5840686436708
20
11.5128877266687
30
0
41
1
10
48.6716182942527
20
11.391276645045
30
0
41
1
10
48.8467175954167
20
11.0560176485819
30
0
41
1
10
48.9342672459986
20
10.8423146818911
30
0
41
1
10
49.1093665471626
20
10.3215553051986
30
0
41
1
10
49.1969161977445
20
10.0144764814257
30
0
41
1
10
49.3720154989084
20
9.31284596310442
30
0
41
1
10
49.4595651494904
20
8.91831726107691
30
0
41
1
10
49.6346644506544
20
8.05489451315074
30
0
41
1
10
49.7222141012362
20
7.58606747019394
30
0
41
1
10
49.8973134024002
20
6.59301112135157
30
0
41
1
10
49.9848630529822
20
6.06887601668927
30
0
41
1
10
50.1599623541461
20
4.98752616702106
30
0
41
1
10
50.2475120047281
20
4.43040753280752
30
0
41
1
10
50.422611305892
20
3.30581723917732
30
0
41
1
10
50.510160956474
20
2.73842080677642
30
0
41
1
10
50.6852602576379
20
1.61375438010762
30
0
41
1
10
50.7728099082198
20
1.05652662724188
30
0
41
1
10
50.8822469714472
20
0.376592972411231
30
0
41
1
10
50.9041343840928
20
0.241425098650467
30
0
41
1
10
50.936965503061
20
0.0400588296847104
30
0
41
1
10
50.9479092093838
20
-0.0266996421394765
30
0
41
1
10
50.9697966220293
20
-0.160882327630929
30
0
41
1
10
51.024515153643
20
-0.4974941644426
30
0
41
1
10
51.0792336852567
20
-0.839594398809112
30
0
41
1
10
51.2105581611296
20
-1.66844083445264
30
0
41
1
10
51.2981078117116
20
-2.2315425048389
30
0
41
1
10
51.4732071128756
20
-3.36086934317794
30
0
41
1
10
51.5607567634575
20
-3.9270395867826
30
0
41
1
10
51.7358560646213
20
-5.04099849057505
30
0
41
1
10
51.8234057152034
20
-5.58870218898198
30
0
41
1
10
51.9985050163673
20
-6.64283728564027
30
0
41
1
10
52.0860546669493
20
-7.14917026086229
30
0
41
1
10
52.2611539681132
20
-8.09911428951722
30
0
41
1
10
52.3487036186952
20
-8.54263840054591
30
0
41
1
10
52.5238029198591
20
-9.34983732147691
30
0
41
1
10
52.6113525704411
20
-9.71346005728725
30
0
41
1
10
52.786451871605
20
-10.3502197975698
30
0
41
1
10
52.8740015221869
20
-10.623351159599
30
0
41
1
10
53.0491008233509
20
-11.0758783854673
30
0
41
1
10
53.1366504739328
20
-11.2553106596947
30
0
41
1
10
53.3117497750968
20
-11.5240837384845
30
0
41
1
10
53.3992994256787
20
-11.613486781382
30
0
41
1
10
53.5306239015516
20
-11.686763710547
30
0
41
1
10
53.5743987268427
20
-11.7010868399379
30
0
41
1
10
53.6400609647792
20
-11.7085019468675
30
0
41
1
10
53.6619483774246
20
-11.7086527899194
30
0
41
1
10
53.7057232027156
20
-11.7043319294418
30
0
41
1
10
53.7276106153611
20
-11.6998342638913
30
0
41
1
10
53.8370476785886
20
-11.6651930980581
30
0
41
1
10
53.9245973291705
20
-11.5984490517265
30
0
41
1
10
54.0996966303344
20
-11.3769552831865
30
0
41
1
10
54.1872462809164
20
-11.2221397938122
30
0
41
1
10
54.3623455820803
20
-10.8192105700194
30
0
41
1
10
54.4498952326622
20
-10.571051654804
30
0
41
1
10
54.6249945338262
20
-9.98266944868124
30
0
41
1
10
54.7125441844081
20
-9.64243953941997
30
0
41
1
10
54.8876434855721
20
-8.87851695602845
30
0
41
1
10
54.975193136154
20
-8.45486445183462
30
0
41
1
10
55.150292437318
20
-7.53958097495325
30
0
41
1
10
55.2378420879
20
-7.04802960020135
30
0
41
1
10
55.4129413890638
20
-6.01747443587709
30
0
41
1
10
55.5004910396458
20
-5.47856858977522
30
0
41
1
10
55.6755903408097
20
-4.37611782638041
30
0
41
1
10
55.7631399913917
20
-3.81266355808768
30
0
41
1
10
55.9382392925556
20
-2.68328953800321
30
0
41
1
10
56.0257889431376
20
-2.11743363844641
30
0
41
1
10
56.1571134190106
20
-1.28116353356086
30
0
41
1
10
56.2008882443015
20
-1.00446291325861
30
0
41
1
10
56.266550482238
20
-0.593980140406103
30
0
41
1
10
56.2993816012062
20
-0.389877416185755
30
0
41
1
10
56.3322127201744
20
-0.187729703589014
30
0
41
1
10
56.3541001328199
20
-0.053424251900168
30
0
41
1
10
56.3650438391427
20
0.0133467109742469
30
0
41
1
10
56.4635371960474
20
0.616891080146758
30
0
41
1
10
56.5510868466294
20
1.16844516693095
30
0
41
1
10
56.6386364972113
20
1.72750914108906
30
0
0
SPLINE
5
F2
100
AcDbEntity
8
1
62
256
6
ByLayer
370
13
48
1
60
0
100
AcDbSpline
70
4
71
3
72
36
73
32
40
0
40
0
40
0
40
0
40
0.0625000000000001
40
0.0625000000000001
40
0.125
40
0.125
40
0.1875
40
0.1875
40
0.25
40
0.25
40
0.3125
40
0.3125
40
0.375
40
0.375
40
0.4375
40
0.4375
40
0.5
40
0.5
40
0.5625
40
0.5625
40
0.625
40
0.625
40
0.6875
40
0.6875
40
0.75
40
0.75
40
0.8125
40
0.8125
40
0.875
40
0.875
40
1
40
1
40
1
40
1
41
1
10
45.8
20
0.906215007640185
30
0
41
1
10
45.8534058487739
20
1.24160419323542
30
0
41
1
10
45.9068116975478
20
1.58123883416766
30
0
41
1
10
46.0136233950955
20
2.26523882909277
30
0
41
1
10
46.0670292438694
20
2.60960106044854
30
0
41
1
10
46.173840941417
20
3.29870818747065
30
0
41
1
10
46.2272467901909
20
3.64344816397462
30
0
41
1
10
46.3340584877386
20
4.32849823274367
30
0
41
1
10
46.3874643365125
20
4.66880176862941
30
0
41
1
10
46.4942760340602
20
5.33987490914112
30
0
41
1
10
46.547681882834
20
5.67063673290582
30
0
41
1
10
46.6544935803817
20
6.31744782510174
30
0
41
1
10
46.7078994291557
20
6.63348873284551
30
0
41
1
10
46.8147111267034
20
7.24584963456317
30
0
41
1
10
46.8681169754773
20
7.54216148807208
30
0
41
1
10
46.9749286730249
20
8.11047693104672
30
0
41
1
10
47.0283345217988
20
8.38247343405752
30
0
41
1
10
47.1351462193465
20
8.89822346057787
30
0
41
1
10
47.1885520681204
20
9.14197167829391
30
0
41
1
10
47.2953637656681
20
9.5981316064389
30
0
41
1
10
47.348769614442
20
9.8105402860603
30
0
41
1
10
47.4555813119897
20
10.2018955069028
30
0
41
1
10
47.5089871607636
20
10.3808414769585
30
0
41
1
10
47.6157988583113
20
10.7041679813043
30
0
41
1
10
47.6692047070852
20
10.8485502675954
30
0
41
1
10
47.7760164046329
20
11.1026499042263
30
0
41
1
10
47.8294222534068
20
11.212370924643
30
0
41
1
10
47.9362339509545
20
11.3979691984173
30
0
41
1
10
47.9896397997283
20
11.4738514631461
30
0
41
1
10
48.14985734605
20
11.6531464864865
30
0
41
1
10
48.2566690435977
20
11.708
30
0
41
1
10
48.3634807411454
20
11.708
30
0
0
SPLINE
5
F3
100
AcDbEntity
8
1
62
256
6
ByLayer
370
13
48
1
60
0
100
AcDbSpline
70
4
71
3
72
80
73
76
40
0
40
0
40
0
40
0
40
0.03125
40
0.03125
40
0.0625000000000001
40
0.0625000000000001
40
0.0937500000000001
40
0.0937500000000001
40
0.125
40
0.125
40
0.15625
40
0.15625
40
0.1875
40
0.1875
40
0.21875
40
0.21875
40
0.25
40
0.25
40
0.28125
40
0.28125
40
0.296875
40
0.296875
40
0.304687500000001
40
0.304687500000001
40
0.312500000000001
40
0.312500000000001
40
0.343750000000001
40
0.343750000000001
40
0.375
40
0.375
40
0.40625
40
0.40625
40
0.4375
40
0.4375
40
0.46875
40
0.46875
40
0.5
40
0.5
40
0.53125
40
0.53125
40
0.5625
40
0.5625
40
0.59375
40
0.59375
40
0.609375
40
0.609375
40
0.625
40
0.625
40
0.65625
40
0.65625
40
0.687499999999999
40
0.687499999999999
40
0.718749999999999
40
0.718749999999999
40
0.749999999999999
40
0.749999999999999
40
0.781249999999999
40
0.781249999999999
40
0.812499999999999
40
0.812499999999999
40
0.843749999999999
40
0.843749999999999
40
0.874999999999999
40
0.874999999999999
40
0.906249999999999
40
0.906249999999999
40
0.914062499999999
40
0.914062499999999
40
0.921874999999999
40
0.921874999999999
40
0.937499999999999
40
0.937499999999999
40
0.96875
40
0.96875
40
1
40
1
40
1
40
1
41
1
10
47.7470961414607
20
11.708
30
0
41
1
10
47.8397163534998
20
11.708
30
0
41
1
10
47.9323365655389
20
11.6668128313298
30
0
41
1
10
48.117576989617
20
11.4889287904748
30
0
41
1
10
48.2101972016561
20
11.3521417707149
30
0
41
1
10
48.3954376257342
20
10.9749569096594
30
0
41
1
10
48.4880578377732
20
10.7344900209396
30
0
41
1
10
48.6732982618514
20
10.1495456398873
30
0
41
1
10
48.7659184738905
20
9.80504819967632
30
0
41
1
10
48.9511588979685
20
9.02078277358285
30
0
41
1
10
49.0437791100077
20
8.58105969390562
30
0
41
1
10
49.2290195340858
20
7.62389013970173
30
0
41
1
10
49.3216397461249
20
7.10654577345008
30
0
41
1
10
49.5068801702031
20
6.01822799104974
30
0
41
1
10
49.5995003822421
20
5.44738401979751
30
0
41
1
10
49.7847408063202
20
4.27910357093424
30
0
41
1
10
49.8773610183593
20
3.68178608273308
30
0
41
1
10
50.0626014424374
20
2.48666613461418
30
0
41
1
10
50.1552216544765
20
1.88894401563584
30
0
41
1
10
50.2941519725352
20
1.00856830793214
30
0
41
1
10
50.3404620785546
20
0.717772221335309
30
0
41
1
10
50.4099272375839
20
0.287241198436163
30
0
41
1
10
50.4330822905937
20
0.14467182723439
30
0
41
1
10
50.4793923966133
20
-0.138341854393559
30
0
41
1
10
50.5025474496231
20
-0.280849933947081
30
0
41
1
10
50.6183227146718
20
-0.998261329331115
30
0
41
1
10
50.7109429267109
20
-1.58750158299031
30
0
41
1
10
50.8961833507891
20
-2.77738279532369
30
0
41
1
10
50.9888035628281
20
-3.37796760177164
30
0
41
1
10
51.1740439869063
20
-4.5662372785782
30
0
41
1
10
51.2666641989454
20
-5.15382021630336
30
0
41
1
10
51.4519046230235
20
-6.28911581915261
30
0
41
1
10
51.5445248350626
20
-6.83669982678478
30
0
41
1
10
51.7297652591407
20
-7.8659099050285
30
0
41
1
10
51.8223854711798
20
-8.34741542914668
30
0
41
1
10
52.0076258952579
20
-9.22314642788427
30
0
41
1
10
52.100246107297
20
-9.61729562505101
30
0
41
1
10
52.2854865313751
20
-10.3048416737924
30
0
41
1
10
52.3781067434142
20
-10.5982264572144
30
0
41
1
10
52.5633471674923
20
-11.0800013341227
30
0
41
1
10
52.6559673795313
20
-11.2684388256629
30
0
41
1
10
52.8412078036095
20
-11.5447355599117
30
0
41
1
10
52.9338280156486
20
-11.6326779961495
30
0
41
1
10
53.0727583337072
20
-11.6974178830476
30
0
41
1
10
53.1190684397267
20
-11.7078452505777
30
0
41
1
10
53.2116886517658
20
-11.7081513267163
30
0
41
1
10
53.2579987577853
20
-11.6980436667999
30
0
41
1
10
53.3969290758439
20
-11.6343002824982
30
0
41
1
10
53.489549287883
20
-11.5470722559087
30
0
41
1
10
53.6747897119611
20
-11.2722655491117
30
0
41
1
10
53.7674099240002
20
-11.0846035188846
30
0
41
1
10
53.9526503480784
20
-10.6043830195853
30
0
41
1
10
54.0452705601174
20
-10.311776782481
30
0
41
1
10
54.2305109841955
20
-9.62572256500437
30
0
41
1
10
54.3231311962346
20
-9.23228616148606
30
0
41
1
10
54.5083716203127
20
-8.35784919726731
30
0
41
1
10
54.6009918323518
20
-7.87692448010307
30
0
41
1
10
54.78623225643
20
-6.84869521114763
30
0
41
1
10
54.878852468469
20
-6.30151099944771
30
0
41
1
10
55.0640928925472
20
-5.16681216596265
30
0
41
1
10
55.1567131045862
20
-4.57942628294558
30
0
41
1
10
55.3419535286643
20
-3.39135508264505
30
0
41
1
10
55.4345737407034
20
-2.79077199248721
30
0
41
1
10
55.6198141647816
20
-1.600728946007
30
0
41
1
10
55.7124343768206
20
-1.01132550454363
30
0
41
1
10
55.8282096418694
20
-0.293633773696371
30
0
41
1
10
55.8513646948792
20
-0.151034495135946
30
0
41
1
10
55.8976748008987
20
0.132042452792945
30
0
41
1
10
55.9208298539086
20
0.274459982685187
30
0
41
1
10
55.9902950129379
20
0.704822464421682
30
0
41
1
10
56.0366051189574
20
0.995521385847525
30
0
41
1
10
56.175535437016
20
1.8756594471449
30
0
41
1
10
56.2681556490551
20
2.47329535841777
30
0
41
1
10
56.4533960731332
20
3.66842482399048
30
0
41
1
10
56.5460162851723
20
4.26583838497905
30
0
41
1
10
56.6386364972113
20
4.85017579271755
30
0
0
SPLINE
5
F4
100
AcDbEntity
8
1
62
256
6
ByLayer
370
13
48
1
60
0
100
AcDbSpline
70
4
71
3
72
22
73
18
40
0
40
0
40
0
40
0
40
0.125
40
0.125
40
0.25
40
0.25
40
0.375
40
0.375
40
0.5
40
0.5
40
0.625
40
0.625
40
0.75
40
0.75
40
0.875
40
0.875
40
1
40
1
40
1
40
1
41
1
10
45.8
20
4.02522275947376
30
0
41
1
10
45.8865294517193
20
4.57990813576805
30
0
41
1
10
45.9730589034386
20
5.12853063559837
30
0
41
1
10
46.1461178068772
20
6.19181740229965
30
0
41
1
10
46.2326472585965
20
6.70639024916107
30
0
41
1
10
46.4057061620351
20
7.68016816692892
30
0
41
1
10
46.4922356137544
20
8.13928542567541
30
0
41
1
10
46.665294517193
20
8.98409078613312
30
0
41
1
10
46.7518239689123
20
9.36971778811156
30
0
41
1
10
46.9248828723508
20
10.0551491105814
30
0
41
1
10
47.0114123240702
20
10.3549338340886
30
0
41
1
10
47.1844712275088
20
10.8632106439655
30
0
41
1
10
47.2710006792281
20
11.0717252225571
30
0
41
1
10
47.4440595826666
20
11.3988601138035
30
0
41
1
10
47.5305890343859
20
11.5175328725911
30
0
41
1
10
47.7036479378246
20
11.6720705428677
30
0
41
1
10
47.7901773895439
20
11.708
30
0
41
1
10
47.8767068412631
20
11.708
30
0
0
SPLINE
5
F5
100
AcDbEntity
8
1
62
256
6
ByLayer
370
13
48
1
60
0
100
AcDbSpline
70
4
71
3
72
82
73
78
40
0
40
0
40
0
40
0
40
0.03125
40
0.03125
40
0.0624999999999999
40
0.0624999999999999
40
0.0937499999999998
40
0.0937499999999998
40
0.125
40
0.125
40
0.15625
40
0.15625
40
0.1875
40
0.1875
40
0.21875
40
0.21875
40
0.25
40
0.25
40
0.281249999999999
40
0.281249999999999
40
0.289062499999999
40
0.289062499999999
40
0.296874999999999
40
0.296874999999999
40
0.312499999999999
40
0.312499999999999
40
0.343749999999999
40
0.343749999999999
40
0.374999999999999
40
0.374999999999999
40
0.406249999999999
40
0.406249999999999
40
0.437499999999999
40
0.437499999999999
40
0.468749999999999
40
0.468749999999999
40
0.499999999999999
40
0.499999999999999
40
0.531249999999999
40
0.531249999999999
40
0.562499999999999
40
0.562499999999999
40
0.570312499999999
40
0.570312499999999
40
0.578124999999999
40
0.578124999999999
40
0.593749999999999
40
0.593749999999999
40
0.624999999999999
40
0.624999999999999
40
0.656249999999999
40
0.656249999999999
40
0.687499999999998
40
0.687499999999998
40
0.718749999999998
40
0.718749999999998
40
0.749999999999998
40
0.749999999999998
40
0.781249999999998
40
0.781249999999998
40
0.812499999999998
40
0.812499999999998
40
0.843749999999998
40
0.843749999999998
40
0.859374999999998
40
0.859374999999998
40
0.867187499999998
40
0.867187499999998
40
0.874999999999998
40
0.874999999999998
40
0.906249999999998
40
0.906249999999998
40
0.937499999999999
40
0.937499999999999
40
0.968749999999999
40
0.968749999999999
40
1
40
1
40
1
40
1
41
1
10
47.2603222415785
20
11.708
30
0
41
1
10
47.3580130150746
20
11.708
30
0
41
1
10
47.4557037885708
20
11.6621579935035
30
0
41
1
10
47.6510853355632
20
11.4635110055343
30
0
41
1
10
47.7487761090593
20
11.3105890728362
30
0
41
1
10
47.9441576560517
20
10.888902521875
30
0
41
1
10
48.0418484295479
20
10.6200533269606
30
0
41
1
10
48.2372299765402
20
9.96743583676113
30
0
41
1
10
48.3349207500365
20
9.58365478541651
30
0
41
1
10
48.5303022970288
20
8.71350289178935
30
0
41
1
10
48.627993070525
20
8.22720895037097
30
0
41
1
10
48.8233746175173
20
7.17484078409984
30
0
41
1
10
48.9210653910135
20
6.60891412246897
30
0
41
1
10
49.1164469380058
20
5.42709286904633
30
0
41
1
10
49.214137711502
20
4.81136774847894
30
0
41
1
10
49.4095192584943
20
3.56180321131419
30
0
41
1
10
49.5072100319905
20
2.92810273787634
30
0
41
1
10
49.7025915789829
20
1.6716643523925
30
0
41
1
10
49.8002823524791
20
1.04900391302371
30
0
41
1
10
49.9223958193493
20
0.29188084378336
30
0
41
1
10
49.9468185127233
20
0.14157822656486
30
0
41
1
10
49.9956638994714
20
-0.156977052637842
30
0
41
1
10
50.0200865928455
20
-0.307435493550372
30
0
41
1
10
50.0933546729676
20
-0.761923721799604
30
0
41
1
10
50.1422000597156
20
-1.06908062812786
30
0
41
1
10
50.2887362199599
20
-1.99908904126613
30
0
41
1
10
50.3864269934561
20
-2.63066489293925
30
0
41
1
10
50.5818085404484
20
-3.89081168285901
30
0
41
1
10
50.6794993139447
20
-4.51927189427718
30
0
41
1
10
50.874880860937
20
-5.74226412616571
30
0
41
1
10
50.9725716344332
20
-6.33663603087288
30
0
41
1
10
51.1679531814255
20
-7.45999686815168
30
0
41
1
10
51.2656439549217
20
-7.98882043625875
30
0
41
1
10
51.461025501914
20
-8.95417338885989
30
0
41
1
10
51.5587162754102
20
-9.39058646649835
30
0
41
1
10
51.7540978224026
20
-10.1531816325152
30
0
41
1
10
51.8517885958987
20
-10.4793324973891
30
0
41
1
10
52.0471701428911
20
-11.0147627165258
30
0
41
1
10
52.1448609163873
20
-11.224095483169
30
0
41
1
10
52.3402424633797
20
-11.5301745174073
30
0
41
1
10
52.4379332368758
20
-11.627027173101
30
0
41
1
10
52.560046703746
20
-11.6856458135459
30
0
41
1
10
52.5844693971201
20
-11.6942627630219
30
0
41
1
10
52.6333147838681
20
-11.705532787884
30
0
41
1
10
52.6577374772423
20
-11.7081862867017
30
0
41
1
10
52.7310055573643
20
-11.7075970386059
30
0
41
1
10
52.7798509441124
20
-11.6957620268121
30
0
41
1
10
52.9263871043567
20
-11.6228526457797
30
0
41
1
10
53.0240778778528
20
-11.5241539628174
30
0
41
1
10
53.2194594248452
20
-11.2142278017037
30
0
41
1
10
53.3171501983414
20
-11.0028944904445
30
0
41
1
10
53.5125317453338
20
-10.463477829952
30
0
41
1
10
53.6102225188299
20
-10.1353423193738
30
0
41
1
10
53.8056040658222
20
-9.36899052202625
30
0
41
1
10
53.9032948393184
20
-8.93080702884762
30
0
41
1
10
54.0986763863108
20
-7.96230803724336
30
0
41
1
10
54.1963671598069
20
-7.43211008380655
30
0
41
1
10
54.3917487067993
20
-6.30651679412998
30
0
41
1
10
54.4894394802955
20
-5.71128720156577
30
0
41
1
10
54.6848210272878
20
-4.48713088094345
30
0
41
1
10
54.782511800784
20
-3.85836372665935
30
0
41
1
10
54.9778933477764
20
-2.59810545636188
30
0
41
1
10
55.0755841212725
20
-1.96672398776704
30
0
41
1
10
55.2221202815168
20
-1.03730397190137
30
0
41
1
10
55.2709656682649
20
-0.730392330438065
30
0
41
1
10
55.344233748387
20
-0.276333939787719
30
0
41
1
10
55.368656441761
20
-0.126254097366711
30
0
41
1
10
55.4175018285091
20
0.172463122715925
30
0
41
1
10
55.4419245218832
20
0.322997853615305
30
0
41
1
10
55.5640379887534
20
1.08083376563275
30
0
41
1
10
55.6617287622495
20
1.70389806541391
30
0
41
1
10
55.8571103092419
20
2.96069139291518
30
0
41
1
10
55.9548010827381
20
3.59434179886006
30
0
41
1
10
56.1501826297304
20
4.8432714237465
30
0
41
1
10
56.2478734032266
20
5.45841082854594
30
0
41
1
10
56.4432549502189
20
6.6385160163656
30
0
41
1
10
56.5409457237152
20
7.2033122295654
30
0
41
1
10
56.6386364972113
20
7.72813284470044
30
0
0
SPLINE
5
F6
100
AcDbEntity
8
1
62
256
6
ByLayer
370
13
48
1
60
0
100
AcDbSpline
70
4
71
3
72
22
73
18
40
0
40
0
40
0
40
0
40
0.125
40
0.125
40
0.25
40
0.25
40
0.375
40
0.375
40
0.5
40
0.5
40
0.625
40
0.625
40
0.75
40
0.75
40
0.875
40
0.875
40
1
40
1
40
1
40
1
41
1
10
45.8
20
7.00968308663428
30
0
41
1
10
45.8662472058909
20
7.38760006307612
30
0
41
1
10
45.9324944117818
20
7.75002802581801
30
0
41
1
10
46.0649888235635
20
8.43539840631087
30
0
41
1
10
46.1312360294544
20
8.75832151454784
30
0
41
1
10
46.2637304412361
20
9.35782576507197
30
0
41
1
10
46.329977647127
20
9.63439494923324
30
0
41
1
10
46.4624720589087
20
10.1365128421661
30
0
41
1
10
46.5287192647996
20
10.3620584096806
30
0
41
1
10
46.6612136765813
20
10.7598589953926
30
0
41
1
10
46.7274608824722
20
10.9321193686236
30
0
41
1
10
46.859955294254
20
11.2234518122622
30
0
41
1
10
46.9262025001448
20
11.3425358966707
30
0
41
1
10
47.0586969119266
20
11.5297214707452
30
0
41
1
10
47.1249441178174
20
11.5978389377576
30
0
41
1
10
47.2574385295992
20
11.6869696303729
30
0
41
1
10
47.3236857354901
20
11.708
30
0
41
1
10
47.3899329413809
20
11.708
30
0
0
SPLINE
5
F7
100
AcDbEntity
8
1
62
256
6
ByLayer
370
13
48
1
60
0
100
AcDbSpline
70
4
71
3
72
125
73
121
40
0
40
0
40
0
40
0
40
0.0312500000000004
40
0.0312500000000004
40
0.0625000000000008
40
0.0625000000000008
40
0.078125000000001
40
0.078125000000001
40
0.0937500000000013
40
0.0937500000000013
40
0.109375000000001
40
0.109375000000001
40
0.125000000000002
40
0.125000000000002
40
0.140625000000002
40
0.140625000000002
40
0.156250000000002
40
0.156250000000002
40
0.171875000000003
40
0.171875000000003
40
0.187500000000003
40
0.187500000000003
40
0.203125000000003
40
0.203125000000003
40
0.218750000000003
40
0.218750000000003
40
0.250000000000004
40
0.250000000000004
40
0.265625000000004
40
0.265625000000004
40
0.273437500000004
40
0.273437500000004
40
0.277343750000004
40
0.277343750000004
40
0.281250000000004
40
0.281250000000004
40
0.312500000000005
40
0.312500000000005
40
0.343750000000005
40
0.343750000000005
40
0.359375000000005
40
0.359375000000005
40
0.375000000000006
40
0.375000000000006
40
0.390625000000006
40
0.390625000000006
40
0.406250000000006
40
0.406250000000006
40
0.421875000000006
40
0.421875000000006
40
0.437500000000006
40
0.437500000000006
40
0.453125000000007
40
0.453125000000007
40
0.468750000000007
40
0.468750000000007
40
0.484375000000007
40
0.484375000000007
40
0.500000000000007
40
0.500000000000007
40
0.531250000000008
40
0.531250000000008
40
0.546875000000008
40
0.546875000000008
40
0.550781250000008
40
0.550781250000008
40
0.554687500000008
40
0.562500000000008
40
0.562500000000008
40
0.593750000000008
40
0.593750000000008
40
0.609375000000007
40
0.609375000000007
40
0.625000000000007
40
0.625000000000007
40
0.640625000000007
40
0.640625000000007
40
0.656250000000007
40
0.656250000000007
40
0.671875000000006
40
0.671875000000006
40
0.687500000000006
40
0.687500000000006
40
0.703125000000006
40
0.703125000000006
40
0.718750000000006
40
0.718750000000006
40
0.734375000000005
40
0.734375000000005
40
0.750000000000005
40
0.750000000000005
40
0.765625000000005
40
0.765625000000005
40
0.781250000000005
40
0.781250000000005
40
0.812500000000004
40
0.812500000000004
40
0.820312500000004
40
0.820312500000004
40
0.828125000000004
40
0.828125000000004
40
0.843750000000004
40
0.843750000000004
40
0.875000000000003
40
0.875000000000003
40
0.890625000000003
40
0.890625000000003
40
0.906250000000002
40
0.906250000000002
40
0.921875000000002
40
0.921875000000002
40
0.937500000000001
40
0.937500000000001
40
0.953125000000001
40
0.953125000000001
40
0.968750000000001
40
0.968750000000001
40
0.984375
40
0.984375
40
1
40
1
40
1
40
1
41
1
10
46.7735483416963
20
11.708
30
0
41
1
10
46.8763096766496
20
11.708
30
0
41
1
10
46.9790710116029
20
11.6572498067634
30
0
41
1
10
47.1845936815094
20
11.4366246440432
30
0
41
1
10
47.2873550164627
20
11.2666001463177
30
0
41
1
10
47.4414970188926
20
10.9150312331882
30
0
41
1
10
47.4928776863693
20
10.7818330068461
30
0
41
1
10
47.5956390213225
20
10.4833650406327
30
0
41
1
10
47.6470196887991
20
10.3180935243906
30
0
41
1
10
47.7497810237524
20
9.95626787373715
30
0
41
1
10
47.8011616912291
20
9.75971375494939
30
0
41
1
10
47.9039230261824
20
9.33698907640138
30
0
41
1
10
47.955303693659
20
9.11082048055803
30
0
41
1
10
48.0580650286123
20
8.63138101525334
30
0
41
1
10
48.1094456960889
20
8.37811398351855
30
0
41
1
10
48.2122070310422
20
7.8477522528907
30
0
41
1
10
48.2635876985189
20
7.57066295556703
30
0
41
1
10
48.3663490334721
20
6.99655172218658
30
0
41
1
10
48.4177297009488
20
6.6995362474658
30
0
41
1
10
48.5204910359021
20
6.08990804146291
30
0
41
1
10
48.5718717033787
20
5.77730221249666
30
0
41
1
10
48.674633038332
20
5.14106609621737
30
0
41
1
10
48.7260137058086
20
4.81744251739056
30
0
41
1
10
48.8287750407619
20
4.16377450462866
30
0
41
1
10
48.8801557082386
20
3.83373602919656
30
0
41
1
10
49.0342977106685
20
2.84065283460089
30
0
41
1
10
49.1370590456218
20
2.17487880746845
30
0
41
1
10
49.2912010480517
20
1.1939865752413
30
0
41
1
10
49.3425817155283
20
0.869929439161439
30
0
41
1
10
49.4196527167432
20
0.39055671956757
30
0
41
1
10
49.4453430504816
20
0.231880331283946
30
0
41
1
10
49.4838785510891
20
-0.0042080542568783
30
0
41
1
10
49.4967237179583
20
-0.0826069159111
30
0
41
1
10
49.5224140516966
20
-0.240465911649011
30
0
41
1
10
49.5352592185657
20
-0.319708693249083
30
0
41
1
10
49.6508657203882
20
-1.03552379051749
30
0
41
1
10
49.7536270553415
20
-1.69086379219607
30
0
41
1
10
49.959149725248
20
-3.01310879205789
30
0
41
1
10
50.0619110602013
20
-3.67991164486824
30
0
41
1
10
50.2160530626312
20
-4.66329033444839
30
0
41
1
10
50.2674337301078
20
-4.98823131417171
30
0
41
1
10
50.3701950650611
20
-5.62783238428685
30
0
41
1
10
50.4215757325377
20
-5.94248585083298
30
0
41
1
10
50.524337067491
20
-6.55692123881343
30
0
41
1
10
50.5757177349676
20
-6.85669624731386
30
0
41
1
10
50.678479069921
20
-7.43698733711378
30
0
41
1
10
50.7298597373976
20
-7.71749684465416
30
0
41
1
10
50.8326210723509
20
-8.25527762867731
30
0
41
1
10
50.8840017398275
20
-8.51254329863175
30
0
41
1
10
50.9867630747808
20
-9.00045029202454
30
0
41
1
10
51.0381437422574
20
-9.23108750439954
30
0
41
1
10
51.1409050772107
20
-9.66309234246532
30
0
41
1
10
51.1922857446874
20
-9.86445769707356
30
0
41
1
10
51.2950470796407
20
-10.2361113261151
30
0
41
1
10
51.3464277471173
20
-10.4063992820048
30
0
41
1
10
51.4491890820707
20
-10.7149674197492
30
0
41
1
10
51.5005697495472
20
-10.8532491136177
30
0
41
1
10
51.6033310845005
20
-11.097732243434
30
0
41
1
10
51.6547117519771
20
-11.2039367057373
30
0
41
1
10
51.8088537544071
20
-11.4755040953306
30
0
41
1
10
51.9116150893604
20
-11.5935601595275
30
0
41
1
10
52.0657570917903
20
-11.686167259114
30
0
41
1
10
52.1171377592669
20
-11.7030285824574
30
0
41
1
10
52.1813635936128
20
-11.7080549890461
30
0
41
1
10
52.1942087604819
20
-11.7082619185184
30
0
41
1
10
52.2198990942202
20
-11.7070941906654
30
0
41
1
10
52.2584345948277
20
-11.7029531316314
30
0
41
1
10
52.2969700954352
20
-11.6914677639332
30
0
41
1
10
52.4254217641268
20
-11.6361249407014
30
0
41
1
10
52.5281830990801
20
-11.5369635009212
30
0
41
1
10
52.68232510151
20
-11.2948937751329
30
0
41
1
10
52.7337057689867
20
-11.1987086728366
30
0
41
1
10
52.8364671039399
20
-10.9744105891843
30
0
41
1
10
52.8878477714166
20
-10.846294190992
30
0
41
1
10
52.9906091063698
20
-10.5579444190993
30
0
41
1
10
53.0419897738465
20
-10.3977090133329
30
0
41
1
10
53.1447511087998
20
-10.0457726889926
30
0
41
1
10
53.1961317762764
20
-9.85407148712002
30
0
41
1
10
53.2988931112297
20
-9.44073160870215
30
0
41
1
10
53.3502737787063
20
-9.2190945870606
30
0
41
1
10
53.4530351136596
20
-8.7482676472155
30
0
41
1
10
53.5044157811363
20
-8.49908128558155
30
0
41
1
10
53.6071771160895
20
-7.97631823486782
30
0
41
1
10
53.6585577835661
20
-7.70274672965496
30
0
41
1
10
53.7613191185195
20
-7.13502155072786
30
0
41
1
10
53.8126997859961
20
-6.84087421028042
30
0
41
1
10
53.9154611209494
20
-6.23627631820793
30
0
41
1
10
53.966841788426
20
-5.92583264224382
30
0
41
1
10
54.0696031233793
20
-5.29319124878569
30
0
41
1
10
54.120983790856
20
-4.97100031039591
30
0
41
1
10
54.2237451258092
20
-4.31947647266827
30
0
41
1
10
54.2751257932858
20
-3.99014968180623
30
0
41
1
10
54.3778871282391
20
-3.32883367537397
30
0
41
1
10
54.4292677957158
20
-2.99684946368805
30
0
41
1
10
54.5834097981457
20
-2.00317134374714
30
0
41
1
10
54.686171133099
20
-1.34402258752334
30
0
41
1
10
54.8146228017906
20
-0.541641817775627
30
0
41
1
10
54.8403131355289
20
-0.382222886470146
30
0
41
1
10
54.8916938030056
20
-0.0658499793692613
30
0
41
1
10
54.9173841367439
20
0.0905248263080409
30
0
41
1
10
54.9944551379588
20
0.565468694937948
30
0
41
1
10
55.0458358054354
20
0.887010642040281
30
0
41
1
10
55.1999778078653
20
1.8619341647487
30
0
41
1
10
55.3027391428186
20
2.52584794358472
30
0
41
1
10
55.4568811452486
20
3.52018992006137
30
0
41
1
10
55.5082618127252
20
3.85131937245737
30
0
41
1
10
55.6110231476785
20
4.50859793608146
30
0
41
1
10
55.6624038151551
20
4.83474141873555
30
0
41
1
10
55.7651651501084
20
5.47747756063688
30
0
41
1
10
55.8165458175851
20
5.79406369419905
30
0
41
1
10
55.9193071525383
20
6.41308139547959
30
0
41
1
10
55.970687820015
20
6.71550605551388
30
0
41
1
10
56.0734491549682
20
7.30176745959335
30
0
41
1
10
56.1248298224449
20
7.5855975333356
30
0
41
1
10
56.2275911573982
20
8.13061296052427
30
0
41
1
10
56.2789718248748
20
8.39179251583931
30
0
41
1
10
56.3817331598281
20
8.88801612208272
30
0
41
1
10
56.4331138273047
20
9.12305579730764
30
0
41
1
10
56.535875162258
20
9.56422950947496
30
0
41
1
10
56.5872558297347
20
9.77036097098204
30
0
41
1
10
56.6386364972113
20
9.96106764369324
30
0
0
SPLINE
5
F8
100
AcDbEntity
8
1
62
256
6
ByLayer
370
13
48
1
60
0
100
AcDbSpline
70
4
71
3
72
14
73
10
40
0
40
0
40
0
40
0
40
0.25
40
0.25
40
0.5
40
0.5
40
0.75
40
0.75
40
1
40
1
40
1
40
1
41
1
10
45.8
20
9.44785977144525
30
0
41
1
10
45.8919299201249
20
9.83426766282139
30
0
41
1
10
45.9838598402498
20
10.1735589843112
30
0
41
1
10
46.1677196804996
20
10.7495576768186
30
0
41
1
10
46.2596496006244
20
10.986285568405
30
0
41
1
10
46.4435094408743
20
11.35761123502
30
0
41
1
10
46.5354393609992
20
11.4922760546052
30
0
41
1
10
46.719299201249
20
11.6674269851039
30
0
41
1
10
46.8112291213738
20
11.708
30
0
41
1
10
46.9031590414987
20
11.708
30
0
0
SPLINE
5
F9
100
AcDbEntity
8
1
62
256
6
ByLayer
370
13
48
1
60
0
100
AcDbSpline
70
4
71
3
72
8
73
4
40
0
40
0
40
0
40
0
40
1
40
1
40
1
40
1
41
1
10
56.6386364972115
20
1.53797101052572
30
0
41
1
10
58.059090998141
20
1.00882743656504
30
0
41
1
10
59.4795454990704
20
0.49616582823532
30
0
41
1
10
60.8999999999998
20
5.68E-14
30
0
0
SPLINE
5
FA
100
AcDbEntity
8
1
62
256
6
ByLayer
370
13
48
1
60
0
100
AcDbSpline
70
4
71
3
72
8
73
4
40
0
40
0
40
0
40
0
40
1
40
1
40
1
40
1
41
1
10
56.6386364972115
20
-0.870815869614802
30
0
41
1
10
58.059090998141
20
-0.597128529575144
30
0
41
1
10
59.4795454990704
20
-0.30685388729097
30
0
41
1
10
60.8999999999998
20
-5.68E-14
30
0
0
SPLINE
5
FB
100
AcDbEntity
8
1
62
256
6
ByLayer
370
13
48
1
60
0
100
AcDbSpline
70
4
71
3
72
8
73
4
40
0
40
0
40
0
40
0
40
1
40
1
40
1
40
1
41
1
10
56.6386364972113
20
2.69038951907604
30
0
41
1
10
58.0590909981409
20
1.80977865814862
30
0
41
1
10
59.4795454990705
20
0.912973960253822
30
0
41
1
10
60.9000000000001
20
-2.84E-14
30
0
0
SPLINE
5
FC
100
AcDbEntity
8
1
62
256
6
ByLayer
370
13
48
1
60
0
100
AcDbSpline
70
4
71
3
72
8
73
4
40
0
40
0
40
0
40
0
40
1
40
1
40
1
40
1
41
1
10
56.6386364972113
20
-7.50647370612341
30
0
41
1
10
58.0590909981409
20
-4.99155302896793
30
0
41
1
10
59.4795454990705
20
-2.4893724469716
30
0
41
1
10
60.9000000000001
20
5.68E-14
30
0
0
SPLINE
5
FD
100
AcDbEntity
8
1
62
256
6
ByLayer
370
13
48
1
60
0
100
AcDbSpline
70
4
71
3
72
8
73
4
40
0
40
0
40
0
40
0
40
1
40
1
40
1
40
1
41
1
10
56.6386364972115
20
8.82220903281714
30
0
41
1
10
58.059090998141
20
5.87053925806794
30
0
41
1
10
59.4795454990704
20
2.92977624618899
30
0
41
1
10
60.8999999999998
20
4.263E-13
30
0
0
SPLINE
5
FE
100
AcDbEntity
8
1
62
256
6
ByLayer
370
13
48
1
60
0
100
AcDbSpline
70
4
71
3
72
8
73
4
40
0
40
0
40
0
40
0
40
1
40
1
40
1
40
1
41
1
10
56.6386364972113
20
1.50345983701501
30
0
41
1
10
58.0590909981409
20
1.01879955012407
30
0
41
1
10
59.4795454990704
20
0.517641670933301
30
0
41
1
10
60.8999999999999
20
2.84E-14
30
0
0
SPLINE
5
FF
100
AcDbEntity
8
1
62
256
6
ByLayer
370
13
48
1
60
0
100
AcDbSpline
70
4
71
3
72
8
73
4
40
0
40
0
40
0
40
0
40
1
40
1
40
1
40
1
41
1
10
56.6386364972113
20
10.7325689094865
30
0
41
1
10
58.0590909981409
20
7.16169166755711
30
0
41
1
10
59.4795454990705
20
3.58413619515255
30
0
41
1
10
60.9
20
0
30
0
0
SPLINE
5
100
100
AcDbEntity
8
1
62
256
6
ByLayer
370
13
48
1
60
0
100
AcDbSpline
70
4
71
3
72
8
73
4
40
0
40
0
40
0
40
0
40
1
40
1
40
1
40
1
41
1
10
56.6386364972115
20
10.2111768560099
30
0
41
1
10
58.0590909981411
20
6.79931497969775
30
0
41
1
10
59.4795454990707
20
3.39555848119971
30
0
41
1
10
60.9000000000003
20
-5.969E-13
30
0
0
SPLINE
5
101
100
AcDbEntity
8
1
62
256
6
ByLayer
370
13
48
1
60
0
100
AcDbSpline
70
4
71
3
72
8
73
4
40
0
40
0
40
0
40
0
40
1
40
1
40
1
40
1
41
1
10
56.6386364972113
20
-8.39127739461799
30
0
41
1
10
58.0590909981409
20
-5.58258722296077
30
0
41
1
10
59.4795454990705
20
-2.78546939672017
30
0
41
1
10
60.9000000000001
20
5.68E-14
30
0
0
SPLINE
5
102
100
AcDbEntity
8
1
62
256
6
ByLayer
370
13
48
1
60
0
100
AcDbSpline
70
4
71
3
72
8
73
4
40
0
40
0
40
0
40
0
40
1
40
1
40
1
40
1
41
1
10
56.6386364972115
20
0.335358149014979
30
0
41
1
10
58.059090998141
20
0.206948241770448
30
0
41
1
10
59.4795454990704
20
0.0951612274393199
30
0
41
1
10
60.8999999999998
20
0
30
0
0
SPLINE
5
103
100
AcDbEntity
8
1
62
256
6
ByLayer
370
13
48
1
60
0
100
AcDbSpline
70
4
71
3
72
8
73
4
40
0
40
0
40
0
40
0
40
1
40
1
40
1
40
1
41
1
10
56.6386364972113
20
11.4630855462085
30
0
41
1
10
58.0590909981409
20
7.64544085448793
30
0
41
1
10
59.4795454990705
20
3.82437763544971
30
0
41
1
10
60.9
20
0
30
0
0
SPLINE
5
104
100
AcDbEntity
8
1
62
256
6
ByLayer
370
13
48
1
60
0
100
AcDbSpline
70
4
71
3
72
8
73
4
40
0
40
0
40
0
40
0
40
1
40
1
40
1
40
1
41
1
10
56.6386364972115
20
7.98324393694509
30
0
41
1
10
58.0590909981408
20
5.30999760479861
30
0
41
1
10
59.4795454990701
20
2.64889216775936
30
0
41
1
10
60.8999999999994
20
1.2221E-12
30
0
0
SPLINE
5
105
100
AcDbEntity
8
1
62
256
6
ByLayer
370
13
48
1
60
0
100
AcDbSpline
70
4
71
3
72
8
73
4
40
0
40
0
40
0
40
0
40
1
40
1
40
1
40
1
41
1
10
56.6386364972115
20
6.06080148623579
30
0
41
1
10
58.059090998141
20
4.02630537189739
30
0
41
1
10
59.4795454990704
20
2.00601990967425
30
0
41
1
10
60.8999999999998
20
2.842E-13
30
0
0
SPLINE
5
106
100
AcDbEntity
8
1
62
256
6
ByLayer
370
13
48
1
60
0
100
AcDbSpline
70
4
71
3
72
8
73
4
40
0
40
0
40
0
40
0
40
1
40
1
40
1
40
1
41
1
10
56.6386364972115
20
-3.24271228514988
30
0
41
1
10
58.059090998141
20
-2.17778827678563
30
0
41
1
10
59.4795454990704
20
-1.09687431919926
30
0
41
1
10
60.8999999999998
20
-1.421E-13
30
0
0
SPLINE
5
107
100
AcDbEntity
8
1
62
256
6
ByLayer
370
13
48
1
60
0
100
AcDbSpline
70
4
71
3
72
8
73
4
40
0
40
0
40
0
40
0
40
1
40
1
40
1
40
1
41
1
10
56.6386364972115
20
-5.47723733785722
30
0
41
1
10
58.059090998141
20
-3.66619014934526
30
0
41
1
10
59.4795454990704
20
-1.84042774854026
30
0
41
1
10
60.8999999999998
20
-2.558E-13
30
0
0
SPLINE
5
108
100
AcDbEntity
8
1
62
256
6
ByLayer
370
13
48
1
60
0
100
AcDbSpline
70
4
71
3
72
8
73
4
40
0
40
0
40
0
40
0
40
1
40
1
40
1
40
1
41
1
10
56.6386364972115
20
4.99773848435046
30
0
41
1
10
58.059090998141
20
3.31678627773107
30
0
41
1
10
59.4795454990704
20
1.65085836931652
30
0
41
1
10
60.8999999999998
20
2.274E-13
30
0
0
SPLINE
5
109
100
AcDbEntity
8
1
62
256
6
ByLayer
370
13
48
1
60
0
100
AcDbSpline
70
4
71
3
72
8
73
4
40
0
40
0
40
0
40
0
40
1
40
1
40
1
40
1
41
1
10
56.6386364972113
20
-11.6933325728936
30
0
41
1
10
58.059090998141
20
-7.79472285457516
30
0
41
1
10
59.4795454990706
20
-3.89690994255162
30
0
41
1
10
60.9000000000003
20
7.105E-13
30
0
0
SPLINE
5
10A
100
AcDbEntity
8
1
62
256
6
ByLayer
370
13
48
1
60
0
100
AcDbSpline
70
4
71
3
72
8
73
4
40
0
40
0
40
0
40
0
40
1
40
1
40
1
40
1
41
1
10
56.6386364972115
20
-6.51306448086777
30
0
41
1
10
58.059090998141
20
-4.355862867513
30
0
41
1
10
59.4795454990704
20
-2.18482162006674
30
0
41
1
10
60.8999999999998
20
-3.126E-13
30
0
0
SPLINE
5
10B
100
AcDbEntity
8
1
62
256
6
ByLayer
370
13
48
1
60
0
100
AcDbSpline
70
4
71
3
72
8
73
4
40
0
40
0
40
0
40
0
40
1
40
1
40
1
40
1
41
1
10
56.6386364972113
20
3.84875004360506
30
0
41
1
10
58.0590909981409
20
2.58153978631708
30
0
41
1
10
59.4795454990705
20
1.29861140921454
30
0
41
1
10
60.9000000000001
20
-2.84E-14
30
0
0
SPLINE
5
10C
100
AcDbEntity
8
1
62
256
6
ByLayer
370
13
48
1
60
0
100
AcDbSpline
70
4
71
3
72
8
73
4
40
0
40
0
40
0
40
0
40
1
40
1
40
1
40
1
41
1
10
56.6386364972113
20
10.1941035408888
30
0
41
1
10
58.0590909981409
20
6.80424836850841
30
0
41
1
10
59.4795454990704
20
3.40618297734415
30
0
41
1
10
60.9
20
0
30
0
0
SPLINE
5
10D
100
AcDbEntity
8
1
62
256
6
ByLayer
370
13
48
1
60
0
100
AcDbSpline
70
4
71
3
72
8
73
4
40
0
40
0
40
0
40
0
40
1
40
1
40
1
40
1
41
1
10
56.6386364972113
20
-8.36696773135074
30
0
41
1
10
58.0590909981409
20
-5.58961157762681
30
0
41
1
10
59.4795454990705
20
-2.80059697574052
30
0
41
1
10
60.9000000000001
20
5.68E-14
30
0
0
SPLINE
5
10E
100
AcDbEntity
8
1
62
256
6
ByLayer
370
13
48
1
60
0
100
AcDbSpline
70
4
71
3
72
8
73
4
40
0
40
0
40
0
40
0
40
1
40
1
40
1
40
1
41
1
10
56.6386364972113
20
-11.5709548120964
30
0
41
1
10
58.0590909981409
20
-7.71143275500916
30
0
41
1
10
59.4795454990705
20
-3.85441280545842
30
0
41
1
10
60.9000000000001
20
8.53E-14
30
0
0
SPLINE
5
10F
100
AcDbEntity
8
1
62
256
6
ByLayer
370
13
48
1
60
0
100
AcDbSpline
70
4
71
3
72
8
73
4
40
0
40
0
40
0
40
0
40
1
40
1
40
1
40
1
41
1
10
56.6386364972113
20
-5.50797548893678
30
0
41
1
10
58.0590909981409
20
-3.65730826264104
30
0
41
1
10
59.4795454990705
20
-1.82129980734746
30
0
41
1
10
60.9000000000001
20
2.84E-14
30
0
0
SPLINE
5
110
100
AcDbEntity
8
1
62
256
6
ByLayer
370
13
48
1
60
0
100
AcDbSpline
70
4
71
3
72
8
73
4
40
0
40
0
40
0
40
0
40
1
40
1
40
1
40
1
41
1
10
56.6386364972113
20
-2.10199245529159
30
0
41
1
10
58.0590909981409
20
-1.38496784355689
30
0
41
1
10
59.4795454990704
20
-0.684297379561286
30
0
41
1
10
60.8999999999999
20
-2.84E-14
30
0
0
SPLINE
5
111
100
AcDbEntity
8
1
62
256
6
ByLayer
370
13
48
1
60
0
100
AcDbSpline
70
4
71
3
72
8
73
4
40
0
40
0
40
0
40
0
40
1
40
1
40
1
40
1
41
1
10
56.6386364972113
20
6.03099524583425
30
0
41
1
10
58.0590909981409
20
4.03491798004197
30
0
41
1
10
59.4795454990705
20
2.02456793528936
30
0
41
1
10
60.9000000000001
20
-2.84E-14
30
0
0
SPLINE
5
112
100
AcDbEntity
8
1
62
256
6
ByLayer
370
13
48
1
60
0
100
AcDbSpline
70
4
71
3
72
8
73
4
40
0
40
0
40
0
40
0
40
1
40
1
40
1
40
1
41
1
10
56.6386364972113
20
-4.41550294687133
30
0
41
1
10
58.0590909981409
20
-2.92826599145636
30
0
41
1
10
59.4795454990704
20
-1.45641835878868
30
0
41
1
10
60.8999999999999
20
-8.53E-14
30
0
0
SPLINE
5
113
100
AcDbEntity
8
1
62
256
6
ByLayer
370
13
48
1
60
0
100
AcDbSpline
70
4
71
3
72
8
73
4
40
0
40
0
40
0
40
0
40
1
40
1
40
1
40
1
41
1
10
56.6386364972113
20
-7.47972960705897
30
0
41
1
10
58.0590909981409
20
-4.99928082161515
30
0
41
1
10
59.4795454990705
20
-2.50601494289913
30
0
41
1
10
60.9000000000001
20
5.68E-14
30
0
0
SPLINE
5
114
100
AcDbEntity
8
1
62
256
6
ByLayer
370
13
48
1
60
0
100
AcDbSpline
70
4
71
3
72
8
73
4
40
0
40
0
40
0
40
0
40
1
40
1
40
1
40
1
41
1
10
56.6386364972113
20
-9.16535730137656
30
0
41
1
10
58.0590909981408
20
-6.12058643272852
30
0
41
1
10
59.4795454990703
20
-3.06543956170424
30
0
41
1
10
60.8999999999998
20
-4.263E-13
30
0
0
SPLINE
5
115
100
AcDbEntity
8
1
62
256
6
ByLayer
370
13
48
1
60
0
100
AcDbSpline
70
4
71
3
72
8
73
4
40
0
40
0
40
0
40
0
40
1
40
1
40
1
40
1
41
1
10
56.6386364972113
20
-11.3257054639404
30
0
41
1
10
58.0590909981408
20
-7.54625520546116
30
0
41
1
10
59.4795454990703
20
-3.77098578596278
30
0
41
1
10
60.8999999999998
20
-5.4E-13
30
0
0
SPLINE
5
116
100
AcDbEntity
8
1
62
256
6
ByLayer
370
13
48
1
60
0
100
AcDbSpline
70
4
71
3
72
8
73
4
40
0
40
0
40
0
40
0
40
1
40
1
40
1
40
1
41
1
10
56.6386364972113
20
-10.4782862989075
30
0
41
1
10
58.059090998141
20
-6.9781047505152
30
0
41
1
10
59.4795454990706
20
-3.48531096046656
30
0
41
1
10
60.9000000000003
20
6.253E-13
30
0
0
SPLINE
5
117
100
AcDbEntity
8
1
62
256
6
ByLayer
370
13
48
1
60
0
100
AcDbSpline
70
4
71
3
72
8
73
4
40
0
40
0
40
0
40
0
40
1
40
1
40
1
40
1
41
1
10
56.6386364972113
20
-0.905521597351651
30
0
41
1
10
58.0590909981409
20
-0.587100198952584
30
0
41
1
10
59.4795454990705
20
-0.285256976094587
30
0
41
1
10
60.9000000000001
20
0
30
0
0
SPLINE
5
118
100
AcDbEntity
8
1
62
256
6
ByLayer
370
13
48
1
60
0
100
AcDbSpline
70
4
71
3
72
8
73
4
40
0
40
0
40
0
40
0
40
1
40
1
40
1
40
1
41
1
10
56.6386364972113
20
11.6473794822712
30
0
41
1
10
58.0590909981409
20
7.76660982571556
30
0
41
1
10
59.4795454990705
20
3.88411474201087
30
0
41
1
10
60.9
20
-2.84E-14
30
0
0
SPLINE
5
119
100
AcDbEntity
8
1
62
256
6
ByLayer
370
13
48
1
60
0
100
AcDbSpline
70
4
71
3
72
8
73
4
40
0
40
0
40
0
40
0
40
1
40
1
40
1
40
1
41
1
10
56.6386364972113
20
-9.86642024463569
30
0
41
1
10
58.059090998141
20
-6.58656698245309
30
0
41
1
10
59.4795454990706
20
-3.2977303461073
30
0
41
1
10
60.9000000000003
20
5.969E-13
30
0
0
SPLINE
5
11A
100
AcDbEntity
8
1
62
256
6
ByLayer
370
13
48
1
60
0
100
AcDbSpline
70
4
71
3
72
8
73
4
40
0
40
0
40
0
40
0
40
1
40
1
40
1
40
1
41
1
10
56.6386364972113
20
-11.316833719616
30
0
41
1
10
58.0590909981408
20
-7.54881872425435
30
0
41
1
10
59.4795454990703
20
-3.77650655405572
30
0
41
1
10
60.8999999999998
20
-5.4E-13
30
0
0
SPLINE
5
11B
100
AcDbEntity
8
1
62
256
6
ByLayer
370
13
48
1
60
0
100
AcDbSpline
70
4
71
3
72
8
73
4
40
0
40
0
40
0
40
0
40
1
40
1
40
1
40
1
41
1
10
56.6386364972113
20
-9.88511519818303
30
0
41
1
10
58.0590909981409
20
-6.58116501605255
30
0
41
1
10
59.4795454990705
20
-3.28609672601348
30
0
41
1
10
60.9000000000001
20
5.68E-14
30
0
0
SPLINE
5
11C
100
AcDbEntity
8
1
62
256
6
ByLayer
370
13
48
1
60
0
100
AcDbSpline
70
4
71
3
72
8
73
4
40
0
40
0
40
0
40
0
40
1
40
1
40
1
40
1
41
1
10
56.6386364972113
20
-10.9479005556246
30
0
41
1
10
58.0590909981409
20
-7.30449495494184
30
0
41
1
10
59.4795454990705
20
-3.65516161772317
30
0
41
1
10
60.9000000000001
20
5.68E-14
30
0
0
SPLINE
5
11D
100
AcDbEntity
8
1
62
256
6
ByLayer
370
13
48
1
60
0
100
AcDbSpline
70
4
71
3
72
8
73
4
40
0
40
0
40
0
40
0
40
1
40
1
40
1
40
1
41
1
10
56.6386364972113
20
-10.9601888231615
30
0
41
1
10
58.059090998141
20
-7.30094422087916
30
0
41
1
10
59.4795454990706
20
-3.64751479283081
30
0
41
1
10
60.9000000000003
20
6.537E-13
30
0
0
SPLINE
5
11E
100
AcDbEntity
8
1
62
256
6
ByLayer
370
13
48
1
60
0
100
AcDbSpline
70
4
71
3
72
8
73
4
40
0
40
0
40
0
40
0
40
1
40
1
40
1
40
1
41
1
10
56.6386364972115
20
3.88160466240328
30
0
41
1
10
58.059090998141
20
2.57204633952091
30
0
41
1
10
59.4795454990704
20
1.27816641840613
30
0
41
1
10
60.8999999999998
20
1.705E-13
30
0
0
SPLINE
5
11F
100
AcDbEntity
8
1
62
256
6
ByLayer
370
13
48
1
60
0
100
AcDbSpline
70
4
71
3
72
8
73
4
40
0
40
0
40
0
40
0
40
1
40
1
40
1
40
1
41
1
10
56.6386364972113
20
9.5473873231511
30
0
41
1
10
58.0590909981409
20
6.37455098054483
30
0
41
1
10
59.4795454990705
20
3.19205961488839
30
0
41
1
10
60.9000000000001
20
-5.68E-14
30
0
0
SPLINE
5
120
100
AcDbEntity
8
1
62
256
6
ByLayer
370
13
48
1
60
0
100
AcDbSpline
70
4
71
3
72
8
73
4
40
0
40
0
40
0
40
0
40
1
40
1
40
1
40
1
41
1
10
56.6386364972113
20
-3.27614232470532
30
0
41
1
10
58.0590909981409
20
-2.16812856032826
30
0
41
1
10
59.4795454990705
20
-1.07607125173314
30
0
41
1
10
60.9000000000002
20
1.137E-13
30
0
0
SPLINE
5
121
100
AcDbEntity
8
1
62
256
6
ByLayer
370
13
48
1
60
0
100
AcDbSpline
70
4
71
3
72
8
73
4
40
0
40
0
40
0
40
0
40
1
40
1
40
1
40
1
41
1
10
56.6386364972113
20
0.300564964552308
30
0
41
1
10
58.0590909981409
20
0.21700184329265
30
0
41
1
10
59.4795454990705
20
0.116812561789033
30
0
41
1
10
60.9000000000001
20
0
30
0
0
SPLINE
5
122
100
AcDbEntity
8
1
62
256
6
ByLayer
370
13
48
1
60
0
100
AcDbSpline
70
4
71
3
72
8
73
4
40
0
40
0
40
0
40
0
40
1
40
1
40
1
40
1
41
1
10
56.6386364972115
20
2.724252208622
30
0
41
1
10
58.059090998141
20
1.79999392609764
30
0
41
1
10
59.4795454990704
20
0.891901660472598
30
0
41
1
10
60.8999999999998
20
1.137E-13
30
0
0
SPLINE
5
123
100
AcDbEntity
8
1
62
256
6
ByLayer
370
13
48
1
60
0
100
AcDbSpline
70
4
71
3
72
8
73
4
40
0
40
0
40
0
40
0
40
1
40
1
40
1
40
1
41
1
10
56.6386364972113
20
-11.5655937997447
30
0
41
1
10
58.0590909981408
20
-7.71298183661173
30
0
41
1
10
59.4795454990703
20
-3.85774889189852
30
0
41
1
10
60.8999999999998
20
-5.4E-13
30
0
0
SPLINE
5
124
100
AcDbEntity
8
1
62
256
6
ByLayer
370
13
48
1
60
0
100
AcDbSpline
70
4
71
3
72
8
73
4
40
0
40
0
40
0
40
0
40
1
40
1
40
1
40
1
41
1
10
56.6386364972113
20
11.1570654829622
30
0
41
1
10
58.0590909981409
20
7.44308519909251
30
0
41
1
10
59.4795454990705
20
3.72402958896541
30
0
41
1
10
60.9
20
0
30
0
0
SPLINE
5
125
100
AcDbEntity
8
1
62
256
6
ByLayer
370
13
48
1
60
0
100
AcDbSpline
70
4
71
3
72
8
73
4
40
0
40
0
40
0
40
0
40
1
40
1
40
1
40
1
41
1
10
56.6386364972113
20
-10.4627119968657
30
0
41
1
10
58.0590909981409
20
-6.98260499471934
30
0
41
1
10
59.4795454990705
20
-3.49500264077673
30
0
41
1
10
60.9000000000001
20
5.68E-14
30
0
0
SPLINE
5
126
100
AcDbEntity
8
1
62
256
6
ByLayer
370
13
48
1
60
0
100
AcDbSpline
70
4
71
3
72
8
73
4
40
0
40
0
40
0
40
0
40
1
40
1
40
1
40
1
41
1
10
56.6386364972115
20
9.56749138206396
30
0
41
1
10
58.059090998141
20
6.3687418486582
30
0
41
1
10
59.4795454990704
20
3.17954912733069
30
0
41
1
10
60.8999999999998
20
4.547E-13
30
0
0
SPLINE
5
127
100
AcDbEntity
8
1
62
256
6
ByLayer
370
13
48
1
60
0
100
AcDbSpline
70
4
71
3
72
8
73
4
40
0
40
0
40
0
40
0
40
1
40
1
40
1
40
1
41
1
10
56.6386364972115
20
11.6508653348584
30
0
41
1
10
58.059090998141
20
7.76560257750219
30
0
41
1
10
59.4795454990704
20
3.88194554246709
30
0
41
1
10
60.8999999999998
20
5.4E-13
30
0
0
SPLINE
5
128
100
AcDbEntity
8
1
62
256
6
ByLayer
370
13
48
1
60
0
100
AcDbSpline
70
4
71
3
72
8
73
4
40
0
40
0
40
0
40
0
40
1
40
1
40
1
40
1
41
1
10
56.6386364972113
20
8.79928771445077
30
0
41
1
10
58.0590909981409
20
5.87716244605113
30
0
41
1
10
59.4795454990704
20
2.94403987670623
30
0
41
1
10
60.9
20
5.68E-14
30
0
0
SPLINE
5
129
100
AcDbEntity
8
1
62
256
6
ByLayer
370
13
48
1
60
0
100
AcDbSpline
70
4
71
3
72
8
73
4
40
0
40
0
40
0
40
0
40
1
40
1
40
1
40
1
41
1
10
56.6386364972113
20
-9.18697438533451
30
0
41
1
10
58.0590909981409
20
-6.11434010743386
30
0
41
1
10
59.4795454990705
20
-3.05198753885327
30
0
41
1
10
60.9000000000001
20
5.68E-14
30
0
0
SPLINE
5
12A
100
AcDbEntity
8
1
62
256
6
ByLayer
370
13
48
1
60
0
100
AcDbSpline
70
4
71
3
72
8
73
4
40
0
40
0
40
0
40
0
40
1
40
1
40
1
40
1
41
1
10
56.6386364972113
20
7.03170673373646
30
0
41
1
10
58.0590909981409
20
4.70110167051439
30
0
41
1
10
59.4795454990705
20
2.35717810400641
30
0
41
1
10
60.9000000000001
20
-5.68E-14
30
0
0
SPLINE
5
12B
100
AcDbEntity
8
1
62
256
6
ByLayer
370
13
48
1
60
0
100
AcDbSpline
70
4
71
3
72
8
73
4
40
0
40
0
40
0
40
0
40
1
40
1
40
1
40
1
41
1
10
56.6386364972115
20
11.1675675161874
30
0
41
1
10
58.0590909981411
20
7.44005060312568
30
0
41
1
10
59.4795454990707
20
3.71749431384603
30
0
41
1
10
60.9000000000003
20
-6.537E-13
30
0
0
SPLINE
5
12C
100
AcDbEntity
8
1
62
256
6
ByLayer
370
13
48
1
60
0
100
AcDbSpline
70
4
71
3
72
8
73
4
40
0
40
0
40
0
40
0
40
1
40
1
40
1
40
1
41
1
10
56.6386364972113
20
7.95774875984861
30
0
41
1
10
58.0590909981409
20
5.31736451746332
30
0
41
1
10
59.4795454990705
20
2.66475747621351
30
0
41
1
10
60.9000000000001
20
-1.705E-13
30
0
0
SPLINE
5
12D
100
AcDbEntity
8
1
62
256
6
ByLayer
370
13
48
1
60
0
100
AcDbSpline
70
4
71
3
72
8
73
4
40
0
40
0
40
0
40
0
40
1
40
1
40
1
40
1
41
1
10
56.6386364972113
20
-11.6915392209279
30
0
41
1
10
58.0590909981409
20
-7.79524104934052
30
0
41
1
10
59.4795454990705
20
-3.89802592154663
30
0
41
1
10
60.9000000000001
20
8.53E-14
30
0
0
SPLINE
5
12E
100
AcDbEntity
8
1
62
256
6
ByLayer
370
13
48
1
60
0
100
AcDbSpline
70
4
71
3
72
8
73
4
40
0
40
0
40
0
40
0
40
1
40
1
40
1
40
1
41
1
10
56.6386364972113
20
-6.54195902102421
30
0
41
1
10
58.059090998141
20
-4.34751369805977
30
0
41
1
10
59.4795454990706
20
-2.16684093334678
30
0
41
1
10
60.9000000000003
20
3.979E-13
30
0
0
SPLINE
5
12F
100
AcDbEntity
8
1
62
256
6
ByLayer
370
13
48
1
60
0
100
AcDbSpline
70
4
71
3
72
8
73
4
40
0
40
0
40
0
40
0
40
1
40
1
40
1
40
1
41
1
10
56.6386364972113
20
4.96624081841293
30
0
41
1
10
58.0590909981409
20
3.32588762867414
30
0
41
1
10
59.4795454990704
20
1.67045894646941
30
0
41
1
10
60.8999999999999
20
1.137E-13
30
0
0
SPLINE
5
130
100
AcDbEntity
8
1
62
256
6
ByLayer
370
13
48
1
60
0
100
AcDbSpline
70
4
71
3
72
8
73
4
40
0
40
0
40
0
40
0
40
1
40
1
40
1
40
1
41
1
10
56.6386364972115
20
7.05950503711867
30
0
41
1
10
58.0590909981411
20
4.69306926216973
30
0
41
1
10
59.4795454990707
20
2.33987959080048
30
0
41
1
10
60.9000000000003
20
-4.263E-13
30
0
0
SPLINE
5
131
100
AcDbEntity
8
1
62
256
6
ByLayer
370
13
48
1
60
0
100
AcDbSpline
70
4
71
3
72
8
73
4
40
0
40
0
40
0
40
0
40
1
40
1
40
1
40
1
41
1
10
56.6386364972115
20
11.4701168215551
30
0
41
1
10
58.0590909981408
20
7.64340914507079
30
0
41
1
10
59.4795454990701
20
3.82000216663988
30
0
41
1
10
60.8999999999994
20
1.7621E-12
30
0
0
SPLINE
5
132
100
AcDbEntity
8
1
62
256
6
ByLayer
370
13
48
1
60
0
100
AcDbSpline
70
4
71
3
72
8
73
4
40
0
40
0
40
0
40
0
40
1
40
1
40
1
40
1
41
1
10
56.6386364972115
20
-4.38324759228078
30
0
41
1
10
58.059090998141
20
-2.93758627894979
30
0
41
1
10
59.4795454990704
20
-1.47649043547807
30
0
41
1
10
60.8999999999998
20
-1.99E-13
30
0
0
SPLINE
5
133
100
AcDbEntity
8
1
62
256
6
ByLayer
370
13
48
1
60
0
100
AcDbSpline
70
4
71
3
72
8
73
4
40
0
40
0
40
0
40
0
40
1
40
1
40
1
40
1
41
1
10
56.6386364972115
20
10.746430179846
30
0
41
1
10
58.0590909981408
20
7.1576864093166
30
0
41
1
10
59.4795454990701
20
3.57551051159763
30
0
41
1
10
60.8999999999994
20
1.6485E-12
30
0
0
SPLINE
5
134
100
AcDbEntity
8
1
62
256
6
ByLayer
370
13
48
1
60
0
100
AcDbSpline
70
4
71
3
72
8
73
4
40
0
40
0
40
0
40
0
40
1
40
1
40
1
40
1
41
1
10
56.6386364972115
20
-2.06774272325825
30
0
41
1
10
58.059090998141
20
-1.39486441276776
30
0
41
1
10
59.4795454990704
20
-0.705610530716939
30
0
41
1
10
60.8999999999998
20
-8.53E-14
30
0
0
LINE
5
7D
100
AcDbEntity
8
80
62
256
6
ByLayer
370
18
48
1
60
0
100
AcDbLine
10
0
20
0
30
0
11
-5
21
0
31
0
39
0
210
0
220
0
230
1
0
LINE
5
7E
100
AcDbEntity
8
81
62
256
6
ByLayer
370
18
48
1
60
0
100
AcDbLine
10
60.9
20
0
30
0
11
65.9
21
0
31
0
39
0
210
0
220
0
230
1
0
LINE
5
7F
100
AcDbEntity
8
4
62
256
6
ByLayer
370
18
48
0.05
60
0
100
AcDbLine
10
-5
20
0
30
0
11
65.9
21
0
31
0
39
0
210
0
220
0
230
1
0
LINE
5
81
100
AcDbEntity
8
SK4
62
256
6
ByLayer
370
18
48
0.05
60
0
100
AcDbLine
10
-62.1
20
0
30
0
11
65.9
21
0
31
0
39
0
210
0
220
0
230
1
0
LINE
5
83
100
AcDbEntity
8
1
62
256
6
ByLayer
370
18
48
1
60
0
100
AcDbLine
10
56.638636
20
11.708
30
0
11
56.638636
21
11.336254
31
0
39
0
210
0
220
0
230
1
0
LINE
5
84
100
AcDbEntity
8
1
62
256
6
ByLayer
370
18
48
1
60
0
100
AcDbLine
10
56.638636
20
-11.708
30
0
11
56.638636
21
-1.670516
31
0
39
0
210
0
220
0
230
1
0
LINE
5
85
100
AcDbEntity
8
1
62
256
6
ByLayer
370
18
48
1
60
0
100
AcDbLine
10
15
20
-6.860722
30
0
11
15
21
10.313774
31
0
39
0
210
0
220
0
230
1
0
LINE
5
86
100
AcDbEntity
8
1
62
256
6
ByLayer
370
18
48
1
60
0
100
AcDbLine
10
0
20
-15
30
0
11
0
21
15
31
0
39
0
210
0
220
0
230
1
0
LINE
5
87
100
AcDbEntity
8
1
62
256
6
ByLayer
370
18
48
1
60
0
100
AcDbLine
10
3
20
-15
30
0
11
3
21
15
31
0
39
0
210
0
220
0
230
1
0
LINE
5
88
100
AcDbEntity
8
SK1
62
256
6
ByLayer
370
18
48
1
60
0
100
AcDbLine
10
-57.1
20
-11.7
30
0
11
-57.1
21
11.7
31
0
39
0
210
0
220
0
230
1
0
LINE
5
8A
100
AcDbEntity
8
SK1
62
256
6
ByLayer
370
18
48
1
60
0
100
AcDbLine
10
-56.1
20
-12.7
30
0
11
-56.1
21
12.7
31
0
39
0
210
0
220
0
230
1
0
LINE
5
8B
100
AcDbEntity
8
1
62
256
6
ByLayer
370
18
48
1
60
0
100
AcDbLine
10
60.9
20
0
30
0
11
56.638636
21
11.708
31
0
39
0
210
0
220
0
230
1
0
LINE
5
8C
100
AcDbEntity
8
1
62
256
6
ByLayer
370
18
48
1
60
0
100
AcDbLine
10
56.638636
20
-11.708
30
0
11
60.9
21
0
31
0
39
0
210
0
220
0
230
1
0
LINE
5
8D
100
AcDbEntity
8
1
62
256
6
ByLayer
370
18
48
1
60
0
100
AcDbLine
10
7.642696
20
13.568502
30
0
11
3
21
15
31
0
39
0
210
0
220
0
230
1
0
LINE
5
8E
100
AcDbEntity
8
1
62
256
6
ByLayer
370
18
48
1
60
0
100
AcDbLine
10
3
20
-15
30
0
11
7.642696
21
-13.568502
31
0
39
0
210
0
220
0
230
1
0
LINE
5
8F
100
AcDbEntity
8
1
62
256
6
ByLayer
370
18
48
1
60
0
100
AcDbLine
10
0
20
-15
30
0
11
3
21
-15
31
0
39
0
210
0
220
0
230
1
0
LINE
5
90
100
AcDbEntity
8
1
62
256
6
ByLayer
370
18
48
1
60
0
100
AcDbLine
10
3
20
15
30
0
11
0
21
15
31
0
39
0
210
0
220
0
230
1
0
LINE
5
91
100
AcDbEntity
8
SK1
62
256
6
ByLayer
370
18
48
1
60
0
100
AcDbLine
10
-57.1
20
-11.7
30
0
11
-56.1
21
-12.7
31
0
39
0
210
0
220
0
230
1
0
LINE
5
92
100
AcDbEntity
8
SK1
62
256
6
ByLayer
370
18
48
1
60
0
100
AcDbLine
10
-56.1
20
12.7
30
0
11
-57.1
21
11.7
31
0
39
0
210
0
220
0
230
1
0
LINE
5
93
100
AcDbEntity
8
SK1
62
256
6
ByLayer
370
18
48
1
60
0
100
AcDbLine
10
-56.1
20
-12.7
30
0
11
0
21
-12.7
31
0
39
0
210
0
220
0
230
1
0
LINE
5
94
100
AcDbEntity
8
SK1
62
256
6
ByLayer
370
18
48
1
60
0
100
AcDbLine
10
0
20
12.7
30
0
11
-56.1
21
12.7
31
0
39
0
210
0
220
0
230
1
0
LINE
5
95
100
AcDbEntity
8
1
62
256
6
ByLayer
370
18
48
1
60
0
100
AcDbLine
10
60.9
20
0
30
0
11
56.638636
21
11.708
31
0
39
0
210
0
220
0
230
1
0
LINE
5
96
100
AcDbEntity
8
1
62
256
6
ByLayer
370
18
48
1
60
0
100
AcDbLine
10
56.638636
20
-11.708
30
0
11
60.9
21
0
31
0
39
0
210
0
220
0
230
1
0
LINE
5
97
100
AcDbEntity
8
1
62
256
6
ByLayer
370
18
48
1
60
0
100
AcDbLine
10
56.638636
20
11.708
30
0
11
45.8
21
11.708
31
0
39
0
210
0
220
0
230
1
0
LINE
5
98
100
AcDbEntity
8
1
62
256
6
ByLayer
370
18
48
1
60
0
100
AcDbLine
10
45.8
20
-11.708
30
0
11
56.638636
21
-11.708
31
0
39
0
210
0
220
0
230
1
0
LINE
5
99
100
AcDbEntity
8
1
62
256
6
ByLayer
370
18
48
1
60
0
100
AcDbLine
10
56.638636
20
11.708
30
0
11
56.638636
21
-11.708
31
0
39
0
210
0
220
0
230
1
0
LINE
5
9A
100
AcDbEntity
8
1
62
256
6
ByLayer
370
18
48
1
60
0
100
AcDbLine
10
56.638636
20
11.708
30
0
11
56.638636
21
-11.708
31
0
39
0
210
0
220
0
230
1
0
LINE
5
9B
100
AcDbEntity
8
1
62
256
6
ByLayer
370
18
48
1
60
0
100
AcDbLine
10
56.638636
20
11.708
30
0
11
56.638636
21
-11.708
31
0
39
0
210
0
220
0
230
1
0
LINE
5
9C
100
AcDbEntity
8
1
62
256
6
ByLayer
370
18
48
1
60
0
100
AcDbLine
10
45.8
20
11.708
30
0
11
45.8
21
-11.708
31
0
39
0
210
0
220
0
230
1
0
LINE
5
9D
100
AcDbEntity
8
1
62
256
6
ByLayer
370
18
48
1
60
0
100
AcDbLine
10
45.8
20
11.708
30
0
11
45.8
21
-11.708
31
0
39
0
210
0
220
0
230
1
0
LINE
5
9E
100
AcDbEntity
8
1
62
256
6
ByLayer
370
18
48
1
60
0
100
AcDbLine
10
56.638636
20
11.708
30
0
11
56.638636
21
-11.708
31
0
39
0
210
0
220
0
230
1
0
LINE
5
9F
100
AcDbEntity
8
1
62
256
6
ByLayer
370
18
48
1
60
0
100
AcDbLine
10
45.8
20
11.708
30
0
11
45.8
21
-11.708
31
0
39
0
210
0
220
0
230
1
0
LINE
5
A0
100
AcDbEntity
8
1
62
256
6
ByLayer
370
18
48
1
60
0
100
AcDbLine
10
56.638636
20
11.708
30
0
11
56.638636
21
-11.708
31
0
39
0
210
0
220
0
230
1
0
LINE
5
A1
100
AcDbEntity
8
SK2
62
256
6
ByLayer
370
13
48
1
60
0
100
AcDbLine
10
-63.6
20
-12.7
30
0
11
-63.6
21
42.040455
31
0
39
0
210
0
220
0
230
1
0
LINE
5
A3
100
AcDbEntity
8
SK2
62
256
6
ByLayer
370
13
48
1
60
0
100
AcDbLine
10
-58.6875
20
12.7
30
0
11
-65.6
21
12.7
31
0
39
0
210
0
220
0
230
1
0
LINE
5
A4
100
AcDbEntity
8
SK2
62
256
6
ByLayer
370
13
48
1
60
0
100
AcDbLine
10
-58.6875
20
-12.7
30
0
11
-65.6
21
-12.7
31
0
39
0
210
0
220
0
230
1
0
LINE
5
A5
100
AcDbEntity
8
1
62
256
6
ByLayer
370
18
48
1
60
1
100
AcDbLine
10
-63.6
20
12.7
30
0
11
-63.139216
21
9.200002
31
0
39
0
210
0
220
0
230
1
0
LINE
5
A6
100
AcDbEntity
8
1
62
256
6
ByLayer
370
18
48
1
60
1
100
AcDbLine
10
-63.139216
20
9.200002
30
0
11
-64.060784
21
9.199998
31
0
39
0
210
0
220
0
230
1
0
LINE
5
A7
100
AcDbEntity
8
1
62
256
6
ByLayer
370
18
48
1
60
1
100
AcDbLine
10
-64.060784
20
9.199998
30
0
11
-63.6
21
12.7
31
0
39
0
210
0
220
0
230
1
0
LINE
5
A8
100
AcDbEntity
8
1
62
256
6
ByLayer
370
18
48
1
60
1
100
AcDbLine
10
-63.6
20
-12.7
30
0
11
-64.060784
21
-9.200002
31
0
39
0
210
0
220
0
230
1
0
LINE
5
A9
100
AcDbEntity
8
1
62
256
6
ByLayer
370
18
48
1
60
1
100
AcDbLine
10
-64.060784
20
-9.200002
30
0
11
-63.139216
21
-9.199998
31
0
39
0
210
0
220
0
230
1
0
LINE
5
AA
100
AcDbEntity
8
1
62
256
6
ByLayer
370
18
48
1
60
1
100
AcDbLine
10
-63.139216
20
-9.199998
30
0
11
-63.6
21
-12.7
31
0
39
0
210
0
220
0
230
1
0
LINE
5
AB
100
AcDbEntity
8
2
62
256
6
ByLayer
370
13
48
1
60
0
100
AcDbLine
10
68.4
20
-11.708
30
0
11
68.4
21
40.298569
31
0
39
0
210
0
220
0
230
1
0
LINE
5
AD
100
AcDbEntity
8
2
62
256
6
ByLayer
370
13
48
1
60
0
100
AcDbLine
10
58.226136
20
11.708
30
0
11
70.4
21
11.708
31
0
39
0
210
0
220
0
230
1
0
LINE
5
AE
100
AcDbEntity
8
2
62
256
6
ByLayer
370
13
48
1
60
0
100
AcDbLine
10
58.226136
20
-11.708
30
0
11
70.4
21
-11.708
31
0
39
0
210
0
220
0
230
1
0
LINE
5
AF
100
AcDbEntity
8
1
62
256
6
ByLayer
370
18
48
1
60
1
100
AcDbLine
10
68.4
20
11.708
30
0
11
68.860784
21
8.208002
31
0
39
0
210
0
220
0
230
1
0
LINE
5
B0
100
AcDbEntity
8
1
62
256
6
ByLayer
370
18
48
1
60
1
100
AcDbLine
10
68.860784
20
8.208002
30
0
11
67.939216
21
8.207998
31
0
39
0
210
0
220
0
230
1
0
LINE
5
B1
100
AcDbEntity
8
1
62
256
6
ByLayer
370
18
48
1
60
1
100
AcDbLine
10
67.939216
20
8.207998
30
0
11
68.4
21
11.708
31
0
39
0
210
0
220
0
230
1
0
LINE
5
B2
100
AcDbEntity
8
1
62
256
6
ByLayer
370
18
48
1
60
1
100
AcDbLine
10
68.4
20
-11.708
30
0
11
67.939216
21
-8.208002
31
0
39
0
210
0
220
0
230
1
0
LINE
5
B3
100
AcDbEntity
8
1
62
256
6
ByLayer
370
18
48
1
60
1
100
AcDbLine
10
67.939216
20
-8.208002
30
0
11
68.860784
21
-8.207998
31
0
39
0
210
0
220
0
230
1
0
LINE
5
B4
100
AcDbEntity
8
1
62
256
6
ByLayer
370
18
48
1
60
1
100
AcDbLine
10
68.860784
20
-8.207998
30
0
11
68.4
21
-11.708
31
0
39
0
210
0
220
0
230
1
0
LINE
5
B5
100
AcDbEntity
8
SK2
62
256
6
ByLayer
370
13
48
1
60
0
100
AcDbLine
10
61.442957
20
-1.491762
30
0
11
68.082423
21
-19.733545
31
0
39
0
210
0
220
0
230
1
0
LINE
5
B6
100
AcDbEntity
8
SK2
62
256
6
ByLayer
370
13
48
1
60
0
100
AcDbLine
10
61.442957
20
1.491762
30
0
11
68.082423
21
19.733545
31
0
39
0
210
0
220
0
230
1
0
LINE
5
B7
100
AcDbEntity
8
1
62
256
6
ByLayer
370
18
48
1
60
1
100
AcDbLine
10
67.398383
20
-17.85416
30
0
11
70.451575
21
-16.082064
31
0
39
0
210
0
220
0
230
1
0
LINE
5
B8
100
AcDbEntity
8
1
62
256
6
ByLayer
370
18
48
1
60
1
100
AcDbLine
10
70.451575
20
-16.082064
30
0
11
70.806196
21
-16.93267
31
0
39
0
210
0
220
0
230
1
0
LINE
5
B9
100
AcDbEntity
8
1
62
256
6
ByLayer
370
18
48
1
60
1
100
AcDbLine
10
70.806196
20
-16.93267
30
0
11
67.398383
21
-17.85416
31
0
39
0
210
0
220
0
230
1
0
LINE
5
BA
100
AcDbEntity
8
1
62
256
6
ByLayer
370
18
48
1
60
1
100
AcDbLine
10
67.398383
20
17.85416
30
0
11
70.806193
21
16.932671
31
0
39
0
210
0
220
0
230
1
0
LINE
5
BB
100
AcDbEntity
8
1
62
256
6
ByLayer
370
18
48
1
60
1
100
AcDbLine
10
70.806193
20
16.932671
30
0
11
70.451579
21
16.082063
31
0
39
0
210
0
220
0
230
1
0
LINE
5
BC
100
AcDbEntity
8
1
62
256
6
ByLayer
370
18
48
1
60
1
100
AcDbLine
10
70.451579
20
16.082063
30
0
11
67.398383
21
17.85416
31
0
39
0
210
0
220
0
230
1
0
LINE
5
139
100
AcDbEntity
8
1
62
256
6
ByLayer
370
18
48
1
60
1
100
AcDbLine
10
-63.6
20
12.7
30
0
11
-63.139216
21
9.200002
31
0
39
0
210
0
220
0
230
1
0
LINE
5
13A
100
AcDbEntity
8
1
62
256
6
ByLayer
370
18
48
1
60
1
100
AcDbLine
10
-63.139216
20
9.200002
30
0
11
-64.060784
21
9.199998
31
0
39
0
210
0
220
0
230
1
0
LINE
5
13B
100
AcDbEntity
8
1
62
256
6
ByLayer
370
18
48
1
60
1
100
AcDbLine
10
-64.060784
20
9.199998
30
0
11
-63.6
21
12.7
31
0
39
0
210
0
220
0
230
1
0
LINE
5
13D
100
AcDbEntity
8
1
62
256
6
ByLayer
370
18
48
1
60
1
100
AcDbLine
10
-63.6
20
-12.7
30
0
11
-64.060784
21
-9.200002
31
0
39
0
210
0
220
0
230
1
0
LINE
5
13E
100
AcDbEntity
8
1
62
256
6
ByLayer
370
18
48
1
60
1
100
AcDbLine
10
-64.060784
20
-9.200002
30
0
11
-63.139216
21
-9.199998
31
0
39
0
210
0
220
0
230
1
0
LINE
5
13F
100
AcDbEntity
8
1
62
256
6
ByLayer
370
18
48
1
60
1
100
AcDbLine
10
-63.139216
20
-9.199998
30
0
11
-63.6
21
-12.7
31
0
39
0
210
0
220
0
230
1
0
LINE
5
143
100
AcDbEntity
8
1
62
256
6
ByLayer
370
18
48
1
60
1
100
AcDbLine
10
68.4
20
11.708
30
0
11
68.860784
21
8.208002
31
0
39
0
210
0
220
0
230
1
0
LINE
5
144
100
AcDbEntity
8
1
62
256
6
ByLayer
370
18
48
1
60
1
100
AcDbLine
10
68.860784
20
8.208002
30
0
11
67.939216
21
8.207998
31
0
39
0
210
0
220
0
230
1
0
LINE
5
145
100
AcDbEntity
8
1
62
256
6
ByLayer
370
18
48
1
60
1
100
AcDbLine
10
67.939216
20
8.207998
30
0
11
68.4
21
11.708
31
0
39
0
210
0
220
0
230
1
0
LINE
5
147
100
AcDbEntity
8
1
62
256
6
ByLayer
370
18
48
1
60
1
100
AcDbLine
10
68.4
20
-11.708
30
0
11
67.939216
21
-8.208002
31
0
39
0
210
0
220
0
230
1
0
LINE
5
148
100
AcDbEntity
8
1
62
256
6
ByLayer
370
18
48
1
60
1
100
AcDbLine
10
67.939216
20
-8.208002
30
0
11
68.860784
21
-8.207998
31
0
39
0
210
0
220
0
230
1
0
LINE
5
149
100
AcDbEntity
8
1
62
256
6
ByLayer
370
18
48
1
60
1
100
AcDbLine
10
68.860784
20
-8.207998
30
0
11
68.4
21
-11.708
31
0
39
0
210
0
220
0
230
1
0
LINE
5
14C
100
AcDbEntity
8
1
62
256
6
ByLayer
370
18
48
1
60
1
100
AcDbLine
10
67.398383
20
-17.85416
30
0
11
70.451575
21
-16.082064
31
0
39
0
210
0
220
0
230
1
0
LINE
5
14D
100
AcDbEntity
8
1
62
256
6
ByLayer
370
18
48
1
60
1
100
AcDbLine
10
70.451575
20
-16.082064
30
0
11
70.806196
21
-16.93267
31
0
39
0
210
0
220
0
230
1
0
LINE
5
14E
100
AcDbEntity
8
1
62
256
6
ByLayer
370
18
48
1
60
1
100
AcDbLine
10
70.806196
20
-16.93267
30
0
11
67.398383
21
-17.85416
31
0
39
0
210
0
220
0
230
1
0
LINE
5
150
100
AcDbEntity
8
1
62
256
6
ByLayer
370
18
48
1
60
1
100
AcDbLine
10
67.398383
20
17.85416
30
0
11
70.806193
21
16.932671
31
0
39
0
210
0
220
0
230
1
0
LINE
5
151
100
AcDbEntity
8
1
62
256
6
ByLayer
370
18
48
1
60
1
100
AcDbLine
10
70.806193
20
16.932671
30
0
11
70.451579
21
16.082063
31
0
39
0
210
0
220
0
230
1
0
LINE
5
152
100
AcDbEntity
8
1
62
256
6
ByLayer
370
18
48
1
60
1
100
AcDbLine
10
70.451579
20
16.082063
30
0
11
67.398383
21
17.85416
31
0
39
0
210
0
220
0
230
1
0
MTEXT
5
135
100
AcDbEntity
8
SK2
62
256
6
ByLayer
370
18
48
1
60
0
100
AcDbMText
10
-64.941114
20
24.358437
30
0
210
0
220
0
230
1
1
%%c
40
3
41
0
44
1.084337
50
90
71
7
72
5
7
iso_b_vert
0
MTEXT
5
138
100
AcDbEntity
8
SK2
62
256
6
ByLayer
370
18
48
1
60
0
100
AcDbMText
10
-64.941114
20
30.335
30
0
210
0
220
0
230
1
1
\W0.7728;25.400
40
3
41
0
44
1.084337
50
90
71
7
72
5
7
iso_b_vert
0
MTEXT
5
141
100
AcDbEntity
8
2
62
256
6
ByLayer
370
18
48
1
60
0
100
AcDbMText
10
67.058886
20
23.366437
30
0
210
0
220
0
230
1
1
%%c
40
3
41
0
44
1.084337
50
90
71
7
72
5
7
iso_b_vert
0
MTEXT
5
142
100
AcDbEntity
8
2
62
256
6
ByLayer
370
18
48
1
60
0
100
AcDbMText
10
67.058886
20
29.343
30
0
210
0
220
0
230
1
1
\W0.7237;23.416
40
3
41
0
44
1.084337
50
90
71
7
72
5
7
iso_b_vert
0
MTEXT
5
14B
100
AcDbEntity
8
SK2
62
256
6
ByLayer
370
18
48
1
60
0
100
AcDbMText
10
80.809114
20
3.734657
30
0
210
0
220
0
230
1
1
\W0.7071;140%%d
40
3
41
0
44
1.084337
50
270
71
7
72
5
7
iso_b_vert
0
MTEXT
5
154
100
AcDbEntity
8
SK6
62
256
6
ByLayer
370
18
48
1
60
0
100
AcDbMText
10
-19.71634
20
-67.114886
30
0
210
0
220
0
230
1
1
\W0.7796;H85159/64
40
3
41
0
44
1.084337
50
0
71
7
72
5
7
iso_b_vert
0
HATCH
5
13C
100
AcDbEntity
8
SK2
62
256
6
ByLayer
370
13
48
1
60
0
100
AcDbHatch
10
0
20
0
30
0
210
0
220
0
230
1
2
ANSI31
70
0
71
0
91
1
92
5
93
3
72
1
10
-63.6
20
12.7
11
-63.1392162584472
21
9.20000169255317
72
1
10
-63.1392162584472
20
9.20000169255317
11
-64.0607837415528
21
9.1999983074468
72
1
10
-64.0607837415528
20
9.1999983074468
11
-63.6
21
12.7
97
0
75
0
76
1
52
0
41
0.0062
77
0
78
1
53
45
43
0
44
0
45
-0.0139193969876572
46
0.0139193969876572
79
0
47
0
98
1
10
0
20
0
0
HATCH
5
140
100
AcDbEntity
8
SK2
62
256
6
ByLayer
370
13
48
1
60
0
100
AcDbHatch
10
0
20
0
30
0
210
0
220
0
230
1
2
ANSI31
70
0
71
0
91
1
92
5
93
3
72
1
10
-63.6
20
-12.7
11
-64.0607837415528
21
-9.2000016925532
72
1
10
-64.0607837415528
20
-9.2000016925532
11
-63.1392162584472
21
-9.19999830744683
72
1
10
-63.1392162584472
20
-9.19999830744683
11
-63.6
21
-12.7
97
0
75
0
76
1
52
0
41
0.0062
77
0
78
1
53
45
43
0
44
0
45
-0.0139193969876572
46
0.0139193969876572
79
0
47
0
98
1
10
0
20
0
0
HATCH
5
146
100
AcDbEntity
8
2
62
256
6
ByLayer
370
13
48
1
60
0
100
AcDbHatch
10
0
20
0
30
0
210
0
220
0
230
1
2
ANSI31
70
0
71
0
91
1
92
5
93
3
72
1
10
68.4
20
11.708
11
68.8607837415528
21
8.20800169255318
72
1
10
68.8607837415528
20
8.20800169255318
11
67.9392162584472
21
8.20799830744681
72
1
10
67.9392162584472
20
8.20799830744681
11
68.4
21
11.708
97
0
75
0
76
1
52
0
41
0.0062
77
0
78
1
53
45
43
0
44
0
45
-0.0139193969876572
46
0.0139193969876572
79
0
47
0
98
1
10
0
20
0
0
HATCH
5
14A
100
AcDbEntity
8
2
62
256
6
ByLayer
370
13
48
1
60
0
100
AcDbHatch
10
0
20
0
30
0
210
0
220
0
230
1
2
ANSI31
70
0
71
0
91
1
92
5
93
3
72
1
10
68.4
20
-11.708
11
67.9392162584472
21
-8.20800169255321
72
1
10
67.9392162584472
20
-8.20800169255321
11
68.8607837415528
21
-8.20799830744684
72
1
10
68.8607837415528
20
-8.20799830744684
11
68.4
21
-11.708
97
0
75
0
76
1
52
0
41
0.0062
77
0
78
1
53
45
43
0
44
0
45
-0.0139193969876572
46
0.0139193969876572
79
0
47
0
98
1
10
0
20
0
0
HATCH
5
14F
100
AcDbEntity
8
SK2
62
256
6
ByLayer
370
13
48
1
60
0
100
AcDbHatch
10
0
20
0
30
0
210
0
220
0
230
1
2
ANSI31
70
0
71
0
91
1
92
5
93
3
72
1
10
67.3983827231877
20
-17.8541597949323
11
70.4515754256929
21
-16.0820638240608
72
1
10
70.4515754256929
20
-16.0820638240608
11
70.8061958339751
21
-16.9326700737196
72
1
10
70.8061958339751
20
-16.9326700737196
11
67.3983827231877
21
-17.8541597949323
97
0
75
0
76
1
52
0
41
0.0062
77
0
78
1
53
45
43
0
44
0
45
-0.0139193969876572
46
0.0139193969876572
79
0
47
0
98
1
10
0
20
0
0
HATCH
5
153
100
AcDbEntity
8
SK2
62
256
6
ByLayer
370
13
48
1
60
0
100
AcDbHatch
10
0
20
0
30
0
210
0
220
0
230
1
2
ANSI31
70
0
71
0
91
1
92
5
93
3
72
1
10
67.3983827231877
20
17.8541597949323
11
70.8061927095191
21
16.9326713763016
72
1
10
70.8061927095191
20
16.9326713763016
11
70.4515785501489
21
16.0820625214788
72
1
10
70.4515785501489
20
16.0820625214788
11
67.3983827231877
21
17.8541597949323
97
0
75
0
76
1
52
0
41
0.0062
77
0
78
1
53
45
43
0
44
0
45
-0.0139193969876572
46
0.0139193969876572
79
0
47
0
98
1
10
0
20
0
0
DIMENSION
5
157
100
AcDbEntity
8
SK2
62
256
6
ByLayer
370
18
48
1
60
0
100
AcDbDimension
2
_U0
10
60.9
20
-44.079558
30
0
11
1.9
21
-44.079558
31
0
70
32
71
1
72
1
41
1
210
0
220
0
230
1
3
Standard
100
AcDbAlignedDimension
13
-57.1
23
-12.7
33
0
14
60.9
24
0
34
0
50
0
100
AcDbRotatedDimension
1001
ACAD
1000
DSTYLE
1002
{
1070
   371
1070
    13
1070
   372
1070
    13
1070
     3
1000

1070
   170
1070
     0
1070
   144
1040
1.0
1070
   277
1070
     2
1070
   284
1070
     8
1070
   278
1070
    46
1070
   146
1040
1.166667
1070
   345
1005
16
1070
   347
1005
16
1070
   346
1005
16
1070
   344
1005
0
1070
   343
1005
0
1070
   172
1070
     1
1070
    76
1070
     0
1070
    75
1070
     0
1070
   282
1070
     0
1070
   281
1070
     0
1070
    71
1070
     0
1070
    74
1070
     0
1070
   279
1070
     0
1070
   173
1070
     1
1070
   340
1005
136
1070
   271
1070
     2
1070
   272
1070
     3
1070
    77
1070
     1
1070
    73
1070
     1
1070
   171
1070
     3
1070
   274
1070
     4
1070
   177
1070
     2
1070
   176
1070
     2
1070
   178
1070
     2
1070
    78
1070
     8
1070
    48
1040
-0.1
1070
    41
1040
3.5
1070
   147
1040
1.5
1070
    42
1040
1.5875
1070
    44
1040
2.0
1070
   140
1040
3.0
1002
}
1001
ACAD_DSTYLE_DIM_LINETYPE
1070
   380
1005
16
1001
ACAD_DSTYLE_DIM_EXT1_LINETYPE
1070
   381
1005
16
1001
ACAD_DSTYLE_DIM_EXT2_LINETYPE
1070
   382
1005
16
0
DIMENSION
5
170
100
AcDbEntity
8
SK2
62
256
6
ByLayer
370
18
48
1
60
0
100
AcDbDimension
2
_U1
10
6
20
-34.079558
30
0
11
33.45
21
-34.079558
31
0
70
32
71
1
72
1
41
1
210
0
220
0
230
1
3
Standard
100
AcDbAlignedDimension
13
60.9
23
0
33
0
14
6
24
-11.708
34
0
50
0
100
AcDbRotatedDimension
1001
ACAD
1000
DSTYLE
1002
{
1070
   371
1070
    13
1070
   372
1070
    13
1070
     3
1000

1070
   170
1070
     0
1070
   144
1040
1.0
1070
   277
1070
     2
1070
   284
1070
     8
1070
   278
1070
    46
1070
   146
1040
1.166667
1070
   345
1005
16
1070
   347
1005
16
1070
   346
1005
16
1070
   344
1005
0
1070
   343
1005
0
1070
   172
1070
     1
1070
    76
1070
     0
1070
    75
1070
     0
1070
   282
1070
     0
1070
   281
1070
     0
1070
    71
1070
     0
1070
    74
1070
     0
1070
   279
1070
     0
1070
   173
1070
     1
1070
   340
1005
136
1070
   271
1070
     2
1070
   272
1070
     3
1070
    77
1070
     1
1070
    73
1070
     1
1070
   171
1070
     3
1070
   274
1070
     4
1070
   177
1070
     2
1070
   176
1070
     2
1070
   178
1070
     2
1070
    78
1070
     8
1070
    48
1040
-0.1
1070
    41
1040
3.5
1070
   147
1040
1.5
1070
    42
1040
1.5875
1070
    44
1040
2.0
1070
   140
1040
3.0
1002
}
1001
ACAD_DSTYLE_DIM_LINETYPE
1070
   380
1005
16
1001
ACAD_DSTYLE_DIM_EXT1_LINETYPE
1070
   381
1005
16
1001
ACAD_DSTYLE_DIM_EXT2_LINETYPE
1070
   382
1005
16
0
DIMENSION
5
188
100
AcDbEntity
8
SK2
62
256
6
ByLayer
370
18
48
1
60
0
100
AcDbDimension
2
_U2
10
0
20
-34.079558
30
0
11
-28.55
21
-34.079558
31
0
70
32
71
1
72
1
41
1
210
0
220
0
230
1
3
Standard
100
AcDbAlignedDimension
13
-57.1
23
-12.7
33
0
14
0
24
-12.7
34
0
50
0
100
AcDbRotatedDimension
1001
ACAD
1000
DSTYLE
1002
{
1070
   371
1070
    13
1070
   372
1070
    13
1070
     3
1000

1070
   170
1070
     0
1070
   144
1040
1.0
1070
   277
1070
     2
1070
   284
1070
     8
1070
   278
1070
    46
1070
   146
1040
1.166667
1070
   345
1005
16
1070
   347
1005
16
1070
   346
1005
16
1070
   344
1005
0
1070
   343
1005
0
1070
   172
1070
     1
1070
    76
1070
     0
1070
    75
1070
     0
1070
   282
1070
     0
1070
   281
1070
     0
1070
    71
1070
     0
1070
    74
1070
     0
1070
   279
1070
     0
1070
   173
1070
     1
1070
   340
1005
136
1070
   271
1070
     2
1070
   272
1070
     3
1070
    77
1070
     1
1070
    73
1070
     1
1070
   171
1070
     3
1070
   274
1070
     4
1070
   177
1070
     2
1070
   176
1070
     2
1070
   178
1070
     2
1070
    78
1070
     8
1070
    48
1040
-0.1
1070
    41
1040
3.5
1070
   147
1040
1.5
1070
    42
1040
1.5875
1070
    44
1040
2.0
1070
   140
1040
3.0
1002
}
1001
ACAD_DSTYLE_DIM_LINETYPE
1070
   380
1005
16
1001
ACAD_DSTYLE_DIM_EXT1_LINETYPE
1070
   381
1005
16
1001
ACAD_DSTYLE_DIM_EXT2_LINETYPE
1070
   382
1005
16
0
DIMENSION
5
1A0
100
AcDbEntity
8
SK2
62
256
6
ByLayer
370
18
48
1
60
0
100
AcDbDimension
2
_U3
10
13.9
20
31.079558
30
0
11
37.4
21
31.079558
31
0
70
32
71
1
72
1
41
1
210
0
220
0
230
1
3
Standard
100
AcDbAlignedDimension
13
60.9
23
0
33
0
14
13.9
24
11.708
34
0
50
0
100
AcDbRotatedDimension
1001
ACAD
1000
DSTYLE
1002
{
1070
   371
1070
    13
1070
   372
1070
    13
1070
     3
1000

1070
   170
1070
     0
1070
   144
1040
1.0
1070
   277
1070
     2
1070
   284
1070
     8
1070
   278
1070
    46
1070
   146
1040
1.166667
1070
   345
1005
16
1070
   347
1005
16
1070
   346
1005
16
1070
   344
1005
0
1070
   343
1005
0
1070
   172
1070
     1
1070
    76
1070
     0
1070
    75
1070
     0
1070
   282
1070
     0
1070
   281
1070
     0
1070
    71
1070
     0
1070
    74
1070
     0
1070
   279
1070
     0
1070
   173
1070
     1
1070
   340
1005
136
1070
   271
1070
     2
1070
   272
1070
     3
1070
    77
1070
     1
1070
    73
1070
     1
1070
   171
1070
     3
1070
   274
1070
     4
1070
   177
1070
     2
1070
   176
1070
     2
1070
   178
1070
     2
1070
    78
1070
     8
1070
    48
1040
-0.1
1070
    41
1040
3.5
1070
   147
1040
1.5
1070
    42
1040
1.5875
1070
    44
1040
2.0
1070
   140
1040
3.0
1002
}
1001
ACAD_DSTYLE_DIM_LINETYPE
1070
   380
1005
16
1001
ACAD_DSTYLE_DIM_EXT1_LINETYPE
1070
   381
1005
16
1001
ACAD_DSTYLE_DIM_EXT2_LINETYPE
1070
   382
1005
16
0
ENDSEC
0
SECTION
2
OBJECTS
0
DICTIONARY
5
228
330
0
100
AcDbDictionary
280
0
281
1
3
ACAD_GROUP
350
229
3
ACAD_MLINESTYLE
350
22a
0
DICTIONARY
5
229
330
0
100
AcDbDictionary
280
0
281
1
0
DICTIONARY
5
22a
330
0
100
AcDbDictionary
280
0
281
1
3
Standard
350
18
0
MLINESTYLE
5
18
330
22a
100
AcDbMlineStyle
2
Standard
70
0
3

62
256
51
90
52
90
71
2
49
-0.5
62
256
6
ByLayer
49
0.5
62
256
6
ByLayer
0
RASTERVARIABLES
5
216
330

100
AcDbRasterVariables
90
0
70
1
71
1
72
1
0
ENDSEC
0
EOF
