0
SECTION
2
HEADER
9
$ACADVER
1
AC1015
9
$DWGCODEPAGE
3
ANSI_1252
9
$HANDSEED
5
214
9
$ANGBASE
50
0
9
$ANGDIR
70
0
9
$ATTMODE
70
1
9
$AUNITS
70
0
9
$AUPREC
70
0
9
$CECOLOR
62
256
9
$CELTSCALE
40
1
9
$CELTYPE
6
ByLayer
9
$CELWEIGHT
370
18
9
$CLAYER
8
0
9
$CMLJUST
70
0
9
$CMLSCALE
40
1
9
$CMLSTYLE
2
Standard
9
$DIMSTYLE
2
Standard
9
$TEXTSIZE
40
0.2
9
$TEXTSTYLE
7
Standard
9
$LUNITS
70
2
9
$LUPREC
70
4
9
$EXTNAMES
290
1
9
$INSUNITS
70
4
9
$LTSCALE
40
1
9
$LWDISPLAY
290
1
9
$PDMODE
70
0
9
$PDSIZE
40
0
9
$PLINEGEN
70
0
0
ENDSEC
0
SECTION
2
CLASSES
0
CLASS
1
RASTERVARIABLES
2
AcDbRasterVariables
3
ISM
90
0
280
0
281
0
0
ENDSEC
0
SECTION
2
TABLES
0
TABLE
2
VPORT
5
20a
100
AcDbSymbolTable
0
VPORT
5
1
100
AcDbSymbolTableRecord
100
AcDbViewportTableRecord
2
*Active
70
0
10
0
20
0
11
1
21
1
12
-1
22
1
13
0
23
0
14
0.5
24
0.5
15
10
25
10
16
0
26
0
36
1
17
0
27
0
37
0
0
ENDTAB
0
TABLE
2
LTYPE
5
20b
100
AcDbSymbolTable
0
LTYPE
5
14
100
AcDbSymbolTableRecord
100
AcDbLinetypeTableRecord
70
0
2
ByBlock
3

72
65
73
0
40
0
0
LTYPE
5
15
100
AcDbSymbolTableRecord
100
AcDbLinetypeTableRecord
70
0
2
ByLayer
3

72
65
73
0
40
0
0
LTYPE
5
16
100
AcDbSymbolTableRecord
100
AcDbLinetypeTableRecord
70
0
2
Continuous
3
Solid line
72
65
73
0
40
0
0
LTYPE
5
6E
100
AcDbSymbolTableRecord
100
AcDbLinetypeTableRecord
70
0
2
CENTER
3
____ _ ____ _ ____ _ ____
72
65
73
4
40
47.5
49
22
74
0
49
-8.5
74
0
49
8.5
74
0
49
-8.5
74
0
0
LTYPE
5
6F
100
AcDbSymbolTableRecord
100
AcDbLinetypeTableRecord
70
0
2
DASHED
3
__ __ __ __ __ __ __ __ __
72
65
73
2
40
25.72
49
12.86
74
0
49
-12.86
74
0
0
ENDTAB
0
TABLE
2
LAYER
5
20c
100
AcDbSymbolTable
0
LAYER
5
10
100
AcDbSymbolTableRecord
100
AcDbLayerTableRecord
2
0
70
0
62
7
6
Continuous
290
1
370
-3
390
0
0
LAYER
5
71
100
AcDbSymbolTableRecord
100
AcDbLayerTableRecord
2
81
70
0
62
-3
6
Continuous
290
1
370
-3
390
0
0
LAYER
5
73
100
AcDbSymbolTableRecord
100
AcDbLayerTableRecord
2
80
70
0
62
-6
6
Continuous
290
1
370
-3
390
0
0
LAYER
5
75
100
AcDbSymbolTableRecord
100
AcDbLayerTableRecord
2
1
70
0
62
4
6
Continuous
290
1
370
-3
390
0
0
LAYER
5
7F
100
AcDbSymbolTableRecord
100
AcDbLayerTableRecord
2
4
70
0
62
-2
6
CENTER
290
1
370
-3
390
0
0
LAYER
5
AB
100
AcDbSymbolTableRecord
100
AcDbLayerTableRecord
2
2
70
0
62
7
6
Continuous
290
1
370
-3
390
0
0
LAYER
5
139
100
AcDbSymbolTableRecord
100
AcDbLayerTableRecord
2
Defpoints
70
0
62
7
6
Continuous
290
0
370
-3
390
0
0
LAYER
5
1f6
100
AcDbSymbolTableRecord
100
AcDbLayerTableRecord
2
SK4
70
0
62
2
6
CENTER
290
1
370
-3
390
0
0
LAYER
5
1f7
100
AcDbSymbolTableRecord
100
AcDbLayerTableRecord
2
SK1
70
0
62
4
6
Continuous
290
1
370
-3
390
0
0
LAYER
5
1f8
100
AcDbSymbolTableRecord
100
AcDbLayerTableRecord
2
SK2
70
0
62
7
6
Continuous
290
1
370
-3
390
0
0
LAYER
5
1f9
100
AcDbSymbolTableRecord
100
AcDbLayerTableRecord
2
SK6
70
0
62
5
6
Continuous
290
1
370
-3
390
0
0
ENDTAB
0
TABLE
2
STYLE
5
20d
100
AcDbSymbolTable
0
STYLE
5
11
100
AcDbSymbolTableRecord
100
AcDbTextStyleTableRecord
2
Standard
3
txt
70
0
71
0
40
0
41
1
42
0
50
0
0
STYLE
5
115
100
AcDbSymbolTableRecord
100
AcDbTextStyleTableRecord
2
iso_b_vert
3
simplex.shx
70
0
71
0
40
0
41
1
42
0
50
0
0
STYLE
5
116
100
AcDbSymbolTableRecord
100
AcDbTextStyleTableRecord
2
DWGDirectTextStyle
3
simplex
70
0
71
0
40
0
41
1
42
0
50
0
0
ENDTAB
0
TABLE
2
DIMSTYLE
5
20e
100
AcDbSymbolTable
100
AcDbDimStyleTable
0
DIMSTYLE
105
27
100
AcDbSymbolTableRecord
100
AcDbDimStyleTableRecord
2
Standard
70
0
3
<>
41
0.18
42
0.0625
44
0.18
140
0.18
147
0.09
73
0
74
0
77
1
271
2
275
0
278
52
280
0
340
11
0
ENDTAB
0
TABLE
2
VIEW
5
20f
100
AcDbSymbolTable
0
ENDTAB
0
TABLE
2
UCS
5
210
100
AcDbSymbolTable
0
ENDTAB
0
TABLE
2
APPID
5
211
100
AcDbSymbolTable
0
APPID
5
12
100
AcDbSymbolTableRecord
100
AcDbRegAppTableRecord
2
ACAD
70
0
0
APPID
5
135
100
AcDbSymbolTableRecord
100
AcDbRegAppTableRecord
2
ACAD_DSTYLE_DIMBREAK
70
0
0
APPID
5
1B5
100
AcDbSymbolTableRecord
100
AcDbRegAppTableRecord
2
ACAD_DSTYLE_DIM_LINETYPE
70
0
0
APPID
5
1B6
100
AcDbSymbolTableRecord
100
AcDbRegAppTableRecord
2
ACAD_DSTYLE_DIM_EXT1_LINETYPE
70
0
0
APPID
5
1B7
100
AcDbSymbolTableRecord
100
AcDbRegAppTableRecord
2
ACAD_DSTYLE_DIM_EXT2_LINETYPE
70
0
0
APPID
5
1F2
100
AcDbSymbolTableRecord
100
AcDbRegAppTableRecord
2
ACAD_MLEADERVER
70
0
0
ENDTAB
0
TABLE
2
BLOCK_RECORD
5
212
100
AcDbSymbolTable
0
BLOCK_RECORD
5
1F
100
AcDbSymbolTableRecord
100
AcDbBlockTableRecord
2
*Model_Space
340
0
70
0
0
BLOCK_RECORD
5
1B
100
AcDbSymbolTableRecord
100
AcDbBlockTableRecord
2
*Paper_Space
340
0
70
0
0
BLOCK_RECORD
5
23
100
AcDbSymbolTableRecord
100
AcDbBlockTableRecord
2
*Paper_Space0
340
0
70
0
0
BLOCK_RECORD
5
13A
100
AcDbSymbolTableRecord
100
AcDbBlockTableRecord
2
*D1
340
0
70
0
0
BLOCK_RECORD
5
146
100
AcDbSymbolTableRecord
100
AcDbBlockTableRecord
2
_U0
340
0
70
0
0
BLOCK_RECORD
5
152
100
AcDbSymbolTableRecord
100
AcDbBlockTableRecord
2
*D3
340
0
70
0
0
BLOCK_RECORD
5
15E
100
AcDbSymbolTableRecord
100
AcDbBlockTableRecord
2
_U1
340
0
70
0
0
BLOCK_RECORD
5
16A
100
AcDbSymbolTableRecord
100
AcDbBlockTableRecord
2
*D5
340
0
70
0
0
BLOCK_RECORD
5
176
100
AcDbSymbolTableRecord
100
AcDbBlockTableRecord
2
_U2
340
0
70
0
0
BLOCK_RECORD
5
182
100
AcDbSymbolTableRecord
100
AcDbBlockTableRecord
2
*D7
340
0
70
0
0
BLOCK_RECORD
5
18E
100
AcDbSymbolTableRecord
100
AcDbBlockTableRecord
2
_U3
340
0
70
0
0
ENDTAB
0
ENDSEC
0
SECTION
2
BLOCKS
0
BLOCK
5
20
100
AcDbEntity
8
0
100
AcDbBlockBegin
2
*Model_Space
70
0
10
0
20
0
30
0
3
*Model_Space
0
ENDBLK
5
21
100
AcDbEntity
8
0
100
AcDbBlockEnd
0
BLOCK
5
1C
100
AcDbEntity
8
0
100
AcDbBlockBegin
2
*Paper_Space
70
0
10
0
20
0
30
0
3
*Paper_Space
0
ENDBLK
5
1D
100
AcDbEntity
8
0
100
AcDbBlockEnd
0
BLOCK
5
24
100
AcDbEntity
8
0
100
AcDbBlockBegin
2
*Paper_Space0
70
0
10
0
20
0
30
0
3
*Paper_Space0
0
ENDBLK
5
25
100
AcDbEntity
8
0
100
AcDbBlockEnd
0
BLOCK
5
13B
100
AcDbEntity
8
0
100
AcDbBlockBegin
2
*D1
70
1
10
0
20
0
30
0
3
*D1
0
LINE
5
13D
100
AcDbEntity
8
0
62
256
6
ByLayer
370
-2
48
1
60
0
100
AcDbLine
10
-50.8
20
-11.1125
30
0
11
-50.8
21
-45.336212
31
0
39
0
210
0
220
0
230
1
0
LINE
5
13E
100
AcDbEntity
8
0
62
256
6
ByLayer
370
-2
48
1
60
0
100
AcDbLine
10
46.5
20
-1.5875
30
0
11
46.5
21
-45.336212
31
0
39
0
210
0
220
0
230
1
0
LINE
5
13F
100
AcDbEntity
8
0
62
256
6
ByLayer
370
-2
48
1
60
0
100
AcDbLine
10
-47.3
20
-43.336212
30
0
11
43
21
-43.336212
31
0
39
0
210
0
220
0
230
1
0
SOLID
5
140
100
AcDbEntity
8
0
62
256
6
ByLayer
370
-1
48
1
60
0
100
AcDbTrace
10
-47.3
20
-42.752878
30
0
11
-47.3
21
-43.919545
31
0
12
-50.8
22
-43.336212
32
0
13
-50.8
23
-43.336212
33
0
39
0
210
0
220
0
230
1
0
SOLID
5
141
100
AcDbEntity
8
0
62
256
6
ByLayer
370
-1
48
1
60
0
100
AcDbTrace
10
43
20
-43.919545
30
0
11
43
21
-42.752878
31
0
12
46.5
22
-43.336212
32
0
13
46.5
23
-43.336212
33
0
39
0
210
0
220
0
230
1
0
MTEXT
5
142
100
AcDbEntity
8
0
62
256
6
ByLayer
370
18
48
1
60
0
100
AcDbMText
10
-2.15
20
-37.336212
30
0
210
0
220
0
230
1
1
\A1;97.3
40
3
41
0
44
1
50
0
71
5
72
5
7
iso_b_vert
0
POINT
5
143
100
AcDbEntity
8
Defpoints
62
0
6
ByLayer
370
-1
48
1
60
0
100
AcDbPoint
10
-50.8
20
-9.525
30
0
39
0
210
0
220
0
230
1
50
360
0
POINT
5
144
100
AcDbEntity
8
Defpoints
62
0
6
ByLayer
370
-1
48
1
60
0
100
AcDbPoint
10
46.5
20
0
30
0
39
0
210
0
220
0
230
1
50
360
0
POINT
5
145
100
AcDbEntity
8
Defpoints
62
0
6
ByLayer
370
-1
48
1
60
0
100
AcDbPoint
10
46.5
20
-43.336212
30
0
39
0
210
0
220
0
230
1
50
360
0
ENDBLK
5
13C
100
AcDbEntity
8
0
100
AcDbBlockEnd
0
BLOCK
5
14D
100
AcDbEntity
8
0
100
AcDbBlockBegin
2
_U0
70
0
10
0
20
0
30
0
3
_U0
0
MTEXT
5
147
100
AcDbEntity
8
SK2
62
256
6
ByLayer
370
18
48
1
60
0
100
AcDbMText
10
-6.63237
20
-42.451097
30
0
210
0
220
0
230
1
1
\W0.7468;97.30
40
3
41
0
44
1.084337
50
0
71
7
72
5
7
iso_b_vert
0
LINE
5
148
100
AcDbEntity
8
SK2
62
256
6
ByLayer
370
13
48
1
60
0
100
AcDbLine
10
-50.8
20
-11.1125
30
0
11
-50.8
21
-45.336212
31
0
39
0
210
0
220
0
230
1
0
LINE
5
149
100
AcDbEntity
8
SK2
62
256
6
ByLayer
370
13
48
1
60
0
100
AcDbLine
10
46.5
20
-1.5875
30
0
11
46.5
21
-45.336212
31
0
39
0
210
0
220
0
230
1
0
LINE
5
14A
100
AcDbEntity
8
SK2
62
256
6
ByLayer
370
13
48
1
60
0
100
AcDbLine
10
-50.8
20
-43.336212
30
0
11
46.5
21
-43.336212
31
0
39
0
210
0
220
0
230
1
0
SOLID
5
14B
100
AcDbEntity
8
SK2
62
256
6
ByLayer
370
18
48
1
60
0
100
AcDbTrace
10
-50.8
20
-43.336212
30
0
11
-47.300002
21
-42.875428
31
0
12
-47.299998
22
-43.796995
32
0
13
-47.299998
23
-43.796995
33
0
39
0
210
0
220
0
230
1
0
SOLID
5
14C
100
AcDbEntity
8
SK2
62
256
6
ByLayer
370
18
48
1
60
0
100
AcDbTrace
10
46.5
20
-43.336212
30
0
11
43.000002
21
-43.796995
31
0
12
42.999998
22
-42.875428
32
0
13
42.999998
23
-42.875428
33
0
39
0
210
0
220
0
230
1
0
ENDBLK
5
14E
100
AcDbEntity
8
0
100
AcDbBlockEnd
0
BLOCK
5
153
100
AcDbEntity
8
0
100
AcDbBlockBegin
2
*D3
70
1
10
0
20
0
30
0
3
*D3
0
LINE
5
155
100
AcDbEntity
8
0
62
256
6
ByLayer
370
-2
48
1
60
0
100
AcDbLine
10
46.5
20
-1.5875
30
0
11
46.5
21
-35.336212
31
0
39
0
210
0
220
0
230
1
0
LINE
5
156
100
AcDbEntity
8
0
62
256
6
ByLayer
370
-2
48
1
60
0
100
AcDbLine
10
6
20
-9.3265
30
0
11
6
21
-35.336212
31
0
39
0
210
0
220
0
230
1
0
LINE
5
157
100
AcDbEntity
8
0
62
256
6
ByLayer
370
-2
48
1
60
0
100
AcDbLine
10
43
20
-33.336212
30
0
11
9.5
21
-33.336212
31
0
39
0
210
0
220
0
230
1
0
SOLID
5
158
100
AcDbEntity
8
0
62
256
6
ByLayer
370
-1
48
1
60
0
100
AcDbTrace
10
43
20
-33.919545
30
0
11
43
21
-32.752878
31
0
12
46.5
22
-33.336212
32
0
13
46.5
23
-33.336212
33
0
39
0
210
0
220
0
230
1
0
SOLID
5
159
100
AcDbEntity
8
0
62
256
6
ByLayer
370
-1
48
1
60
0
100
AcDbTrace
10
9.5
20
-32.752878
30
0
11
9.5
21
-33.919545
31
0
12
6
22
-33.336212
32
0
13
6
23
-33.336212
33
0
39
0
210
0
220
0
230
1
0
MTEXT
5
15A
100
AcDbEntity
8
0
62
256
6
ByLayer
370
18
48
1
60
0
100
AcDbMText
10
26.25
20
-27.336212
30
0
210
0
220
0
230
1
1
\A1;40.5
40
3
41
0
44
1
50
0
71
5
72
5
7
iso_b_vert
0
POINT
5
15B
100
AcDbEntity
8
Defpoints
62
0
6
ByLayer
370
-1
48
1
60
0
100
AcDbPoint
10
46.5
20
0
30
0
39
0
210
0
220
0
230
1
50
360
0
POINT
5
15C
100
AcDbEntity
8
Defpoints
62
0
6
ByLayer
370
-1
48
1
60
0
100
AcDbPoint
10
6
20
-7.739
30
0
39
0
210
0
220
0
230
1
50
360
0
POINT
5
15D
100
AcDbEntity
8
Defpoints
62
0
6
ByLayer
370
-1
48
1
60
0
100
AcDbPoint
10
6
20
-33.336212
30
0
39
0
210
0
220
0
230
1
50
360
0
ENDBLK
5
154
100
AcDbEntity
8
0
100
AcDbBlockEnd
0
BLOCK
5
165
100
AcDbEntity
8
0
100
AcDbBlockBegin
2
_U1
70
0
10
0
20
0
30
0
3
_U1
0
MTEXT
5
15F
100
AcDbEntity
8
SK2
62
256
6
ByLayer
370
18
48
1
60
0
100
AcDbMText
10
21.609687
20
-32.451097
30
0
210
0
220
0
230
1
1
\W0.7694;40.50
40
3
41
0
44
1.084337
50
0
71
7
72
5
7
iso_b_vert
0
LINE
5
160
100
AcDbEntity
8
SK2
62
256
6
ByLayer
370
13
48
1
60
0
100
AcDbLine
10
46.5
20
-1.5875
30
0
11
46.5
21
-35.336212
31
0
39
0
210
0
220
0
230
1
0
LINE
5
161
100
AcDbEntity
8
SK2
62
256
6
ByLayer
370
13
48
1
60
0
100
AcDbLine
10
6
20
-9.3265
30
0
11
6
21
-35.336212
31
0
39
0
210
0
220
0
230
1
0
LINE
5
162
100
AcDbEntity
8
SK2
62
256
6
ByLayer
370
13
48
1
60
0
100
AcDbLine
10
46.5
20
-33.336212
30
0
11
6
21
-33.336212
31
0
39
0
210
0
220
0
230
1
0
SOLID
5
163
100
AcDbEntity
8
SK2
62
256
6
ByLayer
370
18
48
1
60
0
100
AcDbTrace
10
46.5
20
-33.336212
30
0
11
43.000002
21
-33.796995
31
0
12
42.999998
22
-32.875428
32
0
13
42.999998
23
-32.875428
33
0
39
0
210
0
220
0
230
1
0
SOLID
5
164
100
AcDbEntity
8
SK2
62
256
6
ByLayer
370
18
48
1
60
0
100
AcDbTrace
10
6
20
-33.336212
30
0
11
9.499998
21
-32.875428
31
0
12
9.500002
22
-33.796995
32
0
13
9.500002
23
-33.796995
33
0
39
0
210
0
220
0
230
1
0
ENDBLK
5
166
100
AcDbEntity
8
0
100
AcDbBlockEnd
0
BLOCK
5
16B
100
AcDbEntity
8
0
100
AcDbBlockBegin
2
*D5
70
1
10
0
20
0
30
0
3
*D5
0
LINE
5
16D
100
AcDbEntity
8
0
62
256
6
ByLayer
370
-2
48
1
60
0
100
AcDbLine
10
-50.8
20
-11.1125
30
0
11
-50.8
21
-35.336212
31
0
39
0
210
0
220
0
230
1
0
LINE
5
16E
100
AcDbEntity
8
0
62
256
6
ByLayer
370
-2
48
1
60
0
100
AcDbLine
10
0
20
-11.1125
30
0
11
0
21
-35.336212
31
0
39
0
210
0
220
0
230
1
0
LINE
5
16F
100
AcDbEntity
8
0
62
256
6
ByLayer
370
-2
48
1
60
0
100
AcDbLine
10
-47.3
20
-33.336212
30
0
11
-3.5
21
-33.336212
31
0
39
0
210
0
220
0
230
1
0
SOLID
5
170
100
AcDbEntity
8
0
62
256
6
ByLayer
370
-1
48
1
60
0
100
AcDbTrace
10
-47.3
20
-32.752878
30
0
11
-47.3
21
-33.919545
31
0
12
-50.8
22
-33.336212
32
0
13
-50.8
23
-33.336212
33
0
39
0
210
0
220
0
230
1
0
SOLID
5
171
100
AcDbEntity
8
0
62
256
6
ByLayer
370
-1
48
1
60
0
100
AcDbTrace
10
-3.5
20
-33.919545
30
0
11
-3.5
21
-32.752878
31
0
12
0
22
-33.336212
32
0
13
0
23
-33.336212
33
0
39
0
210
0
220
0
230
1
0
MTEXT
5
172
100
AcDbEntity
8
0
62
256
6
ByLayer
370
18
48
1
60
0
100
AcDbMText
10
-25.4
20
-27.336212
30
0
210
0
220
0
230
1
1
\A1;50.8
40
3
41
0
44
1
50
0
71
5
72
5
7
iso_b_vert
0
POINT
5
173
100
AcDbEntity
8
Defpoints
62
0
6
ByLayer
370
-1
48
1
60
0
100
AcDbPoint
10
-50.8
20
-9.525
30
0
39
0
210
0
220
0
230
1
50
360
0
POINT
5
174
100
AcDbEntity
8
Defpoints
62
0
6
ByLayer
370
-1
48
1
60
0
100
AcDbPoint
10
0
20
-9.525
30
0
39
0
210
0
220
0
230
1
50
360
0
POINT
5
175
100
AcDbEntity
8
Defpoints
62
0
6
ByLayer
370
-1
48
1
60
0
100
AcDbPoint
10
0
20
-33.336212
30
0
39
0
210
0
220
0
230
1
50
360
0
ENDBLK
5
16C
100
AcDbEntity
8
0
100
AcDbBlockEnd
0
BLOCK
5
17D
100
AcDbEntity
8
0
100
AcDbBlockBegin
2
_U2
70
0
10
0
20
0
30
0
3
_U2
0
MTEXT
5
177
100
AcDbEntity
8
SK2
62
256
6
ByLayer
370
18
48
1
60
0
100
AcDbMText
10
-29.88237
20
-32.451097
30
0
210
0
220
0
230
1
1
\W0.7468;50.80
40
3
41
0
44
1.084337
50
0
71
7
72
5
7
iso_b_vert
0
LINE
5
178
100
AcDbEntity
8
SK2
62
256
6
ByLayer
370
13
48
1
60
0
100
AcDbLine
10
-50.8
20
-11.1125
30
0
11
-50.8
21
-35.336212
31
0
39
0
210
0
220
0
230
1
0
LINE
5
179
100
AcDbEntity
8
SK2
62
256
6
ByLayer
370
13
48
1
60
0
100
AcDbLine
10
0
20
-11.1125
30
0
11
0
21
-35.336212
31
0
39
0
210
0
220
0
230
1
0
LINE
5
17A
100
AcDbEntity
8
SK2
62
256
6
ByLayer
370
13
48
1
60
0
100
AcDbLine
10
-50.8
20
-33.336212
30
0
11
0
21
-33.336212
31
0
39
0
210
0
220
0
230
1
0
SOLID
5
17B
100
AcDbEntity
8
SK2
62
256
6
ByLayer
370
18
48
1
60
0
100
AcDbTrace
10
-50.8
20
-33.336212
30
0
11
-47.300002
21
-32.875428
31
0
12
-47.299998
22
-33.796995
32
0
13
-47.299998
23
-33.796995
33
0
39
0
210
0
220
0
230
1
0
SOLID
5
17C
100
AcDbEntity
8
SK2
62
256
6
ByLayer
370
18
48
1
60
0
100
AcDbTrace
10
0
20
-33.336212
30
0
11
-3.499998
21
-33.796995
31
0
12
-3.500002
22
-32.875428
32
0
13
-3.500002
23
-32.875428
33
0
39
0
210
0
220
0
230
1
0
ENDBLK
5
17E
100
AcDbEntity
8
0
100
AcDbBlockEnd
0
BLOCK
5
183
100
AcDbEntity
8
0
100
AcDbBlockBegin
2
*D7
70
1
10
0
20
0
30
0
3
*D7
0
LINE
5
185
100
AcDbEntity
8
0
62
256
6
ByLayer
370
-2
48
1
60
0
100
AcDbLine
10
46.5
20
1.5875
30
0
11
46.5
21
32.336212
31
0
39
0
210
0
220
0
230
1
0
LINE
5
186
100
AcDbEntity
8
0
62
256
6
ByLayer
370
-2
48
1
60
0
100
AcDbLine
10
14.2
20
9.3265
30
0
11
14.2
21
32.336212
31
0
39
0
210
0
220
0
230
1
0
LINE
5
187
100
AcDbEntity
8
0
62
256
6
ByLayer
370
-2
48
1
60
0
100
AcDbLine
10
43
20
30.336212
30
0
11
17.7
21
30.336212
31
0
39
0
210
0
220
0
230
1
0
SOLID
5
188
100
AcDbEntity
8
0
62
256
6
ByLayer
370
-1
48
1
60
0
100
AcDbTrace
10
43
20
29.752878
30
0
11
43
21
30.919545
31
0
12
46.5
22
30.336212
32
0
13
46.5
23
30.336212
33
0
39
0
210
0
220
0
230
1
0
SOLID
5
189
100
AcDbEntity
8
0
62
256
6
ByLayer
370
-1
48
1
60
0
100
AcDbTrace
10
17.7
20
30.919545
30
0
11
17.7
21
29.752878
31
0
12
14.2
22
30.336212
32
0
13
14.2
23
30.336212
33
0
39
0
210
0
220
0
230
1
0
MTEXT
5
18A
100
AcDbEntity
8
0
62
256
6
ByLayer
370
18
48
1
60
0
100
AcDbMText
10
30.35
20
36.336212
30
0
210
0
220
0
230
1
1
\A1;32.3
40
3
41
0
44
1
50
0
71
5
72
5
7
iso_b_vert
0
POINT
5
18B
100
AcDbEntity
8
Defpoints
62
0
6
ByLayer
370
-1
48
1
60
0
100
AcDbPoint
10
46.5
20
0
30
0
39
0
210
0
220
0
230
1
50
360
0
POINT
5
18C
100
AcDbEntity
8
Defpoints
62
0
6
ByLayer
370
-1
48
1
60
0
100
AcDbPoint
10
14.2
20
7.739
30
0
39
0
210
0
220
0
230
1
50
360
0
POINT
5
18D
100
AcDbEntity
8
Defpoints
62
0
6
ByLayer
370
-1
48
1
60
0
100
AcDbPoint
10
14.2
20
30.336212
30
0
39
0
210
0
220
0
230
1
50
360
0
ENDBLK
5
184
100
AcDbEntity
8
0
100
AcDbBlockEnd
0
BLOCK
5
195
100
AcDbEntity
8
0
100
AcDbBlockBegin
2
_U3
70
0
10
0
20
0
30
0
3
_U3
0
MTEXT
5
18F
100
AcDbEntity
8
SK2
62
256
6
ByLayer
370
18
48
1
60
0
100
AcDbMText
10
25.86763
20
31.221326
30
0
210
0
220
0
230
1
1
\W0.7468;32.30
40
3
41
0
44
1.084337
50
0
71
7
72
5
7
iso_b_vert
0
LINE
5
190
100
AcDbEntity
8
SK2
62
256
6
ByLayer
370
13
48
1
60
0
100
AcDbLine
10
46.5
20
1.5875
30
0
11
46.5
21
32.336212
31
0
39
0
210
0
220
0
230
1
0
LINE
5
191
100
AcDbEntity
8
SK2
62
256
6
ByLayer
370
13
48
1
60
0
100
AcDbLine
10
14.2
20
9.3265
30
0
11
14.2
21
32.336212
31
0
39
0
210
0
220
0
230
1
0
LINE
5
192
100
AcDbEntity
8
SK2
62
256
6
ByLayer
370
13
48
1
60
0
100
AcDbLine
10
46.5
20
30.336212
30
0
11
14.2
21
30.336212
31
0
39
0
210
0
220
0
230
1
0
SOLID
5
193
100
AcDbEntity
8
SK2
62
256
6
ByLayer
370
18
48
1
60
0
100
AcDbTrace
10
46.5
20
30.336212
30
0
11
43.000002
21
29.875428
31
0
12
42.999998
22
30.796995
32
0
13
42.999998
23
30.796995
33
0
39
0
210
0
220
0
230
1
0
SOLID
5
194
100
AcDbEntity
8
SK2
62
256
6
ByLayer
370
18
48
1
60
0
100
AcDbTrace
10
14.2
20
30.336212
30
0
11
17.699998
21
30.796995
31
0
12
17.700002
22
29.875428
32
0
13
17.700002
23
29.875428
33
0
39
0
210
0
220
0
230
1
0
ENDBLK
5
196
100
AcDbEntity
8
0
100
AcDbBlockEnd
0
ENDSEC
0
SECTION
2
ENTITIES
0
ARC
5
BC
100
AcDbEntity
8
SK2
62
256
6
ByLayer
370
13
48
1
60
0
100
AcDbCircle
39
0
10
46.5
20
0
30
0
40
19
210
0
220
0
230
1
100
AcDbArc
50
290
51
70
0
POINT
5
70
100
AcDbEntity
8
81
62
256
6
ByLayer
370
18
48
1
60
0
100
AcDbPoint
10
46.5
20
0
30
0
39
0
210
0
220
0
230
1
50
360
0
POINT
5
72
100
AcDbEntity
8
80
62
256
6
ByLayer
370
18
48
1
60
0
100
AcDbPoint
10
0
20
0
30
0
39
0
210
0
220
0
230
1
50
360
0
POINT
5
74
100
AcDbEntity
8
1
62
256
6
ByLayer
370
18
48
1
60
1
100
AcDbPoint
10
-50.8
20
-9.525
30
0
39
0
210
0
220
0
230
1
50
360
0
POINT
5
76
100
AcDbEntity
8
1
62
256
6
ByLayer
370
18
48
1
60
1
100
AcDbPoint
10
46.5
20
0
30
0
39
0
210
0
220
0
230
1
50
360
0
POINT
5
77
100
AcDbEntity
8
1
62
256
6
ByLayer
370
18
48
1
60
1
100
AcDbPoint
10
46.5
20
0
30
0
39
0
210
0
220
0
230
1
50
360
0
POINT
5
78
100
AcDbEntity
8
1
62
256
6
ByLayer
370
18
48
1
60
1
100
AcDbPoint
10
6
20
-7.739
30
0
39
0
210
0
220
0
230
1
50
360
0
POINT
5
79
100
AcDbEntity
8
1
62
256
6
ByLayer
370
18
48
1
60
1
100
AcDbPoint
10
-50.8
20
-9.525
30
0
39
0
210
0
220
0
230
1
50
360
0
POINT
5
7A
100
AcDbEntity
8
1
62
256
6
ByLayer
370
18
48
1
60
1
100
AcDbPoint
10
0
20
-9.525
30
0
39
0
210
0
220
0
230
1
50
360
0
POINT
5
7B
100
AcDbEntity
8
1
62
256
6
ByLayer
370
18
48
1
60
1
100
AcDbPoint
10
46.5
20
0
30
0
39
0
210
0
220
0
230
1
50
360
0
POINT
5
7C
100
AcDbEntity
8
1
62
256
6
ByLayer
370
18
48
1
60
1
100
AcDbPoint
10
14.2
20
7.739
30
0
39
0
210
0
220
0
230
1
50
360
0
SPLINE
5
BD
100
AcDbEntity
8
1
62
256
6
ByLayer
370
18
48
1
60
0
100
AcDbSpline
70
4
71
3
72
14
73
10
40
0
40
0
40
0
40
0
40
0.163704730548835
40
0.163704730548835
40
0.372778547911626
40
0.372778547911626
40
0.581852365274417
40
0.581852365274417
40
1
40
1
40
1
40
1
41
1
10
22.7680847953852
20
-5.24271351066432
30
0
41
1
10
22.4722037537013
20
-5.31141155455103
30
0
41
1
10
22.1763352279677
20
-5.37852762852776
30
0
41
1
10
21.502592891835
20
-5.5276993920387
30
0
41
1
10
21.1247330642039
20
-5.60877381970562
30
0
41
1
10
20.3690467550509
20
-5.76575042486584
30
0
41
1
10
19.991241144992
20
-5.84168167863865
30
0
41
1
10
18.8572915837636
20
-6.06066324236821
30
0
41
1
10
18.1007361762005
20
-6.19517525968428
30
0
41
1
10
17.3437072926045
20
-6.31829954199839
30
0
0
SPLINE
5
BE
100
AcDbEntity
8
1
62
256
6
ByLayer
370
18
48
1
60
0
100
AcDbSpline
70
4
71
3
72
12
73
8
40
0
40
0
40
0
40
0
40
0.5
40
0.5
40
0.75
40
0.75
40
1
40
1
40
1
40
1
41
1
10
17.3437072926044
20
6.31829954199844
30
0
41
1
10
16.9472520396452
20
6.38489122954877
30
0
41
1
10
16.5543614642759
20
6.4521590862762
30
0
41
1
10
15.9688124756971
20
6.55037723758784
30
0
41
1
10
15.7742678674974
20
6.58268507054069
30
0
41
1
10
15.3863048013091
20
6.64600478044144
30
0
41
1
10
15.1928860237247
20
6.67701750118931
30
0
41
1
10
15
20
6.7072188275842
30
0
0
SPLINE
5
BF
100
AcDbEntity
8
1
62
256
6
ByLayer
370
18
48
1
60
0
100
AcDbSpline
70
4
71
3
72
38
73
34
40
0
40
0
40
0
40
0
40
0.124999999999998
40
0.124999999999998
40
0.187499999999996
40
0.187499999999996
40
0.218749999999996
40
0.218749999999996
40
0.249999999999995
40
0.249999999999995
40
0.312499999999994
40
0.312499999999994
40
0.374999999999993
40
0.374999999999993
40
0.437499999999991
40
0.437499999999991
40
0.49999999999999
40
0.49999999999999
40
0.562499999999989
40
0.562499999999989
40
0.593749999999989
40
0.593749999999989
40
0.62499999999999
40
0.62499999999999
40
0.687499999999991
40
0.687499999999991
40
0.749999999999992
40
0.749999999999992
40
0.874999999999995
40
0.874999999999995
40
0.937499999999998
40
0.937499999999998
40
1
40
1
40
1
40
1
41
1
10
20.6318109562558
20
-4.71807310527103
30
0
41
1
10
21.2519551514933
20
-4.87721761986916
30
0
41
1
10
21.8718417301422
20
-5.029290197215
30
0
41
1
10
22.8009346422947
20
-5.24775810573257
30
0
41
1
10
23.1105089928245
20
-5.31896853891368
30
0
41
1
10
23.574653050669
20
-5.42341246162781
30
0
41
1
10
23.7293337767753
20
-5.45782625059988
30
0
41
1
10
24.038702971144
20
-5.52570453929494
30
0
41
1
10
24.1933963667191
20
-5.55916027046729
30
0
41
1
10
24.6574892065323
20
-5.65811263485514
30
0
41
1
10
24.9668997746775
20
-5.72219905899385
30
0
41
1
10
25.5856712547723
20
-5.84676852519883
30
0
41
1
10
25.8950211681841
20
-5.90726968750283
30
0
41
1
10
26.5136484285807
20
-6.02467900867924
30
0
41
1
10
26.822945477175
20
-6.08155029031235
30
0
41
1
10
27.4417324809524
20
-6.19126018570975
30
0
41
1
10
27.7512516115237
20
-6.24405835122104
30
0
41
1
10
28.3704750131594
20
-6.34566320160894
30
0
41
1
10
28.6801647959543
20
-6.39449055402378
30
0
41
1
10
29.1447872488713
20
-6.46479116921506
30
0
41
1
10
29.2996754057431
20
-6.48773512071864
30
0
41
1
10
29.6094811781759
20
-6.5326357719961
30
0
41
1
10
29.7644004730018
20
-6.55458961253078
30
0
41
1
10
30.2293215897482
20
-6.61881620516246
30
0
41
1
10
30.5395713493072
20
-6.65945151884983
30
0
41
1
10
31.1598800069977
20
-6.73639764751763
30
0
41
1
10
31.4699822633073
20
-6.77271497151264
30
0
41
1
10
32.4000129356506
20
-6.8753097317597
30
0
41
1
10
33.0196018667097
20
-6.9352277295157
30
0
41
1
10
33.9495919826136
20
-7.01135911722821
30
0
41
1
10
34.25965249427
20
-7.03448830213583
30
0
41
1
10
34.8798026493242
20
-7.07631371388399
30
0
41
1
10
35.1898956247217
20
-7.09500623111478
30
0
41
1
10
35.4999999999997
20
-7.11145912070322
30
0
0
SPLINE
5
C0
100
AcDbEntity
8
1
62
256
6
ByLayer
370
18
48
1
60
0
100
AcDbSpline
70
4
71
3
72
13
73
9
40
0
40
0
40
0
40
0
40
0.182000211917128
40
0.182000211917128
40
0.364000423834255
40
0.728000847668498
40
0.728000847668498
40
1
40
1
40
1
40
1
41
1
10
35.4999999999998
20
-7.66996023119771
30
0
41
1
10
35.6706950464661
20
-7.67819795759382
30
0
41
1
10
35.8413204992799
20
-7.68569669975943
30
0
41
1
10
36.182541993146
20
-7.69918197408373
30
0
41
1
10
36.6943409243327
20
-7.71714109044208
30
0
41
1
10
37.2059693267711
20
-7.72837331049675
30
0
41
1
10
37.8017024516236
20
-7.73626813532877
30
0
41
1
10
38.0563917279965
20
-7.73798468363776
30
0
41
1
10
38.3110223878683
20
-7.73803283601055
30
0
0
SPLINE
5
C1
100
AcDbEntity
8
1
62
256
6
ByLayer
370
18
48
1
60
0
100
AcDbSpline
70
4
71
3
72
23
73
19
40
0
40
0
40
0
40
0
40
0.125
40
0.125
40
0.25
40
0.25
40
0.375
40
0.375
40
0.5
40
0.5
40
0.625
40
0.625
40
0.6875
40
0.6875
40
0.75
40
0.875
40
0.875
40
1
40
1
40
1
40
1
41
1
10
43.6832343570141
20
-1.10447206570311
30
0
41
1
10
43.3417893315979
20
-0.981471278901864
30
0
41
1
10
43.0004758940304
20
-0.858254744767095
30
0
41
1
10
42.3181460925326
20
-0.611294091690411
30
0
41
1
10
41.9771411732881
20
-0.487518238155587
30
0
41
1
10
41.2953930943445
20
-0.239537859152108
30
0
41
1
10
40.954641763934
20
-0.115356232525784
30
0
41
1
10
40.2731254755078
20
0.132672571738965
30
0
41
1
10
39.9323546887144
20
0.256503951823305
30
0
41
1
10
39.250838429612
20
0.503941626273473
30
0
41
1
10
38.910090546545
20
0.627541226156609
30
0
41
1
10
38.3989976976564
20
0.812798100245175
30
0
41
1
10
38.2286418037081
20
0.87453638220282
30
0
41
1
10
37.8878684008358
20
0.997768935778282
30
0
41
1
10
37.3766015904236
20
1.18221252384811
30
0
41
1
10
36.8650287089028
20
1.36548045272139
30
0
41
1
10
36.1826950430786
20
1.60889026802374
30
0
41
1
10
35.8414240586587
20
1.73015996624616
30
0
41
1
10
35.5000000000001
20
1.85085939073701
30
0
0
SPLINE
5
C2
100
AcDbEntity
8
1
62
256
6
ByLayer
370
18
48
1
60
0
100
AcDbSpline
70
4
71
3
72
83
73
79
40
0
40
0
40
0
40
0
40
0.0312499999999965
40
0.0312499999999965
40
0.062499999999993
40
0.062499999999993
40
0.124999999999985
40
0.124999999999985
40
0.140624999999983
40
0.140624999999983
40
0.156249999999981
40
0.156249999999981
40
0.187499999999979
40
0.187499999999979
40
0.249999999999974
40
0.249999999999974
40
0.281249999999972
40
0.281249999999972
40
0.296874999999971
40
0.296874999999971
40
0.31249999999997
40
0.31249999999997
40
0.343749999999969
40
0.343749999999969
40
0.374999999999967
40
0.374999999999967
40
0.406249999999966
40
0.406249999999966
40
0.437499999999964
40
0.437499999999964
40
0.445312499999964
40
0.445312499999964
40
0.453124999999964
40
0.468749999999963
40
0.468749999999963
40
0.499999999999962
40
0.499999999999962
40
0.53124999999996
40
0.53124999999996
40
0.53906249999996
40
0.53906249999996
40
0.54687499999996
40
0.56249999999996
40
0.56249999999996
40
0.59374999999996
40
0.59374999999996
40
0.624999999999959
40
0.624999999999959
40
0.632812499999959
40
0.632812499999959
40
0.640624999999959
40
0.65624999999996
40
0.65624999999996
40
0.687499999999962
40
0.687499999999962
40
0.718749999999965
40
0.718749999999965
40
0.726562499999965
40
0.726562499999965
40
0.734374999999966
40
0.734374999999966
40
0.749999999999967
40
0.749999999999967
40
0.781249999999971
40
0.781249999999971
40
0.812499999999974
40
0.843749999999978
40
0.843749999999978
40
0.851562499999979
40
0.851562499999979
40
0.85937499999998
40
0.874999999999982
40
0.874999999999982
40
0.906249999999986
40
0.937499999999991
40
0.968749999999995
40
0.968749999999995
40
1
40
1
40
1
40
1
41
1
10
43.6832343570139
20
7.49325375918426
30
0
41
1
10
43.7315715781564
20
7.3733994008368
30
0
41
1
10
43.7799843385342
20
7.25174458284121
30
0
41
1
10
43.8770434979135
20
7.00511682313166
30
0
41
1
10
43.9256898264649
20
6.88014312499396
30
0
41
1
10
44.072065993668
20
6.50055126773211
30
0
41
1
10
44.170246409051
20
6.24128930857034
30
0
41
1
10
44.2938197953065
20
5.91005112470359
30
0
41
1
10
44.3185757876875
20
5.84344333605944
30
0
41
1
10
44.3681681638546
20
5.70951384973162
30
0
41
1
10
44.3930141301779
20
5.64216526021144
30
0
41
1
10
44.4672245942594
20
5.44025799185974
30
0
41
1
10
44.5164106912662
20
5.30544281567302
30
0
41
1
10
44.6630465332018
20
4.90036281664607
30
0
41
1
10
44.7596230575911
20
4.62948249103113
30
0
41
1
10
44.9017737382863
20
4.22162769532579
30
0
41
1
10
44.9486946795858
20
4.08541637491101
30
0
41
1
10
45.0181208936332
20
3.88061832823291
30
0
41
1
10
45.0411025061253
20
3.81227166264827
30
0
41
1
10
45.0866824342594
20
3.67539477335734
30
0
41
1
10
45.1092873283699
20
3.60684252061563
30
0
41
1
10
45.1760870451563
20
3.40186848817933
30
0
41
1
10
45.2193882063214
20
3.26580406422406
30
0
41
1
10
45.3027344617526
20
2.99462205783163
30
0
41
1
10
45.3427850427582
20
2.85950535015095
30
0
41
1
10
45.418413067264
20
2.58993758255559
30
0
41
1
10
45.4539969099425
20
2.45548710651605
30
0
41
1
10
45.518857944462
20
2.18688708906089
30
0
41
1
10
45.5481380578798
20
2.05273646068886
30
0
41
1
10
45.5791634931348
20
1.88495658002208
30
0
41
1
10
45.5850933322757
20
1.85136304137862
30
0
41
1
10
45.5963175846699
20
1.78431515683224
30
0
41
1
10
45.6121793178396
20
1.68409400084093
30
0
41
1
10
45.6249463422304
20
1.58493807400225
30
0
41
1
10
45.6459378883636
20
1.38810071469459
30
0
41
1
10
45.6538309520191
20
1.25883493356821
30
0
41
1
10
45.6559327932622
20
1.00467761274314
30
0
41
1
10
45.6501291016714
20
0.87978815340179
30
0
41
1
10
45.6343711444646
20
0.726817038710436
30
0
41
1
10
45.6307926025267
20
0.696336923100944
30
0
41
1
10
45.6228383896409
20
0.635911411416231
30
0
41
1
10
45.6097368389965
20
0.546234175468555
30
0
41
1
10
45.5933269345563
20
0.459404907645109
30
0
41
1
10
45.5566453371713
20
0.289452798432137
30
0
41
1
10
45.5270629584579
20
0.181086440317159
30
0
41
1
10
45.4603036824174
20
-0.0261555402017279
30
0
41
1
10
45.4231324457699
20
-0.125033962424084
30
0
41
1
10
45.3731542525447
20
-0.24278694388957
30
0
41
1
10
45.362970257285
20
-0.26606839237769
30
0
41
1
10
45.3423244561624
20
-0.311926008442299
30
0
41
1
10
45.3109688371466
20
-0.37959142805542
30
0
41
1
10
45.2785723135429
20
-0.443959397510952
30
0
41
1
10
45.2126426015447
20
-0.568429666067658
30
0
41
1
10
45.1671888942402
20
-0.645734123305147
30
0
41
1
10
45.0741608879384
20
-0.789365526181655
30
0
41
1
10
45.0265803255871
20
-0.855690443217469
30
0
41
1
10
44.966064951653
20
-0.931743242573873
30
0
41
1
10
44.9539091241965
20
-0.946610331100743
30
0
41
1
10
44.9294964710153
20
-0.975654643480993
30
0
41
1
10
44.917235854198
20
-0.989835107785183
30
0
41
1
10
44.8804710759197
20
-1.03115809601533
30
0
41
1
10
44.8559312105493
20
-1.05714772730593
30
0
41
1
10
44.7822599690181
20
-1.13054350320488
30
0
41
1
10
44.733080606887
20
-1.17338594161799
30
0
41
1
10
44.634680840476
20
-1.24719724576741
30
0
41
1
10
44.5362376720823
20
-1.30913253895898
30
0
41
1
10
44.4376797541709
20
-1.34734212246232
30
0
41
1
10
44.3759941568597
20
-1.3636469173648
30
0
41
1
10
44.3636505999183
20
-1.36652768763002
30
0
41
1
10
44.3390667415439
20
-1.37150477250842
30
0
41
1
10
44.3023029553802
20
-1.37780579367066
30
0
41
1
10
44.2658631794199
20
-1.38065151452238
30
0
41
1
10
44.1933838127158
20
-1.38181332180426
30
0
41
1
10
44.0978115420325
20
-1.37129921420839
30
0
41
1
10
43.9571514393124
20
-1.31997874154541
30
0
41
1
10
43.8648468744278
20
-1.26201347221712
30
0
41
1
10
43.773110513487
20
-1.19190732876515
30
0
41
1
10
43.7278777858617
20
-1.15104742651465
30
0
41
1
10
43.6832343570139
20
-1.10447206570302
30
0
0
SPLINE
5
C3
100
AcDbEntity
8
1
62
256
6
ByLayer
370
18
48
1
60
0
100
AcDbSpline
70
4
71
3
72
19
73
15
40
0
40
0
40
0
40
0
40
0.0481177208144477
40
0.0481177208144477
40
0.238494176651558
40
0.238494176651558
40
0.428870632488669
40
0.428870632488669
40
0.619247088325779
40
0.619247088325779
40
0.714435316244335
40
0.714435316244335
40
0.80962354416289
40
1
40
1
40
1
40
1
41
1
10
38.3110224650334
20
7.73803283602513
30
0
41
1
10
38.3971489741553
20
7.73804912301406
30
0
41
1
10
38.4832687771441
20
7.73787453396051
30
0
41
1
10
38.9100918398277
20
7.7360614763422
30
0
41
1
10
39.2507344693375
20
7.73161761501558
30
0
41
1
10
39.9322241903873
20
7.7168055254489
30
0
41
1
10
40.2730418502082
20
7.70644320334313
30
0
41
1
10
40.9546698146372
20
7.67977725935279
30
0
41
1
10
41.2954830606134
20
7.66347091867831
30
0
41
1
10
41.8067108585293
20
7.63450926670228
30
0
41
1
10
41.9771303445001
20
7.62410740216612
30
0
41
1
10
42.3180972667739
20
7.60186101855854
30
0
41
1
10
42.8297117243129
20
7.5663161576081
30
0
41
1
10
43.3417458076867
20
7.52424480979354
30
0
41
1
10
43.6832343570135
20
7.49325375918428
30
0
0
SPLINE
5
C4
100
AcDbEntity
8
1
62
256
6
ByLayer
370
18
48
1
60
0
100
AcDbSpline
70
4
71
3
72
36
73
32
40
0
40
0
40
0
40
0
40
0.0512160542245153
40
0.0512160542245153
40
0.0877077444466509
40
0.0877077444466509
40
0.124199434668786
40
0.124199434668786
40
0.197182815113058
40
0.197182815113058
40
0.270166195557329
40
0.270166195557329
40
0.3431495760016
40
0.3431495760016
40
0.416132956445871
40
0.416132956445871
40
0.489116336890143
40
0.489116336890143
40
0.525608027112277
40
0.525608027112277
40
0.562099717334411
40
0.562099717334411
40
0.635083097778676
40
0.635083097778676
40
0.708066478222942
40
0.708066478222942
40
0.854033239111469
40
0.854033239111469
40
0.927016619555735
40
0.927016619555735
40
1
40
1
40
1
40
1
41
1
10
22.7683059102647
20
5.23966421339014
30
0
41
1
10
22.9855831260252
20
5.2900945448429
30
0
41
1
10
23.202796442913
20
5.3397355036989
30
0
41
1
10
23.574653050669
20
5.42341246162778
30
0
41
1
10
23.7293337767752
20
5.45782625059988
30
0
41
1
10
24.038702971144
20
5.52570453929488
30
0
41
1
10
24.193396366719
20
5.55916027046729
30
0
41
1
10
24.6574892065322
20
5.65811263485512
30
0
41
1
10
24.9668997746775
20
5.72219905899382
30
0
41
1
10
25.5856712547722
20
5.8467685251988
30
0
41
1
10
25.8950211681841
20
5.90726968750283
30
0
41
1
10
26.5136484285807
20
6.02467900867924
30
0
41
1
10
26.822945477175
20
6.08155029031232
30
0
41
1
10
27.4417324809523
20
6.19126018570975
30
0
41
1
10
27.7512516115236
20
6.24405835122101
30
0
41
1
10
28.3704750131594
20
6.34566320160892
30
0
41
1
10
28.6801647959542
20
6.39449055402375
30
0
41
1
10
29.1447872488712
20
6.46479116921506
30
0
41
1
10
29.299675405743
20
6.48773512071861
30
0
41
1
10
29.6094811781758
20
6.5326357719961
30
0
41
1
10
29.7644004730017
20
6.55458961253075
30
0
41
1
10
30.2293215897482
20
6.6188162051624
30
0
41
1
10
30.5395713493071
20
6.65945151884981
30
0
41
1
10
31.1598800069977
20
6.73639764751761
30
0
41
1
10
31.4699822633073
20
6.77271497151264
30
0
41
1
10
32.4000129356505
20
6.87530973175967
30
0
41
1
10
33.0196018667097
20
6.93522772951567
30
0
41
1
10
33.9495919826135
20
7.01135911722821
30
0
41
1
10
34.25965249427
20
7.0344883021358
30
0
41
1
10
34.8798026493241
20
7.07631371388399
30
0
41
1
10
35.1898956247215
20
7.09500623111475
30
0
41
1
10
35.4999999999996
20
7.11145912070322
30
0
0
SPLINE
5
C5
100
AcDbEntity
8
1
62
256
6
ByLayer
370
18
48
1
60
0
100
AcDbSpline
70
4
71
3
72
38
73
34
40
0
40
0
40
0
40
0
40
0.0625000000000007
40
0.0625000000000007
40
0.125000000000001
40
0.125000000000001
40
0.156250000000002
40
0.156250000000002
40
0.187500000000002
40
0.187500000000002
40
0.250000000000003
40
0.250000000000003
40
0.312500000000003
40
0.312500000000003
40
0.375000000000004
40
0.375000000000004
40
0.500000000000003
40
0.500000000000003
40
0.531250000000003
40
0.531250000000003
40
0.562500000000003
40
0.562500000000003
40
0.625000000000002
40
0.625000000000002
40
0.687500000000002
40
0.687500000000002
40
0.750000000000002
40
0.750000000000002
40
0.812500000000001
40
0.812500000000001
40
0.875000000000001
40
0.875000000000001
40
1
40
1
40
1
40
1
41
1
10
35.5000000000001
20
1.5488289093577
30
0
41
1
10
35.1214508734503
20
1.67410749385613
30
0
41
1
10
34.7430384295475
20
1.79865790388263
30
0
41
1
10
33.9862149206895
20
2.04552846770932
30
0
41
1
10
33.6078310106884
20
2.16792877880292
30
0
41
1
10
33.0403161678371
20
2.35003271750654
30
0
41
1
10
32.8511542426678
20
2.41048306375251
30
0
41
1
10
32.4728517617773
20
2.53088558495671
30
0
41
1
10
32.28371805954
20
2.59085645535777
30
0
41
1
10
31.7162467224987
20
2.76973646363655
30
0
41
1
10
31.3378135112441
20
2.88754534604106
30
0
41
1
10
30.5807285714186
20
3.12033696121966
30
0
41
1
10
30.2020957436663
20
3.23533365132619
30
0
41
1
10
29.4452431708696
20
3.46229179912356
30
0
41
1
10
29.0669399895807
20
3.57426216478049
30
0
41
1
10
27.9319774720821
20
3.90456044907305
30
0
41
1
10
27.1752221783464
20
4.11720108027956
30
0
41
1
10
26.2292127658142
20
4.37371145155055
30
0
41
1
10
26.0399997418959
20
4.4245282792985
30
0
41
1
10
25.6614693808957
20
4.52499942504778
30
0
41
1
10
25.4721794259287
20
4.57467071116344
30
0
41
1
10
24.9044992390924
20
4.72193730142899
30
0
41
1
10
24.5262014177695
20
4.81781577333587
30
0
41
1
10
23.7699383271097
20
5.00502994417692
30
0
41
1
10
23.3919810956254
20
5.09637832271412
30
0
41
1
10
22.636197325668
20
5.27408701137594
30
0
41
1
10
22.2583331720809
20
5.36037264958156
30
0
41
1
10
21.5025928918351
20
5.52769939203873
30
0
41
1
10
21.1247330642039
20
5.60877381970565
30
0
41
1
10
20.3690467550508
20
5.76575042486584
30
0
41
1
10
19.9912411449921
20
5.84168167863893
30
0
41
1
10
18.8572915837636
20
6.06066324236849
30
0
41
1
10
18.1007361762005
20
6.19517525968428
30
0
41
1
10
17.3437072926045
20
6.31829954199841
30
0
0
SPLINE
5
C6
100
AcDbEntity
8
1
62
256
6
ByLayer
370
18
48
1
60
0
100
AcDbSpline
70
4
71
3
72
12
73
8
40
0
40
0
40
0
40
0
40
0.499999999999992
40
0.499999999999992
40
0.749999999999996
40
0.749999999999996
40
1
40
1
40
1
40
1
41
1
10
17.3437072926044
20
-6.31829954199844
30
0
41
1
10
16.9472520396452
20
-6.38489122954877
30
0
41
1
10
16.5543614642759
20
-6.45215908627617
30
0
41
1
10
15.9688124756971
20
-6.55037723758781
30
0
41
1
10
15.7742678674974
20
-6.58268507054069
30
0
41
1
10
15.3863048013091
20
-6.64600478044144
30
0
41
1
10
15.1928860237247
20
-6.67701750118931
30
0
41
1
10
15
20
-6.70721882758423
30
0
0
SPLINE
5
C7
100
AcDbEntity
8
1
62
256
6
ByLayer
370
18
48
1
60
0
100
AcDbSpline
70
4
71
4
72
10
73
5
40
0
40
0
40
0
40
0
40
0
40
1
40
1
40
1
40
1
40
1
41
0.998309060494782
10
17.8279068890072
20
-4.10042121227337
30
0
41
0.996759513112132
10
17.6707236515304
20
-4.5713997239368
30
0
41
0.995015786334912
10
17.5311244578755
20
-5.11521506923765
30
0
41
0.99514653857116
10
17.4210859683522
20
-5.70955937864287
30
0
41
0.996206756705278
10
17.3437072926045
20
-6.31829954199842
30
0
0
SPLINE
5
C8
100
AcDbEntity
8
1
62
256
6
ByLayer
370
18
48
1
60
0
100
AcDbSpline
70
4
71
3
72
20
73
16
40
0
40
0
40
0
40
0
40
0.125000000000003
40
0.125000000000003
40
0.250000000000007
40
0.250000000000007
40
0.500000000000014
40
0.500000000000014
40
0.625000000000017
40
0.625000000000017
40
0.687500000000015
40
0.687500000000015
40
0.750000000000014
40
0.750000000000014
40
1
40
1
40
1
40
1
41
1
10
15
20
-3.92636793759735
30
0
41
1
10
15.2415554312666
20
-3.91799474377746
30
0
41
1
10
15.4821134840525
20
-3.91627276182555
30
0
41
1
10
15.9613887507175
20
-3.92512848262916
30
0
41
1
10
16.2001053885357
20
-3.93570871935944
30
0
41
1
10
16.9136938607187
20
-3.98437359324058
30
0
41
1
10
17.3859998422977
20
-4.03944846612006
30
0
41
1
10
18.0901227828483
20
-4.14902884142555
30
0
41
1
10
18.3241084386992
20
-4.19003485318802
30
0
41
1
10
18.674115249647
20
-4.25724679018651
30
0
41
1
10
18.7906223564563
20
-4.28060024721788
30
0
41
1
10
19.0233328385477
20
-4.32902625928426
30
0
41
1
10
19.1396006508153
20
-4.35411352146394
30
0
41
1
10
19.7191210154345
20
-4.48313332757908
30
0
41
1
10
20.17732216775
20
-4.59781206178238
30
0
41
1
10
20.6318109562557
20
-4.718073105271
30
0
0
SPLINE
5
C9
100
AcDbEntity
8
1
62
256
6
ByLayer
370
18
48
1
60
0
100
AcDbSpline
70
4
71
3
72
24
73
20
40
0
40
0
40
0
40
0
40
0.0874351406984778
40
0.0874351406984778
40
0.201505748111168
40
0.201505748111168
40
0.315576355523858
40
0.315576355523858
40
0.429646962936549
40
0.429646962936549
40
0.543717570349239
40
0.543717570349239
40
0.657788177761929
40
0.657788177761929
40
0.771858785174619
40
0.771858785174619
40
0.88592939258731
40
0.88592939258731
40
1
40
1
40
1
40
1
41
1
10
9.39579776640016
20
9.6751916057014
30
0
41
1
10
9.55632947076708
20
9.60429392671642
30
0
41
1
10
9.71759747416721
20
9.53156558316812
30
0
41
1
10
10.0904460143424
20
9.36037897638744
30
0
41
1
10
10.3023878972441
20
9.26082507654485
30
0
41
1
10
10.727208512348
20
9.05713890680661
30
0
41
1
10
10.9400859639471
20
8.95300240986055
30
0
41
1
10
11.3661489737077
20
8.74048977181621
30
0
41
1
10
11.5793324533842
20
8.63211003737641
30
0
41
1
10
12.0056171545724
20
8.41119800711226
30
0
41
1
10
12.2187161880024
20
8.29866190150034
30
0
41
1
10
12.644746726891
20
8.0693809633249
30
0
41
1
10
12.8576766057927
20
7.95263191071842
30
0
41
1
10
13.2836484241423
20
7.71484590026338
30
0
41
1
10
13.4966897875666
20
7.59380462473655
30
0
41
1
10
13.9235636636415
20
7.34746163795029
30
0
41
1
10
14.1373967404724
20
7.22215608308881
30
0
41
1
10
14.5669326856222
20
6.96754336040237
30
0
41
1
10
14.7826368612496
20
6.83823330115061
30
0
41
1
10
15
20
6.7072188275842
30
0
0
SPLINE
5
CA
100
AcDbEntity
8
1
62
256
6
ByLayer
370
18
48
1
60
0
100
AcDbSpline
70
4
71
3
72
119
73
115
40
0
40
0
40
0
40
0
40
0.062500000000005
40
0.062500000000005
40
0.0937500000000068
40
0.0937500000000068
40
0.125000000000009
40
0.125000000000009
40
0.15625000000001
40
0.15625000000001
40
0.187500000000012
40
0.187500000000012
40
0.203125000000013
40
0.203125000000013
40
0.210937500000014
40
0.210937500000014
40
0.218750000000014
40
0.218750000000014
40
0.250000000000015
40
0.250000000000015
40
0.281250000000016
40
0.281250000000016
40
0.296875000000016
40
0.296875000000016
40
0.304687500000016
40
0.304687500000016
40
0.312500000000016
40
0.312500000000016
40
0.343750000000015
40
0.343750000000015
40
0.359375000000014
40
0.359375000000014
40
0.375000000000013
40
0.375000000000013
40
0.390625000000013
40
0.390625000000013
40
0.398437500000012
40
0.398437500000012
40
0.406250000000012
40
0.406250000000012
40
0.421875000000011
40
0.421875000000011
40
0.42968750000001
40
0.42968750000001
40
0.433593750000009
40
0.433593750000009
40
0.437500000000009
40
0.437500000000009
40
0.453125000000008
40
0.453125000000008
40
0.468750000000007
40
0.468750000000007
40
0.476562500000006
40
0.476562500000006
40
0.480468750000006
40
0.480468750000006
40
0.484375000000006
40
0.484375000000006
40
0.500000000000004
40
0.500000000000004
40
0.515625000000003
40
0.515625000000003
40
0.519531250000003
40
0.519531250000003
40
0.523437500000002
40
0.531250000000001
40
0.531250000000001
40
0.546875
40
0.546875
40
0.550781249999999
40
0.550781249999999
40
0.554687499999999
40
0.554687499999999
40
0.562499999999998
40
0.562499999999998
40
0.578124999999997
40
0.578124999999997
40
0.593749999999995
40
0.593749999999995
40
0.601562499999995
40
0.601562499999995
40
0.605468749999995
40
0.605468749999995
40
0.609374999999994
40
0.624999999999995
40
0.624999999999995
40
0.640624999999995
40
0.640624999999995
40
0.656249999999995
40
0.656249999999995
40
0.687499999999996
40
0.687499999999996
40
0.695312499999996
40
0.695312499999996
40
0.703124999999996
40
0.718749999999996
40
0.718749999999996
40
0.749999999999997
40
0.749999999999997
40
0.781249999999997
40
0.781249999999997
40
0.812499999999998
40
0.812499999999998
40
0.843749999999998
40
0.843749999999998
40
0.874999999999998
40
0.874999999999998
40
0.906249999999999
40
0.906249999999999
40
0.937499999999999
40
0.937499999999999
40
0.96875
40
0.96875
40
1
40
1
40
1
40
1
41
1
10
15
20
-3.92636793759735
30
0
41
1
10
14.5193409919203
20
-4.0756355408935
30
0
41
1
10
14.0435653834275
20
-4.24251215548691
30
0
41
1
10
13.3367973281403
20
-4.51955078853786
30
0
41
1
10
13.1023567020609
20
-4.6163604462383
30
0
41
1
10
12.6356963606059
20
-4.81908897997167
30
0
41
1
10
12.403476675333
20
-4.92500703957677
30
0
41
1
10
11.941178415205
20
-5.14624275094906
30
0
41
1
10
11.711099904793
20
-5.2615590046521
30
0
41
1
10
11.2529995274061
20
-5.5020225906768
30
0
41
1
10
11.0249777683154
20
-5.62716747765663
30
0
41
1
10
10.6844188626635
20
-5.82272917797479
30
0
41
1
10
10.571144783619
20
-5.88922555880112
30
0
41
1
10
10.4015926344449
20
-5.99101275424277
30
0
41
1
10
10.345087541577
20
-6.02531184847689
30
0
41
1
10
10.2324999072928
20
-6.09441850787809
30
0
41
1
10
10.176409143143
20
-6.12923023628036
30
0
41
1
10
9.8969775659854
20
-6.30458559020408
30
0
41
1
10
9.67669686620198
20
-6.44901198947863
30
0
41
1
10
9.24294054310371
20
-6.74637823209025
30
0
41
1
10
9.02946119957184
20
-6.89931399099524
30
0
41
1
10
8.71471600923027
20
-7.13545544271329
30
0
41
1
10
8.610715289045
20
-7.21529448578141
30
0
41
1
10
8.45615756858462
20
-7.33681326866594
30
0
41
1
10
8.40491588268515
20
-7.37758562889533
30
0
41
1
10
8.30343310747608
20
-7.45931831129195
30
0
41
1
10
8.25313204267519
20
-7.50032555522196
30
0
41
1
10
8.00387112568356
20
-7.70605051416277
30
0
41
1
10
7.81160449930491
20
-7.87283002669469
30
0
41
1
10
7.5351656808279
20
-8.12604479002698
30
0
41
1
10
7.44502034332515
20
-8.21095812424534
30
0
41
1
10
7.26906769535171
20
-8.38177255658394
30
0
41
1
10
7.18325852347076
20
-8.4676734857612
30
0
41
1
10
7.01644809586861
20
-8.64044708992739
30
0
41
1
10
6.93544352655405
20
-8.72731944923703
30
0
41
1
10
6.81805269095997
20
-8.85835989954265
30
0
41
1
10
6.77985388824598
20
-8.90189246286755
30
0
41
1
10
6.70557792953784
20
-8.98841589807489
30
0
41
1
10
6.66947027669215
20
-9.03144068611942
30
0
41
1
10
6.56436974810615
20
-9.1597421364946
30
0
41
1
10
6.49858636328224
20
-9.24424930972916
30
0
41
1
10
6.40705795422315
20
-9.36916996958036
30
0
41
1
10
6.37774252761352
20
-9.41050273558892
30
0
41
1
10
6.3356840703008
20
-9.47199435484157
30
0
41
1
10
6.32198396933748
20
-9.49240690016177
30
0
41
1
10
6.29524682428831
20
-9.53305395058581
30
0
41
1
10
6.28220340606777
20
-9.5533003346917
30
0
41
1
10
6.21915038513092
20
-9.65334979985613
30
0
41
1
10
6.17523764334265
20
-9.73017548389754
30
0
41
1
10
6.10117320783061
20
-9.87692233751417
30
0
41
1
10
6.07101564268442
20
-9.9468462980814
30
0
41
1
10
6.03702730296104
20
-10.0460291423117
30
0
41
1
10
6.02757726862697
20
-10.0781375604632
30
0
41
1
10
6.01639042809546
20
-10.1247828485481
30
0
41
1
10
6.01315526629378
20
-10.1401048965028
30
0
41
1
10
6.00773693428388
20
-10.1701037989373
30
0
41
1
10
6.00556188013087
20
-10.1847259675475
30
0
41
1
10
5.9973279614577
20
-10.2559716792924
30
0
41
1
10
5.9991709946045
20
-10.3070126134613
30
0
41
1
10
6.01933866469545
20
-10.3975146306543
30
0
41
1
10
6.03766508615382
20
-10.4369745397474
30
0
41
1
10
6.07097064502591
20
-10.4790782017096
30
0
41
1
10
6.07816985178872
20
-10.4871523389006
30
0
41
1
10
6.09350298883152
20
-10.5024672816768
30
0
41
1
10
6.11791331996008
20
-10.5242137726753
30
0
41
1
10
6.14642855941952
20
-10.5424065035062
30
0
41
1
10
6.20865370385889
20
-10.5743328462191
30
0
41
1
10
6.25705010015633
20
-10.5896830135532
30
0
41
1
10
6.32551016492113
20
-10.6021674503956
30
0
41
1
10
6.33960147935775
20
-10.604328249103
30
0
41
1
10
6.3685697248842
20
-10.6079921321419
30
0
41
1
10
6.3834393275157
20
-10.6094928890853
30
0
41
1
10
6.42890940060349
20
-10.6130159491638
30
0
41
1
10
6.46046093182406
20
-10.6140729430364
30
0
41
1
10
6.55854477792195
20
-10.6137094234156
30
0
41
1
10
6.62849521332979
20
-10.6087675286329
30
0
41
1
10
6.77634920215874
20
-10.5908926890007
30
0
41
1
10
6.85425780374382
20
-10.5779541747021
30
0
41
1
10
6.97644409490675
20
-10.5533291172328
30
0
41
1
10
7.01806198301836
20
-10.5442489186185
30
0
41
1
10
7.08175538609305
20
-10.5294015110995
30
0
41
1
10
7.10319292333773
20
-10.5242484885991
30
0
41
1
10
7.14630280433329
20
-10.5135911036782
30
0
41
1
10
7.25477504340432
20
-10.4860416722241
30
0
41
1
10
7.36657917998204
20
-10.4542013957463
30
0
41
1
10
7.54913269199261
20
-10.398655566996
30
0
41
1
10
7.64224478264586
20
-10.3685790444889
30
0
41
1
10
7.83166750515142
20
-10.3044944744918
30
0
41
1
10
7.92797925902414
20
-10.2704846902135
30
0
41
1
10
8.22112909831043
20
-10.1633473852555
30
0
41
1
10
8.42216530793146
20
-10.0851472507252
30
0
41
1
10
8.67887755066073
20
-9.98085451895687
30
0
41
1
10
8.73039911221676
20
-9.95970358211167
30
0
41
1
10
8.83361813952962
20
-9.91692123178527
30
0
41
1
10
8.98878711329388
20
-9.85199509836488
30
0
41
1
10
9.1448888955882
20
-9.78497013618278
30
0
41
1
10
9.45812268618977
20
-9.64846062556308
30
0
41
1
10
9.66831354567196
20
-9.55419340003974
30
0
41
1
10
10.0904460143423
20
-9.36037897638747
30
0
41
1
10
10.302387897244
20
-9.2608250765449
30
0
41
1
10
10.7272085123479
20
-9.05713890680667
30
0
41
1
10
10.940085963947
20
-8.9530024098606
30
0
41
1
10
11.3661489737077
20
-8.74048977181624
30
0
41
1
10
11.5793324533842
20
-8.63211003737641
30
0
41
1
10
12.0056171545724
20
-8.41119800711229
30
0
41
1
10
12.2187161880024
20
-8.2986619015004
30
0
41
1
10
12.6447467268909
20
-8.06938096332493
30
0
41
1
10
12.8576766057927
20
-7.95263191071845
30
0
41
1
10
13.2836484241422
20
-7.71484590026341
30
0
41
1
10
13.4966897875665
20
-7.59380462473658
30
0
41
1
10
13.9235636636415
20
-7.34746163795032
30
0
41
1
10
14.1373967404724
20
-7.22215608308875
30
0
41
1
10
14.5669326856222
20
-6.96754336040232
30
0
41
1
10
14.7826368612496
20
-6.83823330115058
30
0
41
1
10
15
20
-6.7072188275842
30
0
0
SPLINE
5
CB
100
AcDbEntity
8
1
62
256
6
ByLayer
370
13
48
1
60
0
100
AcDbSpline
70
4
71
3
72
84
73
80
40
0
40
0
40
0
40
0
40
0.0078124999999999
40
0.0078124999999999
40
0.0117187499999998
40
0.0117187499999998
40
0.0156249999999998
40
0.0312499999999996
40
0.0312499999999996
40
0.0624999999999991
40
0.0624999999999991
40
0.0937499999999987
40
0.0937499999999987
40
0.124999999999998
40
0.124999999999998
40
0.156249999999998
40
0.156249999999998
40
0.187499999999997
40
0.187499999999997
40
0.218749999999997
40
0.218749999999997
40
0.249999999999997
40
0.249999999999997
40
0.281249999999996
40
0.281249999999996
40
0.312499999999996
40
0.312499999999996
40
0.328124999999995
40
0.328124999999995
40
0.335937499999995
40
0.335937499999995
40
0.343749999999995
40
0.343749999999995
40
0.374999999999995
40
0.374999999999995
40
0.406249999999995
40
0.406249999999995
40
0.437499999999996
40
0.437499999999996
40
0.468749999999996
40
0.468749999999996
40
0.499999999999996
40
0.499999999999996
40
0.531249999999996
40
0.531249999999996
40
0.562499999999997
40
0.562499999999997
40
0.593749999999997
40
0.593749999999997
40
0.624999999999997
40
0.624999999999997
40
0.656249999999997
40
0.656249999999997
40
0.664062499999997
40
0.667968749999997
40
0.667968749999997
40
0.671874999999997
40
0.671874999999997
40
0.687499999999998
40
0.687499999999998
40
0.718749999999998
40
0.718749999999998
40
0.749999999999998
40
0.749999999999998
40
0.781249999999998
40
0.781249999999998
40
0.812499999999999
40
0.812499999999999
40
0.843749999999999
40
0.843749999999999
40
0.874999999999999
40
0.874999999999999
40
0.906249999999999
40
0.906249999999999
40
0.9375
40
0.9375
40
0.96875
40
0.96875
40
1
40
1
40
1
40
1
41
1
10
35.5000000000001
20
0.340775549450853
30
0
41
1
10
35.5161473427002
20
0.252935429532869
30
0
41
1
10
35.5322946854001
20
0.165611585039215
30
0
41
1
10
35.5565156994502
20
0.0354973736163231
30
0
41
1
10
35.5645893708002
20
-0.0076321758776032
30
0
41
1
10
35.5807367135003
20
-0.094249568772625
30
0
41
1
10
35.6211050702505
20
-0.311525416470374
30
0
41
1
10
35.6614734270005
20
-0.532286399709989
30
0
41
1
10
35.7583574832009
20
-1.06712991015013
30
0
41
1
10
35.8229468540012
20
-1.43046067410594
30
0
41
1
10
35.9521255956016
20
-2.15968138142563
30
0
41
1
10
36.0167149664018
20
-2.52553993848531
30
0
41
1
10
36.1458937080023
20
-3.24665215203564
30
0
41
1
10
36.2104830788025
20
-3.60185676869295
30
0
41
1
10
36.3396618204029
20
-4.28755493300869
30
0
41
1
10
36.4042511912032
20
-4.61799065337831
30
0
41
1
10
36.5334299328036
20
-5.24074676681755
30
0
41
1
10
36.5980193036038
20
-5.53301436366334
30
0
41
1
10
36.7271980452043
20
-6.06844756071939
30
0
41
1
10
36.7917874160046
20
-6.31157901327245
30
0
41
1
10
36.9209661576049
20
-6.74152454635126
30
0
41
1
10
36.9855555284052
20
-6.92833081687368
30
0
41
1
10
37.1147342700056
20
-7.24283324963267
30
0
41
1
10
37.1793236408059
20
-7.37054687140062
30
0
41
1
10
37.3085023824064
20
-7.56833674894764
30
0
41
1
10
37.3730917532066
20
-7.6384474789765
30
0
41
1
10
37.4699758094069
20
-7.70407730138706
30
0
41
1
10
37.502270494807
20
-7.71938795494415
30
0
41
1
10
37.5507125229071
20
-7.73313246279591
30
0
41
1
10
37.5668598656073
20
-7.7361780419474
30
0
41
1
10
37.5991545510074
20
-7.73931219704917
30
0
41
1
10
37.6153018937075
20
-7.73941470550707
30
0
41
1
10
37.6960386072077
20
-7.73263622491615
30
0
41
1
10
37.7606279780079
20
-7.70355286208806
30
0
41
1
10
37.8898067196084
20
-7.59135999682982
30
0
41
1
10
37.9543960904086
20
-7.50821045095176
30
0
41
1
10
38.083574832009
20
-7.28364970239673
30
0
41
1
10
38.1481642028092
20
-7.14220701411034
30
0
41
1
10
38.2773429444097
20
-6.80048563121571
30
0
41
1
10
38.3419323152099
20
-6.60019480888718
30
0
41
1
10
38.4711110568103
20
-6.14455865703434
30
0
41
1
10
38.5357004276106
20
-5.88922748133459
30
0
41
1
10
38.664879169211
20
-5.33163816475962
30
0
41
1
10
38.7294685400113
20
-5.02941947857013
30
0
41
1
10
38.8586472816118
20
-4.38971193897035
30
0
41
1
10
38.9232366524119
20
-4.05227837129391
30
0
41
1
10
39.0524153940123
20
-3.35586224015131
30
0
41
1
10
39.1170047648126
20
-2.99693658000362
30
0
41
1
10
39.2461835064131
20
-2.27158213209634
30
0
41
1
10
39.3107728772133
20
-1.90519882837523
30
0
41
1
10
39.4399516188138
20
-1.17771708973518
30
0
41
1
10
39.504540989614
20
-0.816645418457711
30
0
41
1
10
39.5852777031143
20
-0.37512423044052
30
0
41
1
10
39.6094987171643
20
-0.243394304685779
30
0
41
1
10
39.6337197312144
20
-0.112905569127349
30
0
41
1
10
39.6498670739145
20
-0.0262044084104787
30
0
41
1
10
39.6579407452645
20
0.0169160035979132
30
0
41
1
10
39.6983091020146
20
0.233564392687413
30
0
41
1
10
39.7306037874147
20
0.409230583676703
30
0
41
1
10
39.8274878436151
20
0.941659171992654
30
0
41
1
10
39.8920772144153
20
1.30393286843108
30
0
41
1
10
40.0212559560158
20
2.03244465985131
30
0
41
1
10
40.085845326816
20
2.3986536727262
30
0
41
1
10
40.2150240684164
20
3.1220709124436
30
0
41
1
10
40.2796134392166
20
3.47923182204616
30
0
41
1
10
40.4087921808171
20
4.17047722395446
30
0
41
1
10
40.4733815516173
20
4.50450425741303
30
0
41
1
10
40.6025602932178
20
5.13590567482194
30
0
41
1
10
40.667149664018
20
5.43322592027047
30
0
41
1
10
40.7963284056184
20
5.97986644647415
30
0
41
1
10
40.8609177764187
20
6.22914986614609
30
0
41
1
10
40.9900965180191
20
6.67201489583888
30
0
41
1
10
41.0546858888194
20
6.86558552500725
30
0
41
1
10
41.1838646304198
20
7.19371209901684
30
0
41
1
10
41.24845400122
20
7.32828289139812
30
0
41
1
10
41.3776327428205
20
7.53941922943221
30
0
41
1
10
41.4422221136207
20
7.61601783130212
30
0
41
1
10
41.5714008552212
20
7.71578804988772
30
0
41
1
10
41.6359902260214
20
7.739
30
0
41
1
10
41.7005795968216
20
7.739
30
0
0
SPLINE
5
CC
100
AcDbEntity
8
1
62
256
6
ByLayer
370
13
48
1
60
0
100
AcDbSpline
70
4
71
3
72
78
73
74
40
0
40
0
40
0
40
0
40
0.0312499999999994
40
0.0312499999999994
40
0.0624999999999989
40
0.0624999999999989
40
0.0937499999999983
40
0.0937499999999983
40
0.124999999999998
40
0.124999999999998
40
0.156249999999997
40
0.156249999999997
40
0.187499999999997
40
0.187499999999997
40
0.218749999999996
40
0.218749999999996
40
0.249999999999995
40
0.249999999999995
40
0.281249999999995
40
0.281249999999995
40
0.289062499999995
40
0.289062499999995
40
0.296874999999995
40
0.296874999999995
40
0.312499999999995
40
0.312499999999995
40
0.343749999999995
40
0.343749999999995
40
0.374999999999996
40
0.374999999999996
40
0.406249999999996
40
0.406249999999996
40
0.437499999999997
40
0.437499999999997
40
0.468749999999997
40
0.468749999999997
40
0.499999999999998
40
0.499999999999998
40
0.531249999999998
40
0.531249999999998
40
0.562499999999998
40
0.562499999999998
40
0.593749999999999
40
0.593749999999999
40
0.624999999999999
40
0.624999999999999
40
0.640624999999999
40
0.640624999999999
40
0.648437499999999
40
0.648437499999999
40
0.656249999999999
40
0.656249999999999
40
0.687499999999999
40
0.687499999999999
40
0.718749999999999
40
0.718749999999999
40
0.749999999999999
40
0.749999999999999
40
0.781249999999999
40
0.781249999999999
40
0.812499999999999
40
0.812499999999999
40
0.84375
40
0.84375
40
0.875
40
0.875
40
0.90625
40
0.90625
40
0.9375
40
0.9375
40
0.96875
40
0.96875
40
1
40
1
40
1
40
1
41
1
10
35.5
20
-2.40547241177606
30
0
41
1
10
35.5594262062967
20
-2.74034544716736
30
0
41
1
10
35.6188524125935
20
-3.07323819640052
30
0
41
1
10
35.7377048251869
20
-3.72434557887672
30
0
41
1
10
35.7971310314835
20
-4.0425240629406
30
0
41
1
10
35.9159834440769
20
-4.65329456339097
30
0
41
1
10
35.9754096503736
20
-4.94584852674268
30
0
41
1
10
36.094262062967
20
-5.49546744545682
30
0
41
1
10
36.1536882692637
20
-5.75250058887806
30
0
41
1
10
36.2725406818571
20
-6.22326099199751
30
0
41
1
10
36.3319668881538
20
-6.43696959406418
30
0
41
1
10
36.4508193007472
20
-6.81613099774648
30
0
41
1
10
36.5102455070439
20
-6.98158149598274
30
0
41
1
10
36.6290979196373
20
-7.2624662462735
30
0
41
1
10
36.688524125934
20
-7.3779131735057
30
0
41
1
10
36.8073765385274
20
-7.56005476587956
30
0
41
1
10
36.8668027448241
20
-7.62677220330198
30
0
41
1
10
36.9856551574175
20
-7.71519021902807
30
0
41
1
10
37.0450813637142
20
-7.73691747647393
30
0
41
1
10
37.119364121585
20
-7.73934155511327
30
0
41
1
10
37.1342206731593
20
-7.73860455827491
30
0
41
1
10
37.1639337763076
20
-7.73461327139384
30
0
41
1
10
37.1787903278818
20
-7.73135602822634
30
0
41
1
10
37.2233599826043
20
-7.71766646726442
30
0
41
1
10
37.2530730857527
20
-7.70331347238877
30
0
41
1
10
37.3422123951977
20
-7.64360015692009
30
0
41
1
10
37.4016386014944
20
-7.58151987930981
30
0
41
1
10
37.5204910140878
20
-7.40892391700075
30
0
41
1
10
37.5799172203845
20
-7.29838479839557
30
0
41
1
10
37.6987696329779
20
-7.02731489601078
30
0
41
1
10
37.7581958392746
20
-6.86677018443464
30
0
41
1
10
37.877048251868
20
-6.49710724999778
30
0
41
1
10
37.9364744581647
20
-6.28798972128132
30
0
41
1
10
38.0553268707581
20
-5.82578983898094
30
0
41
1
10
38.1147530770548
20
-5.57272459789317
30
0
41
1
10
38.2336054896482
20
-5.03016421540931
30
0
41
1
10
38.2930316959449
20
-4.7406998510248
30
0
41
1
10
38.4118841085382
20
-4.13506886881046
30
0
41
1
10
38.471310314835
20
-3.81894005359967
30
0
41
1
10
38.5901627274284
20
-3.17084324738946
30
0
41
1
10
38.6495889337251
20
-2.83891192974036
30
0
41
1
10
38.7684413463185
20
-2.17005978507643
30
0
41
1
10
38.8278675526152
20
-1.83316766833468
30
0
41
1
10
38.9467199652086
20
-1.16422527717694
30
0
41
1
10
39.0061461715053
20
-0.832192131009549
30
0
41
1
10
39.0952854809503
20
-0.343859895645721
30
0
41
1
10
39.1249985840986
20
-0.182687122660838
30
0
41
1
10
39.1695682388212
20
0.0560488578626632
30
0
41
1
10
39.1844247903953
20
0.135769084941671
30
0
41
1
10
39.2141378935437
20
0.296477627509233
30
0
41
1
10
39.2289944451179
20
0.377295475494663
30
0
41
1
10
39.3032772029887
20
0.783439685277386
30
0
41
1
10
39.3627034092854
20
1.11500753446091
30
0
41
1
10
39.4815558218788
20
1.78346271758437
30
0
41
1
10
39.5409820281755
20
2.12033352336118
30
0
41
1
10
39.6598344407689
20
2.78965780438711
30
0
41
1
10
39.7192606470656
20
3.12208308589138
30
0
41
1
10
39.838113059659
20
3.77171179250513
30
0
41
1
10
39.8975392659557
20
4.08887879800247
30
0
41
1
10
40.0163916785491
20
4.69710495186459
30
0
41
1
10
40.0758178848458
20
4.98812616218348
30
0
41
1
10
40.1946702974392
20
5.53423728012402
30
0
41
1
10
40.2540965037359
20
5.78929588476262
30
0
41
1
10
40.3729489163293
20
6.25579128449607
30
0
41
1
10
40.432375122626
20
6.46721019082591
30
0
41
1
10
40.5512275352194
20
6.84163010963826
30
0
41
1
10
40.6106537415161
20
7.00462962541874
30
0
41
1
10
40.7295061541095
20
7.28060708062859
30
0
41
1
10
40.7889323604062
20
7.39359832786863
30
0
41
1
10
40.9077847729996
20
7.57096057034855
30
0
41
1
10
40.9672109792962
20
7.63535467643408
30
0
41
1
10
41.0860633918896
20
7.71936103184592
30
0
41
1
10
41.1454895981863
20
7.739
30
0
41
1
10
41.2049158044831
20
7.739
30
0
0
SPLINE
5
CD
100
AcDbEntity
8
1
62
256
6
ByLayer
370
13
48
1
60
0
100
AcDbSpline
70
4
71
3
72
8
73
4
40
0
40
0
40
0
40
0
40
1
40
1
40
1
40
1
41
1
10
43.4306210865777
20
7.739
30
0
41
1
10
43.5148255100564
20
7.739
30
0
41
1
10
43.5990299335351
20
7.69944777830762
30
0
41
1
10
43.6832343570138
20
7.6130166132188
30
0
0
SPLINE
5
CE
100
AcDbEntity
8
1
62
256
6
ByLayer
370
13
48
1
60
0
100
AcDbSpline
70
4
71
3
72
78
73
74
40
0
40
0
40
0
40
0
40
0.0312500000000001
40
0.0312500000000001
40
0.0625000000000002
40
0.0625000000000002
40
0.0937500000000003
40
0.0937500000000003
40
0.125
40
0.125
40
0.15625
40
0.15625
40
0.187500000000001
40
0.187500000000001
40
0.203125000000001
40
0.203125000000001
40
0.210937500000001
40
0.210937500000001
40
0.218750000000001
40
0.218750000000001
40
0.25
40
0.25
40
0.28125
40
0.28125
40
0.3125
40
0.3125
40
0.34375
40
0.34375
40
0.375
40
0.375
40
0.40625
40
0.40625
40
0.4375
40
0.4375
40
0.468749999999999
40
0.468749999999999
40
0.499999999999999
40
0.499999999999999
40
0.531249999999999
40
0.531249999999999
40
0.562499999999999
40
0.562499999999999
40
0.593749999999998
40
0.593749999999998
40
0.601562499999999
40
0.601562499999999
40
0.609374999999999
40
0.609374999999999
40
0.624999999999999
40
0.624999999999999
40
0.656249999999999
40
0.656249999999999
40
0.687499999999999
40
0.687499999999999
40
0.718749999999999
40
0.718749999999999
40
0.749999999999999
40
0.749999999999999
40
0.781249999999999
40
0.781249999999999
40
0.812499999999999
40
0.812499999999999
40
0.843749999999999
40
0.843749999999999
40
0.874999999999999
40
0.874999999999999
40
0.90625
40
0.90625
40
0.9375
40
0.9375
40
0.96875
40
0.96875
40
1
40
1
40
1
40
1
41
1
10
35.5
20
-5.03699949719402
30
0
41
1
10
35.5542630417932
20
-5.29482448567239
30
0
41
1
10
35.6085260835864
20
-5.53868703564217
30
0
41
1
10
35.7170521671727
20
-5.99209760667102
30
0
41
1
10
35.7713152089659
20
-6.20163085290187
30
0
41
1
10
35.8798412925522
20
-6.58180804715462
30
0
41
1
10
35.9341043343454
20
-6.75244639247245
30
0
41
1
10
36.0426304179317
20
-7.05243006931619
30
0
41
1
10
36.0968934597249
20
-7.18177917536883
30
0
41
1
10
36.2054195433113
20
-7.39897776721247
30
0
41
1
10
36.2596825851045
20
-7.4868385666708
30
0
41
1
10
36.3682086686908
20
-7.62281595116917
30
0
41
1
10
36.422471710484
20
-7.67094832379411
30
0
41
1
10
36.5038662731737
20
-7.71581245477648
30
0
41
1
10
36.5309977940703
20
-7.72622191849104
30
0
41
1
10
36.5716950754152
20
-7.73540272743983
30
0
41
1
10
36.5852608358634
20
-7.73739122137098
30
0
41
1
10
36.61239235676
20
-7.73929353982058
30
0
41
1
10
36.6259581172084
20
-7.7392169204343
30
0
41
1
10
36.6937869194498
20
-7.73367493798088
30
0
41
1
10
36.7480499612429
20
-7.71256722910701
30
0
41
1
10
36.8565760448293
20
-7.63292922425114
30
0
41
1
10
36.9108390866225
20
-7.57438195733764
30
0
41
1
10
37.0193651702088
20
-7.41692951195441
30
0
41
1
10
37.073628212002
20
-7.31800941893363
30
0
41
1
10
37.1821542955884
20
-7.07853756115037
30
0
41
1
10
37.2364173373816
20
-6.93797624124181
30
0
41
1
10
37.3449434209679
20
-6.61598968336537
30
0
41
1
10
37.399206462761
20
-6.43456308619449
30
0
41
1
10
37.5077325463474
20
-6.03382900717082
30
0
41
1
10
37.5619955881406
20
-5.81452971036012
30
0
41
1
10
37.6705216717269
20
-5.34314949825981
30
0
41
1
10
37.7247847135201
20
-5.09108549556927
30
0
41
1
10
37.8333107971065
20
-4.56100949050389
30
0
41
1
10
37.8875738388996
20
-4.2830202036258
30
0
41
1
10
37.996099922486
20
-3.7090540505713
30
0
41
1
10
38.0503629642791
20
-3.41310151294769
30
0
41
1
10
38.1588890478654
20
-2.81157348928741
30
0
41
1
10
38.2131520896586
20
-2.50601976027434
30
0
41
1
10
38.3216781732449
20
-1.89335124503154
30
0
41
1
10
38.3759412150382
20
-1.58625260179053
30
0
41
1
10
38.4844672986246
20
-0.977674529113614
30
0
41
1
10
38.5387303404177
20
-0.676204300708974
30
0
41
1
10
38.6065591426591
20
-0.306575386347447
30
0
41
1
10
38.6201249031074
20
-0.233006664553415
30
0
41
1
10
38.647256424004
20
-0.0866616977597516
30
0
41
1
10
38.6608221844523
20
-0.0141568009003379
30
0
41
1
10
38.7015194657972
20
0.204238656950565
30
0
41
1
10
38.7286509866938
20
0.351492006102688
30
0
41
1
10
38.8100455493836
20
0.797278412439823
30
0
41
1
10
38.8643085911767
20
1.09987976516507
30
0
41
1
10
38.9728346747631
20
1.70982388310148
30
0
41
1
10
39.0270977165562
20
2.01715649973369
30
0
41
1
10
39.1356238001425
20
2.62925106849559
30
0
41
1
10
39.1898868419357
20
2.9339960059701
30
0
41
1
10
39.2984129255221
20
3.53278579017095
30
0
41
1
10
39.3526759673153
20
3.82680832302867
30
0
41
1
10
39.4612020509016
20
4.39580433846641
30
0
41
1
10
39.5154650926948
20
4.67075345234852
30
0
41
1
10
39.6239911762812
20
5.19374845770062
30
0
41
1
10
39.6782542180743
20
5.44177218567478
30
0
41
1
10
39.7867803016607
20
5.90427206985026
30
0
41
1
10
39.8410433434538
20
6.11873235756701
30
0
41
1
10
39.9495694270402
20
6.50925641321584
30
0
41
1
10
40.0038324688333
20
6.68531328271425
30
0
41
1
10
40.1123585524197
20
6.99632701392503
30
0
41
1
10
40.1666215942129
20
7.1312864575703
30
0
41
1
10
40.2751476777992
20
7.35961185791635
30
0
41
1
10
40.3294107195924
20
7.45298827659809
30
0
41
1
10
40.4379368031787
20
7.59966054185986
30
0
41
1
10
40.4921998449719
20
7.65297176991166
30
0
41
1
10
40.6007259285582
20
7.72263299324032
30
0
41
1
10
40.6549889703514
20
7.739
30
0
41
1
10
40.7092520121446
20
7.739
30
0
0
SPLINE
5
CF
100
AcDbEntity
8
1
62
256
6
ByLayer
370
13
48
1
60
0
100
AcDbSpline
70
4
71
3
72
14
73
10
40
0
40
0
40
0
40
0
40
0.25
40
0.25
40
0.5
40
0.5
40
0.75
40
0.75
40
1
40
1
40
1
40
1
41
1
10
42.9349572942392
20
7.739
30
0
41
1
10
42.9973137161371
20
7.739
30
0
41
1
10
43.059670138035
20
7.71737029416371
30
0
41
1
10
43.1843829818307
20
7.62459273694191
30
0
41
1
10
43.2467394037287
20
7.55341098111788
30
0
41
1
10
43.3714522475244
20
7.35726062273079
30
0
41
1
10
43.4338086694223
20
7.23226354129446
30
0
41
1
10
43.5585215132181
20
6.92723482461091
30
0
41
1
10
43.620877935116
20
6.74718875116398
30
0
41
1
10
43.6832343570139
20
6.54085045479948
30
0
0
SPLINE
5
D0
100
AcDbEntity
8
1
62
256
6
ByLayer
370
13
48
1
60
0
100
AcDbSpline
70
4
71
3
72
76
73
72
40
0
40
0
40
0
40
0
40
0.0312500000000009
40
0.0312500000000009
40
0.0625000000000019
40
0.0625000000000019
40
0.0937500000000028
40
0.0937500000000028
40
0.125000000000004
40
0.125000000000004
40
0.132812500000004
40
0.132812500000004
40
0.140625000000004
40
0.156250000000004
40
0.156250000000004
40
0.187500000000004
40
0.187500000000004
40
0.218750000000004
40
0.218750000000004
40
0.250000000000004
40
0.250000000000004
40
0.281250000000004
40
0.281250000000004
40
0.312500000000004
40
0.312500000000004
40
0.343750000000004
40
0.343750000000004
40
0.375000000000004
40
0.375000000000004
40
0.406250000000004
40
0.406250000000004
40
0.437500000000004
40
0.437500000000004
40
0.468750000000004
40
0.468750000000004
40
0.500000000000004
40
0.500000000000004
40
0.531250000000004
40
0.531250000000004
40
0.562500000000004
40
0.562500000000004
40
0.570312500000004
40
0.570312500000004
40
0.578125000000004
40
0.593750000000004
40
0.593750000000004
40
0.625000000000003
40
0.625000000000003
40
0.656250000000003
40
0.656250000000003
40
0.687500000000003
40
0.687500000000003
40
0.718750000000002
40
0.718750000000002
40
0.750000000000002
40
0.750000000000002
40
0.781250000000002
40
0.781250000000002
40
0.812500000000002
40
0.812500000000002
40
0.843750000000001
40
0.843750000000001
40
0.875000000000001
40
0.875000000000001
40
0.906250000000001
40
0.906250000000001
40
0.937500000000001
40
0.937500000000001
40
0.96875
40
0.96875
40
1
40
1
40
1
40
1
41
1
10
35.5
20
-6.92248277352721
30
0
41
1
10
35.5490998772897
20
-7.0565344350014
30
0
41
1
10
35.5981997545793
20
-7.17367526410828
30
0
41
1
10
35.6963995091586
20
-7.37397311416598
30
0
41
1
10
35.7454993864482
20
-7.45713682467192
30
0
41
1
10
35.8436991410275
20
-7.59064957045422
30
0
41
1
10
35.8927990183172
20
-7.64100793153585
30
0
41
1
10
35.9909987728965
20
-7.71115885119528
30
0
41
1
10
36.0400986501861
20
-7.73096172672285
30
0
41
1
10
36.1014734967982
20
-7.73850396046839
30
0
41
1
10
36.1137484661206
20
-7.73915387654247
30
0
41
1
10
36.1382984047654
20
-7.73878532235864
30
0
41
1
10
36.1751233127327
20
-7.73571664032107
30
0
41
1
10
36.2119482206999
20
-7.72486311035107
30
0
41
1
10
36.2855980366343
20
-7.69218935397839
30
0
41
1
10
36.334697913924
20
-7.65575880243506
30
0
41
1
10
36.4328976685033
20
-7.55098752491696
30
0
41
1
10
36.481997545793
20
-7.4826368358639
30
0
41
1
10
36.5801973003722
20
-7.31233705405202
30
0
41
1
10
36.6292971776619
20
-7.21037989403155
30
0
41
1
10
36.7274969322412
20
-6.97240218837086
30
0
41
1
10
36.7765968095308
20
-6.8363770966933
30
0
41
1
10
36.8747965641102
20
-6.53121718411577
30
0
41
1
10
36.9238964413998
20
-6.36208259823766
30
0
41
1
10
37.0220961959791
20
-5.99314499147587
30
0
41
1
10
37.0711960732687
20
-5.79334747736323
30
0
41
1
10
37.169395827848
20
-5.36692781739779
30
0
41
1
10
37.2184957051376
20
-5.14031593752827
30
0
41
1
10
37.3166954597169
20
-4.66527426141491
30
0
41
1
10
37.3657953370066
20
-4.41685802911783
30
0
41
1
10
37.4639950915859
20
-3.90401333780955
30
0
41
1
10
37.5130949688755
20
-3.63959967901744
30
0
41
1
10
37.6112947234548
20
-3.10093096031039
30
0
41
1
10
37.6603946007445
20
-2.82668979365346
30
0
41
1
10
37.7585943553238
20
-2.2744634450782
30
0
41
1
10
37.8076942326134
20
-1.99648952241483
30
0
41
1
10
37.9058939871927
20
-1.44243817026953
30
0
41
1
10
37.9549938644824
20
-1.16636836750027
30
0
41
1
10
38.0531936190616
20
-0.621022457450607
30
0
41
1
10
38.1022934963513
20
-0.351750135369201
30
0
41
1
10
38.1636683429633
20
-0.0218949147183309
30
0
41
1
10
38.1759433122858
20
0.0436131215991793
30
0
41
1
10
38.2004932509306
20
0.175701680814314
30
0
41
1
10
38.2373181588978
20
0.374827793723739
30
0
41
1
10
38.2741430668651
20
0.576684238324674
30
0
41
1
10
38.3477928827995
20
0.983287735917287
30
0
41
1
10
38.3968927600892
20
1.25823805922525
30
0
41
1
10
38.4950925146684
20
1.81121046774336
30
0
41
1
10
38.5441923919581
20
2.08922578888704
30
0
41
1
10
38.6423921465374
20
2.64283972024293
30
0
41
1
10
38.6914920238271
20
2.91842782163661
30
0
41
1
10
38.7896917784063
20
3.46116718524965
30
0
41
1
10
38.838791655696
20
3.72830501336563
30
0
41
1
10
38.9369914102753
20
4.24795519296143
30
0
41
1
10
38.9860912875649
20
4.50045276838398
30
0
41
1
10
39.0842910421442
20
4.98489529432933
30
0
41
1
10
39.1333909194339
20
5.21682621602542
30
0
41
1
10
39.2315906740131
20
5.65491028669265
30
0
41
1
10
39.2806905513028
20
5.86105228116404
30
0
41
1
10
39.3788903058821
20
6.24342116249312
30
0
41
1
10
39.4279901831718
20
6.41964140285057
30
0
41
1
10
39.526189937751
20
6.73938992632876
30
0
41
1
10
39.5752898150407
20
6.88291681051501
30
0
41
1
10
39.67348956962
20
7.13598484938382
30
0
41
1
10
39.7225894469096
20
7.24552957388983
30
0
41
1
10
39.8207892014889
20
7.43078801737389
30
0
41
1
10
39.8698890787785
20
7.506509154779
30
0
41
1
10
39.9680888333578
20
7.62555381799729
30
0
41
1
10
40.0171887106475
20
7.66888702901664
30
0
41
1
10
40.1153884652268
20
7.72560495417289
30
0
41
1
10
40.1644883425164
20
7.739
30
0
41
1
10
40.2135882198061
20
7.739
30
0
0
SPLINE
5
D1
100
AcDbEntity
8
1
62
256
6
ByLayer
370
13
48
1
60
0
100
AcDbSpline
70
4
71
3
72
22
73
18
40
0
40
0
40
0
40
0
40
0.125
40
0.125
40
0.25
40
0.25
40
0.375
40
0.375
40
0.5
40
0.5
40
0.625
40
0.625
40
0.75
40
0.75
40
0.875
40
0.875
40
1
40
1
40
1
40
1
41
1
10
42.4392935019007
20
7.739
30
0
41
1
10
42.4911243708637
20
7.739
30
0
41
1
10
42.5429552398269
20
7.72407028962013
30
0
41
1
10
42.6466169777529
20
7.66067974689975
30
0
41
1
10
42.6984478467159
20
7.61220537784089
30
0
41
1
10
42.802109584642
20
7.478927254968
30
0
41
1
10
42.8539404536051
20
7.39411103960924
30
0
41
1
10
42.9576021915312
20
7.18664795015954
30
0
41
1
10
43.0094330604943
20
7.06399207005407
30
0
41
1
10
43.1130947984203
20
6.78097682825793
30
0
41
1
10
43.1649256673834
20
6.62061414864698
30
0
41
1
10
43.2685874053094
20
6.26413400614496
30
0
41
1
10
43.3204182742725
20
6.06802030923885
30
0
41
1
10
43.4240800121986
20
5.64380591415824
30
0
41
1
10
43.4759108811617
20
5.41571606562644
30
0
41
1
10
43.5795726190877
20
4.93291546248184
30
0
41
1
10
43.6314034880508
20
4.67822108729578
30
0
41
1
10
43.6832343570139
20
4.41349050913959
30
0
0
SPLINE
5
D2
100
AcDbEntity
8
1
62
256
6
ByLayer
370
13
48
1
60
0
100
AcDbSpline
70
4
71
3
72
72
73
68
40
0
40
0
40
0
40
0
40
0.0156250000000001
40
0.0156250000000001
40
0.0234375000000001
40
0.0234375000000001
40
0.0312500000000001
40
0.0312500000000001
40
0.0625000000000002
40
0.0625000000000002
40
0.0937500000000003
40
0.0937500000000003
40
0.125
40
0.125
40
0.156250000000001
40
0.156250000000001
40
0.187500000000001
40
0.187500000000001
40
0.218750000000001
40
0.218750000000001
40
0.250000000000001
40
0.250000000000001
40
0.281250000000001
40
0.281250000000001
40
0.312500000000001
40
0.312500000000001
40
0.343750000000001
40
0.343750000000001
40
0.375000000000001
40
0.375000000000001
40
0.406250000000001
40
0.406250000000001
40
0.437500000000001
40
0.437500000000001
40
0.500000000000001
40
0.500000000000001
40
0.515625000000001
40
0.515625000000001
40
0.531250000000001
40
0.531250000000001
40
0.562500000000001
40
0.562500000000001
40
0.593750000000001
40
0.593750000000001
40
0.625000000000001
40
0.625000000000001
40
0.656250000000001
40
0.656250000000001
40
0.6875
40
0.6875
40
0.71875
40
0.71875
40
0.75
40
0.75
40
0.78125
40
0.78125
40
0.8125
40
0.8125
40
0.84375
40
0.84375
40
0.875
40
0.875
40
0.90625
40
0.90625
40
0.9375
40
0.9375
40
1
40
1
40
1
40
1
41
1
10
35.5
20
-7.70846455255673
30
0
41
1
10
35.5219683563931
20
-7.71926075943921
30
0
41
1
10
35.5439367127861
20
-7.72710633006145
30
0
41
1
10
35.5768892473757
20
-7.73465476648289
30
0
41
1
10
35.5878734255723
20
-7.73646778229329
30
0
41
1
10
35.6098417819653
20
-7.73872394611638
30
0
41
1
10
35.6208259601619
20
-7.73916797985882
30
0
41
1
10
35.6757468511445
20
-7.73804767319456
30
0
41
1
10
35.7196835639306
20
-7.72637842279335
30
0
41
1
10
35.8075569895029
20
-7.6792384894739
30
0
41
1
10
35.851493702289
20
-7.64376187652979
30
0
41
1
10
35.9393671278613
20
-7.54718041770002
30
0
41
1
10
35.9833038406474
20
-7.48606987802032
30
0
41
1
10
36.0711772662196
20
-7.33701039451856
30
0
41
1
10
36.1151139790057
20
-7.24905672712009
30
0
41
1
10
36.2029874045779
20
-7.04587666040985
30
0
41
1
10
36.2469241173641
20
-6.93064726306727
30
0
41
1
10
36.3347975429364
20
-6.67337597621773
30
0
41
1
10
36.3787342557224
20
-6.53133343874404
30
0
41
1
10
36.4666076812947
20
-6.22184759777059
30
0
41
1
10
36.5105443940808
20
-6.05440633449368
30
0
41
1
10
36.598417819653
20
-5.69646634273039
30
0
41
1
10
36.6423545324392
20
-5.50597228386764
30
0
41
1
10
36.7302279580114
20
-5.10510028230161
30
0
41
1
10
36.7741646707975
20
-4.89472915979513
30
0
41
1
10
36.8620380963698
20
-4.45793229023843
30
0
41
1
10
36.9059748091559
20
-4.23151469579858
30
0
41
1
10
36.9938482347281
20
-3.76688177504775
30
0
41
1
10
37.0377849475142
20
-3.52867494111356
30
0
41
1
10
37.1256583730865
20
-3.04489444542429
30
0
41
1
10
37.1695950858726
20
-2.79932864819551
30
0
41
1
10
37.2574685114448
20
-2.30518612659765
30
0
41
1
10
37.3014052242309
20
-2.05661587169712
30
0
41
1
10
37.4332153625893
20
-1.31248343573114
30
0
41
1
10
37.5210887881616
20
-0.818798096566184
30
0
41
1
10
37.6309305701269
20
-0.221268521544772
30
0
41
1
10
37.6528989265199
20
-0.102892533978746
30
0
41
1
10
37.696835639306
20
0.132343283200043
30
0
41
1
10
37.7188039956991
20
0.251065379335017
30
0
41
1
10
37.7847090648783
20
0.610057852276867
30
0
41
1
10
37.8286457776645
20
0.853173058242049
30
0
41
1
10
37.9165192032367
20
1.34392419245799
30
0
41
1
10
37.9604559160228
20
1.59155741136018
30
0
41
1
10
38.048329341595
20
2.08772407150121
30
0
41
1
10
38.0922660543812
20
2.33625281624484
30
0
41
1
10
38.1801394799534
20
2.83013509830849
30
0
41
1
10
38.2240761927395
20
3.07548209638983
30
0
41
1
10
38.3119496183118
20
3.55863994094037
30
0
41
1
10
38.3558863310979
20
3.79644287945456
30
0
41
1
10
38.4437597566701
20
4.26008503423878
30
0
41
1
10
38.4876964694562
20
4.48591575212012
30
0
41
1
10
38.5755698950285
20
4.92136866274194
30
0
41
1
10
38.6195066078146
20
5.1309827391832
30
0
41
1
10
38.7073800333868
20
5.53019346091853
30
0
41
1
10
38.751316746173
20
5.71978336131963
30
0
41
1
10
38.8391901717451
20
6.07579941981888
30
0
41
1
10
38.8831268845313
20
6.24222101127413
30
0
41
1
10
38.9710003101036
20
6.54958929168399
30
0
41
1
10
39.0149370228897
20
6.69053405444637
30
0
41
1
10
39.1028104484619
20
6.94557147923493
30
0
41
1
10
39.1467471612481
20
7.05966489656484
30
0
41
1
10
39.2346205868203
20
7.26057371116622
30
0
41
1
10
39.2785572996064
20
7.34739219246438
30
0
41
1
10
39.3664307251787
20
7.49421719602691
30
0
41
1
10
39.4103674379648
20
7.55422849781465
30
0
41
1
10
39.5421775763231
20
7.69590059782544
30
0
41
1
10
39.6300510018953
20
7.739
30
0
41
1
10
39.7179244274676
20
7.739
30
0
0
SPLINE
5
D3
100
AcDbEntity
8
1
62
256
6
ByLayer
370
13
48
1
60
0
100
AcDbSpline
70
4
71
3
72
22
73
18
40
0
40
0
40
0
40
0
40
0.125
40
0.125
40
0.25
40
0.25
40
0.375
40
0.375
40
0.5
40
0.5
40
0.625
40
0.625
40
0.75
40
0.75
40
0.875
40
0.875
40
1
40
1
40
1
40
1
41
1
10
41.9436297095622
20
7.739
30
0
41
1
10
42.0161132365393
20
7.739
30
0
41
1
10
42.0885967635165
20
7.70974053811034
30
0
41
1
10
42.2335638174708
20
7.58308930226917
30
0
41
1
10
42.306047344448
20
7.48562651655701
30
0
41
1
10
42.4510143984023
20
7.21686597623696
30
0
41
1
10
42.5234979253794
20
7.04551582858568
30
0
41
1
10
42.6684649793337
20
6.62926721366983
30
0
41
1
10
42.7409485063109
20
6.38435830815146
30
0
41
1
10
42.8859155602652
20
5.82829558843929
30
0
41
1
10
42.9583990872424
20
5.51718473339622
30
0
41
1
10
43.1033661411967
20
4.84257662690774
30
0
41
1
10
43.1758496681738
20
4.47916612840635
30
0
41
1
10
43.3208167221281
20
3.71836792200517
30
0
41
1
10
43.3933002491052
20
3.32108315717306
30
0
41
1
10
43.5382673030595
20
2.51253257636952
30
0
41
1
10
43.6107508300367
20
2.1013545610177
30
0
41
1
10
43.6832343570139
20
1.6924887760899
30
0
0
SPLINE
5
D4
100
AcDbEntity
8
1
62
256
6
ByLayer
370
13
48
1
60
0
100
AcDbSpline
70
4
71
3
72
44
73
40
40
0
40
0
40
0
40
0
40
0.0625000000000007
40
0.0625000000000007
40
0.125000000000001
40
0.125000000000001
40
0.187500000000002
40
0.187500000000002
40
0.250000000000003
40
0.250000000000003
40
0.312500000000003
40
0.312500000000003
40
0.375000000000004
40
0.375000000000004
40
0.437500000000005
40
0.437500000000005
40
0.445312500000005
40
0.445312500000005
40
0.453125000000005
40
0.453125000000005
40
0.468750000000004
40
0.468750000000004
40
0.500000000000004
40
0.500000000000004
40
0.562500000000003
40
0.562500000000003
40
0.625000000000003
40
0.625000000000003
40
0.687500000000002
40
0.687500000000002
40
0.750000000000002
40
0.750000000000002
40
0.812500000000001
40
0.812500000000001
40
0.875000000000001
40
0.875000000000001
40
0.937500000000001
40
0.937500000000001
40
1
40
1
40
1
40
1
41
1
10
35.5
20
-7.46280450968308
30
0
41
1
10
35.5775470965652
20
-7.34253887628023
30
0
41
1
10
35.6550941931304
20
-7.18057099183403
30
0
41
1
10
35.8101883862608
20
-6.7715945077029
30
0
41
1
10
35.887735482826
20
-6.5245554872549
30
0
41
1
10
36.0428296759563
20
-5.9526596609351
30
0
41
1
10
36.1203767725215
20
-5.62785099031481
30
0
41
1
10
36.2754709656519
20
-4.91646853738393
30
0
41
1
10
36.3530180622171
20
-4.53001178852455
30
0
41
1
10
36.5081122553474
20
-3.71766343280106
30
0
41
1
10
36.5856593519127
20
-3.29191579396945
30
0
41
1
10
36.740753545043
20
-2.42549470331863
30
0
41
1
10
36.8183006416083
20
-1.9849422159717
30
0
41
1
10
36.9733948347386
20
-1.11143995860357
30
0
41
1
10
37.0509419313038
20
-0.678557246187012
30
0
41
1
10
37.1381824149396
20
-0.205760099320798
30
0
41
1
10
37.1478758020103
20
-0.153420563046694
30
0
41
1
10
37.1672625761516
20
-0.0491561913194971
30
0
41
1
10
37.1769559632223
20
0.0026251157162847
30
0
41
1
10
37.2060361244342
20
0.1586466064077
30
0
41
1
10
37.2254228985755
20
0.263507070840973
30
0
41
1
10
37.2835832209993
20
0.580290427452127
30
0
41
1
10
37.322356769282
20
0.794426655475661
30
0
41
1
10
37.4386774141298
20
1.44256734886145
30
0
41
1
10
37.5162245106949
20
1.88244743725497
30
0
41
1
10
37.6713187038253
20
2.75721705028957
30
0
41
1
10
37.7488658003905
20
3.19200575416352
30
0
41
1
10
37.9039599935209
20
4.03252309077118
30
0
41
1
10
37.9815070900861
20
4.43811179625237
30
0
41
1
10
38.1366012832165
20
5.19645347886336
30
0
41
1
10
38.2141483797816
20
5.54907207222391
30
0
41
1
10
38.369242572912
20
6.18229667403023
30
0
41
1
10
38.4467896694772
20
6.46282278731655
30
0
41
1
10
38.6018838626076
20
6.94067639909662
30
0
41
1
10
38.6794309591727
20
7.13800321077926
30
0
41
1
10
38.8345251523032
20
7.44753328035563
30
0
41
1
10
38.9120722488684
20
7.55980331456121
30
0
41
1
10
39.0671664419987
20
7.70548737326743
30
0
41
1
10
39.1447135385639
20
7.739
30
0
41
1
10
39.2222606351291
20
7.739
30
0
0
SPLINE
5
D5
100
AcDbEntity
8
1
62
256
6
ByLayer
370
13
48
1
60
0
100
AcDbSpline
70
4
71
3
72
42
73
38
40
0
40
0
40
0
40
0
40
0.0625
40
0.0625
40
0.125
40
0.125
40
0.1875
40
0.1875
40
0.25
40
0.25
40
0.3125
40
0.3125
40
0.375
40
0.375
40
0.4375
40
0.4375
40
0.5
40
0.5
40
0.562500000000001
40
0.562500000000001
40
0.625000000000001
40
0.625000000000001
40
0.687500000000001
40
0.687500000000001
40
0.750000000000001
40
0.750000000000001
40
0.812500000000001
40
0.812500000000001
40
0.875000000000001
40
0.875000000000001
40
0.906250000000001
40
0.906250000000001
40
0.921875000000001
40
0.921875000000001
40
0.937500000000001
40
0.937500000000001
40
1
40
1
40
1
40
1
41
1
10
41.4479659172237
20
7.739
30
0
41
1
10
41.4945340097194
20
7.739
30
0
41
1
10
41.541102102215
20
7.72695292419081
30
0
41
1
10
41.6342382872062
20
7.67607492111978
30
0
41
1
10
41.6808063797018
20
7.63723606491473
30
0
41
1
10
41.7739425646931
20
7.53062890182852
30
0
41
1
10
41.8205106571887
20
7.46285304967481
30
0
41
1
10
41.91364684218
20
7.29702113104133
30
0
41
1
10
41.9602149346756
20
7.19895901252099
30
0
41
1
10
42.0533511196668
20
6.9722070462993
30
0
41
1
10
42.0999192121625
20
6.84351375814609
30
0
41
1
10
42.1930553971538
20
6.55630182392332
30
0
41
1
10
42.2396234896494
20
6.39778321594318
30
0
41
1
10
42.3327596746406
20
6.05292693485023
30
0
41
1
10
42.3793277671363
20
5.86659314194128
30
0
41
1
10
42.4724639521275
20
5.46925875471371
30
0
41
1
10
42.5190320446232
20
5.25826559051248
30
0
41
1
10
42.6121682296144
20
4.81573923613755
30
0
41
1
10
42.65873632211
20
4.58421609469801
30
0
41
1
10
42.7518725071013
20
4.10546470534101
30
0
41
1
10
42.798440599597
20
3.85824774986722
30
0
41
1
10
42.8915767845883
20
3.35332602778007
30
0
41
1
10
42.9381448770838
20
3.09563229218648
30
0
41
1
10
43.031281062075
20
2.57501599710659
30
0
41
1
10
43.0778491545707
20
2.312102897606
30
0
41
1
10
43.1709853395619
20
1.78603639958507
30
0
41
1
10
43.2175534320576
20
1.52289001240868
30
0
41
1
10
43.3106896170488
20
1.00082498352609
30
0
41
1
10
43.3572577095445
20
0.741910550617746
30
0
41
1
10
43.4271098482879
20
0.359543486685482
30
0
41
1
10
43.4503938945358
20
0.233082799928013
30
0
41
1
10
43.4853199639074
20
0.0451839949392649
30
0
41
1
10
43.4969619870313
20
-0.0169586166345823
30
0
41
1
10
43.5202460332791
20
-0.142043546310589
30
0
41
1
10
43.531888056403
20
-0.204887850633668
30
0
41
1
10
43.5900981720226
20
-0.52049867061055
30
0
41
1
10
43.6366662645182
20
-0.777463008905301
30
0
41
1
10
43.6832343570138
20
-1.03712612628158
30
0
0
SPLINE
5
D6
100
AcDbEntity
8
1
62
256
6
ByLayer
370
13
48
1
60
0
100
AcDbSpline
70
4
71
3
72
42
73
38
40
0
40
0
40
0
40
0
40
0.0625
40
0.0625
40
0.125
40
0.125
40
0.1875
40
0.1875
40
0.25
40
0.25
40
0.3125
40
0.3125
40
0.34375
40
0.34375
40
0.359375
40
0.359375
40
0.375
40
0.375
40
0.4375
40
0.4375
40
0.5
40
0.5
40
0.5625
40
0.5625
40
0.625
40
0.625
40
0.6875
40
0.6875
40
0.75
40
0.75
40
0.8125
40
0.8125
40
0.875
40
0.875
40
0.9375
40
0.9375
40
1
40
1
40
1
40
1
41
1
10
35.5000000000001
20
-6.12462194078483
30
0
41
1
10
35.5672207675582
20
-5.86811908525419
30
0
41
1
10
35.6344415351163
20
-5.58309143643578
30
0
41
1
10
35.7688830702326
20
-4.96671059246077
30
0
41
1
10
35.8361038377907
20
-4.63541486960784
30
0
41
1
10
35.970545372907
20
-3.94082310313408
30
0
41
1
10
36.0377661404651
20
-3.57759754838736
30
0
41
1
10
36.1722076755814
20
-2.83502753591028
30
0
41
1
10
36.2394284431395
20
-2.45574758597078
30
0
41
1
10
36.3738699782558
20
-1.69640899826246
30
0
41
1
10
36.441090745814
20
-1.3163947636786
30
0
41
1
10
36.5419218971512
20
-0.755628023510127
30
0
41
1
10
36.5755322809302
20
-0.570226746861124
30
0
41
1
10
36.6259478565988
20
-0.295412364461612
30
0
41
1
10
36.6427530484884
20
-0.204353882258772
30
0
41
1
10
36.6763634322674
20
-0.0234775312418378
30
0
41
1
10
36.693168624157
20
0.0661430035576132
30
0
41
1
10
36.7771945836047
20
0.519303004269489
30
0
41
1
10
36.8444153511628
20
0.8917055183949
30
0
41
1
10
36.9788568862791
20
1.64540597456451
30
0
41
1
10
37.0460776538372
20
2.02667734715021
30
0
41
1
10
37.1805191889534
20
2.78426978207199
30
0
41
1
10
37.2477399565116
20
3.16053968384995
30
0
41
1
10
37.3821814916279
20
3.89246667710552
30
0
41
1
10
37.449402259186
20
4.24805573342968
30
0
41
1
10
37.5838437943023
20
4.92296936978502
30
0
41
1
10
37.6510645618604
20
5.24222525175625
30
0
41
1
10
37.7855060969766
20
5.83095193876801
30
0
41
1
10
37.8527268645348
20
6.10037233495561
30
0
41
1
10
37.9871683996511
20
6.57989706823545
30
0
41
1
10
38.0543891672092
20
6.7899825674269
30
0
41
1
10
38.1888307023255
20
7.14637705669179
30
0
41
1
10
38.2560514698836
20
7.29270063936241
30
0
41
1
10
38.3904930049999
20
7.52224047093515
30
0
41
1
10
38.4577137725581
20
7.60549569956024
30
0
41
1
10
38.5921553076744
20
7.71385091780164
30
0
41
1
10
38.6593760752324
20
7.739
30
0
41
1
10
38.7265968427906
20
7.739
30
0
0
SPLINE
5
D7
100
AcDbEntity
8
1
62
256
6
ByLayer
370
13
48
1
60
0
100
AcDbSpline
70
4
71
3
72
40
73
36
40
0
40
0
40
0
40
0
40
0.0625
40
0.0625
40
0.125
40
0.125
40
0.1875
40
0.1875
40
0.25
40
0.25
40
0.3125
40
0.3125
40
0.375
40
0.375
40
0.4375
40
0.4375
40
0.5
40
0.5
40
0.5625
40
0.5625
40
0.625
40
0.625
40
0.6875
40
0.6875
40
0.71875
40
0.71875
40
0.75
40
0.75
40
0.8125
40
0.8125
40
0.875
40
0.875
40
0.9375
40
0.9375
40
1
40
1
40
1
40
1
41
1
10
40.9523021248852
20
7.739
30
0
41
1
10
41.0091965463879
20
7.739
30
0
41
1
10
41.0660909678906
20
7.72100300232026
30
0
41
1
10
41.1798798108959
20
7.64420710358868
30
0
41
1
10
41.2367742323986
20
7.58538667445657
30
0
41
1
10
41.3505630754039
20
7.42345767666197
30
0
41
1
10
41.4074574969067
20
7.32033005663538
30
0
41
1
10
41.521246339912
20
7.06828736732424
30
0
41
1
10
41.5781407614147
20
6.91936030490768
30
0
41
1
10
41.6919296044201
20
6.57668994727285
30
0
41
1
10
41.7488240259227
20
6.38294563387385
30
0
41
1
10
41.8626128689282
20
5.95429145393456
30
0
41
1
10
41.9195072904308
20
5.71939324885426
30
0
41
1
10
42.0332961334362
20
5.21460557116848
30
0
41
1
10
42.0901905549388
20
4.94473896264338
30
0
41
1
10
42.2039793979442
20
4.37818550738464
30
0
41
1
10
42.2608738194469
20
4.0815282942286
30
0
41
1
10
42.3746626624522
20
3.47075437028025
30
0
41
1
10
42.4315570839549
20
3.15666810207978
30
0
41
1
10
42.5453459269602
20
2.52066167730922
30
0
41
1
10
42.602240348463
20
2.19876723961849
30
0
41
1
10
42.7160291914684
20
1.5561723047297
30
0
41
1
10
42.7729236129709
20
1.23548925214229
30
0
41
1
10
42.858265245225
20
0.761188452087623
30
0
41
1
10
42.8867124559764
20
0.604197399155197
30
0
41
1
10
42.943606877479
20
0.293251526462456
30
0
41
1
10
42.9720540882303
20
0.139496414780467
30
0
41
1
10
43.0573957204843
20
-0.317373153055541
30
0
41
1
10
43.114290141987
20
-0.629425834650647
30
0
41
1
10
43.2280789849924
20
-1.26231660161704
30
0
41
1
10
43.2849734064952
20
-1.58314626904422
30
0
41
1
10
43.3987622495005
20
-2.22579669576129
30
0
41
1
10
43.4556566710031
20
-2.54759975329895
30
0
41
1
10
43.5694455140085
20
-3.18315865017763
30
0
41
1
10
43.6263399355112
20
-3.49688857840294
30
0
41
1
10
43.6832343570138
20
-3.80178418457081
30
0
0
SPLINE
5
D8
100
AcDbEntity
8
1
62
256
6
ByLayer
370
13
48
1
60
0
100
AcDbSpline
70
4
71
3
72
40
73
36
40
0
40
0
40
0
40
0
40
0.0625
40
0.0625
40
0.125
40
0.125
40
0.1875
40
0.1875
40
0.25
40
0.25
40
0.28125
40
0.28125
40
0.3125
40
0.3125
40
0.375
40
0.375
40
0.4375
40
0.4375
40
0.5
40
0.5
40
0.5625
40
0.5625
40
0.625
40
0.625
40
0.6875
40
0.6875
40
0.75
40
0.75
40
0.8125
40
0.8125
40
0.875
40
0.875
40
0.9375
40
0.9375
40
1
40
1
40
1
40
1
41
1
10
35.5
20
-3.80178856994243
30
0
41
1
10
35.5568944385511
20
-3.49689295715336
30
0
41
1
10
35.6137888771022
20
-3.18316299391881
30
0
41
1
10
35.7275777542044
20
-2.54760397958796
30
0
41
1
10
35.7844721927554
20
-2.22580083967671
30
0
41
1
10
35.8982610698576
20
-1.58315021307314
30
0
41
1
10
35.9551555084088
20
-1.26232042819797
30
0
41
1
10
36.0689443855109
20
-0.62942940424935
30
0
41
1
10
36.125838824062
20
-0.317376583167857
30
0
41
1
10
36.2111804818886
20
0.139493201403923
30
0
41
1
10
36.2396277011641
20
0.29324828620625
30
0
41
1
10
36.2965221397152
20
0.604194210344872
30
0
41
1
10
36.3249693589908
20
0.76118529254822
30
0
41
1
10
36.4103110168175
20
1.23548619102684
30
0
41
1
10
36.4672054553685
20
1.55616932347346
30
0
41
1
10
36.5809943324707
20
2.19876444427058
30
0
41
1
10
36.6378887710217
20
2.52065898801189
30
0
41
1
10
36.7516776481239
20
3.15666564573783
30
0
41
1
10
36.808572086675
20
3.47075204082333
30
0
41
1
10
36.9223609637771
20
4.0815262312457
30
0
41
1
10
36.9792554023282
20
4.37818358395054
30
0
41
1
10
37.0930442794304
20
4.94473732095634
30
0
41
1
10
37.1499387179815
20
5.21460407162729
30
0
41
1
10
37.2637275950837
20
5.71939202572318
30
0
41
1
10
37.3206220336347
20
5.9542903650167
30
0
41
1
10
37.4344109107369
20
6.38294479609905
30
0
41
1
10
37.491305349288
20
6.57668922639172
30
0
41
1
10
37.6050942263902
20
6.91935979361514
30
0
41
1
10
37.6619886649412
20
7.06828694871336
30
0
41
1
10
37.7757775420434
20
7.3203297955252
30
0
41
1
10
37.8326719805945
20
7.42345748038039
30
0
41
1
10
37.9464608576967
20
7.58538657960611
30
0
41
1
10
38.0033552962478
20
7.64420704536624
30
0
41
1
10
38.11714417335
20
7.72100299150705
30
0
41
1
10
38.174038611901
20
7.739
30
0
41
1
10
38.2309330504521
20
7.739
30
0
0
SPLINE
5
D9
100
AcDbEntity
8
1
62
256
6
ByLayer
370
13
48
1
60
0
100
AcDbSpline
70
4
71
3
72
42
73
38
40
0
40
0
40
0
40
0
40
0.0624999999999994
40
0.0624999999999994
40
0.124999999999999
40
0.124999999999999
40
0.187499999999998
40
0.187499999999998
40
0.249999999999998
40
0.249999999999998
40
0.312499999999997
40
0.312499999999997
40
0.374999999999996
40
0.374999999999996
40
0.437499999999996
40
0.437499999999996
40
0.499999999999995
40
0.499999999999995
40
0.562499999999995
40
0.562499999999995
40
0.624999999999994
40
0.624999999999994
40
0.640624999999994
40
0.640624999999994
40
0.656249999999994
40
0.656249999999994
40
0.687499999999994
40
0.687499999999994
40
0.749999999999996
40
0.749999999999996
40
0.812499999999997
40
0.812499999999997
40
0.874999999999998
40
0.874999999999998
40
0.937499999999999
40
0.937499999999999
40
1
40
1
40
1
40
1
41
1
10
40.4566383325467
20
7.739
30
0
41
1
10
40.5238590830564
20
7.739
30
0
41
1
10
40.5910798335662
20
7.71385093060661
30
0
41
1
10
40.7255213345857
20
7.6054957691978
30
0
41
1
10
40.7927420850954
20
7.52224058466146
30
0
41
1
10
40.9271835861148
20
7.29270087492878
30
0
41
1
10
40.9944043366245
20
7.14637737004969
30
0
41
1
10
41.1288458376441
20
6.78998306756179
30
0
41
1
10
41.1960665881538
20
6.579897677351
30
0
41
1
10
41.3305080891732
20
6.10037318523379
30
0
41
1
10
41.3977288396829
20
5.83095292116917
30
0
41
1
10
41.5321703407024
20
5.24222650903116
30
0
41
1
10
41.5993910912122
20
4.9229707697134
30
0
41
1
10
41.7338325922316
20
4.24805741456692
30
0
41
1
10
41.8010533427413
20
3.89246849669769
30
0
41
1
10
41.9354948437608
20
3.16054176248647
30
0
41
1
10
42.0027155942706
20
2.78427198122961
30
0
41
1
10
42.13715709529
20
2.02667975933258
30
0
41
1
10
42.2043778457997
20
1.64540847923126
30
0
41
1
10
42.3388193468192
20
0.891708174834775
30
0
41
1
10
42.406040097329
20
0.519305720022032
30
0
41
1
10
42.4900660354662
20
0.0661457725073262
30
0
41
1
10
42.5068712230935
20
-0.0234747458461015
30
0
41
1
10
42.5404815983484
20
-0.204351025211963
30
0
41
1
10
42.5572867859759
20
-0.29540947200914
30
0
41
1
10
42.6077023488582
20
-0.570223749830376
30
0
41
1
10
42.641312724113
20
-0.755624958941155
30
0
41
1
10
42.7421438498776
20
-1.31639150625693
30
0
41
1
10
42.8093646003873
20
-1.69640562529514
30
0
41
1
10
42.9438061014068
20
-2.45574402598518
30
0
41
1
10
43.0110268519165
20
-2.83502390458176
30
0
41
1
10
43.145468352936
20
-3.57759383487613
30
0
41
1
10
43.2126891034457
20
-3.9408193789119
30
0
41
1
10
43.3471306044652
20
-4.63541119506436
30
0
41
1
10
43.414351354975
20
-4.96670697838405
30
0
41
1
10
43.5487928559944
20
-5.58308801586975
30
0
41
1
10
43.6160136065041
20
-5.86811579772035
30
0
41
1
10
43.6832343570138
20
-6.12461881820238
30
0
0
SPLINE
5
DA
100
AcDbEntity
8
1
62
256
6
ByLayer
370
13
48
1
60
0
100
AcDbSpline
70
4
71
3
72
42
73
38
40
0
40
0
40
0
40
0
40
0.0625
40
0.0625
40
0.0781249999999998
40
0.0781249999999998
40
0.0937499999999994
40
0.0937499999999994
40
0.125
40
0.125
40
0.1875
40
0.1875
40
0.25
40
0.25
40
0.3125
40
0.3125
40
0.375
40
0.375
40
0.4375
40
0.4375
40
0.5
40
0.5
40
0.5625
40
0.5625
40
0.625
40
0.625
40
0.6875
40
0.6875
40
0.75
40
0.75
40
0.8125
40
0.8125
40
0.875
40
0.875
40
0.9375
40
0.9375
40
1
40
1
40
1
40
1
41
1
10
35.5
20
-1.03713068924333
30
0
41
1
10
35.546568109544
20
-0.777467445557562
30
0
41
1
10
35.5931362190881
20
-0.520502971432734
30
0
41
1
10
35.6513463560182
20
-0.204891974906019
30
0
41
1
10
35.6629883834042
20
-0.142047634932908
30
0
41
1
10
35.6862724381762
20
-0.0169626333963038
30
0
41
1
10
35.6979144655622
20
0.0451799949084943
30
0
41
1
10
35.7328405477201
20
0.233078830695945
30
0
41
1
10
35.7561246024922
20
0.359539540853632
30
0
41
1
10
35.8259767668083
20
0.741906683697437
30
0
41
1
10
35.8725448763524
20
1.0008211808759
30
0
41
1
10
35.9656810954404
20
1.52288636114295
30
0
41
1
10
36.0122492049844
20
1.78603283543933
30
0
41
1
10
36.1053854240725
20
2.31209952847644
30
0
41
1
10
36.1519535336165
20
2.57501273587221
30
0
41
1
10
36.2450897527045
20
3.09562926376313
30
0
41
1
10
36.2916578622486
20
3.35332312426365
30
0
41
1
10
36.3847940813367
20
3.85824510788453
30
0
41
1
10
36.4313621908807
20
4.10546219996857
30
0
41
1
10
36.5244984099687
20
4.58421386780435
30
0
41
1
10
36.5710665195128
20
4.81573715109022
30
0
41
1
10
36.6642027386008
20
5.25826378738543
30
0
41
1
10
36.7107708481449
20
5.46925709163648
30
0
41
1
10
36.803907067233
20
5.86659175030272
30
0
41
1
10
36.850475176777
20
6.0529256745788
30
0
41
1
10
36.943611395865
20
6.39778220370346
30
0
41
1
10
36.9901795054091
20
6.55630092833275
30
0
41
1
10
37.0833157244971
20
6.84351307652813
30
0
41
1
10
37.1298838340412
20
6.97220646199784
30
0
41
1
10
37.2230200531293
20
7.19895860066566
30
0
41
1
10
37.2695881626733
20
7.29702079431732
30
0
41
1
10
37.3627243817614
20
7.4628528400047
30
0
41
1
10
37.4092924913054
20
7.53062874408974
30
0
41
1
10
37.5024287103935
20
7.63723598848256
30
0
41
1
10
37.5489968199375
20
7.67607487407597
30
0
41
1
10
37.6421330390255
20
7.72695291535584
30
0
41
1
10
37.6887011485695
20
7.739
30
0
41
1
10
37.7352692581136
20
7.739
30
0
0
SPLINE
5
DB
100
AcDbEntity
8
1
62
256
6
ByLayer
370
13
48
1
60
0
100
AcDbSpline
70
4
71
3
72
44
73
40
40
0
40
0
40
0
40
0
40
0.0625000000000002
40
0.0625000000000002
40
0.125
40
0.125
40
0.187500000000001
40
0.187500000000001
40
0.250000000000001
40
0.250000000000001
40
0.312500000000001
40
0.312500000000001
40
0.375000000000001
40
0.375000000000001
40
0.437500000000001
40
0.437500000000001
40
0.500000000000001
40
0.500000000000001
40
0.531250000000001
40
0.531250000000001
40
0.546875000000001
40
0.546875000000001
40
0.554687500000001
40
0.554687500000001
40
0.562500000000001
40
0.562500000000001
40
0.625000000000001
40
0.625000000000001
40
0.687500000000001
40
0.687500000000001
40
0.750000000000001
40
0.750000000000001
40
0.8125
40
0.8125
40
0.875
40
0.875
40
0.9375
40
0.9375
40
1
40
1
40
1
40
1
41
1
10
39.9609745402082
20
7.739
30
0
41
1
10
40.038521619725
20
7.739
30
0
41
1
10
40.1160686992418
20
7.70548738808151
30
0
41
1
10
40.2711628582754
20
7.55980339583121
30
0
41
1
10
40.3487099377921
20
7.44753341337241
30
0
41
1
10
40.5038040968257
20
7.13800348605577
30
0
41
1
10
40.5813511763425
20
6.94067676493592
30
0
41
1
10
40.7364453353761
20
6.46282336696422
30
0
41
1
10
40.8139924148929
20
6.18229737687025
30
0
41
1
10
40.9690865739264
20
5.54907303992508
30
0
41
1
10
41.0466336534432
20
5.19645458808202
30
0
41
1
10
41.2017278124768
20
4.43811318780723
30
0
41
1
10
41.2792748919935
20
4.03252462296308
30
0
41
1
10
41.4343690510271
20
3.19200754808739
30
0
41
1
10
41.5119161305439
20
2.75721896518181
30
0
41
1
10
41.6670102895774
20
1.88244956096591
30
0
41
1
10
41.7445573690943
20
1.44256956039493
30
0
41
1
10
41.8608779883694
20
0.794428969493481
30
0
41
1
10
41.8996515281278
20
0.580292770818232
30
0
41
1
10
41.9578118377654
20
0.263509450976358
30
0
41
1
10
41.9771986076445
20
0.158648997593986
30
0
41
1
10
42.0062787624634
20
0.0026275216939098
30
0
41
1
10
42.015972147403
20
-0.0491537680497061
30
0
41
1
10
42.0353589172822
20
-0.153418103912514
30
0
41
1
10
42.0450523022217
20
-0.205757622373937
30
0
41
1
10
42.1322927666782
20
-0.678554610188826
30
0
41
1
10
42.209839846195
20
-1.1114371900801
30
0
41
1
10
42.3649340052285
20
-1.98493922342078
30
0
41
1
10
42.4424810847453
20
-2.42549161947005
30
0
41
1
10
42.5975752437789
20
-3.29191259200908
30
0
41
1
10
42.6751223232957
20
-3.71766020426327
30
0
41
1
10
42.8302164823292
20
-4.53000858777162
30
0
41
1
10
42.907763561846
20
-4.91646539114862
30
0
41
1
10
43.0628577208796
20
-5.62784803716491
30
0
41
1
10
43.1404048003964
20
-5.95265684633264
30
0
41
1
10
43.2954989594299
20
-6.52455302124119
30
0
41
1
10
43.3730460389468
20
-6.77159225153639
30
0
41
1
10
43.5281401979803
20
-7.18056920196818
30
0
41
1
10
43.605687277497
20
-7.34253734260116
30
0
41
1
10
43.6832343570139
20
-7.46280324056653
30
0
0
SPLINE
5
DC
100
AcDbEntity
8
1
62
256
6
ByLayer
370
13
48
1
60
0
100
AcDbSpline
70
4
71
3
72
22
73
18
40
0
40
0
40
0
40
0
40
0.125
40
0.125
40
0.25
40
0.25
40
0.375
40
0.375
40
0.5
40
0.5
40
0.625
40
0.625
40
0.75
40
0.75
40
0.875
40
0.875
40
1
40
1
40
1
40
1
41
1
10
35.5
20
1.69248416008324
30
0
41
1
10
35.572483561074
20
2.10135012082509
30
0
41
1
10
35.644967122148
20
2.51252834642273
30
0
41
1
10
35.7899342442959
20
3.32107939980253
30
0
41
1
10
35.8624178053698
20
3.71836442685154
30
0
41
1
10
36.0073849275178
20
4.47916318162311
30
0
41
1
10
36.0798684885917
20
4.8425739660382
30
0
41
1
10
36.2248356107397
20
5.51718263415214
30
0
41
1
10
36.2973191718136
20
5.82829376462891
30
0
41
1
10
36.4422862939615
20
6.38435699304688
30
0
41
1
10
36.5147698550355
20
6.6292661316383
30
0
41
1
10
36.6597369771834
20
7.04551514835777
30
0
41
1
10
36.7322205382574
20
7.21686546469206
30
0
41
1
10
36.8771876604053
20
7.48562626953955
30
0
41
1
10
36.9496712214792
20
7.58308915118894
30
0
41
1
10
37.0946383436272
20
7.70974051045735
30
0
41
1
10
37.1671219047012
20
7.739
30
0
41
1
10
37.2396054657751
20
7.739
30
0
0
SPLINE
5
DD
100
AcDbEntity
8
1
62
256
6
ByLayer
370
13
48
1
60
0
100
AcDbSpline
70
4
71
3
72
71
73
67
40
0
40
0
40
0
40
0
40
0.0624999999999999
40
0.0624999999999999
40
0.0937499999999999
40
0.0937499999999999
40
0.125
40
0.125
40
0.15625
40
0.15625
40
0.1875
40
0.1875
40
0.218750000000001
40
0.218750000000001
40
0.250000000000001
40
0.250000000000001
40
0.281250000000001
40
0.281250000000001
40
0.312500000000001
40
0.312500000000001
40
0.343750000000001
40
0.343750000000001
40
0.375000000000001
40
0.375000000000001
40
0.406250000000001
40
0.406250000000001
40
0.437500000000002
40
0.437500000000002
40
0.468750000000002
40
0.468750000000002
40
0.484375000000002
40
0.484375000000002
40
0.500000000000002
40
0.500000000000002
40
0.562500000000002
40
0.562500000000002
40
0.593750000000002
40
0.593750000000002
40
0.625000000000002
40
0.625000000000002
40
0.656250000000002
40
0.656250000000002
40
0.687500000000002
40
0.687500000000002
40
0.718750000000002
40
0.718750000000002
40
0.750000000000001
40
0.750000000000001
40
0.781250000000001
40
0.781250000000001
40
0.812500000000001
40
0.812500000000001
40
0.843750000000001
40
0.843750000000001
40
0.875000000000001
40
0.875000000000001
40
0.906250000000001
40
0.906250000000001
40
0.937500000000001
40
0.937500000000001
40
0.968750000000001
40
0.968750000000001
40
0.976562500000001
40
0.976562500000001
40
0.984375000000001
40
1
40
1
40
1
40
1
41
1
10
39.4653107478697
20
7.739
30
0
41
1
10
39.5531841563936
20
7.739
30
0
41
1
10
39.6410575649175
20
7.69590061467019
30
0
41
1
10
39.7728676777032
20
7.55422857185008
30
0
41
1
10
39.8168043819651
20
7.49421729440402
30
0
41
1
10
39.9046777904889
20
7.34739235045811
30
0
41
1
10
39.9486144947508
20
7.26057390443867
30
0
41
1
10
40.0364879032747
20
7.0596651710344
30
0
41
1
10
40.0804246075366
20
6.94557179962419
30
0
41
1
10
40.1682980160604
20
6.69053447625771
30
0
41
1
10
40.2122347203223
20
6.5495897689959
30
0
41
1
10
40.3001081288462
20
6.2422216073526
30
0
41
1
10
40.3440448331081
20
6.07580007915828
30
0
41
1
10
40.4319182416319
20
5.71978415247122
30
0
41
1
10
40.4758549458938
20
5.53019432061356
30
0
41
1
10
40.5637283544177
20
5.13098373831781
30
0
41
1
10
40.6076650586796
20
4.92136973276331
30
0
41
1
10
40.6955384672034
20
4.48591696312943
30
0
41
1
10
40.7394751714653
20
4.26008631533989
30
0
41
1
10
40.8273485799892
20
3.79644429690265
30
0
41
1
10
40.8712852842511
20
3.55864142463562
30
0
41
1
10
40.959158692775
20
3.07548370604522
30
0
41
1
10
41.0030953970369
20
2.83013676767138
30
0
41
1
10
41.0909688055607
20
2.33625459635005
30
0
41
1
10
41.1349055098226
20
2.0877259026388
30
0
41
1
10
41.2227789183464
20
1.591559334431
30
0
41
1
10
41.2667156226083
20
1.34392615643006
30
0
41
1
10
41.3545890311322
20
0.853175093135519
30
0
41
1
10
41.3985257353941
20
0.610059917193212
30
0
41
1
10
41.464430791787
20
0.251067481057788
30
0
41
1
10
41.4863991439179
20
0.132345395825183
30
0
41
1
10
41.5303358481798
20
-0.102890402240035
30
0
41
1
10
41.5523042003108
20
-0.221266330781305
30
0
41
1
10
41.6621459609656
20
-0.818795730603
30
0
41
1
10
41.7500193694895
20
-1.31248094043758
30
0
41
1
10
41.8818294822752
20
-2.0566132213587
30
0
41
1
10
41.9257661865372
20
-2.30518343110066
30
0
41
1
10
42.013639595061
20
-2.79932587915664
30
0
41
1
10
42.0575762993229
20
-3.04489164801456
30
0
41
1
10
42.1454497078467
20
-3.52867210700083
30
0
41
1
10
42.1893864121087
20
-3.76687893261459
30
0
41
1
10
42.2772598206325
20
-4.23151185916777
30
0
41
1
10
42.3211965248944
20
-4.45792946773935
30
0
41
1
10
42.4090699334182
20
-4.89472638923127
30
0
41
1
10
42.4530066376801
20
-5.10509754954552
30
0
41
1
10
42.5408800462041
20
-5.50596965024769
30
0
41
1
10
42.584816750466
20
-5.69646377043745
30
0
41
1
10
42.6726901589898
20
-6.05440390679775
30
0
41
1
10
42.7166268632517
20
-6.22184525333776
30
0
41
1
10
42.8045002717755
20
-6.5313312799025
30
0
41
1
10
42.8484369760374
20
-6.67337391969309
30
0
41
1
10
42.9363103845613
20
-6.9306454263415
30
0
41
1
10
42.9802470888232
20
-7.04587494115239
30
0
41
1
10
43.068120497347
20
-7.2490552534239
30
0
41
1
10
43.1120572016089
20
-7.33700904890154
30
0
41
1
10
43.1999306101328
20
-7.4860687944248
30
0
41
1
10
43.2438673143947
20
-7.54717946803493
30
0
41
1
10
43.3317407229185
20
-7.64376119599879
30
0
41
1
10
43.3756774271804
20
-7.67923794413775
30
0
41
1
10
43.4635508357043
20
-7.72637814501749
30
0
41
1
10
43.5074875399662
20
-7.73804752777889
30
0
41
1
10
43.5624084202936
20
-7.73916799599755
30
0
41
1
10
43.573392596359
20
-7.73872399475022
30
0
41
1
10
43.59536094849
20
-7.73646789780221
30
0
41
1
10
43.6283134766865
20
-7.73102933333627
30
0
41
1
10
43.6612660048829
20
-7.71926108625394
30
0
41
1
10
43.6832343570138
20
-7.70846495471514
30
0
0
SPLINE
5
DE
100
AcDbEntity
8
1
62
256
6
ByLayer
370
13
48
1
60
0
100
AcDbSpline
70
4
71
3
72
22
73
18
40
0
40
0
40
0
40
0
40
0.125
40
0.125
40
0.25
40
0.25
40
0.375
40
0.375
40
0.5
40
0.5
40
0.625
40
0.625
40
0.75
40
0.75
40
0.875
40
0.875
40
1
40
1
40
1
40
1
41
1
10
35.5
20
4.41348632948217
30
0
41
1
10
35.5518309030599
20
4.67821718704977
30
0
41
1
10
35.6036618061198
20
4.93291184671571
30
0
41
1
10
35.7073236122395
20
5.41571301159797
30
0
41
1
10
35.7591545152993
20
5.643803137314
30
0
41
1
10
35.862816321419
20
6.06801806285048
30
0
41
1
10
35.9146472244789
20
6.26413201296677
30
0
41
1
10
36.0183090305986
20
6.62061262418027
30
0
41
1
10
36.0701399336584
20
6.78097551925595
30
0
41
1
10
36.1738017397781
20
7.06399114488471
30
0
41
1
10
36.225632642838
20
7.18664719335158
30
0
41
1
10
36.3292944489577
20
7.39411056810502
30
0
41
1
10
36.3811253520176
20
7.47892690042639
30
0
41
1
10
36.4847871581373
20
7.61220520632219
30
0
41
1
10
36.5366180611972
20
7.66067964147919
30
0
41
1
10
36.6402798673168
20
7.72407026993673
30
0
41
1
10
36.6921107703767
20
7.739
30
0
41
1
10
36.7439416734366
20
7.739
30
0
0
SPLINE
5
DF
100
AcDbEntity
8
1
62
256
6
ByLayer
370
13
48
1
60
0
100
AcDbSpline
70
4
71
3
72
78
73
74
40
0
40
0
40
0
40
0
40
0.03125
40
0.03125
40
0.0625
40
0.0625
40
0.09375
40
0.09375
40
0.125
40
0.125
40
0.15625
40
0.15625
40
0.1875
40
0.1875
40
0.21875
40
0.21875
40
0.25
40
0.25
40
0.28125
40
0.28125
40
0.3125
40
0.3125
40
0.34375
40
0.34375
40
0.375
40
0.375
40
0.40625
40
0.40625
40
0.421875
40
0.421875
40
0.4296875
40
0.4296875
40
0.4375
40
0.4375
40
0.46875
40
0.46875
40
0.5
40
0.5
40
0.53125
40
0.53125
40
0.5625
40
0.5625
40
0.59375
40
0.59375
40
0.625
40
0.625
40
0.65625
40
0.65625
40
0.6875
40
0.6875
40
0.71875
40
0.71875
40
0.75
40
0.75
40
0.78125
40
0.78125
40
0.8125
40
0.8125
40
0.84375
40
0.84375
40
0.859375
40
0.859375
40
0.8671875
40
0.8671875
40
0.875
40
0.875
40
0.90625
40
0.90625
40
0.9375
40
0.9375
40
0.96875
40
0.96875
40
1
40
1
40
1
40
1
41
1
10
38.9696469555312
20
7.739
30
0
41
1
10
39.0187468242967
20
7.739
30
0
41
1
10
39.0678466930621
20
7.72560495883238
30
0
41
1
10
39.1660464305929
20
7.66888705389749
30
0
41
1
10
39.2151462993584
20
7.62555385844899
30
0
41
1
10
39.3133460368893
20
7.50650923833095
30
0
41
1
10
39.3624459056548
20
7.43078812846306
30
0
41
1
10
39.4606456431857
20
7.24552975226413
30
0
41
1
10
39.5097455119511
20
7.1359850675108
30
0
41
1
10
39.607945249482
20
6.88291711960801
30
0
41
1
10
39.6570451182475
20
6.73939028663503
30
0
41
1
10
39.7552448557783
20
6.41964187521467
30
0
41
1
10
39.8043447245437
20
6.24342169569596
30
0
41
1
10
39.9025444620747
20
5.86105294285235
30
0
41
1
10
39.9516443308401
20
5.65491101601671
30
0
41
1
10
40.049844068371
20
5.21682708386743
30
0
41
1
10
40.0989439371364
20
4.98489623303928
30
0
41
1
10
40.1971436746673
20
4.50045384816505
30
0
41
1
10
40.2462435434328
20
4.24795634293093
30
0
41
1
10
40.3444432809637
20
3.7283062992328
30
0
41
1
10
40.3935431497291
20
3.46116853681374
30
0
41
1
10
40.49174288726
20
2.91842929681278
30
0
41
1
10
40.5408427560254
20
2.64284125332648
30
0
41
1
10
40.6390424935563
20
2.08922742751946
30
0
41
1
10
40.6881423623218
20
1.81121215401484
30
0
41
1
10
40.7863420998526
20
1.25823982899817
30
0
41
1
10
40.8354419686181
20
0.983289541554825
30
0
41
1
10
40.9090917717663
20
0.576686088524042
30
0
41
1
10
40.933641706149
20
0.44211513877886
30
0
41
1
10
40.9704666077231
20
0.242079243430567
30
0
41
1
10
40.9827415749144
20
0.175703567549505
30
0
41
1
10
41.0072915092971
20
0.0436150186146449
30
0
41
1
10
41.0195664764885
20
-0.0218930085340503
30
0
41
1
10
41.0809413124453
20
-0.351748139421943
30
0
41
1
10
41.1300411812108
20
-0.621020392057886
30
0
41
1
10
41.2282409187416
20
-1.16636617241915
30
0
41
1
10
41.2773407875071
20
-1.44243591495839
30
0
41
1
10
41.375540525038
20
-1.99648716067574
30
0
41
1
10
41.4246403938034
20
-2.27446103715849
30
0
41
1
10
41.5228401313343
20
-2.82668731211595
30
0
41
1
10
41.5719400000997
20
-3.10092845135509
30
0
41
1
10
41.6701397376307
20
-3.63959713800173
30
0
41
1
10
41.7192396063961
20
-3.90401079216915
30
0
41
1
10
41.817439343927
20
-4.41685549978089
30
0
41
1
10
41.8665392126925
20
-4.66527175301857
30
0
41
1
10
41.9647389502233
20
-5.14031349762058
30
0
41
1
10
42.0138388189888
20
-5.36692542504181
30
0
41
1
10
42.1120385565197
20
-5.79334520579792
30
0
41
1
10
42.1611384252851
20
-5.99314279314319
30
0
41
1
10
42.259338162816
20
-6.36208056919955
30
0
41
1
10
42.3084380315814
20
-6.53121525112451
30
0
41
1
10
42.4066377691123
20
-6.83637537415666
30
0
41
1
10
42.4557376378778
20
-6.97240058022155
30
0
41
1
10
42.5539373754087
20
-7.2103785274864
30
0
41
1
10
42.603037244174
20
-7.31233581470207
30
0
41
1
10
42.7012369817049
20
-7.48263585778818
30
0
41
1
10
42.7503368504704
20
-7.55098668090139
30
0
41
1
10
42.8485365880013
20
-7.6557582276846
30
0
41
1
10
42.8976364567667
20
-7.69218891441949
30
0
41
1
10
42.971286259915
20
-7.72486287065877
30
0
41
1
10
42.9958361942976
20
-7.73209862344757
30
0
41
1
10
43.0326610958717
20
-7.73776216523717
30
0
41
1
10
43.0449360630631
20
-7.73878527941042
30
0
41
1
10
43.0694859974458
20
-7.739153898182
30
0
41
1
10
43.0817609646372
20
-7.73850401479106
30
0
41
1
10
43.143135800594
20
-7.73096194938668
30
0
41
1
10
43.1922356693594
20
-7.71115922137417
30
0
41
1
10
43.2904354068903
20
-7.64100862091564
30
0
41
1
10
43.3395352756557
20
-7.59065043152774
30
0
41
1
10
43.4377350131866
20
-7.45713804971237
30
0
41
1
10
43.4868348819521
20
-7.37397453147838
30
0
41
1
10
43.585034619483
20
-7.17367708073758
30
0
41
1
10
43.6341344882485
20
-7.05653645866286
30
0
41
1
10
43.6832343570139
20
-6.92248500769853
30
0
0
SPLINE
5
E0
100
AcDbEntity
8
1
62
256
6
ByLayer
370
13
48
1
60
0
100
AcDbSpline
70
4
71
3
72
14
73
10
40
0
40
0
40
0
40
0
40
0.25
40
0.25
40
0.5
40
0.5
40
0.75
40
0.75
40
1
40
1
40
1
40
1
41
1
10
35.5
20
6.54084774695397
30
0
41
1
10
35.5623564900916
20
6.74718649759493
30
0
41
1
10
35.624712980183
20
6.92723297708923
30
0
41
1
10
35.749425960366
20
7.23226238657173
30
0
41
1
10
35.8117824504575
20
7.35725975477905
30
0
41
1
10
35.9364954306405
20
7.55341056199663
30
0
41
1
10
35.9988519207321
20
7.6245924800136
30
0
41
1
10
36.1235649009151
20
7.71737024670443
30
0
41
1
10
36.1859213910066
20
7.739
30
0
41
1
10
36.2482778810981
20
7.739
30
0
0
SPLINE
5
E1
100
AcDbEntity
8
1
62
256
6
ByLayer
370
13
48
1
60
0
100
AcDbSpline
70
4
71
3
72
77
73
73
40
0
40
0
40
0
40
0
40
0.03125
40
0.03125
40
0.0625
40
0.0625
40
0.09375
40
0.09375
40
0.125
40
0.125
40
0.15625
40
0.15625
40
0.1875
40
0.1875
40
0.21875
40
0.21875
40
0.25
40
0.25
40
0.28125
40
0.28125
40
0.3125
40
0.3125
40
0.34375
40
0.34375
40
0.375
40
0.375
40
0.390625
40
0.390625
40
0.3984375
40
0.3984375
40
0.40625
40
0.40625
40
0.4375
40
0.4375
40
0.46875
40
0.46875
40
0.5
40
0.5
40
0.53125
40
0.53125
40
0.5625
40
0.5625
40
0.59375
40
0.59375
40
0.625
40
0.625
40
0.65625
40
0.65625
40
0.6875
40
0.6875
40
0.71875
40
0.71875
40
0.75
40
0.75
40
0.78125
40
0.78125
40
0.7890625
40
0.7890625
40
0.796875
40
0.8125
40
0.8125
40
0.84375
40
0.84375
40
0.875
40
0.875
40
0.90625
40
0.90625
40
0.9375
40
0.9375
40
0.96875
40
0.96875
40
1
40
1
40
1
40
1
41
1
10
38.4739831631927
20
7.739
30
0
41
1
10
38.5282461964617
20
7.739
30
0
41
1
10
38.5825092297306
20
7.72263299839432
30
0
41
1
10
38.6910352962686
20
7.65297179758699
30
0
41
1
10
38.7452983295375
20
7.59966058691586
30
0
41
1
10
38.8538243960755
20
7.45298836978688
30
0
41
1
10
38.9080874293445
20
7.35961198186828
30
0
41
1
10
39.0166134958824
20
7.13128665642788
30
0
41
1
10
39.0708765291514
20
6.99632725693021
30
0
41
1
10
39.1794025956893
20
6.68531362599626
30
0
41
1
10
39.2336656289583
20
6.50925681262342
30
0
41
1
10
39.3421916954962
20
6.11873287837298
30
0
41
1
10
39.3964547287652
20
5.90427265591612
30
0
41
1
10
39.5049807953031
20
5.44177290738602
30
0
41
1
10
39.5592438285721
20
5.19374924977748
30
0
41
1
10
39.66776989511
20
4.67075438557882
30
0
41
1
10
39.7220329283791
20
4.39580534246235
30
0
41
1
10
39.830558994917
20
3.82680946424395
30
0
41
1
10
39.884822028186
20
3.53278699782084
30
0
41
1
10
39.9933480947239
20
2.9339973380514
30
0
41
1
10
40.0476111279929
20
2.62925245856172
30
0
41
1
10
40.1561371945308
20
2.01715799429272
30
0
41
1
10
40.2104002277998
20
1.70982542416527
30
0
41
1
10
40.3189262943378
20
1.09988138604118
30
0
41
1
10
40.3731893276067
20
0.797280066627707
30
0
41
1
10
40.4545838775101
20
0.351493700044188
30
0
41
1
10
40.4817153941446
20
0.204240362450577
30
0
41
1
10
40.5224126690963
20
-0.0141550805631709
30
0
41
1
10
40.5359784274137
20
-0.0866599569116033
30
0
41
1
10
40.5631099440481
20
-0.233004888025391
30
0
41
1
10
40.5766757023653
20
-0.306573592157491
30
0
41
1
10
40.6445044939515
20
-0.67620241930581
30
0
41
1
10
40.6987675272205
20
-0.977672581427782
30
0
41
1
10
40.8072935937585
20
-1.58625053420226
30
0
41
1
10
40.8615566270274
20
-1.89334912384618
30
0
41
1
10
40.9700826935654
20
-2.50601755046458
30
0
41
1
10
41.0243457268343
20
-2.81157124447847
30
0
41
1
10
41.1328717933723
20
-3.41309922203143
30
0
41
1
10
41.1871348266412
20
-3.70905174857486
30
0
41
1
10
41.2956608931792
20
-4.28301790722901
30
0
41
1
10
41.3499239264482
20
-4.56100721080756
30
0
41
1
10
41.4584499929861
20
-5.09108327869333
30
0
41
1
10
41.512713026255
20
-5.34314732751076
30
0
41
1
10
41.621239092793
20
-5.81452766029815
30
0
41
1
10
41.675502126062
20
-6.03382703165968
30
0
41
1
10
41.7840281925999
20
-6.43456128461617
30
0
41
1
10
41.8382912258689
20
-6.61598798114551
30
0
41
1
10
41.9468172924068
20
-6.93797475685776
30
0
41
1
10
42.0010803256758
20
-7.07853619521228
30
0
41
1
10
42.1096063922137
20
-7.31800830203426
30
0
41
1
10
42.1638694254827
20
-7.41692852561633
30
0
41
1
10
42.2723954920207
20
-7.57438123700982
30
0
41
1
10
42.3266585252896
20
-7.63292863934726
30
0
41
1
10
42.4351845918276
20
-7.712566913263
30
0
41
1
10
42.4894476250966
20
-7.73367475575762
30
0
41
1
10
42.5572764166828
20
-7.73921690069474
30
0
41
1
10
42.5708421749999
20
-7.73929355203072
30
0
41
1
10
42.5979736916344
20
-7.73739129970656
30
0
41
1
10
42.6386709665862
20
-7.73142683051989
30
0
41
1
10
42.6793682415379
20
-7.7158127446902
30
0
41
1
10
42.7607627914414
20
-7.67094884340887
30
0
41
1
10
42.8150258247103
20
-7.62281663763318
30
0
41
1
10
42.9235518912483
20
-7.4868396104246
30
0
41
1
10
42.9778149245172
20
-7.39897900140727
30
0
41
1
10
43.0863409910552
20
-7.18178080723578
30
0
41
1
10
43.1406040243241
20
-7.05243190839619
30
0
41
1
10
43.2491300908621
20
-6.75244865322594
30
0
41
1
10
43.3033931241311
20
-6.58181052233164
30
0
41
1
10
43.411919190669
20
-6.20163375271875
30
0
41
1
10
43.4661822239379
20
-5.99210071665436
30
0
41
1
10
43.5747082904759
20
-5.53869054971557
30
0
41
1
10
43.6289713237449
20
-5.29482819361746
30
0
41
1
10
43.6832343570138
20
-5.03700338536839
30
0
0
SPLINE
5
E2
100
AcDbEntity
8
1
62
256
6
ByLayer
370
13
48
1
60
0
100
AcDbSpline
70
4
71
3
72
8
73
4
40
0
40
0
40
0
40
0
40
1
40
1
40
1
40
1
41
1
10
35.5
20
7.61301577325378
30
0
41
1
10
35.5842046962532
20
7.69944752037941
30
0
41
1
10
35.6684093925064
20
7.739
30
0
41
1
10
35.7526140887596
20
7.739
30
0
0
SPLINE
5
E3
100
AcDbEntity
8
1
62
256
6
ByLayer
370
13
48
1
60
0
100
AcDbSpline
70
4
71
3
72
78
73
74
40
0
40
0
40
0
40
0
40
0.03125
40
0.03125
40
0.0625000000000001
40
0.0625000000000001
40
0.0937500000000001
40
0.0937500000000001
40
0.125
40
0.125
40
0.15625
40
0.15625
40
0.1875
40
0.1875
40
0.21875
40
0.21875
40
0.25
40
0.25
40
0.28125
40
0.28125
40
0.3125
40
0.3125
40
0.34375
40
0.34375
40
0.3515625
40
0.3515625
40
0.359375
40
0.359375
40
0.375
40
0.375
40
0.40625
40
0.40625
40
0.4375
40
0.4375
40
0.46875
40
0.46875
40
0.5
40
0.5
40
0.53125
40
0.53125
40
0.5625
40
0.5625
40
0.59375
40
0.59375
40
0.625
40
0.625
40
0.65625
40
0.65625
40
0.6875
40
0.6875
40
0.703125
40
0.703125
40
0.7109375
40
0.7109375
40
0.71875
40
0.71875
40
0.75
40
0.75
40
0.78125
40
0.78125
40
0.8125
40
0.8125
40
0.84375
40
0.84375
40
0.875
40
0.875
40
0.90625
40
0.90625
40
0.9375
40
0.9375
40
0.96875
40
0.96875
40
1
40
1
40
1
40
1
41
1
10
37.9783193708542
20
7.739
30
0
41
1
10
38.0377455686267
20
7.739
30
0
41
1
10
38.0971717663992
20
7.71936103749601
30
0
41
1
10
38.2160241619442
20
7.63535470693407
30
0
41
1
10
38.2754503597167
20
7.57096062006735
30
0
41
1
10
38.3943027552617
20
7.39359843079677
30
0
41
1
10
38.4537289530342
20
7.28060721756182
30
0
41
1
10
38.5725813485792
20
7.00462984476584
30
0
41
1
10
38.6320075463517
20
6.84163037739816
30
0
41
1
10
38.7508599418967
20
6.46721056755561
30
0
41
1
10
38.8102861396692
20
6.25579172177231
30
0
41
1
10
38.9291385352142
20
5.78929645121045
30
0
41
1
10
38.9885647329867
20
5.53423791517289
30
0
41
1
10
39.1074171285317
20
4.98812693716746
30
0
41
1
10
39.1668433263042
20
4.69710579815126
30
0
41
1
10
39.2856957218492
20
4.08887978386193
30
0
41
1
10
39.3451219196216
20
3.77171284660503
30
0
41
1
10
39.4639743151666
20
3.12208426820538
30
0
41
1
10
39.5234005129391
20
2.78965904665486
30
0
41
1
10
39.6422529084842
20
2.12033487333861
30
0
41
1
10
39.7016791062566
20
1.78346411531115
30
0
41
1
10
39.8205315018016
20
1.1150090132667
30
0
41
1
10
39.8799576995742
20
0.783441197418426
30
0
41
1
10
39.9542404467898
20
0.377297019975401
30
0
41
1
10
39.9690969962329
20
0.296479177995281
30
0
41
1
10
39.9988100951191
20
0.135770646519404
30
0
41
1
10
40.0136666445623
20
0.0560504150734005
30
0
41
1
10
40.0582362928916
20
-0.182685511311149
30
0
41
1
10
40.0879493917778
20
-0.343858248871754
30
0
41
1
10
40.1770886884366
20
-0.832190381155129
30
0
41
1
10
40.2365148862091
20
-1.16422346284469
30
0
41
1
10
40.3553672817541
20
-1.83316574044912
30
0
41
1
10
40.4147934795266
20
-2.17005780815038
30
0
41
1
10
40.5336458750716
20
-2.83890987712928
30
0
41
1
10
40.5930720728441
20
-3.17084116817531
30
0
41
1
10
40.711924468389
20
-3.81893794942567
30
0
41
1
10
40.7713506661615
20
-4.13506676631661
30
0
41
1
10
40.8902030617065
20
-4.74069778362377
30
0
41
1
10
40.949629259479
20
-5.03016218144117
30
0
41
1
10
41.068481655024
20
-5.57272266274279
30
0
41
1
10
41.1279078527966
20
-5.82578796921095
30
0
41
1
10
41.2467602483415
20
-6.287988010916
30
0
41
1
10
41.306186446114
20
-6.49710563362814
30
0
41
1
10
41.425038841659
20
-6.86676877837144
30
0
41
1
10
41.4844650394315
20
-7.02731360621462
30
0
41
1
10
41.6033174349765
20
-7.29838375522516
30
0
41
1
10
41.662743632749
20
-7.40892300414347
30
0
41
1
10
41.7815960282939
20
-7.58151923244475
30
0
41
1
10
41.8410222260665
20
-7.64359964569815
30
0
41
1
10
41.9301615227252
20
-7.70331316268329
30
0
41
1
10
41.9598746216115
20
-7.71766622441575
30
0
41
1
10
42.0044442699408
20
-7.73135588455622
30
0
41
1
10
42.0193008193839
20
-7.73461316059968
30
0
41
1
10
42.0490139182702
20
-7.73860451277056
30
0
41
1
10
42.0638704677133
20
-7.73934154167867
30
0
41
1
10
42.1381532149289
20
-7.73691762617827
30
0
41
1
10
42.1975794127015
20
-7.71519051487155
30
0
41
1
10
42.3164318082465
20
-7.62677282062134
30
0
41
1
10
42.375858006019
20
-7.56005555855151
30
0
41
1
10
42.494710401564
20
-7.37791434033576
30
0
41
1
10
42.5541365993365
20
-7.26246761190015
30
0
41
1
10
42.6729889948815
20
-6.98158327302204
30
0
41
1
10
42.732415192654
20
-6.81613298736258
30
0
41
1
10
42.8512675881989
20
-6.43697200984121
30
0
41
1
10
42.9106937859714
20
-6.22326362129354
30
0
41
1
10
43.0295461815164
20
-5.7525036318246
30
0
41
1
10
43.0889723792889
20
-5.49547068845925
30
0
41
1
10
43.2078247748339
20
-4.94585214267315
30
0
41
1
10
43.2672509726064
20
-4.65329835212867
30
0
41
1
10
43.3861033681514
20
-4.04252815910357
30
0
41
1
10
43.4455295659239
20
-3.72434980962137
30
0
41
1
10
43.5643819614688
20
-3.07324265148472
30
0
41
1
10
43.6238081592414
20
-2.74034999200873
30
0
41
1
10
43.6832343570139
20
-2.40547702311602
30
0
0
SPLINE
5
E4
100
AcDbEntity
8
1
62
256
6
ByLayer
370
13
48
1
60
0
100
AcDbSpline
70
4
71
3
72
85
73
81
40
0
40
0
40
0
40
0
40
0.03125
40
0.03125
40
0.0624999999999999
40
0.0624999999999999
40
0.0937499999999999
40
0.0937499999999999
40
0.125
40
0.125
40
0.15625
40
0.15625
40
0.1875
40
0.1875
40
0.21875
40
0.21875
40
0.25
40
0.25
40
0.28125
40
0.28125
40
0.3125
40
0.3125
40
0.328125
40
0.328125
40
0.33203125
40
0.33203125
40
0.3359375
40
0.34375
40
0.34375
40
0.375
40
0.375
40
0.40625
40
0.40625
40
0.4375
40
0.4375
40
0.46875
40
0.46875
40
0.5
40
0.5
40
0.53125
40
0.53125
40
0.5625
40
0.5625
40
0.59375
40
0.59375
40
0.625
40
0.625
40
0.656249999999999
40
0.656249999999999
40
0.6640625
40
0.6640625
40
0.671875
40
0.671875
40
0.6875
40
0.6875
40
0.71875
40
0.71875
40
0.75
40
0.75
40
0.78125
40
0.78125
40
0.8125
40
0.8125
40
0.84375
40
0.84375
40
0.874999999999999
40
0.874999999999999
40
0.90625
40
0.90625
40
0.9375
40
0.9375
40
0.96875
40
0.96875
40
0.984375
40
0.984375
40
0.98828125
40
0.98828125
40
0.9921875
40
0.9921875
40
1
40
1
40
1
40
1
41
1
10
37.4826555785157
20
7.739
30
0
41
1
10
37.5472449407918
20
7.739
30
0
41
1
10
37.6118343030678
20
7.71578805603571
30
0
41
1
10
37.7410130276198
20
7.61601786465576
30
0
41
1
10
37.8056023898959
20
7.53941928386979
30
0
41
1
10
37.9347811144478
20
7.32828300414926
30
0
41
1
10
37.9993704767239
20
7.19371224901585
30
0
41
1
10
38.128549201276
20
6.86558576474968
30
0
41
1
10
38.1931385635519
20
6.67201518807749
30
0
41
1
10
38.322317288104
20
6.22915027527444
30
0
41
1
10
38.38690665038
20
5.97986691997443
30
0
41
1
10
38.5160853749321
20
5.43322652891592
30
0
41
1
10
38.5806747372081
20
5.13590635420138
30
0
41
1
10
38.7098534617601
20
4.50450507796268
30
0
41
1
10
38.7744428240362
20
4.17047811489633
30
0
41
1
10
38.9036215485883
20
3.47923284687812
30
0
41
1
10
38.9682109108642
20
3.12207200073942
30
0
41
1
10
39.0973896354162
20
2.39865487578751
30
0
41
1
10
39.1619789976923
20
2.03244591419937
30
0
41
1
10
39.2911577222444
20
1.30393421001344
30
0
41
1
10
39.3557470845204
20
0.941660549527029
30
0
41
1
10
39.4526311279344
20
0.409232002932413
30
0
41
1
10
39.4849258090724
20
0.233565823832606
30
0
41
1
10
39.5252941604949
20
0.0169174471226938
30
0
41
1
10
39.5333678307794
20
-0.0262029584928882
30
0
41
1
10
39.5495151713485
20
-0.112904101229816
30
0
41
1
10
39.573736182202
20
-0.243392809962614
30
0
41
1
10
39.5979571930554
20
-0.37512270938825
30
0
41
1
10
39.6786938959004
20
-0.816643811040734
30
0
41
1
10
39.7432832581765
20
-1.17771541767445
30
0
41
1
10
39.8724619827286
20
-1.90519704408936
30
0
41
1
10
39.9370513450046
20
-2.27158030027849
30
0
41
1
10
40.0662300695566
20
-2.99693467839515
30
0
41
1
10
40.1308194318327
20
-3.35586031634205
30
0
41
1
10
40.2599981563847
20
-4.05227643489405
30
0
41
1
10
40.3245875186607
20
-4.38971001222836
30
0
41
1
10
40.4537662432127
20
-5.02941760615963
30
0
41
1
10
40.5183556054888
20
-5.33163633704115
30
0
41
1
10
40.6475343300408
20
-5.88922577682729
30
0
41
1
10
40.7121236923169
20
-6.14455703102604
30
0
41
1
10
40.8413024168689
20
-6.60019336812579
30
0
41
1
10
40.9058917791449
20
-6.80048429715029
30
0
41
1
10
41.0350705036969
20
-7.14220591284035
30
0
41
1
10
41.099659865973
20
-7.28364872716156
30
0
41
1
10
41.228838590525
20
-7.50820973690682
30
0
41
1
10
41.293427952801
20
-7.59135941788404
30
0
41
1
10
41.4226066773531
20
-7.70355255263141
30
0
41
1
10
41.4871960396291
20
-7.73263604981494
30
0
41
1
10
41.5679327424741
20
-7.73941469292237
30
0
41
1
10
41.5840800830431
20
-7.73931221641382
30
0
41
1
10
41.6163747641812
20
-7.73617812805759
30
0
41
1
10
41.6325221047502
20
-7.73313258332976
30
0
41
1
10
41.6809641264572
20
-7.71938818187007
30
0
41
1
10
41.7132588075952
20
-7.70407760341138
30
0
41
1
10
41.8101428510092
20
-7.63844801824601
30
0
41
1
10
41.8747322132853
20
-7.56833746247321
30
0
41
1
10
42.0039109378373
20
-7.37054795900673
30
0
41
1
10
42.0685003001134
20
-7.24283453705078
30
0
41
1
10
42.1976790246654
20
-6.9283325179259
30
0
41
1
10
42.2622683869414
20
-6.74152646116724
30
0
41
1
10
42.3914471114934
20
-6.31158135411934
30
0
41
1
10
42.4560364737694
20
-6.06845011373824
30
0
41
1
10
42.5852151983215
20
-5.53301732243187
30
0
41
1
10
42.6498045605975
20
-5.24074991905951
30
0
41
1
10
42.7789832851495
20
-4.61799415839792
30
0
41
1
10
42.8435726474256
20
-4.28755859725368
30
0
41
1
10
42.9727513719777
20
-3.60186070604615
30
0
41
1
10
43.0373407342536
20
-3.24665620324242
30
0
41
1
10
43.1665194588056
20
-2.52554416698183
30
0
41
1
10
43.2311088210817
20
-2.15968567338092
30
0
41
1
10
43.3602875456338
20
-1.43046504367246
30
0
41
1
10
43.4248769079098
20
-1.06713429392659
30
0
41
1
10
43.5217609513238
20
-0.532290772333141
30
0
41
1
10
43.5540556324618
20
-0.355681976644632
30
0
41
1
10
43.5944239838843
20
-0.137709435975808
30
0
41
1
10
43.6024976541688
20
-0.0942539110604343
30
0
41
1
10
43.6186449947378
20
-0.0076365099909879
30
0
41
1
10
43.6267186650223
20
0.0354930274181697
30
0
41
1
10
43.6509396758758
20
0.165607192476955
30
0
41
1
10
43.6670870164448
20
0.252931006945573
30
0
41
1
10
43.6832343570138
20
0.340771097844055
30
0
0
SPLINE
5
E5
100
AcDbEntity
8
1
62
256
6
ByLayer
370
13
48
1
60
0
100
AcDbSpline
70
4
71
3
72
84
73
80
40
0
40
0
40
0
40
0
40
0.0312499999999999
40
0.0312499999999999
40
0.0624999999999999
40
0.0624999999999999
40
0.0937499999999998
40
0.0937499999999998
40
0.125
40
0.125
40
0.15625
40
0.15625
40
0.1875
40
0.1875
40
0.21875
40
0.21875
40
0.25
40
0.25
40
0.28125
40
0.28125
40
0.296874999999999
40
0.296874999999999
40
0.304687499999999
40
0.304687499999999
40
0.312499999999999
40
0.312499999999999
40
0.343749999999999
40
0.343749999999999
40
0.374999999999999
40
0.374999999999999
40
0.40625
40
0.40625
40
0.4375
40
0.4375
40
0.46875
40
0.46875
40
0.5
40
0.5
40
0.53125
40
0.53125
40
0.5625
40
0.5625
40
0.59375
40
0.59375
40
0.609375
40
0.609375
40
0.61328125
40
0.61328125
40
0.6171875
40
0.625
40
0.625
40
0.65625
40
0.65625
40
0.6875
40
0.6875
40
0.71875
40
0.71875
40
0.75
40
0.75
40
0.78125
40
0.78125
40
0.8125
40
0.8125
40
0.84375
40
0.84375
40
0.875
40
0.875
40
0.90625
40
0.90625
40
0.9140625
40
0.9140625
40
0.91796875
40
0.91796875
40
0.921875
40
0.9375
40
0.9375
40
0.96875
40
0.96875
40
1
40
1
40
1
40
1
41
1
10
36.9869917861772
20
7.739
30
0
41
1
10
37.0567443129568
20
7.739
30
0
41
1
10
37.1264968397363
20
7.71191289323855
30
0
41
1
10
37.2660018932954
20
7.59494406154943
30
0
41
1
10
37.335754420075
20
7.50500348099956
30
0
41
1
10
37.475259473634
20
7.25699738839461
30
0
41
1
10
37.5450120004136
20
7.09888668586041
30
0
41
1
10
37.6845170539727
20
6.7142426546944
30
0
41
1
10
37.7542695807523
20
6.48769600617655
30
0
41
1
10
37.8937746343114
20
5.97186007586268
30
0
41
1
10
37.963527161091
20
5.68259967572789
30
0
41
1
10
38.10303221465
20
5.05278800619036
30
0
41
1
10
38.1727847414296
20
4.71230301617709
30
0
41
1
10
38.3122897949887
20
3.9958034402429
30
0
41
1
10
38.3820423217682
20
3.61987326695109
30
0
41
1
10
38.5215473753273
20
2.85020859832312
30
0
41
1
10
38.5912999021068
20
2.45655208522243
30
0
41
1
10
38.7308049556659
20
1.66859385838521
30
0
41
1
10
38.8005574824455
20
1.27434519765018
30
0
41
1
10
38.9051862726149
20
0.693412633445917
30
0
41
1
10
38.9400625360046
20
0.501483353380678
30
0
41
1
10
38.9923769310892
20
0.21726539832602
30
0
41
1
10
39.0098150627841
20
0.1231368605157
30
0
41
1
10
39.0446913261739
20
-0.0637376572580877
30
0
41
1
10
39.0621294578688
20
-0.157336710631142
30
0
41
1
10
39.1493201163432
20
-0.629720532923869
30
0
41
1
10
39.2190726431227
20
-1.01783151834201
30
0
41
1
10
39.3585776966819
20
-1.80195061363779
30
0
41
1
10
39.4283302234614
20
-2.19792295254013
30
0
41
1
10
39.5678352770205
20
-2.98190189440868
30
0
41
1
10
39.6375878038001
20
-3.36984274883687
30
0
41
1
10
39.7770928573592
20
-4.12008865281612
30
0
41
1
10
39.8468453841387
20
-4.48230996919878
30
0
41
1
10
39.9863504376978
20
-5.16394103520889
30
0
41
1
10
40.0561029644774
20
-5.48327147771795
30
0
41
1
10
40.1956080180364
20
-6.06497849110096
30
0
41
1
10
40.265360544816
20
-6.32730384674795
30
0
41
1
10
40.4048655983751
20
-6.78593648893141
30
0
41
1
10
40.4746181251547
20
-6.98223416122545
30
0
41
1
10
40.6141231787137
20
-7.30577588335265
30
0
41
1
10
40.6838757054933
20
-7.43304946880943
30
0
41
1
10
40.8233807590524
20
-7.62121281976559
30
0
41
1
10
40.8931332858319
20
-7.68215624645384
30
0
41
1
10
40.9977620760012
20
-7.72907941972443
30
0
41
1
10
41.032638339391
20
-7.73733396175115
30
0
41
1
10
41.0762336686282
20
-7.73913111622036
30
0
41
1
10
41.0849527344757
20
-7.73906748286356
30
0
41
1
10
41.1023908661706
20
-7.73808983916592
30
0
41
1
10
41.128548063713
20
-7.73534205048679
30
0
41
1
10
41.1547052612552
20
-7.72866613863849
30
0
41
1
10
41.2418959197296
20
-7.69732901932758
30
0
41
1
10
41.3116484465092
20
-7.64306527747269
30
0
41
1
10
41.4511535000683
20
-7.46883391475015
30
0
41
1
10
41.5209060268478
20
-7.34881119140107
30
0
41
1
10
41.660411080407
20
-7.03980713885298
30
0
41
1
10
41.7301636071865
20
-6.85079285938031
30
0
41
1
10
41.8696686607456
20
-6.40612388499281
30
0
41
1
10
41.9394211875251
20
-6.15047425897609
30
0
41
1
10
42.0789262410842
20
-5.58089782836004
30
0
41
1
10
42.1486787678638
20
-5.26701820554899
30
0
41
1
10
42.2881838214228
20
-4.59460690780648
30
0
41
1
10
42.3579363482024
20
-4.23615259290963
30
0
41
1
10
42.4974414017615
20
-3.49154977051722
30
0
41
1
10
42.5671939285411
20
-3.10548570756171
30
0
41
1
10
42.7066989821002
20
-2.32343182199622
30
0
41
1
10
42.7764515088797
20
-1.92751044885551
30
0
41
1
10
42.9159565624389
20
-1.14194383818708
30
0
41
1
10
42.9857090892184
20
-0.752337729677066
30
0
41
1
10
43.0728997476928
20
-0.27736630810287
30
0
41
1
10
43.0903378793877
20
-0.182964739923221
30
0
41
1
10
43.1164950769301
20
-0.0423746677529664
30
0
41
1
10
43.1252141427774
20
0.0042046276795986
30
0
41
1
10
43.1426522744723
20
0.0977462249297218
30
0
41
1
10
43.1862476037096
20
0.332454032082694
30
0
41
1
10
43.2298429329468
20
0.571209810408874
30
0
41
1
10
43.3344717231161
20
1.14986680632322
30
0
41
1
10
43.4042242498957
20
1.54326680873001
30
0
41
1
10
43.5437293034547
20
2.33121651469773
30
0
41
1
10
43.6134818302343
20
2.7257164010235
30
0
41
1
10
43.6832343570139
20
3.11233409932362
30
0
0
SPLINE
5
E6
100
AcDbEntity
8
1
62
256
6
ByLayer
370
13
48
1
60
0
100
AcDbSpline
70
4
71
3
72
85
73
81
40
0
40
0
40
0
40
0
40
0.0312499999999988
40
0.0312499999999988
40
0.0624999999999976
40
0.0624999999999976
40
0.0937499999999964
40
0.0937499999999964
40
0.124999999999995
40
0.124999999999995
40
0.156249999999994
40
0.156249999999994
40
0.187499999999993
40
0.187499999999993
40
0.218749999999992
40
0.218749999999992
40
0.249999999999991
40
0.249999999999991
40
0.281249999999989
40
0.281249999999989
40
0.289062499999989
40
0.289062499999989
40
0.296874999999989
40
0.296874999999989
40
0.312499999999989
40
0.312499999999989
40
0.343749999999988
40
0.343749999999988
40
0.374999999999988
40
0.374999999999988
40
0.406249999999988
40
0.406249999999988
40
0.437499999999988
40
0.437499999999988
40
0.468749999999987
40
0.468749999999987
40
0.499999999999987
40
0.499999999999987
40
0.531249999999987
40
0.531249999999987
40
0.562499999999986
40
0.562499999999986
40
0.566406249999986
40
0.566406249999986
40
0.570312499999986
40
0.570312499999986
40
0.578124999999986
40
0.578124999999986
40
0.593749999999987
40
0.593749999999987
40
0.624999999999987
40
0.624999999999987
40
0.656249999999988
40
0.656249999999988
40
0.687499999999988
40
0.687499999999988
40
0.718749999999988
40
0.718749999999988
40
0.749999999999989
40
0.749999999999989
40
0.781249999999989
40
0.781249999999989
40
0.81249999999999
40
0.81249999999999
40
0.84374999999999
40
0.84374999999999
40
0.851562499999991
40
0.851562499999991
40
0.855468749999991
40
0.855468749999991
40
0.859374999999991
40
0.874999999999992
40
0.874999999999992
40
0.906249999999994
40
0.906249999999994
40
0.937499999999996
40
0.937499999999996
40
0.968749999999998
40
0.968749999999998
40
1
40
1
40
1
40
1
41
1
10
36.4913279938387
20
7.739
30
0
41
1
10
36.5662436851218
20
7.739
30
0
41
1
10
36.6411593764049
20
7.70773423978534
30
0
41
1
10
36.790990758971
20
7.57211682837095
30
0
41
1
10
36.8659064502541
20
7.4676817811976
30
0
41
1
10
37.0157378328203
20
7.17970915681906
30
0
41
1
10
37.0906535241034
20
6.99611240870902
30
0
41
1
10
37.2404849066695
20
6.55075201858261
30
0
41
1
10
37.3154005979526
20
6.28898219776317
30
0
41
1
10
37.4652319805188
20
5.69624684653789
30
0
41
1
10
37.5401476718018
20
5.36534010125706
30
0
41
1
10
37.6899790543679
20
4.65057008720831
30
0
41
1
10
37.764894745651
20
4.2668148667484
30
0
41
1
10
37.9147261282171
20
3.4672647388017
30
0
41
1
10
37.9896418195002
20
3.05159028271746
30
0
41
1
10
38.1394732020664
20
2.21021477754138
30
0
41
1
10
38.2143888933495
20
1.7846088503143
30
0
41
1
10
38.3642202759156
20
0.943110190397817
30
0
41
1
10
38.4391359671986
20
0.527266820628824
30
0
41
1
10
38.5327805813025
20
0.0230589702469217
30
0
41
1
10
38.5515095041233
20
-0.0767951216485869
30
0
41
1
10
38.5889673497648
20
-0.279018606267755
30
0
41
1
10
38.6076962725856
20
-0.380880067224837
30
0
41
1
10
38.6638830410479
20
-0.688398255734285
30
0
41
1
10
38.7013408866895
20
-0.895998558860555
30
0
41
1
10
38.813714423614
20
-1.52368006627842
30
0
41
1
10
38.8886301148971
20
-1.9487633505594
30
0
41
1
10
39.0384614974632
20
-2.79341110569882
30
0
41
1
10
39.1133771887463
20
-3.2128889338851
30
0
41
1
10
39.2632085713125
20
-4.02459479375787
30
0
41
1
10
39.3381242625956
20
-4.41670487072292
30
0
41
1
10
39.4879556451617
20
-5.15222209787046
30
0
41
1
10
39.5628713364448
20
-5.49551527566859
30
0
41
1
10
39.7127027190109
20
-6.11585235302078
30
0
41
1
10
39.787618410294
20
-6.39282515066827
30
0
41
1
10
39.9374497928602
20
-6.86980053914846
30
0
41
1
10
40.0123654841432
20
-7.06979609904107
30
0
41
1
10
40.1621968667094
20
-7.39015017004428
30
0
41
1
10
40.2371125579924
20
-7.5105590218551
30
0
41
1
10
40.3869439405586
20
-7.67642602775555
30
0
41
1
10
40.4618596318417
20
-7.72196515500747
30
0
41
1
10
40.5461397845351
20
-7.73663701501064
30
0
41
1
10
40.5555042459455
20
-7.73776183690347
30
0
41
1
10
40.5742331687663
20
-7.73902352862186
30
0
41
1
10
40.5835976301767
20
-7.73916232146888
30
0
41
1
10
40.6116910144078
20
-7.73811716228991
30
0
41
1
10
40.6304199372286
20
-7.73545748637525
30
0
41
1
10
40.6866067056909
20
-7.72131761149024
30
0
41
1
10
40.7240645513324
20
-7.70366938566372
30
0
41
1
10
40.8364380882571
20
-7.62410105310843
30
0
41
1
10
40.9113537795401
20
-7.53537887815404
30
0
41
1
10
41.0611851621063
20
-7.27956328002136
30
0
41
1
10
41.1361008533893
20
-7.11240313438117
30
0
41
1
10
41.2859322359555
20
-6.69907901555356
30
0
41
1
10
41.3608479272386
20
-6.45289620183476
30
0
41
1
10
41.5106793098047
20
-5.88884390103823
30
0
41
1
10
41.5855950010878
20
-5.57102019597983
30
0
41
1
10
41.7354263836539
20
-4.8785915352253
30
0
41
1
10
41.8103420749369
20
-4.50408707127815
30
0
41
1
10
41.9601734575031
20
-3.71852988063921
30
0
41
1
10
42.0350891487862
20
-3.30759844234396
30
0
41
1
10
42.1849205313524
20
-2.47127436584367
30
0
41
1
10
42.2598362226354
20
-2.04598445381924
30
0
41
1
10
42.4096676052015
20
-1.20137816359235
30
0
41
1
10
42.4845832964846
20
-0.78212110172646
30
0
41
1
10
42.5782279105885
20
-0.271955424495132
30
0
41
1
10
42.5969568334093
20
-0.17060554712063
30
0
41
1
10
42.6250502176404
20
-0.0197578091069488
30
0
41
1
10
42.6344146790508
20
0.0302435488068227
30
0
41
1
10
42.6531436018716
20
0.130863205078839
30
0
41
1
10
42.6999659089235
20
0.38338507781026
30
0
41
1
10
42.7467882159755
20
0.640495231315526
30
0
41
1
10
42.8591617529001
20
1.26368284110109
30
0
41
1
10
42.9340774441831
20
1.68743926371425
30
0
41
1
10
43.0839088267492
20
2.5336249149523
30
0
41
1
10
43.1588245180323
20
2.95597664985812
30
0
41
1
10
43.3086559005985
20
3.77798922505383
30
0
41
1
10
43.3835715918815
20
4.17753615481499
30
0
41
1
10
43.5334029744477
20
4.93213194920446
30
0
41
1
10
43.6083186657308
20
5.28706263909004
30
0
41
1
10
43.6832343570138
20
5.61043017387755
30
0
0
SPLINE
5
E7
100
AcDbEntity
8
1
62
256
6
ByLayer
370
13
48
1
60
0
100
AcDbSpline
70
4
71
3
72
84
73
80
40
0
40
0
40
0
40
0
40
0.0312499999999997
40
0.0312499999999997
40
0.0624999999999993
40
0.0624999999999993
40
0.093749999999999
40
0.093749999999999
40
0.124999999999999
40
0.124999999999999
40
0.156249999999998
40
0.156249999999998
40
0.187499999999998
40
0.187499999999998
40
0.218749999999998
40
0.218749999999998
40
0.249999999999997
40
0.249999999999997
40
0.265624999999997
40
0.265624999999997
40
0.273437499999997
40
0.273437499999997
40
0.281249999999997
40
0.281249999999997
40
0.312499999999997
40
0.312499999999997
40
0.343749999999996
40
0.343749999999996
40
0.374999999999996
40
0.374999999999996
40
0.406249999999996
40
0.406249999999996
40
0.437499999999995
40
0.437499999999995
40
0.468749999999995
40
0.468749999999995
40
0.499999999999995
40
0.499999999999995
40
0.531249999999994
40
0.531249999999994
40
0.535156249999994
40
0.535156249999994
40
0.539062499999994
40
0.546874999999995
40
0.546874999999995
40
0.562499999999995
40
0.562499999999995
40
0.593749999999996
40
0.593749999999996
40
0.624999999999997
40
0.624999999999997
40
0.656249999999998
40
0.656249999999998
40
0.687499999999999
40
0.687499999999999
40
0.71875
40
0.71875
40
0.750000000000001
40
0.750000000000001
40
0.781250000000002
40
0.781250000000002
40
0.796875000000003
40
0.796875000000003
40
0.800781250000003
40
0.800781250000003
40
0.804687500000003
40
0.812500000000003
40
0.812500000000003
40
0.843750000000002
40
0.843750000000002
40
0.875000000000002
40
0.875000000000002
40
0.906250000000001
40
0.906250000000001
40
0.937500000000001
40
0.937500000000001
40
0.968750000000001
40
0.968750000000001
40
1
40
1
40
1
40
1
41
1
10
35.9956642015002
20
7.739
30
0
41
1
10
36.0757430572868
20
7.739
30
0
41
1
10
36.1558219130734
20
7.7032506300616
30
0
41
1
10
36.3159796246466
20
7.54752046750991
30
0
41
1
10
36.3960584804332
20
7.42742451740287
30
0
41
1
10
36.5562161920065
20
7.0963986718414
30
0
41
1
10
36.6362950477931
20
6.88539455801677
30
0
41
1
10
36.7964527593663
20
6.37532939310032
30
0
41
1
10
36.8765316151529
20
6.07627834540227
30
0
41
1
10
37.036689326726
20
5.40338759130711
30
0
41
1
10
37.1167681825127
20
5.02965247383986
30
0
41
1
10
37.2769258940859
20
4.22942895612837
30
0
41
1
10
37.3570047498725
20
3.80310344698467
30
0
41
1
10
37.5171624614457
20
2.92430847923365
30
0
41
1
10
37.5972413172323
20
2.47199757912514
30
0
41
1
10
37.7573990288055
20
1.56734545684259
30
0
41
1
10
37.837477884592
20
1.11510767273006
30
0
41
1
10
37.9575961682719
20
0.452867746019223
30
0
41
1
10
37.9976355961652
20
0.234761793967493
30
0
41
1
10
38.0576947380052
20
-0.0868886214337579
30
0
41
1
10
38.0777144519518
20
-0.194590919638557
30
0
41
1
10
38.1177538798451
20
-0.412034537290452
30
0
41
1
10
38.1377735937918
20
-0.521565009023078
30
0
41
1
10
38.2378721635251
20
-1.0725909828738
30
0
41
1
10
38.3179510193116
20
-1.52444462466718
30
0
41
1
10
38.4781087308849
20
-2.42909142247157
30
0
41
1
10
38.5581875866714
20
-2.88178333594914
30
0
41
1
10
38.7183452982446
20
-3.76219710119494
30
0
41
1
10
38.7984241540312
20
-4.18976151470389
30
0
41
1
10
38.9585818656045
20
-4.99326235481638
30
0
41
1
10
39.0386607213911
20
-5.36903503127451
30
0
41
1
10
39.1988184329642
20
-6.04658548952759
30
0
41
1
10
39.2788972887509
20
-6.34825605712646
30
0
41
1
10
39.4390550003241
20
-6.86382664213369
30
0
41
1
10
39.5191338561107
20
-7.07771358107084
30
0
41
1
10
39.6792915676838
20
-7.41444120524153
30
0
41
1
10
39.7593704234704
20
-7.53735401270677
30
0
41
1
10
39.9195281350436
20
-7.69839429732713
30
0
41
1
10
39.9996069908302
20
-7.73663639782788
30
0
41
1
10
40.0896957035902
20
-7.73917517787214
30
0
41
1
10
40.0997055605635
20
-7.73890185034511
30
0
41
1
10
40.1197252745101
20
-7.73722502061824
30
0
41
1
10
40.1497548454301
20
-7.73301064424223
30
0
41
1
10
40.1797844163501
20
-7.72357235673016
30
0
41
1
10
40.23984355819
20
-7.69741414802968
30
0
41
1
10
40.2798829860833
20
-7.6702556284057
30
0
41
1
10
40.4000012697633
20
-7.55742549556183
30
0
41
1
10
40.4800801255498
20
-7.44013957412599
30
0
41
1
10
40.640237837123
20
-7.11481139100923
30
0
41
1
10
40.7203166929097
20
-6.90669286098841
30
0
41
1
10
40.8804744044829
20
-6.40214937294422
30
0
41
1
10
40.9605532602695
20
-6.10573135499115
30
0
41
1
10
41.1207109718426
20
-5.43753630964844
30
0
41
1
10
41.2007898276293
20
-5.0658612077452
30
0
41
1
10
41.3609475392025
20
-4.26896457371862
30
0
41
1
10
41.4410263949891
20
-3.84390500741159
30
0
41
1
10
41.6011841065622
20
-2.96678232733723
30
0
41
1
10
41.6812629623489
20
-2.51487883943093
30
0
41
1
10
41.841420673922
20
-1.61026941522076
30
0
41
1
10
41.9214995297086
20
-1.15766909760865
30
0
41
1
10
42.0416178133886
20
-0.494447700046237
30
0
41
1
10
42.0816572412819
20
-0.275942204549239
30
0
41
1
10
42.1317065261485
20
-0.0073271133112769
30
0
41
1
10
42.1417163831218
20
0.0461316859957606
30
0
41
1
10
42.1617360970684
20
0.153792820707821
30
0
41
1
10
42.1917656679884
20
0.315947819127644
30
0
41
1
10
42.2217952389084
20
0.479958088067548
30
0
41
1
10
42.3218938086417
20
1.03012095437
30
0
41
1
10
42.4019726644282
20
1.48156904150917
30
0
41
1
10
42.5621303760014
20
2.38616278766707
30
0
41
1
10
42.6422092317881
20
2.83920941333409
30
0
41
1
10
42.8023669433613
20
3.72118852594824
30
0
41
1
10
42.8824457991479
20
4.14996474676528
30
0
41
1
10
43.0426035107211
20
4.95669306765021
30
0
41
1
10
43.1226823665077
20
5.33448062497888
30
0
41
1
10
43.2828400780808
20
6.01665423311849
30
0
41
1
10
43.3629189338674
20
6.32093048405753
30
0
41
1
10
43.5230766454406
20
6.84198956779417
30
0
41
1
10
43.6031555012273
20
7.0587562368087
30
0
41
1
10
43.6832343570139
20
7.22997269712883
30
0
0
SPLINE
5
E8
100
AcDbEntity
8
1
62
256
6
ByLayer
370
13
48
1
60
0
100
AcDbSpline
70
4
71
3
72
102
73
98
40
0
40
0
40
0
40
0
40
0.0312500000000001
40
0.0312500000000001
40
0.0625000000000002
40
0.0625000000000002
40
0.0781250000000002
40
0.0781250000000002
40
0.0937500000000002
40
0.0937500000000002
40
0.109375
40
0.109375
40
0.125
40
0.125
40
0.140625
40
0.140625
40
0.15625
40
0.15625
40
0.171875
40
0.171875
40
0.1875
40
0.1875
40
0.21875
40
0.21875
40
0.25
40
0.25
40
0.28125
40
0.28125
40
0.3125
40
0.3125
40
0.328125
40
0.328125
40
0.34375
40
0.34375
40
0.359375
40
0.359375
40
0.375
40
0.375
40
0.390625
40
0.390625
40
0.40625
40
0.40625
40
0.421875
40
0.421875
40
0.4375
40
0.4375
40
0.46875
40
0.46875
40
0.5
40
0.5
40
0.53125
40
0.53125
40
0.5625
40
0.5625
40
0.578125
40
0.578125
40
0.59375
40
0.59375
40
0.609375
40
0.609375
40
0.625
40
0.625
40
0.640625
40
0.640625
40
0.656249999999999
40
0.656249999999999
40
0.671874999999999
40
0.671874999999999
40
0.687499999999999
40
0.687499999999999
40
0.718749999999999
40
0.718749999999999
40
0.75
40
0.75
40
0.78125
40
0.78125
40
0.8125
40
0.8125
40
0.828125
40
0.828125
40
0.84375
40
0.84375
40
0.859375
40
0.859375
40
0.875
40
0.875
40
0.890625
40
0.890625
40
0.90625
40
0.90625
40
0.921875
40
0.921875
40
0.9375
40
0.9375
40
0.96875
40
0.96875
40
1
40
1
40
1
40
1
41
1
10
35.5000004091618
20
7.739
30
0
41
1
10
35.5852424294519
20
7.739
30
0
41
1
10
35.670484449742
20
7.69846043455453
30
0
41
1
10
35.8409684903223
20
7.52114008439523
30
0
41
1
10
35.9262105106124
20
7.38420388803047
30
0
41
1
10
36.0540735410475
20
7.10134563372546
30
0
41
1
10
36.0966945511926
20
6.99423233163876
30
0
41
1
10
36.1819365714828
20
6.75462770577565
30
0
41
1
10
36.2245575816278
20
6.62213540616526
30
0
41
1
10
36.3097996019179
20
6.33288137680566
30
0
41
1
10
36.352420612063
20
6.17612087965202
30
0
41
1
10
36.4376626323532
20
5.84027411027051
30
0
41
1
10
36.4802836424982
20
5.66119130737044
30
0
41
1
10
36.5655256627883
20
5.28340790517504
30
0
41
1
10
36.6081466729334
20
5.08471270700977
30
0
41
1
10
36.6933886932235
20
4.67104225185264
30
0
41
1
10
36.7360097033686
20
4.45607373157836
30
0
41
1
10
36.8212517236587
20
4.01363949496826
30
0
41
1
10
36.8638727338038
20
3.78618107429458
30
0
41
1
10
36.9491147540939
20
3.32278140163572
30
0
41
1
10
36.991735764239
20
3.08684719615908
30
0
41
1
10
37.1195987946741
20
2.37236176565361
30
0
41
1
10
37.2048408149643
20
1.88732099123101
30
0
41
1
10
37.3753248555445
20
0.929104140131869
30
0
41
1
10
37.4605668758347
20
0.456025486085565
30
0
41
1
10
37.6310509164149
20
-0.456024391625704
30
0
41
1
10
37.716292936705
20
-0.929102999364972
30
0
41
1
10
37.8867769772853
20
-1.88731983227746
30
0
41
1
10
37.9720189975754
20
-2.37236060819086
30
0
41
1
10
38.0998820280106
20
-3.0868460601254
30
0
41
1
10
38.1425030381557
20
-3.32278027591713
30
0
41
1
10
38.2277450584458
20
-3.78617997569466
30
0
41
1
10
38.2703660685908
20
-4.01363841317288
30
0
41
1
10
38.355608088881
20
-4.45607268968925
30
0
41
1
10
38.3982290990261
20
-4.67104123306504
30
0
41
1
10
38.4834711193162
20
-5.08471174017905
30
0
41
1
10
38.5260921294612
20
-5.28340696719818
30
0
41
1
10
38.6113341497514
20
-5.6611904319868
30
0
41
1
10
38.6539551598964
20
-5.84027326862352
30
0
41
1
10
38.7391971801865
20
-6.17612010923435
30
0
41
1
10
38.7818181903316
20
-6.33288064387722
30
0
41
1
10
38.8670602106217
20
-6.62213475067415
30
0
41
1
10
38.9096812207668
20
-6.75462709022898
30
0
41
1
10
38.9949232410569
20
-6.99423179708299
30
0
41
1
10
39.037544251202
20
-7.10134514021283
30
0
41
1
10
39.1654072816371
20
-7.38420351733578
30
0
41
1
10
39.2506493019273
20
-7.52113979505438
30
0
41
1
10
39.4211333425076
20
-7.69846029832638
30
0
41
1
10
39.5063753627977
20
-7.73899993550825
30
0
41
1
10
39.6768594033779
20
-7.73900006449159
30
0
41
1
10
39.7621014236681
20
-7.69846057078254
30
0
41
1
10
39.9325854642483
20
-7.52114037373593
30
0
41
1
10
40.0178274845384
20
-7.38420425872496
30
0
41
1
10
40.1456905149736
20
-7.10134612723789
30
0
41
1
10
40.1883115251187
20
-6.9942328661943
30
0
41
1
10
40.2735535454088
20
-6.75462832132212
30
0
41
1
10
40.3161745555539
20
-6.62213606165616
30
0
41
1
10
40.401416575844
20
-6.33288210973393
30
0
41
1
10
40.4440375859891
20
-6.17612165006955
30
0
41
1
10
40.5292796062792
20
-5.84027495191737
30
0
41
1
10
40.5719006164242
20
-5.66119218275395
30
0
41
1
10
40.6571426367143
20
-5.28340884315173
30
0
41
1
10
40.6997636468595
20
-5.08471367384035
30
0
41
1
10
40.7850056671496
20
-4.67104327064015
30
0
41
1
10
40.8276266772946
20
-4.45607477346735
30
0
41
1
10
40.9128686975848
20
-4.01364057676355
30
0
41
1
10
40.9554897077298
20
-3.78618217289443
30
0
41
1
10
41.0407317280199
20
-3.32278252735426
30
0
41
1
10
41.083352738165
20
-3.08684833219274
30
0
41
1
10
41.2112157686002
20
-2.37236292311638
30
0
41
1
10
41.2964577888903
20
-1.88732215018456
30
0
41
1
10
41.4669418294706
20
-0.929105280898852
30
0
41
1
10
41.5521838497607
20
-0.456026607258764
30
0
41
1
10
41.722667890341
20
0.456023323879123
30
0
41
1
10
41.8079099106311
20
0.929101858598074
30
0
41
1
10
41.9783939512113
20
1.88731867332393
30
0
41
1
10
42.0636359715015
20
2.37235945072808
30
0
41
1
10
42.1914990019366
20
3.08684492409165
30
0
41
1
10
42.2341200120818
20
3.32277915019847
30
0
41
1
10
42.3193620323718
20
3.78617887709464
30
0
41
1
10
42.3619830425169
20
4.01363733137742
30
0
41
1
10
42.447225062807
20
4.45607164780006
30
0
41
1
10
42.489846072952
20
4.6710402142773
30
0
41
1
10
42.5750880932422
20
5.08471077334821
30
0
41
1
10
42.6177091033873
20
5.28340602922117
30
0
41
1
10
42.7029511236775
20
5.66118955660298
30
0
41
1
10
42.7455721338225
20
5.84027242697636
30
0
41
1
10
42.8308141541126
20
6.17611933881648
30
0
41
1
10
42.8734351642577
20
6.33287991094861
30
0
41
1
10
42.9586771845478
20
6.62213409518284
30
0
41
1
10
43.0012981946929
20
6.75462647468211
30
0
41
1
10
43.086540214983
20
6.99423126252705
30
0
41
1
10
43.1291612251281
20
7.10134464670003
30
0
41
1
10
43.2570242555632
20
7.38420314664089
30
0
41
1
10
43.3422662758533
20
7.52113950571331
30
0
41
1
10
43.5127503164337
20
7.69846016209806
30
0
41
1
10
43.5979923367238
20
7.73899987101635
30
0
41
1
10
43.6832343570138
20
7.73899999999969
30
0
0
SPLINE
5
E9
100
AcDbEntity
8
1
62
256
6
ByLayer
370
13
48
1
60
0
100
AcDbSpline
70
4
71
3
72
84
73
80
40
0
40
0
40
0
40
0
40
0.0312500000000008
40
0.0312500000000008
40
0.0625000000000015
40
0.0625000000000015
40
0.0937500000000022
40
0.0937500000000022
40
0.125000000000003
40
0.125000000000003
40
0.156250000000004
40
0.156250000000004
40
0.187500000000004
40
0.187500000000004
40
0.195312500000004
40
0.199218750000005
40
0.199218750000005
40
0.203125000000005
40
0.203125000000005
40
0.218750000000005
40
0.218750000000005
40
0.250000000000005
40
0.250000000000005
40
0.281250000000005
40
0.281250000000005
40
0.312500000000005
40
0.312500000000005
40
0.343750000000005
40
0.343750000000005
40
0.375000000000005
40
0.375000000000005
40
0.406250000000005
40
0.406250000000005
40
0.437500000000005
40
0.437500000000005
40
0.453125000000005
40
0.453125000000005
40
0.460937500000005
40
0.464843750000005
40
0.464843750000005
40
0.468750000000005
40
0.468750000000005
40
0.500000000000004
40
0.500000000000004
40
0.531250000000003
40
0.531250000000003
40
0.562500000000003
40
0.562500000000003
40
0.593750000000002
40
0.593750000000002
40
0.625000000000001
40
0.625000000000001
40
0.656250000000001
40
0.656250000000001
40
0.6875
40
0.6875
40
0.718749999999999
40
0.718749999999999
40
0.726562499999999
40
0.726562499999999
40
0.734374999999999
40
0.734374999999999
40
0.749999999999999
40
0.749999999999999
40
0.781249999999999
40
0.781249999999999
40
0.8125
40
0.8125
40
0.84375
40
0.84375
40
0.875
40
0.875
40
0.90625
40
0.90625
40
0.9375
40
0.9375
40
0.96875
40
0.96875
40
1
40
1
40
1
40
1
41
1
10
35.5
20
7.2299744467831
30
0
41
1
10
35.5800788643108
20
7.05875827565845
30
0
41
1
10
35.6601577286216
20
6.84199188870471
30
0
41
1
10
35.8203154572432
20
6.32093332143481
30
0
41
1
10
35.900394321554
20
6.01665730458791
30
0
41
1
10
36.0605520501757
20
5.33448408892437
30
0
41
1
10
36.1406309144865
20
4.95669668977854
30
0
41
1
10
36.3007886431081
20
4.14996859569928
30
0
41
1
10
36.3808675074189
20
3.72119244351782
30
0
41
1
10
36.5410252360404
20
2.83921338206716
30
0
41
1
10
36.6211041003512
20
2.38616673912369
30
0
41
1
10
36.7812618289729
20
1.48157288969136
30
0
41
1
10
36.8613406932837
20
1.03012471680825
30
0
41
1
10
36.9614392736722
20
0.47996171541277
30
0
41
1
10
36.9914688477886
20
0.315951403859913
30
0
41
1
10
37.0214984219052
20
0.153796360123721
30
0
41
1
10
37.041518137983
20
0.0461351946463822
30
0
41
1
10
37.0515279960218
20
-0.0073236175167608
30
0
41
1
10
37.1015772862161
20
-0.275938688548024
30
0
41
1
10
37.1416167183714
20
-0.49444417374832
30
0
41
1
10
37.2617350148376
20
-1.15766556045588
30
0
41
1
10
37.3418138791485
20
-1.6102658978088
30
0
41
1
10
37.5019716077701
20
-2.51487542371049
30
0
41
1
10
37.5820504720809
20
-2.966778993687
30
0
41
1
10
37.7422082007025
20
-3.84390189869646
30
0
41
1
10
37.8222870650133
20
-4.26896160786455
30
0
41
1
10
37.9824447936349
20
-5.06585857496776
30
0
41
1
10
38.0625236579457
20
-5.43753386693001
30
0
41
1
10
38.2226813865674
20
-6.10572931665948
30
0
41
1
10
38.3027602508781
20
-6.40214754869677
30
0
41
1
10
38.4629179794997
20
-6.90669146278793
30
0
41
1
10
38.5429968438105
20
-7.11481020456185
30
0
41
1
10
38.7031545724322
20
-7.44013878663915
30
0
41
1
10
38.7832334367429
20
-7.5574248951929
30
0
41
1
10
38.9033517332091
20
-7.67025528002262
30
0
41
1
10
38.9433911653646
20
-7.69741387893566
30
0
41
1
10
39.0034503135976
20
-7.72357219890631
30
0
41
1
10
39.0334798877142
20
-7.73301054014436
30
0
41
1
10
39.0635094618308
20
-7.73722496732722
30
0
41
1
10
39.0835291779085
20
-7.73890183027416
30
0
41
1
10
39.0935390359473
20
-7.73917517395537
30
0
41
1
10
39.183627758297
20
-7.73663653941978
30
0
41
1
10
39.2637066226077
20
-7.6983945740221
30
0
41
1
10
39.4238643512294
20
-7.53735455884399
30
0
41
1
10
39.5039432155402
20
-7.41444188562733
30
0
41
1
10
39.6641009441618
20
-7.07771451365755
30
0
41
1
10
39.7441798084726
20
-6.86382769252776
30
0
41
1
10
39.9043375370942
20
-6.34825731174448
30
0
41
1
10
39.9844164014049
20
-6.04658683042402
30
0
41
1
10
40.1445741300266
20
-5.36903650319891
30
0
41
1
10
40.2246529943374
20
-4.99326387143296
30
0
41
1
10
40.384810722959
20
-4.18976307719367
30
0
41
1
10
40.4648895872698
20
-3.76219866491891
30
0
41
1
10
40.6250473158914
20
-2.88178486491694
30
0
41
1
10
40.7051261802022
20
-2.42909291557476
30
0
41
1
10
40.8652839088238
20
-1.52444602048851
30
0
41
1
10
40.9453627731346
20
-1.07259231740585
30
0
41
1
10
41.0454613535231
20
-0.521566259085773
30
0
41
1
10
41.0654810696008
20
-0.412035770064534
30
0
41
1
10
41.1055205017562
20
-0.194592117231537
30
0
41
1
10
41.1255402178339
20
-0.0868897903565937
30
0
41
1
10
41.185599366067
20
0.234760639443863
30
0
41
1
10
41.2256387982224
20
0.452866603554384
30
0
41
1
10
41.3457570946886
20
1.11510657395488
30
0
41
1
10
41.4258359589994
20
1.56734439734441
30
0
41
1
10
41.585993687621
20
2.47199661636426
30
0
41
1
10
41.6660725519318
20
2.9243075739297
30
0
41
1
10
41.8262302805534
20
3.80310266846746
30
0
41
1
10
41.9063091448642
20
4.22942824687917
30
0
41
1
10
42.0664668734858
20
5.02965190536088
30
0
41
1
10
42.1465457377966
20
5.40338709422923
30
0
41
1
10
42.3067034664182
20
6.0762779829488
30
0
41
1
10
42.386782330729
20
6.37532909377919
30
0
41
1
10
42.5469400593507
20
6.88539436868095
30
0
41
1
10
42.6270189236614
20
7.0963985293221
30
0
41
1
10
42.7871766522831
20
7.42742444850072
30
0
41
1
10
42.8672555165939
20
7.54752042543348
30
0
41
1
10
43.0274132452155
20
7.7032506224067
30
0
41
1
10
43.1074921095263
20
7.739
30
0
41
1
10
43.1875709738371
20
7.739
30
0
0
SPLINE
5
EA
100
AcDbEntity
8
1
62
256
6
ByLayer
370
13
48
1
60
0
100
AcDbSpline
70
4
71
3
72
86
73
82
40
0
40
0
40
0
40
0
40
0.031250000000002
40
0.031250000000002
40
0.062500000000004
40
0.062500000000004
40
0.093750000000006
40
0.093750000000006
40
0.125000000000008
40
0.125000000000008
40
0.140625000000009
40
0.140625000000009
40
0.144531250000009
40
0.144531250000009
40
0.148437500000009
40
0.148437500000009
40
0.156250000000009
40
0.156250000000009
40
0.18750000000001
40
0.18750000000001
40
0.21875000000001
40
0.21875000000001
40
0.250000000000011
40
0.250000000000011
40
0.281250000000011
40
0.281250000000011
40
0.312500000000012
40
0.312500000000012
40
0.343750000000013
40
0.343750000000013
40
0.375000000000013
40
0.375000000000013
40
0.406250000000014
40
0.406250000000014
40
0.421875000000014
40
0.421875000000014
40
0.429687500000014
40
0.429687500000014
40
0.433593750000014
40
0.433593750000014
40
0.437500000000014
40
0.437500000000014
40
0.468750000000013
40
0.468750000000013
40
0.500000000000013
40
0.500000000000013
40
0.531250000000012
40
0.531250000000012
40
0.562500000000011
40
0.562500000000011
40
0.59375000000001
40
0.59375000000001
40
0.625000000000009
40
0.625000000000009
40
0.656250000000008
40
0.656250000000008
40
0.687500000000008
40
0.687500000000008
40
0.703125000000007
40
0.703125000000007
40
0.710937500000007
40
0.710937500000007
40
0.718750000000007
40
0.718750000000007
40
0.750000000000006
40
0.750000000000006
40
0.781250000000006
40
0.781250000000006
40
0.812500000000005
40
0.812500000000005
40
0.843750000000004
40
0.843750000000004
40
0.875000000000003
40
0.875000000000003
40
0.906250000000002
40
0.906250000000002
40
0.937500000000002
40
0.937500000000002
40
0.968750000000001
40
0.968750000000001
40
1
40
1
40
1
40
1
41
1
10
35.5
20
5.61043370610332
30
0
41
1
10
35.5749156998073
20
5.28706636278454
30
0
41
1
10
35.6498313996146
20
4.9321358282221
30
0
41
1
10
35.7996627992291
20
4.17754026085763
30
0
41
1
10
35.8745784990364
20
3.77799340280808
30
0
41
1
10
36.024409898651
20
2.95598088996755
30
0
41
1
10
36.0993255984583
20
2.53362914584906
30
0
41
1
10
36.2491569980728
20
1.68744340938059
30
0
41
1
10
36.3240726978801
20
1.26368691094487
30
0
41
1
10
36.436446247591
20
0.640499152728154
30
0
41
1
10
36.4739040974946
20
0.43481097469305
30
0
41
1
10
36.5207264098742
20
0.181372003469988
30
0
41
1
10
36.5300908723501
20
0.130866981492034
30
0
41
1
10
36.5488197973019
20
0.0302472943220948
30
0
41
1
10
36.5581842597778
20
-0.0197540713449484
30
0
41
1
10
36.5862776472055
20
-0.170601797357278
30
0
41
1
10
36.6050065721574
20
-0.271951668104208
30
0
41
1
10
36.6986511969165
20
-0.782117319525923
30
0
41
1
10
36.7735668967238
20
-1.20137438439414
30
0
41
1
10
36.9233982963383
20
-2.04598073701251
30
0
41
1
10
36.9983139961455
20
-2.47127070853551
30
0
41
1
10
37.1481453957601
20
-3.30759496263329
30
0
41
1
10
37.2230610955674
20
-3.71852651906767
30
0
41
1
10
37.372892495182
20
-4.50408399721596
30
0
41
1
10
37.4478081949893
20
-4.87858863046452
30
0
41
1
10
37.5976395946037
20
-5.57101766441855
30
0
41
1
10
37.6725552944111
20
-5.88884157321212
30
0
41
1
10
37.8223866940256
20
-6.45289429377348
30
0
41
1
10
37.8973023938329
20
-6.69907732333439
30
0
41
1
10
38.0471337934475
20
-7.11240186373129
30
0
41
1
10
38.1220494932547
20
-7.27956221496592
30
0
41
1
10
38.2718808928693
20
-7.53537819674588
30
0
41
1
10
38.3467965926765
20
-7.62410054971437
30
0
41
1
10
38.4591701423875
20
-7.7036691213049
30
0
41
1
10
38.4966279922911
20
-7.72131742220802
30
0
41
1
10
38.5528147671465
20
-7.73545740242884
30
0
41
1
10
38.5715436920984
20
-7.73811711224576
30
0
41
1
10
38.5996370795261
20
-7.73916232044633
30
0
41
1
10
38.609001542002
20
-7.73902354361854
30
0
41
1
10
38.6277304669538
20
-7.73776188435471
30
0
41
1
10
38.6370949294297
20
-7.7366370787675
30
0
41
1
10
38.7213750917129
20
-7.7219653661393
30
0
41
1
10
38.7962907915202
20
-7.67642637446775
30
0
41
1
10
38.9461221911347
20
-7.51055963766512
30
0
41
1
10
39.021037890942
20
-7.39015091929713
30
0
41
1
10
39.1708692905566
20
-7.06979709944252
30
0
41
1
10
39.2457849903639
20
-6.86980165714365
30
0
41
1
10
39.3956163899784
20
-6.39282647491862
30
0
41
1
10
39.4705320897857
20
-6.11585376582522
30
0
41
1
10
39.6203634894002
20
-5.49551682740824
30
0
41
1
10
39.6952791892075
20
-5.15222369993919
30
0
41
1
10
39.845110588822
20
-4.41670653256566
30
0
41
1
10
39.9200262886293
20
-4.02459646507336
30
0
41
1
10
40.0698576882439
20
-3.21289058749664
30
0
41
1
10
40.1447733880512
20
-2.79341273222224
30
0
41
1
10
40.2946047876658
20
-1.94876489557842
30
0
41
1
10
40.369520487473
20
-1.5236815569842
30
0
41
1
10
40.4818940371839
20
-0.895999956109904
30
0
41
1
10
40.5193518870875
20
-0.688399619839117
30
0
41
1
10
40.575538661943
20
-0.380881379638396
30
0
41
1
10
40.5942675868948
20
-0.27901990112116
30
0
41
1
10
40.6317254367984
20
-0.0767963808813192
30
0
41
1
10
40.6504543617503
20
0.0230577258442395
30
0
41
1
10
40.7440989865094
20
0.527265602198241
30
0
41
1
10
40.8190146863167
20
0.943109002090893
30
0
41
1
10
40.9688460859312
20
1.7846077406445
30
0
41
1
10
41.0437617857385
20
2.210213716401
30
0
41
1
10
41.193593185353
20
3.05158933342247
30
0
41
1
10
41.2685088851603
20
3.4672638528001
30
0
41
1
10
41.4183402847749
20
4.26681411518265
30
0
41
1
10
41.4932559845822
20
4.6505694067225
30
0
41
1
10
41.6430873841967
20
5.36533956180261
30
0
41
1
10
41.718003084004
20
5.69624637695512
30
0
41
1
10
41.8678344836186
20
6.28898185802078
30
0
41
1
10
41.9427501834258
20
6.55075173874755
30
0
41
1
10
42.0925815830404
20
6.99611223247032
30
0
41
1
10
42.1674972828476
20
7.17970902425125
30
0
41
1
10
42.3173286824623
20
7.46768171716545
30
0
41
1
10
42.3922443822695
20
7.57211678922781
30
0
41
1
10
42.542075781884
20
7.7077342326352
30
0
41
1
10
42.6169914816912
20
7.739
30
0
41
1
10
42.6919071814986
20
7.739
30
0
0
SPLINE
5
EB
100
AcDbEntity
8
1
62
256
6
ByLayer
370
13
48
1
60
0
100
AcDbSpline
70
4
71
3
72
85
73
81
40
0
40
0
40
0
40
0
40
0.0312499999999973
40
0.0312499999999973
40
0.0624999999999946
40
0.0624999999999946
40
0.0781249999999933
40
0.0781249999999933
40
0.0820312499999931
40
0.0820312499999931
40
0.0859374999999929
40
0.0859374999999929
40
0.0937499999999927
40
0.0937499999999927
40
0.124999999999993
40
0.124999999999993
40
0.156249999999992
40
0.156249999999992
40
0.187499999999992
40
0.187499999999992
40
0.218749999999992
40
0.218749999999992
40
0.249999999999992
40
0.249999999999992
40
0.281249999999991
40
0.281249999999991
40
0.312499999999991
40
0.312499999999991
40
0.343749999999991
40
0.343749999999991
40
0.374999999999991
40
0.374999999999991
40
0.382812499999991
40
0.386718749999991
40
0.386718749999991
40
0.390624999999991
40
0.390624999999991
40
0.406249999999992
40
0.406249999999992
40
0.437499999999992
40
0.437499999999992
40
0.468749999999993
40
0.468749999999993
40
0.499999999999994
40
0.499999999999994
40
0.531249999999995
40
0.531249999999995
40
0.562499999999996
40
0.562499999999996
40
0.593749999999997
40
0.593749999999997
40
0.624999999999997
40
0.624999999999997
40
0.656249999999998
40
0.656249999999998
40
0.687499999999999
40
0.687499999999999
40
0.695312499999999
40
0.695312499999999
40
0.703124999999999
40
0.703124999999999
40
0.718749999999999
40
0.718749999999999
40
0.749999999999999
40
0.749999999999999
40
0.781249999999999
40
0.781249999999999
40
0.8125
40
0.8125
40
0.84375
40
0.84375
40
0.875
40
0.875
40
0.90625
40
0.90625
40
0.9375
40
0.9375
40
0.96875
40
0.96875
40
1
40
1
40
1
40
1
41
1
10
35.5
20
3.11233863504879
30
0
41
1
10
35.5697525353038
20
2.72572095170062
30
0
41
1
10
35.6395050706075
20
2.33122104376551
30
0
41
1
10
35.779010141215
20
1.54327123486149
30
0
41
1
10
35.8487626765188
20
1.1498711512748
30
0
41
1
10
35.9533914794744
20
0.571214002334358
30
0
41
1
10
35.9882677471263
20
0.380209323474901
30
0
41
1
10
36.0318630816911
20
0.144692324043319
30
0
41
1
10
36.0405821486041
20
0.0977502700397679
30
0
41
1
10
36.05802028243
20
0.0042086416918892
30
0
41
1
10
36.066739349343
20
-0.042370651312126
30
0
41
1
10
36.0928965500819
20
-0.182960711743533
30
0
41
1
10
36.1103346839078
20
-0.277362273381584
30
0
41
1
10
36.1975253530375
20
-0.752333669068264
30
0
41
1
10
36.2672778883413
20
-1.14193977885179
30
0
41
1
10
36.4067829589488
20
-1.92750644408724
30
0
41
1
10
36.4765354942525
20
-2.32342787060588
30
0
41
1
10
36.61604056486
20
-3.10548191762314
30
0
41
1
10
36.6857931001638
20
-3.49154608869256
30
0
41
1
10
36.8252981707713
20
-4.23614917710788
30
0
41
1
10
36.895050706075
20
-4.5946036498797
30
0
41
1
10
37.0345557766825
20
-5.26701530050434
30
0
41
1
10
37.1043083119862
20
-5.58089511821552
30
0
41
1
10
37.2438133825938
20
-6.15047195749705
30
0
41
1
10
37.3135659178975
20
-6.40612179713688
30
0
41
1
10
37.453070988505
20
-6.85079119767971
30
0
41
1
10
37.5228235238088
20
-7.03980568956158
30
0
41
1
10
37.6623285944163
20
-7.34881014838183
30
0
41
1
10
37.73208112972
20
-7.46883306552962
30
0
41
1
10
37.8715862003275
20
-7.64306478528457
30
0
41
1
10
37.9413387356313
20
-7.69732869037441
30
0
41
1
10
38.028529404761
20
-7.7286659911004
30
0
41
1
10
38.0546866054999
20
-7.73534195569826
30
0
41
1
10
38.0808438062388
20
-7.73808979457917
30
0
41
1
10
38.0982819400647
20
-7.73906747117698
30
0
41
1
10
38.1070010069777
20
-7.73913112058887
30
0
41
1
10
38.1505963415425
20
-7.73733404705871
30
0
41
1
10
38.1854726091944
20
-7.72907957099011
30
0
41
1
10
38.2901014121501
20
-7.68215659763243
30
0
41
1
10
38.3598539474538
20
-7.62121330700703
30
0
41
1
10
38.4993590180613
20
-7.433050223284
30
0
41
1
10
38.569111553365
20
-7.30577676893279
30
0
41
1
10
38.7086166239726
20
-6.98223529212606
30
0
41
1
10
38.7783691592763
20
-6.7859377339604
30
0
41
1
10
38.9178742298839
20
-6.32730529201385
30
0
41
1
10
38.9876267651876
20
-6.06498002239709
30
0
41
1
10
39.1271318357951
20
-5.48327314539458
30
0
41
1
10
39.1968843710987
20
-5.16394275319843
30
0
41
1
10
39.3363894417063
20
-4.48231174979421
30
0
41
1
10
39.4061419770101
20
-4.12009044572349
30
0
41
1
10
39.5456470476175
20
-3.36984453163731
30
0
41
1
10
39.6153995829213
20
-2.98190365485377
30
0
41
1
10
39.7549046535288
20
-2.19792464115463
30
0
41
1
10
39.8246571888326
20
-1.80195225285539
30
0
41
1
10
39.9641622594401
20
-1.01783304132763
30
0
41
1
10
40.0339147947438
20
-0.629721989138773
30
0
41
1
10
40.1211054638734
20
-0.157338078426676
30
0
41
1
10
40.1385435976994
20
-0.0637389980728642
30
0
41
1
10
40.1734198653513
20
0.123135529371808
30
0
41
1
10
40.1908579991772
20
0.21726407255187
30
0
41
1
10
40.2431724006551
20
0.501482045339515
30
0
41
1
10
40.2780486683069
20
0.693411339396306
30
0
41
1
10
40.3826774712625
20
1.27434395209215
30
0
41
1
10
40.4524300065663
20
1.66859265393273
30
0
41
1
10
40.5919350771738
20
2.45655097863073
30
0
41
1
10
40.6616876124775
20
2.85020754848395
30
0
41
1
10
40.801192683085
20
3.61987234157397
30
0
41
1
10
40.8709452183888
20
3.99580258254289
30
0
41
1
10
41.0104502889963
20
4.71230229778254
30
0
41
1
10
41.0802028243
20
5.05278735936864
30
0
41
1
10
41.2197078949076
20
5.68259916804467
30
0
41
1
10
41.2894604302113
20
5.97185963568671
30
0
41
1
10
41.4289655008188
20
6.4876956898913
30
0
41
1
10
41.4987180361225
20
6.71424239475419
30
0
41
1
10
41.63822310673
20
7.09888652274705
30
0
41
1
10
41.7079756420338
20
7.2569972657567
30
0
41
1
10
41.8474807126414
20
7.50500342178992
30
0
41
1
10
41.9172332479451
20
7.59494402531431
30
0
41
1
10
42.0567383185526
20
7.71191288659062
30
0
41
1
10
42.1264908538563
20
7.739
30
0
41
1
10
42.1962433891601
20
7.739
30
0
0
SPLINE
5
EC
100
AcDbEntity
8
1
62
256
6
ByLayer
370
13
48
1
60
0
100
AcDbSpline
70
4
71
3
72
8
73
4
40
0
40
0
40
0
40
0
40
1
40
1
40
1
40
1
41
1
10
43.6832343570139
20
7.56030944955955
30
0
41
1
10
44.6221562380093
20
5.04175874450971
30
0
41
1
10
45.5610781190047
20
2.5216455951485
30
0
41
1
10
46.5
20
2.84E-14
30
0
0
SPLINE
5
ED
100
AcDbEntity
8
1
62
256
6
ByLayer
370
13
48
1
60
0
100
AcDbSpline
70
4
71
3
72
8
73
4
40
0
40
0
40
0
40
0
40
1
40
1
40
1
40
1
41
1
10
43.6832343570139
20
7.72523574337492
30
0
41
1
10
44.6221562380093
20
5.15059034392021
30
0
41
1
10
45.5610781190046
20
2.57550154667527
30
0
41
1
10
46.5
20
0
30
0
0
SPLINE
5
EE
100
AcDbEntity
8
1
62
256
6
ByLayer
370
13
48
1
60
0
100
AcDbSpline
70
4
71
3
72
8
73
4
40
0
40
0
40
0
40
0
40
1
40
1
40
1
40
1
41
1
10
43.683234357014
20
-6.42460891048796
30
0
41
1
10
44.6221562380093
20
-4.27902145323671
30
0
41
1
10
45.5610781190046
20
-2.13747665944837
30
0
41
1
10
46.4999999999999
20
-1.99E-13
30
0
0
SPLINE
5
EF
100
AcDbEntity
8
1
62
256
6
ByLayer
370
13
48
1
60
0
100
AcDbSpline
70
4
71
3
72
8
73
4
40
0
40
0
40
0
40
0
40
1
40
1
40
1
40
1
41
1
10
43.6832343570138
20
0.851241854619701
30
0
41
1
10
44.6221562380092
20
0.57471679617845
30
0
41
1
10
45.5610781190045
20
0.29096837610615
30
0
41
1
10
46.4999999999999
20
2.84E-14
30
0
0
SPLINE
5
F0
100
AcDbEntity
8
1
62
256
6
ByLayer
370
13
48
1
60
0
100
AcDbSpline
70
4
71
3
72
8
73
4
40
0
40
0
40
0
40
0
40
1
40
1
40
1
40
1
41
1
10
43.683234357014
20
-5.33867585613757
30
0
41
1
10
44.6221562380092
20
-3.56437776972197
30
0
41
1
10
45.5610781190044
20
-1.78481208439885
30
0
41
1
10
46.4999999999997
20
-5.969E-13
30
0
0
SPLINE
5
F1
100
AcDbEntity
8
1
62
256
6
ByLayer
370
13
48
1
60
0
100
AcDbSpline
70
4
71
3
72
8
73
4
40
0
40
0
40
0
40
0
40
1
40
1
40
1
40
1
41
1
10
43.6832343570138
20
3.16649694256296
30
0
41
1
10
44.6221562380093
20
2.11762820084442
30
0
41
1
10
45.5610781190047
20
1.06212502397182
30
0
41
1
10
46.5000000000001
20
-2.84E-14
30
0
0
SPLINE
5
F2
100
AcDbEntity
8
1
62
256
6
ByLayer
370
13
48
1
60
0
100
AcDbSpline
70
4
71
3
72
8
73
4
40
0
40
0
40
0
40
0
40
1
40
1
40
1
40
1
41
1
10
43.683234357014
20
6.92019925593638
30
0
41
1
10
44.6221562380094
20
4.61021324825853
30
0
41
1
10
45.5610781190049
20
2.30347101624898
30
0
41
1
10
46.5000000000004
20
-8.811E-13
30
0
0
SPLINE
5
F3
100
AcDbEntity
8
1
62
256
6
ByLayer
370
13
48
1
60
0
100
AcDbSpline
70
4
71
3
72
8
73
4
40
0
40
0
40
0
40
0
40
1
40
1
40
1
40
1
41
1
10
43.683234357014
20
7.64878172240546
30
0
41
1
10
44.6221562380094
20
5.0980815357685
30
0
41
1
10
45.5610781190049
20
2.5484775153152
30
0
41
1
10
46.5000000000004
20
-9.948E-13
30
0
0
SPLINE
5
F4
100
AcDbEntity
8
1
62
256
6
ByLayer
370
13
48
1
60
0
100
AcDbSpline
70
4
71
3
72
8
73
4
40
0
40
0
40
0
40
0
40
1
40
1
40
1
40
1
41
1
10
43.683234357014
20
-3.79432680980813
30
0
41
1
10
44.6221562380093
20
-2.52321816591905
30
0
41
1
10
45.5610781190046
20
-1.25843755355612
30
0
41
1
10
46.4999999999999
20
-1.137E-13
30
0
0
SPLINE
5
F5
100
AcDbEntity
8
1
62
256
6
ByLayer
370
13
48
1
60
0
100
AcDbSpline
70
4
71
3
72
8
73
4
40
0
40
0
40
0
40
0
40
1
40
1
40
1
40
1
41
1
10
43.683234357014
20
1.32976954200336
30
0
41
1
10
44.6221562380093
20
0.879354782535614
30
0
41
1
10
45.5610781190046
20
0.436096519565496
30
0
41
1
10
46.4999999999999
20
5.68E-14
30
0
0
SPLINE
5
F6
100
AcDbEntity
8
1
62
256
6
ByLayer
370
13
48
1
60
0
100
AcDbSpline
70
4
71
3
72
8
73
4
40
0
40
0
40
0
40
0
40
1
40
1
40
1
40
1
41
1
10
43.683234357014
20
-7.73522546184432
30
0
41
1
10
44.6221562380093
20
-5.15704389093438
30
0
41
1
10
45.5610781190046
20
-2.57862517459577
30
0
41
1
10
46.4999999999999
20
-2.558E-13
30
0
0
SPLINE
5
F7
100
AcDbEntity
8
1
62
256
6
ByLayer
370
13
48
1
60
0
100
AcDbSpline
70
4
71
3
72
8
73
4
40
0
40
0
40
0
40
0
40
1
40
1
40
1
40
1
41
1
10
43.683234357014
20
-7.67917109146467
30
0
41
1
10
44.6221562380093
20
-5.11854561258366
30
0
41
1
10
45.5610781190046
20
-2.55881176198827
30
0
41
1
10
46.4999999999999
20
-2.558E-13
30
0
0
SPLINE
5
F8
100
AcDbEntity
8
1
62
256
6
ByLayer
370
13
48
1
60
0
100
AcDbSpline
70
4
71
3
72
8
73
4
40
0
40
0
40
0
40
0
40
1
40
1
40
1
40
1
41
1
10
43.6832343570138
20
4.22297087609053
30
0
41
1
10
44.6221562380092
20
2.82140307285877
30
0
41
1
10
45.5610781190046
20
1.41374052181968
30
0
41
1
10
46.5
20
5.68E-14
30
0
0
SPLINE
5
F9
100
AcDbEntity
8
1
62
256
6
ByLayer
370
13
48
1
60
0
100
AcDbSpline
70
4
71
3
72
8
73
4
40
0
40
0
40
0
40
0
40
1
40
1
40
1
40
1
41
1
10
43.683234357014
20
-4.79413782673146
30
0
41
1
10
44.6221562380093
20
-3.19038772244019
30
0
41
1
10
45.5610781190046
20
-1.59233544816055
30
0
41
1
10
46.4999999999999
20
-1.421E-13
30
0
0
SPLINE
5
FA
100
AcDbEntity
8
1
62
256
6
ByLayer
370
13
48
1
60
0
100
AcDbSpline
70
4
71
3
72
8
73
4
40
0
40
0
40
0
40
0
40
1
40
1
40
1
40
1
41
1
10
43.683234357014
20
5.52631993708909
30
0
41
1
10
44.6221562380093
20
3.67912645656668
30
0
41
1
10
45.5610781190046
20
1.8370125098094
30
0
41
1
10
46.4999999999999
20
1.705E-13
30
0
0
SPLINE
5
FB
100
AcDbEntity
8
1
62
256
6
ByLayer
370
13
48
1
60
0
100
AcDbSpline
70
4
71
3
72
8
73
4
40
0
40
0
40
0
40
0
40
1
40
1
40
1
40
1
41
1
10
43.683234357014
20
6.29942205439195
30
0
41
1
10
44.6221562380091
20
4.19539379187961
30
0
41
1
10
45.5610781190043
20
2.09557811589022
30
0
41
1
10
46.4999999999995
20
1.2221E-12
30
0
0
SPLINE
5
FC
100
AcDbEntity
8
1
62
256
6
ByLayer
370
13
48
1
60
0
100
AcDbSpline
70
4
71
3
72
8
73
4
40
0
40
0
40
0
40
0
40
1
40
1
40
1
40
1
41
1
10
43.683234357014
20
2.49563247989718
30
0
41
1
10
44.6221562380093
20
1.65687685096066
30
0
41
1
10
45.5610781190046
20
0.824996066631002
30
0
41
1
10
46.4999999999999
20
8.53E-14
30
0
0
SPLINE
5
FD
100
AcDbEntity
8
1
62
256
6
ByLayer
370
13
48
1
60
0
100
AcDbSpline
70
4
71
3
72
8
73
4
40
0
40
0
40
0
40
0
40
1
40
1
40
1
40
1
41
1
10
43.6832343570138
20
2.03345465469101
30
0
41
1
10
44.6221562380093
20
1.36264743493757
30
0
41
1
10
45.5610781190047
20
0.684826518475916
30
0
41
1
10
46.5000000000001
20
-2.84E-14
30
0
0
SPLINE
5
FE
100
AcDbEntity
8
1
62
256
6
ByLayer
370
13
48
1
60
0
100
AcDbSpline
70
4
71
3
72
8
73
4
40
0
40
0
40
0
40
0
40
1
40
1
40
1
40
1
41
1
10
43.683234357014
20
-7.43742840245798
30
0
41
1
10
44.6221562380093
20
-4.95627692759714
30
0
41
1
10
45.5610781190046
20
-2.47712429447202
30
0
41
1
10
46.4999999999999
20
-2.558E-13
30
0
0
SPLINE
5
FF
100
AcDbEntity
8
1
62
256
6
ByLayer
370
13
48
1
60
0
100
AcDbSpline
70
4
71
3
72
8
73
4
40
0
40
0
40
0
40
0
40
1
40
1
40
1
40
1
41
1
10
43.683234357014
20
-6.79824200474064
30
0
41
1
10
44.6221562380092
20
-4.53563357404312
30
0
41
1
10
45.5610781190044
20
-2.26954391147774
30
0
41
1
10
46.4999999999997
20
-7.674E-13
30
0
0
SPLINE
5
100
100
AcDbEntity
8
1
62
256
6
ByLayer
370
13
48
1
60
0
100
AcDbSpline
70
4
71
3
72
8
73
4
40
0
40
0
40
0
40
0
40
1
40
1
40
1
40
1
41
1
10
43.6832343570138
20
6.69042304032266
30
0
41
1
10
44.6221562380093
20
4.46393422306792
30
0
41
1
10
45.5610781190047
20
2.23378435764584
30
0
41
1
10
46.5000000000001
20
-5.68E-14
30
0
0
SPLINE
5
101
100
AcDbEntity
8
1
62
256
6
ByLayer
370
13
48
1
60
0
100
AcDbSpline
70
4
71
3
72
8
73
4
40
0
40
0
40
0
40
0
40
1
40
1
40
1
40
1
41
1
10
43.683234357014
20
7.37364066705584
30
0
41
1
10
44.6221562380093
20
4.91355416921004
30
0
41
1
10
45.5610781190046
20
2.45566419916398
30
0
41
1
10
46.4999999999999
20
2.274E-13
30
0
0
SPLINE
5
102
100
AcDbEntity
8
1
62
256
6
ByLayer
370
13
48
1
60
0
100
AcDbSpline
70
4
71
3
72
8
73
4
40
0
40
0
40
0
40
0
40
1
40
1
40
1
40
1
41
1
10
43.683234357014
20
-3.36585797711516
30
0
41
1
10
44.6221562380093
20
-2.25044840598716
30
0
41
1
10
45.5610781190046
20
-1.1284912874186
30
0
41
1
10
46.4999999999999
20
-1.137E-13
30
0
0
SPLINE
5
103
100
AcDbEntity
8
1
62
256
6
ByLayer
370
13
48
1
60
0
100
AcDbSpline
70
4
71
3
72
8
73
4
40
0
40
0
40
0
40
0
40
1
40
1
40
1
40
1
41
1
10
43.6832343570138
20
6.00649745360261
30
0
41
1
10
44.6221562380093
20
4.00891354655244
30
0
41
1
10
45.5610781190047
20
2.00673977987051
30
0
41
1
10
46.5000000000001
20
-5.68E-14
30
0
0
SPLINE
5
104
100
AcDbEntity
8
1
62
256
6
ByLayer
370
13
48
1
60
0
100
AcDbSpline
70
4
71
3
72
8
73
4
40
0
40
0
40
0
40
0
40
1
40
1
40
1
40
1
41
1
10
43.683234357014
20
3.60114908697176
30
0
41
1
10
44.6221562380093
20
2.39433435083231
30
0
41
1
10
45.5610781190046
20
1.19394656832924
30
0
41
1
10
46.4999999999999
20
1.137E-13
30
0
0
SPLINE
5
105
100
AcDbEntity
8
1
62
256
6
ByLayer
370
13
48
1
60
0
100
AcDbSpline
70
4
71
3
72
8
73
4
40
0
40
0
40
0
40
0
40
1
40
1
40
1
40
1
41
1
10
43.683234357014
20
-6.14272688287039
30
0
41
1
10
44.6221562380092
20
-4.09957107753721
30
0
41
1
10
45.5610781190044
20
-2.05198732116952
30
0
41
1
10
46.4999999999997
20
-7.105E-13
30
0
0
SPLINE
5
106
100
AcDbEntity
8
1
62
256
6
ByLayer
370
13
48
1
60
0
100
AcDbSpline
70
4
71
3
72
8
73
4
40
0
40
0
40
0
40
0
40
1
40
1
40
1
40
1
41
1
10
43.683234357014
20
-5.6780228691311
30
0
41
1
10
44.6221562380093
20
-3.78041122701225
30
0
41
1
10
45.5610781190046
20
-1.88772943543731
30
0
41
1
10
46.4999999999999
20
-1.99E-13
30
0
0
SPLINE
5
107
100
AcDbEntity
8
1
62
256
6
ByLayer
370
13
48
1
60
0
100
AcDbSpline
70
4
71
3
72
8
73
4
40
0
40
0
40
0
40
0
40
1
40
1
40
1
40
1
41
1
10
43.6832343570138
20
-0.351554634348048
30
0
41
1
10
44.6221562380092
20
-0.22711094088703
30
0
41
1
10
45.5610781190045
20
-0.10992560748781
30
0
41
1
10
46.4999999999999
20
0
30
0
0
SPLINE
5
108
100
AcDbEntity
8
1
62
256
6
ByLayer
370
13
48
1
60
0
100
AcDbSpline
70
4
71
3
72
8
73
4
40
0
40
0
40
0
40
0
40
1
40
1
40
1
40
1
41
1
10
43.6832343570139
20
7.21256900389531
30
0
41
1
10
44.6221562380093
20
4.81101350454603
30
0
41
1
10
45.5610781190047
20
2.40681429548073
30
0
41
1
10
46.5
20
2.84E-14
30
0
0
SPLINE
5
109
100
AcDbEntity
8
1
62
256
6
ByLayer
370
13
48
1
60
0
100
AcDbSpline
70
4
71
3
72
8
73
4
40
0
40
0
40
0
40
0
40
1
40
1
40
1
40
1
41
1
10
43.683234357014
20
-2.24479539271462
30
0
41
1
10
44.6221562380093
20
-1.50348418213662
30
0
41
1
10
45.5610781190046
20
-0.755216073607272
30
0
41
1
10
46.4999999999999
20
-8.53E-14
30
0
0
SPLINE
5
10A
100
AcDbEntity
8
1
62
256
6
ByLayer
370
13
48
1
60
0
100
AcDbSpline
70
4
71
3
72
8
73
4
40
0
40
0
40
0
40
0
40
1
40
1
40
1
40
1
41
1
10
43.683234357014
20
4.61958711341302
30
0
41
1
10
44.6221562380094
20
3.07389498728691
30
0
41
1
10
45.5610781190049
20
1.53402651509822
30
0
41
1
10
46.5000000000004
20
-5.969E-13
30
0
0
SPLINE
5
10B
100
AcDbEntity
8
1
62
256
6
ByLayer
370
13
48
1
60
0
100
AcDbSpline
70
4
71
3
72
8
73
4
40
0
40
0
40
0
40
0
40
1
40
1
40
1
40
1
41
1
10
43.683234357014
20
-7.604236075404
30
0
41
1
10
44.6221562380093
20
-5.07084084439109
30
0
41
1
10
45.5610781190046
20
-2.53608542859584
30
0
41
1
10
46.4999999999999
20
-2.558E-13
30
0
0
SPLINE
5
10C
100
AcDbEntity
8
1
62
256
6
ByLayer
370
13
48
1
60
0
100
AcDbSpline
70
4
71
3
72
8
73
4
40
0
40
0
40
0
40
0
40
1
40
1
40
1
40
1
41
1
10
43.6832343570138
20
-1.5458502593319
30
0
41
1
10
44.6221562380092
20
-1.02344695908693
30
0
41
1
10
45.5610781190045
20
-0.508161504553243
30
0
41
1
10
46.4999999999999
20
-5.68E-14
30
0
0
SPLINE
5
10D
100
AcDbEntity
8
1
62
256
6
ByLayer
370
13
48
1
60
0
100
AcDbSpline
70
4
71
3
72
8
73
4
40
0
40
0
40
0
40
0
40
1
40
1
40
1
40
1
41
1
10
43.6832343570138
20
-2.70276602494218
30
0
41
1
10
44.6221562380093
20
-1.79503523527487
30
0
41
1
10
45.5610781190047
20
-0.894109661933243
30
0
41
1
10
46.5000000000001
20
2.84E-14
30
0
0
SPLINE
5
10E
100
AcDbEntity
8
1
62
256
6
ByLayer
370
13
48
1
60
0
100
AcDbSpline
70
4
71
3
72
8
73
4
40
0
40
0
40
0
40
0
40
1
40
1
40
1
40
1
41
1
10
43.6832343570138
20
5.1773300953798
30
0
41
1
10
44.6221562380092
20
3.45695422820779
30
0
41
1
10
45.5610781190046
20
1.73117067630884
30
0
41
1
10
46.5
20
5.68E-14
30
0
0
SPLINE
5
10F
100
AcDbEntity
8
1
62
256
6
ByLayer
370
13
48
1
60
0
100
AcDbSpline
70
4
71
3
72
8
73
4
40
0
40
0
40
0
40
0
40
1
40
1
40
1
40
1
41
1
10
43.683234357014
20
-4.40553150258424
30
0
41
1
10
44.6221562380093
20
-2.9429950402714
30
0
41
1
10
45.5610781190046
20
-1.47447870580905
30
0
41
1
10
46.4999999999999
20
-1.421E-13
30
0
0
SPLINE
5
110
100
AcDbEntity
8
1
62
256
6
ByLayer
370
13
48
1
60
0
100
AcDbSpline
70
4
71
3
72
8
73
4
40
0
40
0
40
0
40
0
40
1
40
1
40
1
40
1
41
1
10
43.683234357014
20
-7.28937035719994
30
0
41
1
10
44.6221562380093
20
-4.86202092954196
30
0
41
1
10
45.5610781190046
20
-2.43222116807195
30
0
41
1
10
46.4999999999999
20
-2.274E-13
30
0
0
SPLINE
5
111
100
AcDbEntity
8
1
62
256
6
ByLayer
370
13
48
1
60
0
100
AcDbSpline
70
4
71
3
72
8
73
4
40
0
40
0
40
0
40
0
40
1
40
1
40
1
40
1
41
1
10
43.683234357014
20
-7.0158429207186
30
0
41
1
10
44.6221562380093
20
-4.67416161875323
30
0
41
1
10
45.5610781190046
20
-2.33553803842872
30
0
41
1
10
46.4999999999999
20
-2.274E-13
30
0
0
SPLINE
5
112
100
AcDbEntity
8
1
62
256
6
ByLayer
370
13
48
1
60
0
100
AcDbSpline
70
4
71
3
72
8
73
4
40
0
40
0
40
0
40
0
40
1
40
1
40
1
40
1
41
1
10
43.683234357014
20
0.13175174423273
30
0
41
1
10
44.6221562380093
20
0.0805692327919871
30
0
41
1
10
45.5610781190046
20
0.0366518200984274
30
0
41
1
10
46.4999999999999
20
0
30
0
0
SPLINE
5
113
100
AcDbEntity
8
1
62
256
6
ByLayer
370
13
48
1
60
0
100
AcDbSpline
70
4
71
3
72
8
73
4
40
0
40
0
40
0
40
0
40
1
40
1
40
1
40
1
41
1
10
43.683234357014
20
-1.06945191299738
30
0
41
1
10
44.6221562380093
20
-0.720164543549515
30
0
41
1
10
45.5610781190046
20
-0.363679148832858
30
0
41
1
10
46.4999999999999
20
-2.84E-14
30
0
0
LINE
5
7D
100
AcDbEntity
8
80
62
256
6
ByLayer
370
18
48
1
60
0
100
AcDbLine
10
0
20
0
30
0
11
-5
21
0
31
0
39
0
210
0
220
0
230
1
0
LINE
5
7E
100
AcDbEntity
8
4
62
256
6
ByLayer
370
18
48
0.05
60
0
100
AcDbLine
10
-5
20
0
30
0
11
51.5
21
0
31
0
39
0
210
0
220
0
230
1
0
LINE
5
80
100
AcDbEntity
8
81
62
256
6
ByLayer
370
18
48
1
60
0
100
AcDbLine
10
46.5
20
0
30
0
11
51.5
21
0
31
0
39
0
210
0
220
0
230
1
0
LINE
5
81
100
AcDbEntity
8
SK4
62
256
6
ByLayer
370
18
48
0.05
60
0
100
AcDbLine
10
-55.8
20
0
30
0
11
51.5
21
0
31
0
39
0
210
0
220
0
230
1
0
LINE
5
83
100
AcDbEntity
8
1
62
256
6
ByLayer
370
18
48
1
60
0
100
AcDbLine
10
43.683234
20
7.739
30
0
11
43.683234
21
7.493254
31
0
39
0
210
0
220
0
230
1
0
LINE
5
84
100
AcDbEntity
8
1
62
256
6
ByLayer
370
18
48
1
60
0
100
AcDbLine
10
43.683234
20
-7.739
30
0
11
43.683234
21
-1.104472
31
0
39
0
210
0
220
0
230
1
0
LINE
5
85
100
AcDbEntity
8
1
62
256
6
ByLayer
370
18
48
1
60
0
100
AcDbLine
10
15
20
-3.926368
30
0
11
15
21
6.707219
31
0
39
0
210
0
220
0
230
1
0
LINE
5
86
100
AcDbEntity
8
1
62
256
6
ByLayer
370
18
48
1
60
0
100
AcDbLine
10
0
20
-12.5
30
0
11
0
21
12.5
31
0
39
0
210
0
220
0
230
1
0
LINE
5
87
100
AcDbEntity
8
1
62
256
6
ByLayer
370
18
48
1
60
0
100
AcDbLine
10
3
20
-12.5
30
0
11
3
21
12.5
31
0
39
0
210
0
220
0
230
1
0
LINE
5
88
100
AcDbEntity
8
SK1
62
256
6
ByLayer
370
18
48
1
60
0
100
AcDbLine
10
-50.8
20
-8.525
30
0
11
-50.8
21
8.525
31
0
39
0
210
0
220
0
230
1
0
LINE
5
8A
100
AcDbEntity
8
SK1
62
256
6
ByLayer
370
18
48
1
60
0
100
AcDbLine
10
-49.8
20
-9.525
30
0
11
-49.8
21
9.525
31
0
39
0
210
0
220
0
230
1
0
LINE
5
8B
100
AcDbEntity
8
1
62
256
6
ByLayer
370
18
48
1
60
0
100
AcDbLine
10
9.396036
20
9.675084
30
0
11
3
21
12.5
31
0
39
0
210
0
220
0
230
1
0
LINE
5
8C
100
AcDbEntity
8
1
62
256
6
ByLayer
370
18
48
1
60
0
100
AcDbLine
10
3
20
-12.5
30
0
11
9.396036
21
-9.675084
31
0
39
0
210
0
220
0
230
1
0
LINE
5
8D
100
AcDbEntity
8
1
62
256
6
ByLayer
370
18
48
1
60
0
100
AcDbLine
10
46.5
20
0
30
0
11
43.683234
21
7.739
31
0
39
0
210
0
220
0
230
1
0
LINE
5
8E
100
AcDbEntity
8
1
62
256
6
ByLayer
370
18
48
1
60
0
100
AcDbLine
10
43.683234
20
-7.739
30
0
11
46.5
21
0
31
0
39
0
210
0
220
0
230
1
0
LINE
5
8F
100
AcDbEntity
8
1
62
256
6
ByLayer
370
18
48
1
60
0
100
AcDbLine
10
0
20
-12.5
30
0
11
3
21
-12.5
31
0
39
0
210
0
220
0
230
1
0
LINE
5
90
100
AcDbEntity
8
1
62
256
6
ByLayer
370
18
48
1
60
0
100
AcDbLine
10
3
20
12.5
30
0
11
0
21
12.5
31
0
39
0
210
0
220
0
230
1
0
LINE
5
91
100
AcDbEntity
8
SK1
62
256
6
ByLayer
370
18
48
1
60
0
100
AcDbLine
10
-50.8
20
-8.525
30
0
11
-49.8
21
-9.525
31
0
39
0
210
0
220
0
230
1
0
LINE
5
92
100
AcDbEntity
8
SK1
62
256
6
ByLayer
370
18
48
1
60
0
100
AcDbLine
10
-49.8
20
9.525
30
0
11
-50.8
21
8.525
31
0
39
0
210
0
220
0
230
1
0
LINE
5
93
100
AcDbEntity
8
SK1
62
256
6
ByLayer
370
18
48
1
60
0
100
AcDbLine
10
-49.8
20
-9.525
30
0
11
0
21
-9.525
31
0
39
0
210
0
220
0
230
1
0
LINE
5
94
100
AcDbEntity
8
SK1
62
256
6
ByLayer
370
18
48
1
60
0
100
AcDbLine
10
0
20
9.525
30
0
11
-49.8
21
9.525
31
0
39
0
210
0
220
0
230
1
0
LINE
5
95
100
AcDbEntity
8
1
62
256
6
ByLayer
370
18
48
1
60
0
100
AcDbLine
10
46.5
20
0
30
0
11
43.683234
21
7.739
31
0
39
0
210
0
220
0
230
1
0
LINE
5
96
100
AcDbEntity
8
1
62
256
6
ByLayer
370
18
48
1
60
0
100
AcDbLine
10
43.683234
20
-7.739
30
0
11
46.5
21
0
31
0
39
0
210
0
220
0
230
1
0
LINE
5
97
100
AcDbEntity
8
1
62
256
6
ByLayer
370
18
48
1
60
0
100
AcDbLine
10
35.5
20
-7.739
30
0
11
43.683234
21
-7.739
31
0
39
0
210
0
220
0
230
1
0
LINE
5
98
100
AcDbEntity
8
1
62
256
6
ByLayer
370
18
48
1
60
0
100
AcDbLine
10
43.683234
20
7.739
30
0
11
43.683234
21
-7.739
31
0
39
0
210
0
220
0
230
1
0
LINE
5
99
100
AcDbEntity
8
1
62
256
6
ByLayer
370
18
48
1
60
0
100
AcDbLine
10
43.683234
20
7.739
30
0
11
43.683234
21
-7.739
31
0
39
0
210
0
220
0
230
1
0
LINE
5
9A
100
AcDbEntity
8
1
62
256
6
ByLayer
370
18
48
1
60
0
100
AcDbLine
10
43.683234
20
7.739
30
0
11
43.683234
21
-7.739
31
0
39
0
210
0
220
0
230
1
0
LINE
5
9B
100
AcDbEntity
8
1
62
256
6
ByLayer
370
18
48
1
60
0
100
AcDbLine
10
35.5
20
7.739
30
0
11
35.5
21
-7.739
31
0
39
0
210
0
220
0
230
1
0
LINE
5
9C
100
AcDbEntity
8
1
62
256
6
ByLayer
370
18
48
1
60
0
100
AcDbLine
10
35.5
20
7.739
30
0
11
35.5
21
-7.739
31
0
39
0
210
0
220
0
230
1
0
LINE
5
9D
100
AcDbEntity
8
1
62
256
6
ByLayer
370
18
48
1
60
0
100
AcDbLine
10
43.683234
20
7.739
30
0
11
43.683234
21
-7.739
31
0
39
0
210
0
220
0
230
1
0
LINE
5
9E
100
AcDbEntity
8
1
62
256
6
ByLayer
370
18
48
1
60
0
100
AcDbLine
10
35.5
20
7.739
30
0
11
35.5
21
-7.739
31
0
39
0
210
0
220
0
230
1
0
LINE
5
9F
100
AcDbEntity
8
1
62
256
6
ByLayer
370
18
48
1
60
0
100
AcDbLine
10
43.683234
20
7.739
30
0
11
43.683234
21
-7.739
31
0
39
0
210
0
220
0
230
1
0
LINE
5
A0
100
AcDbEntity
8
SK2
62
256
6
ByLayer
370
13
48
1
60
0
100
AcDbLine
10
-57.3
20
-9.525
30
0
11
-57.3
21
37.799683
31
0
39
0
210
0
220
0
230
1
0
LINE
5
A2
100
AcDbEntity
8
SK2
62
256
6
ByLayer
370
13
48
1
60
0
100
AcDbLine
10
-52.3875
20
9.525
30
0
11
-59.3
21
9.525
31
0
39
0
210
0
220
0
230
1
0
LINE
5
A3
100
AcDbEntity
8
SK2
62
256
6
ByLayer
370
13
48
1
60
0
100
AcDbLine
10
-52.3875
20
-9.525
30
0
11
-59.3
21
-9.525
31
0
39
0
210
0
220
0
230
1
0
LINE
5
A4
100
AcDbEntity
8
1
62
256
6
ByLayer
370
18
48
1
60
1
100
AcDbLine
10
-57.3
20
9.525
30
0
11
-56.839216
21
6.025002
31
0
39
0
210
0
220
0
230
1
0
LINE
5
A5
100
AcDbEntity
8
1
62
256
6
ByLayer
370
18
48
1
60
1
100
AcDbLine
10
-56.839216
20
6.025002
30
0
11
-57.760784
21
6.024998
31
0
39
0
210
0
220
0
230
1
0
LINE
5
A6
100
AcDbEntity
8
1
62
256
6
ByLayer
370
18
48
1
60
1
100
AcDbLine
10
-57.760784
20
6.024998
30
0
11
-57.3
21
9.525
31
0
39
0
210
0
220
0
230
1
0
LINE
5
A7
100
AcDbEntity
8
1
62
256
6
ByLayer
370
18
48
1
60
1
100
AcDbLine
10
-57.3
20
-9.525
30
0
11
-57.760784
21
-6.025002
31
0
39
0
210
0
220
0
230
1
0
LINE
5
A8
100
AcDbEntity
8
1
62
256
6
ByLayer
370
18
48
1
60
1
100
AcDbLine
10
-57.760784
20
-6.025002
30
0
11
-56.839216
21
-6.024998
31
0
39
0
210
0
220
0
230
1
0
LINE
5
A9
100
AcDbEntity
8
1
62
256
6
ByLayer
370
18
48
1
60
1
100
AcDbLine
10
-56.839216
20
-6.024998
30
0
11
-57.3
21
-9.525
31
0
39
0
210
0
220
0
230
1
0
LINE
5
AA
100
AcDbEntity
8
2
62
256
6
ByLayer
370
13
48
1
60
0
100
AcDbLine
10
54
20
-7.739
30
0
11
54
21
36.329569
31
0
39
0
210
0
220
0
230
1
0
LINE
5
AC
100
AcDbEntity
8
2
62
256
6
ByLayer
370
13
48
1
60
0
100
AcDbLine
10
45.270734
20
7.739
30
0
11
56
21
7.739
31
0
39
0
210
0
220
0
230
1
0
LINE
5
AD
100
AcDbEntity
8
2
62
256
6
ByLayer
370
13
48
1
60
0
100
AcDbLine
10
45.270734
20
-7.739
30
0
11
56
21
-7.739
31
0
39
0
210
0
220
0
230
1
0
LINE
5
AE
100
AcDbEntity
8
1
62
256
6
ByLayer
370
18
48
1
60
1
100
AcDbLine
10
54
20
7.739
30
0
11
54.460784
21
4.239002
31
0
39
0
210
0
220
0
230
1
0
LINE
5
AF
100
AcDbEntity
8
1
62
256
6
ByLayer
370
18
48
1
60
1
100
AcDbLine
10
54.460784
20
4.239002
30
0
11
53.539216
21
4.238998
31
0
39
0
210
0
220
0
230
1
0
LINE
5
B0
100
AcDbEntity
8
1
62
256
6
ByLayer
370
18
48
1
60
1
100
AcDbLine
10
53.539216
20
4.238998
30
0
11
54
21
7.739
31
0
39
0
210
0
220
0
230
1
0
LINE
5
B1
100
AcDbEntity
8
1
62
256
6
ByLayer
370
18
48
1
60
1
100
AcDbLine
10
54
20
-7.739
30
0
11
53.539216
21
-4.239002
31
0
39
0
210
0
220
0
230
1
0
LINE
5
B2
100
AcDbEntity
8
1
62
256
6
ByLayer
370
18
48
1
60
1
100
AcDbLine
10
53.539216
20
-4.239002
30
0
11
54.460784
21
-4.238998
31
0
39
0
210
0
220
0
230
1
0
LINE
5
B3
100
AcDbEntity
8
1
62
256
6
ByLayer
370
18
48
1
60
1
100
AcDbLine
10
54.460784
20
-4.238998
30
0
11
54
21
-7.739
31
0
39
0
210
0
220
0
230
1
0
LINE
5
B4
100
AcDbEntity
8
SK2
62
256
6
ByLayer
370
13
48
1
60
0
100
AcDbLine
10
47.042957
20
-1.491762
30
0
11
53.682423
21
-19.733545
31
0
39
0
210
0
220
0
230
1
0
LINE
5
B5
100
AcDbEntity
8
SK2
62
256
6
ByLayer
370
13
48
1
60
0
100
AcDbLine
10
47.042957
20
1.491762
30
0
11
53.682423
21
19.733545
31
0
39
0
210
0
220
0
230
1
0
LINE
5
B6
100
AcDbEntity
8
1
62
256
6
ByLayer
370
18
48
1
60
1
100
AcDbLine
10
52.998383
20
-17.85416
30
0
11
56.051575
21
-16.082064
31
0
39
0
210
0
220
0
230
1
0
LINE
5
B7
100
AcDbEntity
8
1
62
256
6
ByLayer
370
18
48
1
60
1
100
AcDbLine
10
56.051575
20
-16.082064
30
0
11
56.406196
21
-16.93267
31
0
39
0
210
0
220
0
230
1
0
LINE
5
B8
100
AcDbEntity
8
1
62
256
6
ByLayer
370
18
48
1
60
1
100
AcDbLine
10
56.406196
20
-16.93267
30
0
11
52.998383
21
-17.85416
31
0
39
0
210
0
220
0
230
1
0
LINE
5
B9
100
AcDbEntity
8
1
62
256
6
ByLayer
370
18
48
1
60
1
100
AcDbLine
10
52.998383
20
17.85416
30
0
11
56.406193
21
16.932671
31
0
39
0
210
0
220
0
230
1
0
LINE
5
BA
100
AcDbEntity
8
1
62
256
6
ByLayer
370
18
48
1
60
1
100
AcDbLine
10
56.406193
20
16.932671
30
0
11
56.051579
21
16.082063
31
0
39
0
210
0
220
0
230
1
0
LINE
5
BB
100
AcDbEntity
8
1
62
256
6
ByLayer
370
18
48
1
60
1
100
AcDbLine
10
56.051579
20
16.082063
30
0
11
52.998383
21
17.85416
31
0
39
0
210
0
220
0
230
1
0
LINE
5
118
100
AcDbEntity
8
1
62
256
6
ByLayer
370
18
48
1
60
1
100
AcDbLine
10
-57.3
20
9.525
30
0
11
-56.839216
21
6.025002
31
0
39
0
210
0
220
0
230
1
0
LINE
5
119
100
AcDbEntity
8
1
62
256
6
ByLayer
370
18
48
1
60
1
100
AcDbLine
10
-56.839216
20
6.025002
30
0
11
-57.760784
21
6.024998
31
0
39
0
210
0
220
0
230
1
0
LINE
5
11A
100
AcDbEntity
8
1
62
256
6
ByLayer
370
18
48
1
60
1
100
AcDbLine
10
-57.760784
20
6.024998
30
0
11
-57.3
21
9.525
31
0
39
0
210
0
220
0
230
1
0
LINE
5
11C
100
AcDbEntity
8
1
62
256
6
ByLayer
370
18
48
1
60
1
100
AcDbLine
10
-57.3
20
-9.525
30
0
11
-57.760784
21
-6.025002
31
0
39
0
210
0
220
0
230
1
0
LINE
5
11D
100
AcDbEntity
8
1
62
256
6
ByLayer
370
18
48
1
60
1
100
AcDbLine
10
-57.760784
20
-6.025002
30
0
11
-56.839216
21
-6.024998
31
0
39
0
210
0
220
0
230
1
0
LINE
5
11E
100
AcDbEntity
8
1
62
256
6
ByLayer
370
18
48
1
60
1
100
AcDbLine
10
-56.839216
20
-6.024998
30
0
11
-57.3
21
-9.525
31
0
39
0
210
0
220
0
230
1
0
LINE
5
122
100
AcDbEntity
8
1
62
256
6
ByLayer
370
18
48
1
60
1
100
AcDbLine
10
54
20
7.739
30
0
11
54.460784
21
4.239002
31
0
39
0
210
0
220
0
230
1
0
LINE
5
123
100
AcDbEntity
8
1
62
256
6
ByLayer
370
18
48
1
60
1
100
AcDbLine
10
54.460784
20
4.239002
30
0
11
53.539216
21
4.238998
31
0
39
0
210
0
220
0
230
1
0
LINE
5
124
100
AcDbEntity
8
1
62
256
6
ByLayer
370
18
48
1
60
1
100
AcDbLine
10
53.539216
20
4.238998
30
0
11
54
21
7.739
31
0
39
0
210
0
220
0
230
1
0
LINE
5
126
100
AcDbEntity
8
1
62
256
6
ByLayer
370
18
48
1
60
1
100
AcDbLine
10
54
20
-7.739
30
0
11
53.539216
21
-4.239002
31
0
39
0
210
0
220
0
230
1
0
LINE
5
127
100
AcDbEntity
8
1
62
256
6
ByLayer
370
18
48
1
60
1
100
AcDbLine
10
53.539216
20
-4.239002
30
0
11
54.460784
21
-4.238998
31
0
39
0
210
0
220
0
230
1
0
LINE
5
128
100
AcDbEntity
8
1
62
256
6
ByLayer
370
18
48
1
60
1
100
AcDbLine
10
54.460784
20
-4.238998
30
0
11
54
21
-7.739
31
0
39
0
210
0
220
0
230
1
0
LINE
5
12B
100
AcDbEntity
8
1
62
256
6
ByLayer
370
18
48
1
60
1
100
AcDbLine
10
52.998383
20
-17.85416
30
0
11
56.051575
21
-16.082064
31
0
39
0
210
0
220
0
230
1
0
LINE
5
12C
100
AcDbEntity
8
1
62
256
6
ByLayer
370
18
48
1
60
1
100
AcDbLine
10
56.051575
20
-16.082064
30
0
11
56.406196
21
-16.93267
31
0
39
0
210
0
220
0
230
1
0
LINE
5
12D
100
AcDbEntity
8
1
62
256
6
ByLayer
370
18
48
1
60
1
100
AcDbLine
10
56.406196
20
-16.93267
30
0
11
52.998383
21
-17.85416
31
0
39
0
210
0
220
0
230
1
0
LINE
5
12F
100
AcDbEntity
8
1
62
256
6
ByLayer
370
18
48
1
60
1
100
AcDbLine
10
52.998383
20
17.85416
30
0
11
56.406193
21
16.932671
31
0
39
0
210
0
220
0
230
1
0
LINE
5
130
100
AcDbEntity
8
1
62
256
6
ByLayer
370
18
48
1
60
1
100
AcDbLine
10
56.406193
20
16.932671
30
0
11
56.051579
21
16.082063
31
0
39
0
210
0
220
0
230
1
0
LINE
5
131
100
AcDbEntity
8
1
62
256
6
ByLayer
370
18
48
1
60
1
100
AcDbLine
10
56.051579
20
16.082063
30
0
11
52.998383
21
17.85416
31
0
39
0
210
0
220
0
230
1
0
MTEXT
5
114
100
AcDbEntity
8
SK2
62
256
6
ByLayer
370
18
48
1
60
0
100
AcDbMText
10
-58.641114
20
21.183438
30
0
210
0
220
0
230
1
1
%%c
40
3
41
0
44
1.084337
50
90
71
7
72
5
7
iso_b_vert
0
MTEXT
5
117
100
AcDbEntity
8
SK2
62
256
6
ByLayer
370
18
48
1
60
0
100
AcDbMText
10
-58.641114
20
27.16
30
0
210
0
220
0
230
1
1
\W0.7022;19.050
40
3
41
0
44
1.084337
50
90
71
7
72
5
7
iso_b_vert
0
MTEXT
5
120
100
AcDbEntity
8
2
62
256
6
ByLayer
370
18
48
1
60
0
100
AcDbMText
10
52.658886
20
19.397438
30
0
210
0
220
0
230
1
1
%%c
40
3
41
0
44
1.084337
50
90
71
7
72
5
7
iso_b_vert
0
MTEXT
5
121
100
AcDbEntity
8
2
62
256
6
ByLayer
370
18
48
1
60
0
100
AcDbMText
10
52.658886
20
25.374
30
0
210
0
220
0
230
1
1
\W0.7237;15.478
40
3
41
0
44
1.084337
50
90
71
7
72
5
7
iso_b_vert
0
MTEXT
5
12A
100
AcDbEntity
8
SK2
62
256
6
ByLayer
370
18
48
1
60
0
100
AcDbMText
10
66.409114
20
3.734657
30
0
210
0
220
0
230
1
1
\W0.7071;140%%d
40
3
41
0
44
1.084337
50
270
71
7
72
5
7
iso_b_vert
0
MTEXT
5
133
100
AcDbEntity
8
SK6
62
256
6
ByLayer
370
18
48
1
60
0
100
AcDbMText
10
-23.76634
20
-67.114886
30
0
210
0
220
0
230
1
1
\W0.7796;H85139/64
40
3
41
0
44
1.084337
50
0
71
7
72
5
7
iso_b_vert
0
HATCH
5
11B
100
AcDbEntity
8
SK2
62
256
6
ByLayer
370
13
48
1
60
0
100
AcDbHatch
10
0
20
0
30
0
210
0
220
0
230
1
2
ANSI31
70
0
71
0
91
1
92
5
93
3
72
1
10
-57.3
20
9.52500000000001
11
-56.8392162584472
21
6.02500169255319
72
1
10
-56.8392162584472
20
6.02500169255319
11
-57.7607837415528
21
6.02499830744682
72
1
10
-57.7607837415528
20
6.02499830744682
11
-57.3
21
9.52500000000001
97
0
75
0
76
1
52
0
41
0.0062
77
0
78
1
53
45
43
0
44
0
45
-0.0139193969876572
46
0.0139193969876572
79
0
47
0
98
1
10
0
20
0
0
HATCH
5
11F
100
AcDbEntity
8
SK2
62
256
6
ByLayer
370
13
48
1
60
0
100
AcDbHatch
10
0
20
0
30
0
210
0
220
0
230
1
2
ANSI31
70
0
71
0
91
1
92
5
93
3
72
1
10
-57.3
20
-9.52500000000001
11
-57.7607837415528
21
-6.02500169255319
72
1
10
-57.7607837415528
20
-6.02500169255319
11
-56.8392162584472
21
-6.02499830744682
72
1
10
-56.8392162584472
20
-6.02499830744682
11
-57.3
21
-9.52500000000001
97
0
75
0
76
1
52
0
41
0.0062
77
0
78
1
53
45
43
0
44
0
45
-0.0139193969876572
46
0.0139193969876572
79
0
47
0
98
1
10
0
20
0
0
HATCH
5
125
100
AcDbEntity
8
2
62
256
6
ByLayer
370
13
48
1
60
0
100
AcDbHatch
10
0
20
0
30
0
210
0
220
0
230
1
2
ANSI31
70
0
71
0
91
1
92
5
93
3
72
1
10
54
20
7.739
11
54.4607837415528
21
4.23900169255319
72
1
10
54.4607837415528
20
4.23900169255319
11
53.5392162584472
21
4.23899830744682
72
1
10
53.5392162584472
20
4.23899830744682
11
54
21
7.739
97
0
75
0
76
1
52
0
41
0.0062
77
0
78
1
53
45
43
0
44
0
45
-0.0139193969876572
46
0.0139193969876572
79
0
47
0
98
1
10
0
20
0
0
HATCH
5
129
100
AcDbEntity
8
2
62
256
6
ByLayer
370
13
48
1
60
0
100
AcDbHatch
10
0
20
0
30
0
210
0
220
0
230
1
2
ANSI31
70
0
71
0
91
1
92
5
93
3
72
1
10
54
20
-7.739
11
53.5392162584472
21
-4.23900169255319
72
1
10
53.5392162584472
20
-4.23900169255319
11
54.4607837415528
21
-4.23899830744682
72
1
10
54.4607837415528
20
-4.23899830744682
11
54
21
-7.739
97
0
75
0
76
1
52
0
41
0.0062
77
0
78
1
53
45
43
0
44
0
45
-0.0139193969876572
46
0.0139193969876572
79
0
47
0
98
1
10
0
20
0
0
HATCH
5
12E
100
AcDbEntity
8
SK2
62
256
6
ByLayer
370
13
48
1
60
0
100
AcDbHatch
10
0
20
0
30
0
210
0
220
0
230
1
2
ANSI31
70
0
71
0
91
1
92
5
93
3
72
1
10
52.9983827231878
20
-17.8541597949322
11
56.0515754256929
21
-16.0820638240607
72
1
10
56.0515754256929
20
-16.0820638240607
11
56.4061958339751
21
-16.9326700737196
72
1
10
56.4061958339751
20
-16.9326700737196
11
52.9983827231878
21
-17.8541597949322
97
0
75
0
76
1
52
0
41
0.0062
77
0
78
1
53
45
43
0
44
0
45
-0.0139193969876572
46
0.0139193969876572
79
0
47
0
98
1
10
0
20
0
0
HATCH
5
132
100
AcDbEntity
8
SK2
62
256
6
ByLayer
370
13
48
1
60
0
100
AcDbHatch
10
0
20
0
30
0
210
0
220
0
230
1
2
ANSI31
70
0
71
0
91
1
92
5
93
3
72
1
10
52.9983827231878
20
17.8541597949322
11
56.4061927095191
21
16.9326713763016
72
1
10
56.4061927095191
20
16.9326713763016
11
56.0515785501489
21
16.0820625214787
72
1
10
56.0515785501489
20
16.0820625214787
11
52.9983827231878
21
17.8541597949322
97
0
75
0
76
1
52
0
41
0.0062
77
0
78
1
53
45
43
0
44
0
45
-0.0139193969876572
46
0.0139193969876572
79
0
47
0
98
1
10
0
20
0
0
DIMENSION
5
136
100
AcDbEntity
8
SK2
62
256
6
ByLayer
370
18
48
1
60
0
100
AcDbDimension
2
_U0
10
46.5
20
-43.336212
30
0
11
-2.15
21
-43.336212
31
0
70
32
71
1
72
1
41
1
210
0
220
0
230
1
3
Standard
100
AcDbAlignedDimension
13
-50.8
23
-9.525
33
0
14
46.5
24
0
34
0
50
0
100
AcDbRotatedDimension
1001
ACAD
1000
DSTYLE
1002
{
1070
   371
1070
    13
1070
   372
1070
    13
1070
     3
1000

1070
   170
1070
     0
1070
   144
1040
1.0
1070
   277
1070
     2
1070
   284
1070
     8
1070
   278
1070
    46
1070
   146
1040
1.166667
1070
   345
1005
16
1070
   347
1005
16
1070
   346
1005
16
1070
   344
1005
0
1070
   343
1005
0
1070
   172
1070
     1
1070
    76
1070
     0
1070
    75
1070
     0
1070
   282
1070
     0
1070
   281
1070
     0
1070
    71
1070
     0
1070
    74
1070
     0
1070
   279
1070
     0
1070
   173
1070
     1
1070
   340
1005
115
1070
   271
1070
     2
1070
   272
1070
     3
1070
    77
1070
     1
1070
    73
1070
     1
1070
   171
1070
     3
1070
   274
1070
     4
1070
   177
1070
     2
1070
   176
1070
     2
1070
   178
1070
     2
1070
    78
1070
     8
1070
    48
1040
-0.1
1070
    41
1040
3.5
1070
   147
1040
1.5
1070
    42
1040
1.5875
1070
    44
1040
2.0
1070
   140
1040
3.0
1002
}
1001
ACAD_DSTYLE_DIM_LINETYPE
1070
   380
1005
16
1001
ACAD_DSTYLE_DIM_EXT1_LINETYPE
1070
   381
1005
16
1001
ACAD_DSTYLE_DIM_EXT2_LINETYPE
1070
   382
1005
16
0
DIMENSION
5
14F
100
AcDbEntity
8
SK2
62
256
6
ByLayer
370
18
48
1
60
0
100
AcDbDimension
2
_U1
10
6
20
-33.336212
30
0
11
26.25
21
-33.336212
31
0
70
32
71
1
72
1
41
1
210
0
220
0
230
1
3
Standard
100
AcDbAlignedDimension
13
46.5
23
0
33
0
14
6
24
-7.739
34
0
50
0
100
AcDbRotatedDimension
1001
ACAD
1000
DSTYLE
1002
{
1070
   371
1070
    13
1070
   372
1070
    13
1070
     3
1000

1070
   170
1070
     0
1070
   144
1040
1.0
1070
   277
1070
     2
1070
   284
1070
     8
1070
   278
1070
    46
1070
   146
1040
1.166667
1070
   345
1005
16
1070
   347
1005
16
1070
   346
1005
16
1070
   344
1005
0
1070
   343
1005
0
1070
   172
1070
     1
1070
    76
1070
     0
1070
    75
1070
     0
1070
   282
1070
     0
1070
   281
1070
     0
1070
    71
1070
     0
1070
    74
1070
     0
1070
   279
1070
     0
1070
   173
1070
     1
1070
   340
1005
115
1070
   271
1070
     2
1070
   272
1070
     3
1070
    77
1070
     1
1070
    73
1070
     1
1070
   171
1070
     3
1070
   274
1070
     4
1070
   177
1070
     2
1070
   176
1070
     2
1070
   178
1070
     2
1070
    78
1070
     8
1070
    48
1040
-0.1
1070
    41
1040
3.5
1070
   147
1040
1.5
1070
    42
1040
1.5875
1070
    44
1040
2.0
1070
   140
1040
3.0
1002
}
1001
ACAD_DSTYLE_DIM_LINETYPE
1070
   380
1005
16
1001
ACAD_DSTYLE_DIM_EXT1_LINETYPE
1070
   381
1005
16
1001
ACAD_DSTYLE_DIM_EXT2_LINETYPE
1070
   382
1005
16
0
DIMENSION
5
167
100
AcDbEntity
8
SK2
62
256
6
ByLayer
370
18
48
1
60
0
100
AcDbDimension
2
_U2
10
0
20
-33.336212
30
0
11
-25.4
21
-33.336212
31
0
70
32
71
1
72
1
41
1
210
0
220
0
230
1
3
Standard
100
AcDbAlignedDimension
13
-50.8
23
-9.525
33
0
14
0
24
-9.525
34
0
50
0
100
AcDbRotatedDimension
1001
ACAD
1000
DSTYLE
1002
{
1070
   371
1070
    13
1070
   372
1070
    13
1070
     3
1000

1070
   170
1070
     0
1070
   144
1040
1.0
1070
   277
1070
     2
1070
   284
1070
     8
1070
   278
1070
    46
1070
   146
1040
1.166667
1070
   345
1005
16
1070
   347
1005
16
1070
   346
1005
16
1070
   344
1005
0
1070
   343
1005
0
1070
   172
1070
     1
1070
    76
1070
     0
1070
    75
1070
     0
1070
   282
1070
     0
1070
   281
1070
     0
1070
    71
1070
     0
1070
    74
1070
     0
1070
   279
1070
     0
1070
   173
1070
     1
1070
   340
1005
115
1070
   271
1070
     2
1070
   272
1070
     3
1070
    77
1070
     1
1070
    73
1070
     1
1070
   171
1070
     3
1070
   274
1070
     4
1070
   177
1070
     2
1070
   176
1070
     2
1070
   178
1070
     2
1070
    78
1070
     8
1070
    48
1040
-0.1
1070
    41
1040
3.5
1070
   147
1040
1.5
1070
    42
1040
1.5875
1070
    44
1040
2.0
1070
   140
1040
3.0
1002
}
1001
ACAD_DSTYLE_DIM_LINETYPE
1070
   380
1005
16
1001
ACAD_DSTYLE_DIM_EXT1_LINETYPE
1070
   381
1005
16
1001
ACAD_DSTYLE_DIM_EXT2_LINETYPE
1070
   382
1005
16
0
DIMENSION
5
17F
100
AcDbEntity
8
SK2
62
256
6
ByLayer
370
18
48
1
60
0
100
AcDbDimension
2
_U3
10
14.2
20
30.336212
30
0
11
30.35
21
30.336212
31
0
70
32
71
1
72
1
41
1
210
0
220
0
230
1
3
Standard
100
AcDbAlignedDimension
13
46.5
23
0
33
0
14
14.2
24
7.739
34
0
50
0
100
AcDbRotatedDimension
1001
ACAD
1000
DSTYLE
1002
{
1070
   371
1070
    13
1070
   372
1070
    13
1070
     3
1000

1070
   170
1070
     0
1070
   144
1040
1.0
1070
   277
1070
     2
1070
   284
1070
     8
1070
   278
1070
    46
1070
   146
1040
1.166667
1070
   345
1005
16
1070
   347
1005
16
1070
   346
1005
16
1070
   344
1005
0
1070
   343
1005
0
1070
   172
1070
     1
1070
    76
1070
     0
1070
    75
1070
     0
1070
   282
1070
     0
1070
   281
1070
     0
1070
    71
1070
     0
1070
    74
1070
     0
1070
   279
1070
     0
1070
   173
1070
     1
1070
   340
1005
115
1070
   271
1070
     2
1070
   272
1070
     3
1070
    77
1070
     1
1070
    73
1070
     1
1070
   171
1070
     3
1070
   274
1070
     4
1070
   177
1070
     2
1070
   176
1070
     2
1070
   178
1070
     2
1070
    78
1070
     8
1070
    48
1040
-0.1
1070
    41
1040
3.5
1070
   147
1040
1.5
1070
    42
1040
1.5875
1070
    44
1040
2.0
1070
   140
1040
3.0
1002
}
1001
ACAD_DSTYLE_DIM_LINETYPE
1070
   380
1005
16
1001
ACAD_DSTYLE_DIM_EXT1_LINETYPE
1070
   381
1005
16
1001
ACAD_DSTYLE_DIM_EXT2_LINETYPE
1070
   382
1005
16
0
ENDSEC
0
SECTION
2
OBJECTS
0
DICTIONARY
5
207
330
0
100
AcDbDictionary
280
0
281
1
3
ACAD_GROUP
350
208
3
ACAD_MLINESTYLE
350
209
0
DICTIONARY
5
208
330
0
100
AcDbDictionary
280
0
281
1
0
DICTIONARY
5
209
330
0
100
AcDbDictionary
280
0
281
1
3
Standard
350
18
0
MLINESTYLE
5
18
330
209
100
AcDbMlineStyle
2
Standard
70
0
3

62
256
51
90
52
90
71
2
49
-0.5
62
256
6
ByLayer
49
0.5
62
256
6
ByLayer
0
RASTERVARIABLES
5
1f5
330

100
AcDbRasterVariables
90
0
70
1
71
1
72
1
0
ENDSEC
0
EOF
