0
SECTION
2
HEADER
9
$ACADVER
1
AC1015
9
$DWGCODEPAGE
3
ANSI_1252
9
$HANDSEED
5
239
9
$ANGBASE
50
0
9
$ANGDIR
70
0
9
$ATTMODE
70
1
9
$AUNITS
70
0
9
$AUPREC
70
0
9
$CECOLOR
62
256
9
$CELTSCALE
40
1
9
$CELTYPE
6
ByLayer
9
$CELWEIGHT
370
18
9
$CLAYER
8
0
9
$CMLJUST
70
0
9
$CMLSCALE
40
1
9
$CMLSTYLE
2
Standard
9
$DIMSTYLE
2
Standard
9
$TEXTSIZE
40
0.2
9
$TEXTSTYLE
7
Standard
9
$LUNITS
70
2
9
$LUPREC
70
4
9
$EXTNAMES
290
1
9
$INSUNITS
70
4
9
$LTSCALE
40
1
9
$LWDISPLAY
290
1
9
$PDMODE
70
0
9
$PDSIZE
40
0
9
$PLINEGEN
70
0
0
ENDSEC
0
SECTION
2
CLASSES
0
CLASS
1
RASTERVARIABLES
2
AcDbRasterVariables
3
ISM
90
0
280
0
281
0
0
ENDSEC
0
SECTION
2
TABLES
0
TABLE
2
VPORT
5
22f
100
AcDbSymbolTable
0
VPORT
5
1
100
AcDbSymbolTableRecord
100
AcDbViewportTableRecord
2
*Active
70
0
10
0
20
0
11
1
21
1
12
-1
22
1
13
0
23
0
14
0.5
24
0.5
15
10
25
10
16
0
26
0
36
1
17
0
27
0
37
0
0
ENDTAB
0
TABLE
2
LTYPE
5
230
100
AcDbSymbolTable
0
LTYPE
5
14
100
AcDbSymbolTableRecord
100
AcDbLinetypeTableRecord
70
0
2
ByBlock
3

72
65
73
0
40
0
0
LTYPE
5
15
100
AcDbSymbolTableRecord
100
AcDbLinetypeTableRecord
70
0
2
ByLayer
3

72
65
73
0
40
0
0
LTYPE
5
16
100
AcDbSymbolTableRecord
100
AcDbLinetypeTableRecord
70
0
2
Continuous
3
Solid line
72
65
73
0
40
0
0
LTYPE
5
6E
100
AcDbSymbolTableRecord
100
AcDbLinetypeTableRecord
70
0
2
CENTER
3
____ _ ____ _ ____ _ ____
72
65
73
4
40
47.5
49
22
74
0
49
-8.5
74
0
49
8.5
74
0
49
-8.5
74
0
0
LTYPE
5
6F
100
AcDbSymbolTableRecord
100
AcDbLinetypeTableRecord
70
0
2
DASHED
3
__ __ __ __ __ __ __ __ __
72
65
73
2
40
25.72
49
12.86
74
0
49
-12.86
74
0
0
ENDTAB
0
TABLE
2
LAYER
5
231
100
AcDbSymbolTable
0
LAYER
5
10
100
AcDbSymbolTableRecord
100
AcDbLayerTableRecord
2
0
70
0
62
7
6
Continuous
290
1
370
-3
390
0
0
LAYER
5
71
100
AcDbSymbolTableRecord
100
AcDbLayerTableRecord
2
81
70
0
62
-3
6
Continuous
290
1
370
-3
390
0
0
LAYER
5
73
100
AcDbSymbolTableRecord
100
AcDbLayerTableRecord
2
80
70
0
62
-6
6
Continuous
290
1
370
-3
390
0
0
LAYER
5
75
100
AcDbSymbolTableRecord
100
AcDbLayerTableRecord
2
1
70
0
62
4
6
Continuous
290
1
370
-3
390
0
0
LAYER
5
7E
100
AcDbSymbolTableRecord
100
AcDbLayerTableRecord
2
4
70
0
62
-2
6
CENTER
290
1
370
-3
390
0
0
LAYER
5
AC
100
AcDbSymbolTableRecord
100
AcDbLayerTableRecord
2
2
70
0
62
7
6
Continuous
290
1
370
-3
390
0
0
LAYER
5
15E
100
AcDbSymbolTableRecord
100
AcDbLayerTableRecord
2
Defpoints
70
0
62
7
6
Continuous
290
0
370
-3
390
0
0
LAYER
5
21b
100
AcDbSymbolTableRecord
100
AcDbLayerTableRecord
2
SK4
70
0
62
2
6
CENTER
290
1
370
-3
390
0
0
LAYER
5
21c
100
AcDbSymbolTableRecord
100
AcDbLayerTableRecord
2
SK1
70
0
62
4
6
Continuous
290
1
370
-3
390
0
0
LAYER
5
21d
100
AcDbSymbolTableRecord
100
AcDbLayerTableRecord
2
SK2
70
0
62
7
6
Continuous
290
1
370
-3
390
0
0
LAYER
5
21e
100
AcDbSymbolTableRecord
100
AcDbLayerTableRecord
2
SK6
70
0
62
5
6
Continuous
290
1
370
-3
390
0
0
ENDTAB
0
TABLE
2
STYLE
5
232
100
AcDbSymbolTable
0
STYLE
5
11
100
AcDbSymbolTableRecord
100
AcDbTextStyleTableRecord
2
Standard
3
txt
70
0
71
0
40
0
41
1
42
0
50
0
0
STYLE
5
13A
100
AcDbSymbolTableRecord
100
AcDbTextStyleTableRecord
2
iso_b_vert
3
simplex.shx
70
0
71
0
40
0
41
1
42
0
50
0
0
STYLE
5
13B
100
AcDbSymbolTableRecord
100
AcDbTextStyleTableRecord
2
DWGDirectTextStyle
3
simplex
70
0
71
0
40
0
41
1
42
0
50
0
0
ENDTAB
0
TABLE
2
DIMSTYLE
5
233
100
AcDbSymbolTable
100
AcDbDimStyleTable
0
DIMSTYLE
105
27
100
AcDbSymbolTableRecord
100
AcDbDimStyleTableRecord
2
Standard
70
0
3
<>
41
0.18
42
0.0625
44
0.18
140
0.18
147
0.09
73
0
74
0
77
1
271
2
275
0
278
52
280
0
340
11
0
ENDTAB
0
TABLE
2
VIEW
5
234
100
AcDbSymbolTable
0
ENDTAB
0
TABLE
2
UCS
5
235
100
AcDbSymbolTable
0
ENDTAB
0
TABLE
2
APPID
5
236
100
AcDbSymbolTable
0
APPID
5
12
100
AcDbSymbolTableRecord
100
AcDbRegAppTableRecord
2
ACAD
70
0
0
APPID
5
15A
100
AcDbSymbolTableRecord
100
AcDbRegAppTableRecord
2
ACAD_DSTYLE_DIMBREAK
70
0
0
APPID
5
1DA
100
AcDbSymbolTableRecord
100
AcDbRegAppTableRecord
2
ACAD_DSTYLE_DIM_LINETYPE
70
0
0
APPID
5
1DB
100
AcDbSymbolTableRecord
100
AcDbRegAppTableRecord
2
ACAD_DSTYLE_DIM_EXT1_LINETYPE
70
0
0
APPID
5
1DC
100
AcDbSymbolTableRecord
100
AcDbRegAppTableRecord
2
ACAD_DSTYLE_DIM_EXT2_LINETYPE
70
0
0
APPID
5
217
100
AcDbSymbolTableRecord
100
AcDbRegAppTableRecord
2
ACAD_MLEADERVER
70
0
0
ENDTAB
0
TABLE
2
BLOCK_RECORD
5
237
100
AcDbSymbolTable
0
BLOCK_RECORD
5
1F
100
AcDbSymbolTableRecord
100
AcDbBlockTableRecord
2
*Model_Space
340
0
70
0
0
BLOCK_RECORD
5
1B
100
AcDbSymbolTableRecord
100
AcDbBlockTableRecord
2
*Paper_Space
340
0
70
0
0
BLOCK_RECORD
5
23
100
AcDbSymbolTableRecord
100
AcDbBlockTableRecord
2
*Paper_Space0
340
0
70
0
0
BLOCK_RECORD
5
15F
100
AcDbSymbolTableRecord
100
AcDbBlockTableRecord
2
*D1
340
0
70
0
0
BLOCK_RECORD
5
16B
100
AcDbSymbolTableRecord
100
AcDbBlockTableRecord
2
_U0
340
0
70
0
0
BLOCK_RECORD
5
177
100
AcDbSymbolTableRecord
100
AcDbBlockTableRecord
2
*D3
340
0
70
0
0
BLOCK_RECORD
5
183
100
AcDbSymbolTableRecord
100
AcDbBlockTableRecord
2
_U1
340
0
70
0
0
BLOCK_RECORD
5
18F
100
AcDbSymbolTableRecord
100
AcDbBlockTableRecord
2
*D5
340
0
70
0
0
BLOCK_RECORD
5
19B
100
AcDbSymbolTableRecord
100
AcDbBlockTableRecord
2
_U2
340
0
70
0
0
BLOCK_RECORD
5
1A7
100
AcDbSymbolTableRecord
100
AcDbBlockTableRecord
2
*D7
340
0
70
0
0
BLOCK_RECORD
5
1B3
100
AcDbSymbolTableRecord
100
AcDbBlockTableRecord
2
_U3
340
0
70
0
0
ENDTAB
0
ENDSEC
0
SECTION
2
BLOCKS
0
BLOCK
5
20
100
AcDbEntity
8
0
100
AcDbBlockBegin
2
*Model_Space
70
0
10
0
20
0
30
0
3
*Model_Space
0
ENDBLK
5
21
100
AcDbEntity
8
0
100
AcDbBlockEnd
0
BLOCK
5
1C
100
AcDbEntity
8
0
100
AcDbBlockBegin
2
*Paper_Space
70
0
10
0
20
0
30
0
3
*Paper_Space
0
ENDBLK
5
1D
100
AcDbEntity
8
0
100
AcDbBlockEnd
0
BLOCK
5
24
100
AcDbEntity
8
0
100
AcDbBlockBegin
2
*Paper_Space0
70
0
10
0
20
0
30
0
3
*Paper_Space0
0
ENDBLK
5
25
100
AcDbEntity
8
0
100
AcDbBlockEnd
0
BLOCK
5
160
100
AcDbEntity
8
0
100
AcDbBlockBegin
2
*D1
70
1
10
0
20
0
30
0
3
*D1
0
LINE
5
162
100
AcDbEntity
8
0
62
256
6
ByLayer
370
-2
48
1
60
0
100
AcDbLine
10
-57.1
20
-14.2875
30
0
11
-57.1
21
-48.35
31
0
39
0
210
0
220
0
230
1
0
LINE
5
163
100
AcDbEntity
8
0
62
256
6
ByLayer
370
-2
48
1
60
0
100
AcDbLine
10
67.2
20
-1.5875
30
0
11
67.2
21
-48.35
31
0
39
0
210
0
220
0
230
1
0
LINE
5
164
100
AcDbEntity
8
0
62
256
6
ByLayer
370
-2
48
1
60
0
100
AcDbLine
10
-53.6
20
-46.35
30
0
11
63.7
21
-46.35
31
0
39
0
210
0
220
0
230
1
0
SOLID
5
165
100
AcDbEntity
8
0
62
256
6
ByLayer
370
-1
48
1
60
0
100
AcDbTrace
10
-53.6
20
-45.766667
30
0
11
-53.6
21
-46.933333
31
0
12
-57.1
22
-46.35
32
0
13
-57.1
23
-46.35
33
0
39
0
210
0
220
0
230
1
0
SOLID
5
166
100
AcDbEntity
8
0
62
256
6
ByLayer
370
-1
48
1
60
0
100
AcDbTrace
10
63.7
20
-46.933333
30
0
11
63.7
21
-45.766667
31
0
12
67.2
22
-46.35
32
0
13
67.2
23
-46.35
33
0
39
0
210
0
220
0
230
1
0
MTEXT
5
167
100
AcDbEntity
8
0
62
256
6
ByLayer
370
18
48
1
60
0
100
AcDbMText
10
5.05
20
-40.35
30
0
210
0
220
0
230
1
1
\A1;124.3
40
3
41
0
44
1
50
0
71
5
72
5
7
iso_b_vert
0
POINT
5
168
100
AcDbEntity
8
Defpoints
62
0
6
ByLayer
370
-1
48
1
60
0
100
AcDbPoint
10
-57.1
20
-12.7
30
0
39
0
210
0
220
0
230
1
50
360
0
POINT
5
169
100
AcDbEntity
8
Defpoints
62
0
6
ByLayer
370
-1
48
1
60
0
100
AcDbPoint
10
67.2
20
0
30
0
39
0
210
0
220
0
230
1
50
360
0
POINT
5
16A
100
AcDbEntity
8
Defpoints
62
0
6
ByLayer
370
-1
48
1
60
0
100
AcDbPoint
10
67.2
20
-46.35
30
0
39
0
210
0
220
0
230
1
50
360
0
ENDBLK
5
161
100
AcDbEntity
8
0
100
AcDbBlockEnd
0
BLOCK
5
172
100
AcDbEntity
8
0
100
AcDbBlockBegin
2
_U0
70
0
10
0
20
0
30
0
3
_U0
0
MTEXT
5
16C
100
AcDbEntity
8
SK2
62
256
6
ByLayer
370
18
48
1
60
0
100
AcDbMText
10
-0.336285
20
-45.464886
30
0
210
0
220
0
230
1
1
\W0.7237;124.30
40
3
41
0
44
1.084337
50
0
71
7
72
5
7
iso_b_vert
0
LINE
5
16D
100
AcDbEntity
8
SK2
62
256
6
ByLayer
370
13
48
1
60
0
100
AcDbLine
10
-57.1
20
-14.2875
30
0
11
-57.1
21
-48.35
31
0
39
0
210
0
220
0
230
1
0
LINE
5
16E
100
AcDbEntity
8
SK2
62
256
6
ByLayer
370
13
48
1
60
0
100
AcDbLine
10
67.2
20
-1.5875
30
0
11
67.2
21
-48.35
31
0
39
0
210
0
220
0
230
1
0
LINE
5
16F
100
AcDbEntity
8
SK2
62
256
6
ByLayer
370
13
48
1
60
0
100
AcDbLine
10
-57.1
20
-46.35
30
0
11
67.2
21
-46.35
31
0
39
0
210
0
220
0
230
1
0
SOLID
5
170
100
AcDbEntity
8
SK2
62
256
6
ByLayer
370
18
48
1
60
0
100
AcDbTrace
10
-57.1
20
-46.35
30
0
11
-53.600002
21
-45.889216
31
0
12
-53.599998
22
-46.810784
32
0
13
-53.599998
23
-46.810784
33
0
39
0
210
0
220
0
230
1
0
SOLID
5
171
100
AcDbEntity
8
SK2
62
256
6
ByLayer
370
18
48
1
60
0
100
AcDbTrace
10
67.2
20
-46.35
30
0
11
63.700002
21
-46.810784
31
0
12
63.699998
22
-45.889216
32
0
13
63.699998
23
-45.889216
33
0
39
0
210
0
220
0
230
1
0
ENDBLK
5
173
100
AcDbEntity
8
0
100
AcDbBlockEnd
0
BLOCK
5
178
100
AcDbEntity
8
0
100
AcDbBlockBegin
2
*D3
70
1
10
0
20
0
30
0
3
*D3
0
LINE
5
17A
100
AcDbEntity
8
0
62
256
6
ByLayer
370
-2
48
1
60
0
100
AcDbLine
10
67.2
20
-1.5875
30
0
11
67.2
21
-38.35
31
0
39
0
210
0
220
0
230
1
0
LINE
5
17B
100
AcDbEntity
8
0
62
256
6
ByLayer
370
-2
48
1
60
0
100
AcDbLine
10
6
20
-13.8905
30
0
11
6
21
-38.35
31
0
39
0
210
0
220
0
230
1
0
LINE
5
17C
100
AcDbEntity
8
0
62
256
6
ByLayer
370
-2
48
1
60
0
100
AcDbLine
10
63.7
20
-36.35
30
0
11
9.5
21
-36.35
31
0
39
0
210
0
220
0
230
1
0
SOLID
5
17D
100
AcDbEntity
8
0
62
256
6
ByLayer
370
-1
48
1
60
0
100
AcDbTrace
10
63.7
20
-36.933333
30
0
11
63.7
21
-35.766667
31
0
12
67.2
22
-36.35
32
0
13
67.2
23
-36.35
33
0
39
0
210
0
220
0
230
1
0
SOLID
5
17E
100
AcDbEntity
8
0
62
256
6
ByLayer
370
-1
48
1
60
0
100
AcDbTrace
10
9.5
20
-35.766667
30
0
11
9.5
21
-36.933333
31
0
12
6
22
-36.35
32
0
13
6
23
-36.35
33
0
39
0
210
0
220
0
230
1
0
MTEXT
5
17F
100
AcDbEntity
8
0
62
256
6
ByLayer
370
18
48
1
60
0
100
AcDbMText
10
36.6
20
-30.35
30
0
210
0
220
0
230
1
1
\A1;61.2
40
3
41
0
44
1
50
0
71
5
72
5
7
iso_b_vert
0
POINT
5
180
100
AcDbEntity
8
Defpoints
62
0
6
ByLayer
370
-1
48
1
60
0
100
AcDbPoint
10
67.2
20
0
30
0
39
0
210
0
220
0
230
1
50
360
0
POINT
5
181
100
AcDbEntity
8
Defpoints
62
0
6
ByLayer
370
-1
48
1
60
0
100
AcDbPoint
10
6
20
-12.303
30
0
39
0
210
0
220
0
230
1
50
360
0
POINT
5
182
100
AcDbEntity
8
Defpoints
62
0
6
ByLayer
370
-1
48
1
60
0
100
AcDbPoint
10
6
20
-36.35
30
0
39
0
210
0
220
0
230
1
50
360
0
ENDBLK
5
179
100
AcDbEntity
8
0
100
AcDbBlockEnd
0
BLOCK
5
18A
100
AcDbEntity
8
0
100
AcDbBlockBegin
2
_U1
70
0
10
0
20
0
30
0
3
_U1
0
MTEXT
5
184
100
AcDbEntity
8
SK2
62
256
6
ByLayer
370
18
48
1
60
0
100
AcDbMText
10
32.492572
20
-35.464886
30
0
210
0
220
0
230
1
1
\W0.6864;61.20
40
3
41
0
44
1.084337
50
0
71
7
72
5
7
iso_b_vert
0
LINE
5
185
100
AcDbEntity
8
SK2
62
256
6
ByLayer
370
13
48
1
60
0
100
AcDbLine
10
67.2
20
-1.5875
30
0
11
67.2
21
-38.35
31
0
39
0
210
0
220
0
230
1
0
LINE
5
186
100
AcDbEntity
8
SK2
62
256
6
ByLayer
370
13
48
1
60
0
100
AcDbLine
10
6
20
-13.8905
30
0
11
6
21
-38.35
31
0
39
0
210
0
220
0
230
1
0
LINE
5
187
100
AcDbEntity
8
SK2
62
256
6
ByLayer
370
13
48
1
60
0
100
AcDbLine
10
67.2
20
-36.35
30
0
11
6
21
-36.35
31
0
39
0
210
0
220
0
230
1
0
SOLID
5
188
100
AcDbEntity
8
SK2
62
256
6
ByLayer
370
18
48
1
60
0
100
AcDbTrace
10
67.2
20
-36.35
30
0
11
63.700002
21
-36.810784
31
0
12
63.699998
22
-35.889216
32
0
13
63.699998
23
-35.889216
33
0
39
0
210
0
220
0
230
1
0
SOLID
5
189
100
AcDbEntity
8
SK2
62
256
6
ByLayer
370
18
48
1
60
0
100
AcDbTrace
10
6
20
-36.35
30
0
11
9.499998
21
-35.889216
31
0
12
9.500002
22
-36.810784
32
0
13
9.500002
23
-36.810784
33
0
39
0
210
0
220
0
230
1
0
ENDBLK
5
18B
100
AcDbEntity
8
0
100
AcDbBlockEnd
0
BLOCK
5
190
100
AcDbEntity
8
0
100
AcDbBlockBegin
2
*D5
70
1
10
0
20
0
30
0
3
*D5
0
LINE
5
192
100
AcDbEntity
8
0
62
256
6
ByLayer
370
-2
48
1
60
0
100
AcDbLine
10
-57.1
20
-14.2875
30
0
11
-57.1
21
-38.35
31
0
39
0
210
0
220
0
230
1
0
LINE
5
193
100
AcDbEntity
8
0
62
256
6
ByLayer
370
-2
48
1
60
0
100
AcDbLine
10
0
20
-14.2875
30
0
11
0
21
-38.35
31
0
39
0
210
0
220
0
230
1
0
LINE
5
194
100
AcDbEntity
8
0
62
256
6
ByLayer
370
-2
48
1
60
0
100
AcDbLine
10
-53.6
20
-36.35
30
0
11
-3.5
21
-36.35
31
0
39
0
210
0
220
0
230
1
0
SOLID
5
195
100
AcDbEntity
8
0
62
256
6
ByLayer
370
-1
48
1
60
0
100
AcDbTrace
10
-53.6
20
-35.766667
30
0
11
-53.6
21
-36.933333
31
0
12
-57.1
22
-36.35
32
0
13
-57.1
23
-36.35
33
0
39
0
210
0
220
0
230
1
0
SOLID
5
196
100
AcDbEntity
8
0
62
256
6
ByLayer
370
-1
48
1
60
0
100
AcDbTrace
10
-3.5
20
-36.933333
30
0
11
-3.5
21
-35.766667
31
0
12
0
22
-36.35
32
0
13
0
23
-36.35
33
0
39
0
210
0
220
0
230
1
0
MTEXT
5
197
100
AcDbEntity
8
0
62
256
6
ByLayer
370
18
48
1
60
0
100
AcDbMText
10
-28.55
20
-30.35
30
0
210
0
220
0
230
1
1
\A1;57.1
40
3
41
0
44
1
50
0
71
5
72
5
7
iso_b_vert
0
POINT
5
198
100
AcDbEntity
8
Defpoints
62
0
6
ByLayer
370
-1
48
1
60
0
100
AcDbPoint
10
-57.1
20
-12.7
30
0
39
0
210
0
220
0
230
1
50
360
0
POINT
5
199
100
AcDbEntity
8
Defpoints
62
0
6
ByLayer
370
-1
48
1
60
0
100
AcDbPoint
10
0
20
-12.7
30
0
39
0
210
0
220
0
230
1
50
360
0
POINT
5
19A
100
AcDbEntity
8
Defpoints
62
0
6
ByLayer
370
-1
48
1
60
0
100
AcDbPoint
10
0
20
-36.35
30
0
39
0
210
0
220
0
230
1
50
360
0
ENDBLK
5
191
100
AcDbEntity
8
0
100
AcDbBlockEnd
0
BLOCK
5
1A2
100
AcDbEntity
8
0
100
AcDbBlockBegin
2
_U2
70
0
10
0
20
0
30
0
3
_U2
0
MTEXT
5
19C
100
AcDbEntity
8
SK2
62
256
6
ByLayer
370
18
48
1
60
0
100
AcDbMText
10
-32.657428
20
-35.464886
30
0
210
0
220
0
230
1
1
\W0.6864;57.10
40
3
41
0
44
1.084337
50
0
71
7
72
5
7
iso_b_vert
0
LINE
5
19D
100
AcDbEntity
8
SK2
62
256
6
ByLayer
370
13
48
1
60
0
100
AcDbLine
10
-57.1
20
-14.2875
30
0
11
-57.1
21
-38.35
31
0
39
0
210
0
220
0
230
1
0
LINE
5
19E
100
AcDbEntity
8
SK2
62
256
6
ByLayer
370
13
48
1
60
0
100
AcDbLine
10
0
20
-14.2875
30
0
11
0
21
-38.35
31
0
39
0
210
0
220
0
230
1
0
LINE
5
19F
100
AcDbEntity
8
SK2
62
256
6
ByLayer
370
13
48
1
60
0
100
AcDbLine
10
-57.1
20
-36.35
30
0
11
0
21
-36.35
31
0
39
0
210
0
220
0
230
1
0
SOLID
5
1A0
100
AcDbEntity
8
SK2
62
256
6
ByLayer
370
18
48
1
60
0
100
AcDbTrace
10
-57.1
20
-36.35
30
0
11
-53.600002
21
-35.889216
31
0
12
-53.599998
22
-36.810784
32
0
13
-53.599998
23
-36.810784
33
0
39
0
210
0
220
0
230
1
0
SOLID
5
1A1
100
AcDbEntity
8
SK2
62
256
6
ByLayer
370
18
48
1
60
0
100
AcDbTrace
10
0
20
-36.35
30
0
11
-3.499998
21
-36.810784
31
0
12
-3.500002
22
-35.889216
32
0
13
-3.500002
23
-35.889216
33
0
39
0
210
0
220
0
230
1
0
ENDBLK
5
1A3
100
AcDbEntity
8
0
100
AcDbBlockEnd
0
BLOCK
5
1A8
100
AcDbEntity
8
0
100
AcDbBlockBegin
2
*D7
70
1
10
0
20
0
30
0
3
*D7
0
LINE
5
1AA
100
AcDbEntity
8
0
62
256
6
ByLayer
370
-2
48
1
60
0
100
AcDbLine
10
67.2
20
1.5875
30
0
11
67.2
21
35.35
31
0
39
0
210
0
220
0
230
1
0
LINE
5
1AB
100
AcDbEntity
8
0
62
256
6
ByLayer
370
-2
48
1
60
0
100
AcDbLine
10
17.9
20
13.8905
30
0
11
17.9
21
35.35
31
0
39
0
210
0
220
0
230
1
0
LINE
5
1AC
100
AcDbEntity
8
0
62
256
6
ByLayer
370
-2
48
1
60
0
100
AcDbLine
10
63.7
20
33.35
30
0
11
21.4
21
33.35
31
0
39
0
210
0
220
0
230
1
0
SOLID
5
1AD
100
AcDbEntity
8
0
62
256
6
ByLayer
370
-1
48
1
60
0
100
AcDbTrace
10
63.7
20
32.766667
30
0
11
63.7
21
33.933333
31
0
12
67.2
22
33.35
32
0
13
67.2
23
33.35
33
0
39
0
210
0
220
0
230
1
0
SOLID
5
1AE
100
AcDbEntity
8
0
62
256
6
ByLayer
370
-1
48
1
60
0
100
AcDbTrace
10
21.4
20
33.933333
30
0
11
21.4
21
32.766667
31
0
12
17.9
22
33.35
32
0
13
17.9
23
33.35
33
0
39
0
210
0
220
0
230
1
0
MTEXT
5
1AF
100
AcDbEntity
8
0
62
256
6
ByLayer
370
18
48
1
60
0
100
AcDbMText
10
42.55
20
39.35
30
0
210
0
220
0
230
1
1
\A1;49.3
40
3
41
0
44
1
50
0
71
5
72
5
7
iso_b_vert
0
POINT
5
1B0
100
AcDbEntity
8
Defpoints
62
0
6
ByLayer
370
-1
48
1
60
0
100
AcDbPoint
10
67.2
20
0
30
0
39
0
210
0
220
0
230
1
50
360
0
POINT
5
1B1
100
AcDbEntity
8
Defpoints
62
0
6
ByLayer
370
-1
48
1
60
0
100
AcDbPoint
10
17.9
20
12.303
30
0
39
0
210
0
220
0
230
1
50
360
0
POINT
5
1B2
100
AcDbEntity
8
Defpoints
62
0
6
ByLayer
370
-1
48
1
60
0
100
AcDbPoint
10
17.9
20
33.35
30
0
39
0
210
0
220
0
230
1
50
360
0
ENDBLK
5
1A9
100
AcDbEntity
8
0
100
AcDbBlockEnd
0
BLOCK
5
1BA
100
AcDbEntity
8
0
100
AcDbBlockBegin
2
_U3
70
0
10
0
20
0
30
0
3
_U3
0
MTEXT
5
1B4
100
AcDbEntity
8
SK2
62
256
6
ByLayer
370
18
48
1
60
0
100
AcDbMText
10
37.909687
20
34.235114
30
0
210
0
220
0
230
1
1
\W0.7694;49.30
40
3
41
0
44
1.084337
50
0
71
7
72
5
7
iso_b_vert
0
LINE
5
1B5
100
AcDbEntity
8
SK2
62
256
6
ByLayer
370
13
48
1
60
0
100
AcDbLine
10
67.2
20
1.5875
30
0
11
67.2
21
35.35
31
0
39
0
210
0
220
0
230
1
0
LINE
5
1B6
100
AcDbEntity
8
SK2
62
256
6
ByLayer
370
13
48
1
60
0
100
AcDbLine
10
17.9
20
13.8905
30
0
11
17.9
21
35.35
31
0
39
0
210
0
220
0
230
1
0
LINE
5
1B7
100
AcDbEntity
8
SK2
62
256
6
ByLayer
370
13
48
1
60
0
100
AcDbLine
10
67.2
20
33.35
30
0
11
17.9
21
33.35
31
0
39
0
210
0
220
0
230
1
0
SOLID
5
1B8
100
AcDbEntity
8
SK2
62
256
6
ByLayer
370
18
48
1
60
0
100
AcDbTrace
10
67.2
20
33.35
30
0
11
63.700002
21
32.889216
31
0
12
63.699998
22
33.810784
32
0
13
63.699998
23
33.810784
33
0
39
0
210
0
220
0
230
1
0
SOLID
5
1B9
100
AcDbEntity
8
SK2
62
256
6
ByLayer
370
18
48
1
60
0
100
AcDbTrace
10
17.9
20
33.35
30
0
11
21.399998
21
33.810784
31
0
12
21.400002
22
32.889216
32
0
13
21.400002
23
32.889216
33
0
39
0
210
0
220
0
230
1
0
ENDBLK
5
1BB
100
AcDbEntity
8
0
100
AcDbBlockEnd
0
ENDSEC
0
SECTION
2
ENTITIES
0
ARC
5
BD
100
AcDbEntity
8
SK2
62
256
6
ByLayer
370
13
48
1
60
0
100
AcDbCircle
39
0
10
67.2
20
0
30
0
40
18.9999999999999
210
0
220
0
230
1
100
AcDbArc
50
290
51
70
0
POINT
5
70
100
AcDbEntity
8
81
62
256
6
ByLayer
370
18
48
1
60
0
100
AcDbPoint
10
67.2
20
0
30
0
39
0
210
0
220
0
230
1
50
360
0
POINT
5
72
100
AcDbEntity
8
80
62
256
6
ByLayer
370
18
48
1
60
0
100
AcDbPoint
10
0
20
0
30
0
39
0
210
0
220
0
230
1
50
360
0
POINT
5
74
100
AcDbEntity
8
1
62
256
6
ByLayer
370
18
48
1
60
1
100
AcDbPoint
10
-57.1
20
-12.7
30
0
39
0
210
0
220
0
230
1
50
360
0
POINT
5
76
100
AcDbEntity
8
1
62
256
6
ByLayer
370
18
48
1
60
1
100
AcDbPoint
10
67.2
20
0
30
0
39
0
210
0
220
0
230
1
50
360
0
POINT
5
77
100
AcDbEntity
8
1
62
256
6
ByLayer
370
18
48
1
60
1
100
AcDbPoint
10
67.2
20
0
30
0
39
0
210
0
220
0
230
1
50
360
0
POINT
5
78
100
AcDbEntity
8
1
62
256
6
ByLayer
370
18
48
1
60
1
100
AcDbPoint
10
6
20
-12.303
30
0
39
0
210
0
220
0
230
1
50
360
0
POINT
5
79
100
AcDbEntity
8
1
62
256
6
ByLayer
370
18
48
1
60
1
100
AcDbPoint
10
-57.1
20
-12.7
30
0
39
0
210
0
220
0
230
1
50
360
0
POINT
5
7A
100
AcDbEntity
8
1
62
256
6
ByLayer
370
18
48
1
60
1
100
AcDbPoint
10
0
20
-12.7
30
0
39
0
210
0
220
0
230
1
50
360
0
POINT
5
7B
100
AcDbEntity
8
1
62
256
6
ByLayer
370
18
48
1
60
1
100
AcDbPoint
10
67.2
20
0
30
0
39
0
210
0
220
0
230
1
50
360
0
POINT
5
7C
100
AcDbEntity
8
1
62
256
6
ByLayer
370
18
48
1
60
1
100
AcDbPoint
10
17.9
20
12.303
30
0
39
0
210
0
220
0
230
1
50
360
0
SPLINE
5
BE
100
AcDbEntity
8
1
62
256
6
ByLayer
370
18
48
1
60
0
100
AcDbSpline
70
4
71
3
72
20
73
16
40
0
40
0
40
0
40
0
40
0.0907437520859598
40
0.0907437520859598
40
0.272595001668768
40
0.272595001668768
40
0.454446251251577
40
0.454446251251577
40
0.54537187604298
40
0.54537187604298
40
0.636297500834382
40
0.636297500834382
40
0.818148750417191
40
0.818148750417191
40
1
40
1
40
1
40
1
41
1
10
29.4885148690229
20
-8.56980973240238
30
0
41
1
10
29.1350036959063
20
-8.65304081116929
30
0
41
1
10
28.7814451409131
20
-8.73487028834717
30
0
41
1
10
27.719293283365
20
-8.97650099403072
30
0
41
1
10
27.0112202161492
20
-9.13205064949636
30
0
41
1
10
25.595411890846
20
-9.43062603648636
30
0
41
1
10
24.8875900941713
20
-9.57351610316815
30
0
41
1
10
23.8259967810191
20
-9.7783338065619
30
0
41
1
10
23.4721584347417
20
-9.84502356464714
30
0
41
1
10
22.7645448435706
20
-9.97524576231925
30
0
41
1
10
22.4107957636885
20
-10.0388160396095
30
0
41
1
10
21.3494446486906
20
-10.2244719648858
30
0
41
1
10
20.641636465079
20
-10.3413671274158
30
0
41
1
10
19.2255368161959
20
-10.5614700298856
30
0
41
1
10
18.5172511280626
20
-10.6646892855094
30
0
41
1
10
17.8088000339112
20
-10.761099139508
30
0
0
SPLINE
5
BF
100
AcDbEntity
8
1
62
256
6
ByLayer
370
18
48
1
60
0
100
AcDbSpline
70
4
71
3
72
14
73
10
40
0
40
0
40
0
40
0
40
0.25
40
0.25
40
0.5
40
0.5
40
0.75
40
0.75
40
1
40
1
40
1
40
1
41
1
10
17.8088000339111
20
10.7610991395081
30
0
41
1
10
17.5697431489392
20
10.7946964666422
30
0
41
1
10
17.3321125463173
20
10.8287558202248
30
0
41
1
10
16.8593722808352
20
10.897084816628
30
0
41
1
10
16.6242617133596
20
10.9313543621146
30
0
41
1
10
16.1563367899408
20
10.9995170776176
30
0
41
1
10
15.9235218438559
20
11.033410902968
30
0
41
1
10
15.4600955975144
20
11.1003560943132
30
0
41
1
10
15.2294841569084
20
11.1334088477973
30
0
41
1
10
15
20
11.165852165568
30
0
0
SPLINE
5
C0
100
AcDbEntity
8
1
62
256
6
ByLayer
370
18
48
1
60
0
100
AcDbSpline
70
4
71
3
72
50
73
46
40
0
40
0
40
0
40
0
40
0.062500000000002
40
0.062500000000002
40
0.125000000000004
40
0.125000000000004
40
0.156250000000004
40
0.156250000000004
40
0.187500000000005
40
0.187500000000005
40
0.250000000000006
40
0.250000000000006
40
0.281250000000005
40
0.281250000000005
40
0.312500000000005
40
0.312500000000005
40
0.375000000000005
40
0.375000000000005
40
0.437500000000004
40
0.437500000000004
40
0.468750000000004
40
0.468750000000004
40
0.500000000000004
40
0.500000000000004
40
0.531250000000003
40
0.531250000000003
40
0.562500000000003
40
0.562500000000003
40
0.593750000000003
40
0.593750000000003
40
0.625000000000003
40
0.625000000000003
40
0.687500000000002
40
0.687500000000002
40
0.750000000000002
40
0.750000000000002
40
0.781250000000001
40
0.781250000000001
40
0.812500000000001
40
0.812500000000001
40
0.875000000000001
40
0.875000000000001
40
0.9375
40
0.9375
40
1
40
1
40
1
40
1
41
1
10
23.1005306861155
20
-6.92405461202165
30
0
41
1
10
23.6987627824375
20
-7.09148638368214
30
0
41
1
10
24.2970307886494
20
-7.25505263979403
30
0
41
1
10
25.4934509640494
20
-7.57498410498232
30
0
41
1
10
26.091603776577
20
-7.731347226894
30
0
41
1
10
26.9886287018343
20
-7.96073323516961
30
0
41
1
10
27.2875999937619
20
-8.03634060835566
30
0
41
1
10
27.8854712496864
20
-8.18582827105402
30
0
41
1
10
28.1844061854066
20
-8.25963408184677
30
0
41
1
10
29.0814670859768
20
-8.47771829033587
30
0
41
1
10
29.6797449891004
20
-8.61888729488862
30
0
41
1
10
30.5773498763685
20
-8.82466510067707
30
0
41
1
10
30.8766147741619
20
-8.89226838271142
30
0
41
1
10
31.4749738870634
20
-9.02548652143224
30
0
41
1
10
31.7740712691181
20
-9.09110234413956
30
0
41
1
10
32.6712363541807
20
-9.28473954167464
30
0
41
1
10
33.2691907104824
20
-9.4095191416543
30
0
41
1
10
34.4653779607581
20
-9.64949570030109
30
0
41
1
10
35.0635159883842
20
-9.76486943031244
30
0
41
1
10
35.9606162729241
20
-9.93127989019058
30
0
41
1
10
36.2596359182461
20
-9.9856337657346
30
0
41
1
10
36.8576358100594
20
-10.0921131685099
30
0
41
1
10
37.1565990345358
20
-10.144260972314
30
0
41
1
10
37.7547273048967
20
-10.2459718155347
30
0
41
1
10
38.053874378733
20
-10.2955637222097
30
0
41
1
10
38.6523043493329
20
-10.3922743108447
30
0
41
1
10
38.9515761319289
20
-10.4393907563808
30
0
41
1
10
39.5498818347373
20
-10.5311369271214
30
0
41
1
10
39.8489588525156
20
-10.5757735823774
30
0
41
1
10
40.4469297324136
20
-10.6626108158757
30
0
41
1
10
40.7458155589678
20
-10.7048202392152
30
0
41
1
10
41.6422542440604
20
-10.8277102115068
30
0
41
1
10
42.2395975495257
20
-10.9046301856528
30
0
41
1
10
43.4344047062934
20
-11.0477777480638
30
0
41
1
10
44.0318284720875
20
-11.1140701293653
30
0
41
1
10
44.9277708127348
20
-11.2058141919568
30
0
41
1
10
45.2263912824653
20
-11.2351062399154
30
0
41
1
10
45.8235657824804
20
-11.2911094786429
30
0
41
1
10
46.1220992501563
20
-11.317834774768
30
0
41
1
10
47.0177724759675
20
-11.3939890886605
30
0
41
1
10
47.6151678891695
20
-11.4392819089317
30
0
41
1
10
48.8103053900819
20
-11.5191475785371
30
0
41
1
10
49.4080354267841
20
-11.5537261311269
30
0
41
1
10
50.6036555383077
20
-11.6121675632183
30
0
41
1
10
51.2015950682549
20
-11.6359888058997
30
0
41
1
10
51.7999999999997
20
-11.6542877673443
30
0
0
SPLINE
5
C1
100
AcDbEntity
8
1
62
256
6
ByLayer
370
18
48
1
60
0
100
AcDbSpline
70
4
71
3
72
10
73
6
40
0
40
0
40
0
40
0
40
0.573147977452984
40
0.573147977452984
40
1
40
1
40
1
40
1
41
1
10
51.8
20
-12.270519694521
30
0
41
1
10
52.2555147043267
20
-12.2822789696149
30
0
41
1
10
52.7109690440225
20
-12.2906684058266
30
0
41
1
10
53.5053930522179
20
-12.2994880962958
30
0
41
1
10
53.8444166116933
20
-12.3014026754503
30
0
41
1
10
54.1833529861381
20
-12.3014632670552
30
0
0
SPLINE
5
C2
100
AcDbEntity
8
1
62
256
6
ByLayer
370
18
48
1
60
0
100
AcDbSpline
70
4
71
3
72
19
73
15
40
0
40
0
40
0
40
0
40
0.25
40
0.25
40
0.375
40
0.375
40
0.5
40
0.625
40
0.625
40
0.75
40
0.75
40
0.875
40
0.875
40
1
40
1
40
1
40
1
41
1
10
62.7220742078321
20
-1.75566081764961
30
0
41
1
10
61.8109987859668
20
-1.42749938271288
30
0
41
1
10
60.9003871642959
20
-1.09830864196101
30
0
41
1
10
59.5353830574554
20
-0.602375591431951
30
0
41
1
10
59.0805835527784
20
-0.43656983481182
30
0
41
1
10
58.1708679362126
20
-0.105406628529806
30
0
41
1
10
57.2610957269682
20
0.225474427485636
30
0
41
1
10
56.3512707284236
20
0.555959085504043
30
0
41
1
10
55.4414670583129
20
0.886376938592065
30
0
41
1
10
54.9865792855481
20
1.0515617454906
30
0
41
1
10
54.0766332479265
20
1.38133507080246
30
0
41
1
10
53.6215625885833
20
1.54588943153405
30
0
41
1
10
52.7110293085119
20
1.87379204357455
30
0
41
1
10
52.2555902977431
20
2.03720539592675
30
0
41
1
10
51.8
20
2.20013877568576
30
0
0
SPLINE
5
C3
100
AcDbEntity
8
1
62
256
6
ByLayer
370
18
48
1
60
0
100
AcDbSpline
70
4
71
3
72
95
73
91
40
0
40
0
40
0
40
0
40
0.0312500000000004
40
0.0312500000000004
40
0.0625000000000009
40
0.0625000000000009
40
0.0937500000000013
40
0.0937500000000013
40
0.125000000000002
40
0.125000000000002
40
0.140625000000002
40
0.140625000000002
40
0.148437500000002
40
0.148437500000002
40
0.156250000000002
40
0.187500000000003
40
0.187500000000003
40
0.218750000000003
40
0.218750000000003
40
0.250000000000004
40
0.250000000000004
40
0.281250000000005
40
0.281250000000005
40
0.296875000000005
40
0.296875000000005
40
0.304687500000005
40
0.304687500000005
40
0.312500000000005
40
0.312500000000005
40
0.343750000000006
40
0.343750000000006
40
0.375000000000007
40
0.375000000000007
40
0.406250000000008
40
0.406250000000008
40
0.43750000000001
40
0.43750000000001
40
0.44531250000001
40
0.44531250000001
40
0.45312500000001
40
0.46875000000001
40
0.46875000000001
40
0.500000000000011
40
0.500000000000011
40
0.531250000000011
40
0.531250000000011
40
0.535156250000011
40
0.535156250000011
40
0.539062500000011
40
0.539062500000011
40
0.546875000000011
40
0.562500000000011
40
0.562500000000011
40
0.593750000000011
40
0.593750000000011
40
0.625000000000011
40
0.625000000000011
40
0.63281250000001
40
0.63281250000001
40
0.64062500000001
40
0.656250000000009
40
0.656250000000009
40
0.687500000000008
40
0.687500000000008
40
0.718750000000007
40
0.718750000000007
40
0.726562500000007
40
0.726562500000007
40
0.734375000000007
40
0.734375000000007
40
0.750000000000007
40
0.750000000000007
40
0.781250000000007
40
0.781250000000007
40
0.812500000000006
40
0.812500000000006
40
0.843750000000006
40
0.843750000000006
40
0.851562500000006
40
0.851562500000006
40
0.859375000000006
40
0.875000000000005
40
0.875000000000005
40
0.906250000000004
40
0.937500000000003
40
0.968750000000001
40
0.968750000000001
40
0.984375000000001
40
0.984375000000001
40
1
40
1
40
1
40
1
41
1
10
62.7220742078229
20
11.9123279686727
30
0
41
1
10
62.7989156279714
20
11.7218000455358
30
0
41
1
10
62.8758773326184
20
11.5284104359328
30
0
41
1
10
63.0301723532247
20
11.13635834417
30
0
41
1
10
63.1075055348649
20
10.9376948571246
30
0
41
1
10
63.262635359839
20
10.5354198832921
30
0
41
1
10
63.340432061927
20
10.331807831032
30
0
41
1
10
63.4965433617935
20
9.91986111063287
30
0
41
1
10
63.5748582310246
20
9.71152620936653
30
0
41
1
10
63.6927281015857
20
9.3955850523476
30
0
41
1
10
63.7320839644053
20
9.28969753260279
30
0
41
1
10
63.7912140359296
20
9.13001246978504
30
0
41
1
10
63.8109537043197
20
9.07660481432615
30
0
41
1
10
63.8503946635764
20
8.96969427545082
30
0
41
1
10
63.9488518160649
20
8.70231160281853
30
0
41
1
10
64.0465913682563
20
8.43440497048127
30
0
41
1
10
64.2019960268452
20
8.00508239428785
30
0
41
1
10
64.2792103025708
20
7.79008566860639
30
0
41
1
10
64.4324892141325
20
7.35937397720366
30
0
41
1
10
64.5085551735156
20
7.14365930859697
30
0
41
1
10
64.6592095015469
20
6.71140264243323
30
0
41
1
10
64.7338008967619
20
6.49486173051022
30
0
41
1
10
64.8441690733034
20
6.16928614779582
30
0
41
1
10
64.8807033149129
20
6.06063283610175
30
0
41
1
10
64.9350476005046
20
5.89743417241192
30
0
41
1
10
64.95309612136
20
5.84296733739407
30
0
41
1
10
64.9889735101003
20
5.73411372685649
30
0
41
1
10
65.0067957853868
20
5.67974732371266
30
0
41
1
10
65.0952884018802
20
5.40820499101707
30
0
41
1
10
65.1641240915498
20
5.19190088711647
30
0
41
1
10
65.2966200157051
20
4.76079730501317
30
0
41
1
10
65.3602889892053
20
4.54599920845652
30
0
41
1
10
65.48051693443
20
4.1174608481725
30
0
41
1
10
65.5370860289823
20
3.90372156208934
30
0
41
1
10
65.6401991920308
20
3.47672171911404
30
0
41
1
10
65.6867479058936
20
3.26345943299819
30
0
41
1
10
65.7360720683445
20
2.99673644851683
30
0
41
1
10
65.7454992320704
20
2.94333295470631
30
0
41
1
10
65.7633442770808
20
2.83674227700982
30
0
41
1
10
65.7885623851212
20
2.6774139653443
30
0
41
1
10
65.8088605929462
20
2.51977986499321
30
0
41
1
10
65.8422355733191
20
2.20685671809815
30
0
41
1
10
65.8547862253159
20
2.00135687068303
30
0
41
1
10
65.8581343605536
20
1.5973126482188
30
0
41
1
10
65.848911958806
20
1.39877166289196
30
0
41
1
10
65.8263707811415
20
1.17990817953907
30
0
41
1
10
65.8236989222547
20
1.15565259859494
30
0
41
1
10
65.8180237342351
20
1.10726885451686
30
0
41
1
10
65.8150175749863
20
1.0831201508116
30
0
41
1
10
65.8055349013566
20
1.01107230770839
30
0
41
1
10
65.7847090333914
20
0.868504864692255
30
0
41
1
10
65.7586232868792
20
0.730466361942774
30
0
41
1
10
65.7003120893384
20
0.460283406293229
30
0
41
1
10
65.6532851930957
20
0.28800927406283
30
0
41
1
10
65.5471577984783
20
-0.0414476214075989
30
0
41
1
10
65.4880663038301
20
-0.198634852825734
30
0
41
1
10
65.4086155766972
20
-0.385825339772026
30
0
41
1
10
65.3924261805499
20
-0.422835109343509
30
0
41
1
10
65.3596044137505
20
-0.495736266242034
30
0
41
1
10
65.3097566727021
20
-0.603305597051218
30
0
41
1
10
65.2582542232207
20
-0.705632058139742
30
0
41
1
10
65.1534424728152
20
-0.903502897028858
30
0
41
1
10
65.0811826663991
20
-1.02639283802293
30
0
41
1
10
64.9332924932385
20
-1.25472045187746
30
0
41
1
10
64.8576521656641
20
-1.36015489419572
30
0
41
1
10
64.7614494286969
20
-1.4810530117349
30
0
41
1
10
64.7421250421739
20
-1.50468661022913
30
0
41
1
10
64.703315758115
20
-1.55085712829873
30
0
41
1
10
64.6838243879813
20
-1.57339972159457
30
0
41
1
10
64.6253772097385
20
-1.63909082305884
30
0
41
1
10
64.5863647714723
20
-1.68040644800357
30
0
41
1
10
64.4692455354376
20
-1.7970834362095
30
0
41
1
10
64.3910626333598
20
-1.86518988428085
30
0
41
1
10
64.2346320749439
20
-1.98252805480985
30
0
41
1
10
64.1563819874248
20
-2.03175785974287
30
0
41
1
10
63.9997927902356
20
-2.11136006154462
30
0
41
1
10
63.9214525704842
20
-2.14173250021941
30
0
41
1
10
63.8233895112026
20
-2.16765469512211
30
0
41
1
10
63.8037661187177
20
-2.17223491130744
30
0
41
1
10
63.7646834237066
20
-2.1801482503752
30
0
41
1
10
63.7062374908304
20
-2.19016682431473
30
0
41
1
10
63.6483068203724
20
-2.19469232209815
30
0
41
1
10
63.533081899302
20
-2.19654230327541
30
0
41
1
10
63.3811453531146
20
-2.17983141633343
30
0
41
1
10
63.1575319905564
20
-2.09825043288686
30
0
41
1
10
63.0107927003044
20
-2.00610455026714
30
0
41
1
10
62.9014161355841
20
-1.92252032018905
30
0
41
1
10
62.8651946263349
20
-1.89233643055005
30
0
41
1
10
62.7932738907447
20
-1.82742247200548
30
0
41
1
10
62.7575603124526
20
-1.79268145432832
30
0
41
1
10
62.7220742078232
20
-1.75566081764626
30
0
0
SPLINE
5
C4
100
AcDbEntity
8
1
62
256
6
ByLayer
370
18
48
1
60
0
100
AcDbSpline
70
4
71
3
72
22
73
18
40
0
40
0
40
0
40
0
40
0.0408057205481552
40
0.0408057205481552
40
0.120738577169142
40
0.120738577169142
40
0.200671433790129
40
0.200671433790129
40
0.360537147032103
40
0.360537147032103
40
0.520402860274078
40
0.520402860274078
40
0.680268573516052
40
0.680268573516052
40
0.840134286758026
40
0.840134286758026
40
1
40
1
40
1
40
1
41
1
10
54.1833528516559
20
12.3014632670311
30
0
41
1
10
54.2995173233479
20
12.3014840339044
30
0
41
1
10
54.4156715538078
20
12.3012870212272
30
0
41
1
10
54.7593247194846
20
12.3000592471557
30
0
41
1
10
54.9867936209321
20
12.2984097549993
30
0
41
1
10
55.441645502514
20
12.2934303563621
30
0
41
1
10
55.66902049192
20
12.2900983120669
30
0
41
1
10
56.351221918053
20
12.2776022312675
30
0
41
1
10
56.8061066863931
20
12.2659443957122
30
0
41
1
10
57.7159368717811
20
12.2360078455929
30
0
41
1
10
58.1708843376694
20
12.2177296439342
30
0
41
1
10
59.0807363102853
20
12.1745077507764
30
0
41
1
10
59.5356111179296
20
12.1495470877362
30
0
41
1
10
60.4454874401629
20
12.0929770325559
30
0
41
1
10
60.9004971246833
20
12.0613695035869
30
0
41
1
10
61.8109933250482
20
11.9917081927954
30
0
41
1
10
62.2664652631582
20
11.9536553991886
30
0
41
1
10
62.722074207832
20
11.9123279686718
30
0
0
SPLINE
5
C5
100
AcDbEntity
8
1
62
256
6
ByLayer
370
18
48
1
60
0
100
AcDbSpline
70
4
71
3
72
42
73
38
40
0
40
0
40
0
40
0
40
0.035369780467988
40
0.035369780467988
40
0.0755627062818229
40
0.0755627062818229
40
0.115755632095658
40
0.115755632095658
40
0.196141483723326
40
0.196141483723326
40
0.276527335350994
40
0.276527335350994
40
0.316720261164828
40
0.316720261164828
40
0.356913186978661
40
0.356913186978661
40
0.397106112792494
40
0.397106112792494
40
0.437299038606327
40
0.437299038606327
40
0.477491964420161
40
0.477491964420161
40
0.517684890233994
40
0.517684890233994
40
0.59807074186166
40
0.59807074186166
40
0.678456593489327
40
0.678456593489327
40
0.718649519303161
40
0.718649519303161
40
0.758842445116995
40
0.758842445116995
40
0.839228296744663
40
0.839228296744663
40
0.919614148372332
40
0.919614148372332
40
1
40
1
40
1
40
1
41
1
10
29.4883381604282
20
8.5726540477522
30
0
41
1
10
29.7515775631945
20
8.63457823565474
30
0
41
1
10
30.0148507708639
20
8.69571099923382
30
0
41
1
10
30.5773498763692
20
8.82466510067718
30
0
41
1
10
30.8766147741625
20
8.89226838271154
30
0
41
1
10
31.474973887064
20
9.02548652143236
30
0
41
1
10
31.7740712691188
20
9.09110234413973
30
0
41
1
10
32.6712363541816
20
9.28473954167481
30
0
41
1
10
33.2691907104833
20
9.40951914165447
30
0
41
1
10
34.4653779607591
20
9.64949570030126
30
0
41
1
10
35.0635159883853
20
9.76486943031259
30
0
41
1
10
35.9606162729252
20
9.93127989019075
30
0
41
1
10
36.2596359182472
20
9.98563376573478
30
0
41
1
10
36.8576358100606
20
10.09211316851
30
0
41
1
10
37.156599034537
20
10.1442609723142
30
0
41
1
10
37.7547273048979
20
10.2459718155349
30
0
41
1
10
38.0538743787343
20
10.2955637222099
30
0
41
1
10
38.6523043493343
20
10.392274310845
30
0
41
1
10
38.9515761319302
20
10.439390756381
30
0
41
1
10
39.5498818347388
20
10.5311369271216
30
0
41
1
10
39.848958852517
20
10.5757735823776
30
0
41
1
10
40.4469297324151
20
10.6626108158759
30
0
41
1
10
40.7458155589692
20
10.7048202392154
30
0
41
1
10
41.6422542440619
20
10.827710211507
30
0
41
1
10
42.2395975495273
20
10.904630185653
30
0
41
1
10
43.4344047062951
20
11.047777748064
30
0
41
1
10
44.0318284720893
20
11.1140701293655
30
0
41
1
10
44.9277708127366
20
11.2058141919569
30
0
41
1
10
45.2263912824671
20
11.2351062399156
30
0
41
1
10
45.8235657824823
20
11.291109478643
30
0
41
1
10
46.1220992501583
20
11.3178347747682
30
0
41
1
10
47.0177724759696
20
11.3939890886606
30
0
41
1
10
47.6151678891716
20
11.4392819089319
30
0
41
1
10
48.8103053900841
20
11.5191475785373
30
0
41
1
10
49.4080354267863
20
11.553726131127
30
0
41
1
10
50.60365553831
20
11.6121675632184
30
0
41
1
10
51.2015950682547
20
11.6359888058997
30
0
41
1
10
51.7999999999996
20
11.6542877673443
30
0
0
SPLINE
5
C6
100
AcDbEntity
8
1
62
256
6
ByLayer
370
18
48
1
60
0
100
AcDbSpline
70
4
71
3
72
52
73
48
40
0
40
0
40
0
40
0
40
0.0312500000000002
40
0.0312500000000002
40
0.0625000000000003
40
0.0625000000000003
40
0.125000000000001
40
0.125000000000001
40
0.15625
40
0.15625
40
0.1875
40
0.1875
40
0.218749999999999
40
0.218749999999999
40
0.249999999999999
40
0.249999999999999
40
0.312499999999999
40
0.312499999999999
40
0.343749999999999
40
0.343749999999999
40
0.375
40
0.375
40
0.437500000000001
40
0.437500000000001
40
0.468750000000001
40
0.468750000000001
40
0.500000000000001
40
0.500000000000001
40
0.562500000000001
40
0.562500000000001
40
0.593750000000001
40
0.593750000000001
40
0.625000000000002
40
0.625000000000002
40
0.687500000000001
40
0.687500000000001
40
0.75
40
0.75
40
0.812499999999999
40
0.812499999999999
40
0.843749999999999
40
0.843749999999999
40
0.875
40
0.875
40
0.9375
40
0.9375
40
1
40
1
40
1
40
1
41
1
10
51.8
20
1.885395609363
30
0
41
1
10
51.4456814936253
20
2.00633636356446
30
0
41
1
10
51.0914419265101
20
2.12697504802722
30
0
41
1
10
50.3831319597441
20
2.36767820146605
30
0
41
1
10
50.0290917220454
20
2.48782758886207
30
0
41
1
10
48.9669458719328
20
2.84661889192407
30
0
41
1
10
48.2588028377282
20
3.08357556467146
30
0
41
1
10
47.1965797582531
20
3.43584076841603
30
0
41
1
10
46.8425063640935
20
3.55274030909772
30
0
41
1
10
46.1343701163973
20
3.78551569169639
30
0
41
1
10
45.7803018467693
20
3.90137626967163
30
0
41
1
10
45.0720862806241
20
4.13182472843761
30
0
41
1
10
44.717937595701
20
4.24640869165495
30
0
41
1
10
44.0094485769166
20
4.47399929342203
30
0
41
1
10
43.6551177599356
20
4.58700564174055
30
0
41
1
10
42.5924079742638
20
4.92356452531499
30
0
41
1
10
41.8841323274069
20
5.14472104554011
30
0
41
1
10
40.8220795539496
20
5.4717781239471
30
0
41
1
10
40.4681240665518
20
5.58001977176079
30
0
41
1
10
39.7600826220691
20
5.79430113579579
30
0
41
1
10
39.4060258096497
20
5.90041654460808
30
0
41
1
10
38.3437605496335
20
6.21572960019611
30
0
41
1
10
37.6354726209081
20
6.42193504634287
30
0
41
1
10
36.5728893791745
20
6.72524982522879
30
0
41
1
10
36.2186145560106
20
6.82533969825292
30
0
41
1
10
35.5102056283196
20
7.02316402353992
30
0
41
1
10
35.1560500069959
20
7.12088798594189
30
0
41
1
10
34.0936078757933
20
7.4102293583928
30
0
41
1
10
33.3853864301706
20
7.59811755054554
30
0
41
1
10
32.3232382500615
20
7.87260918877945
30
0
41
1
10
31.9692220678673
20
7.9628869219498
30
0
41
1
10
31.2612473734537
20
8.14097153646026
30
0
41
1
10
30.9072244746362
20
8.22864243001851
30
0
41
1
10
29.8449354940033
20
8.48732125405886
30
0
41
1
10
29.1364406364668
20
8.65411176827729
30
0
41
1
10
27.719293283365
20
8.97650099403074
30
0
41
1
10
27.0112202161492
20
9.13205064949639
30
0
41
1
10
25.595411890846
20
9.43062603648642
30
0
41
1
10
24.8875900941712
20
9.57351610316817
30
0
41
1
10
23.8259967810189
20
9.7783338065619
30
0
41
1
10
23.4721584347417
20
9.84502356464716
30
0
41
1
10
22.7645448435707
20
9.97524576231928
30
0
41
1
10
22.4107957636886
20
10.0388160396095
30
0
41
1
10
21.3494446486906
20
10.2244719648859
30
0
41
1
10
20.6416364650789
20
10.3413671274158
30
0
41
1
10
19.2255368161958
20
10.5614700298856
30
0
41
1
10
18.5172511280626
20
10.6646892855094
30
0
41
1
10
17.8088000339112
20
10.761099139508
30
0
0
SPLINE
5
C7
100
AcDbEntity
8
1
62
256
6
ByLayer
370
18
48
1
60
0
100
AcDbSpline
70
4
71
3
72
14
73
10
40
0
40
0
40
0
40
0
40
0.25
40
0.25
40
0.5
40
0.5
40
0.75
40
0.75
40
1
40
1
40
1
40
1
41
1
10
17.8088000339111
20
-10.761099139508
30
0
41
1
10
17.5697431489392
20
-10.7946964666422
30
0
41
1
10
17.3321125463172
20
-10.8287558202248
30
0
41
1
10
16.8593722808352
20
-10.897084816628
30
0
41
1
10
16.6242617133596
20
-10.9313543621146
30
0
41
1
10
16.1563367899408
20
-10.9995170776176
30
0
41
1
10
15.9235218438559
20
-11.033410902968
30
0
41
1
10
15.4600955975144
20
-11.1003560943132
30
0
41
1
10
15.2294841569084
20
-11.1334088477973
30
0
41
1
10
15
20
-11.165852165568
30
0
0
SPLINE
5
C8
100
AcDbEntity
8
1
62
256
6
ByLayer
370
18
48
1
60
0
100
AcDbSpline
70
4
71
4
72
10
73
5
40
0
40
0
40
0
40
0
40
0
40
1
40
1
40
1
40
1
40
1
41
0.999670233439304
10
18.8767113486308
20
-6.07446434666601
30
0
41
0.998424211855303
10
18.5220013846907
20
-7.01222862909369
30
0
41
0.99462312437651
10
18.1985096657473
20
-8.16661968043119
30
0
41
0.994883030747734
10
17.9575915419115
20
-9.46209926522887
30
0
41
0.996522744747036
10
17.8088000339112
20
-10.7610991395081
30
0
0
SPLINE
5
C9
100
AcDbEntity
8
1
62
256
6
ByLayer
370
18
48
1
60
0
100
AcDbSpline
70
4
71
3
72
24
73
20
40
0
40
0
40
0
40
0
40
0.125000000000002
40
0.125000000000002
40
0.250000000000005
40
0.250000000000005
40
0.375000000000007
40
0.375000000000007
40
0.50000000000001
40
0.50000000000001
40
0.53125000000001
40
0.53125000000001
40
0.562500000000011
40
0.625000000000007
40
0.750000000000005
40
0.750000000000005
40
0.875000000000002
40
0.875000000000002
40
1
40
1
40
1
40
1
41
1
10
15
20
-6.18670454869735
30
0
41
1
10
15.3403587839392
20
-6.13119309102271
30
0
41
1
10
15.6810925067672
20
-6.08835744615374
30
0
41
1
10
16.3632600841239
20
-6.02691461654609
30
0
41
1
10
16.704694206382
20
-6.00831408614582
30
0
41
1
10
17.3882259199304
20
-5.99430340206686
30
0
41
1
10
17.730323732223
20
-5.99889924106654
30
0
41
1
10
18.4151513804155
20
-6.03012540561696
30
0
41
1
10
18.7578814192422
20
-6.05676128374159
30
0
41
1
10
19.1866686624426
20
-6.10292327425265
30
0
41
1
10
19.2723878615233
20
-6.11279293031168
30
0
41
1
10
19.4433468368579
20
-6.13371984579146
30
0
41
1
10
19.6992445445775
20
-6.16691031030999
30
0
41
1
10
20.2926647602097
20
-6.25649863748211
30
0
41
1
10
20.79538858545
20
-6.35252588895165
30
0
41
1
10
21.461098539038
20
-6.49477102299417
30
0
41
1
10
21.7916601580319
20
-6.57299283591826
30
0
41
1
10
22.4488707583505
20
-6.74073534818478
30
0
41
1
10
22.7755222216396
20
-6.83024667892138
30
0
41
1
10
23.1005306861154
20
-6.92405461202159
30
0
0
SPLINE
5
CA
100
AcDbEntity
8
1
62
256
6
ByLayer
370
18
48
1
60
0
100
AcDbSpline
70
4
71
3
72
24
73
20
40
0
40
0
40
0
40
0
40
0.0108802565996914
40
0.0108802565996914
40
0.13452022452473
40
0.13452022452473
40
0.258160192449768
40
0.258160192449768
40
0.381800160374807
40
0.381800160374807
40
0.505440128299846
40
0.505440128299846
40
0.629080096224884
40
0.629080096224884
40
0.752720064149923
40
0.752720064149923
40
0.876360032074961
40
0.876360032074961
40
1
40
1
40
1
40
1
41
1
10
9.30970772130476
20
14.9244995028731
30
0
41
1
10
9.32885120547402
20
14.9136498004374
30
0
41
1
10
9.34802852744133
20
14.902752016336
30
0
41
1
10
9.58554206829541
20
14.7674324172107
30
0
41
1
10
9.80813933158436
20
14.6369635955119
30
0
41
1
10
10.2602805508162
20
14.3659177158945
30
0
41
1
10
10.4898278828522
20
14.2253338537307
30
0
41
1
10
10.9543245194552
20
13.9355948154684
30
0
41
1
10
11.1879375826429
20
13.7872708641144
30
0
41
1
10
11.6570168364651
20
13.4846601521443
30
0
41
1
10
11.8924782391148
20
13.3303690797367
30
0
41
1
10
12.3646925955294
20
13.0163574194068
30
0
41
1
10
12.601441218838
20
12.8566321223143
30
0
41
1
10
13.0761346261556
20
12.5320141003167
30
0
41
1
10
13.3140774566862
20
12.367116088074
30
0
41
1
10
13.7916311103737
20
12.032293938908
30
0
41
1
10
14.0312430677418
20
11.8623647717402
30
0
41
1
10
14.5131873909322
20
11.5176594321814
30
0
41
1
10
14.7555229601704
20
11.3428795245005
30
0
41
1
10
15
20
11.1658521655681
30
0
0
SPLINE
5
CB
100
AcDbEntity
8
1
62
256
6
ByLayer
370
18
48
1
60
0
100
AcDbSpline
70
4
71
3
72
110
73
106
40
0
40
0
40
0
40
0
40
0.0312499999999941
40
0.0312499999999941
40
0.0624999999999883
40
0.0624999999999883
40
0.0937499999999824
40
0.0937499999999824
40
0.124999999999977
40
0.124999999999977
40
0.156249999999971
40
0.156249999999971
40
0.164062499999969
40
0.164062499999969
40
0.171874999999968
40
0.171874999999968
40
0.187499999999966
40
0.187499999999966
40
0.218749999999963
40
0.218749999999963
40
0.24999999999996
40
0.24999999999996
40
0.265624999999958
40
0.265624999999958
40
0.273437499999958
40
0.273437499999958
40
0.281249999999958
40
0.281249999999958
40
0.312499999999957
40
0.312499999999957
40
0.343749999999955
40
0.343749999999955
40
0.359374999999955
40
0.359374999999955
40
0.363281249999955
40
0.363281249999955
40
0.367187499999955
40
0.374999999999956
40
0.374999999999956
40
0.406249999999955
40
0.406249999999955
40
0.421874999999955
40
0.421874999999955
40
0.425781249999955
40
0.425781249999955
40
0.429687499999955
40
0.429687499999955
40
0.437499999999955
40
0.437499999999955
40
0.453124999999955
40
0.468749999999955
40
0.468749999999955
40
0.484374999999955
40
0.484374999999955
40
0.492187499999955
40
0.492187499999955
40
0.496093749999955
40
0.496093749999955
40
0.499999999999955
40
0.515624999999955
40
0.531249999999954
40
0.546874999999954
40
0.546874999999954
40
0.550781249999954
40
0.550781249999954
40
0.554687499999954
40
0.554687499999954
40
0.562499999999954
40
0.562499999999954
40
0.578124999999955
40
0.578124999999955
40
0.593749999999955
40
0.593749999999955
40
0.601562499999955
40
0.605468749999955
40
0.605468749999955
40
0.609374999999955
40
0.609374999999955
40
0.624999999999957
40
0.624999999999957
40
0.656249999999962
40
0.656249999999962
40
0.671874999999963
40
0.671874999999963
40
0.687499999999965
40
0.687499999999965
40
0.718749999999969
40
0.718749999999969
40
0.749999999999972
40
0.749999999999972
40
0.781249999999976
40
0.781249999999976
40
0.812499999999979
40
0.812499999999979
40
0.843749999999983
40
0.843749999999983
40
0.874999999999986
40
0.874999999999986
40
0.90624999999999
40
0.90624999999999
40
0.937499999999993
40
0.937499999999993
40
0.968749999999997
40
0.968749999999997
40
1
40
1
40
1
40
1
41
1
10
15
20
-6.18670454869735
30
0
41
1
10
14.7297758552334
20
-6.32723869915202
30
0
41
1
10
14.4622936707276
20
-6.47379522445871
30
0
41
1
10
13.9325415535209
20
-6.77875744123207
30
0
41
1
10
13.6702718674855
20
-6.93716317493045
30
0
41
1
10
13.150721412582
20
-7.26578936539093
30
0
41
1
10
12.8934408049573
20
-7.43600936486106
30
0
41
1
10
12.3836866741333
20
-7.78839563096506
30
0
41
1
10
12.1312131988095
20
-7.97056072351228
30
0
41
1
10
11.6309297470526
20
-8.34715817636038
30
0
41
1
10
11.3831196611241
20
-8.54158821644054
30
0
41
1
10
11.0762063550617
20
-8.79264335012763
30
0
41
1
10
11.0149662609028
20
-8.84325595556496
30
0
41
1
10
10.8927700004243
20
-8.9452961829941
30
0
41
1
10
10.8317565512995
20
-8.99677279199673
30
0
41
1
10
10.6495668997739
20
-9.15208068854989
30
0
41
1
10
10.5294560047927
20
-9.2566019678689
30
0
41
1
10
10.1731546524974
20
-9.57305075046341
30
0
41
1
10
9.9409881130818
20
-9.7878591714238
30
0
41
1
10
9.48747020439072
20
-10.2249159971122
30
0
41
1
10
9.26611580802989
20
-10.4471632172515
30
0
41
1
10
8.94245680177249
20
-10.7860360935304
30
0
41
1
10
8.83596828208954
20
-10.8999119391863
30
0
41
1
10
8.67839198520329
20
-11.0721065811063
30
0
41
1
10
8.62622617873313
20
-11.1297350431318
30
0
41
1
10
8.52262664133332
20
-11.2454544226553
30
0
41
1
10
8.47113980106462
20
-11.3036073622479
30
0
41
1
10
8.21690415210082
20
-11.5940019949457
30
0
41
1
10
8.02285200416679
20
-11.8260877952558
30
0
41
1
10
7.65398306267684
20
-12.2888015215463
30
0
41
1
10
7.47915338042725
20
-12.5194336362085
30
0
41
1
10
7.2324294144579
20
-12.8634291511027
30
0
41
1
10
7.15278301246656
20
-12.9777673299791
30
0
41
1
10
7.0566655412095
20
-13.1201739271682
30
0
41
1
10
7.03760621016821
20
-13.1486420797225
30
0
41
1
10
6.99997989092103
20
-13.2053084870928
30
0
41
1
10
6.94422703423416
20
-13.2899795331308
30
0
41
1
10
6.89053766856952
20
-13.373651724962
30
0
41
1
10
6.7161898360732
20
-13.65027481358
30
0
41
1
10
6.59140559433251
20
-13.8642996398771
30
0
41
1
10
6.42775742096615
20
-14.1727994980818
30
0
41
1
10
6.37714453978364
20
-14.2735364537721
30
0
41
1
10
6.31909916638386
20
-14.3965986248788
30
0
41
1
10
6.30775159718101
20
-14.4210678757724
30
0
41
1
10
6.28558897221257
20
-14.4697130483123
30
0
41
1
10
6.27476921259199
20
-14.4939009718649
30
0
41
1
10
6.24328335400668
20
-14.5656435415383
30
0
41
1
10
6.22353373453683
20
-14.6124991282779
30
0
41
1
10
6.1679907932602
20
-14.7501401832812
30
0
41
1
10
6.10380538443158
20
-14.9258660106002
30
0
41
1
10
6.05944437482316
20
-15.0857673282589
30
0
41
1
10
6.02522133629603
20
-15.2375256488055
30
0
41
1
10
6.01317774188902
20
-15.309334080556
30
0
41
1
10
6.00303952393438
20
-15.4106691368773
30
0
41
1
10
6.00098302613588
20
-15.4433834672002
30
0
41
1
10
5.99994029892045
20
-15.4908140890107
30
0
41
1
10
5.99993425310021
20
-15.5063707828927
30
0
41
1
10
6.00060824305285
20
-15.5367673974886
30
0
41
1
10
6.00400423614818
20
-15.6110348897071
30
0
41
1
10
6.02532723896402
20
-15.7293991006489
30
0
41
1
10
6.08537142189692
20
-15.8555946884889
30
0
41
1
10
6.14631627103756
20
-15.9190209610193
30
0
41
1
10
6.19100543956611
20
-15.9522206957851
30
0
41
1
10
6.20027363595517
20
-15.9585382197767
30
0
41
1
10
6.21947403433319
20
-15.9705277907442
30
0
41
1
10
6.22941123320516
20
-15.97620106853
30
0
41
1
10
6.26006700392543
20
-15.9921769624183
30
0
41
1
10
6.28167473291643
20
-16.0014668801631
30
0
41
1
10
6.34990872234485
20
-16.0254078188769
30
0
41
1
10
6.39994097624901
20
-16.0361354687459
30
0
41
1
10
6.50868705187028
20
-16.0477901896052
30
0
41
1
10
6.56740217731402
20
-16.048715747302
30
0
41
1
10
6.66178927126501
20
-16.0431324460836
30
0
41
1
10
6.7105628661522
20
-16.0385962594632
30
0
41
1
10
6.76168093560645
20
-16.0315016263974
30
0
41
1
10
6.79627849775028
20
-16.0262090280426
30
0
41
1
10
6.81385475623739
20
-16.023277968264
30
0
41
1
10
6.90277799126343
20
-16.0072756843455
30
0
41
1
10
6.97715732333333
20
-15.9901970606173
30
0
41
1
10
7.20929548840923
20
-15.9274146619156
30
0
41
1
10
7.37602478258088
20
-15.8702177597312
30
0
41
1
10
7.64200634014577
20
-15.7651759910063
30
0
41
1
10
7.73332375870203
20
-15.7269388276003
30
0
41
1
10
7.92100465817649
20
-15.6445009082853
30
0
41
1
10
8.01740460034435
20
-15.6002824027271
30
0
41
1
10
8.31359364256497
20
-15.4594120729395
30
0
41
1
10
8.51725789195945
20
-15.3560766873806
30
0
41
1
10
8.93492471099148
20
-15.1344707372717
30
0
41
1
10
9.14893609805242
20
-15.0161817923266
30
0
41
1
10
9.58554206829547
20
-14.7674324172107
30
0
41
1
10
9.80813933158436
20
-14.6369635955119
30
0
41
1
10
10.2602805508162
20
-14.3659177158945
30
0
41
1
10
10.4898278828522
20
-14.2253338537307
30
0
41
1
10
10.9543245194552
20
-13.9355948154683
30
0
41
1
10
11.1879375826429
20
-13.7872708641144
30
0
41
1
10
11.6570168364651
20
-13.4846601521443
30
0
41
1
10
11.8924782391148
20
-13.3303690797367
30
0
41
1
10
12.3646925955294
20
-13.0163574194068
30
0
41
1
10
12.6014412188381
20
-12.8566321223143
30
0
41
1
10
13.0761346261556
20
-12.5320141003167
30
0
41
1
10
13.3140774566862
20
-12.3671160880739
30
0
41
1
10
13.7916311103737
20
-12.0322939389079
30
0
41
1
10
14.0312430677418
20
-11.8623647717402
30
0
41
1
10
14.5131873909322
20
-11.5176594321814
30
0
41
1
10
14.7555229601704
20
-11.3428795245004
30
0
41
1
10
15
20
-11.165852165568
30
0
0
SPLINE
5
CC
100
AcDbEntity
8
1
62
256
6
ByLayer
370
13
48
1
60
0
100
AcDbSpline
70
4
71
3
72
18
73
14
40
0
40
0
40
0
40
0
40
0.125
40
0.125
40
0.25
40
0.25
40
0.375
40
0.375
40
0.5
40
0.5
40
0.75
40
0.75
40
1
40
1
40
1
40
1
41
1
10
51.8
20
9.34489624579558
30
0
41
1
10
51.8515791757566
20
9.59497694622704
30
0
41
1
10
51.9031583515132
20
9.83088021736683
30
0
41
1
10
52.0063167030264
20
10.271748120317
30
0
41
1
10
52.057895878783
20
10.4767107809669
30
0
41
1
10
52.1610542302963
20
10.8539849380074
30
0
41
1
10
52.2126334060528
20
11.0262964631742
30
0
41
1
10
52.315791757566
20
11.3374640557148
30
0
41
1
10
52.3673709333226
20
11.4763219868569
30
0
41
1
10
52.5221084605924
20
11.8428246407736
30
0
41
1
10
52.6252668121057
20
12.0200673898574
30
0
41
1
10
52.8315835151321
20
12.2500779429784
30
0
41
1
10
52.9347418666453
20
12.303
30
0
41
1
10
53.0379002181585
20
12.303
30
0
0
SPLINE
5
CD
100
AcDbEntity
8
1
62
256
6
ByLayer
370
13
48
1
60
0
100
AcDbSpline
70
4
71
3
72
141
73
137
40
0
40
0
40
0
40
0
40
0.0156250000000001
40
0.0156250000000001
40
0.0312500000000001
40
0.0312500000000001
40
0.0468750000000002
40
0.0468750000000002
40
0.0625000000000003
40
0.0625000000000003
40
0.0781250000000004
40
0.0781250000000004
40
0.0937500000000005
40
0.0937500000000005
40
0.109375000000001
40
0.109375000000001
40
0.125000000000001
40
0.125000000000001
40
0.140625000000001
40
0.140625000000001
40
0.156250000000001
40
0.156250000000001
40
0.171875000000001
40
0.171875000000001
40
0.187500000000001
40
0.187500000000001
40
0.203125000000001
40
0.203125000000001
40
0.218750000000001
40
0.218750000000001
40
0.234375000000001
40
0.234375000000001
40
0.250000000000001
40
0.250000000000001
40
0.257812500000001
40
0.257812500000001
40
0.265625000000001
40
0.265625000000001
40
0.281250000000001
40
0.281250000000001
40
0.296875000000002
40
0.296875000000002
40
0.312500000000002
40
0.312500000000002
40
0.328125000000002
40
0.328125000000002
40
0.343750000000002
40
0.343750000000002
40
0.359375000000002
40
0.359375000000002
40
0.375000000000002
40
0.375000000000002
40
0.390625000000002
40
0.390625000000002
40
0.406250000000002
40
0.406250000000002
40
0.421875000000002
40
0.421875000000002
40
0.437500000000002
40
0.437500000000002
40
0.453125000000002
40
0.453125000000002
40
0.468750000000002
40
0.468750000000002
40
0.484375000000002
40
0.484375000000002
40
0.500000000000002
40
0.500000000000002
40
0.515625000000002
40
0.515625000000002
40
0.523437500000002
40
0.523437500000002
40
0.531250000000002
40
0.531250000000002
40
0.546875000000002
40
0.546875000000002
40
0.562500000000002
40
0.562500000000002
40
0.578125000000002
40
0.578125000000002
40
0.593750000000002
40
0.593750000000002
40
0.609375000000002
40
0.609375000000002
40
0.625000000000003
40
0.625000000000003
40
0.640625000000003
40
0.640625000000003
40
0.656250000000003
40
0.656250000000003
40
0.671875000000003
40
0.671875000000003
40
0.687500000000003
40
0.687500000000003
40
0.703125000000003
40
0.703125000000003
40
0.718750000000003
40
0.718750000000003
40
0.734375000000003
40
0.734375000000003
40
0.750000000000002
40
0.750000000000002
40
0.765625000000002
40
0.765625000000002
40
0.781250000000002
40
0.781250000000002
40
0.785156250000002
40
0.785156250000002
40
0.789062500000002
40
0.796875000000002
40
0.796875000000002
40
0.812500000000002
40
0.812500000000002
40
0.828125000000002
40
0.828125000000002
40
0.843750000000002
40
0.843750000000002
40
0.859375000000002
40
0.859375000000002
40
0.875000000000001
40
0.875000000000001
40
0.890625000000001
40
0.890625000000001
40
0.906250000000001
40
0.906250000000001
40
0.921875000000001
40
0.921875000000001
40
0.937500000000001
40
0.937500000000001
40
0.953125000000001
40
0.953125000000001
40
0.96875
40
0.96875
40
0.984375
40
0.984375
40
1
40
1
40
1
40
1
41
1
10
52.2842092728921
20
12.303
30
0
41
1
10
52.3385731527615
20
12.303
30
0
41
1
10
52.392937032631
20
12.288353613691
30
0
41
1
10
52.5016647923698
20
12.22687641661
30
0
41
1
10
52.5560286722393
20
12.1800391624492
30
0
41
1
10
52.6647564319782
20
12.0517689593296
30
0
41
1
10
52.7191203118476
20
11.9703297011382
30
0
41
1
10
52.8278480715864
20
11.771130239587
30
0
41
1
10
52.8822119514558
20
11.6533645326406
30
0
41
1
10
52.9909397111947
20
11.380652853981
30
0
41
1
10
53.0453035910642
20
11.2257029009423
30
0
41
1
10
53.1540313508031
20
10.8787744074212
30
0
41
1
10
53.2083952306725
20
10.6867940526695
30
0
41
1
10
53.3171229904113
20
10.2670567485882
30
0
41
1
10
53.3714868702808
20
10.0393005955909
30
0
41
1
10
53.4802146300196
20
9.5503807473772
30
0
41
1
10
53.5345785098891
20
9.28922059182676
30
0
41
1
10
53.6433062696279
20
8.73691398549829
30
0
41
1
10
53.6976701494974
20
8.44577358330523
30
0
41
1
10
53.8063979092362
20
7.8378348234771
30
0
41
1
10
53.8607617891057
20
7.52104444058133
30
0
41
1
10
53.9694895488445
20
6.86682822183346
30
0
41
1
10
54.0238534287139
20
6.52941145021137
30
0
41
1
10
54.1325811884528
20
5.83940008619763
30
0
41
1
10
54.1869450683222
20
5.48681470422002
30
0
41
1
10
54.295672828061
20
4.77208105260348
30
0
41
1
10
54.3500367079305
20
4.40994125107983
30
0
41
1
10
54.4587644676693
20
3.68160246902031
30
0
41
1
10
54.5131283475388
20
3.31541051590875
30
0
41
1
10
54.6218561072777
20
2.58412498165421
30
0
41
1
10
54.6762199871471
20
2.2190365594677
30
0
41
1
10
54.784947746886
20
1.49458528619516
30
0
41
1
10
54.8393116267554
20
1.13522558505261
30
0
41
1
10
54.9208574465596
20
0.603459154323446
30
0
41
1
10
54.9480393864943
20
0.427410463846201
30
0
41
1
10
55.0024032663637
20
0.0781555987410627
30
0
41
1
10
55.0295852062984
20
-0.0943435728629254
30
0
41
1
10
55.1111310261026
20
-0.618489795024487
30
0
41
1
10
55.165494905972
20
-0.973602870821196
30
0
41
1
10
55.2742226657109
20
-1.69157049465898
30
0
41
1
10
55.3285865455803
20
-2.05442283983595
30
0
41
1
10
55.4373143053191
20
-2.78355139141485
30
0
41
1
10
55.4916781851886
20
-3.14982341141814
30
0
41
1
10
55.6004059449274
20
-3.88087520593584
30
0
41
1
10
55.6547698247969
20
-4.24564882289951
30
0
41
1
10
55.7634975845357
20
-4.96834466751503
30
0
41
1
10
55.8178614644051
20
-5.32625905339413
30
0
41
1
10
55.926589224144
20
-6.02964565421189
30
0
41
1
10
55.9809531040135
20
-6.37510891652525
30
0
41
1
10
56.0896808637524
20
-7.04802527738755
30
0
41
1
10
56.1440447436217
20
-7.37546912281664
30
0
41
1
10
56.2527725033606
20
-8.00707788671156
30
0
41
1
10
56.30713638323
20
-8.31123418771861
30
0
41
1
10
56.4158641429688
20
-8.89157009844141
30
0
41
1
10
56.4702280228383
20
-9.1677426349556
30
0
41
1
10
56.5789557825772
20
-9.68822305429342
30
0
41
1
10
56.6333196624466
20
-9.93252612977844
30
0
41
1
10
56.7420474221855
20
-10.3863702438515
30
0
41
1
10
56.7964113020549
20
-10.5959091514399
30
0
41
1
10
56.9051390617938
20
-10.9784234647608
30
0
41
1
10
56.9595029416632
20
-11.1513994582823
30
0
41
1
10
57.068230701402
20
-11.460105356196
30
0
41
1
10
57.1225945812715
20
-11.5958382630981
30
0
41
1
10
57.2313223410104
20
-11.8304389387357
30
0
41
1
10
57.2856862208798
20
-11.9293115616432
30
0
41
1
10
57.3944139806186
20
-12.091515918685
30
0
41
1
10
57.4487778604881
20
-12.1548536607908
30
0
41
1
10
57.5575056202269
20
-12.2480900797442
30
0
41
1
10
57.6118695000963
20
-12.2779952122247
30
0
41
1
10
57.6934153199005
20
-12.2997909089491
30
0
41
1
10
57.7205972598353
20
-12.3032168078829
30
0
41
1
10
57.7749611397047
20
-12.3027620086883
30
0
41
1
10
57.8021430796394
20
-12.2988701000319
30
0
41
1
10
57.8836888994435
20
-12.2756415164764
30
0
41
1
10
57.938052779313
20
-12.2447358951606
30
0
41
1
10
58.0467805390518
20
-12.1494233511977
30
0
41
1
10
58.1011444189213
20
-12.0850099769132
30
0
41
1
10
58.2098721786601
20
-11.9206005332706
30
0
41
1
10
58.2642360585296
20
-11.820598480901
30
0
41
1
10
58.3729638182684
20
-11.5837120650843
30
0
41
1
10
58.4273276981378
20
-11.4468228948377
30
0
41
1
10
58.5360554578767
20
-11.1358090633369
30
0
41
1
10
58.5904193377461
20
-10.9616814671449
30
0
41
1
10
58.699147097485
20
-10.5769028125093
30
0
41
1
10
58.7535109773544
20
-10.3662512477722
30
0
41
1
10
58.8622387370933
20
-9.91025548650239
30
0
41
1
10
58.9166026169627
20
-9.66491350666374
30
0
41
1
10
59.0253303767016
20
-9.14246173241028
30
0
41
1
10
59.079694256571
20
-8.86535682372335
30
0
41
1
10
59.1884220163099
20
-8.28329088595567
30
0
41
1
10
59.2427858961793
20
-7.9783369902394
30
0
41
1
10
59.3515136559181
20
-7.3452893754469
30
0
41
1
10
59.4058775357876
20
-7.01720430780915
30
0
41
1
10
59.5146052955265
20
-6.34317538064309
30
0
41
1
10
59.5689691753959
20
-5.99724077870019
30
0
41
1
10
59.6776969351347
20
-5.29308624991023
30
0
41
1
10
59.7320608150042
20
-4.93487525237839
30
0
41
1
10
59.840788574743
20
-4.21175743658586
30
0
41
1
10
59.8951524546125
20
-3.84685841499021
30
0
41
1
10
60.0038802143513
20
-3.11571624474181
30
0
41
1
10
60.0582440942207
20
-2.74947919522538
30
0
41
1
10
60.1669718539596
20
-2.02056446749981
30
0
41
1
10
60.2213357338291
20
-1.65789091296179
30
0
41
1
10
60.3300634935679
20
-0.940404322378811
30
0
41
1
10
60.3844273734374
20
-0.585593429945135
30
0
41
1
10
60.4523822232741
20
-0.149245765175124
30
0
41
1
10
60.4659731932415
20
-0.0624542060279225
30
0
41
1
10
60.4931551331762
20
0.110891913951633
30
0
41
1
10
60.5339280430783
20
0.37204030424445
30
0
41
1
10
60.5747009529804
20
0.636357683909125
30
0
41
1
10
60.6562467727845
20
1.16857058521225
30
0
41
1
10
60.7106106526539
20
1.52817157460097
30
0
41
1
10
60.8193384123928
20
2.25297119625299
30
0
41
1
10
60.8737022922623
20
2.61816661667976
30
0
41
1
10
60.9824300520011
20
3.34951325095463
30
0
41
1
10
61.0367939318706
20
3.71565924426031
30
0
41
1
10
61.1455216916094
20
4.4437393758455
30
0
41
1
10
61.1998855714788
20
4.80566643400905
30
0
41
1
10
61.3086133312177
20
5.51980061649212
30
0
41
1
10
61.3629772110872
20
5.87199923787733
30
0
41
1
10
61.4717049708259
20
6.56106377679072
30
0
41
1
10
61.5260688506954
20
6.89792047440224
30
0
41
1
10
61.6347966104343
20
7.55085254110915
30
0
41
1
10
61.6891604903037
20
7.86691886575284
30
0
41
1
10
61.7978882500426
20
8.47326328345341
30
0
41
1
10
61.852252129912
20
8.76353344998287
30
0
41
1
10
61.9609798896509
20
9.31397858807728
30
0
41
1
10
62.0153437695203
20
9.57414758184777
30
0
41
1
10
62.1240715292592
20
10.0609949762142
30
0
41
1
10
62.1784354091286
20
10.2876699207594
30
0
41
1
10
62.2871631688674
20
10.7051888251665
30
0
41
1
10
62.3415270487369
20
10.8960320735999
30
0
41
1
10
62.4502548084758
20
11.2406652268156
30
0
41
1
10
62.5046186883452
20
11.3944570212089
30
0
41
1
10
62.6133464480841
20
11.664864373333
30
0
41
1
10
62.6677103279536
20
11.7814839700767
30
0
41
1
10
62.7220742078229
20
11.8799582650623
30
0
0
SPLINE
5
CE
100
AcDbEntity
8
1
62
256
6
ByLayer
370
13
48
1
60
0
100
AcDbSpline
70
4
71
3
72
8
73
4
40
0
40
0
40
0
40
0
40
1
40
1
40
1
40
1
41
1
10
62.4525925354486
20
12.303
30
0
41
1
10
62.5424197595734
20
12.303
30
0
41
1
10
62.6322469836982
20
12.2629224593485
30
0
41
1
10
62.7220742078229
20
12.1765787934533
30
0
0
SPLINE
5
CF
100
AcDbEntity
8
1
62
256
6
ByLayer
370
13
48
1
60
0
100
AcDbSpline
70
4
71
3
72
14
73
10
40
0
40
0
40
0
40
0
40
0.25
40
0.25
40
0.5
40
0.5
40
0.75
40
0.75
40
1
40
1
40
1
40
1
41
1
10
51.8
20
11.2413602592755
30
0
41
1
10
51.8628076242808
20
11.4255576377858
30
0
41
1
10
51.9256152485617
20
11.5849016208372
30
0
41
1
10
52.0512304971233
20
11.8543671754248
30
0
41
1
10
52.1140381214042
20
11.9644987724821
30
0
41
1
10
52.2396533699659
20
12.1377113656469
30
0
41
1
10
52.3024609942468
20
12.2008049663085
30
0
41
1
10
52.4280762428085
20
12.2834426423384
30
0
41
1
10
52.4908838670893
20
12.303
30
0
41
1
10
52.5536914913701
20
12.303
30
0
0
SPLINE
5
D0
100
AcDbEntity
8
1
62
256
6
ByLayer
370
13
48
1
60
0
100
AcDbSpline
70
4
71
3
72
134
73
130
40
0
40
0
40
0
40
0
40
0.015625
40
0.015625
40
0.03125
40
0.03125
40
0.046875
40
0.046875
40
0.0625000000000001
40
0.0625000000000001
40
0.0781250000000001
40
0.0781250000000001
40
0.0937500000000001
40
0.0937500000000001
40
0.109375
40
0.109375
40
0.125
40
0.125
40
0.140625
40
0.140625
40
0.15625
40
0.15625
40
0.171875
40
0.171875
40
0.1875
40
0.1875
40
0.203125
40
0.203125
40
0.21875
40
0.21875
40
0.234375
40
0.234375
40
0.25
40
0.25
40
0.265625
40
0.265625
40
0.28125
40
0.28125
40
0.296875
40
0.296875
40
0.3125
40
0.3125
40
0.328125
40
0.328125
40
0.34375
40
0.34375
40
0.359375
40
0.359375
40
0.375
40
0.375
40
0.390625
40
0.390625
40
0.40625
40
0.40625
40
0.421875
40
0.421875
40
0.4375
40
0.4375
40
0.453125
40
0.453125
40
0.46875
40
0.46875
40
0.484375
40
0.484375
40
0.5
40
0.5
40
0.515625
40
0.515625
40
0.53125
40
0.53125
40
0.546875
40
0.546875
40
0.5625
40
0.5625
40
0.578125
40
0.578125
40
0.59375
40
0.59375
40
0.609375
40
0.609375
40
0.625
40
0.625
40
0.640625
40
0.640625
40
0.65625
40
0.65625
40
0.671875
40
0.671875
40
0.6875
40
0.6875
40
0.703125
40
0.703125
40
0.71875
40
0.71875
40
0.734375
40
0.734375
40
0.75
40
0.75
40
0.765625
40
0.765625
40
0.78125
40
0.78125
40
0.796875
40
0.796875
40
0.8125
40
0.8125
40
0.828125
40
0.828125
40
0.84375
40
0.84375
40
0.859375
40
0.859375
40
0.875
40
0.875
40
0.890625
40
0.890625
40
0.90625
40
0.90625
40
0.921875
40
0.921875
40
0.9375
40
0.9375
40
0.953125
40
0.953125
40
0.96875
40
0.96875
40
0.984375
40
0.984375
40
1
40
1
40
1
40
1
41
1
10
51.8000005461037
20
12.303
30
0
41
1
10
51.8568863464252
20
12.303
30
0
41
1
10
51.9137721467466
20
12.2869613999221
30
0
41
1
10
52.0275437473895
20
12.2195050915249
30
0
41
1
10
52.0844295477109
20
12.1680792943949
30
0
41
1
10
52.1982011483539
20
12.0271326431473
30
0
41
1
10
52.2550869486753
20
11.9376039345943
30
0
41
1
10
52.3688585493182
20
11.7185789291171
30
0
41
1
10
52.4257443496397
20
11.5890759443771
30
0
41
1
10
52.5395159502826
20
11.2892951714336
30
0
41
1
10
52.5964017506041
20
11.1190128409551
30
0
41
1
10
52.710173351247
20
10.7381037167796
30
0
41
1
10
52.7670591515685
20
10.5274753717601
30
0
41
1
10
52.8808307522113
20
10.067636591141
30
0
41
1
10
52.9377165525328
20
9.81842811504831
30
0
41
1
10
53.0514881531757
20
9.28451897902289
30
0
41
1
10
53.1083739534971
20
8.99982383442028
30
0
41
1
10
53.2221455541401
20
8.39924634414891
30
0
41
1
10
53.2790313544615
20
8.08337258487418
30
0
41
1
10
53.3928029551044
20
7.42574400110391
30
0
41
1
10
53.4496887554259
20
7.08399988623964
30
0
41
1
10
53.5634603560688
20
6.38064436058852
30
0
41
1
10
53.6203461563903
20
6.01904454800962
30
0
41
1
10
53.7341177570331
20
5.28235942425692
30
0
41
1
10
53.7910035573546
20
4.90728531520162
30
0
41
1
10
53.9047751579975
20
4.15005447129337
30
0
41
1
10
53.961660958319
20
3.76790743809673
30
0
41
1
10
54.0754325589619
20
3.00263708866567
30
0
41
1
10
54.1323183592834
20
2.61952121402595
30
0
41
1
10
54.2460899599263
20
1.857863253109
30
0
41
1
10
54.3029757602477
20
1.47932600095544
30
0
41
1
10
54.4167473608906
20
0.731633980262529
30
0
41
1
10
54.4736331612121
20
0.362481476151998
30
0
41
1
10
54.587404761855
20
-0.362479736245064
30
0
41
1
10
54.6442905621764
20
-0.73163220070532
30
0
41
1
10
54.7580621628194
20
-1.47932419159096
30
0
41
1
10
54.8149479631409
20
-1.85786143235791
30
0
41
1
10
54.9287195637837
20
-2.61951937881884
30
0
41
1
10
54.9856053641051
20
-3.00263525039341
30
0
41
1
10
55.0993769647481
20
-3.7679056030712
30
0
41
1
10
55.1562627650695
20
-4.15005264258375
30
0
41
1
10
55.2700343657125
20
-4.90728350920307
30
0
41
1
10
55.3269201660339
20
-5.28235763465671
30
0
41
1
10
55.4406917666768
20
-6.01904280152104
30
0
41
1
10
55.4975775669983
20
-6.38064264081484
30
0
41
1
10
55.6113491676412
20
-7.08399822990657
30
0
41
1
10
55.6682349679626
20
-7.42574238149621
30
0
41
1
10
55.7820065686055
20
-8.08337104786443
30
0
41
1
10
55.838892368927
20
-8.39924485300932
30
0
41
1
10
55.9526639695699
20
-8.99982244278763
30
0
41
1
10
56.0095497698913
20
-9.28451764102275
30
0
41
1
10
56.1233213705343
20
-9.81842689028429
30
0
41
1
10
56.1802071708557
20
-10.0676354259751
30
0
41
1
10
56.2939787714986
20
-10.5274743296995
30
0
41
1
10
56.35086457182
20
-10.7381027382203
30
0
41
1
10
56.464636172463
20
-11.1190119911503
30
0
41
1
10
56.5215219727844
20
-11.2892943868767
30
0
41
1
10
56.6352935734273
20
-11.5890752899859
30
0
41
1
10
56.6921793737488
20
-11.7185783396396
30
0
41
1
10
56.8059509743916
20
-11.9376034727514
30
0
41
1
10
56.8628367747132
20
-12.0271322440228
30
0
41
1
10
56.9766083753561
20
-12.1680790169752
30
0
41
1
10
57.0334941756774
20
-12.2195048730904
30
0
41
1
10
57.1472657763204
20
-12.286961294566
30
0
41
1
10
57.2041515766419
20
-12.3029999487374
30
0
41
1
10
57.3179231772848
20
-12.3030000512624
30
0
41
1
10
57.3748089776063
20
-12.2869615052779
30
0
41
1
10
57.4885805782492
20
-12.2195053099591
30
0
41
1
10
57.5454663785706
20
-12.1680795718144
30
0
41
1
10
57.6592379792135
20
-12.0271330422715
30
0
41
1
10
57.716123779535
20
-11.9376043964368
30
0
41
1
10
57.8298953801779
20
-11.7185795185943
30
0
41
1
10
57.8867811804993
20
-11.5890765987679
30
0
41
1
10
58.0005527811422
20
-11.2892959559902
30
0
41
1
10
58.0574385814637
20
-11.1190136907596
30
0
41
1
10
58.1712101821066
20
-10.7381046953387
30
0
41
1
10
58.228095982428
20
-10.5274764138204
30
0
41
1
10
58.341867583071
20
-10.0676377563066
30
0
41
1
10
58.3987533833924
20
-9.81842933981207
30
0
41
1
10
58.5125249840353
20
-9.28452031702278
30
0
41
1
10
58.5694107843567
20
-8.99982522605271
30
0
41
1
10
58.6831823849997
20
-8.39924783528829
30
0
41
1
10
58.7400681853211
20
-8.08337412188371
30
0
41
1
10
58.8538397859641
20
-7.42574562071144
30
0
41
1
10
58.9107255862855
20
-7.08400154257254
30
0
41
1
10
59.0244971869284
20
-6.38064608036206
30
0
41
1
10
59.0813829872498
20
-6.01904629449805
30
0
41
1
10
59.1951545878927
20
-5.28236121385703
30
0
41
1
10
59.2520403882142
20
-4.90728712120008
30
0
41
1
10
59.3658119888571
20
-4.15005630000297
30
0
41
1
10
59.4226977891786
20
-3.7679092731222
30
0
41
1
10
59.5364693898215
20
-3.00263892693792
30
0
41
1
10
59.5933551901429
20
-2.6195230492331
30
0
41
1
10
59.7071267907858
20
-1.85786507386018
30
0
41
1
10
59.7640125911073
20
-1.47932781032
30
0
41
1
10
59.8777841917502
20
-0.731635759819852
30
0
41
1
10
59.9346699920716
20
-0.362483237292594
30
0
41
1
10
60.0484415927147
20
0.362478017571675
30
0
41
1
10
60.105327393036
20
0.731630421148196
30
0
41
1
10
60.2190989936789
20
1.47932238222654
30
0
41
1
10
60.2759847940004
20
1.85785961160681
30
0
41
1
10
60.3897563946433
20
2.61951754361172
30
0
41
1
10
60.4466421949647
20
3.00263341212116
30
0
41
1
10
60.5604137956076
20
3.76790376804567
30
0
41
1
10
60.6172995959291
20
4.15005081387406
30
0
41
1
10
60.7310711965721
20
4.90728170320446
30
0
41
1
10
60.7879569968935
20
5.2823558450564
30
0
41
1
10
60.9017285975364
20
6.01904105503235
30
0
41
1
10
60.9586143978578
20
6.38064092104102
30
0
41
1
10
61.0723859985007
20
7.08399657357333
30
0
41
1
10
61.1292717988222
20
7.42574076188831
30
0
41
1
10
61.2430433994651
20
8.08336951085448
30
0
41
1
10
61.2999291997866
20
8.39924336186951
30
0
41
1
10
61.4137008004294
20
8.99982105115473
30
0
41
1
10
61.4705866007509
20
9.28451630302234
30
0
41
1
10
61.5843582013937
20
9.81842566551995
30
0
41
1
10
61.6412440017153
20
10.067634260809
30
0
41
1
10
61.7550156023582
20
10.5274732876385
30
0
41
1
10
61.8119014026797
20
10.7381017596607
30
0
41
1
10
61.9256730033226
20
11.1190111413452
30
0
41
1
10
61.982558803644
20
11.2892936023195
30
0
41
1
10
62.0963304042869
20
11.5890746355944
30
0
41
1
10
62.1532162046084
20
11.7185777501618
30
0
41
1
10
62.2669878052513
20
11.9376030109082
30
0
41
1
10
62.3238736055728
20
12.0271318448981
30
0
41
1
10
62.4376452062156
20
12.1680787395551
30
0
41
1
10
62.4945310065371
20
12.2195046546556
30
0
41
1
10
62.60830260718
20
12.2869611892097
30
0
41
1
10
62.6651884075015
20
12.3029998974745
30
0
41
1
10
62.7220742078229
20
12.3029999999995
30
0
0
SPLINE
5
D1
100
AcDbEntity
8
1
62
256
6
ByLayer
370
13
48
1
60
0
100
AcDbSpline
70
4
71
3
72
14
73
10
40
0
40
0
40
0
40
0
40
0.25
40
0.25
40
0.5
40
0.5
40
0.75
40
0.75
40
1
40
1
40
1
40
1
41
1
10
61.9683838086602
20
12.303
30
0
41
1
10
62.0311913419238
20
12.303
30
0
41
1
10
62.0939988751873
20
12.2834426991146
30
0
41
1
10
62.2196139417144
20
12.2008052687937
30
0
41
1
10
62.282421474978
20
12.1377118571612
30
0
41
1
10
62.4080365415051
20
11.9644997870264
30
0
41
1
10
62.4708440747687
20
11.8543685240565
30
0
41
1
10
62.5964591412958
20
11.584903786652
30
0
41
1
10
62.6592666745593
20
11.4255602867532
30
0
41
1
10
62.7220742078229
20
11.241363462415
30
0
0
SPLINE
5
D2
100
AcDbEntity
8
1
62
256
6
ByLayer
370
13
48
1
60
0
100
AcDbSpline
70
4
71
3
72
8
73
4
40
0
40
0
40
0
40
0
40
1
40
1
40
1
40
1
41
1
10
51.8
20
12.1765777436002
30
0
41
1
10
51.8898275881939
20
12.2629221332423
30
0
41
1
10
51.9796551763878
20
12.303
30
0
41
1
10
52.0694827645817
20
12.303
30
0
0
SPLINE
5
D3
100
AcDbEntity
8
1
62
256
6
ByLayer
370
13
48
1
60
0
100
AcDbSpline
70
4
71
3
72
142
73
138
40
0
40
0
40
0
40
0
40
0.015625
40
0.015625
40
0.0312500000000001
40
0.0312500000000001
40
0.0468750000000001
40
0.0468750000000001
40
0.0625000000000002
40
0.0625000000000002
40
0.0781250000000002
40
0.0781250000000002
40
0.0937500000000003
40
0.0937500000000003
40
0.109375
40
0.109375
40
0.125
40
0.125
40
0.140625
40
0.140625
40
0.156250000000001
40
0.156250000000001
40
0.171875000000001
40
0.171875000000001
40
0.187500000000001
40
0.187500000000001
40
0.203125000000001
40
0.203125000000001
40
0.210937500000001
40
0.210937500000001
40
0.214843750000001
40
0.214843750000001
40
0.218750000000001
40
0.218750000000001
40
0.234375000000001
40
0.234375000000001
40
0.250000000000001
40
0.250000000000001
40
0.265625000000001
40
0.265625000000001
40
0.281250000000001
40
0.281250000000001
40
0.296875000000001
40
0.296875000000001
40
0.312500000000001
40
0.312500000000001
40
0.328125000000001
40
0.328125000000001
40
0.343750000000001
40
0.343750000000001
40
0.359375000000001
40
0.359375000000001
40
0.375000000000001
40
0.375000000000001
40
0.390625000000001
40
0.390625000000001
40
0.406250000000001
40
0.406250000000001
40
0.421875000000001
40
0.421875000000001
40
0.437500000000001
40
0.437500000000001
40
0.453125000000001
40
0.453125000000001
40
0.468750000000001
40
0.468750000000001
40
0.476562500000001
40
0.476562500000001
40
0.484375
40
0.484375
40
0.5
40
0.5
40
0.515625
40
0.515625
40
0.53125
40
0.53125
40
0.546875
40
0.546875
40
0.5625
40
0.5625
40
0.578125
40
0.578125
40
0.59375
40
0.59375
40
0.609375
40
0.609375
40
0.625
40
0.625
40
0.640625
40
0.640625
40
0.65625
40
0.65625
40
0.671875
40
0.671875
40
0.6875
40
0.6875
40
0.703125
40
0.703125
40
0.71875
40
0.71875
40
0.734375
40
0.734375
40
0.742187499999999
40
0.742187499999999
40
0.749999999999999
40
0.749999999999999
40
0.765624999999999
40
0.765624999999999
40
0.781249999999999
40
0.781249999999999
40
0.796874999999999
40
0.796874999999999
40
0.8125
40
0.8125
40
0.828125
40
0.828125
40
0.84375
40
0.84375
40
0.859375
40
0.859375
40
0.875
40
0.875
40
0.890625
40
0.890625
40
0.90625
40
0.90625
40
0.921875
40
0.921875
40
0.9375
40
0.9375
40
0.953125
40
0.953125
40
0.96875
40
0.96875
40
0.984375
40
0.984375
40
1
40
1
40
1
40
1
41
1
10
51.8
20
11.8799602434756
30
0
41
1
10
51.854363885558
20
11.7814861807041
30
0
41
1
10
51.908727771116
20
11.6648668168715
30
0
41
1
10
52.017455542232
20
11.3944599254482
30
0
41
1
10
52.07181942779
20
11.2406683588303
30
0
41
1
10
52.1805471989061
20
10.8960356491233
30
0
41
1
10
52.2349110844641
20
10.7051926164064
30
0
41
1
10
52.3436388555801
20
10.2876741245558
30
0
41
1
10
52.3980027411381
20
10.0609993768335
30
0
41
1
10
52.5067305122541
20
9.57415235100211
30
0
41
1
10
52.5610943978122
20
9.31398352892867
30
0
41
1
10
52.6698221689282
20
8.76353870397602
30
0
41
1
10
52.7241860544862
20
8.47326867888026
30
0
41
1
10
52.8329138256022
20
7.86692451014537
30
0
41
1
10
52.8872777111603
20
7.55085829302828
30
0
41
1
10
52.9960054822763
20
6.89792640556641
30
0
41
1
10
53.0503693678342
20
6.56106977967417
30
0
41
1
10
53.1590971389502
20
5.87200534829668
30
0
41
1
10
53.2134610245083
20
5.51980676273459
30
0
41
1
10
53.3221887956243
20
4.80567261759916
30
0
41
1
10
53.3765526811824
20
4.44374556097097
30
0
41
1
10
53.4852804522984
20
3.71566540119409
30
0
41
1
10
53.5396443378564
20
3.34951937817468
30
0
41
1
10
53.6483721089724
20
2.61817265730957
30
0
41
1
10
53.7027359945304
20
2.25297718002
30
0
41
1
10
53.8114637656464
20
1.52817742223081
30
0
41
1
10
53.8658276512045
20
1.16857635358022
30
0
41
1
10
53.9473734795414
20
0.636363320327689
30
0
41
1
10
53.9745554223204
20
0.460151687726125
30
0
41
1
10
54.0153283364889
20
0.197947132128519
30
0
41
1
10
54.0289193078785
20
0.11089740769566
30
0
41
1
10
54.0561012506575
20
-0.0624487620992227
30
0
41
1
10
54.0696922220469
20
-0.149240291885405
30
0
41
1
10
54.1376470789945
20
-0.58558792772476
30
0
41
1
10
54.1920109645525
20
-0.940398806696379
30
0
41
1
10
54.3007387356685
20
-1.65788539231755
30
0
41
1
10
54.3551026212266
20
-2.02055895536449
30
0
41
1
10
54.4638303923426
20
-2.74947372406555
30
0
41
1
10
54.5181942779006
20
-3.11571080605654
30
0
41
1
10
54.6269220490167
20
-3.84685306633475
30
0
41
1
10
54.6812859345747
20
-4.21175214549172
30
0
41
1
10
54.7900137056906
20
-4.93487010152239
30
0
41
1
10
54.8443775912486
20
-5.29308118173401
30
0
41
1
10
54.9531053623647
20
-5.99723589980519
30
0
41
1
10
55.0074692479227
20
-6.34317060834849
30
0
41
1
10
55.1161970190387
20
-7.01719977018337
30
0
41
1
10
55.1705609045967
20
-7.34528496588413
30
0
41
1
10
55.2792886757127
20
-7.97833285465387
30
0
41
1
10
55.3336525612708
20
-8.283286896275
30
0
41
1
10
55.4423803323868
20
-8.86535313914823
30
0
41
1
10
55.4967442179448
20
-9.14245820702371
30
0
41
1
10
55.6054719890609
20
-9.6649103077844
30
0
41
1
10
55.6598358746189
20
-9.91025245492844
30
0
41
1
10
55.7685636457348
20
-10.3662485535532
30
0
41
1
10
55.8229275312929
20
-10.5769002883273
30
0
41
1
10
55.9316553024088
20
-10.9616792805726
30
0
41
1
10
55.9860191879669
20
-11.135807044327
30
0
41
1
10
56.0947469590829
20
-11.4468212038108
30
0
41
1
10
56.1491108446409
20
-11.5837105344711
30
0
41
1
10
56.257838615757
20
-11.8205972600946
30
0
41
1
10
56.312202501315
20
-11.920599461854
30
0
41
1
10
56.420930272431
20
-12.0850091903358
30
0
41
1
10
56.4752941579889
20
-12.1494227000699
30
0
41
1
10
56.584021929105
20
-12.2447354990794
30
0
41
1
10
56.638385814663
20
-12.2756412399953
30
0
41
1
10
56.7199316430001
20
-12.2988699903488
30
0
41
1
10
56.7471135857791
20
-12.3027619525114
30
0
41
1
10
56.8014774713371
20
-12.3032168544932
30
0
41
1
10
56.8286594141161
20
-12.2997910072113
30
0
41
1
10
56.9102052424531
20
-12.2779954672732
30
0
41
1
10
56.9645691280111
20
-12.2480904411339
30
0
41
1
10
57.0732968991271
20
-12.1548542359915
30
0
41
1
10
57.1276607846851
20
-12.0915166013516
30
0
41
1
10
57.2363885558012
20
-11.9293124574548
30
0
41
1
10
57.2907524413592
20
-11.8304399402209
30
0
41
1
10
57.3994802124752
20
-11.5958394709654
30
0
41
1
10
57.4538440980332
20
-11.4601066647647
30
0
41
1
10
57.5625718691492
20
-11.1514009600446
30
0
41
1
10
57.6169357547072
20
-10.9784250590071
30
0
41
1
10
57.7256635258232
20
-10.5959109193686
30
0
41
1
10
57.7800274113813
20
-10.3863720929706
30
0
41
1
10
57.8887551824973
20
-9.93252812733067
30
0
41
1
10
57.9431190680554
20
-9.68822511908164
30
0
41
1
10
58.0518468391713
20
-9.16774481824433
30
0
41
1
10
58.1062107247294
20
-8.89157233299025
30
0
41
1
10
58.2149384958454
20
-8.31123650760048
30
0
41
1
10
58.2693023814034
20
-8.00708024066492
30
0
41
1
10
58.3780301525194
20
-7.37547152740683
30
0
41
1
10
58.4323940380774
20
-7.04802769854479
30
0
41
1
10
58.5411218091934
20
-6.37511135388357
30
0
41
1
10
58.5954856947514
20
-6.02964809120871
30
0
41
1
10
58.7042134658675
20
-5.32626147410588
30
0
41
1
10
58.7585773514255
20
-4.96834707230954
30
0
41
1
10
58.8673051225415
20
-4.24565118230018
30
0
41
1
10
58.9216690080995
20
-3.88087753586714
30
0
41
1
10
59.0303967792155
20
-3.14982567127711
30
0
41
1
10
59.0847606647736
20
-2.78355361067801
30
0
41
1
10
59.1934884358896
20
-2.05442496940262
30
0
41
1
10
59.2478523214476
20
-1.69157257513115
30
0
41
1
10
59.3565800925636
20
-0.973604847228216
30
0
41
1
10
59.4109439781217
20
-0.618491716465542
30
0
41
1
10
59.4924898064587
20
-0.0943454092945899
30
0
41
1
10
59.5196717492376
20
0.0781537812600277
30
0
41
1
10
59.5740356347956
20
0.427408663306153
30
0
41
1
10
59.6012175775747
20
0.603457363253
30
0
41
1
10
59.6827634059117
20
1.13522382541851
30
0
41
1
10
59.7371272914696
20
1.49458355156781
30
0
41
1
10
59.8458550625857
20
2.21903488283257
30
0
41
1
10
59.9002189481437
20
2.58412333800607
30
0
41
1
10
60.0089467192597
20
3.31540894567644
30
0
41
1
10
60.0633106048177
20
3.68160093921705
30
0
41
1
10
60.1720383759338
20
4.40993980859093
30
0
41
1
10
60.2264022614918
20
4.77207965699859
30
0
41
1
10
60.3351300326078
20
5.48681340742118
30
0
41
1
10
60.3894939181658
20
5.83939884131786
30
0
41
1
10
60.4982216892818
20
6.52941031242253
30
0
41
1
10
60.5525855748399
20
6.86682713921198
30
0
41
1
10
60.6613133459559
20
7.52104346950745
30
0
41
1
10
60.7156772315138
20
7.83783390877804
30
0
41
1
10
60.8244050026299
20
8.44577278042394
30
0
41
1
10
60.8787688881879
20
8.73691323805431
30
0
41
1
10
60.9874966593039
20
9.28921995224366
30
0
41
1
10
61.0418605448619
20
9.55038016021263
30
0
41
1
10
61.150588315978
20
10.039300108394
30
0
41
1
10
61.204952201536
20
10.2670563089366
30
0
41
1
10
61.313679972652
20
10.6867937017453
30
0
41
1
10
61.3680438582101
20
10.8787740976768
30
0
41
1
10
61.476771629326
20
11.225702666153
30
0
41
1
10
61.5311355148841
20
11.3806526529666
30
0
41
1
10
61.639863286
20
11.6533643912197
30
0
41
1
10
61.6942271715581
20
11.771130123986
30
0
41
1
10
61.8029549426741
20
11.970329629143
30
0
41
1
10
61.8573188282322
20
12.0517689051229
30
0
41
1
10
61.9660465993482
20
12.1800391361235
30
0
41
1
10
62.0204104849062
20
12.22687640038
30
0
41
1
10
62.1291382560222
20
12.2883536106222
30
0
41
1
10
62.1835021415802
20
12.303
30
0
41
1
10
62.2378660271382
20
12.303
30
0
0
SPLINE
5
D4
100
AcDbEntity
8
1
62
256
6
ByLayer
370
13
48
1
60
0
100
AcDbSpline
70
4
71
3
72
18
73
14
40
0
40
0
40
0
40
0
40
0.25
40
0.25
40
0.5
40
0.5
40
0.625
40
0.625
40
0.75
40
0.75
40
0.875
40
0.875
40
1
40
1
40
1
40
1
41
1
10
61.4841750818718
20
12.303
30
0
41
1
10
61.5873333423677
20
12.303
30
0
41
1
10
61.6904916028636
20
12.2500780368611
30
0
41
1
10
61.8968081238555
20
12.0200679047938
30
0
41
1
10
61.9999663843515
20
11.8428254835403
30
0
41
1
10
62.1547037750954
20
11.4763235056787
30
0
41
1
10
62.2062829053434
20
11.3374658302698
30
0
41
1
10
62.3094411658393
20
11.026298806795
30
0
41
1
10
62.3610202960872
20
10.8539875949616
30
0
41
1
10
62.4641785565831
20
10.4767141156958
30
0
41
1
10
62.5157576868311
20
10.2717518194772
30
0
41
1
10
62.6189159473271
20
9.83088468679597
30
0
41
1
10
62.670495077575
20
9.59498182147283
30
0
41
1
10
62.7220742078229
20
9.34490154134127
30
0
0
SPLINE
5
D5
100
AcDbEntity
8
1
62
256
6
ByLayer
370
13
48
1
60
0
100
AcDbSpline
70
4
71
3
72
132
73
128
40
0
40
0
40
0
40
0
40
0.0156249999999998
40
0.0156249999999998
40
0.0312499999999997
40
0.0312499999999997
40
0.0468749999999995
40
0.0468749999999995
40
0.0624999999999994
40
0.0624999999999994
40
0.0781249999999993
40
0.0781249999999993
40
0.0937499999999991
40
0.0937499999999991
40
0.109374999999999
40
0.109374999999999
40
0.124999999999999
40
0.124999999999999
40
0.156249999999999
40
0.156249999999999
40
0.171874999999998
40
0.171874999999998
40
0.175781249999998
40
0.175781249999998
40
0.179687499999998
40
0.179687499999998
40
0.187499999999998
40
0.187499999999998
40
0.218749999999998
40
0.218749999999998
40
0.234374999999998
40
0.234374999999998
40
0.249999999999998
40
0.249999999999998
40
0.265624999999998
40
0.265624999999998
40
0.281249999999998
40
0.281249999999998
40
0.296874999999998
40
0.296874999999998
40
0.312499999999998
40
0.312499999999998
40
0.328124999999998
40
0.328124999999998
40
0.343749999999998
40
0.343749999999998
40
0.359374999999998
40
0.359374999999998
40
0.374999999999998
40
0.374999999999998
40
0.390624999999998
40
0.390624999999998
40
0.406249999999998
40
0.406249999999998
40
0.437499999999998
40
0.437499999999998
40
0.445312499999998
40
0.445312499999998
40
0.449218749999998
40
0.449218749999998
40
0.453124999999998
40
0.453124999999998
40
0.468749999999998
40
0.468749999999998
40
0.499999999999998
40
0.499999999999998
40
0.515624999999998
40
0.515624999999998
40
0.531249999999998
40
0.531249999999998
40
0.546874999999998
40
0.546874999999998
40
0.562499999999998
40
0.562499999999998
40
0.578124999999998
40
0.578124999999998
40
0.593749999999999
40
0.593749999999999
40
0.609374999999999
40
0.609374999999999
40
0.624999999999999
40
0.624999999999999
40
0.640624999999999
40
0.640624999999999
40
0.656249999999999
40
0.656249999999999
40
0.671874999999999
40
0.671874999999999
40
0.687499999999999
40
0.687499999999999
40
0.718749999999999
40
0.718749999999999
40
0.722656249999999
40
0.722656249999999
40
0.726562499999999
40
0.726562499999999
40
0.734374999999999
40
0.734374999999999
40
0.749999999999999
40
0.749999999999999
40
0.781249999999999
40
0.781249999999999
40
0.796875
40
0.796875
40
0.8125
40
0.8125
40
0.828125
40
0.828125
40
0.84375
40
0.84375
40
0.859375
40
0.859375
40
0.875
40
0.875
40
0.890625
40
0.890625
40
0.90625
40
0.90625
40
0.921875
40
0.921875
40
0.9375
40
0.9375
40
0.953125
40
0.953125
40
0.96875
40
0.96875
40
1
40
1
40
1
40
1
41
1
10
51.8
20
10.5158361670677
30
0
41
1
10
51.851841965106
20
10.3178206928483
30
0
41
1
10
51.903683930212
20
10.1034921352233
30
0
41
1
10
52.0073678604239
20
9.6441809251115
30
0
41
1
10
52.0592098255299
20
9.39920083355315
30
0
41
1
10
52.1628937557419
20
8.88143886502826
30
0
41
1
10
52.2147357208479
20
8.60866147705693
30
0
41
1
10
52.3184196510599
20
8.0389299329461
30
0
41
1
10
52.3702616161659
20
7.74198181074081
30
0
41
1
10
52.4739455463778
20
7.12814696414804
30
0
41
1
10
52.5257875114839
20
6.81126724644565
30
0
41
1
10
52.6294714416958
20
6.16222253483363
30
0
41
1
10
52.6813134068018
20
5.83006485050063
30
0
41
1
10
52.7849973370138
20
5.15531528607346
30
0
41
1
10
52.8368393021198
20
4.81273035704305
30
0
41
1
10
52.9405232323317
20
4.12195870062499
30
0
41
1
10
52.9923651974377
20
3.7737780089285
30
0
41
1
10
53.1478910927557
20
2.72775854586564
30
0
41
1
10
53.2515750229677
20
2.02870590374607
30
0
41
1
10
53.4071009182857
20
1.00148370831235
30
0
41
1
10
53.4589428833916
20
0.662574756220806
30
0
41
1
10
53.5237453397741
20
0.245288445328924
30
0
41
1
10
53.5367058310506
20
0.16214722282362
30
0
41
1
10
53.5626268136036
20
-0.003459583223588
30
0
41
1
10
53.5755873048801
20
-0.0859442746034631
30
0
41
1
10
53.6144687787096
20
-0.335076355035653
30
0
41
1
10
53.6403897612627
20
-0.502486018037985
30
0
41
1
10
53.7699946740276
20
-1.3452305467064
30
0
41
1
10
53.8736786042395
20
-2.03800363683533
30
0
41
1
10
54.0292044995575
20
-3.08318386720086
30
0
41
1
10
54.0810464646635
20
-3.43250876080995
30
0
41
1
10
54.1847303948754
20
-4.1286490275036
30
0
41
1
10
54.2365723599815
20
-4.47545919258368
30
0
41
1
10
54.3402562901935
20
-5.16186199693726
30
0
41
1
10
54.3920982552995
20
-5.50144823637299
30
0
41
1
10
54.4957821855114
20
-6.16854250383241
30
0
41
1
10
54.5476241506174
20
-6.49604338940543
30
0
41
1
10
54.6513080808294
20
-7.13415865122499
30
0
41
1
10
54.7031500459354
20
-7.44476574406281
30
0
41
1
10
54.8068339761474
20
-8.04455636728417
30
0
41
1
10
54.8586759412534
20
-8.33373314935787
30
0
41
1
10
54.9623598714654
20
-8.8866104866415
30
0
41
1
10
55.0142018365713
20
-9.15030547697589
30
0
41
1
10
55.1178857667833
20
-9.64883810798881
30
0
41
1
10
55.1697277318893
20
-9.88367188392058
30
0
41
1
10
55.2734116621012
20
-10.3219157967444
30
0
41
1
10
55.3252536272072
20
-10.5253240730532
30
0
41
1
10
55.4289375574191
20
-10.8990523675179
30
0
41
1
10
55.4807795225252
20
-11.0693725815526
30
0
41
1
10
55.5844634527371
20
-11.3761867333487
30
0
41
1
10
55.6363054178432
20
-11.5126827340641
30
0
41
1
10
55.7399893480552
20
-11.7520022082555
30
0
41
1
10
55.7918313131611
20
-11.8548292334916
30
0
41
1
10
55.9473572084791
20
-12.1142410270124
30
0
41
1
10
56.051041138691
20
-12.2215019071943
30
0
41
1
10
56.180646051456
20
-12.2830190772619
30
0
41
1
10
56.2065670340091
20
-12.2917146942315
30
0
41
1
10
56.2454485078386
20
-12.2995782346069
30
0
41
1
10
56.258408999115
20
-12.3013362726398
30
0
41
1
10
56.284329981668
20
-12.303166573374
30
0
41
1
10
56.2972904729446
20
-12.3032435173664
30
0
41
1
10
56.362092929327
20
-12.2994515760332
30
0
41
1
10
56.413934894433
20
-12.2829495682531
30
0
41
1
10
56.569460789751
20
-12.1893209697651
30
0
41
1
10
56.6731447199629
20
-12.0677716396822
30
0
41
1
10
56.8286706152809
20
-11.786053803468
30
0
41
1
10
56.8805125803869
20
-11.675650283906
30
0
41
1
10
56.9841965105988
20
-11.4210679394623
30
0
41
1
10
57.0360384757049
20
-11.2768858601418
30
0
41
1
10
57.1397224059168
20
-10.9547857740928
30
0
41
1
10
57.1915643710228
20
-10.7768661001981
30
0
41
1
10
57.2952483012348
20
-10.3882340591939
30
0
41
1
10
57.3470902663408
20
-10.1775219539382
30
0
41
1
10
57.4507741965527
20
-9.72517438922247
30
0
41
1
10
57.5026161616588
20
-9.48354125853342
30
0
41
1
10
57.6063000918708
20
-8.97210853840915
30
0
41
1
10
57.6581420569767
20
-8.70231323441828
30
0
41
1
10
57.7618259871887
20
-8.13810072556842
30
0
41
1
10
57.8136679522947
20
-7.84368940543669
30
0
41
1
10
57.9173518825066
20
-7.23442291154797
30
0
41
1
10
57.9691938476127
20
-6.91957466696934
30
0
41
1
10
58.0728777778246
20
-6.27405133045195
30
0
41
1
10
58.1247197429306
20
-5.94338354807505
30
0
41
1
10
58.2284036731426
20
-5.27106086938113
30
0
41
1
10
58.2802456382486
20
-4.92941299542491
30
0
41
1
10
58.3839295684606
20
-4.23997505254388
30
0
41
1
10
58.4357715335666
20
-3.8921911460549
30
0
41
1
10
58.5394554637785
20
-3.19513136130189
30
0
41
1
10
58.5912974288845
20
-2.84586037798957
30
0
41
1
10
58.7468233242025
20
-1.80224184696863
30
0
41
1
10
58.8505072544145
20
-1.11238256387631
30
0
41
1
10
58.9671516759029
20
-0.358730196326064
30
0
41
1
10
58.9801121671794
20
-0.275296818271215
30
0
41
1
10
59.0060331497324
20
-0.109086242171259
30
0
41
1
10
59.0189936410089
20
-0.0265151730552873
30
0
41
1
10
59.0578751148384
20
0.221705831357525
30
0
41
1
10
59.0837960973914
20
0.388546830910286
30
0
41
1
10
59.1615590450504
20
0.892616562697214
30
0
41
1
10
59.2134010101564
20
1.23341027641857
30
0
41
1
10
59.3689269054743
20
2.26508832774044
30
0
41
1
10
59.4726108356863
20
2.96550104193813
30
0
41
1
10
59.6281367310043
20
4.01048821345657
30
0
41
1
10
59.6799786961103
20
4.35781541304723
30
0
41
1
10
59.7836626263223
20
5.04579725115116
30
0
41
1
10
59.8355045914282
20
5.38644560575452
30
0
41
1
10
59.9391885216402
20
6.05621650266522
30
0
41
1
10
59.9910304867462
20
6.38533195875061
30
0
41
1
10
60.0947144169582
20
7.02721191756905
30
0
41
1
10
60.1465563820641
20
7.33996911944107
30
0
41
1
10
60.2502403122761
20
7.94455376841452
30
0
41
1
10
60.3020822773821
20
8.2363743724936
30
0
41
1
10
60.4057662075941
20
8.79496818799495
30
0
41
1
10
60.4576081727001
20
9.06173567112344
30
0
41
1
10
60.561292102912
20
9.56675784041852
30
0
41
1
10
60.613134068018
20
9.80500844933854
30
0
41
1
10
60.7168179982301
20
10.2503327159714
30
0
41
1
10
60.768659963336
20
10.4574042784878
30
0
41
1
10
60.872343893548
20
10.8386012016068
30
0
41
1
10
60.924185858654
20
11.0127265303022
30
0
41
1
10
61.027869788866
20
11.3271886174465
30
0
41
1
10
61.0797117539719
20
11.4675272433142
30
0
41
1
10
61.1833956841839
20
11.7144720484337
30
0
41
1
10
61.2352376492899
20
11.8210816339161
30
0
41
1
10
61.3389215795019
20
12.0014423068398
30
0
41
1
10
61.3907635446079
20
12.075197859207
30
0
41
1
10
61.5462894399258
20
12.2495344042119
30
0
41
1
10
61.6499733701378
20
12.303
30
0
41
1
10
61.7536573003498
20
12.303
30
0
0
SPLINE
5
D6
100
AcDbEntity
8
1
62
256
6
ByLayer
370
13
48
1
60
0
100
AcDbSpline
70
4
71
3
72
22
73
18
40
0
40
0
40
0
40
0
40
0.125
40
0.125
40
0.25
40
0.25
40
0.375
40
0.375
40
0.5
40
0.5
40
0.625
40
0.625
40
0.75
40
0.75
40
0.875
40
0.875
40
1
40
1
40
1
40
1
41
1
10
60.9999663550834
20
12.303
30
0
41
1
10
61.0717208489475
20
12.303
30
0
41
1
10
61.1434753428117
20
12.2774608280346
30
0
41
1
10
61.28698433054
20
12.1688148647587
30
0
41
1
10
61.3587388244041
20
12.0856822521484
30
0
41
1
10
61.5022478121324
20
11.8569932798377
30
0
41
1
10
61.5740023059965
20
11.7114134828742
30
0
41
1
10
61.7175112937248
20
11.3554114739003
30
0
41
1
10
61.789265787589
20
11.1449731072933
30
0
41
1
10
61.9327747753173
20
10.6598859781826
30
0
41
1
10
62.0045292691814
20
10.3852327923081
30
0
41
1
10
62.1480382569097
20
9.77572351297783
30
0
41
1
10
62.2197927507739
20
9.4408772138369
30
0
41
1
10
62.3633017385022
20
8.71829115275705
30
0
41
1
10
62.4350562323663
20
8.33057479972078
30
0
41
1
10
62.5785652200946
20
7.51235633325692
30
0
41
1
10
62.6503197139588
20
7.08188741553619
30
0
41
1
10
62.7220742078229
20
6.63604520951299
30
0
0
SPLINE
5
D7
100
AcDbEntity
8
1
62
256
6
ByLayer
370
13
48
1
60
0
100
AcDbSpline
70
4
71
3
72
87
73
83
40
0
40
0
40
0
40
0
40
0.0312499999999999
40
0.0312499999999999
40
0.0624999999999998
40
0.0624999999999998
40
0.0937499999999998
40
0.0937499999999998
40
0.125
40
0.125
40
0.1328125
40
0.1328125
40
0.13671875
40
0.13671875
40
0.140625
40
0.140625
40
0.15625
40
0.15625
40
0.1875
40
0.1875
40
0.21875
40
0.21875
40
0.25
40
0.25
40
0.28125
40
0.28125
40
0.3125
40
0.3125
40
0.343749999999999
40
0.343749999999999
40
0.374999999999999
40
0.374999999999999
40
0.406249999999999
40
0.406249999999999
40
0.421874999999999
40
0.421874999999999
40
0.425781249999999
40
0.425781249999999
40
0.429687499999999
40
0.437499999999999
40
0.437499999999999
40
0.468749999999999
40
0.468749999999999
40
0.499999999999999
40
0.499999999999999
40
0.531249999999999
40
0.531249999999999
40
0.562499999999999
40
0.562499999999999
40
0.59375
40
0.59375
40
0.625
40
0.625
40
0.65625
40
0.65625
40
0.6875
40
0.6875
40
0.703125
40
0.703125
40
0.7109375
40
0.7109375
40
0.71484375
40
0.71484375
40
0.71875
40
0.71875
40
0.75
40
0.75
40
0.78125
40
0.78125
40
0.8125
40
0.8125
40
0.84375
40
0.84375
40
0.875
40
0.875
40
0.90625
40
0.90625
40
0.9375
40
0.9375
40
0.96875
40
0.96875
40
1
40
1
40
1
40
1
41
1
10
51.7999999999999
20
8.22645304193753
30
0
41
1
10
51.8986400893079
20
7.67928273960294
30
0
41
1
10
51.9972801786159
20
7.08902899853697
30
0
41
1
10
52.1945603572317
20
5.85315581473196
30
0
41
1
10
52.2932004465396
20
5.20771657455174
30
0
41
1
10
52.4904806251555
20
3.89517481904747
30
0
41
1
10
52.5891207144634
20
3.22822384628177
30
0
41
1
10
52.7864008930793
20
1.90377205453424
30
0
41
1
10
52.8850409823872
20
1.2463588016567
30
0
41
1
10
53.0083410940221
20
0.446017150369244
30
0
41
1
10
53.0330011163491
20
0.287001959585922
30
0
41
1
10
53.0699911498396
20
0.0502918817672082
30
0
41
1
10
53.0823211610031
20
-0.0281286202024944
30
0
41
1
10
53.1069811833301
20
-0.18582165431161
30
0
41
1
10
53.1193111944936
20
-0.264971775739468
30
0
41
1
10
53.1809612503111
20
-0.662146195119306
30
0
41
1
10
53.230281294965
20
-0.984460997008057
30
0
41
1
10
53.3782414289269
20
-1.96105264655137
30
0
41
1
10
53.4768815182348
20
-2.62518017609284
30
0
41
1
10
53.6741616968507
20
-3.95238480499239
30
0
41
1
10
53.7728017861587
20
-4.61534902888025
30
0
41
1
10
53.9700819647746
20
-5.90775366358668
30
0
41
1
10
54.0687220540825
20
-6.53702646980318
30
0
41
1
10
54.2660022326983
20
-7.72866908773878
30
0
41
1
10
54.3646423220062
20
-8.29086196147517
30
0
41
1
10
54.5619225006221
20
-9.31942840995973
30
0
41
1
10
54.66056258993
20
-9.78567376874352
30
0
41
1
10
54.8578427685459
20
-10.6026911415871
30
0
41
1
10
54.9564828578538
20
-10.95342407642
30
0
41
1
10
55.1537630364697
20
-11.5316593545761
30
0
41
1
10
55.2524031257776
20
-11.759213761318
30
0
41
1
10
55.4496833043934
20
-12.0950055017112
30
0
41
1
10
55.5483233937014
20
-12.2033537311343
30
0
41
1
10
55.6962835276632
20
-12.2861323513592
30
0
41
1
10
55.7456035723172
20
-12.3004940164392
30
0
41
1
10
55.8072536281347
20
-12.30325016604
30
0
41
1
10
55.8195836392982
20
-12.3030475222079
30
0
41
1
10
55.8442436616253
20
-12.3011204021973
30
0
41
1
10
55.8812336951156
20
-12.2959381618987
30
0
41
1
10
55.9182237286061
20
-12.2837224637464
30
0
41
1
10
56.041523840241
20
-12.2267068983468
30
0
41
1
10
56.1401639295489
20
-12.1286865654984
30
0
41
1
10
56.3374441081649
20
-11.814417284892
30
0
41
1
10
56.4360841974728
20
-11.5980542994722
30
0
41
1
10
56.6333643760887
20
-11.0421144598001
30
0
41
1
10
56.7320044653965
20
-10.7024784734291
30
0
41
1
10
56.9292846440124
20
-9.90645541535937
30
0
41
1
10
57.0279247333203
20
-9.450098572092
30
0
41
1
10
57.2252049119362
20
-8.4390886218562
30
0
41
1
10
57.3238450012441
20
-7.88455678498084
30
0
41
1
10
57.5211251798601
20
-6.70533765478442
30
0
41
1
10
57.6197652691679
20
-6.0808252224418
30
0
41
1
10
57.8170454477838
20
-4.7948524167162
30
0
41
1
10
57.9156855370918
20
-4.13356275981837
30
0
41
1
10
58.1129657157077
20
-2.80689858157163
30
0
41
1
10
58.2116058050156
20
-2.14164304266515
30
0
41
1
10
58.3595659389775
20
-1.16170470172384
30
0
41
1
10
58.4088859836314
20
-0.838000433434388
30
0
41
1
10
58.4828660506124
20
-0.358962233826162
30
0
41
1
10
58.5075260729393
20
-0.200365446849474
30
0
41
1
10
58.5445161064298
20
0.035677048735721
30
0
41
1
10
58.5568461175933
20
0.114280446888671
30
0
41
1
10
58.5815061399203
20
0.27241126919904
30
0
41
1
10
58.5938361510838
20
0.351773526529115
30
0
41
1
10
58.7048062515552
20
1.06853270166812
30
0
41
1
10
58.8034463408631
20
1.72373156146949
30
0
41
1
10
59.000726519479
20
3.04630477905897
30
0
41
1
10
59.0993666087869
20
3.71359804545176
30
0
41
1
10
59.2966467874028
20
5.02982790432219
30
0
41
1
10
59.3952868767108
20
5.67861779158616
30
0
41
1
10
59.5925670553266
20
6.92423973945066
30
0
41
1
10
59.6912071446345
20
7.52089201927339
30
0
41
1
10
59.8884873232503
20
8.6306230180939
30
0
41
1
10
59.9871274125583
20
9.14354460223777
30
0
41
1
10
60.1844075911742
20
10.0614647937926
30
0
41
1
10
60.2830476804821
20
10.4663810475482
30
0
41
1
10
60.4803278590979
20
11.1549818137936
30
0
41
1
10
60.5789679484059
20
11.4386793112284
30
0
41
1
10
60.7762481270218
20
11.8836556327289
30
0
41
1
10
60.8748882163297
20
12.0450239883592
30
0
41
1
10
61.0721683949455
20
12.254634122668
30
0
41
1
10
61.1708084842534
20
12.303
30
0
41
1
10
61.2694485735614
20
12.303
30
0
0
SPLINE
5
D8
100
AcDbEntity
8
1
62
256
6
ByLayer
370
13
48
1
60
0
100
AcDbSpline
70
4
71
3
72
22
73
18
40
0
40
0
40
0
40
0
40
0.125
40
0.125
40
0.25
40
0.25
40
0.375
40
0.375
40
0.5
40
0.5
40
0.625
40
0.625
40
0.75
40
0.75
40
0.875
40
0.875
40
1
40
1
40
1
40
1
41
1
10
60.515757628295
20
12.303
30
0
41
1
10
60.6076874857753
20
12.303
30
0
41
1
10
60.6996173432556
20
12.2610166595338
30
0
41
1
10
60.8834770582163
20
12.0798626460272
30
0
41
1
10
60.9754069156966
20
11.940604021887
30
0
41
1
10
61.1592666306573
20
11.5566205949143
30
0
41
1
10
61.2511964881376
20
11.3118274498721
30
0
41
1
10
61.4350562030983
20
10.7160509507953
30
0
41
1
10
61.5269860605786
20
10.3650455098438
30
0
41
1
10
61.7108457755393
20
9.56513079533073
30
0
41
1
10
61.8027756330196
20
9.1162614349266
30
0
41
1
10
61.9866353479803
20
8.13769171654494
30
0
41
1
10
62.0785652054606
20
7.60808748139121
30
0
41
1
10
62.2624249204213
20
6.49182090776353
30
0
41
1
10
62.3543547779016
20
5.90528384844515
30
0
41
1
10
62.5382144928623
20
4.70218272596244
30
0
41
1
10
62.6301443503426
20
4.08573726311431
30
0
41
1
10
62.7220742078229
20
3.46752445730678
30
0
0
SPLINE
5
D9
100
AcDbEntity
8
1
62
256
6
ByLayer
370
13
48
1
60
0
100
AcDbSpline
70
4
71
3
72
87
73
83
40
0
40
0
40
0
40
0
40
0.03125
40
0.03125
40
0.0625
40
0.0625
40
0.078125
40
0.078125
40
0.0859375
40
0.0859375
40
0.08984375
40
0.08984375
40
0.09375
40
0.09375
40
0.125
40
0.125
40
0.15625
40
0.15625
40
0.1875
40
0.1875
40
0.21875
40
0.21875
40
0.25
40
0.25
40
0.28125
40
0.28125
40
0.3125
40
0.3125
40
0.34375
40
0.34375
40
0.375
40
0.375
40
0.390625
40
0.390625
40
0.39453125
40
0.39453125
40
0.3984375
40
0.40625
40
0.40625
40
0.4375
40
0.4375
40
0.46875
40
0.46875
40
0.499999999999999
40
0.499999999999999
40
0.531249999999999
40
0.531249999999999
40
0.562499999999999
40
0.562499999999999
40
0.593749999999999
40
0.593749999999999
40
0.624999999999999
40
0.624999999999999
40
0.656249999999999
40
0.656249999999999
40
0.687499999999999
40
0.687499999999999
40
0.695312499999999
40
0.695312499999999
40
0.699218749999999
40
0.699218749999999
40
0.703124999999999
40
0.703124999999999
40
0.718749999999999
40
0.718749999999999
40
0.749999999999999
40
0.749999999999999
40
0.781249999999999
40
0.781249999999999
40
0.812499999999999
40
0.812499999999999
40
0.843749999999999
40
0.843749999999999
40
0.875
40
0.875
40
0.90625
40
0.90625
40
0.9375
40
0.9375
40
0.96875
40
0.96875
40
1
40
1
40
1
40
1
41
1
10
51.8
20
5.26243726312256
30
0
41
1
10
51.8935962484039
20
4.64929235489421
30
0
41
1
10
51.9871924968078
20
4.02103558837663
30
0
41
1
10
52.1743849936155
20
2.76192716470905
30
0
41
1
10
52.2679812420194
20
2.13116505987026
30
0
41
1
10
52.4083756146253
20
1.20095219738505
30
0
41
1
10
52.4551737388272
20
0.893496329189787
30
0
41
1
10
52.5253709251301
20
0.438048891706472
30
0
41
1
10
52.548769987231
20
0.287186106896087
30
0
41
1
10
52.5838685803825
20
0.0625203620494972
30
0
41
1
10
52.595568111433
20
-0.0119147669918505
30
0
41
1
10
52.618967173534
20
-0.161445227835514
30
0
41
1
10
52.6306667045845
20
-0.236485215668296
30
0
41
1
10
52.7359624840389
20
-0.914173881774531
30
0
41
1
10
52.8295587324427
20
-1.53337839701567
30
0
41
1
10
53.0167512292505
20
-2.78548886459461
30
0
41
1
10
53.1103474776544
20
-3.41833867493989
30
0
41
1
10
53.2975399744621
20
-4.67229800852391
30
0
41
1
10
53.3911362228661
20
-5.29330184783683
30
0
41
1
10
53.5783287196738
20
-6.49506982777021
30
0
41
1
10
53.6719249680777
20
-7.07569772382595
30
0
41
1
10
53.8591174648855
20
-8.16888055866801
30
0
41
1
10
53.9527137132893
20
-8.68130527186426
30
0
41
1
10
54.1399062100971
20
-9.61506505769003
30
0
41
1
10
54.233502458501
20
-10.0363151602882
30
0
41
1
10
54.4206949553088
20
-10.7728980103259
30
0
41
1
10
54.5142912037127
20
-11.0882138575883
30
0
41
1
10
54.7014837005204
20
-11.6078824790392
30
0
41
1
10
54.7950799489243
20
-11.8122828297664
30
0
41
1
10
54.9822724457321
20
-12.1143577432545
30
0
41
1
10
55.075868694136
20
-12.2121197522081
30
0
41
1
10
55.2162630667418
20
-12.2872583104214
30
0
41
1
10
55.2630611909438
20
-12.3004339748017
30
0
41
1
10
55.3215588461962
20
-12.3032158411691
30
0
41
1
10
55.3332583772467
20
-12.3030927252013
30
0
41
1
10
55.3566574393477
20
-12.3014792804842
30
0
41
1
10
55.3917560324992
20
-12.2969994393946
30
0
41
1
10
55.4268546256505
20
-12.28620469202
30
0
41
1
10
55.5438499361555
20
-12.2356162507606
30
0
41
1
10
55.6374461845593
20
-12.1482027091815
30
0
41
1
10
55.8246386813671
20
-11.8677105448789
30
0
41
1
10
55.918234929771
20
-11.6745421703752
30
0
41
1
10
56.1054274265787
20
-11.1773810468089
30
0
41
1
10
56.1990236749826
20
-10.8733352849198
30
0
41
1
10
56.3862161717904
20
-10.1583349633185
30
0
41
1
10
56.4798124201943
20
-9.74739010534097
30
0
41
1
10
56.6670049170021
20
-8.83231953116911
30
0
41
1
10
56.7606011654059
20
-8.32827246123401
30
0
41
1
10
56.9477936622137
20
-7.2492112351317
30
0
41
1
10
57.0413899106176
20
-6.6743243465634
30
0
41
1
10
57.2285824074254
20
-5.48109136977337
30
0
41
1
10
57.3221786558292
20
-4.8628827876569
30
0
41
1
10
57.509371152637
20
-3.61167942505307
30
0
41
1
10
57.6029674010409
20
-2.97879468374717
30
0
41
1
10
57.7901598978487
20
-1.72422792571754
30
0
41
1
10
57.8837561462526
20
-1.10260735805787
30
0
41
1
10
58.0007514567574
20
-0.345502297225181
30
0
41
1
10
58.0241505188583
20
-0.195062425706311
30
0
41
1
10
58.0592491120098
20
0.0289306266016354
30
0
41
1
10
58.0709486430604
20
0.103490344505843
30
0
41
1
10
58.0943477051612
20
0.25346457873917
30
0
41
1
10
58.1060472362118
20
0.32872000774563
30
0
41
1
10
58.1645448914642
20
0.706257084258567
30
0
41
1
10
58.2113430156662
20
1.01233395449947
30
0
41
1
10
58.351737388272
20
1.93919865082825
30
0
41
1
10
58.4453336366758
20
2.56878677337465
30
0
41
1
10
58.6325261334836
20
3.82820353177024
30
0
41
1
10
58.7261223818875
20
4.45794767171424
30
0
41
1
10
58.9133148786953
20
5.69015253607876
30
0
41
1
10
59.0069111270992
20
6.29248704111012
30
0
41
1
10
59.1941036239069
20
7.44122622374036
30
0
41
1
10
59.2876998723108
20
7.98749282035931
30
0
41
1
10
59.4748923691186
20
8.99842516665777
30
0
41
1
10
59.5684886175225
20
9.46298143339655
30
0
41
1
10
59.7556811143303
20
10.2916692444273
30
0
41
1
10
59.8492773627341
20
10.6557521495387
30
0
41
1
10
60.0364698595419
20
11.2739956444927
30
0
41
1
10
60.1300661079458
20
11.5281769448611
30
0
41
1
10
60.3172586047536
20
11.9268715299208
30
0
41
1
10
60.4108548531574
20
12.0714581747708
30
0
41
1
10
60.5980473499652
20
12.2594743882433
30
0
41
1
10
60.6916435983691
20
12.303
30
0
41
1
10
60.785239846773
20
12.303
30
0
0
SPLINE
5
DA
100
AcDbEntity
8
1
62
256
6
ByLayer
370
13
48
1
60
0
100
AcDbSpline
70
4
71
3
72
38
73
34
40
0
40
0
40
0
40
0
40
0.0625
40
0.0625
40
0.125
40
0.125
40
0.1875
40
0.1875
40
0.25
40
0.25
40
0.3125
40
0.3125
40
0.375
40
0.375
40
0.4375
40
0.4375
40
0.5
40
0.5
40
0.5625
40
0.5625
40
0.625
40
0.625
40
0.6875
40
0.6875
40
0.75
40
0.75
40
0.8125
40
0.8125
40
0.875
40
0.875
40
0.9375
40
0.9375
40
1
40
1
40
1
40
1
41
1
10
60.0315489015066
20
12.303
30
0
41
1
10
60.0876015120548
20
12.303
30
0
41
1
10
60.1436541226031
20
12.287428377782
30
0
41
1
10
60.2557593436996
20
12.2219794198799
30
0
41
1
10
60.3118119542478
20
12.1720945722135
30
0
41
1
10
60.4239171753444
20
12.0354059431639
30
0
41
1
10
60.4799697858926
20
11.9485948466169
30
0
41
1
10
60.5920750069892
20
11.7362290661877
30
0
41
1
10
60.6481276175374
20
11.6106681018937
30
0
41
1
10
60.7602328386339
20
11.3199738196824
30
0
41
1
10
60.8162854491822
20
11.154836140917
30
0
41
1
10
60.9283906702787
20
10.7853186016128
30
0
41
1
10
60.984443280827
20
10.5809370748653
30
0
41
1
10
61.0965485019235
20
10.1345141899951
30
0
41
1
10
61.1526011124717
20
9.8924743565556
30
0
41
1
10
61.2647063335682
20
9.3735730977015
30
0
41
1
10
61.3207589441165
20
9.09671646979317
30
0
41
1
10
61.4328641652131
20
8.51218078760647
30
0
41
1
10
61.4889167757612
20
8.20450941439128
30
0
41
1
10
61.6010219968578
20
7.56331518049461
30
0
41
1
10
61.6570746074061
20
7.22980207135689
30
0
41
1
10
61.7691798285026
20
6.54260205900118
30
0
41
1
10
61.8252324390508
20
6.18892588595293
30
0
41
1
10
61.9373376601473
20
5.46747252813074
30
0
41
1
10
61.9933902706956
20
5.09970588552531
30
0
41
1
10
62.1054954917921
20
4.35621585009872
30
0
41
1
10
62.1615481023403
20
3.9805017765463
30
0
41
1
10
62.2736533234368
20
3.22703086748245
30
0
41
1
10
62.3297059339851
20
2.84928138131255
30
0
41
1
10
62.4418111550817
20
2.09717073679195
30
0
41
1
10
62.4978637656299
20
1.7228145733219
30
0
41
1
10
62.6099689867264
20
0.982252448909662
30
0
41
1
10
62.6660215972747
20
0.616049096911098
30
0
41
1
10
62.722074207823
20
0.255910237823144
30
0
0
SPLINE
5
DB
100
AcDbEntity
8
1
62
256
6
ByLayer
370
13
48
1
60
0
100
AcDbSpline
70
4
71
3
72
87
73
83
40
0
40
0
40
0
40
0
40
0.0312499999999999
40
0.0312499999999999
40
0.0351562499999999
40
0.0351562499999999
40
0.0390624999999999
40
0.0390624999999999
40
0.0468749999999999
40
0.0468749999999999
40
0.0624999999999998
40
0.0624999999999998
40
0.0937499999999997
40
0.0937499999999997
40
0.125
40
0.125
40
0.156249999999999
40
0.156249999999999
40
0.187499999999999
40
0.187499999999999
40
0.218749999999999
40
0.218749999999999
40
0.249999999999999
40
0.249999999999999
40
0.281249999999999
40
0.281249999999999
40
0.312499999999998
40
0.312499999999998
40
0.343749999999998
40
0.343749999999998
40
0.351562499999998
40
0.355468749999998
40
0.355468749999998
40
0.359374999999998
40
0.359374999999998
40
0.374999999999998
40
0.374999999999998
40
0.406249999999998
40
0.406249999999998
40
0.437499999999998
40
0.437499999999998
40
0.468749999999998
40
0.468749999999998
40
0.499999999999998
40
0.499999999999998
40
0.531249999999998
40
0.531249999999998
40
0.562499999999998
40
0.562499999999998
40
0.593749999999998
40
0.593749999999998
40
0.624999999999998
40
0.624999999999998
40
0.656249999999998
40
0.656249999999998
40
0.671874999999998
40
0.671874999999998
40
0.675781249999998
40
0.675781249999998
40
0.679687499999998
40
0.679687499999998
40
0.687499999999998
40
0.687499999999998
40
0.718749999999999
40
0.718749999999999
40
0.749999999999999
40
0.749999999999999
40
0.781249999999999
40
0.781249999999999
40
0.812499999999999
40
0.812499999999999
40
0.843749999999999
40
0.843749999999999
40
0.874999999999999
40
0.874999999999999
40
0.90625
40
0.90625
40
0.9375
40
0.9375
40
0.96875
40
0.96875
40
1
40
1
40
1
40
1
41
1
10
51.8
20
2.02579156451665
30
0
41
1
10
51.8885524074998
20
1.43441791327575
30
0
41
1
10
51.9771048149996
20
0.849877725531627
30
0
41
1
10
52.076726273437
20
0.209322422109608
30
0
41
1
10
52.0877953243745
20
0.138383247945228
30
0
41
1
10
52.1099334262494
20
-0.0030008662302805
30
0
41
1
10
52.1210024771869
20
-0.0734600171813895
30
0
41
1
10
52.1542096299993
20
-0.286066030876668
30
0
41
1
10
52.1763477318743
20
-0.428773300254932
30
0
41
1
10
52.2427620374991
20
-0.85946837980481
30
0
41
1
10
52.2870382412491
20
-1.15003921245324
30
0
41
1
10
52.4198668524988
20
-2.02902476867703
30
0
41
1
10
52.5084192599987
20
-2.62484389723005
30
0
41
1
10
52.6855240749984
20
-3.81638390511063
30
0
41
1
10
52.7740764824982
20
-4.41204025174036
30
0
41
1
10
52.9511812974979
20
-5.57998896994445
30
0
41
1
10
53.0397337049978
20
-6.15218651870308
30
0
41
1
10
53.2168385199974
20
-7.24892684939348
30
0
41
1
10
53.3053909274973
20
-7.7733643590621
30
0
41
1
10
53.482495742497
20
-8.75235887929716
30
0
41
1
10
53.5710481499968
20
-9.20682762462741
30
0
41
1
10
53.7481529649964
20
-10.0287357979643
30
0
41
1
10
53.8367053724963
20
-10.3961276900844
30
0
41
1
10
54.013810187496
20
-11.0339295443169
30
0
41
1
10
54.1023625949958
20
-11.3043422454204
30
0
41
1
10
54.2794674099955
20
-11.7461216021248
30
0
41
1
10
54.3680198174953
20
-11.9175337505266
30
0
41
1
10
54.545124632495
20
-12.1663691871852
30
0
41
1
10
54.6336770399948
20
-12.2438618736062
30
0
41
1
10
54.7443675493697
20
-12.2884696584938
30
0
41
1
10
54.7775747021821
20
-12.2979474893277
30
0
41
1
10
54.8107818549946
20
-12.3017880705792
30
0
41
1
10
54.8329199568695
20
-12.3031213516128
30
0
41
1
10
54.843989007807
20
-12.3031772974499
30
0
41
1
10
54.8993342624944
20
-12.3004124803134
30
0
41
1
10
54.9436104662443
20
-12.28839526542
30
0
41
1
10
55.0764390774941
20
-12.2205828709973
30
0
41
1
10
55.1649914849939
20
-12.1328808032178
30
0
41
1
10
55.3420962999936
20
-11.8627428143808
30
0
41
1
10
55.4306487074934
20
-11.6802391209362
30
0
41
1
10
55.6077535224931
20
-11.2161190724906
30
0
41
1
10
55.696305929993
20
-10.9344612552624
30
0
41
1
10
55.8734107449926
20
-10.2748893019088
30
0
41
1
10
55.9619631524924
20
-9.89697804508558
30
0
41
1
10
56.1390679674922
20
-9.05563150771641
30
0
41
1
10
56.2276203749919
20
-8.5922491878371
30
0
41
1
10
56.4047251899916
20
-7.59773743290023
30
0
41
1
10
56.4932775974915
20
-7.06669956395012
30
0
41
1
10
56.6703824124912
20
-5.95946935910015
30
0
41
1
10
56.758934819991
20
-5.3833824363372
30
0
41
1
10
56.9360396349907
20
-4.21040375408424
30
0
41
1
10
57.0245920424906
20
-3.61360415263033
30
0
41
1
10
57.2016968574902
20
-2.4222418674569
30
0
41
1
10
57.2902492649901
20
-1.82773961188772
30
0
41
1
10
57.4230778762398
20
-0.952202789052649
30
0
41
1
10
57.4673540799897
20
-0.663025843467466
30
0
41
1
10
57.5226993346771
20
-0.306116446930275
30
0
41
1
10
57.5337683856146
20
-0.234961882417878
30
0
41
1
10
57.5559064874896
20
-0.0931349137338202
30
0
41
1
10
57.566975538427
20
-0.0226128960429151
30
0
41
1
10
57.6001826912395
20
0.189325484737594
30
0
41
1
10
57.6223207931144
20
0.331611708113314
30
0
41
1
10
57.7330113024893
20
1.04746323073516
30
0
41
1
10
57.8215637099891
20
1.63448176713445
30
0
41
1
10
57.9986685249887
20
2.8199898602945
30
0
41
1
10
58.0872209324886
20
3.41843544285132
30
0
41
1
10
58.2643257474883
20
4.60521877854217
30
0
41
1
10
58.3528781549881
20
5.19347693601375
30
0
41
1
10
58.5299829699878
20
6.33581246544111
30
0
41
1
10
58.6185353774876
20
6.88978726478493
30
0
41
1
10
58.7956401924873
20
7.93978443047126
30
0
41
1
10
58.8841925999871
20
8.43570560632526
30
0
41
1
10
59.0612974149869
20
9.34928443013013
30
0
41
1
10
59.1498498224867
20
9.76686960348849
30
0
41
1
10
59.3269546374863
20
10.5096336953108
30
0
41
1
10
59.4155070449862
20
10.8347872425579
30
0
41
1
10
59.5926118599859
20
11.3862388951247
30
0
41
1
10
59.6811642674857
20
11.6125605001942
30
0
41
1
10
59.8582690824855
20
11.9676107084423
30
0
41
1
10
59.9468214899852
20
12.0963980530516
30
0
41
1
10
60.1239263049848
20
12.2640561080799
30
0
41
1
10
60.2124787124847
20
12.303
30
0
41
1
10
60.3010311199846
20
12.303
30
0
0
SPLINE
5
DC
100
AcDbEntity
8
1
62
256
6
ByLayer
370
13
48
1
60
0
100
AcDbSpline
70
4
71
3
72
42
73
38
40
0
40
0
40
0
40
0
40
0.0625
40
0.0625
40
0.125
40
0.125
40
0.1875
40
0.1875
40
0.25
40
0.25
40
0.3125
40
0.3125
40
0.375
40
0.375
40
0.4375
40
0.4375
40
0.5
40
0.5
40
0.5625
40
0.5625
40
0.625
40
0.625
40
0.6875
40
0.6875
40
0.75
40
0.75
40
0.8125
40
0.8125
40
0.84375
40
0.84375
40
0.859375
40
0.859375
40
0.875
40
0.875
40
0.9375
40
0.9375
40
1
40
1
40
1
40
1
41
1
10
59.5473401747182
20
12.303
30
0
41
1
10
59.6134804670746
20
12.303
30
0
41
1
10
59.679620759431
20
12.2813081679948
30
0
41
1
10
59.8119013441436
20
12.1894171265624
30
0
41
1
10
59.8780416364999
20
12.1192007180065
30
0
41
1
10
60.0103222212126
20
11.9262749734127
30
0
41
1
10
60.076462513569
20
11.8035495607953
30
0
41
1
10
60.2087430982817
20
11.5032991923037
30
0
41
1
10
60.2748833906381
20
11.3257620332525
30
0
41
1
10
60.4071639753507
20
10.9156956633666
30
0
41
1
10
60.4733042677071
20
10.6831607915622
30
0
41
1
10
60.6055848524197
20
10.1652985267152
30
0
41
1
10
60.6717251447761
20
9.87997387007869
30
0
41
1
10
60.8040057294888
20
9.26117354014426
30
0
41
1
10
60.8701460218452
20
8.92770939574928
30
0
41
1
10
61.0024266065579
20
8.21949947241333
30
0
41
1
10
61.0685668989142
20
7.84477266656046
30
0
41
1
10
61.2008474836269
20
7.06267022154805
30
0
41
1
10
61.2669877759832
20
6.65531815222064
30
0
41
1
10
61.3992683606959
20
5.81771099474946
30
0
41
1
10
61.4654086530523
20
5.38748044165035
30
0
41
1
10
61.597689237765
20
4.51423910441284
30
0
41
1
10
61.6638295301214
20
4.07125032461022
30
0
41
1
10
61.7961101148341
20
3.18228113196716
30
0
41
1
10
61.8622504071903
20
2.73631761701654
30
0
41
1
10
61.994530991903
20
1.85026092368471
30
0
41
1
10
62.0606712842595
20
1.41017828647304
30
0
41
1
10
62.1598817227939
20
0.760097214604855
30
0
41
1
10
62.1929518689722
20
0.545065908186842
30
0
41
1
10
62.2425570882394
20
0.225607745867933
30
0
41
1
10
62.2590921613284
20
0.119635717283046
30
0
41
1
10
62.2921623075066
20
-0.0911904452148349
30
0
41
1
10
62.3086973805958
20
-0.196971408413845
30
0
41
1
10
62.3913727460412
20
-0.728937567234169
30
0
41
1
10
62.4575130383975
20
-1.16286293785555
30
0
41
1
10
62.5897936231102
20
-2.04071341508802
30
0
41
1
10
62.6559339154665
20
-2.48463135366868
30
0
41
1
10
62.7220742078229
20
-2.92945549000581
30
0
0
SPLINE
5
DD
100
AcDbEntity
8
1
62
256
6
ByLayer
370
13
48
1
60
0
100
AcDbSpline
70
4
71
3
72
81
73
77
40
0
40
0
40
0
40
0
40
0.0312499999999995
40
0.0312499999999995
40
0.0624999999999989
40
0.0624999999999989
40
0.0937499999999984
40
0.0937499999999984
40
0.124999999999998
40
0.124999999999998
40
0.156249999999997
40
0.156249999999997
40
0.187499999999997
40
0.187499999999997
40
0.218749999999996
40
0.218749999999996
40
0.249999999999996
40
0.249999999999996
40
0.281249999999995
40
0.281249999999995
40
0.312499999999995
40
0.312499999999995
40
0.316406249999995
40
0.316406249999995
40
0.320312499999995
40
0.320312499999995
40
0.328124999999995
40
0.328124999999995
40
0.343749999999995
40
0.343749999999995
40
0.374999999999995
40
0.374999999999995
40
0.406249999999996
40
0.406249999999996
40
0.437499999999996
40
0.437499999999996
40
0.468749999999996
40
0.468749999999996
40
0.499999999999997
40
0.499999999999997
40
0.531249999999997
40
0.531249999999997
40
0.562499999999997
40
0.562499999999997
40
0.593749999999998
40
0.593749999999998
40
0.624999999999998
40
0.624999999999998
40
0.656249999999999
40
0.656249999999999
40
0.660156249999999
40
0.660156249999999
40
0.664062499999999
40
0.671874999999999
40
0.671874999999999
40
0.687499999999999
40
0.687499999999999
40
0.718749999999999
40
0.718749999999999
40
0.749999999999999
40
0.749999999999999
40
0.781249999999999
40
0.781249999999999
40
0.8125
40
0.8125
40
0.84375
40
0.84375
40
0.875
40
0.875
40
0.90625
40
0.90625
40
0.9375
40
0.9375
40
0.96875
40
0.96875
40
1
40
1
40
1
40
1
41
1
10
51.7999999999999
20
-1.13227306075973
30
0
41
1
10
51.8835085665958
20
-1.68140512736022
30
0
41
1
10
51.9670171331917
20
-2.24061340280474
30
0
41
1
10
52.1340342663832
20
-3.36336911026879
30
0
41
1
10
52.217542832979
20
-3.92687477250186
30
0
41
1
10
52.3845599661706
20
-5.03931344678927
30
0
41
1
10
52.4680685327664
20
-5.58818113310608
30
0
41
1
10
52.635085665958
20
-6.65098887065904
30
0
41
1
10
52.7185942325538
20
-7.16485082612184
30
0
41
1
10
52.8856113657453
20
-8.13805043865176
30
0
41
1
10
52.9691199323411
20
-8.5973145135346
30
0
41
1
10
53.1361370655327
20
-9.44482627481247
30
0
41
1
10
53.2196456321285
20
-9.833022741684
30
0
41
1
10
53.38666276532
20
-10.5269499591406
30
0
41
1
10
53.4701713319158
20
-10.8326632142575
30
0
41
1
10
53.6371884651074
20
-11.3562831537871
30
0
41
1
10
53.7206970317032
20
-11.5742067841628
30
0
41
1
10
53.8877141648948
20
-11.923015551607
30
0
41
1
10
53.9712227314906
20
-12.0539431054211
30
0
41
1
10
54.1382398646822
20
-12.2347042768832
30
0
41
1
10
54.221748431278
20
-12.2845920196203
30
0
41
1
10
54.3156955686983
20
-12.300510419772
30
0
41
1
10
54.3261341395227
20
-12.301722438752
30
0
41
1
10
54.3470112811717
20
-12.3030543451607
30
0
41
1
10
54.3574498519962
20
-12.3031762267481
30
0
41
1
10
54.3887655644696
20
-12.3019205006942
30
0
41
1
10
54.4096427061186
20
-12.2989086265733
30
0
41
1
10
54.4722741310655
20
-12.2830953946181
30
0
41
1
10
54.5140284143633
20
-12.2635112413678
30
0
41
1
10
54.639291264257
20
-12.1757662026141
30
0
41
1
10
54.7227998308528
20
-12.0784883092888
30
0
41
1
10
54.8898169640444
20
-11.7988432307113
30
0
41
1
10
54.9733255306402
20
-11.6164271822548
30
0
41
1
10
55.1403426638318
20
-11.1634553748691
30
0
41
1
10
55.2238512304276
20
-10.8928709124415
30
0
41
1
10
55.3908683636191
20
-10.2663167431599
30
0
41
1
10
55.4743769302149
20
-9.91035010296298
30
0
41
1
10
55.6413940634065
20
-9.12201513609028
30
0
41
1
10
55.7249026300023
20
-8.689685234336
30
0
41
1
10
55.8919197631939
20
-7.76321782022552
30
0
41
1
10
55.9754283297897
20
-7.26914679701525
30
0
41
1
10
56.1424454629814
20
-6.23778923781774
30
0
41
1
10
56.2259540295771
20
-5.70058125266615
30
0
41
1
10
56.3929711627687
20
-4.60329643450149
30
0
41
1
10
56.4764797293644
20
-4.04329183620578
30
0
41
1
10
56.643496862556
20
-2.92018324976218
30
0
41
1
10
56.7270054291519
20
-2.35713127884338
30
0
41
1
10
56.8940225623434
20
-1.24520918621286
30
0
41
1
10
56.9775311289392
20
-0.696365203003069
30
0
41
1
10
57.0714782663595
20
-0.0945468355163257
30
0
41
1
10
57.081916837184
20
-0.0280153141958976
30
0
41
1
10
57.1027939788329
20
0.105187295877783
30
0
41
1
10
57.1341096913064
20
0.305655057848924
30
0
41
1
10
57.1654254037798
20
0.508015137691785
30
0
41
1
10
57.2280568287266
20
0.914971433012198
30
0
41
1
10
57.2698111120245
20
1.18926483075728
30
0
41
1
10
57.3950739619182
20
2.01853391805861
30
0
41
1
10
57.478582528514
20
2.58000299855584
30
0
41
1
10
57.6455996617055
20
3.70367126543121
30
0
41
1
10
57.7291082283013
20
4.26582348069414
30
0
41
1
10
57.8961253614929
20
5.37150132411335
30
0
41
1
10
57.9796339280887
20
5.91495791495169
30
0
41
1
10
58.1466510612803
20
6.96285299072289
30
0
41
1
10
58.2301596278761
20
7.467212775614
30
0
41
1
10
58.3971767610677
20
8.41775988784119
30
0
41
1
10
58.4806853276635
20
8.86387682032313
30
0
41
1
10
58.647702460855
20
9.68232989017682
30
0
41
1
10
58.7312110274508
20
10.0546210086489
30
0
41
1
10
58.8982281606424
20
10.7151530367796
30
0
41
1
10
58.9817367272383
20
11.0033836990699
30
0
41
1
10
59.1487538604298
20
11.4917199520232
30
0
41
1
10
59.2322624270256
20
11.6918485885081
30
0
41
1
10
59.3992795602172
20
12.0058925416573
30
0
41
1
10
59.482788126813
20
12.1198537925749
30
0
41
1
10
59.6498052600046
20
12.2683801177544
30
0
41
1
10
59.7333138266004
20
12.303
30
0
41
1
10
59.8168223931962
20
12.303
30
0
0
SPLINE
5
DE
100
AcDbEntity
8
1
62
256
6
ByLayer
370
13
48
1
60
0
100
AcDbSpline
70
4
71
3
72
43
73
39
40
0
40
0
40
0
40
0
40
0.0624999999999995
40
0.0624999999999995
40
0.124999999999999
40
0.124999999999999
40
0.187499999999999
40
0.187499999999999
40
0.249999999999998
40
0.249999999999998
40
0.312499999999998
40
0.312499999999998
40
0.374999999999997
40
0.374999999999997
40
0.437499999999997
40
0.437499999999997
40
0.499999999999996
40
0.499999999999996
40
0.562499999999996
40
0.562499999999996
40
0.624999999999996
40
0.624999999999996
40
0.687499999999995
40
0.687499999999995
40
0.718749999999995
40
0.718749999999995
40
0.734374999999995
40
0.742187499999995
40
0.742187499999995
40
0.749999999999995
40
0.749999999999995
40
0.812499999999996
40
0.812499999999996
40
0.874999999999998
40
0.874999999999998
40
0.937499999999999
40
0.937499999999999
40
1
40
1
40
1
40
1
41
1
10
59.0631314479298
20
12.303
30
0
41
1
10
59.1393594220942
20
12.303
30
0
41
1
10
59.2155873962586
20
12.2741687203855
30
0
41
1
10
59.3680433445875
20
12.1511153015231
30
0
41
1
10
59.444271318752
20
12.0568582805008
30
0
41
1
10
59.5967272670808
20
11.7973623768173
30
0
41
1
10
59.6729552412453
20
11.6320926835348
30
0
41
1
10
59.8254111895742
20
11.2281950029402
30
0
41
1
10
59.9016391637387
20
10.9895477565099
30
0
41
1
10
60.0540951120675
20
10.4405134112216
30
0
41
1
10
60.1303230862319
20
10.1301249701848
30
0
41
1
10
60.2827790345608
20
9.44355289232701
30
0
41
1
10
60.3590070087253
20
9.06738854039355
30
0
41
1
10
60.5114629570542
20
8.25927223534185
30
0
41
1
10
60.5876909312186
20
7.82735767943757
30
0
41
1
10
60.7401468795474
20
6.92094619579132
30
0
41
1
10
60.8163748537119
20
6.44649745112437
30
0
41
1
10
60.9688308020407
20
5.47010450240916
30
0
41
1
10
61.0450587762052
20
4.96820951410018
30
0
41
1
10
61.1975147245341
20
3.95239299925439
30
0
41
1
10
61.2737426986985
20
3.43851275742344
30
0
41
1
10
61.4261986470274
20
2.41318648981735
30
0
41
1
10
61.5024266211919
20
1.9017681592911
30
0
41
1
10
61.6167685824386
20
1.14576609729323
30
0
41
1
10
61.6548825695207
20
0.895601014967696
30
0
41
1
10
61.712053550144
20
0.524082098711716
30
0
41
1
10
61.7406390404557
20
0.339252811398438
30
0
41
1
10
61.7692245307674
20
0.15598321366835
30
0
41
1
10
61.7882815243085
20
0.0341670569422661
30
0
41
1
10
61.7978100210791
20
-0.0264587352569379
30
0
41
1
10
61.883566492014
20
-0.574492951472848
30
0
41
1
10
61.9597944661785
20
-1.07340978298043
30
0
41
1
10
62.1122504145074
20
-2.08475457167981
30
0
41
1
10
62.1884783886718
20
-2.59716815385397
30
0
41
1
10
62.3409343370007
20
-3.62284915523642
30
0
41
1
10
62.4171623111652
20
-4.1360870934773
30
0
41
1
10
62.569618259494
20
-5.14879799347807
30
0
41
1
10
62.6458462336584
20
-5.64822834271371
30
0
41
1
10
62.7220742078229
20
-6.13303264969113
30
0
0
SPLINE
5
DF
100
AcDbEntity
8
1
62
256
6
ByLayer
370
13
48
1
60
0
100
AcDbSpline
70
4
71
3
72
80
73
76
40
0
40
0
40
0
40
0
40
0.0312500000000004
40
0.0312500000000004
40
0.0625000000000007
40
0.0625000000000007
40
0.0937500000000011
40
0.0937500000000011
40
0.125000000000001
40
0.125000000000001
40
0.156250000000002
40
0.156250000000002
40
0.187500000000002
40
0.187500000000002
40
0.218750000000002
40
0.218750000000002
40
0.250000000000003
40
0.250000000000003
40
0.265625000000003
40
0.265625000000003
40
0.273437500000003
40
0.273437500000003
40
0.277343750000003
40
0.277343750000003
40
0.281250000000003
40
0.281250000000003
40
0.312500000000003
40
0.312500000000003
40
0.343750000000003
40
0.343750000000003
40
0.375000000000003
40
0.375000000000003
40
0.406250000000002
40
0.406250000000002
40
0.437500000000002
40
0.437500000000002
40
0.468750000000002
40
0.468750000000002
40
0.500000000000001
40
0.500000000000001
40
0.531250000000001
40
0.531250000000001
40
0.562500000000001
40
0.562500000000001
40
0.593750000000001
40
0.593750000000001
40
0.625
40
0.625
40
0.6328125
40
0.6328125
40
0.640625
40
0.640625
40
0.65625
40
0.65625
40
0.6875
40
0.6875
40
0.71875
40
0.71875
40
0.75
40
0.75
40
0.78125
40
0.78125
40
0.8125
40
0.8125
40
0.84375
40
0.84375
40
0.875
40
0.875
40
0.90625
40
0.90625
40
0.9375
40
0.9375
40
0.96875
40
0.96875
40
1
40
1
40
1
40
1
41
1
10
51.7999999999999
20
-4.37081435324055
30
0
41
1
10
51.8784647256917
20
-4.89432844268572
30
0
41
1
10
51.9569294513835
20
-5.41194274673066
30
0
41
1
10
52.113858902767
20
-6.41862848314332
30
0
41
1
10
52.1923236284587
20
-6.90764320730196
30
0
41
1
10
52.3492530798422
20
-7.84065173921294
30
0
41
1
10
52.427717805534
20
-8.28458990044723
30
0
41
1
10
52.5846472569175
20
-9.11305680681158
30
0
41
1
10
52.6631119826093
20
-9.49754287665687
30
0
41
1
10
52.8200414339927
20
-10.1963267145678
30
0
41
1
10
52.8985061596844
20
-10.5106035848344
30
0
41
1
10
53.0554356110679
20
-11.0627827150555
30
0
41
1
10
53.1339003367597
20
-11.3006885429999
30
0
41
1
10
53.2908297881432
20
-11.698795708778
30
0
41
1
10
53.3692945138349
20
-11.8590212799792
30
0
41
1
10
53.5262239652184
20
-12.1048572609179
30
0
41
1
10
53.6046886909102
20
-12.1905044738427
30
0
41
1
10
53.7223857794478
20
-12.2679332001174
30
0
41
1
10
53.7616181422937
20
-12.2852591858929
30
0
41
1
10
53.8204666865625
20
-12.2993032302378
30
0
41
1
10
53.8400828679854
20
-12.3019947450345
30
0
41
1
10
53.8695071401198
20
-12.3031525483089
30
0
41
1
10
53.8793152308314
20
-12.3030612074982
30
0
41
1
10
53.8989314122542
20
-12.3019188587559
30
0
41
1
10
53.9087395029657
20
-12.3008660970725
30
0
41
1
10
53.9970123193689
20
-12.2869774772581
30
0
41
1
10
54.0754770450606
20
-12.24316177034
30
0
41
1
10
54.2324064964442
20
-12.0845944773511
30
0
41
1
10
54.3108712221359
20
-11.9698029696917
30
0
41
1
10
54.4678006735195
20
-11.6639600945003
30
0
41
1
10
54.5462653992112
20
-11.4728758322366
30
0
41
1
10
54.7031948505947
20
-11.0129986681678
30
0
41
1
10
54.7816595762864
20
-10.7441889789803
30
0
41
1
10
54.9385890276699
20
-10.1320672947388
30
0
41
1
10
55.0170537533617
20
-9.78876137661658
30
0
41
1
10
55.1739832047452
20
-9.03569158177842
30
0
41
1
10
55.2524479304369
20
-8.62595799876635
30
0
41
1
10
55.4093773818204
20
-7.75236851647182
30
0
41
1
10
55.4878421075121
20
-7.28856178804048
30
0
41
1
10
55.6447715588956
20
-6.32223396397279
30
0
41
1
10
55.7232362845874
20
-5.81977039996252
30
0
41
1
10
55.8801657359709
20
-4.79296434256199
30
0
41
1
10
55.9586304616626
20
-4.26867576063708
30
0
41
1
10
56.1155599130461
20
-3.21476506405375
30
0
41
1
10
56.1940246387379
20
-2.68518379189894
30
0
41
1
10
56.3509540901214
20
-1.63548894578321
30
0
41
1
10
56.4294188158132
20
-1.11539861679739
30
0
41
1
10
56.5274997229279
20
-0.478754981107869
30
0
41
1
10
56.5471159043508
20
-0.352092343801814
30
0
41
1
10
56.5863482671967
20
-0.10025721291484
30
0
41
1
10
56.6059644486196
20
0.0244099077862074
30
0
41
1
10
56.6648129928884
20
0.401251730948246
30
0
41
1
10
56.7040453557343
20
0.655526829587899
30
0
41
1
10
56.8217424442719
20
1.42555413897864
30
0
41
1
10
56.9002071699636
20
1.94859823799797
30
0
41
1
10
57.0571366213471
20
3.00144819998258
30
0
41
1
10
57.1356013470389
20
3.53122720034966
30
0
41
1
10
57.2925307984224
20
4.58233698671958
30
0
41
1
10
57.3709955241141
20
5.10362378825681
30
0
41
1
10
57.5279249754976
20
6.1210403471085
30
0
41
1
10
57.6063897011892
20
6.61711458650632
30
0
41
1
10
57.7633191525728
20
7.56741791004015
30
0
41
1
10
57.8417838782646
20
8.02159015856358
30
0
41
1
10
57.9987133296481
20
8.87315066825244
30
0
41
1
10
58.0771780553399
20
9.27049280676837
30
0
41
1
10
58.2341075067233
20
9.99679448137741
30
0
41
1
10
58.312572232415
20
10.3257283398559
30
0
41
1
10
58.4695016837985
20
10.9080656676388
30
0
41
1
10
58.5479664094903
20
11.161467937632
30
0
41
1
10
58.7048958608738
20
11.5904575238448
30
0
41
1
10
58.7833605865656
20
11.7660655051797
30
0
41
1
10
58.940290037949
20
12.0417371779155
30
0
41
1
10
59.0187547636408
20
12.1418359052473
30
0
41
1
10
59.1756842150243
20
12.2724471838573
30
0
41
1
10
59.2541489407161
20
12.303
30
0
41
1
10
59.3326136664078
20
12.303
30
0
0
SPLINE
5
E0
100
AcDbEntity
8
1
62
256
6
ByLayer
370
13
48
1
60
0
100
AcDbSpline
70
4
71
3
72
43
73
39
40
0
40
0
40
0
40
0
40
0.0625000000000004
40
0.0625000000000004
40
0.125000000000001
40
0.125000000000001
40
0.187500000000001
40
0.187500000000001
40
0.250000000000002
40
0.250000000000002
40
0.312500000000002
40
0.312500000000002
40
0.375000000000002
40
0.375000000000002
40
0.437500000000002
40
0.437500000000002
40
0.500000000000003
40
0.500000000000003
40
0.562500000000003
40
0.562500000000003
40
0.625000000000003
40
0.625000000000003
40
0.656250000000003
40
0.656250000000003
40
0.664062500000003
40
0.664062500000003
40
0.671875000000003
40
0.687500000000003
40
0.687500000000003
40
0.750000000000002
40
0.750000000000002
40
0.812500000000002
40
0.812500000000002
40
0.875000000000001
40
0.875000000000001
40
0.937500000000001
40
0.937500000000001
40
1
40
1
40
1
40
1
41
1
10
58.5789227211414
20
12.303
30
0
41
1
10
58.6652383771139
20
12.303
30
0
41
1
10
58.7515540330865
20
12.2660053966432
30
0
41
1
10
58.9241853450315
20
12.10698230999
30
0
41
1
10
59.010501001004
20
11.9848893067678
30
0
41
1
10
59.1831323129491
20
11.6483492267446
30
0
41
1
10
59.2694479689216
20
11.433849320622
30
0
41
1
10
59.4420792808667
20
10.9108465383423
30
0
41
1
10
59.5283949368392
20
10.6023200499797
30
0
41
1
10
59.7010262487843
20
9.89649972839419
30
0
41
1
10
59.7873419047569
20
9.49922368362496
30
0
41
1
10
59.9599732167019
20
8.62814972847247
30
0
41
1
10
60.0462888726745
20
8.1544110180437
30
0
41
1
10
60.2189201846195
20
7.14849820201911
30
0
41
1
10
60.305235840592
20
6.61641083437192
30
0
41
1
10
60.4778671525371
20
5.51547330844295
30
0
41
1
10
60.5641828085096
20
4.94671501334872
30
0
41
1
10
60.7368141204547
20
3.7949246238903
30
0
41
1
10
60.8231297764272
20
3.21196797783182
30
0
41
1
10
60.9957610883723
20
2.05249837058412
30
0
41
1
10
61.0820767443448
20
1.47603157231435
30
0
41
1
10
61.2115502283036
20
0.628975730844331
30
0
41
1
10
61.2547080562898
20
0.349531948061809
30
0
41
1
10
61.3086553412726
20
0.0049298624300036
30
0
41
1
10
61.3194447982693
20
-0.0637338422375535
30
0
41
1
10
61.3410237122624
20
-0.201839663775672
30
0
41
1
10
61.3733920832521
20
-0.409690889265391
30
0
41
1
10
61.4057604542418
20
-0.6195076690299
30
0
41
1
10
61.5136550242075
20
-1.32272495511649
30
0
41
1
10
61.59997068018
20
-1.89771759489904
30
0
41
1
10
61.7726019921251
20
-3.05592870950463
30
0
41
1
10
61.8589176480976
20
-3.63910388237713
30
0
41
1
10
62.0315489600427
20
-4.79328495839454
30
0
41
1
10
62.1178646160152
20
-5.36421767203416
30
0
41
1
10
62.2904959279603
20
-6.47152156018828
30
0
41
1
10
62.3768115839328
20
-7.00780154844691
30
0
41
1
10
62.5494428958778
20
-8.02393346556656
30
0
41
1
10
62.6357585518504
20
-8.50369722881953
30
0
41
1
10
62.7220742078229
20
-8.94596555392712
30
0
0
SPLINE
5
E1
100
AcDbEntity
8
1
62
256
6
ByLayer
370
13
48
1
60
0
100
AcDbSpline
70
4
71
3
72
80
73
76
40
0
40
0
40
0
40
0
40
0.0312500000000007
40
0.0312500000000007
40
0.0625000000000013
40
0.0625000000000013
40
0.093750000000002
40
0.093750000000002
40
0.125000000000003
40
0.125000000000003
40
0.156250000000003
40
0.156250000000003
40
0.187500000000004
40
0.187500000000004
40
0.218750000000004
40
0.218750000000004
40
0.222656250000004
40
0.222656250000004
40
0.226562500000004
40
0.226562500000004
40
0.234375000000005
40
0.234375000000005
40
0.250000000000005
40
0.250000000000005
40
0.281250000000005
40
0.281250000000005
40
0.312500000000005
40
0.312500000000005
40
0.343750000000005
40
0.343750000000005
40
0.375000000000005
40
0.375000000000005
40
0.406250000000005
40
0.406250000000005
40
0.437500000000005
40
0.437500000000005
40
0.468750000000005
40
0.468750000000005
40
0.500000000000005
40
0.500000000000005
40
0.531250000000006
40
0.531250000000006
40
0.562500000000006
40
0.562500000000006
40
0.593750000000006
40
0.593750000000006
40
0.609375000000006
40
0.609375000000006
40
0.617187500000006
40
0.617187500000006
40
0.625000000000006
40
0.625000000000006
40
0.656250000000005
40
0.656250000000005
40
0.687500000000005
40
0.687500000000005
40
0.718750000000004
40
0.718750000000004
40
0.750000000000004
40
0.750000000000004
40
0.781250000000003
40
0.781250000000003
40
0.812500000000003
40
0.812500000000003
40
0.843750000000002
40
0.843750000000002
40
0.875000000000002
40
0.875000000000002
40
0.906250000000001
40
0.906250000000001
40
0.937500000000001
40
0.937500000000001
40
0.96875
40
0.96875
40
1
40
1
40
1
40
1
41
1
10
51.7999999999999
20
-7.45371660083649
30
0
41
1
10
51.8734208847877
20
-7.88781411676851
30
0
41
1
10
51.9468417695754
20
-8.30177720116558
30
0
41
1
10
52.0936835391508
20
-9.07779301842581
30
0
41
1
10
52.1671044239385
20
-9.43981500487877
30
0
41
1
10
52.3139461935139
20
-10.1029893054773
30
0
41
1
10
52.3873670783016
20
-10.4041253745715
30
0
41
1
10
52.534208847877
20
-10.9400537634786
30
0
41
1
10
52.6076297326647
20
-11.1748463387453
30
0
41
1
10
52.7544715022401
20
-11.5763426733396
30
0
41
1
10
52.8278923870279
20
-11.7430612821461
30
0
41
1
10
52.9747341566033
20
-12.0101562476719
30
0
41
1
10
53.0481550413909
20
-12.1105573074121
30
0
41
1
10
53.1949968109663
20
-12.2496417790506
30
0
41
1
10
53.268417695754
20
-12.288353977261
30
0
41
1
10
53.3510161911401
20
-12.3009452629134
30
0
41
1
10
53.3601938017387
20
-12.3019152764716
30
0
41
1
10
53.3785490229357
20
-12.303011742491
30
0
41
1
10
53.387726633534
20
-12.3031393545471
30
0
41
1
10
53.4152594653294
20
-12.302270164744
30
0
41
1
10
53.4336146865263
20
-12.3000124478798
30
0
41
1
10
53.4886803501172
20
-12.2880314897508
30
0
41
1
10
53.525390792511
20
-12.2730974898177
30
0
41
1
10
53.6355221196925
20
-12.2061638854183
30
0
41
1
10
53.7089430044803
20
-12.1319636338238
30
0
41
1
10
53.8557847740557
20
-11.9188822215937
30
0
41
1
10
53.9292056588434
20
-11.7799739753311
30
0
41
1
10
54.0760474284187
20
-11.4344347278544
30
0
41
1
10
54.1494683132065
20
-11.2277841267034
30
0
41
1
10
54.2963100827818
20
-10.7469824272454
30
0
41
1
10
54.3697309675696
20
-10.472824610683
30
0
41
1
10
54.5165727371449
20
-9.86090942961343
30
0
41
1
10
54.5899936219327
20
-9.52316149817958
30
0
41
1
10
54.7368353915081
20
-8.7916147442981
30
0
41
1
10
54.8102562762958
20
-8.39784117111344
30
0
41
1
10
54.9570980458711
20
-7.5649140169364
30
0
41
1
10
55.0305189306588
20
-7.12579726120811
30
0
41
1
10
55.1773607002343
20
-6.21502577862213
30
0
41
1
10
55.250781585022
20
-5.7434124857769
30
0
41
1
10
55.3976233545973
20
-4.7814584629667
30
0
41
1
10
55.471044239385
20
-4.29115625882594
30
0
41
1
10
55.6178860089604
20
-3.30537541589334
30
0
41
1
10
55.6913068937482
20
-2.80992650970469
30
0
41
1
10
55.8381486633236
20
-1.82609931028139
30
0
41
1
10
55.9115695481112
20
-1.33773899153368
30
0
41
1
10
56.0217008752928
20
-0.618165652330163
30
0
41
1
10
56.0584113176867
20
-0.380451609164055
30
0
41
1
10
56.1134769812774
20
-0.0278860773869383
30
0
41
1
10
56.1318322024745
20
0.0887750169051742
30
0
41
1
10
56.1685426448683
20
0.324276388813075
30
0
41
1
10
56.1868978660652
20
0.442682830210686
30
0
41
1
10
56.2786739720498
20
1.03767240344166
30
0
41
1
10
56.3520948568375
20
1.52321875228577
30
0
41
1
10
56.4989366264129
20
2.50370879509177
30
0
41
1
10
56.5723575112007
20
2.99863702859153
30
0
41
1
10
56.719199280776
20
3.98603955361094
30
0
41
1
10
56.7926201655637
20
4.47848640515193
30
0
41
1
10
56.9394619351391
20
5.4475875369927
30
0
41
1
10
57.0128828199268
20
5.92420471173392
30
0
41
1
10
57.1597245895022
20
6.84780086449697
30
0
41
1
10
57.2331454742899
20
7.29473841861116
30
0
41
1
10
57.3799872438653
20
8.14582417503973
30
0
41
1
10
57.4534081286531
20
8.54993397452822
30
0
41
1
10
57.6002498982284
20
9.30413456602912
30
0
41
1
10
57.6736707830161
20
9.65419725193001
30
0
41
1
10
57.8205125525915
20
10.2920201697662
30
0
41
1
10
57.8939334373793
20
10.5797675377396
30
0
41
1
10
58.0407752069547
20
11.0882531996353
30
0
41
1
10
58.1141960917424
20
11.3089950387123
30
0
41
1
10
58.2610378613178
20
11.6824802951152
30
0
41
1
10
58.3344587461054
20
11.8352410496466
30
0
41
1
10
58.4813005156808
20
12.0751655094949
30
0
41
1
10
58.5547214004685
20
12.1623552348901
30
0
41
1
10
58.701563170044
20
12.2762580066046
30
0
41
1
10
58.7749840548317
20
12.303
30
0
41
1
10
58.8484049396194
20
12.303
30
0
0
SPLINE
5
E2
100
AcDbEntity
8
1
62
256
6
ByLayer
370
13
48
1
60
0
100
AcDbSpline
70
4
71
3
72
44
73
40
40
0
40
0
40
0
40
0
40
0.0625000000000007
40
0.0625000000000007
40
0.125000000000001
40
0.125000000000001
40
0.187500000000002
40
0.187500000000002
40
0.250000000000003
40
0.250000000000003
40
0.312500000000004
40
0.312500000000004
40
0.375000000000004
40
0.375000000000004
40
0.437500000000005
40
0.437500000000005
40
0.500000000000006
40
0.500000000000006
40
0.562500000000006
40
0.562500000000006
40
0.578125000000006
40
0.578125000000006
40
0.585937500000006
40
0.585937500000006
40
0.593750000000006
40
0.593750000000006
40
0.625000000000006
40
0.625000000000006
40
0.687500000000005
40
0.687500000000005
40
0.750000000000004
40
0.750000000000004
40
0.812500000000003
40
0.812500000000003
40
0.875000000000002
40
0.875000000000002
40
0.937500000000001
40
0.937500000000001
40
1
40
1
40
1
40
1
41
1
10
58.094713994353
20
12.303
30
0
41
1
10
58.1911173321336
20
12.303
30
0
41
1
10
58.2875206699142
20
12.2568125576703
30
0
41
1
10
58.4803273454754
20
12.0569315812203
30
0
41
1
10
58.5767306832561
20
11.9031270779215
30
0
41
1
10
58.7695373588173
20
11.4790001465406
30
0
41
1
10
58.8659406965979
20
11.2085955255325
30
0
41
1
10
59.0587473721593
20
10.5516276404226
30
0
41
1
10
59.1551507099399
20
10.1650472314336
30
0
41
1
10
59.347957385501
20
9.28708054665495
30
0
41
1
10
59.4443607232817
20
8.79576022992106
30
0
41
1
10
59.637167398843
20
7.72996980059131
30
0
41
1
10
59.7335707366236
20
7.15563432817223
30
0
41
1
10
59.9263774121848
20
5.95267469484028
30
0
41
1
10
60.0227807499655
20
5.32421134943931
30
0
41
1
10
60.2155874255267
20
4.04444766385379
30
0
41
1
10
60.3119907633073
20
3.39328554485351
30
0
41
1
10
60.5047974388685
20
2.09749920947343
30
0
41
1
10
60.6012007766492
20
1.45295877504125
30
0
41
1
10
60.7217049488749
20
0.666286996620045
30
0
41
1
10
60.7458057833201
20
0.509886657849165
30
0
41
1
10
60.7819570349878
20
0.276914679929888
30
0
41
1
10
60.7940074522105
20
0.199528556718775
30
0
41
1
10
60.8181082866556
20
0.0453339915242736
30
0
41
1
10
60.8301587038781
20
-0.0313091549424769
30
0
41
1
10
60.8904107899911
20
-0.416619671659191
30
0
41
1
10
60.9386124588814
20
-0.729523804510791
30
0
41
1
10
61.0832174655523
20
-1.67857393118689
30
0
41
1
10
61.1796208033329
20
-2.3252531985537
30
0
41
1
10
61.3724274788942
20
-3.62211789951897
30
0
41
1
10
61.4688308166748
20
-4.27221237129459
30
0
41
1
10
61.661637492236
20
-5.54618277223756
30
0
41
1
10
61.7580408300167
20
-6.16991569749189
30
0
41
1
10
61.9508475055779
20
-7.3597956842118
30
0
41
1
10
62.0472508433585
20
-7.92578235538281
30
0
41
1
10
62.2400575189198
20
-8.97186837384115
30
0
41
1
10
62.3364608567004
20
-9.45183933077723
30
0
41
1
10
62.5292675322617
20
-10.3051845903865
30
0
41
1
10
62.6256708700423
20
-10.6785026153127
30
0
41
1
10
62.7220742078229
20
-10.9934155327046
30
0
0
SPLINE
5
E3
100
AcDbEntity
8
1
62
256
6
ByLayer
370
13
48
1
60
0
100
AcDbSpline
70
4
71
3
72
80
73
76
40
0
40
0
40
0
40
0
40
0.0312499999999996
40
0.0312499999999996
40
0.0624999999999992
40
0.0624999999999992
40
0.0937499999999988
40
0.0937499999999988
40
0.124999999999998
40
0.124999999999998
40
0.156249999999998
40
0.156249999999998
40
0.164062499999998
40
0.164062499999998
40
0.171874999999998
40
0.171874999999998
40
0.187499999999998
40
0.187499999999998
40
0.218749999999998
40
0.218749999999998
40
0.249999999999998
40
0.249999999999998
40
0.281249999999998
40
0.281249999999998
40
0.312499999999999
40
0.312499999999999
40
0.343749999999999
40
0.343749999999999
40
0.374999999999999
40
0.374999999999999
40
0.406249999999999
40
0.406249999999999
40
0.437499999999999
40
0.437499999999999
40
0.468749999999999
40
0.468749999999999
40
0.499999999999999
40
0.499999999999999
40
0.531249999999999
40
0.531249999999999
40
0.5625
40
0.5625
40
0.578125
40
0.578125
40
0.582031249999999
40
0.582031249999999
40
0.585937499999999
40
0.585937499999999
40
0.593749999999999
40
0.593749999999999
40
0.624999999999999
40
0.624999999999999
40
0.65625
40
0.65625
40
0.6875
40
0.6875
40
0.71875
40
0.71875
40
0.75
40
0.75
40
0.78125
40
0.78125
40
0.8125
40
0.8125
40
0.84375
40
0.84375
40
0.875
40
0.875
40
0.90625
40
0.90625
40
0.9375
40
0.9375
40
0.96875
40
0.96875
40
1
40
1
40
1
40
1
41
1
10
51.8
20
-9.96508458870261
30
0
41
1
10
51.8683770438837
20
-10.262571414511
30
0
41
1
10
51.9367540877673
20
-10.5330704350154
30
0
41
1
10
52.0735081755346
20
-11.0161839783627
30
0
41
1
10
52.1418852194183
20
-11.2288001448558
30
0
41
1
10
52.2786393071856
20
-11.5950222047347
30
0
41
1
10
52.3470163510692
20
-11.7486390530612
30
0
41
1
10
52.4837704388366
20
-11.9983415850483
30
0
41
1
10
52.5521474827202
20
-12.0944445631105
30
0
41
1
10
52.6889015704875
20
-12.2327670357059
30
0
41
1
10
52.7572786143712
20
-12.2750066400266
30
0
41
1
10
52.8427499192258
20
-12.2974048466906
30
0
41
1
10
52.8598441801966
20
-12.3003674592118
30
0
41
1
10
52.8940327021385
20
-12.3033508092256
30
0
41
1
10
52.9111269631094
20
-12.3033832244256
30
0
41
1
10
52.9624097460222
20
-12.2991074915007
30
0
41
1
10
52.996598267964
20
-12.2903756078171
30
0
41
1
10
53.0991638337894
20
-12.2454512017265
30
0
41
1
10
53.1675408776731
20
-12.1904832288909
30
0
41
1
10
53.3042949654404
20
-12.0256414888523
30
0
41
1
10
53.3726720093241
20
-11.9157479806452
30
0
41
1
10
53.5094260970914
20
-11.6378804472584
30
0
41
1
10
53.5778031409751
20
-11.4698903556469
30
0
41
1
10
53.7145572287424
20
-11.0749400817789
30
0
41
1
10
53.782934272626
20
-10.8479709884712
30
0
41
1
10
53.9196883603934
20
-10.336846222334
30
0
41
1
10
53.988065404277
20
-10.052691477525
30
0
41
1
10
54.1248194920443
20
-9.43178091486556
30
0
41
1
10
54.1931965359279
20
-9.09503681816622
30
0
41
1
10
54.3299506236952
20
-8.37614697071942
30
0
41
1
10
54.3983276675789
20
-7.99402244459952
30
0
41
1
10
54.5350817553462
20
-7.19368363018222
30
0
41
1
10
54.6034587992299
20
-6.77549672826043
30
0
41
1
10
54.7402128869972
20
-5.91371368935282
30
0
41
1
10
54.8085899308809
20
-5.47014658628686
30
0
41
1
10
54.9453440186482
20
-4.56878786783292
30
0
41
1
10
55.0137210625318
20
-4.11102247210897
30
0
41
1
10
55.1504751502991
20
-3.19211053396688
30
0
41
1
10
55.2188521941828
20
-2.73098407244541
30
0
41
1
10
55.3556062819501
20
-1.81514599984683
30
0
41
1
10
55.4239833258338
20
-1.3604467201402
30
0
41
1
10
55.5265488916592
20
-0.689402327828333
30
0
41
1
10
55.5607374136011
20
-0.467541829628089
30
0
41
1
10
55.6034730660284
20
-0.193032590345638
30
0
41
1
10
55.6120201965138
20
-0.138271283913753
30
0
41
1
10
55.6291144574847
20
-0.0290421434835935
30
0
41
1
10
55.6376615879702
20
0.0253475329005823
30
0
41
1
10
55.6633029794266
20
0.18917134685924
30
0
41
1
10
55.6803972403975
20
0.298974940944845
30
0
41
1
10
55.765868545252
20
0.850679436341977
30
0
41
1
10
55.8342455891357
20
1.30070942841633
30
0
41
1
10
55.970999676903
20
2.21052255743982
30
0
41
1
10
56.0393767207867
20
2.67029634980284
30
0
41
1
10
56.176130808554
20
3.59035321981659
30
0
41
1
10
56.2445078524377
20
4.05061905265677
30
0
41
1
10
56.381261940205
20
4.961153816522
30
0
41
1
10
56.4496389840886
20
5.41139854289452
30
0
41
1
10
56.5863930718559
20
6.29074973440055
30
0
41
1
10
56.6547701157396
20
6.71982774627685
30
0
41
1
10
56.7915242035069
20
7.54587110992614
30
0
41
1
10
56.8599012473906
20
7.94280789753319
30
0
41
1
10
56.9966553351578
20
8.69463379430172
30
0
41
1
10
57.0650323790415
20
9.04949886972881
30
0
41
1
10
57.2017864668088
20
9.70909265837204
30
0
41
1
10
57.2701635106925
20
10.0138057851991
30
0
41
1
10
57.4069175984598
20
10.5674615937371
30
0
41
1
10
57.4752946423434
20
10.8163992652197
30
0
41
1
10
57.6120487301107
20
11.2556398477433
30
0
41
1
10
57.6804257739944
20
11.4459481923372
30
0
41
1
10
57.8171798617617
20
11.7678265602763
30
0
41
1
10
57.8855569056454
20
11.8994103350459
30
0
41
1
10
58.0223109934127
20
12.1061991429194
30
0
41
1
10
58.0906880372963
20
12.181422946579
30
0
41
1
10
58.2274421250636
20
12.2798132224758
30
0
41
1
10
58.2958191689473
20
12.303
30
0
41
1
10
58.364196212831
20
12.303
30
0
0
SPLINE
5
E4
100
AcDbEntity
8
1
62
256
6
ByLayer
370
13
48
1
60
0
100
AcDbSpline
70
4
71
3
72
71
73
67
40
0
40
0
40
0
40
0
40
0.0625
40
0.0625
40
0.0937500000000001
40
0.0937500000000001
40
0.125
40
0.125
40
0.15625
40
0.15625
40
0.1875
40
0.1875
40
0.218750000000001
40
0.218750000000001
40
0.250000000000001
40
0.250000000000001
40
0.281250000000001
40
0.281250000000001
40
0.312500000000001
40
0.312500000000001
40
0.343750000000001
40
0.343750000000001
40
0.375000000000001
40
0.375000000000001
40
0.406250000000001
40
0.406250000000001
40
0.437500000000001
40
0.437500000000001
40
0.468750000000001
40
0.468750000000001
40
0.500000000000001
40
0.500000000000001
40
0.531250000000002
40
0.531250000000002
40
0.539062500000002
40
0.539062500000002
40
0.546875000000002
40
0.562500000000002
40
0.562500000000002
40
0.593750000000001
40
0.593750000000001
40
0.625000000000001
40
0.625000000000001
40
0.656250000000001
40
0.656250000000001
40
0.687500000000001
40
0.687500000000001
40
0.718750000000001
40
0.718750000000001
40
0.750000000000001
40
0.750000000000001
40
0.781250000000001
40
0.781250000000001
40
0.812500000000001
40
0.812500000000001
40
0.843750000000001
40
0.843750000000001
40
0.875000000000001
40
0.875000000000001
40
0.90625
40
0.90625
40
0.9375
40
0.9375
40
0.96875
40
0.96875
40
1
40
1
40
1
40
1
41
1
10
57.6105052675646
20
12.303
30
0
41
1
10
57.7169962871533
20
12.303
30
0
41
1
10
57.823487306742
20
12.2465834793004
30
0
41
1
10
57.9832238361251
20
12.0623073318444
30
0
41
1
10
58.0364693459194
20
11.984325416687
30
0
41
1
10
58.1429603655081
20
11.7936018321945
30
0
41
1
10
58.1962058753025
20
11.6808551377102
30
0
41
1
10
58.3026968948913
20
11.4197312871038
30
0
41
1
10
58.3559424046856
20
11.271350405012
30
0
41
1
10
58.4624334242743
20
10.9390085522177
30
0
41
1
10
58.5156789340686
20
10.7550457221714
30
0
41
1
10
58.6221699536574
20
10.3525973194599
30
0
41
1
10
58.6754154634517
20
10.1341121609036
30
0
41
1
10
58.7819064830404
20
9.66470647968276
30
0
41
1
10
58.8351519928348
20
9.41378879662375
30
0
41
1
10
58.9416430124236
20
8.88258698111463
30
0
41
1
10
58.9948885222179
20
8.60230795740304
30
0
41
1
10
59.1013795418065
20
8.01631376656496
30
0
41
1
10
59.1546250516009
20
7.71060551862442
30
0
41
1
10
59.2611160711897
20
7.07836209554819
30
0
41
1
10
59.314361580984
20
6.7518349580148
30
0
41
1
10
59.4208526005727
20
6.08301465130234
30
0
41
1
10
59.4740981103671
20
5.74072982922735
30
0
41
1
10
59.5805891299558
20
5.0456577488504
30
0
41
1
10
59.6338346397501
20
4.69287835603393
30
0
41
1
10
59.7403256593389
20
3.98203722812701
30
0
41
1
10
59.7935711691332
20
3.62398222349319
30
0
41
1
10
59.900062188722
20
2.90754514824374
30
0
41
1
10
59.9533076985163
20
2.54916823682007
30
0
41
1
10
60.059798718105
20
1.83659798368416
30
0
41
1
10
60.1130442278994
20
1.48240803855319
30
0
41
1
10
60.2195352474881
20
0.782148856103305
30
0
41
1
10
60.2727807572824
20
0.436081286244189
30
0
41
1
10
60.3393376445254
20
0.0106272664038727
30
0
41
1
10
60.352649021974
20
-0.0740512823987842
30
0
41
1
10
60.3792717768712
20
-0.244583220180203
30
0
41
1
10
60.419205909217
20
-0.501427818785459
30
0
41
1
10
60.4591400415627
20
-0.7612008017054
30
0
41
1
10
60.5390083062543
20
-1.28402796985981
30
0
41
1
10
60.5922538160486
20
-1.63697394311691
30
0
41
1
10
60.6987448356373
20
-2.34784163438843
30
0
41
1
10
60.7519903454317
20
-2.70576028911822
30
0
41
1
10
60.8584813650204
20
-3.42216573293334
30
0
41
1
10
60.9117268748147
20
-3.78064768652649
30
0
41
1
10
61.0182178944035
20
-4.49329893846436
30
0
41
1
10
61.0714634041979
20
-4.84746177546506
30
0
41
1
10
61.1779544237866
20
-5.54629108594781
30
0
41
1
10
61.231199933581
20
-5.8909498630191
30
0
41
1
10
61.3376909531696
20
-6.56549856243657
30
0
41
1
10
61.390936462964
20
-6.89538017048966
30
0
41
1
10
61.4974274825527
20
-7.53525602796367
30
0
41
1
10
61.5506729923471
20
-7.84524211867154
30
0
41
1
10
61.6571640119358
20
-8.44061264627953
30
0
41
1
10
61.7104095217301
20
-8.72598989588033
30
0
41
1
10
61.8169005413188
20
-9.26806601012288
30
0
41
1
10
61.8701460511132
20
-9.52475938274495
30
0
41
1
10
61.976637070702
20
-10.0062214410756
30
0
41
1
10
62.0298825804963
20
-10.2309868395569
30
0
41
1
10
62.1363736000851
20
-10.646310502103
30
0
41
1
10
62.1896191098794
20
-10.8368678992988
30
0
41
1
10
62.2961101294681
20
-11.1825198182807
30
0
41
1
10
62.3493556392625
20
-11.3376157969536
30
0
41
1
10
62.4558466588512
20
-11.6121063300385
30
0
41
1
10
62.5090921686455
20
-11.7315042998017
30
0
41
1
10
62.6155831882341
20
-11.9353027286451
30
0
41
1
10
62.6688286980286
20
-12.019708016071
30
0
41
1
10
62.7220742078229
20
-12.0873747823131
30
0
0
SPLINE
5
E5
100
AcDbEntity
8
1
62
256
6
ByLayer
370
13
48
1
60
0
100
AcDbSpline
70
4
71
3
72
78
73
74
40
0
40
0
40
0
40
0
40
0.0312500000000004
40
0.0312500000000004
40
0.0625000000000008
40
0.0625000000000008
40
0.0937500000000011
40
0.0937500000000011
40
0.101562500000001
40
0.101562500000001
40
0.109375000000001
40
0.109375000000001
40
0.125000000000001
40
0.125000000000001
40
0.156250000000002
40
0.156250000000002
40
0.187500000000002
40
0.187500000000002
40
0.218750000000002
40
0.218750000000002
40
0.250000000000002
40
0.250000000000002
40
0.281250000000003
40
0.281250000000003
40
0.312500000000003
40
0.312500000000003
40
0.343750000000003
40
0.343750000000003
40
0.375000000000003
40
0.375000000000003
40
0.406250000000003
40
0.406250000000003
40
0.437500000000003
40
0.437500000000003
40
0.468750000000004
40
0.468750000000004
40
0.500000000000004
40
0.500000000000004
40
0.531250000000004
40
0.531250000000004
40
0.546875000000004
40
0.546875000000004
40
0.554687500000004
40
0.554687500000004
40
0.562500000000004
40
0.562500000000004
40
0.593750000000004
40
0.593750000000004
40
0.625000000000004
40
0.625000000000004
40
0.656250000000003
40
0.656250000000003
40
0.687500000000003
40
0.687500000000003
40
0.718750000000003
40
0.718750000000003
40
0.750000000000002
40
0.750000000000002
40
0.781250000000002
40
0.781250000000002
40
0.812500000000002
40
0.812500000000002
40
0.843750000000002
40
0.843750000000002
40
0.875000000000001
40
0.875000000000001
40
0.906250000000001
40
0.906250000000001
40
0.937500000000001
40
0.937500000000001
40
0.96875
40
0.96875
40
1
40
1
40
1
40
1
41
1
10
51.8
20
-11.598488891427
30
0
41
1
10
51.8633332029796
20
-11.7484964464852
30
0
41
1
10
51.9266664059592
20
-11.8733219644927
30
0
41
1
10
52.0533328119185
20
-12.0743670374651
30
0
41
1
10
52.116666014898
20
-12.1505991944773
30
0
41
1
10
52.2433324208573
20
-12.2577154625358
30
0
41
1
10
52.3066656238369
20
-12.2886134087999
30
0
41
1
10
52.3858321275615
20
-12.3016024458718
30
0
41
1
10
52.4016654283063
20
-12.3029206310109
30
0
41
1
10
52.4333320297961
20
-12.3030724121552
30
0
41
1
10
52.449165330541
20
-12.3019081885244
30
0
41
1
10
52.4966652327757
20
-12.2945835986238
30
0
41
1
10
52.5283318342655
20
-12.2845895214337
30
0
41
1
10
52.623331638735
20
-12.2384248682922
30
0
41
1
10
52.6866648417146
20
-12.186037196563
30
0
41
1
10
52.8133312476738
20
-12.0342012873973
30
0
41
1
10
52.8766644506534
20
-11.9347395656931
30
0
41
1
10
53.0033308566126
20
-11.6861633730152
30
0
41
1
10
53.0666640595922
20
-11.5370376350991
30
0
41
1
10
53.1933304655515
20
-11.1881938254865
30
0
41
1
10
53.256663668531
20
-10.9884687626564
30
0
41
1
10
53.3833300744903
20
-10.5394211077289
30
0
41
1
10
53.4466632774699
20
-10.2900974923302
30
0
41
1
10
53.5733296834291
20
-9.74490812546549
30
0
41
1
10
53.6366628864087
20
-9.44904815533974
30
0
41
1
10
53.7633292923679
20
-8.81583290720883
30
0
41
1
10
53.8266624953475
20
-8.47848986837954
30
0
41
1
10
53.9533289013068
20
-7.76907385744229
30
0
41
1
10
54.0166621042863
20
-7.39701803188385
30
0
41
1
10
54.1433285102456
20
-6.62621247205078
30
0
41
1
10
54.2066617132252
20
-6.22748236497105
30
0
41
1
10
54.3333281191844
20
-5.41207325321218
30
0
41
1
10
54.396661322164
20
-4.99541362612879
30
0
41
1
10
54.5233277281233
20
-4.15300377051651
30
0
41
1
10
54.5866609311029
20
-3.72727025449203
30
0
41
1
10
54.713327337062
20
-2.87513398864655
30
0
41
1
10
54.7766605400417
20
-2.4487436468977
30
0
41
1
10
54.9033269460009
20
-1.60283583512751
30
0
41
1
10
54.9666601489805
20
-1.18332579367032
30
0
41
1
10
55.0616599534499
20
-0.563988057365918
30
0
41
1
10
55.0933265549397
20
-0.359186830635338
30
0
41
1
10
55.1408264571744
20
-0.0549551706965588
30
0
41
1
10
55.1566597579193
20
0.04568911835986
30
0
41
1
10
55.1883263594091
20
0.248449743832197
30
0
41
1
10
55.204159660154
20
0.350325630499413
30
0
41
1
10
55.2833261638785
20
0.861980250297222
30
0
41
1
10
55.3466593668582
20
1.27863571543526
30
0
41
1
10
55.4733257728174
20
2.1205925829415
30
0
41
1
10
55.536658975797
20
2.54588783652153
30
0
41
1
10
55.6633253817562
20
3.39787329272986
30
0
41
1
10
55.7266585847358
20
3.82455234427656
30
0
41
1
10
55.8533249906951
20
4.671082760064
30
0
41
1
10
55.9166581936747
20
5.09091840173264
30
0
41
1
10
56.0433245996339
20
5.91497343146509
30
0
41
1
10
56.1066578026135
20
6.31917392256579
30
0
41
1
10
56.2333242085728
20
7.10312985246605
30
0
41
1
10
56.2966574115523
20
7.48286546970076
30
0
41
1
10
56.4233238175115
20
8.20961286572279
30
0
41
1
10
56.4866570204911
20
8.55660660343949
30
0
41
1
10
56.6133234264503
20
9.21072013128335
30
0
41
1
10
56.67665662943
20
9.51782622625063
30
0
41
1
10
56.8033230353892
20
10.0866286360186
30
0
41
1
10
56.8666562383688
20
10.3483174217733
30
0
41
1
10
56.993322644328
20
10.8226881523967
30
0
41
1
10
57.0566558473076
20
11.0353694036988
30
0
41
1
10
57.1833222532669
20
11.4101915271937
30
0
41
1
10
57.2466554562465
20
11.5723379884198
30
0
41
1
10
57.3733218622057
20
11.8465438408974
30
0
41
1
10
57.4366550651853
20
11.9586135886051
30
0
41
1
10
57.5633214711445
20
12.1348603705676
30
0
41
1
10
57.6266546741241
20
12.1990505159507
30
0
41
1
10
57.7533210800834
20
12.2831134068743
30
0
41
1
10
57.816654283063
20
12.303
30
0
41
1
10
57.8799874860426
20
12.303
30
0
0
SPLINE
5
E6
100
AcDbEntity
8
1
62
256
6
ByLayer
370
13
48
1
60
0
100
AcDbSpline
70
4
71
3
72
77
73
73
40
0
40
0
40
0
40
0
40
0.03125
40
0.03125
40
0.0624999999999999
40
0.0624999999999999
40
0.0937499999999999
40
0.0937499999999999
40
0.125
40
0.125
40
0.15625
40
0.15625
40
0.1875
40
0.1875
40
0.21875
40
0.21875
40
0.25
40
0.25
40
0.28125
40
0.28125
40
0.3125
40
0.3125
40
0.343749999999999
40
0.343749999999999
40
0.374999999999999
40
0.374999999999999
40
0.406249999999999
40
0.406249999999999
40
0.437499999999999
40
0.437499999999999
40
0.468749999999999
40
0.468749999999999
40
0.484374999999999
40
0.484374999999999
40
0.492187499999999
40
0.492187499999999
40
0.499999999999999
40
0.499999999999999
40
0.531249999999999
40
0.531249999999999
40
0.562499999999999
40
0.562499999999999
40
0.593749999999999
40
0.593749999999999
40
0.624999999999999
40
0.624999999999999
40
0.656249999999999
40
0.656249999999999
40
0.687499999999999
40
0.687499999999999
40
0.718749999999999
40
0.718749999999999
40
0.749999999999999
40
0.749999999999999
40
0.78125
40
0.78125
40
0.8125
40
0.8125
40
0.84375
40
0.84375
40
0.875
40
0.875
40
0.90625
40
0.90625
40
0.9375
40
0.9375
40
0.96875
40
0.96875
40
0.9765625
40
0.9765625
40
0.984375
40
1
40
1
40
1
40
1
41
1
10
57.1262965407761
20
12.303
30
0
41
1
10
57.1845858914746
20
12.303
30
0
41
1
10
57.242875242173
20
12.2861590833881
30
0
41
1
10
57.3594539435697
20
12.2152497534264
30
0
41
1
10
57.4177432942682
20
12.161172200205
30
0
41
1
10
57.534321995665
20
12.0128960607976
30
0
41
1
10
57.5926113463634
20
11.918688643946
30
0
41
1
10
57.7091900477602
20
11.6882018114529
30
0
41
1
10
57.7674793984586
20
11.5519149859333
30
0
41
1
10
57.8840580998554
20
11.236509031604
30
0
41
1
10
57.9423474505538
20
11.057385069403
30
0
41
1
10
58.0589261519506
20
10.6569232998479
30
0
41
1
10
58.1172155026491
20
10.4355842084892
30
0
41
1
10
58.2337942040459
20
9.95278465970588
30
0
41
1
10
58.2920835547442
20
9.69132702146956
30
0
41
1
10
58.408662256141
20
9.1318354986654
30
0
41
1
10
58.4669516068394
20
8.8338084973029
30
0
41
1
10
58.5835303082362
20
8.20602969104488
30
0
41
1
10
58.6418196589347
20
7.87628815453192
30
0
41
1
10
58.7583983603315
20
7.1909775247268
30
0
41
1
10
58.8166877110299
20
6.83542087535128
30
0
41
1
10
58.9332664124267
20
6.10507724955997
30
0
41
1
10
58.9915557631251
20
5.73030339172968
30
0
41
1
10
59.1081344645219
20
4.96843312683532
30
0
41
1
10
59.1664238152203
20
4.58134902049895
30
0
41
1
10
59.2830025166171
20
3.80168961724166
30
0
41
1
10
59.3412918673155
20
3.40912459065083
30
0
41
1
10
59.4578705687123
20
2.62491535439418
30
0
41
1
10
59.5161599194107
20
2.2332786258776
30
0
41
1
10
59.6327386208075
20
1.45664987771292
30
0
41
1
10
59.691027971506
20
1.07166229221897
30
0
41
1
10
59.7784619975536
20
0.502806816311903
30
0
41
1
10
59.8076066729028
20
0.314618804467528
30
0
41
1
10
59.8513236859266
20
0.0348705338836623
30
0
41
1
10
59.8658960236011
20
-0.0577796263713992
30
0
41
1
10
59.8950406989503
20
-0.244416549896243
30
0
41
1
10
59.909613036625
20
-0.338154325191312
30
0
41
1
10
59.982474724998
20
-0.808782029503533
30
0
41
1
10
60.0407640756964
20
-1.19152530856326
30
0
41
1
10
60.1573427770932
20
-1.9648598152493
30
0
41
1
10
60.2156321277915
20
-2.35544729613784
30
0
41
1
10
60.3322108291883
20
-3.13893894363812
30
0
41
1
10
60.3905001798868
20
-3.53183632301818
30
0
41
1
10
60.5070788812836
20
-4.31367879308189
30
0
41
1
10
60.565368231982
20
-4.7026142046945
30
0
41
1
10
60.6819469333787
20
-5.469774094103
30
0
41
1
10
60.7402362840771
20
-5.84798664443082
30
0
41
1
10
60.856814985474
20
-6.58677960940645
30
0
41
1
10
60.9151043361724
20
-6.94734696750388
30
0
41
1
10
61.0316830375692
20
-7.64414534051019
30
0
41
1
10
61.0899723882675
20
-7.98036361940723
30
0
41
1
10
61.2065510896644
20
-8.62236938354135
30
0
41
1
10
61.2648404403628
20
-8.92814597911988
30
0
41
1
10
61.3814191417596
20
-9.50414395368392
30
0
41
1
10
61.439708492458
20
-9.77435759056453
30
0
41
1
10
61.5562871938548
20
-10.2753594499108
30
0
41
1
10
61.6145765445532
20
-10.5061438936205
30
0
41
1
10
61.7311552459501
20
-10.9258468301328
30
0
41
1
10
61.7894445966485
20
-11.1147656949012
30
0
41
1
10
61.9060232980452
20
-11.4497778094117
30
0
41
1
10
61.9643126487436
20
-11.5958751524763
30
0
41
1
10
62.0808913501405
20
-11.8456962417615
30
0
41
1
10
62.1391807008389
20
-11.9494269060988
30
0
41
1
10
62.2557594022356
20
-12.1162093258691
30
0
41
1
10
62.3140487529341
20
-12.1792696890148
30
0
41
1
10
62.4306274543309
20
-12.2674114347969
30
0
41
1
10
62.4889168050293
20
-12.2925019756328
30
0
41
1
10
62.5617784934023
20
-12.3022747421077
30
0
41
1
10
62.5763508310769
20
-12.303151551599
30
0
41
1
10
62.6054955064261
20
-12.3028058926145
30
0
41
1
10
62.6492125194499
20
-12.2991267445478
30
0
41
1
10
62.6929295324737
20
-12.2856999735074
30
0
41
1
10
62.7220742078229
20
-12.2721951651055
30
0
0
SPLINE
5
E7
100
AcDbEntity
8
1
62
256
6
ByLayer
370
13
48
1
60
0
100
AcDbSpline
70
4
71
3
72
78
73
74
40
0
40
0
40
0
40
0
40
0.0156250000000003
40
0.0156250000000003
40
0.0234375000000003
40
0.0234375000000003
40
0.0312500000000004
40
0.0312500000000004
40
0.0625000000000005
40
0.0625000000000005
40
0.0937500000000005
40
0.0937500000000005
40
0.125000000000001
40
0.125000000000001
40
0.156250000000001
40
0.156250000000001
40
0.187500000000001
40
0.187500000000001
40
0.218750000000001
40
0.218750000000001
40
0.250000000000001
40
0.250000000000001
40
0.281250000000001
40
0.281250000000001
40
0.312500000000001
40
0.312500000000001
40
0.343750000000001
40
0.343750000000001
40
0.375000000000001
40
0.375000000000001
40
0.406250000000001
40
0.406250000000001
40
0.437500000000001
40
0.437500000000001
40
0.468750000000001
40
0.468750000000001
40
0.500000000000001
40
0.500000000000001
40
0.507812500000001
40
0.507812500000001
40
0.515625000000001
40
0.515625000000001
40
0.531250000000001
40
0.531250000000001
40
0.562500000000001
40
0.562500000000001
40
0.593750000000001
40
0.593750000000001
40
0.625000000000001
40
0.625000000000001
40
0.656250000000001
40
0.656250000000001
40
0.687500000000001
40
0.687500000000001
40
0.718750000000001
40
0.718750000000001
40
0.750000000000001
40
0.750000000000001
40
0.781250000000001
40
0.781250000000001
40
0.812500000000001
40
0.812500000000001
40
0.84375
40
0.84375
40
0.875
40
0.875
40
0.90625
40
0.90625
40
0.9375
40
0.9375
40
0.96875
40
0.96875
40
1
40
1
40
1
40
1
41
1
10
51.8
20
-12.2721946590058
30
0
41
1
10
51.8291446810378
20
-12.2856995837736
30
0
41
1
10
51.8582893620756
20
-12.2946508763975
30
0
41
1
10
51.9020063836322
20
-12.3015792134579
30
0
41
1
10
51.9165787241512
20
-12.3028058285142
30
0
41
1
10
51.9457234051889
20
-12.3031515903954
30
0
41
1
10
51.9602957457077
20
-12.3022748322213
30
0
41
1
10
52.0331574483022
20
-12.292502324755
30
0
41
1
10
52.0914468103778
20
-12.2674119955958
30
0
41
1
10
52.208025534529
20
-12.1792706765608
30
0
41
1
10
52.2663148966045
20
-12.1162105284763
30
0
41
1
10
52.3828936207556
20
-11.9494285356243
30
0
41
1
10
52.4411829828312
20
-11.8456980831293
30
0
41
1
10
52.5577617069823
20
-11.5958774070396
30
0
41
1
10
52.6160510690579
20
-11.4497802653088
30
0
41
1
10
52.732629793209
20
-11.1147685355154
30
0
41
1
10
52.7909191552846
20
-10.9258498541089
30
0
41
1
10
52.9074978794357
20
-10.5061472593532
30
0
41
1
10
52.9657872415113
20
-10.2753629740176
30
0
41
1
10
53.0823659656625
20
-9.77436140052868
30
0
41
1
10
53.140655327738
20
-9.5041478911148
30
0
41
1
10
53.2572340518892
20
-8.92815013633748
30
0
41
1
10
53.3155234139647
20
-8.62237363306943
30
0
41
1
10
53.4321021381158
20
-7.98036801622482
30
0
41
1
10
53.4903915001914
20
-7.64414979230597
30
0
41
1
10
53.6069702243425
20
-6.94735149197311
30
0
41
1
10
53.665259586418
20
-6.58678415157857
30
0
41
1
10
53.7818383105692
20
-5.84799118690293
30
0
41
1
10
53.8401276726448
20
-5.46977861918671
30
0
41
1
10
53.9567063967958
20
-4.70261866385985
30
0
41
1
10
54.0149957588714
20
-4.31368320373579
30
0
41
1
10
54.1315744830226
20
-3.53184061075223
30
0
41
1
10
54.1898638450981
20
-3.13894315698303
30
0
41
1
10
54.3064425692492
20
-2.35545134075343
30
0
41
1
10
54.3647319313248
20
-1.96486376554205
30
0
41
1
10
54.481310655476
20
-1.19152905634746
30
0
41
1
10
54.5396000175515
20
-0.808785669115537
30
0
41
1
10
54.6124617201459
20
-0.338157824525012
30
0
41
1
10
54.6270340606649
20
-0.244420020919847
30
0
41
1
10
54.6561787417027
20
-0.0577830403496478
30
0
41
1
10
54.6707510822216
20
0.0348671405369885
30
0
41
1
10
54.7144681037782
20
0.314615435106987
30
0
41
1
10
54.743612784816
20
0.502803465076482
30
0
41
1
10
54.8310468279294
20
1.07165900184597
30
0
41
1
10
54.8893361900049
20
1.45664663659511
30
0
41
1
10
55.0059149141561
20
2.23327550039767
30
0
41
1
10
55.0642042762316
20
2.62491229530087
30
0
41
1
10
55.1807830003827
20
3.40912168019918
30
0
41
1
10
55.2390723624583
20
3.80168678904539
30
0
41
1
10
55.3556510866094
20
4.58134637031591
30
0
41
1
10
55.413940448685
20
4.96843057240602
30
0
41
1
10
55.5305191728361
20
5.73030103889246
30
0
41
1
10
55.5888085349117
20
6.10507500255235
30
0
41
1
10
55.7053872590628
20
6.83541884581248
30
0
41
1
10
55.7636766211384
20
7.19097560681465
30
0
41
1
10
55.8802553452895
20
7.87628646087498
30
0
41
1
10
55.9385447073651
20
8.20602811000185
30
0
41
1
10
56.0551234315162
20
8.83380713756554
30
0
41
1
10
56.1134127935917
20
9.13183424760535
30
0
41
1
10
56.2299915177429
20
9.69132597924735
30
0
41
1
10
56.2882808798185
20
9.95278371763229
30
0
41
1
10
56.4048596039697
20
10.4355834543355
30
0
41
1
10
56.4631489660451
20
10.6569226334577
30
0
41
1
10
56.5797276901963
20
11.0573845633359
30
0
41
1
10
56.6380170522718
20
11.236508598094
30
0
41
1
10
56.754595776423
20
11.5519146806962
30
0
41
1
10
56.8128851384986
20
11.6882015619341
30
0
41
1
10
56.9294638626497
20
11.9186884885782
30
0
41
1
10
56.9877532247252
20
12.0128959438687
30
0
41
1
10
57.1043319488763
20
12.1611721434869
30
0
41
1
10
57.1626213109519
20
12.2152497184886
30
0
41
1
10
57.2792000351031
20
12.2861590768049
30
0
41
1
10
57.3374893971786
20
12.303
30
0
41
1
10
57.3957787592541
20
12.303
30
0
0
SPLINE
5
E8
100
AcDbEntity
8
1
62
256
6
ByLayer
370
13
48
1
60
0
100
AcDbSpline
70
4
71
3
72
78
73
74
40
0
40
0
40
0
40
0
40
0.0312500000000001
40
0.0312500000000001
40
0.0625000000000002
40
0.0625000000000002
40
0.0937500000000004
40
0.0937500000000004
40
0.125000000000001
40
0.125000000000001
40
0.156250000000001
40
0.156250000000001
40
0.187500000000001
40
0.187500000000001
40
0.218750000000001
40
0.218750000000001
40
0.250000000000001
40
0.250000000000001
40
0.281250000000001
40
0.281250000000001
40
0.312500000000002
40
0.312500000000002
40
0.343750000000002
40
0.343750000000002
40
0.375000000000002
40
0.375000000000002
40
0.406250000000002
40
0.406250000000002
40
0.437500000000002
40
0.437500000000002
40
0.445312500000002
40
0.445312500000002
40
0.453125000000002
40
0.453125000000002
40
0.468750000000002
40
0.468750000000002
40
0.500000000000002
40
0.500000000000002
40
0.531250000000002
40
0.531250000000002
40
0.562500000000002
40
0.562500000000002
40
0.593750000000002
40
0.593750000000002
40
0.625000000000001
40
0.625000000000001
40
0.656250000000001
40
0.656250000000001
40
0.687500000000001
40
0.687500000000001
40
0.718750000000001
40
0.718750000000001
40
0.750000000000001
40
0.750000000000001
40
0.781250000000001
40
0.781250000000001
40
0.8125
40
0.8125
40
0.84375
40
0.84375
40
0.875
40
0.875
40
0.890625
40
0.890625
40
0.8984375
40
0.8984375
40
0.90625
40
0.90625
40
0.9375
40
0.9375
40
0.96875
40
0.96875
40
1
40
1
40
1
40
1
41
1
10
56.6420878139877
20
12.303
30
0
41
1
10
56.7054210055902
20
12.303
30
0
41
1
10
56.7687541971927
20
12.2831134140312
30
0
41
1
10
56.8954205803975
20
12.199050554097
30
0
41
1
10
56.958753772
20
12.134860432559
30
0
41
1
10
57.0854201552049
20
11.9586137165793
30
0
41
1
10
57.1487533468074
20
11.8465440110208
30
0
41
1
10
57.2754197300123
20
11.5723382616208
30
0
41
1
10
57.3387529216147
20
11.4101918613305
30
0
41
1
10
57.4654193048196
20
11.0353698775573
30
0
41
1
10
57.528752496422
20
10.8226887050419
30
0
41
1
10
57.655418879627
20
10.3483181473655
30
0
41
1
10
57.7187520712295
20
10.0866294557643
30
0
41
1
10
57.8454184544344
20
9.5178272457361
30
0
41
1
10
57.9087516460368
20
9.210721256341
30
0
41
1
10
58.0354180292416
20
8.55660794598222
30
0
41
1
10
58.0987512208441
20
8.20961432015937
30
0
41
1
10
58.225417604049
20
7.48286714852918
30
0
41
1
10
58.2887507956515
20
7.10313164377186
30
0
41
1
10
58.4154171788563
20
6.31917593366018
30
0
41
1
10
58.4787503704588
20
5.91497554985233
30
0
41
1
10
58.6054167536637
20
5.09092072433634
30
0
41
1
10
58.6687499452662
20
4.67108517957826
30
0
41
1
10
58.7954163284711
20
3.82455494308903
30
0
41
1
10
58.8587495200735
20
3.3978759739239
30
0
41
1
10
58.9854159032784
20
2.54589066514376
30
0
41
1
10
59.0487490948809
20
2.12059547661096
30
0
41
1
10
59.1754154780857
20
1.27863872047374
30
0
41
1
10
59.2387486696882
20
0.861983301663486
30
0
41
1
10
59.3179151591912
20
0.350328728025289
30
0
41
1
10
59.3337484570918
20
0.248452850005407
30
0
41
1
10
59.3654150528931
20
0.045692240668302
30
0
41
1
10
59.3812483507937
20
-0.0549520293896819
30
0
41
1
10
59.4287482444955
20
-0.359183603784459
30
0
41
1
10
59.4604148402968
20
-0.56398477441121
30
0
41
1
10
59.5554146277004
20
-1.18332234638956
30
0
41
1
10
59.6187478193028
20
-1.60283228359592
30
0
41
1
10
59.7454142025078
20
-2.44873990441354
30
0
41
1
10
59.8087473941102
20
-2.87513015948181
30
0
41
1
10
59.9354137773152
20
-3.7272662767021
30
0
41
1
10
59.9987469689176
20
-4.15299973080781
30
0
41
1
10
60.1254133521225
20
-4.99540949400142
30
0
41
1
10
60.188746543725
20
-5.41206909061174
30
0
41
1
10
60.3154129269299
20
-6.22747817821741
30
0
41
1
10
60.3787461185323
20
-6.62620829163978
30
0
41
1
10
60.5054125017372
20
-7.39701390425495
30
0
41
1
10
60.5687456933397
20
-7.76906977626641
30
0
41
1
10
60.6954120765445
20
-8.47848592087729
30
0
41
1
10
60.758745268147
20
-8.8158290469282
30
0
41
1
10
60.8854116513519
20
-9.44904450807709
30
0
41
1
10
60.9487448429543
20
-9.74490460398695
30
0
41
1
10
61.0754112261592
20
-10.2900942561065
30
0
41
1
10
61.1387444177616
20
-10.5394180309526
30
0
41
1
10
61.2654108009665
20
-10.9884660314198
30
0
41
1
10
61.328743992569
20
-11.1881912803127
30
0
41
1
10
61.4554103757739
20
-11.5370354803039
30
0
41
1
10
61.5187435673764
20
-11.686161422506
30
0
41
1
10
61.6454099505813
20
-11.9347380331741
30
0
41
1
10
61.7087431421837
20
-12.0341999685571
30
0
41
1
10
61.8354095253886
20
-12.186036306063
30
0
41
1
10
61.8987427169911
20
-12.2384241924359
30
0
41
1
10
61.9937425043947
20
-12.2845891627468
30
0
41
1
10
62.025409100196
20
-12.2945833448707
30
0
41
1
10
62.0729089938978
20
-12.3019080903989
30
0
41
1
10
62.0887422917984
20
-12.3030723655194
30
0
41
1
10
62.1204088875996
20
-12.3029206870502
30
0
41
1
10
62.1362421855002
20
-12.3016025544786
30
0
41
1
10
62.2154086750034
20
-12.2886137863692
30
0
41
1
10
62.2787418666058
20
-12.2577160749856
30
0
41
1
10
62.4054082498107
20
-12.1506003138341
30
0
41
1
10
62.4687414414131
20
-12.0743684288595
30
0
41
1
10
62.595407824618
20
-11.8733239318526
30
0
41
1
10
62.6587410162205
20
-11.7484987177718
30
0
41
1
10
62.7220742078229
20
-11.5984914783671
30
0
0
SPLINE
5
E9
100
AcDbEntity
8
1
62
256
6
ByLayer
370
13
48
1
60
0
100
AcDbSpline
70
4
71
3
72
72
73
68
40
0
40
0
40
0
40
0
40
0.03125
40
0.03125
40
0.0625
40
0.0625
40
0.0937499999999999
40
0.0937499999999999
40
0.125
40
0.125
40
0.15625
40
0.15625
40
0.1875
40
0.1875
40
0.21875
40
0.21875
40
0.25
40
0.25
40
0.28125
40
0.28125
40
0.3125
40
0.3125
40
0.34375
40
0.34375
40
0.375
40
0.375
40
0.40625
40
0.40625
40
0.4375
40
0.4375
40
0.453125
40
0.453125
40
0.4609375
40
0.4609375
40
0.46875
40
0.46875
40
0.5
40
0.5
40
0.53125
40
0.53125
40
0.5625
40
0.5625
40
0.59375
40
0.59375
40
0.625
40
0.625
40
0.65625
40
0.65625
40
0.6875
40
0.6875
40
0.71875
40
0.71875
40
0.75
40
0.75
40
0.78125
40
0.78125
40
0.8125
40
0.8125
40
0.84375
40
0.84375
40
0.875
40
0.875
40
0.90625
40
0.90625
40
0.9375
40
0.9375
40
1
40
1
40
1
40
1
41
1
10
51.8
20
-12.0873761703366
30
0
41
1
10
51.8532455211715
20
-12.0197096181252
30
0
41
1
10
51.9064910423431
20
-11.9353045439823
30
0
41
1
10
52.0129820846861
20
-11.7315065342702
30
0
41
1
10
52.0662276058576
20
-11.612108770343
30
0
41
1
10
52.1727186482006
20
-11.3376186352693
30
0
41
1
10
52.2259641693722
20
-11.182522848757
30
0
41
1
10
52.3324552117152
20
-10.8368712943509
30
0
41
1
10
52.3857007328867
20
-10.6463140695553
30
0
41
1
10
52.4921917752298
20
-10.2309907265725
30
0
41
1
10
52.5454372964013
20
-10.0062254752408
30
0
41
1
10
52.6519283387443
20
-9.5247636815113
30
0
41
1
10
52.7051738599158
20
-9.26807042633055
30
0
41
1
10
52.8116649022589
20
-8.72599451420427
30
0
41
1
10
52.8649104234304
20
-8.4406173492732
30
0
41
1
10
52.9714014657734
20
-7.84524695679872
30
0
41
1
10
53.0246469869449
20
-7.53526091655505
30
0
41
1
10
53.131138029288
20
-6.89538512606697
30
0
41
1
10
53.1843835504595
20
-6.56550353454139
30
0
41
1
10
53.2908745928025
20
-5.89095483610805
30
0
41
1
10
53.344120113974
20
-5.54629604350347
30
0
41
1
10
53.4506111563171
20
-4.84746667312009
30
0
41
1
10
53.5038566774886
20
-4.49330379176476
30
0
41
1
10
53.6103477198316
20
-3.78065242653625
30
0
41
1
10
53.6635932410031
20
-3.42217040402059
30
0
41
1
10
53.7700842833462
20
-2.70576480264742
30
0
41
1
10
53.8233298045177
20
-2.3478460592946
30
0
41
1
10
53.9298208468607
20
-1.63697817615008
30
0
41
1
10
53.9830663680323
20
-1.28403209965342
30
0
41
1
10
54.0629346497895
20
-0.761204769384875
30
0
41
1
10
54.0895574103753
20
-0.588022725522364
30
0
41
1
10
54.1294915512539
20
-0.330202131100094
30
0
41
1
10
54.1428029315468
20
-0.244587020041735
30
0
41
1
10
54.1694256921326
20
-0.0740550252399998
30
0
41
1
10
54.1827370724255
20
0.0106235494736495
30
0
41
1
10
54.2492939738898
20
0.436077608673458
30
0
41
1
10
54.3025394950614
20
0.782145217829282
30
0
41
1
10
54.4090305374044
20
1.48240449473579
30
0
41
1
10
54.4622760585759
20
1.83659449503054
30
0
41
1
10
54.5687671009189
20
2.54916487388806
30
0
41
1
10
54.6220126220905
20
2.90754185587164
30
0
41
1
10
54.7285036644336
20
3.62397908634992
30
0
41
1
10
54.7817491856051
20
3.9820341756523
30
0
41
1
10
54.888240227948
20
4.69287548487682
30
0
41
1
10
54.9414857491196
20
5.04565497433902
30
0
41
1
10
55.0479767914626
20
5.74072725707023
30
0
41
1
10
55.1012223126342
20
6.08301218484749
30
0
41
1
10
55.2077133549772
20
6.75183270846404
30
0
41
1
10
55.2609588761487
20
7.07835995719054
30
0
41
1
10
55.3674499184918
20
7.71060360416968
30
0
41
1
10
55.4206954396632
20
8.01631196480986
30
0
41
1
10
55.5271864820063
20
8.60230637844745
30
0
41
1
10
55.5804320031778
20
8.88258551224865
30
0
41
1
10
55.6869230455209
20
9.41378754139797
30
0
41
1
10
55.7401685666924
20
9.66470532799855
30
0
41
1
10
55.8466596090354
20
10.1341112062958
30
0
41
1
10
55.8999051302069
20
10.3525964583803
30
0
41
1
10
56.0063961725499
20
10.755045035384
30
0
41
1
10
56.0596416937215
20
10.9390079461907
30
0
41
1
10
56.1661327360645
20
11.2713499458486
30
0
41
1
10
56.219378257236
20
11.4197308940434
30
0
41
1
10
56.325869299579
20
11.6808548612271
30
0
41
1
10
56.3791148207506
20
11.7936016061884
30
0
41
1
10
56.4856058630937
20
11.9843252759196
30
0
41
1
10
56.5388513842652
20
12.0623072258434
30
0
41
1
10
56.6985879477797
20
12.2465834550527
30
0
41
1
10
56.8050789901227
20
12.303
30
0
41
1
10
56.9115700324658
20
12.303
30
0
0
SPLINE
5
EA
100
AcDbEntity
8
1
62
256
6
ByLayer
370
13
48
1
60
0
100
AcDbSpline
70
4
71
3
72
79
73
75
40
0
40
0
40
0
40
0
40
0.0312500000000003
40
0.0312500000000003
40
0.0625000000000007
40
0.0625000000000007
40
0.093750000000001
40
0.093750000000001
40
0.125000000000001
40
0.125000000000001
40
0.156250000000002
40
0.156250000000002
40
0.187500000000002
40
0.187500000000002
40
0.218750000000002
40
0.218750000000002
40
0.250000000000003
40
0.250000000000003
40
0.281250000000003
40
0.281250000000003
40
0.312500000000003
40
0.312500000000003
40
0.343750000000004
40
0.343750000000004
40
0.375000000000004
40
0.375000000000004
40
0.406250000000004
40
0.406250000000004
40
0.414062500000004
40
0.414062500000004
40
0.417968750000004
40
0.417968750000004
40
0.421875000000004
40
0.437500000000004
40
0.437500000000004
40
0.468750000000004
40
0.468750000000004
40
0.500000000000004
40
0.500000000000004
40
0.531250000000004
40
0.531250000000004
40
0.562500000000003
40
0.562500000000003
40
0.593750000000003
40
0.593750000000003
40
0.625000000000003
40
0.625000000000003
40
0.656250000000003
40
0.656250000000003
40
0.687500000000002
40
0.687500000000002
40
0.718750000000002
40
0.718750000000002
40
0.750000000000002
40
0.750000000000002
40
0.781250000000002
40
0.781250000000002
40
0.812500000000001
40
0.812500000000001
40
0.828125000000001
40
0.828125000000001
40
0.835937500000001
40
0.835937500000001
40
0.843750000000001
40
0.843750000000001
40
0.875000000000001
40
0.875000000000001
40
0.906250000000001
40
0.906250000000001
40
0.937500000000001
40
0.937500000000001
40
0.96875
40
0.96875
40
1
40
1
40
1
40
1
41
1
10
56.1578790871994
20
12.303
30
0
41
1
10
56.2262561197059
20
12.303
30
0
41
1
10
56.2946331522123
20
12.2798132302074
30
0
41
1
10
56.4313872172253
20
12.1814229879606
30
0
41
1
10
56.4997642497318
20
12.1061992102363
30
0
41
1
10
56.6365183147448
20
11.8994104741727
30
0
41
1
10
56.7048953472514
20
11.7678267452921
30
0
41
1
10
56.8416494122643
20
11.4459484893335
30
0
41
1
10
56.9100264447708
20
11.2556402108391
30
0
41
1
10
57.0467805097838
20
10.8163997791393
30
0
41
1
10
57.1151575422903
20
10.5674621923789
30
0
41
1
10
57.2519116073033
20
10.0138065683873
30
0
41
1
10
57.3202886398098
20
9.70909354137123
30
0
41
1
10
57.4570427048227
20
9.04949996220947
30
0
41
1
10
57.5254197373293
20
8.69463499643012
30
0
41
1
10
57.6621738023422
20
7.94280932240505
30
0
41
1
10
57.7305508348488
20
7.54587264786593
30
0
41
1
10
57.8673048998618
20
6.71982950699763
30
0
41
1
10
57.9356819323682
20
6.29075160480775
30
0
41
1
10
58.0724359973813
20
5.41140062296554
30
0
41
1
10
58.1408130298877
20
4.96115599655039
30
0
41
1
10
58.2775670949007
20
4.0506214177064
30
0
41
1
10
58.3459441274072
20
3.5903556699198
30
0
41
1
10
58.4826981924202
20
2.67029895156981
30
0
41
1
10
58.5510752249268
20
2.21052522581675
30
0
41
1
10
58.6878292899397
20
1.30071220981065
30
0
41
1
10
58.7562063224462
20
0.850682264151516
30
0
41
1
10
58.8416776130793
20
0.298977814088801
30
0
41
1
10
58.8587718712059
20
0.189174228439526
30
0
41
1
10
58.8844132583959
20
0.0253504261986279
30
0
41
1
10
58.8929603874591
20
-0.0290392407905529
30
0
41
1
10
58.9100546455858
20
-0.138268352597834
30
0
41
1
10
58.9527902909024
20
-0.412073702502823
30
0
41
1
10
58.9955259362189
20
-0.689399255654024
30
0
41
1
10
59.0980914849787
20
-1.36044348554171
30
0
41
1
10
59.1664685174852
20
-1.81514266310273
30
0
41
1
10
59.3032225824981
20
-2.73098055186398
30
0
41
1
10
59.3715996150046
20
-3.19210693172391
30
0
41
1
10
59.5083536800176
20
-4.1110187353213
30
0
41
1
10
59.5767307125241
20
-4.56878407819804
30
0
41
1
10
59.7134847775371
20
-5.47014272715487
30
0
41
1
10
59.7818618100436
20
-5.91370981360606
30
0
41
1
10
59.9186158750566
20
-6.77549286089942
30
0
41
1
10
59.9869929075631
20
-7.19367978784788
30
0
41
1
10
60.1237469725761
20
-7.99401869639928
30
0
41
1
10
60.1921240050826
20
-8.37614329163662
30
0
41
1
10
60.3288780700955
20
-9.09503332034305
30
0
41
1
10
60.3972551026021
20
-9.43177752917518
30
0
41
1
10
60.5340091676151
20
-10.0526883545298
30
0
41
1
10
60.6023862001215
20
-10.3368432498742
30
0
41
1
10
60.7391402651345
20
-10.8479683479367
30
0
41
1
10
60.8075172976411
20
-11.0749376225962
30
0
41
1
10
60.9442713626541
20
-11.4698882804766
30
0
41
1
10
61.0126483951605
20
-11.637878574708
30
0
41
1
10
61.1494024601736
20
-11.9157465243457
30
0
41
1
10
61.2177794926801
20
-12.0256402461485
30
0
41
1
10
61.354533557693
20
-12.1904824145078
30
0
41
1
10
61.4229105901996
20
-12.2454506020438
30
0
41
1
10
61.5254761389593
20
-12.2903753246134
30
0
41
1
10
61.5596646552125
20
-12.299107312874
30
0
41
1
10
61.6109474295924
20
-12.303383200619
30
0
41
1
10
61.628041687719
20
-12.3033508362768
30
0
41
1
10
61.6622302039722
20
-12.3003675915008
30
0
41
1
10
61.6793244620989
20
-12.2974050329243
30
0
41
1
10
61.764795752732
20
-12.2750071025696
30
0
41
1
10
61.8331727852385
20
-12.2327677405116
30
0
41
1
10
61.9699268502514
20
-12.094445791585
30
0
41
1
10
62.0383038827579
20
-11.9983430949407
30
0
41
1
10
62.1750579477709
20
-11.7486411578108
30
0
41
1
10
62.2434349802774
20
-11.5950246229159
30
0
41
1
10
62.3801890452905
20
-11.228803210836
30
0
41
1
10
62.4485660777969
20
-11.0161873786793
30
0
41
1
10
62.58532014281
20
-10.5330745104607
30
0
41
1
10
62.6536971753164
20
-10.2625758306963
30
0
41
1
10
62.7220742078229
20
-9.96508934054825
30
0
0
SPLINE
5
EB
100
AcDbEntity
8
1
62
256
6
ByLayer
370
13
48
1
60
0
100
AcDbSpline
70
4
71
3
72
43
73
39
40
0
40
0
40
0
40
0
40
0.0625000000000002
40
0.0625000000000002
40
0.125
40
0.125
40
0.187500000000001
40
0.187500000000001
40
0.250000000000001
40
0.250000000000001
40
0.312500000000001
40
0.312500000000001
40
0.375000000000001
40
0.375000000000001
40
0.406250000000001
40
0.406250000000001
40
0.414062500000001
40
0.414062500000001
40
0.421875000000001
40
0.437500000000001
40
0.437500000000001
40
0.500000000000001
40
0.500000000000001
40
0.562500000000001
40
0.562500000000001
40
0.625000000000001
40
0.625000000000001
40
0.687500000000001
40
0.687500000000001
40
0.750000000000001
40
0.750000000000001
40
0.812500000000001
40
0.812500000000001
40
0.875
40
0.875
40
0.9375
40
0.9375
40
1
40
1
40
1
40
1
41
1
10
51.8
20
-10.9934191005269
30
0
41
1
10
51.8964033605349
20
-10.6785065464714
30
0
41
1
10
51.9928067210699
20
-10.3051888484064
30
0
41
1
10
52.1856134421397
20
-9.45184413652814
30
0
41
1
10
52.2820168026747
20
-8.97187340023353
30
0
41
1
10
52.4748235237446
20
-7.92578769922022
30
0
41
1
10
52.5712268842795
20
-7.35980112481906
30
0
41
1
10
52.7640336053494
20
-6.16992121004665
30
0
41
1
10
52.8604369658844
20
-5.54618826013777
30
0
41
1
10
53.0532436869544
20
-4.27221770853689
30
0
41
1
10
53.1496470474892
20
-3.62212311103554
30
0
41
1
10
53.3424537685591
20
-2.32525808841044
30
0
41
1
10
53.4388571290941
20
-1.67857862537443
30
0
41
1
10
53.5834621698965
20
-0.729528177617624
30
0
41
1
10
53.6316638501639
20
-0.416623933134929
30
0
41
1
10
53.6919159504983
20
-0.0313132734847841
30
0
41
1
10
53.7039663705651
20
0.0453298891213194
30
0
41
1
10
53.7280672106989
20
0.199524470263242
30
0
41
1
10
53.7642184708995
20
0.431682427251161
30
0
41
1
10
53.8003697311001
20
0.666282964647081
30
0
41
1
10
53.9208739317688
20
1.45295484948244
30
0
41
1
10
54.0172772923037
20
2.09749539804119
30
0
41
1
10
54.2100840133736
20
3.39328201594125
30
0
41
1
10
54.3064873739086
20
4.04444430335232
30
0
41
1
10
54.4992940949785
20
5.32420836655825
30
0
41
1
10
54.5956974555134
20
5.95267192107707
30
0
41
1
10
54.7885041765833
20
7.15563199105884
30
0
41
1
10
54.8849075371182
20
7.72996769082039
30
0
41
1
10
55.0777142581881
20
8.79575856627392
30
0
41
1
10
55.1741176187231
20
9.28707910157144
30
0
41
1
10
55.366924339793
20
10.1650461897727
30
0
41
1
10
55.4633277003279
20
10.5516267834662
30
0
41
1
10
55.6561344213978
20
11.2085949868968
30
0
41
1
10
55.7525377819327
20
11.4789997414851
30
0
41
1
10
55.9453445030026
20
11.9031268823305
30
0
41
1
10
56.0417478635376
20
12.0569314615869
30
0
41
1
10
56.2345545846075
20
12.2568125357685
30
0
41
1
10
56.3309579451425
20
12.303
30
0
41
1
10
56.4273613056774
20
12.303
30
0
0
SPLINE
5
EC
100
AcDbEntity
8
1
62
256
6
ByLayer
370
13
48
1
60
0
100
AcDbSpline
70
4
71
3
72
80
73
76
40
0
40
0
40
0
40
0
40
0.0312500000000002
40
0.0312500000000002
40
0.0625000000000004
40
0.0625000000000004
40
0.0937500000000007
40
0.0937500000000007
40
0.125000000000001
40
0.125000000000001
40
0.156250000000001
40
0.156250000000001
40
0.187500000000001
40
0.187500000000001
40
0.218750000000002
40
0.218750000000002
40
0.250000000000002
40
0.250000000000002
40
0.281250000000002
40
0.281250000000002
40
0.312500000000002
40
0.312500000000002
40
0.343750000000002
40
0.343750000000002
40
0.375000000000002
40
0.375000000000002
40
0.382812500000002
40
0.382812500000002
40
0.390625000000002
40
0.390625000000002
40
0.406250000000002
40
0.406250000000002
40
0.437500000000002
40
0.437500000000002
40
0.468750000000001
40
0.468750000000001
40
0.500000000000001
40
0.500000000000001
40
0.531250000000001
40
0.531250000000001
40
0.5625
40
0.5625
40
0.59375
40
0.59375
40
0.624999999999999
40
0.624999999999999
40
0.656249999999999
40
0.656249999999999
40
0.687499999999998
40
0.687499999999998
40
0.718749999999998
40
0.718749999999998
40
0.749999999999998
40
0.749999999999998
40
0.765624999999997
40
0.765624999999997
40
0.773437499999997
40
0.773437499999997
40
0.777343749999997
40
0.777343749999997
40
0.781249999999997
40
0.781249999999997
40
0.812499999999997
40
0.812499999999997
40
0.843749999999998
40
0.843749999999998
40
0.874999999999998
40
0.874999999999998
40
0.906249999999999
40
0.906249999999999
40
0.937499999999999
40
0.937499999999999
40
0.96875
40
0.96875
40
1
40
1
40
1
40
1
41
1
10
55.6736703604109
20
12.303
30
0
41
1
10
55.7470912338215
20
12.303
30
0
41
1
10
55.8205121072321
20
12.276258014912
30
0
41
1
10
55.9673538540531
20
12.1623552795332
30
0
41
1
10
56.0407747274637
20
12.0751655821886
30
0
41
1
10
56.1876164742847
20
11.8352412000223
30
0
41
1
10
56.2610373476952
20
11.6824804951407
30
0
41
1
10
56.4078790945163
20
11.3089953595578
30
0
41
1
10
56.4812999679269
20
11.0882535916594
30
0
41
1
10
56.628141714748
20
10.5797680912431
30
0
41
1
10
56.7015625881585
20
10.2920208135635
30
0
41
1
10
56.8484043349796
20
9.65419809066998
30
0
41
1
10
56.9218252083902
20
9.30413550939511
30
0
41
1
10
57.0686669552113
20
8.54993513481287
30
0
41
1
10
57.1420878286218
20
8.14582544758292
30
0
41
1
10
57.2889295754429
20
7.29473991560303
30
0
41
1
10
57.3623504488534
20
6.84780247364193
30
0
41
1
10
57.5091921956745
20
5.92420653743767
30
0
41
1
10
57.5826130690851
20
5.44758946707128
30
0
41
1
10
57.7294548159061
20
4.47848852966507
30
0
41
1
10
57.8028756893166
20
3.98604176816553
30
0
41
1
10
57.9497174361377
20
2.99863940421739
30
0
41
1
10
58.0231383095483
20
2.50371124174376
30
0
41
1
10
58.1699800563694
20
1.5232213194846
30
0
41
1
10
58.2434009297799
20
1.03767502016981
30
0
41
1
10
58.3351770215431
20
0.442685495173038
30
0
41
1
10
58.3535322398957
20
0.324279062743045
30
0
41
1
10
58.390242676601
20
0.0887777074235601
30
0
41
1
10
58.4085978949536
20
-0.0278833742742108
30
0
41
1
10
58.4636635500115
20
-0.38044882045736
30
0
41
1
10
58.5003739867168
20
-0.618162807624742
30
0
41
1
10
58.6105052968326
20
-1.33773598365508
30
0
41
1
10
58.6839261702431
20
-1.82609620003356
30
0
41
1
10
58.8307679170642
20
-2.80992321696905
30
0
41
1
10
58.9041887904748
20
-3.30537204307953
30
0
41
1
10
59.0510305372959
20
-4.29115275767717
30
0
41
1
10
59.1244514107065
20
-4.78145491360925
30
0
41
1
10
59.2712931575275
20
-5.74340888013094
30
0
41
1
10
59.344714030938
20
-6.2150221649417
30
0
41
1
10
59.4915557777592
20
-7.12579367718573
30
0
41
1
10
59.5649766511697
20
-7.56491047063665
30
0
41
1
10
59.7118183979907
20
-8.39783774769666
30
0
41
1
10
59.7852392714013
20
-8.79161140604671
30
0
41
1
10
59.9320810182224
20
-9.52315837496127
30
0
41
1
10
60.005501891633
20
-9.86090643624019
30
0
41
1
10
60.152343638454
20
-10.4728219147817
30
0
41
1
10
60.2257645118645
20
-10.7469798989267
30
0
41
1
10
60.3726062586856
20
-11.2277819612606
30
0
41
1
10
60.4460271320962
20
-11.4344327576509
30
0
41
1
10
60.5928688789172
20
-11.7799724116213
30
0
41
1
10
60.6662897523277
20
-11.9188808690877
30
0
41
1
10
60.8131314991489
20
-12.1319627080377
30
0
41
1
10
60.8865523725594
20
-12.2061631751113
30
0
41
1
10
60.9966836826751
20
-12.2730970981923
30
0
41
1
10
61.0333941193805
20
-12.2880312036104
30
0
41
1
10
61.0884597744384
20
-12.3000123180359
30
0
41
1
10
61.106814992791
20
-12.3022700866782
30
0
41
1
10
61.1343478203199
20
-12.3031393535758
30
0
41
1
10
61.1435254294963
20
-12.3030117671099
30
0
41
1
10
61.1618806478489
20
-12.3019153532843
30
0
41
1
10
61.1710582570252
20
-12.300945366179
30
0
41
1
10
61.253656739612
20
-12.2883543217986
30
0
41
1
10
61.3270776130227
20
-12.2496423609586
30
0
41
1
10
61.4739193598437
20
-12.1105584065778
30
0
41
1
10
61.5473402332543
20
-12.0101576267416
30
0
41
1
10
61.6941819800754
20
-11.7430632555437
30
0
41
1
10
61.7676028534859
20
-11.5763449611509
30
0
41
1
10
61.914444600307
20
-11.1748492769992
30
0
41
1
10
61.9878654737175
20
-10.9400570377183
30
0
41
1
10
62.1347072205386
20
-10.4041293253683
30
0
41
1
10
62.2081280939491
20
-10.1029935967731
30
0
41
1
10
62.3549698407702
20
-9.43981996235951
30
0
41
1
10
62.4283907141808
20
-9.07779830150477
30
0
41
1
10
62.5752324610019
20
-8.30178310132686
30
0
41
1
10
62.6486533344124
20
-7.88782030833144
30
0
41
1
10
62.7220742078229
20
-7.45372305845976
30
0
0
SPLINE
5
ED
100
AcDbEntity
8
1
62
256
6
ByLayer
370
13
48
1
60
0
100
AcDbSpline
70
4
71
3
72
43
73
39
40
0
40
0
40
0
40
0
40
0.0625
40
0.0625
40
0.125
40
0.125
40
0.1875
40
0.1875
40
0.25
40
0.25
40
0.3125
40
0.3125
40
0.328125
40
0.3359375
40
0.3359375
40
0.34375
40
0.34375
40
0.375
40
0.375
40
0.4375
40
0.4375
40
0.5
40
0.5
40
0.5625
40
0.5625
40
0.625
40
0.625
40
0.6875
40
0.6875
40
0.75
40
0.75
40
0.8125
40
0.8125
40
0.875
40
0.875
40
0.9375
40
0.9375
40
1
40
1
40
1
40
1
41
1
10
51.8
20
-8.94597115023018
30
0
41
1
10
51.8863156787269
20
-8.50370302314448
30
0
41
1
10
51.9726313574537
20
-8.02393940418125
30
0
41
1
10
52.1452627149075
20
-7.00780766398844
30
0
41
1
10
52.2315783936343
20
-6.47152770842351
30
0
41
1
10
52.4042097510879
20
-5.36422378379606
30
0
41
1
10
52.4905254298149
20
-4.7932910011406
30
0
41
1
10
52.6631567872686
20
-3.63910970586332
30
0
41
1
10
52.7494724659953
20
-3.05593438293147
30
0
41
1
10
52.9221038234491
20
-1.89772291316396
30
0
41
1
10
53.0084195021759
20
-1.32273006843724
30
0
41
1
10
53.1163141005845
20
-0.619512508253678
30
0
41
1
10
53.1486824801071
20
-0.409695644907941
30
0
41
1
10
53.1810508596296
20
-0.201844334233755
30
0
41
1
10
53.2026297793114
20
-0.0637384555949723
30
0
41
1
10
53.2134192391522
20
0.0049252761467926
30
0
41
1
10
53.2673665383565
20
0.349527400721456
30
0
41
1
10
53.3105243777199
20
0.62897122097516
30
0
41
1
10
53.4399978958102
20
1.47602719412674
30
0
41
1
10
53.5263135745371
20
2.05249410608954
30
0
41
1
10
53.6989449319908
20
3.21196398960026
30
0
41
1
10
53.7852606107176
20
3.79492079824368
30
0
41
1
10
53.9578919681713
20
4.94671155182354
30
0
41
1
10
54.0442076468982
20
5.5154700484072
30
0
41
1
10
54.2168390043519
20
6.61640799965198
30
0
41
1
10
54.3031546830787
20
7.14849559101719
30
0
41
1
10
54.4757860405324
20
8.15440885587245
30
0
41
1
10
54.5621017192593
20
8.62814779127322
30
0
41
1
10
54.734733076713
20
9.49922217636819
30
0
41
1
10
54.8210487554398
20
9.89649842598209
30
0
41
1
10
54.9936801128935
20
10.6023191195921
30
0
41
1
10
55.0799957916204
20
10.910845775065
30
0
41
1
10
55.2526271490741
20
11.4338488430448
30
0
41
1
10
55.338942827801
20
11.648348867759
30
0
41
1
10
55.5115741852546
20
11.984889133446
30
0
41
1
10
55.5978898639816
20
12.1069822037986
30
0
41
1
10
55.7705212214353
20
12.2660053770708
30
0
41
1
10
55.8568369001621
20
12.303
30
0
41
1
10
55.9431525788889
20
12.303
30
0
0
SPLINE
5
EE
100
AcDbEntity
8
1
62
256
6
ByLayer
370
13
48
1
60
0
100
AcDbSpline
70
4
71
3
72
80
73
76
40
0
40
0
40
0
40
0
40
0.0312499999999997
40
0.0312499999999997
40
0.0624999999999994
40
0.0624999999999994
40
0.0937499999999992
40
0.0937499999999992
40
0.124999999999999
40
0.124999999999999
40
0.156249999999999
40
0.156249999999999
40
0.187499999999998
40
0.187499999999998
40
0.218749999999998
40
0.218749999999998
40
0.249999999999998
40
0.249999999999998
40
0.281249999999998
40
0.281249999999998
40
0.312499999999998
40
0.312499999999998
40
0.343749999999997
40
0.343749999999997
40
0.359374999999997
40
0.359374999999997
40
0.367187499999997
40
0.367187499999997
40
0.374999999999997
40
0.374999999999997
40
0.406249999999997
40
0.406249999999997
40
0.437499999999997
40
0.437499999999997
40
0.468749999999997
40
0.468749999999997
40
0.499999999999997
40
0.499999999999997
40
0.531249999999997
40
0.531249999999997
40
0.562499999999997
40
0.562499999999997
40
0.593749999999997
40
0.593749999999997
40
0.624999999999997
40
0.624999999999997
40
0.656249999999997
40
0.656249999999997
40
0.687499999999997
40
0.687499999999997
40
0.718749999999997
40
0.718749999999997
40
0.722656249999997
40
0.722656249999997
40
0.726562499999997
40
0.726562499999997
40
0.734374999999997
40
0.734374999999997
40
0.749999999999997
40
0.749999999999997
40
0.781249999999997
40
0.781249999999997
40
0.812499999999998
40
0.812499999999998
40
0.843749999999998
40
0.843749999999998
40
0.874999999999999
40
0.874999999999999
40
0.906249999999999
40
0.906249999999999
40
0.937499999999999
40
0.937499999999999
40
0.96875
40
0.96875
40
1
40
1
40
1
40
1
41
1
10
55.1894616336226
20
12.303
30
0
41
1
10
55.2679263479372
20
12.303
30
0
41
1
10
55.3463910622517
20
12.272447192742
30
0
41
1
10
55.5033204908809
20
12.1418359531774
30
0
41
1
10
55.5817852051955
20
12.0417372560354
30
0
41
1
10
55.7387146338247
20
11.7660656668894
30
0
41
1
10
55.8171793481393
20
11.5904577389768
30
0
41
1
10
55.9741087767685
20
11.1614682823203
30
0
41
1
10
56.052573491083
20
10.9080660884677
30
0
41
1
10
56.2095029197122
20
10.3257289322739
30
0
41
1
10
56.2879676340268
20
9.99679516922899
30
0
41
1
10
56.444897062656
20
9.27049369859165
30
0
41
1
10
56.5233617769706
20
8.87315166857817
30
0
41
1
10
56.6802912055997
20
8.02159138076675
30
0
41
1
10
56.7587559199143
20
7.56741924557079
30
0
41
1
10
56.9156853485434
20
6.61711614459202
30
0
41
1
10
56.9941500628581
20
6.12104201437597
30
0
41
1
10
57.1510794914872
20
5.10362566152895
30
0
41
1
10
57.2295442058018
20
4.58233895678265
30
0
41
1
10
57.386473634431
20
3.53122934530009
30
0
41
1
10
57.4649383487456
20
3.00145042301747
30
0
41
1
10
57.6218677773748
20
1.94860059477003
30
0
41
1
10
57.7003324916894
20
1.42555655141015
30
0
41
1
10
57.8180295631613
20
0.655529307880158
30
0
41
1
10
57.8572619203185
20
0.401254228275945
30
0
41
1
10
57.9161104560545
20
0.0244124293505195
30
0
41
1
10
57.9357266346331
20
-0.100254666986956
30
0
41
1
10
57.9749589917904
20
-0.352089741062343
30
0
41
1
10
57.994575170369
20
-0.478752350263562
30
0
41
1
10
58.0926560632623
20
-1.1153958473185
30
0
41
1
10
58.1711207775769
20
-1.6354860714026
30
0
41
1
10
58.328050206206
20
-2.68518073037254
30
0
41
1
10
58.4065149205206
20
-3.21476192033424
30
0
41
1
10
58.5634443491498
20
-4.26867248616713
30
0
41
1
10
58.6419090634644
20
-4.79296101959716
30
0
41
1
10
58.7988384920936
20
-5.81976702314984
30
0
41
1
10
58.8773032064082
20
-6.32223058186574
30
0
41
1
10
59.0342326350374
20
-7.28855844463808
30
0
41
1
10
59.1126973493519
20
-7.75236521710477
30
0
41
1
10
59.2696267779811
20
-8.62595483806575
30
0
41
1
10
59.3480914922956
20
-9.03568851570935
30
0
41
1
10
59.5050209209249
20
-9.78875854626426
30
0
41
1
10
59.5834856352395
20
-10.1320646054345
30
0
41
1
10
59.7404150638686
20
-10.744186609197
30
0
41
1
10
59.8188797781832
20
-11.0129964767941
30
0
41
1
10
59.9758092068124
20
-11.4728740227559
30
0
41
1
10
60.054273921127
20
-11.6639584884327
30
0
41
1
10
60.2112033497562
20
-11.9698017819378
30
0
41
1
10
60.2896680640707
20
-12.0845935044387
30
0
41
1
10
60.4465974926999
20
-12.2431612257911
30
0
41
1
10
60.5250622070145
20
-12.2869771461943
30
0
41
1
10
60.6133350106185
20
-12.3008659995014
30
0
41
1
10
60.6231430999077
20
-12.3019187870375
30
0
41
1
10
60.6427592784864
20
-12.3030611872859
30
0
41
1
10
60.6525673677757
20
-12.3031525535946
30
0
41
1
10
60.6819916356436
20
-12.301994828136
30
0
41
1
10
60.7016078142224
20
-12.2993033667396
30
0
41
1
10
60.7604563499582
20
-12.2852594871357
30
0
41
1
10
60.7996887071155
20
-12.2679336172514
30
0
41
1
10
60.9173857785874
20
-12.1905052562508
30
0
41
1
10
60.995850492902
20
-12.1048583104974
30
0
41
1
10
61.1527799215311
20
-11.8590229038103
30
0
41
1
10
61.2312446358458
20
-11.6987976396869
30
0
41
1
10
61.388174064475
20
-11.3006911145907
30
0
41
1
10
61.4666387787896
20
-11.0627856202035
30
0
41
1
10
61.6235682074187
20
-10.5106071648987
30
0
41
1
10
61.7020329217333
20
-10.1963306359019
30
0
41
1
10
61.8589623503625
20
-9.49754746633843
30
0
41
1
10
61.937427064677
20
-9.11306172345732
30
0
41
1
10
62.0943564933062
20
-8.28459543470197
30
0
41
1
10
62.1728212076208
20
-7.84065756400508
30
0
41
1
10
62.32975063625
20
-6.90764955802814
30
0
41
1
10
62.4082153505646
20
-6.41863506919466
30
0
41
1
10
62.5651447791937
20
-5.41194973556665
30
0
41
1
10
62.6436094935083
20
-4.89433559896213
30
0
41
1
10
62.7220742078229
20
-4.37082164041237
30
0
0
SPLINE
5
EF
100
AcDbEntity
8
1
62
256
6
ByLayer
370
13
48
1
60
0
100
AcDbSpline
70
4
71
3
72
43
73
39
40
0
40
0
40
0
40
0
40
0.0625000000000001
40
0.0625000000000001
40
0.125
40
0.125
40
0.1875
40
0.1875
40
0.25
40
0.25
40
0.2578125
40
0.2578125
40
0.265625
40
0.28125
40
0.28125
40
0.3125
40
0.3125
40
0.375
40
0.375
40
0.4375
40
0.4375
40
0.5
40
0.5
40
0.5625
40
0.5625
40
0.625
40
0.625
40
0.6875
40
0.6875
40
0.75
40
0.75
40
0.8125
40
0.8125
40
0.875
40
0.875
40
0.9375
40
0.9375
40
1
40
1
40
1
40
1
41
1
10
51.8
20
-6.13303959604886
30
0
41
1
10
51.8762279969188
20
-5.6482352840797
30
0
41
1
10
51.9524559938375
20
-5.14880488419249
30
0
41
1
10
52.1049119876751
20
-4.13609380616302
30
0
41
1
10
52.1811399845938
20
-3.62285574065646
30
0
41
1
10
52.3335959784313
20
-2.59717442754959
30
0
41
1
10
52.4098239753501
20
-2.08476066102256
30
0
41
1
10
52.5622799691876
20
-1.0734154673487
30
0
41
1
10
52.6385079661064
20
-0.574498415298365
30
0
41
1
10
52.72426446264
20
-0.0264639415249803
30
0
41
1
10
52.7337929622548
20
0.0341618674091251
30
0
41
1
10
52.7528499614845
20
0.1559780398741
30
0
41
1
10
52.7814354603291
20
0.339247662256895
30
0
41
1
10
52.8100209591735
20
0.524076977375785
30
0
41
1
10
52.8671919568626
20
0.895595953479869
30
0
41
1
10
52.9053059553221
20
1.14576108136151
30
0
41
1
10
53.0196479507003
20
1.90176329698144
30
0
41
1
10
53.0958759476189
20
2.41318175267944
30
0
41
1
10
53.2483319414565
20
3.4385083126555
30
0
41
1
10
53.3245599383752
20
3.95238872168824
30
0
41
1
10
53.4770159322128
20
4.96820560459548
30
0
41
1
10
53.5532439291315
20
5.47010079373339
30
0
41
1
10
53.7056999229691
20
6.44649416483739
30
0
41
1
10
53.7819279198878
20
6.92094313100014
30
0
41
1
10
53.9343839137253
20
7.82735506232024
30
0
41
1
10
54.010611910644
20
8.25926984431828
30
0
41
1
10
54.1630679044816
20
9.06738658935603
30
0
41
1
10
54.2392959014004
20
9.44355115509913
30
0
41
1
10
54.3917518952379
20
10.1301236332493
30
0
41
1
10
54.4679798921567
20
10.4405122607097
30
0
41
1
10
54.6204358859942
20
10.989546940357
30
0
41
1
10
54.6966638829129
20
11.2281943347005
30
0
41
1
10
54.8491198767504
20
11.6320922666903
30
0
41
1
10
54.9253478736692
20
11.7973620634697
30
0
41
1
10
55.0778038675068
20
12.0568581290855
30
0
41
1
10
55.1540318644255
20
12.1511152085844
30
0
41
1
10
55.306487858263
20
12.2741687031286
30
0
41
1
10
55.3827158551818
20
12.303
30
0
41
1
10
55.4589438521005
20
12.303
30
0
0
SPLINE
5
F0
100
AcDbEntity
8
1
62
256
6
ByLayer
370
13
48
1
60
0
100
AcDbSpline
70
4
71
3
72
81
73
77
40
0
40
0
40
0
40
0
40
0.0312500000000004
40
0.0312500000000004
40
0.0625000000000008
40
0.0625000000000008
40
0.0937500000000012
40
0.0937500000000012
40
0.125000000000002
40
0.125000000000002
40
0.156250000000002
40
0.156250000000002
40
0.187500000000002
40
0.187500000000002
40
0.218750000000003
40
0.218750000000003
40
0.250000000000003
40
0.250000000000003
40
0.281250000000004
40
0.281250000000004
40
0.312500000000004
40
0.312500000000004
40
0.328125000000005
40
0.328125000000005
40
0.335937500000005
40
0.339843750000005
40
0.339843750000005
40
0.343750000000005
40
0.343750000000005
40
0.375000000000004
40
0.375000000000004
40
0.406250000000004
40
0.406250000000004
40
0.437500000000004
40
0.437500000000004
40
0.468750000000004
40
0.468750000000004
40
0.500000000000003
40
0.500000000000003
40
0.531250000000003
40
0.531250000000003
40
0.562500000000003
40
0.562500000000003
40
0.593750000000002
40
0.593750000000002
40
0.625000000000002
40
0.625000000000002
40
0.656250000000002
40
0.656250000000002
40
0.671875000000002
40
0.671875000000002
40
0.679687500000002
40
0.679687500000002
40
0.683593750000002
40
0.683593750000002
40
0.687500000000002
40
0.687500000000002
40
0.718750000000002
40
0.718750000000002
40
0.750000000000001
40
0.750000000000001
40
0.781250000000001
40
0.781250000000001
40
0.812500000000001
40
0.812500000000001
40
0.843750000000001
40
0.843750000000001
40
0.875000000000001
40
0.875000000000001
40
0.906250000000001
40
0.906250000000001
40
0.9375
40
0.9375
40
0.96875
40
0.96875
40
1
40
1
40
1
40
1
41
1
10
54.7052529068341
20
12.303
30
0
41
1
10
54.7887614620528
20
12.303
30
0
41
1
10
54.8722700172714
20
12.2683801272178
30
0
41
1
10
55.0392871277086
20
12.119853843817
30
0
41
1
10
55.1227956829273
20
12.0058926252515
30
0
41
1
10
55.2898127933646
20
11.6918487616251
30
0
41
1
10
55.3733213485832
20
11.4917201823376
30
0
41
1
10
55.5403384590205
20
11.0033840675314
30
0
41
1
10
55.6238470142391
20
10.7151534861946
30
0
41
1
10
55.7908641246764
20
10.0546216391201
30
0
41
1
10
55.874372679895
20
9.68233062072437
30
0
41
1
10
56.0413897903323
20
8.86387776235935
30
0
41
1
10
56.1248983455509
20
8.41776094123759
30
0
41
1
10
56.2919154559882
20
7.46721405325366
30
0
41
1
10
56.3754240112068
20
6.96285438118352
30
0
41
1
10
56.5424411216441
20
5.91495952254843
30
0
41
1
10
56.6259496768627
20
5.37150303597298
30
0
41
1
10
56.7929667873
20
4.26582538412083
30
0
41
1
10
56.8764753425186
20
3.70367325613395
30
0
41
1
10
57.0434924529558
20
2.58000514122742
30
0
41
1
10
57.1270010081745
20
2.01853612542223
30
0
41
1
10
57.2522638410025
20
1.18926711645031
30
0
41
1
10
57.2940181186118
20
0.914973741722179
30
0
41
1
10
57.3566495350258
20
0.508017476277331
30
0
41
1
10
57.3879652432327
20
0.305657410211864
30
0
41
1
10
57.4192809514398
20
0.105189660292893
30
0
41
1
10
57.4401580902444
20
-0.0280129421265372
30
0
41
1
10
57.4505966596467
20
-0.0945444446888644
30
0
41
1
10
57.5445437842677
20
-0.696362683894307
30
0
41
1
10
57.6280523394864
20
-1.24520655791736
30
0
41
1
10
57.7950694499236
20
-2.35712845358373
30
0
41
1
10
57.8785780051422
20
-2.92018033678525
30
0
41
1
10
58.0455951155795
20
-4.04328878172686
30
0
41
1
10
58.1291036707981
20
-4.60329332631662
30
0
41
1
10
58.2961207812353
20
-5.70057808212494
30
0
41
1
10
58.379629336454
20
-6.23778605870271
30
0
41
1
10
58.5466464468913
20
-7.2691436531087
30
0
41
1
10
58.63015500211
20
-7.76321472014916
30
0
41
1
10
58.7971721125471
20
-8.68968227578409
30
0
41
1
10
58.8806806677658
20
-9.12201227523184
30
0
41
1
10
59.047697778203
20
-9.91034748630207
30
0
41
1
10
59.1312063334217
20
-10.2663142729515
30
0
41
1
10
59.2982234438589
20
-10.8928687731332
30
0
41
1
10
59.3817319990776
20
-11.1634534199241
30
0
41
1
10
59.5487491095149
20
-11.6164256195784
30
0
41
1
10
59.6322576647335
20
-11.7988418758512
30
0
41
1
10
59.7992747751707
20
-12.0784873782257
30
0
41
1
10
59.8827833303894
20
-12.1757654874628
30
0
41
1
10
60.0080461632173
20
-12.2635108458188
30
0
41
1
10
60.0498004408267
20
-12.2830951049108
30
0
41
1
10
60.1124318572406
20
-12.2989084935097
30
0
41
1
10
60.1333089960453
20
-12.3019204194936
30
0
41
1
10
60.1646247042523
20
-12.3031762226952
30
0
41
1
10
60.1750632736546
20
-12.3030543666642
30
0
41
1
10
60.1959404124593
20
-12.3017225125122
30
0
41
1
10
60.2063789818616
20
-12.3005105200654
30
0
41
1
10
60.3003261064825
20
-12.2845923623458
30
0
41
1
10
60.3838346617012
20
-12.2347048612063
30
0
41
1
10
60.5508517721384
20
-12.0539442203448
30
0
41
1
10
60.6343603273571
20
-11.9230169555557
30
0
41
1
10
60.8013774377943
20
-11.5742088017602
30
0
41
1
10
60.884885993013
20
-11.3562854959753
30
0
41
1
10
61.0519031034503
20
-10.8326662223929
30
0
41
1
10
61.1354116586689
20
-10.5269533085374
30
0
41
1
10
61.3024287691061
20
-9.83302676642418
30
0
41
1
10
61.3859373243248
20
-9.44483063349543
30
0
41
1
10
61.552954434762
20
-8.59731950747567
30
0
41
1
10
61.6364629899807
20
-8.13805573376445
30
0
41
1
10
61.803480100418
20
-7.16485666841328
30
0
41
1
10
61.8869886556366
20
-6.65099495885443
30
0
41
1
10
62.0540057660738
20
-5.58818764219006
30
0
41
1
10
62.1375143212924
20
-5.03932013082394
30
0
41
1
10
62.3045314317297
20
-3.92688172868864
30
0
41
1
10
62.3880399869484
20
-3.36337616369264
30
0
41
1
10
62.5550570973856
20
-2.240620574997
30
0
41
1
10
62.6385656526043
20
-1.68141232116551
30
0
41
1
10
62.7220742078229
20
-1.13228024285118
30
0
0
SPLINE
5
F1
100
AcDbEntity
8
1
62
256
6
ByLayer
370
13
48
1
60
0
100
AcDbSpline
70
4
71
3
72
41
73
37
40
0
40
0
40
0
40
0
40
0.0624999999999984
40
0.0624999999999984
40
0.124999999999997
40
0.124999999999997
40
0.140624999999997
40
0.140624999999997
40
0.156249999999996
40
0.187499999999996
40
0.187499999999996
40
0.249999999999997
40
0.249999999999997
40
0.312499999999997
40
0.312499999999997
40
0.374999999999997
40
0.374999999999997
40
0.437499999999997
40
0.437499999999997
40
0.499999999999998
40
0.499999999999998
40
0.562499999999998
40
0.562499999999998
40
0.624999999999998
40
0.624999999999998
40
0.687499999999998
40
0.687499999999998
40
0.749999999999999
40
0.749999999999999
40
0.812499999999999
40
0.812499999999999
40
0.874999999999999
40
0.874999999999999
40
0.9375
40
0.9375
40
1
40
1
40
1
40
1
41
1
10
51.8
20
-2.92946283560715
30
0
41
1
10
51.8661403151107
20
-2.48463853686283
30
0
41
1
10
51.9322806302213
20
-2.04072041220809
30
0
41
1
10
52.0645612604427
20
-1.16286953109224
30
0
41
1
10
52.1307015755534
20
-0.728943942706621
30
0
41
1
10
52.2133769694417
20
-0.196977501089521
30
0
41
1
10
52.2299120482193
20
-0.0911964441253019
30
0
41
1
10
52.2629822057747
20
0.11962974861811
30
0
41
1
10
52.3125874421077
20
0.43754433529395
30
0
41
1
10
52.3621926784407
20
0.760091354869985
30
0
41
1
10
52.4614031511067
20
1.41017256138903
30
0
41
1
10
52.5275434662174
20
1.850255308133
30
0
41
1
10
52.6598240964387
20
2.73631225864884
30
0
41
1
10
52.7259644115494
20
3.18227592125999
30
0
41
1
10
52.8582450417707
20
4.0712454428251
30
0
41
1
10
52.9243853568814
20
4.51423440388274
30
0
41
1
10
53.0566659871027
20
5.38747612951332
30
0
41
1
10
53.1228063022134
20
5.81770688972659
30
0
41
1
10
53.2550869324347
20
6.6553144768431
30
0
41
1
10
53.3212272475454
20
7.06266676866227
30
0
41
1
10
53.4535078777667
20
7.84476966182297
30
0
41
1
10
53.5196481928774
20
8.2194966932841
30
0
41
1
10
53.6519288230988
20
8.927707058306
30
0
41
1
10
53.7180691382094
20
9.26117141873118
30
0
41
1
10
53.8503497684308
20
9.87997215953251
30
0
41
1
10
53.9164900835415
20
10.1652970109687
30
0
41
1
10
54.0487707137628
20
10.6831596348971
30
0
41
1
10
54.1149110288734
20
10.9156946709632
30
0
41
1
10
54.2471916590948
20
11.3257613327482
30
0
41
1
10
54.3133319742055
20
11.503298619436
30
0
41
1
10
54.4456126044268
20
11.8035492040034
30
0
41
1
10
54.5117529195374
20
11.9262747050755
30
0
41
1
10
54.6440335497588
20
12.1192005881088
30
0
41
1
10
54.7101738648694
20
12.1894170466753
30
0
41
1
10
54.8424544950908
20
12.2813081530418
30
0
41
1
10
54.9085948102015
20
12.303
30
0
41
1
10
54.9747351253121
20
12.303
30
0
0
SPLINE
5
F2
100
AcDbEntity
8
1
62
256
6
ByLayer
370
13
48
1
60
0
100
AcDbSpline
70
4
71
3
72
86
73
82
40
0
40
0
40
0
40
0
40
0.0312499999999997
40
0.0312499999999997
40
0.0624999999999994
40
0.0624999999999994
40
0.0937499999999991
40
0.0937499999999991
40
0.124999999999999
40
0.124999999999999
40
0.156249999999998
40
0.156249999999998
40
0.187499999999998
40
0.187499999999998
40
0.218749999999998
40
0.218749999999998
40
0.249999999999998
40
0.249999999999998
40
0.281249999999997
40
0.281249999999997
40
0.312499999999997
40
0.312499999999997
40
0.320312499999997
40
0.320312499999997
40
0.324218749999997
40
0.324218749999997
40
0.328124999999997
40
0.343749999999997
40
0.343749999999997
40
0.374999999999997
40
0.374999999999997
40
0.406249999999997
40
0.406249999999997
40
0.437499999999997
40
0.437499999999997
40
0.468749999999998
40
0.468749999999998
40
0.499999999999998
40
0.499999999999998
40
0.531249999999998
40
0.531249999999998
40
0.562499999999998
40
0.562499999999998
40
0.593749999999998
40
0.593749999999998
40
0.624999999999998
40
0.624999999999998
40
0.640624999999998
40
0.640624999999998
40
0.644531249999998
40
0.644531249999998
40
0.648437499999998
40
0.656249999999999
40
0.656249999999999
40
0.687499999999999
40
0.687499999999999
40
0.718749999999999
40
0.718749999999999
40
0.749999999999999
40
0.749999999999999
40
0.78125
40
0.78125
40
0.8125
40
0.8125
40
0.84375
40
0.84375
40
0.875
40
0.875
40
0.90625
40
0.90625
40
0.937500000000001
40
0.937500000000001
40
0.953125000000001
40
0.953125000000001
40
0.960937500000001
40
0.960937500000001
40
0.964843750000001
40
0.964843750000001
40
0.968750000000001
40
0.968750000000001
40
1
40
1
40
1
40
1
41
1
10
54.2210441800457
20
12.303
30
0
41
1
10
54.3095965761684
20
12.303
30
0
41
1
10
54.3981489722911
20
12.2640561181238
30
0
41
1
10
54.5752537645365
20
12.0963981076295
30
0
41
1
10
54.6638061606591
20
11.9676107975569
30
0
41
1
10
54.8409109529045
20
11.6125606847794
30
0
41
1
10
54.9294633490272
20
11.3862391406749
30
0
41
1
10
55.1065681412725
20
10.8347876346592
30
0
41
1
10
55.1951205373952
20
10.5096341729962
30
0
41
1
10
55.3722253296406
20
9.7668702709617
30
0
41
1
10
55.4607777257632
20
9.3492852017647
30
0
41
1
10
55.6378825180086
20
8.43570659533157
30
0
41
1
10
55.7264349141313
20
7.93978553261576
30
0
41
1
10
55.9035397063766
20
6.88978859089454
30
0
41
1
10
55.9920921024993
20
6.33581390230097
30
0
41
1
10
56.1691968947447
20
5.19347858125215
30
0
41
1
10
56.2577492908673
20
4.60522052135434
30
0
41
1
10
56.4348540831127
20
3.41843735949232
30
0
41
1
10
56.5234064792354
20
2.81999185317213
30
0
41
1
10
56.7005112714807
20
1.63448388671799
30
0
41
1
10
56.7890636676034
20
1.04746540080285
30
0
41
1
10
56.8997541627568
20
0.331613924761797
30
0
41
1
10
56.9218922617875
20
0.189327709884253
30
0
41
1
10
56.9550994103335
20
-0.0226106593609359
30
0
41
1
10
56.9661684598488
20
-0.0931326593657218
30
0
41
1
10
56.9883065588795
20
-0.234959599546841
30
0
41
1
10
57.0436518064562
20
-0.590729253351469
30
0
41
1
10
57.0989970540327
20
-0.952200366815049
30
0
41
1
10
57.2318256482168
20
-1.82773703212547
30
0
41
1
10
57.3203780443395
20
-2.42223919189541
30
0
41
1
10
57.4974828365849
20
-3.61360131783326
30
0
41
1
10
57.5860352327076
20
-4.21040085594584
30
0
41
1
10
57.7631400249529
20
-5.38337945703492
30
0
41
1
10
57.8516924210756
20
-5.95946636207532
30
0
41
1
10
58.028797213321
20
-7.0666965862109
30
0
41
1
10
58.1173496094437
20
-7.59773449223718
30
0
41
1
10
58.2944544016889
20
-8.59224637865688
30
0
41
1
10
58.3830067978117
20
-9.05562879294808
30
0
41
1
10
58.560111590057
20
-9.89697557125911
30
0
41
1
10
58.6486639861797
20
-10.2748869745492
30
0
41
1
10
58.8257687784251
20
-10.9344592608087
30
0
41
1
10
58.9143211745477
20
-11.2161172643687
30
0
41
1
10
59.0914259667931
20
-11.6802377090436
30
0
41
1
10
59.1799783629158
20
-11.8627416122745
30
0
41
1
10
59.3570831551611
20
-12.1328800270139
30
0
41
1
10
59.4456355512838
20
-12.2205823108282
30
0
41
1
10
59.5784641454678
20
-12.2883950227535
30
0
41
1
10
59.6227403435291
20
-12.3004123424141
30
0
41
1
10
59.6780855911058
20
-12.3031772882314
30
0
41
1
10
59.6891546406211
20
-12.3031213679079
30
0
41
1
10
59.7112927396519
20
-12.3017881390755
30
0
41
1
10
59.7444998881978
20
-12.2979476374138
30
0
41
1
10
59.7777070367438
20
-12.2884698900237
30
0
41
1
10
59.8883975318972
20
-12.2438623917398
30
0
41
1
10
59.9769499280199
20
-12.1663699619873
30
0
41
1
10
60.1540547202653
20
-11.9175350857574
30
0
41
1
10
60.2426071163879
20
-11.7461232411231
30
0
41
1
10
60.4197119086333
20
-11.3043445228284
30
0
41
1
10
60.5082643047559
20
-11.0339321562945
30
0
41
1
10
60.6853690970013
20
-10.3961309781011
30
0
41
1
10
60.773921493124
20
-10.0287394273009
30
0
41
1
10
60.9510262853694
20
-9.20683191515866
30
0
41
1
10
61.0395786814921
20
-8.75236348951739
30
0
41
1
10
61.2166834737374
20
-7.77336955972893
30
0
41
1
10
61.30523586986
20
-7.24893232065958
30
0
41
1
10
61.4823406621054
20
-6.15219246102737
30
0
41
1
10
61.5708930582281
20
-5.57999511265049
30
0
41
1
10
61.7479978504735
20
-4.41204671385128
30
0
41
1
10
61.8365502465961
20
-3.81639048626448
30
0
41
1
10
62.0136550388415
20
-2.62485063476268
30
0
41
1
10
62.1022074349642
20
-2.02903154363773
30
0
41
1
10
62.2350360291481
20
-1.1500459888122
30
0
41
1
10
62.2793122272095
20
-0.859475147566798
30
0
41
1
10
62.3457265243015
20
-0.42878004276173
30
0
41
1
10
62.3678646233322
20
-0.286072762907509
30
0
41
1
10
62.4010717718782
20
-0.0734667305843288
30
0
41
1
10
62.4121408213935
20
-0.0030075715789053
30
0
41
1
10
62.4342789204242
20
0.138376493069814
30
0
41
1
10
62.4453479699395
20
0.209315642825061
30
0
41
1
10
62.5449694155775
20
0.849870729980438
30
0
41
1
10
62.6335218117003
20
1.4344107497605
30
0
41
1
10
62.7220742078229
20
2.02578427050085
30
0
0
SPLINE
5
F3
100
AcDbEntity
8
1
62
256
6
ByLayer
370
13
48
1
60
0
100
AcDbSpline
70
4
71
3
72
38
73
34
40
0
40
0
40
0
40
0
40
0.0625
40
0.0625
40
0.125
40
0.125
40
0.1875
40
0.1875
40
0.25
40
0.25
40
0.3125
40
0.3125
40
0.375
40
0.375
40
0.4375
40
0.4375
40
0.5
40
0.5
40
0.5625
40
0.5625
40
0.625
40
0.625
40
0.6875
40
0.6875
40
0.75
40
0.75
40
0.8125
40
0.8125
40
0.875
40
0.875
40
0.9375
40
0.9375
40
1
40
1
40
1
40
1
41
1
10
51.7999999999999
20
0.255903220375046
30
0
41
1
10
51.8560526333026
20
0.616042147322162
30
0
41
1
10
51.9121052666052
20
0.982245583714757
30
0
41
1
10
52.0242105332104
20
1.72280791025443
30
0
41
1
10
52.0802631665129
20
2.09716419146659
30
0
41
1
10
52.1923684331181
20
2.84927510336016
30
0
41
1
10
52.2484210664206
20
3.22702473916456
30
0
41
1
10
52.3605263330258
20
3.98049597599885
30
0
41
1
10
52.4165789663284
20
4.35621022768404
30
0
41
1
10
52.5286842329335
20
5.0997006425402
30
0
41
1
10
52.5847368662361
20
5.46746748643162
30
0
41
1
10
52.6968421328412
20
6.1889212629099
30
0
41
1
10
52.7528947661438
20
6.54259765331028
30
0
41
1
10
52.865000032749
20
7.22979810806839
30
0
41
1
10
52.9210526660515
20
7.56331144223307
30
0
41
1
10
53.0331579326567
20
8.20450612481915
30
0
41
1
10
53.0892105659593
20
8.51217772167132
30
0
41
1
10
53.2013158325645
20
9.09671384077222
30
0
41
1
10
53.257368465867
20
9.37357068193398
30
0
41
1
10
53.3694737324722
20
9.89247234876092
30
0
41
1
10
53.4255263657748
20
10.1345123769012
30
0
41
1
10
53.5376316323799
20
10.5809356259358
30
0
41
1
10
53.5936842656825
20
10.7853173221358
30
0
41
1
10
53.7057895322877
20
11.1548351703322
30
0
41
1
10
53.7618421655902
20
11.3199729885344
30
0
41
1
10
53.8739474321954
20
11.610667516968
30
0
41
1
10
53.930000065498
20
11.7362285880523
30
0
41
1
10
54.0421053321031
20
11.9485945488712
30
0
41
1
10
54.0981579654057
20
12.0354057190284
30
0
41
1
10
54.2102632320109
20
12.1720944634198
30
0
41
1
10
54.2663158653134
20
12.2219793528322
30
0
41
1
10
54.3784211319186
20
12.2874283651235
30
0
41
1
10
54.4344737652212
20
12.303
30
0
41
1
10
54.4905263985237
20
12.303
30
0
0
SPLINE
5
F4
100
AcDbEntity
8
1
62
256
6
ByLayer
370
13
48
1
60
0
100
AcDbSpline
70
4
71
3
72
87
73
83
40
0
40
0
40
0
40
0
40
0.0312500000000003
40
0.0312500000000003
40
0.0625000000000006
40
0.0625000000000006
40
0.0937500000000009
40
0.0937500000000009
40
0.125000000000001
40
0.125000000000001
40
0.156250000000001
40
0.156250000000001
40
0.187500000000002
40
0.187500000000002
40
0.218750000000002
40
0.218750000000002
40
0.250000000000002
40
0.250000000000002
40
0.281250000000002
40
0.281250000000002
40
0.296875000000003
40
0.296875000000003
40
0.300781250000003
40
0.300781250000003
40
0.304687500000003
40
0.304687500000003
40
0.312500000000002
40
0.312500000000002
40
0.343750000000002
40
0.343750000000002
40
0.375000000000001
40
0.375000000000001
40
0.40625
40
0.40625
40
0.4375
40
0.4375
40
0.468749999999999
40
0.468749999999999
40
0.499999999999999
40
0.499999999999999
40
0.531249999999998
40
0.531249999999998
40
0.562499999999997
40
0.562499999999997
40
0.593749999999997
40
0.593749999999997
40
0.601562499999997
40
0.605468749999997
40
0.605468749999997
40
0.609374999999996
40
0.609374999999996
40
0.624999999999997
40
0.624999999999997
40
0.656249999999997
40
0.656249999999997
40
0.687499999999997
40
0.687499999999997
40
0.718749999999998
40
0.718749999999998
40
0.749999999999998
40
0.749999999999998
40
0.781249999999998
40
0.781249999999998
40
0.812499999999999
40
0.812499999999999
40
0.843749999999999
40
0.843749999999999
40
0.875
40
0.875
40
0.90625
40
0.90625
40
0.91015625
40
0.91015625
40
0.9140625
40
0.9140625
40
0.921875
40
0.921875
40
0.9375
40
0.9375
40
0.96875
40
0.96875
40
1
40
1
40
1
40
1
41
1
10
53.7368354532573
20
12.303
30
0
41
1
10
53.8304316902841
20
12.303
30
0
41
1
10
53.9240279273108
20
12.2594743988694
30
0
41
1
10
54.1112204013643
20
12.0714582327081
30
0
41
1
10
54.204816638391
20
11.9268716246004
30
0
41
1
10
54.3920091124444
20
11.5281771409631
30
0
41
1
10
54.4856053494712
20
11.2739959053095
30
0
41
1
10
54.6727978235246
20
10.6557525650813
30
0
41
1
10
54.7663940605513
20
10.2916697499696
30
0
41
1
10
54.9535865346048
20
9.46298213663525
30
0
41
1
10
55.0471827716315
20
8.99842597752973
30
0
41
1
10
55.2343752456849
20
7.98749385275656
30
0
41
1
10
55.3279714827117
20
7.44122736993441
30
0
41
1
10
55.5151639567651
20
6.29248840836095
30
0
41
1
10
55.6087601937918
20
5.69015401050024
30
0
41
1
10
55.7959526678453
20
4.45794934270555
30
0
41
1
10
55.889548904872
20
3.82820529210977
30
0
41
1
10
56.0767413789254
20
2.56878868717897
30
0
41
1
10
56.1703376159522
20
1.93920062874648
30
0
41
1
10
56.3107319714923
20
1.01233600751479
30
0
41
1
10
56.3575300900056
20
0.706259158829511
30
0
41
1
10
56.4160277381474
20
0.328722104935338
30
0
41
1
10
56.4277272677757
20
0.253466680236926
30
0
41
1
10
56.4511263270323
20
0.103492454190899
30
0
41
1
10
56.4628258566607
20
0.0289327360188452
30
0
41
1
10
56.4979244455457
20
-0.19506027327327
30
0
41
1
10
56.5213235048024
20
-0.345500116431197
30
0
41
1
10
56.6383188010858
20
-1.10260503757897
30
0
41
1
10
56.7319150381125
20
-1.72422550020656
30
0
41
1
10
56.919107512166
20
-2.97879207676539
30
0
41
1
10
57.0127037491927
20
-3.61167674173939
30
0
41
1
10
57.1998962232462
20
-4.86287999569657
30
0
41
1
10
57.2934924602729
20
-5.48108854562551
30
0
41
1
10
57.4806849343263
20
-6.6743215139829
30
0
41
1
10
57.5742811713531
20
-7.24920842640563
30
0
41
1
10
57.7614736454065
20
-8.3282697609842
30
0
41
1
10
57.8550698824332
20
-8.83231691556526
30
0
41
1
10
58.0422623564867
20
-9.74738771550057
30
0
41
1
10
58.1358585935134
20
-10.1583327145283
30
0
41
1
10
58.3230510675669
20
-10.8733333619142
30
0
41
1
10
58.4166473045935
20
-11.1773793084074
30
0
41
1
10
58.603839778647
20
-11.6745408267033
30
0
41
1
10
58.6974360156738
20
-11.8677094111933
30
0
41
1
10
58.8846284897272
20
-12.1482020017123
30
0
41
1
10
58.9782247267539
20
-12.2356157594213
30
0
41
1
10
59.0952200230373
20
-12.2862044643429
30
0
41
1
10
59.1303186119224
20
-12.2969992903435
30
0
41
1
10
59.1654172008074
20
-12.3014792091101
30
0
41
1
10
59.1888162600641
20
-12.3030927053765
30
0
41
1
10
59.2005157896924
20
-12.303215846817
30
0
41
1
10
59.2590134378341
20
-12.3004341104615
30
0
41
1
10
59.3058115563475
20
-12.2872585573754
30
0
41
1
10
59.4462059118876
20
-12.2121203543204
30
0
41
1
10
59.5398021489143
20
-12.1143586108268
30
0
41
1
10
59.7269946229678
20
-11.8122842754851
30
0
41
1
10
59.8205908599945
20
-11.6078842374355
30
0
41
1
10
60.0077833340479
20
-11.0882162683239
30
0
41
1
10
60.1013795710746
20
-10.7729007606059
30
0
41
1
10
60.2885720451281
20
-10.0363185879807
30
0
41
1
10
60.3821682821548
20
-9.61506882304255
30
0
41
1
10
60.5693607562082
20
-8.68130967878699
30
0
41
1
10
60.6629569932349
20
-8.16888526927235
30
0
41
1
10
60.8501494672885
20
-7.07570297941777
30
0
41
1
10
60.9437457043151
20
-6.49507532450755
30
0
41
1
10
61.1309381783686
20
-5.2933077454777
30
0
41
1
10
61.2245344153953
20
-4.6723040658857
30
0
41
1
10
61.4117268894487
20
-3.4183449640793
30
0
41
1
10
61.5053231264755
20
-2.78549522587002
30
0
41
1
10
61.692515600529
20
-1.533384820642
30
0
41
1
10
61.7861118375557
20
-0.9141802957582
30
0
41
1
10
61.8914076042108
20
-0.236491580715011
30
0
41
1
10
61.9031071338391
20
-0.161451586919441
30
0
41
1
10
61.9265061930957
20
-0.0119211131322459
30
0
41
1
10
61.9382057227241
20
0.0625139961763921
30
0
41
1
10
61.9733043116091
20
0.287179667438949
30
0
41
1
10
61.9967033708658
20
0.438042404725735
30
0
41
1
10
62.0669005486359
20
0.893489704917585
30
0
41
1
10
62.1136986671492
20
1.20094548862454
30
0
41
1
10
62.2540930226893
20
2.13115812430542
30
0
41
1
10
62.347689259716
20
2.76192011365151
30
0
41
1
10
62.5348817337695
20
4.0210284056123
30
0
41
1
10
62.6284779707961
20
4.64928515615455
30
0
41
1
10
62.7220742078229
20
5.26243010811913
30
0
0
SPLINE
5
F5
100
AcDbEntity
8
1
62
256
6
ByLayer
370
13
48
1
60
0
100
AcDbSpline
70
4
71
3
72
22
73
18
40
0
40
0
40
0
40
0
40
0.125
40
0.125
40
0.25
40
0.25
40
0.375
40
0.375
40
0.5
40
0.5
40
0.625
40
0.625
40
0.75
40
0.75
40
0.875
40
0.875
40
1
40
1
40
1
40
1
41
1
10
51.8
20
3.46751711239591
30
0
41
1
10
51.891929902989
20
4.0857302390815
30
0
41
1
10
51.9838598059779
20
4.70217607080713
30
0
41
1
10
52.1677196119559
20
5.90527799643917
30
0
41
1
10
52.2596495149449
20
6.49181548981767
30
0
41
1
10
52.4435093209228
20
7.60808295266554
30
0
41
1
10
52.5354392239118
20
8.13768764263756
30
0
41
1
10
52.7192990298897
20
9.11625824241548
30
0
41
1
10
52.8112289328787
20
9.5651280290484
30
0
41
1
10
52.9950887388566
20
10.3650435242805
30
0
41
1
10
53.0870186418456
20
10.7160493194988
30
0
41
1
10
53.2708784478236
20
11.3118264267875
30
0
41
1
10
53.3628083508125
20
11.556619825744
30
0
41
1
10
53.5466681567905
20
11.9406036505419
30
0
41
1
10
53.6385980597794
20
12.0798624187275
30
0
41
1
10
53.8224578657574
20
12.2610166177998
30
0
41
1
10
53.9143877687464
20
12.303
30
0
41
1
10
54.0063176717353
20
12.303
30
0
0
SPLINE
5
F6
100
AcDbEntity
8
1
62
256
6
ByLayer
370
13
48
1
60
0
100
AcDbSpline
70
4
71
3
72
88
73
84
40
0
40
0
40
0
40
0
40
0.0312500000000001
40
0.0312500000000001
40
0.0625000000000002
40
0.0625000000000002
40
0.0937500000000004
40
0.0937500000000004
40
0.125000000000001
40
0.125000000000001
40
0.156250000000001
40
0.156250000000001
40
0.187500000000001
40
0.187500000000001
40
0.218750000000001
40
0.218750000000001
40
0.250000000000001
40
0.250000000000001
40
0.281250000000001
40
0.281250000000001
40
0.285156250000001
40
0.285156250000001
40
0.289062500000001
40
0.289062500000001
40
0.296875000000001
40
0.296875000000001
40
0.312500000000001
40
0.312500000000001
40
0.343750000000001
40
0.343750000000001
40
0.375000000000001
40
0.375000000000001
40
0.406250000000001
40
0.406250000000001
40
0.437500000000001
40
0.437500000000001
40
0.468750000000001
40
0.468750000000001
40
0.500000000000001
40
0.500000000000001
40
0.531250000000001
40
0.531250000000001
40
0.562500000000001
40
0.562500000000001
40
0.570312500000001
40
0.570312500000001
40
0.574218750000001
40
0.574218750000001
40
0.578125000000001
40
0.578125000000001
40
0.593750000000001
40
0.593750000000001
40
0.625000000000001
40
0.625000000000001
40
0.656250000000001
40
0.656250000000001
40
0.687500000000001
40
0.687500000000001
40
0.718750000000001
40
0.718750000000001
40
0.750000000000001
40
0.750000000000001
40
0.781250000000001
40
0.781250000000001
40
0.812500000000001
40
0.812500000000001
40
0.84375
40
0.84375
40
0.859375000000001
40
0.859375000000001
40
0.863281250000001
40
0.863281250000001
40
0.867187500000001
40
0.867187500000001
40
0.875
40
0.875
40
0.90625
40
0.90625
40
0.9375
40
0.9375
40
0.96875
40
0.96875
40
1
40
1
40
1
40
1
41
1
10
53.2526267264689
20
12.303
30
0
41
1
10
53.3512668043997
20
12.303
30
0
41
1
10
53.4499068823305
20
12.2546341338783
30
0
41
1
10
53.647187038192
20
12.0450240496783
30
0
41
1
10
53.7458271161228
20
11.8836557330164
30
0
41
1
10
53.9431072719843
20
11.4386795188826
30
0
41
1
10
54.0417473499151
20
11.154982089884
30
0
41
1
10
54.2390275057766
20
10.4663814862674
30
0
41
1
10
54.3376675837074
20
10.0614653266801
30
0
41
1
10
54.5349477395689
20
9.14354533982669
30
0
41
1
10
54.6335878174997
20
8.63062386612643
30
0
41
1
10
54.8308679733613
20
7.5208930911885
30
0
41
1
10
54.929508051292
20
6.92424092468465
30
0
41
1
10
55.1267882071536
20
5.6786191924156
30
0
41
1
10
55.2254282850843
20
5.02982940733014
30
0
41
1
10
55.4227084409459
20
3.71359973054032
30
0
41
1
10
55.5213485188767
20
3.04630654400944
30
0
41
1
10
55.7186286747382
20
1.72373345761739
30
0
41
1
10
55.817268752669
20
1.06853464917032
30
0
41
1
10
55.9282388403411
20
0.351775515210988
30
0
41
1
10
55.9405688500824
20
0.272413262228923
30
0
41
1
10
55.9652288695651
20
0.114282448162555
30
0
41
1
10
55.9775588793065
20
0.0356790490578476
30
0
41
1
10
56.0145489085305
20
-0.200363403505747
30
0
41
1
10
56.0392089280132
20
-0.35896016213394
30
0
41
1
10
56.1131889864613
20
-0.837998278053703
30
0
41
1
10
56.1625090254267
20
-1.16170249235557
30
0
41
1
10
56.3104691423228
20
-2.14164067982895
30
0
41
1
10
56.4091092202536
20
-2.80689612776311
30
0
41
1
10
56.6063893761152
20
-4.13356016404549
30
0
41
1
10
56.7050294540459
20
-4.79484977010367
30
0
41
1
10
56.9023096099074
20
-6.08082252938041
30
0
41
1
10
57.0009496878382
20
-6.70533496625589
30
0
41
1
10
57.1982298436997
20
-7.88455416906879
30
0
41
1
10
57.2968699216305
20
-8.4390860740896
30
0
41
1
10
57.494150077492
20
-9.45009622223708
30
0
41
1
10
57.5927901554228
20
-9.9064531952142
30
0
41
1
10
57.7900703112844
20
-10.7024765619702
30
0
41
1
10
57.8887103892151
20
-11.0421127271672
30
0
41
1
10
58.0859905450767
20
-11.5980529542396
30
0
41
1
10
58.1846306230074
20
-11.8144161480597
30
0
41
1
10
58.381910778869
20
-12.1286858536885
30
0
41
1
10
58.4805508567998
20
-12.2267064030301
30
0
41
1
10
58.6038509542132
20
-12.2837222324609
30
0
41
1
10
58.6285109736959
20
-12.2918660837173
30
0
41
1
10
58.6655010029199
20
-12.2993927945557
30
0
41
1
10
58.6778310126613
20
-12.3011203273922
30
0
41
1
10
58.702491032144
20
-12.3030474989888
30
0
41
1
10
58.7148210418854
20
-12.3032501682881
30
0
41
1
10
58.7764710905921
20
-12.3004941485886
30
0
41
1
10
58.8257911295575
20
-12.2861325951098
30
0
41
1
10
58.9737512464536
20
-12.2033543320682
30
0
41
1
10
59.0723913243844
20
-12.0950063709835
30
0
41
1
10
59.269671480246
20
-11.7592152158596
30
0
41
1
10
59.3683115581767
20
-11.5316611260276
30
0
41
1
10
59.5655917140382
20
-10.9534265066714
30
0
41
1
10
59.664231791969
20
-10.6026939135664
30
0
41
1
10
59.8615119478306
20
-9.78567721626467
30
0
41
1
10
59.9601520257614
20
-9.31943219102595
30
0
41
1
10
60.1574321816229
20
-8.29086636622097
30
0
41
1
10
60.2560722595537
20
-7.72867378234847
30
0
41
1
10
60.4533524154152
20
-6.5370316711753
30
0
41
1
10
60.5519924933459
20
-5.90775908170056
30
0
41
1
10
60.7492726492075
20
-4.61535479072424
30
0
41
1
10
60.8479127271383
20
-3.95239069383325
30
0
41
1
10
61.0451928829998
20
-2.6251862274882
30
0
41
1
10
61.1438329609305
20
-1.96105873364252
30
0
41
1
10
61.2917930778268
20
-0.984467077319749
30
0
41
1
10
61.3411131167922
20
-0.662152263201278
30
0
41
1
10
61.4027631654989
20
-0.264977817394168
30
0
41
1
10
61.4150931752402
20
-0.185827690124739
30
0
41
1
10
61.4397531947229
20
-0.0281346432565215
30
0
41
1
10
61.4520832044643
20
0.0502858452418593
30
0
41
1
10
61.4890732336883
20
0.286995849392611
30
0
41
1
10
61.513733253171
20
0.446010992674559
30
0
41
1
10
61.6370333505844
20
1.24635241577113
30
0
41
1
10
61.7356734285152
20
1.90376551595605
30
0
41
1
10
61.9329535843768
20
3.22821709452802
30
0
41
1
10
62.0315936623076
20
3.89516800709856
30
0
41
1
10
62.2288738181691
20
5.20770976151374
30
0
41
1
10
62.3275138960998
20
5.85314906106515
30
0
41
1
10
62.5247940519614
20
7.08902249544488
30
0
41
1
10
62.6234341298921
20
7.67927642782465
30
0
41
1
10
62.7220742078229
20
8.22644698330924
30
0
0
SPLINE
5
F7
100
AcDbEntity
8
1
62
256
6
ByLayer
370
13
48
1
60
0
100
AcDbSpline
70
4
71
3
72
22
73
18
40
0
40
0
40
0
40
0
40
0.125
40
0.125
40
0.25
40
0.25
40
0.375
40
0.375
40
0.5
40
0.5
40
0.625
40
0.625
40
0.75
40
0.75
40
0.875
40
0.875
40
1
40
1
40
1
40
1
41
1
10
51.8
20
6.6360384231472
30
0
41
1
10
51.8717545393728
20
7.08188106739263
30
0
41
1
10
51.9435090787456
20
7.51235043585734
30
0
41
1
10
52.0870181574911
20
8.33056979945567
30
0
41
1
10
52.1587726968639
20
8.71828659874646
30
0
41
1
10
52.3022817756095
20
9.44087351873981
30
0
41
1
10
52.3740363149823
20
9.77572023041932
30
0
41
1
10
52.5175453937279
20
10.3852302763557
30
0
41
1
10
52.5892999331007
20
10.6598838162206
30
0
41
1
10
52.7328090118462
20
11.1449715773895
30
0
41
1
10
52.8045635512191
20
11.355410222044
30
0
41
1
10
52.9480726299646
20
11.7114127026548
30
0
41
1
10
53.0198271693374
20
11.8569926932402
30
0
41
1
10
53.1633362480829
20
12.0856819685012
30
0
41
1
10
53.2350907874558
20
12.1688146905079
30
0
41
1
10
53.3785998662014
20
12.2774607955667
30
0
41
1
10
53.4503544055742
20
12.303
30
0
41
1
10
53.5221089449469
20
12.303
30
0
0
SPLINE
5
F8
100
AcDbEntity
8
1
62
256
6
ByLayer
370
13
48
1
60
0
100
AcDbSpline
70
4
71
3
72
131
73
127
40
0
40
0
40
0
40
0
40
0.0312499999999996
40
0.0312499999999996
40
0.0468749999999993
40
0.0468749999999993
40
0.0624999999999991
40
0.0624999999999991
40
0.0781249999999989
40
0.0781249999999989
40
0.0937499999999987
40
0.0937499999999987
40
0.109374999999998
40
0.109374999999998
40
0.124999999999998
40
0.124999999999998
40
0.140624999999998
40
0.140624999999998
40
0.156249999999998
40
0.156249999999998
40
0.171874999999998
40
0.171874999999998
40
0.187499999999997
40
0.187499999999997
40
0.203124999999997
40
0.203124999999997
40
0.218749999999997
40
0.218749999999997
40
0.249999999999997
40
0.249999999999997
40
0.265624999999996
40
0.265624999999996
40
0.273437499999996
40
0.273437499999996
40
0.277343749999996
40
0.277343749999996
40
0.281249999999996
40
0.281249999999996
40
0.312499999999997
40
0.312499999999997
40
0.328124999999997
40
0.328124999999997
40
0.343749999999997
40
0.343749999999997
40
0.359374999999997
40
0.359374999999997
40
0.374999999999997
40
0.374999999999997
40
0.390624999999998
40
0.390624999999998
40
0.406249999999998
40
0.406249999999998
40
0.421874999999998
40
0.421874999999998
40
0.437499999999998
40
0.437499999999998
40
0.453124999999999
40
0.453124999999999
40
0.468749999999999
40
0.468749999999999
40
0.484374999999999
40
0.484374999999999
40
0.499999999999999
40
0.499999999999999
40
0.53125
40
0.53125
40
0.546875
40
0.546875
40
0.55078125
40
0.55078125
40
0.5546875
40
0.5625
40
0.5625
40
0.59375
40
0.59375
40
0.609375
40
0.609375
40
0.625
40
0.625
40
0.640625000000001
40
0.640625000000001
40
0.656250000000001
40
0.656250000000001
40
0.671875000000001
40
0.671875000000001
40
0.687500000000001
40
0.687500000000001
40
0.703125000000001
40
0.703125000000001
40
0.718750000000001
40
0.718750000000001
40
0.734375000000001
40
0.734375000000001
40
0.750000000000002
40
0.750000000000002
40
0.765625000000002
40
0.765625000000002
40
0.781250000000002
40
0.781250000000002
40
0.812500000000002
40
0.812500000000002
40
0.820312500000003
40
0.820312500000003
40
0.824218750000002
40
0.824218750000002
40
0.828125000000002
40
0.828125000000002
40
0.843750000000002
40
0.843750000000002
40
0.875000000000002
40
0.875000000000002
40
0.890625000000002
40
0.890625000000002
40
0.906250000000001
40
0.906250000000001
40
0.921875000000001
40
0.921875000000001
40
0.937500000000001
40
0.937500000000001
40
0.953125000000001
40
0.953125000000001
40
0.96875
40
0.96875
40
0.984375
40
0.984375
40
1
40
1
40
1
40
1
41
1
10
52.7684179996805
20
12.303
30
0
41
1
10
52.8721019185153
20
12.303
30
0
41
1
10
52.9757858373502
20
12.2495344160084
30
0
41
1
10
53.1313117156024
20
12.0751979106982
30
0
41
1
10
53.1831536750198
20
12.0014423752071
30
0
41
1
10
53.2868375938546
20
11.8210817436664
30
0
41
1
10
53.338679553272
20
11.7144721826931
30
0
41
1
10
53.4423634721068
20
11.4675274342196
30
0
41
1
10
53.4942054315242
20
11.3271888404902
30
0
41
1
10
53.597889350359
20
11.0127268248438
30
0
41
1
10
53.6497313097765
20
10.8386015355082
30
0
41
1
10
53.7534152286113
20
10.4574046974986
30
0
41
1
10
53.8052571880287
20
10.2503331807305
30
0
41
1
10
53.9089411068636
20
9.80500901074652
30
0
41
1
10
53.9607830662809
20
9.56675845272426
30
0
41
1
10
54.0644669851157
20
9.0617363887946
30
0
41
1
10
54.1163089445331
20
8.79496896012986
30
0
41
1
10
54.2199928633679
20
8.2363752552989
30
0
41
1
10
54.2718348227854
20
7.94455470742196
30
0
41
1
10
54.3755187416201
20
7.33997017065226
30
0
41
1
10
54.4273607010376
20
7.02721302477721
30
0
41
1
10
54.5310446198724
20
6.38533317583173
30
0
41
1
10
54.5828865792898
20
6.05621777361813
30
0
41
1
10
54.6865704981247
20
5.38644698056618
30
0
41
1
10
54.738412457542
20
5.04579867594657
30
0
41
1
10
54.8420963763768
20
4.35781693242947
30
0
41
1
10
54.8939383357942
20
4.01048977743994
30
0
41
1
10
55.0494642140465
20
2.96550272992931
30
0
41
1
10
55.1531481328813
20
2.26509008514762
30
0
41
1
10
55.3086740111335
20
1.2334121146414
30
0
41
1
10
55.3605159705509
20
0.892618424023169
30
0
41
1
10
55.438278909677
20
0.38854872111844
30
0
41
1
10
55.4641998893858
20
0.221707730233618
30
0
41
1
10
55.5030813589489
20
-0.0265132625970637
30
0
41
1
10
55.5160418488032
20
-0.109084314036664
30
0
41
1
10
55.5419628285119
20
-0.275294861677224
30
0
41
1
10
55.5549233183662
20
-0.358728225599606
30
0
41
1
10
55.6715677270554
20
-1.1123804669823
30
0
41
1
10
55.7752516458903
20
-1.80223964511435
30
0
41
1
10
55.9307775241424
20
-2.84585804345215
30
0
41
1
10
55.9826194835598
20
-3.19512898668302
30
0
41
1
10
56.0863034023946
20
-3.89218870193906
30
0
41
1
10
56.1381453618121
20
-4.23997257901843
30
0
41
1
10
56.2418292806469
20
-4.92941047595042
30
0
41
1
10
56.2936712400643
20
-5.27105833337322
30
0
41
1
10
56.3973551588991
20
-5.94338099371348
30
0
41
1
10
56.4491971183165
20
-6.27404877427549
30
0
41
1
10
56.5528810371513
20
-6.9195721231842
30
0
41
1
10
56.6047229965687
20
-7.23442038197297
30
0
41
1
10
56.7084069154036
20
-7.84368692093432
30
0
41
1
10
56.760248874821
20
-8.13809827193032
30
0
41
1
10
56.8639327936557
20
-8.70231085902751
30
0
41
1
10
56.9157747530732
20
-8.97210621040077
30
0
41
1
10
57.019458671908
20
-9.48353904089134
30
0
41
1
10
57.0713006313254
20
-9.72517223456123
30
0
41
1
10
57.1749845501602
20
-10.1775199391946
30
0
41
1
10
57.2268265095777
20
-10.388232121382
30
0
41
1
10
57.3305104284124
20
-10.7768643279545
30
0
41
1
10
57.3823523878299
20
-10.9547840904796
30
0
41
1
10
57.4860363066647
20
-11.2768843628116
30
0
41
1
10
57.5378782660821
20
-11.4210665397781
30
0
41
1
10
57.6415621849169
20
-11.6756490856218
30
0
41
1
10
57.6934041443343
20
-11.7860527089315
30
0
41
1
10
57.8489300225865
20
-12.0677708611351
30
0
41
1
10
57.9526139414214
20
-12.1893204080434
30
0
41
1
10
58.1081398196736
20
-12.2829493251495
30
0
41
1
10
58.159981779091
20
-12.2994514380668
30
0
41
1
10
58.2247842283628
20
-12.3032435081681
30
0
41
1
10
58.2377447182171
20
-12.3031665896695
30
0
41
1
10
58.2636656979258
20
-12.3013363412973
30
0
41
1
10
58.3025471674888
20
-12.2960626514243
30
0
41
1
10
58.3414286370519
20
-12.2830193105287
30
0
41
1
10
58.4710335355955
20
-12.2215024321744
30
0
41
1
10
58.5747174544303
20
-12.1142418174112
30
0
41
1
10
58.7302433326825
20
-11.8548304607995
30
0
41
1
10
58.7820852921
20
-11.7520035875563
30
0
41
1
10
58.8857692109348
20
-11.5126844272222
30
0
41
1
10
58.9376111703521
20
-11.3761885883678
30
0
41
1
10
59.041295089187
20
-11.0693747665102
30
0
41
1
10
59.0931370486043
20
-10.8990547205468
30
0
41
1
10
59.1968209674392
20
-10.5253267641205
30
0
41
1
10
59.2486629268565
20
-10.3219186577701
30
0
41
1
10
59.3523468456914
20
-9.88367508200346
30
0
41
1
10
59.4041888051088
20
-9.64884147315996
30
0
41
1
10
59.5078727239436
20
-9.15030916856915
30
0
41
1
10
59.559714683361
20
-8.88661433755757
30
0
41
1
10
59.6633986021958
20
-8.33373730646017
30
0
41
1
10
59.7152405616133
20
-8.04456067123971
30
0
41
1
10
59.8189244804481
20
-7.44477032507385
30
0
41
1
10
59.8707664398654
20
-7.13416336243029
30
0
41
1
10
59.9744503587003
20
-6.49604834094686
30
0
41
1
10
60.0262923181176
20
-6.16854756551078
30
0
41
1
10
60.1299762369524
20
-5.50145349585952
30
0
41
1
10
60.1818181963699
20
-5.16186734409348
30
0
41
1
10
60.2855021152048
20
-4.47546469128645
30
0
41
1
10
60.3373440746222
20
-4.12865459008498
30
0
41
1
10
60.4410279934569
20
-3.43251442711056
30
0
41
1
10
60.4928699528743
20
-3.08318957334654
30
0
41
1
10
60.6483958311266
20
-2.03800942757164
30
0
41
1
10
60.7520797499614
20
-1.34523634695211
30
0
41
1
10
60.8816846485049
20
-0.502491780928068
30
0
41
1
10
60.9076056282136
20
-0.335082108015598
30
0
41
1
10
60.9464870977766
20
-0.085950009293839
30
0
41
1
10
60.959447587631
20
-0.0034653099087052
30
0
41
1
10
60.9853685673398
20
0.162141446689731
30
0
41
1
10
60.9983290571941
20
0.245282644887055
30
0
41
1
10
61.0631315064659
20
0.662568836494245
30
0
41
1
10
61.1149734658833
20
1.00147770037108
30
0
41
1
10
61.2704993441355
20
2.02869965958462
30
0
41
1
10
61.3741832629703
20
2.72775218233488
30
0
41
1
10
61.5297091412225
20
3.77377154926302
30
0
41
1
10
61.58155110064
20
4.12195222269676
30
0
41
1
10
61.6852350194748
20
4.81272387353653
30
0
41
1
10
61.7370769788922
20
5.15530881526175
30
0
41
1
10
61.840760897727
20
5.83005843839143
30
0
41
1
10
61.8926028571444
20
6.16221616874017
30
0
41
1
10
61.9962867759792
20
6.81126100673993
30
0
41
1
10
62.0481287353966
20
7.12814080481857
30
0
41
1
10
62.1518126542315
20
7.74197584605227
30
0
41
1
10
62.2036546136488
20
8.03892408252182
30
0
41
1
10
62.3073385324837
20
8.60865588700997
30
0
41
1
10
62.359180491901
20
8.88143342108904
30
0
41
1
10
62.4628644107359
20
9.39919571015227
30
0
41
1
10
62.5147063701533
20
9.64417597613155
30
0
41
1
10
62.6183902889882
20
10.103487558622
30
0
41
1
10
62.6702322484055
20
10.317816314192
30
0
41
1
10
62.7220742078229
20
10.5158319952719
30
0
0
SPLINE
5
F9
100
AcDbEntity
8
1
62
256
6
ByLayer
370
13
48
1
60
0
100
AcDbSpline
70
4
71
3
72
8
73
4
40
0
40
0
40
0
40
0
40
1
40
1
40
1
40
1
41
1
10
62.7220742078229
20
4.63494398142478
30
0
41
1
10
64.2147161385486
20
3.10697360639796
30
0
41
1
10
65.7073580692743
20
1.56197673258893
30
0
41
1
10
67.2
20
0
30
0
0
SPLINE
5
FA
100
AcDbEntity
8
1
62
256
6
ByLayer
370
13
48
1
60
0
100
AcDbSpline
70
4
71
3
72
8
73
4
40
0
40
0
40
0
40
0
40
1
40
1
40
1
40
1
41
1
10
62.7220742078229
20
11.748786871599
30
0
41
1
10
64.2147161385486
20
7.8379742198307
30
0
41
1
10
65.7073580692743
20
3.92167264705873
30
0
41
1
10
67.2
20
8.53E-14
30
0
0
SPLINE
5
FB
100
AcDbEntity
8
1
62
256
6
ByLayer
370
13
48
1
60
0
100
AcDbSpline
70
4
71
3
72
8
73
4
40
0
40
0
40
0
40
0
40
1
40
1
40
1
40
1
41
1
10
62.7220742078228
20
-10.8182580550064
30
0
41
1
10
64.2147161385486
20
-7.22091758122897
30
0
41
1
10
65.7073580692743
20
-3.61479537943373
30
0
41
1
10
67.2000000000001
20
2.558E-13
30
0
0
SPLINE
5
FC
100
AcDbEntity
8
1
62
256
6
ByLayer
370
13
48
1
60
0
100
AcDbSpline
70
4
71
3
72
8
73
4
40
0
40
0
40
0
40
0
40
1
40
1
40
1
40
1
41
1
10
62.7220742078228
20
-3.51019694625202
30
0
41
1
10
64.2147161385486
20
-2.35773196547456
30
0
41
1
10
65.7073580692743
20
-1.18765452695007
30
0
41
1
10
67.2000000000001
20
8.53E-14
30
0
0
SPLINE
5
FD
100
AcDbEntity
8
1
62
256
6
ByLayer
370
13
48
1
60
0
100
AcDbSpline
70
4
71
3
72
8
73
4
40
0
40
0
40
0
40
0
40
1
40
1
40
1
40
1
41
1
10
62.7220742078228
20
-10.192131546767
30
0
41
1
10
64.2147161385486
20
-6.80503998487671
30
0
41
1
10
65.7073580692743
20
-3.40762870650684
30
0
41
1
10
67.2000000000001
20
2.274E-13
30
0
0
SPLINE
5
FE
100
AcDbEntity
8
1
62
256
6
ByLayer
370
13
48
1
60
0
100
AcDbSpline
70
4
71
3
72
8
73
4
40
0
40
0
40
0
40
0
40
1
40
1
40
1
40
1
41
1
10
62.7220742078228
20
-6.89701042977879
30
0
41
1
10
64.2147161385486
20
-4.58279993828336
30
0
41
1
10
65.7073580692743
20
-2.28377346294897
30
0
41
1
10
67.2000000000001
20
1.705E-13
30
0
0
SPLINE
5
FF
100
AcDbEntity
8
1
62
256
6
ByLayer
370
13
48
1
60
0
100
AcDbSpline
70
4
71
3
72
8
73
4
40
0
40
0
40
0
40
0
40
1
40
1
40
1
40
1
41
1
10
62.7220742078228
20
-11.3937498087676
30
0
41
1
10
64.2147161385486
20
-7.58890466582787
30
0
41
1
10
65.7073580692743
20
-3.79095000855492
30
0
41
1
10
67.2000000000001
20
2.558E-13
30
0
0
SPLINE
5
100
100
AcDbEntity
8
1
62
256
6
ByLayer
370
13
48
1
60
0
100
AcDbSpline
70
4
71
3
72
8
73
4
40
0
40
0
40
0
40
0
40
1
40
1
40
1
40
1
41
1
10
62.7220742078228
20
4.76412214476304
30
0
41
1
10
64.2147161385486
20
3.15915017528476
30
0
41
1
10
65.7073580692743
20
1.57109359542119
30
0
41
1
10
67.2000000000001
20
-1.137E-13
30
0
0
SPLINE
5
101
100
AcDbEntity
8
1
62
256
6
ByLayer
370
13
48
1
60
0
100
AcDbSpline
70
4
71
3
72
8
73
4
40
0
40
0
40
0
40
0
40
1
40
1
40
1
40
1
41
1
10
62.7220742078228
20
-11.793729749668
30
0
41
1
10
64.2147161385486
20
-7.85725761773918
30
0
41
1
10
65.7073580692743
20
-3.92597497110054
30
0
41
1
10
67.2000000000001
20
2.842E-13
30
0
0
SPLINE
5
102
100
AcDbEntity
8
1
62
256
6
ByLayer
370
13
48
1
60
0
100
AcDbSpline
70
4
71
3
72
8
73
4
40
0
40
0
40
0
40
0
40
1
40
1
40
1
40
1
41
1
10
62.7220742078228
20
8.7410072801311
30
0
41
1
10
64.2147161385486
20
5.81441509663375
30
0
41
1
10
65.7073580692743
20
2.90071683431077
30
0
41
1
10
67.2000000000001
20
-1.99E-13
30
0
0
SPLINE
5
103
100
AcDbEntity
8
1
62
256
6
ByLayer
370
13
48
1
60
0
100
AcDbSpline
70
4
71
3
72
8
73
4
40
0
40
0
40
0
40
0
40
1
40
1
40
1
40
1
41
1
10
62.7220742078229
20
6.76846706184239
30
0
41
1
10
64.2147161385486
20
4.52764652980301
30
0
41
1
10
65.7073580692743
20
2.27146817129724
30
0
41
1
10
67.2
20
0
30
0
0
SPLINE
5
104
100
AcDbEntity
8
1
62
256
6
ByLayer
370
13
48
1
60
0
100
AcDbSpline
70
4
71
3
72
8
73
4
40
0
40
0
40
0
40
0
40
1
40
1
40
1
40
1
41
1
10
62.7220742078229
20
2.32343851749823
30
0
41
1
10
64.2147161385486
20
1.56699253813025
30
0
41
1
10
65.7073580692742
20
0.792505207181478
30
0
41
1
10
67.1999999999999
20
5.68E-14
30
0
0
SPLINE
5
105
100
AcDbEntity
8
1
62
256
6
ByLayer
370
13
48
1
60
0
100
AcDbSpline
70
4
71
3
72
8
73
4
40
0
40
0
40
0
40
0
40
1
40
1
40
1
40
1
41
1
10
62.7220742078229
20
12.2352154837967
30
0
41
1
10
64.2147161385486
20
8.15873537413461
30
0
41
1
10
65.7073580692743
20
4.08028931678203
30
0
41
1
10
67.2
20
0
30
0
0
SPLINE
5
106
100
AcDbEntity
8
1
62
256
6
ByLayer
370
13
48
1
60
0
100
AcDbSpline
70
4
71
3
72
8
73
4
40
0
40
0
40
0
40
0
40
1
40
1
40
1
40
1
41
1
10
62.7220742078228
20
-2.3379673920445
30
0
41
1
10
64.2147161385486
20
-1.57667427041517
30
0
41
1
10
65.7073580692743
20
-0.797343932743274
30
0
41
1
10
67.2000000000001
20
5.68E-14
30
0
0
SPLINE
5
107
100
AcDbEntity
8
1
62
256
6
ByLayer
370
13
48
1
60
0
100
AcDbSpline
70
4
71
3
72
8
73
4
40
0
40
0
40
0
40
0
40
1
40
1
40
1
40
1
41
1
10
62.7220742078228
20
-12.0529574824439
30
0
41
1
10
64.2147161385486
20
-8.03898852644954
30
0
41
1
10
65.7073580692743
20
-4.02129573943742
30
0
41
1
10
67.2000000000001
20
2.842E-13
30
0
0
SPLINE
5
108
100
AcDbEntity
8
1
62
256
6
ByLayer
370
13
48
1
60
0
100
AcDbSpline
70
4
71
3
72
8
73
4
40
0
40
0
40
0
40
0
40
1
40
1
40
1
40
1
41
1
10
62.7220742078228
20
-6.78081850280154
30
0
41
1
10
64.2147161385486
20
-4.53586866193331
30
0
41
1
10
65.7073580692743
20
-2.27557311520368
30
0
41
1
10
67.2000000000001
20
1.705E-13
30
0
0
SPLINE
5
109
100
AcDbEntity
8
1
62
256
6
ByLayer
370
13
48
1
60
0
100
AcDbSpline
70
4
71
3
72
8
73
4
40
0
40
0
40
0
40
0
40
1
40
1
40
1
40
1
41
1
10
62.7220742078229
20
-2.47504518504832
30
0
41
1
10
64.2147161385487
20
-1.63204159198628
30
0
41
1
10
65.7073580692744
20
-0.807018318907865
30
0
41
1
10
67.2000000000001
20
5.68E-14
30
0
0
SPLINE
5
10A
100
AcDbEntity
8
1
62
256
6
ByLayer
370
13
48
1
60
0
100
AcDbSpline
70
4
71
3
72
8
73
4
40
0
40
0
40
0
40
0
40
1
40
1
40
1
40
1
41
1
10
62.7220742078228
20
5.85259755028002
30
0
41
1
10
64.2147161385486
20
3.88557865838345
30
0
41
1
10
65.7073580692743
20
1.93469330310083
30
0
41
1
10
67.2000000000001
20
-1.421E-13
30
0
0
SPLINE
5
10B
100
AcDbEntity
8
1
62
256
6
ByLayer
370
13
48
1
60
0
100
AcDbSpline
70
4
71
3
72
8
73
4
40
0
40
0
40
0
40
0
40
1
40
1
40
1
40
1
41
1
10
62.7220742078228
20
-9.55657008549954
30
0
41
1
10
64.2147161385486
20
-6.3594813223811
30
0
41
1
10
65.7073580692743
20
-3.17392606148283
30
0
41
1
10
67.2000000000001
20
2.274E-13
30
0
0
SPLINE
5
10C
100
AcDbEntity
8
1
62
256
6
ByLayer
370
13
48
1
60
0
100
AcDbSpline
70
4
71
3
72
8
73
4
40
0
40
0
40
0
40
0
40
1
40
1
40
1
40
1
41
1
10
62.7220742078229
20
8.64208022636959
30
0
41
1
10
64.2147161385486
20
5.77445730421772
30
0
41
1
10
65.7073580692743
20
2.89373497022299
30
0
41
1
10
67.2
20
2.84E-14
30
0
0
SPLINE
5
10D
100
AcDbEntity
8
1
62
256
6
ByLayer
370
13
48
1
60
0
100
AcDbSpline
70
4
71
3
72
8
73
4
40
0
40
0
40
0
40
0
40
1
40
1
40
1
40
1
41
1
10
62.7220742078229
20
12.30270853779
30
0
41
1
10
64.2147161385486
20
8.20193209699067
30
0
41
1
10
65.7073580692743
20
4.10098813542533
30
0
41
1
10
67.2
20
0
30
0
0
SPLINE
5
10E
100
AcDbEntity
8
1
62
256
6
ByLayer
370
13
48
1
60
0
100
AcDbSpline
70
4
71
3
72
8
73
4
40
0
40
0
40
0
40
0
40
1
40
1
40
1
40
1
41
1
10
62.7220742078229
20
1.12850553809449
30
0
41
1
10
64.2147161385486
20
0.7706235817015
30
0
41
1
10
65.7073580692742
20
0.394451236465045
30
0
41
1
10
67.1999999999999
20
2.84E-14
30
0
0
SPLINE
5
10F
100
AcDbEntity
8
1
62
256
6
ByLayer
370
13
48
1
60
0
100
AcDbSpline
70
4
71
3
72
8
73
4
40
0
40
0
40
0
40
0
40
1
40
1
40
1
40
1
41
1
10
62.7220742078228
20
-12.3028014911583
30
0
41
1
10
64.2147161385486
20
-8.20197197999022
30
0
41
1
10
65.7073580692743
20
-4.10099703373186
30
0
41
1
10
67.2000000000001
20
2.842E-13
30
0
0
SPLINE
5
110
100
AcDbEntity
8
1
62
256
6
ByLayer
370
13
48
1
60
0
100
AcDbSpline
70
4
71
3
72
8
73
4
40
0
40
0
40
0
40
0
40
1
40
1
40
1
40
1
41
1
10
62.7220742078228
20
12.0774046305073
30
0
41
1
10
64.2147161385487
20
8.04810249752964
30
0
41
1
10
65.7073580692746
20
4.02226060347024
30
0
41
1
10
67.2000000000006
20
-1.5064E-12
30
0
0
SPLINE
5
111
100
AcDbEntity
8
1
62
256
6
ByLayer
370
13
48
1
60
0
100
AcDbSpline
70
4
71
3
72
8
73
4
40
0
40
0
40
0
40
0
40
1
40
1
40
1
40
1
41
1
10
62.7220742078229
20
10.8112034883563
30
0
41
1
10
64.2147161385486
20
7.21623395140625
30
0
41
1
10
65.7073580692743
20
3.61246329533904
30
0
41
1
10
67.2
20
2.84E-14
30
0
0
SPLINE
5
112
100
AcDbEntity
8
1
62
256
6
ByLayer
370
13
48
1
60
0
100
AcDbSpline
70
4
71
3
72
8
73
4
40
0
40
0
40
0
40
0
40
1
40
1
40
1
40
1
41
1
10
62.7220742078228
20
-5.74236276864326
30
0
41
1
10
64.2147161385486
20
-3.84448279684173
30
0
41
1
10
65.7073580692743
20
-1.9303426289124
30
0
41
1
10
67.2000000000001
20
1.421E-13
30
0
0
SPLINE
5
113
100
AcDbEntity
8
1
62
256
6
ByLayer
370
13
48
1
60
0
100
AcDbSpline
70
4
71
3
72
8
73
4
40
0
40
0
40
0
40
0
40
1
40
1
40
1
40
1
41
1
10
62.7220742078228
20
10.2616065177429
30
0
41
1
10
64.2147161385486
20
6.83094046515569
30
0
41
1
10
65.7073580692743
20
3.41037069917448
30
0
41
1
10
67.2000000000001
20
-2.274E-13
30
0
0
SPLINE
5
114
100
AcDbEntity
8
1
62
256
6
ByLayer
370
13
48
1
60
0
100
AcDbSpline
70
4
71
3
72
8
73
4
40
0
40
0
40
0
40
0
40
1
40
1
40
1
40
1
41
1
10
62.7220742078228
20
1.26761914924458
30
0
41
1
10
64.2147161385486
20
0.826813193998902
30
0
41
1
10
65.7073580692743
20
0.404269302291226
30
0
41
1
10
67.2000000000001
20
-2.84E-14
30
0
0
SPLINE
5
115
100
AcDbEntity
8
1
62
256
6
ByLayer
370
13
48
1
60
0
100
AcDbSpline
70
4
71
3
72
8
73
4
40
0
40
0
40
0
40
0
40
1
40
1
40
1
40
1
41
1
10
62.7220742078228
20
-10.2697618071219
30
0
41
1
10
64.2147161385486
20
-6.83639575370356
30
0
41
1
10
65.7073580692743
20
-3.41310753061305
30
0
41
1
10
67.2000000000001
20
2.558E-13
30
0
0
SPLINE
5
116
100
AcDbEntity
8
1
62
256
6
ByLayer
370
13
48
1
60
0
100
AcDbSpline
70
4
71
3
72
8
73
4
40
0
40
0
40
0
40
0
40
1
40
1
40
1
40
1
41
1
10
62.7220742078228
20
-9.46792431966438
30
0
41
1
10
64.2147161385486
20
-6.32367626223706
30
0
41
1
10
65.7073580692743
20
-3.16766980836002
30
0
41
1
10
67.2000000000001
20
2.274E-13
30
0
0
SPLINE
5
117
100
AcDbEntity
8
1
62
256
6
ByLayer
370
13
48
1
60
0
100
AcDbSpline
70
4
71
3
72
8
73
4
40
0
40
0
40
0
40
0
40
1
40
1
40
1
40
1
41
1
10
62.7220742078228
20
11.7895080363361
30
0
41
1
10
64.2147161385484
20
7.85442197386433
30
0
41
1
10
65.7073580692741
20
3.92454657918293
30
0
41
1
10
67.1999999999996
20
9.095E-13
30
0
0
SPLINE
5
118
100
AcDbEntity
8
1
62
256
6
ByLayer
370
13
48
1
60
0
100
AcDbSpline
70
4
71
3
72
8
73
4
40
0
40
0
40
0
40
0
40
1
40
1
40
1
40
1
41
1
10
62.7220742078229
20
7.74252751297561
30
0
41
1
10
64.2147161385486
20
5.17595649814797
30
0
41
1
10
65.7073580692743
20
2.59508807087724
30
0
41
1
10
67.2
20
0
30
0
0
SPLINE
5
119
100
AcDbEntity
8
1
62
256
6
ByLayer
370
13
48
1
60
0
100
AcDbSpline
70
4
71
3
72
8
73
4
40
0
40
0
40
0
40
0
40
1
40
1
40
1
40
1
41
1
10
62.7220742078229
20
-1.28233629592336
30
0
41
1
10
64.2147161385486
20
-0.83662691395881
30
0
41
1
10
65.7073580692742
20
-0.409177257499749
30
0
41
1
10
67.1999999999999
20
-2.84E-14
30
0
0
SPLINE
5
11A
100
AcDbEntity
8
1
62
256
6
ByLayer
370
13
48
1
60
0
100
AcDbSpline
70
4
71
3
72
8
73
4
40
0
40
0
40
0
40
0
40
1
40
1
40
1
40
1
41
1
10
62.7220742078228
20
-11.7531694331933
30
0
41
1
10
64.2147161385486
20
-7.84087483219773
30
0
41
1
10
65.7073580692743
20
-3.92311239098501
30
0
41
1
10
67.2000000000001
20
2.842E-13
30
0
0
SPLINE
5
11B
100
AcDbEntity
8
1
62
256
6
ByLayer
370
13
48
1
60
0
100
AcDbSpline
70
4
71
3
72
8
73
4
40
0
40
0
40
0
40
0
40
1
40
1
40
1
40
1
41
1
10
62.7220742078228
20
0.0624906760227475
30
0
41
1
10
64.2147161385486
20
0.0232967138987306
30
0
41
1
10
65.7073580692743
20
0.0024663410871995
30
0
41
1
10
67.2000000000001
20
0
30
0
0
SPLINE
5
11C
100
AcDbEntity
8
1
62
256
6
ByLayer
370
13
48
1
60
0
100
AcDbSpline
70
4
71
3
72
8
73
4
40
0
40
0
40
0
40
0
40
1
40
1
40
1
40
1
41
1
10
62.7220742078228
20
-11.3402785161433
30
0
41
1
10
64.2147161385486
20
-7.56730698622803
30
0
41
1
10
65.7073580692743
20
-3.78717622490819
30
0
41
1
10
67.2000000000001
20
2.558E-13
30
0
0
SPLINE
5
11D
100
AcDbEntity
8
1
62
256
6
ByLayer
370
13
48
1
60
0
100
AcDbSpline
70
4
71
3
72
8
73
4
40
0
40
0
40
0
40
0
40
1
40
1
40
1
40
1
41
1
10
62.7220742078228
20
10.877219421068
30
0
41
1
10
64.2147161385487
20
7.24289855765002
30
0
41
1
10
65.7073580692746
20
3.61712242802537
30
0
41
1
10
67.2000000000006
20
-1.3642E-12
30
0
0
SPLINE
5
11E
100
AcDbEntity
8
1
62
256
6
ByLayer
370
13
48
1
60
0
100
AcDbSpline
70
4
71
3
72
8
73
4
40
0
40
0
40
0
40
0
40
1
40
1
40
1
40
1
41
1
10
62.7220742078229
20
3.4960126292809
30
0
41
1
10
64.2147161385486
20
2.34828204293612
30
0
41
1
10
65.7073580692743
20
1.18293275745117
30
0
41
1
10
67.2
20
0
30
0
0
SPLINE
5
11F
100
AcDbEntity
8
1
62
256
6
ByLayer
370
13
48
1
60
0
100
AcDbSpline
70
4
71
3
72
8
73
4
40
0
40
0
40
0
40
0
40
1
40
1
40
1
40
1
41
1
10
62.7220742078228
20
7.85065394637468
30
0
41
1
10
64.2147161385484
20
5.21963002744246
30
0
41
1
10
65.7073580692741
20
2.60271918929874
30
0
41
1
10
67.1999999999996
20
5.969E-13
30
0
0
SPLINE
5
120
100
AcDbEntity
8
1
62
256
6
ByLayer
370
13
48
1
60
0
100
AcDbSpline
70
4
71
3
72
8
73
4
40
0
40
0
40
0
40
0
40
1
40
1
40
1
40
1
41
1
10
62.7220742078229
20
-3.64393626826538
30
0
41
1
10
64.2147161385486
20
-2.41175083962153
30
0
41
1
10
65.7073580692743
20
-1.19709329757953
30
0
41
1
10
67.2
20
0
30
0
0
SPLINE
5
121
100
AcDbEntity
8
1
62
256
6
ByLayer
370
13
48
1
60
0
100
AcDbSpline
70
4
71
3
72
8
73
4
40
0
40
0
40
0
40
0
40
1
40
1
40
1
40
1
41
1
10
62.7220742078228
20
-7.8620410175098
30
0
41
1
10
64.2147161385486
20
-5.22723551191825
30
0
41
1
10
65.7073580692743
20
-2.60652894529355
30
0
41
1
10
67.2000000000001
20
1.705E-13
30
0
0
SPLINE
5
122
100
AcDbEntity
8
1
62
256
6
ByLayer
370
13
48
1
60
0
100
AcDbSpline
70
4
71
3
72
8
73
4
40
0
40
0
40
0
40
0
40
1
40
1
40
1
40
1
41
1
10
62.7220742078228
20
-10.8841257598939
30
0
41
1
10
64.2147161385486
20
-7.24752231652377
30
0
41
1
10
65.7073580692743
20
-3.61944405081147
30
0
41
1
10
67.2000000000001
20
2.558E-13
30
0
0
SPLINE
5
123
100
AcDbEntity
8
1
62
256
6
ByLayer
370
13
48
1
60
0
100
AcDbSpline
70
4
71
3
72
8
73
4
40
0
40
0
40
0
40
0
40
1
40
1
40
1
40
1
41
1
10
62.7220742078228
20
-12.0802165035331
30
0
41
1
10
64.2147161385486
20
-8.04999876343459
30
0
41
1
10
65.7073580692743
20
-4.02321956889736
30
0
41
1
10
67.2000000000001
20
2.842E-13
30
0
0
SPLINE
5
124
100
AcDbEntity
8
1
62
256
6
ByLayer
370
13
48
1
60
0
100
AcDbSpline
70
4
71
3
72
8
73
4
40
0
40
0
40
0
40
0
40
1
40
1
40
1
40
1
41
1
10
62.7220742078229
20
10.1838365133748
30
0
41
1
10
64.2147161385486
20
6.79952825208986
30
0
41
1
10
65.7073580692743
20
3.40488201251139
30
0
41
1
10
67.2
20
2.84E-14
30
0
0
SPLINE
5
125
100
AcDbEntity
8
1
62
256
6
ByLayer
370
13
48
1
60
0
100
AcDbSpline
70
4
71
3
72
8
73
4
40
0
40
0
40
0
40
0
40
1
40
1
40
1
40
1
41
1
10
62.7220742078228
20
11.388158881438
30
0
41
1
10
64.2147161385484
20
7.5851569318944
30
0
41
1
10
65.7073580692741
20
3.78906593581806
30
0
41
1
10
67.1999999999996
20
8.811E-13
30
0
0
SPLINE
5
126
100
AcDbEntity
8
1
62
256
6
ByLayer
370
13
48
1
60
0
100
AcDbSpline
70
4
71
3
72
8
73
4
40
0
40
0
40
0
40
0
40
1
40
1
40
1
40
1
41
1
10
62.7220742078229
20
11.3345323036016
30
0
41
1
10
64.2147161385486
20
7.56349653078337
30
0
41
1
10
65.7073580692743
20
3.78528119277982
30
0
41
1
10
67.2
20
2.84E-14
30
0
0
SPLINE
5
127
100
AcDbEntity
8
1
62
256
6
ByLayer
370
13
48
1
60
0
100
AcDbSpline
70
4
71
3
72
8
73
4
40
0
40
0
40
0
40
0
40
1
40
1
40
1
40
1
41
1
10
62.7220742078228
20
-12.2367577494645
30
0
41
1
10
64.2147161385485
20
-8.15974158519671
30
0
41
1
10
65.7073580692742
20
-4.08078143420752
30
0
41
1
10
67.1999999999999
20
-3.411E-13
30
0
0
SPLINE
5
128
100
AcDbEntity
8
1
62
256
6
ByLayer
370
13
48
1
60
0
100
AcDbSpline
70
4
71
3
72
8
73
4
40
0
40
0
40
0
40
0
40
1
40
1
40
1
40
1
41
1
10
62.7220742078228
20
-8.75141376750679
30
0
41
1
10
64.2147161385486
20
-5.82136845608611
30
0
41
1
10
65.7073580692743
20
-2.90420132980731
30
0
41
1
10
67.2000000000001
20
1.99E-13
30
0
0
SPLINE
5
129
100
AcDbEntity
8
1
62
256
6
ByLayer
370
13
48
1
60
0
100
AcDbSpline
70
4
71
3
72
8
73
4
40
0
40
0
40
0
40
0
40
1
40
1
40
1
40
1
41
1
10
62.7220742078228
20
-12.2504531566952
30
0
41
1
10
64.2147161385486
20
-8.16527332013018
30
0
41
1
10
65.7073580692743
20
-4.08174799965383
30
0
41
1
10
67.2000000000001
20
2.842E-13
30
0
0
SPLINE
5
12A
100
AcDbEntity
8
1
62
256
6
ByLayer
370
13
48
1
60
0
100
AcDbSpline
70
4
71
3
72
8
73
4
40
0
40
0
40
0
40
0
40
1
40
1
40
1
40
1
41
1
10
62.7220742078228
20
9.54724432538697
30
0
41
1
10
64.2147161385484
20
6.35324700138401
30
0
41
1
10
65.7073580692741
20
3.17080035841391
30
0
41
1
10
67.1999999999996
20
7.39E-13
30
0
0
SPLINE
5
12B
100
AcDbEntity
8
1
62
256
6
ByLayer
370
13
48
1
60
0
100
AcDbSpline
70
4
71
3
72
8
73
4
40
0
40
0
40
0
40
0
40
1
40
1
40
1
40
1
41
1
10
62.7220742078229
20
5.72927243225183
30
0
41
1
10
64.2147161385486
20
3.83576620285706
30
0
41
1
10
65.7073580692743
20
1.92598952410461
30
0
41
1
10
67.2
20
0
30
0
0
SPLINE
5
12C
100
AcDbEntity
8
1
62
256
6
ByLayer
370
13
48
1
60
0
100
AcDbSpline
70
4
71
3
72
8
73
4
40
0
40
0
40
0
40
0
40
1
40
1
40
1
40
1
41
1
10
62.7220742078228
20
-1.14323915623751
30
0
41
1
10
64.2147161385486
20
-0.780443954678191
30
0
41
1
10
65.7073580692743
20
-0.399360354161644
30
0
41
1
10
67.2000000000001
20
2.84E-14
30
0
0
SPLINE
5
12D
100
AcDbEntity
8
1
62
256
6
ByLayer
370
13
48
1
60
0
100
AcDbSpline
70
4
71
3
72
8
73
4
40
0
40
0
40
0
40
0
40
1
40
1
40
1
40
1
41
1
10
62.7220742078228
20
-5.86560866759268
30
0
41
1
10
64.2147161385485
20
-3.89426325485709
30
0
41
1
10
65.7073580692742
20
-1.93904081695251
30
0
41
1
10
67.1999999999999
20
-1.705E-13
30
0
0
SPLINE
5
12E
100
AcDbEntity
8
1
62
256
6
ByLayer
370
13
48
1
60
0
100
AcDbSpline
70
4
71
3
72
8
73
4
40
0
40
0
40
0
40
0
40
1
40
1
40
1
40
1
41
1
10
62.7220742078228
20
6.88475235472208
30
0
41
1
10
64.2147161385486
20
4.5746155177315
30
0
41
1
10
65.7073580692743
20
2.27967510842342
30
0
41
1
10
67.2000000000001
20
-1.705E-13
30
0
0
SPLINE
5
12F
100
AcDbEntity
8
1
62
256
6
ByLayer
370
13
48
1
60
0
100
AcDbSpline
70
4
71
3
72
8
73
4
40
0
40
0
40
0
40
0
40
1
40
1
40
1
40
1
41
1
10
62.7220742078229
20
-0.0772872534996054
30
0
41
1
10
64.2147161385487
20
-0.0331612243480208
30
0
41
1
10
65.7073580692744
20
-0.0073986095941336
30
0
41
1
10
67.2000000000001
20
0
30
0
0
SPLINE
5
130
100
AcDbEntity
8
1
62
256
6
ByLayer
370
13
48
1
60
0
100
AcDbSpline
70
4
71
3
72
8
73
4
40
0
40
0
40
0
40
0
40
1
40
1
40
1
40
1
41
1
10
62.7220742078228
20
-4.64864724258203
30
0
41
1
10
64.2147161385486
20
-3.11610078088205
30
0
41
1
10
65.7073580692743
20
-1.56653610758596
30
0
41
1
10
67.2000000000001
20
1.137E-13
30
0
0
SPLINE
5
131
100
AcDbEntity
8
1
62
256
6
ByLayer
370
13
48
1
60
0
100
AcDbSpline
70
4
71
3
72
8
73
4
40
0
40
0
40
0
40
0
40
1
40
1
40
1
40
1
41
1
10
62.7220742078228
20
3.62980073318087
30
0
41
1
10
64.2147161385486
20
2.40232062065684
30
0
41
1
10
65.7073580692743
20
1.19237497090526
30
0
41
1
10
67.2000000000001
20
-8.53E-14
30
0
0
SPLINE
5
132
100
AcDbEntity
8
1
62
256
6
ByLayer
370
13
48
1
60
0
100
AcDbSpline
70
4
71
3
72
8
73
4
40
0
40
0
40
0
40
0
40
1
40
1
40
1
40
1
41
1
10
62.7220742078229
20
12.0499807459771
30
0
41
1
10
64.2147161385486
20
8.03702567027571
30
0
41
1
10
65.7073580692743
20
4.02032513862844
30
0
41
1
10
67.2
20
-2.84E-14
30
0
0
SPLINE
5
133
100
AcDbEntity
8
1
62
256
6
ByLayer
370
13
48
1
60
0
100
AcDbSpline
70
4
71
3
72
8
73
4
40
0
40
0
40
0
40
0
40
1
40
1
40
1
40
1
41
1
10
62.7220742078228
20
12.2490781831364
30
0
41
1
10
64.2147161385484
20
8.16433468030533
30
0
41
1
10
65.7073580692741
20
4.08126768901764
30
0
41
1
10
67.1999999999996
20
9.663E-13
30
0
0
SPLINE
5
134
100
AcDbEntity
8
1
62
256
6
ByLayer
370
13
48
1
60
0
100
AcDbSpline
70
4
71
3
72
8
73
4
40
0
40
0
40
0
40
0
40
1
40
1
40
1
40
1
41
1
10
62.7220742078229
20
-4.77776109600455
30
0
41
1
10
64.2147161385486
20
-3.16825137424288
30
0
41
1
10
65.7073580692742
20
-1.57564843168936
30
0
41
1
10
67.1999999999999
20
-1.421E-13
30
0
0
SPLINE
5
135
100
AcDbEntity
8
1
62
256
6
ByLayer
370
13
48
1
60
0
100
AcDbSpline
70
4
71
3
72
8
73
4
40
0
40
0
40
0
40
0
40
1
40
1
40
1
40
1
41
1
10
62.7220742078228
20
2.46054909492267
30
0
41
1
10
64.2147161385486
20
1.62237310171173
30
0
41
1
10
65.7073580692743
20
0.802181907135434
30
0
41
1
10
67.2000000000001
20
-5.68E-14
30
0
0
SPLINE
5
136
100
AcDbEntity
8
1
62
256
6
ByLayer
370
13
48
1
60
0
100
AcDbSpline
70
4
71
3
72
8
73
4
40
0
40
0
40
0
40
0
40
1
40
1
40
1
40
1
41
1
10
62.7220742078228
20
-7.75402119835999
30
0
41
1
10
64.2147161385486
20
-5.18360504536446
30
0
41
1
10
65.7073580692743
20
-2.59890535126721
30
0
41
1
10
67.2000000000001
20
1.705E-13
30
0
0
SPLINE
5
137
100
AcDbEntity
8
1
62
256
6
ByLayer
370
13
48
1
60
0
100
AcDbSpline
70
4
71
3
72
8
73
4
40
0
40
0
40
0
40
0
40
1
40
1
40
1
40
1
41
1
10
62.7220742078228
20
-8.65260555037315
30
0
41
1
10
64.2147161385486
20
-5.781458663172
30
0
41
1
10
65.7073580692743
20
-2.89722785271931
30
0
41
1
10
67.2000000000001
20
1.99E-13
30
0
0
SPLINE
5
138
100
AcDbEntity
8
1
62
256
6
ByLayer
370
13
48
1
60
0
100
AcDbSpline
70
4
71
3
72
8
73
4
40
0
40
0
40
0
40
0
40
1
40
1
40
1
40
1
41
1
10
62.7220742078229
20
9.45846864413156
30
0
41
1
10
64.2147161385486
20
6.31738946688409
30
0
41
1
10
65.7073580692743
20
3.16453493639514
30
0
41
1
10
67.2
20
2.84E-14
30
0
0
LINE
5
7D
100
AcDbEntity
8
4
62
256
6
ByLayer
370
18
48
0.05
60
0
100
AcDbLine
10
-5
20
0
30
0
11
72.2
21
0
31
0
39
0
210
0
220
0
230
1
0
LINE
5
7F
100
AcDbEntity
8
81
62
256
6
ByLayer
370
18
48
1
60
0
100
AcDbLine
10
67.2
20
0
30
0
11
72.2
21
0
31
0
39
0
210
0
220
0
230
1
0
LINE
5
80
100
AcDbEntity
8
SK4
62
256
6
ByLayer
370
18
48
0.05
60
0
100
AcDbLine
10
-62.1
20
0
30
0
11
72.2
21
0
31
0
39
0
210
0
220
0
230
1
0
LINE
5
82
100
AcDbEntity
8
80
62
256
6
ByLayer
370
18
48
1
60
0
100
AcDbLine
10
0
20
0
30
0
11
-5
21
0
31
0
39
0
210
0
220
0
230
1
0
LINE
5
83
100
AcDbEntity
8
1
62
256
6
ByLayer
370
18
48
1
60
0
100
AcDbLine
10
62.722074
20
12.303
30
0
11
62.722074
21
11.912328
31
0
39
0
210
0
220
0
230
1
0
LINE
5
84
100
AcDbEntity
8
1
62
256
6
ByLayer
370
18
48
1
60
0
100
AcDbLine
10
62.722074
20
-12.303
30
0
11
62.722074
21
-1.755661
31
0
39
0
210
0
220
0
230
1
0
LINE
5
85
100
AcDbEntity
8
1
62
256
6
ByLayer
370
18
48
1
60
0
100
AcDbLine
10
15
20
-6.186705
30
0
11
15
21
11.165852
31
0
39
0
210
0
220
0
230
1
0
LINE
5
86
100
AcDbEntity
8
1
62
256
6
ByLayer
370
18
48
1
60
0
100
AcDbLine
10
0
20
-18.5
30
0
11
0
21
18.5
31
0
39
0
210
0
220
0
230
1
0
LINE
5
87
100
AcDbEntity
8
1
62
256
6
ByLayer
370
18
48
1
60
0
100
AcDbLine
10
3
20
-18.5
30
0
11
3
21
18.5
31
0
39
0
210
0
220
0
230
1
0
LINE
5
88
100
AcDbEntity
8
SK1
62
256
6
ByLayer
370
18
48
1
60
0
100
AcDbLine
10
-57.1
20
-11.7
30
0
11
-57.1
21
11.7
31
0
39
0
210
0
220
0
230
1
0
LINE
5
8A
100
AcDbEntity
8
SK1
62
256
6
ByLayer
370
18
48
1
60
0
100
AcDbLine
10
-56.1
20
-12.7
30
0
11
-56.1
21
12.7
31
0
39
0
210
0
220
0
230
1
0
LINE
5
8B
100
AcDbEntity
8
1
62
256
6
ByLayer
370
18
48
1
60
0
100
AcDbLine
10
67.2
20
0
30
0
11
62.722074
21
12.303
31
0
39
0
210
0
220
0
230
1
0
LINE
5
8C
100
AcDbEntity
8
1
62
256
6
ByLayer
370
18
48
1
60
0
100
AcDbLine
10
62.722074
20
-12.303
30
0
11
67.2
21
0
31
0
39
0
210
0
220
0
230
1
0
LINE
5
8D
100
AcDbEntity
8
1
62
256
6
ByLayer
370
18
48
1
60
0
100
AcDbLine
10
9.31103
20
14.92375
30
0
11
3
21
18.5
31
0
39
0
210
0
220
0
230
1
0
LINE
5
8E
100
AcDbEntity
8
1
62
256
6
ByLayer
370
18
48
1
60
0
100
AcDbLine
10
3
20
-18.5
30
0
11
9.31103
21
-14.92375
31
0
39
0
210
0
220
0
230
1
0
LINE
5
8F
100
AcDbEntity
8
1
62
256
6
ByLayer
370
18
48
1
60
0
100
AcDbLine
10
0
20
-18.5
30
0
11
3
21
-18.5
31
0
39
0
210
0
220
0
230
1
0
LINE
5
90
100
AcDbEntity
8
1
62
256
6
ByLayer
370
18
48
1
60
0
100
AcDbLine
10
3
20
18.5
30
0
11
0
21
18.5
31
0
39
0
210
0
220
0
230
1
0
LINE
5
91
100
AcDbEntity
8
SK1
62
256
6
ByLayer
370
18
48
1
60
0
100
AcDbLine
10
-56.1
20
-12.7
30
0
11
0
21
-12.7
31
0
39
0
210
0
220
0
230
1
0
LINE
5
92
100
AcDbEntity
8
SK1
62
256
6
ByLayer
370
18
48
1
60
0
100
AcDbLine
10
0
20
12.7
30
0
11
-56.1
21
12.7
31
0
39
0
210
0
220
0
230
1
0
LINE
5
93
100
AcDbEntity
8
SK1
62
256
6
ByLayer
370
18
48
1
60
0
100
AcDbLine
10
-57.1
20
-11.7
30
0
11
-56.1
21
-12.7
31
0
39
0
210
0
220
0
230
1
0
LINE
5
94
100
AcDbEntity
8
SK1
62
256
6
ByLayer
370
18
48
1
60
0
100
AcDbLine
10
-56.1
20
12.7
30
0
11
-57.1
21
11.7
31
0
39
0
210
0
220
0
230
1
0
LINE
5
95
100
AcDbEntity
8
1
62
256
6
ByLayer
370
18
48
1
60
0
100
AcDbLine
10
62.722074
20
12.303
30
0
11
51.8
21
12.303
31
0
39
0
210
0
220
0
230
1
0
LINE
5
96
100
AcDbEntity
8
1
62
256
6
ByLayer
370
18
48
1
60
0
100
AcDbLine
10
51.8
20
-12.303
30
0
11
62.722074
21
-12.303
31
0
39
0
210
0
220
0
230
1
0
LINE
5
97
100
AcDbEntity
8
1
62
256
6
ByLayer
370
18
48
1
60
0
100
AcDbLine
10
67.2
20
0
30
0
11
62.722074
21
12.303
31
0
39
0
210
0
220
0
230
1
0
LINE
5
98
100
AcDbEntity
8
1
62
256
6
ByLayer
370
18
48
1
60
0
100
AcDbLine
10
62.722074
20
-12.303
30
0
11
67.2
21
0
31
0
39
0
210
0
220
0
230
1
0
LINE
5
99
100
AcDbEntity
8
1
62
256
6
ByLayer
370
18
48
1
60
0
100
AcDbLine
10
62.722074
20
12.303
30
0
11
62.722074
21
-12.303
31
0
39
0
210
0
220
0
230
1
0
LINE
5
9A
100
AcDbEntity
8
1
62
256
6
ByLayer
370
18
48
1
60
0
100
AcDbLine
10
62.722074
20
12.303
30
0
11
62.722074
21
-12.303
31
0
39
0
210
0
220
0
230
1
0
LINE
5
9B
100
AcDbEntity
8
1
62
256
6
ByLayer
370
18
48
1
60
0
100
AcDbLine
10
62.722074
20
12.303
30
0
11
62.722074
21
-12.303
31
0
39
0
210
0
220
0
230
1
0
LINE
5
9C
100
AcDbEntity
8
1
62
256
6
ByLayer
370
18
48
1
60
0
100
AcDbLine
10
51.8
20
12.303
30
0
11
51.8
21
-12.303
31
0
39
0
210
0
220
0
230
1
0
LINE
5
9D
100
AcDbEntity
8
1
62
256
6
ByLayer
370
18
48
1
60
0
100
AcDbLine
10
51.8
20
12.303
30
0
11
51.8
21
-12.303
31
0
39
0
210
0
220
0
230
1
0
LINE
5
9E
100
AcDbEntity
8
1
62
256
6
ByLayer
370
18
48
1
60
0
100
AcDbLine
10
62.722074
20
12.303
30
0
11
62.722074
21
-12.303
31
0
39
0
210
0
220
0
230
1
0
LINE
5
9F
100
AcDbEntity
8
1
62
256
6
ByLayer
370
18
48
1
60
0
100
AcDbLine
10
51.8
20
12.303
30
0
11
51.8
21
-12.303
31
0
39
0
210
0
220
0
230
1
0
LINE
5
A0
100
AcDbEntity
8
1
62
256
6
ByLayer
370
18
48
1
60
0
100
AcDbLine
10
62.722074
20
12.303
30
0
11
62.722074
21
-12.303
31
0
39
0
210
0
220
0
230
1
0
LINE
5
A1
100
AcDbEntity
8
SK2
62
256
6
ByLayer
370
13
48
1
60
0
100
AcDbLine
10
-63.6
20
-12.7
30
0
11
-63.6
21
42.040455
31
0
39
0
210
0
220
0
230
1
0
LINE
5
A3
100
AcDbEntity
8
SK2
62
256
6
ByLayer
370
13
48
1
60
0
100
AcDbLine
10
-58.6875
20
12.7
30
0
11
-65.6
21
12.7
31
0
39
0
210
0
220
0
230
1
0
LINE
5
A4
100
AcDbEntity
8
SK2
62
256
6
ByLayer
370
13
48
1
60
0
100
AcDbLine
10
-58.6875
20
-12.7
30
0
11
-65.6
21
-12.7
31
0
39
0
210
0
220
0
230
1
0
LINE
5
A5
100
AcDbEntity
8
1
62
256
6
ByLayer
370
18
48
1
60
1
100
AcDbLine
10
-63.6
20
12.7
30
0
11
-63.139216
21
9.200002
31
0
39
0
210
0
220
0
230
1
0
LINE
5
A6
100
AcDbEntity
8
1
62
256
6
ByLayer
370
18
48
1
60
1
100
AcDbLine
10
-63.139216
20
9.200002
30
0
11
-64.060784
21
9.199998
31
0
39
0
210
0
220
0
230
1
0
LINE
5
A7
100
AcDbEntity
8
1
62
256
6
ByLayer
370
18
48
1
60
1
100
AcDbLine
10
-64.060784
20
9.199998
30
0
11
-63.6
21
12.7
31
0
39
0
210
0
220
0
230
1
0
LINE
5
A8
100
AcDbEntity
8
1
62
256
6
ByLayer
370
18
48
1
60
1
100
AcDbLine
10
-63.6
20
-12.7
30
0
11
-64.060784
21
-9.200002
31
0
39
0
210
0
220
0
230
1
0
LINE
5
A9
100
AcDbEntity
8
1
62
256
6
ByLayer
370
18
48
1
60
1
100
AcDbLine
10
-64.060784
20
-9.200002
30
0
11
-63.139216
21
-9.199998
31
0
39
0
210
0
220
0
230
1
0
LINE
5
AA
100
AcDbEntity
8
1
62
256
6
ByLayer
370
18
48
1
60
1
100
AcDbLine
10
-63.139216
20
-9.199998
30
0
11
-63.6
21
-12.7
31
0
39
0
210
0
220
0
230
1
0
LINE
5
AB
100
AcDbEntity
8
2
62
256
6
ByLayer
370
13
48
1
60
0
100
AcDbLine
10
74.7
20
-12.303
30
0
11
74.7
21
41.643455
31
0
39
0
210
0
220
0
230
1
0
LINE
5
AD
100
AcDbEntity
8
2
62
256
6
ByLayer
370
13
48
1
60
0
100
AcDbLine
10
64.309574
20
12.303
30
0
11
76.7
21
12.303
31
0
39
0
210
0
220
0
230
1
0
LINE
5
AE
100
AcDbEntity
8
2
62
256
6
ByLayer
370
13
48
1
60
0
100
AcDbLine
10
64.309574
20
-12.303
30
0
11
76.7
21
-12.303
31
0
39
0
210
0
220
0
230
1
0
LINE
5
AF
100
AcDbEntity
8
1
62
256
6
ByLayer
370
18
48
1
60
1
100
AcDbLine
10
74.7
20
12.303
30
0
11
75.160784
21
8.803002
31
0
39
0
210
0
220
0
230
1
0
LINE
5
B0
100
AcDbEntity
8
1
62
256
6
ByLayer
370
18
48
1
60
1
100
AcDbLine
10
75.160784
20
8.803002
30
0
11
74.239216
21
8.802998
31
0
39
0
210
0
220
0
230
1
0
LINE
5
B1
100
AcDbEntity
8
1
62
256
6
ByLayer
370
18
48
1
60
1
100
AcDbLine
10
74.239216
20
8.802998
30
0
11
74.7
21
12.303
31
0
39
0
210
0
220
0
230
1
0
LINE
5
B2
100
AcDbEntity
8
1
62
256
6
ByLayer
370
18
48
1
60
1
100
AcDbLine
10
74.7
20
-12.303
30
0
11
74.239216
21
-8.803002
31
0
39
0
210
0
220
0
230
1
0
LINE
5
B3
100
AcDbEntity
8
1
62
256
6
ByLayer
370
18
48
1
60
1
100
AcDbLine
10
74.239216
20
-8.803002
30
0
11
75.160784
21
-8.802998
31
0
39
0
210
0
220
0
230
1
0
LINE
5
B4
100
AcDbEntity
8
1
62
256
6
ByLayer
370
18
48
1
60
1
100
AcDbLine
10
75.160784
20
-8.802998
30
0
11
74.7
21
-12.303
31
0
39
0
210
0
220
0
230
1
0
LINE
5
B5
100
AcDbEntity
8
SK2
62
256
6
ByLayer
370
13
48
1
60
0
100
AcDbLine
10
67.742957
20
-1.491762
30
0
11
74.382423
21
-19.733545
31
0
39
0
210
0
220
0
230
1
0
LINE
5
B6
100
AcDbEntity
8
SK2
62
256
6
ByLayer
370
13
48
1
60
0
100
AcDbLine
10
67.742957
20
1.491762
30
0
11
74.382423
21
19.733545
31
0
39
0
210
0
220
0
230
1
0
LINE
5
B7
100
AcDbEntity
8
1
62
256
6
ByLayer
370
18
48
1
60
1
100
AcDbLine
10
73.698383
20
-17.85416
30
0
11
76.751575
21
-16.082064
31
0
39
0
210
0
220
0
230
1
0
LINE
5
B8
100
AcDbEntity
8
1
62
256
6
ByLayer
370
18
48
1
60
1
100
AcDbLine
10
76.751575
20
-16.082064
30
0
11
77.106196
21
-16.93267
31
0
39
0
210
0
220
0
230
1
0
LINE
5
B9
100
AcDbEntity
8
1
62
256
6
ByLayer
370
18
48
1
60
1
100
AcDbLine
10
77.106196
20
-16.93267
30
0
11
73.698383
21
-17.85416
31
0
39
0
210
0
220
0
230
1
0
LINE
5
BA
100
AcDbEntity
8
1
62
256
6
ByLayer
370
18
48
1
60
1
100
AcDbLine
10
73.698383
20
17.85416
30
0
11
77.106193
21
16.932671
31
0
39
0
210
0
220
0
230
1
0
LINE
5
BB
100
AcDbEntity
8
1
62
256
6
ByLayer
370
18
48
1
60
1
100
AcDbLine
10
77.106193
20
16.932671
30
0
11
76.751579
21
16.082063
31
0
39
0
210
0
220
0
230
1
0
LINE
5
BC
100
AcDbEntity
8
1
62
256
6
ByLayer
370
18
48
1
60
1
100
AcDbLine
10
76.751579
20
16.082063
30
0
11
73.698383
21
17.85416
31
0
39
0
210
0
220
0
230
1
0
LINE
5
13D
100
AcDbEntity
8
1
62
256
6
ByLayer
370
18
48
1
60
1
100
AcDbLine
10
-63.6
20
12.7
30
0
11
-63.139216
21
9.200002
31
0
39
0
210
0
220
0
230
1
0
LINE
5
13E
100
AcDbEntity
8
1
62
256
6
ByLayer
370
18
48
1
60
1
100
AcDbLine
10
-63.139216
20
9.200002
30
0
11
-64.060784
21
9.199998
31
0
39
0
210
0
220
0
230
1
0
LINE
5
13F
100
AcDbEntity
8
1
62
256
6
ByLayer
370
18
48
1
60
1
100
AcDbLine
10
-64.060784
20
9.199998
30
0
11
-63.6
21
12.7
31
0
39
0
210
0
220
0
230
1
0
LINE
5
141
100
AcDbEntity
8
1
62
256
6
ByLayer
370
18
48
1
60
1
100
AcDbLine
10
-63.6
20
-12.7
30
0
11
-64.060784
21
-9.200002
31
0
39
0
210
0
220
0
230
1
0
LINE
5
142
100
AcDbEntity
8
1
62
256
6
ByLayer
370
18
48
1
60
1
100
AcDbLine
10
-64.060784
20
-9.200002
30
0
11
-63.139216
21
-9.199998
31
0
39
0
210
0
220
0
230
1
0
LINE
5
143
100
AcDbEntity
8
1
62
256
6
ByLayer
370
18
48
1
60
1
100
AcDbLine
10
-63.139216
20
-9.199998
30
0
11
-63.6
21
-12.7
31
0
39
0
210
0
220
0
230
1
0
LINE
5
147
100
AcDbEntity
8
1
62
256
6
ByLayer
370
18
48
1
60
1
100
AcDbLine
10
74.7
20
12.303
30
0
11
75.160784
21
8.803002
31
0
39
0
210
0
220
0
230
1
0
LINE
5
148
100
AcDbEntity
8
1
62
256
6
ByLayer
370
18
48
1
60
1
100
AcDbLine
10
75.160784
20
8.803002
30
0
11
74.239216
21
8.802998
31
0
39
0
210
0
220
0
230
1
0
LINE
5
149
100
AcDbEntity
8
1
62
256
6
ByLayer
370
18
48
1
60
1
100
AcDbLine
10
74.239216
20
8.802998
30
0
11
74.7
21
12.303
31
0
39
0
210
0
220
0
230
1
0
LINE
5
14B
100
AcDbEntity
8
1
62
256
6
ByLayer
370
18
48
1
60
1
100
AcDbLine
10
74.7
20
-12.303
30
0
11
74.239216
21
-8.803002
31
0
39
0
210
0
220
0
230
1
0
LINE
5
14C
100
AcDbEntity
8
1
62
256
6
ByLayer
370
18
48
1
60
1
100
AcDbLine
10
74.239216
20
-8.803002
30
0
11
75.160784
21
-8.802998
31
0
39
0
210
0
220
0
230
1
0
LINE
5
14D
100
AcDbEntity
8
1
62
256
6
ByLayer
370
18
48
1
60
1
100
AcDbLine
10
75.160784
20
-8.802998
30
0
11
74.7
21
-12.303
31
0
39
0
210
0
220
0
230
1
0
LINE
5
150
100
AcDbEntity
8
1
62
256
6
ByLayer
370
18
48
1
60
1
100
AcDbLine
10
73.698383
20
-17.85416
30
0
11
76.751575
21
-16.082064
31
0
39
0
210
0
220
0
230
1
0
LINE
5
151
100
AcDbEntity
8
1
62
256
6
ByLayer
370
18
48
1
60
1
100
AcDbLine
10
76.751575
20
-16.082064
30
0
11
77.106196
21
-16.93267
31
0
39
0
210
0
220
0
230
1
0
LINE
5
152
100
AcDbEntity
8
1
62
256
6
ByLayer
370
18
48
1
60
1
100
AcDbLine
10
77.106196
20
-16.93267
30
0
11
73.698383
21
-17.85416
31
0
39
0
210
0
220
0
230
1
0
LINE
5
154
100
AcDbEntity
8
1
62
256
6
ByLayer
370
18
48
1
60
1
100
AcDbLine
10
73.698383
20
17.85416
30
0
11
77.106193
21
16.932671
31
0
39
0
210
0
220
0
230
1
0
LINE
5
155
100
AcDbEntity
8
1
62
256
6
ByLayer
370
18
48
1
60
1
100
AcDbLine
10
77.106193
20
16.932671
30
0
11
76.751579
21
16.082063
31
0
39
0
210
0
220
0
230
1
0
LINE
5
156
100
AcDbEntity
8
1
62
256
6
ByLayer
370
18
48
1
60
1
100
AcDbLine
10
76.751579
20
16.082063
30
0
11
73.698383
21
17.85416
31
0
39
0
210
0
220
0
230
1
0
MTEXT
5
139
100
AcDbEntity
8
SK2
62
256
6
ByLayer
370
18
48
1
60
0
100
AcDbMText
10
-64.941114
20
24.358437
30
0
210
0
220
0
230
1
1
%%c
40
3
41
0
44
1.084337
50
90
71
7
72
5
7
iso_b_vert
0
MTEXT
5
13C
100
AcDbEntity
8
SK2
62
256
6
ByLayer
370
18
48
1
60
0
100
AcDbMText
10
-64.941114
20
30.335
30
0
210
0
220
0
230
1
1
\W0.7728;25.400
40
3
41
0
44
1.084337
50
90
71
7
72
5
7
iso_b_vert
0
MTEXT
5
145
100
AcDbEntity
8
2
62
256
6
ByLayer
370
18
48
1
60
0
100
AcDbMText
10
73.358886
20
23.961437
30
0
210
0
220
0
230
1
1
%%c
40
3
41
0
44
1.084337
50
90
71
7
72
5
7
iso_b_vert
0
MTEXT
5
146
100
AcDbEntity
8
2
62
256
6
ByLayer
370
18
48
1
60
0
100
AcDbMText
10
73.358886
20
29.938
30
0
210
0
220
0
230
1
1
\W0.7728;24.606
40
3
41
0
44
1.084337
50
90
71
7
72
5
7
iso_b_vert
0
MTEXT
5
14F
100
AcDbEntity
8
SK2
62
256
6
ByLayer
370
18
48
1
60
0
100
AcDbMText
10
87.109114
20
3.734657
30
0
210
0
220
0
230
1
1
\W0.7071;140%%d
40
3
41
0
44
1.084337
50
270
71
7
72
5
7
iso_b_vert
0
MTEXT
5
158
100
AcDbEntity
8
SK6
62
256
6
ByLayer
370
18
48
1
60
0
100
AcDbMText
10
-15.500568
20
-67.114886
30
0
210
0
220
0
230
1
1
\W0.7429;H85131/32
40
3
41
0
44
1.084337
50
0
71
7
72
5
7
iso_b_vert
0
HATCH
5
140
100
AcDbEntity
8
SK2
62
256
6
ByLayer
370
13
48
1
60
0
100
AcDbHatch
10
0
20
0
30
0
210
0
220
0
230
1
2
ANSI31
70
0
71
0
91
1
92
5
93
3
72
1
10
-63.6
20
12.7
11
-63.1392162584472
21
9.20000169255317
72
1
10
-63.1392162584472
20
9.20000169255317
11
-64.0607837415528
21
9.1999983074468
72
1
10
-64.0607837415528
20
9.1999983074468
11
-63.6
21
12.7
97
0
75
0
76
1
52
0
41
0.0062
77
0
78
1
53
45
43
0
44
0
45
-0.0139193969876572
46
0.0139193969876572
79
0
47
0
98
1
10
0
20
0
0
HATCH
5
144
100
AcDbEntity
8
SK2
62
256
6
ByLayer
370
13
48
1
60
0
100
AcDbHatch
10
0
20
0
30
0
210
0
220
0
230
1
2
ANSI31
70
0
71
0
91
1
92
5
93
3
72
1
10
-63.6
20
-12.7
11
-64.0607837415528
21
-9.20000169255317
72
1
10
-64.0607837415528
20
-9.20000169255317
11
-63.1392162584472
21
-9.1999983074468
72
1
10
-63.1392162584472
20
-9.1999983074468
11
-63.6
21
-12.7
97
0
75
0
76
1
52
0
41
0.0062
77
0
78
1
53
45
43
0
44
0
45
-0.0139193969876572
46
0.0139193969876572
79
0
47
0
98
1
10
0
20
0
0
HATCH
5
14A
100
AcDbEntity
8
2
62
256
6
ByLayer
370
13
48
1
60
0
100
AcDbHatch
10
0
20
0
30
0
210
0
220
0
230
1
2
ANSI31
70
0
71
0
91
1
92
5
93
3
72
1
10
74.7
20
12.303
11
75.1607837415528
21
8.80300169255318
72
1
10
75.1607837415528
20
8.80300169255318
11
74.2392162584472
21
8.80299830744681
72
1
10
74.2392162584472
20
8.80299830744681
11
74.7
21
12.303
97
0
75
0
76
1
52
0
41
0.0062
77
0
78
1
53
45
43
0
44
0
45
-0.0139193969876572
46
0.0139193969876572
79
0
47
0
98
1
10
0
20
0
0
HATCH
5
14E
100
AcDbEntity
8
2
62
256
6
ByLayer
370
13
48
1
60
0
100
AcDbHatch
10
0
20
0
30
0
210
0
220
0
230
1
2
ANSI31
70
0
71
0
91
1
92
5
93
3
72
1
10
74.7
20
-12.303
11
74.2392162584472
21
-8.80300169255318
72
1
10
74.2392162584472
20
-8.80300169255318
11
75.1607837415528
21
-8.80299830744681
72
1
10
75.1607837415528
20
-8.80299830744681
11
74.7
21
-12.303
97
0
75
0
76
1
52
0
41
0.0062
77
0
78
1
53
45
43
0
44
0
45
-0.0139193969876572
46
0.0139193969876572
79
0
47
0
98
1
10
0
20
0
0
HATCH
5
153
100
AcDbEntity
8
SK2
62
256
6
ByLayer
370
13
48
1
60
0
100
AcDbHatch
10
0
20
0
30
0
210
0
220
0
230
1
2
ANSI31
70
0
71
0
91
1
92
5
93
3
72
1
10
73.6983827231877
20
-17.8541597949322
11
76.7515754256929
21
-16.0820638240607
72
1
10
76.7515754256929
20
-16.0820638240607
11
77.1061958339751
21
-16.9326700737196
72
1
10
77.1061958339751
20
-16.9326700737196
11
73.6983827231877
21
-17.8541597949322
97
0
75
0
76
1
52
0
41
0.0062
77
0
78
1
53
45
43
0
44
0
45
-0.0139193969876572
46
0.0139193969876572
79
0
47
0
98
1
10
0
20
0
0
HATCH
5
157
100
AcDbEntity
8
SK2
62
256
6
ByLayer
370
13
48
1
60
0
100
AcDbHatch
10
0
20
0
30
0
210
0
220
0
230
1
2
ANSI31
70
0
71
0
91
1
92
5
93
3
72
1
10
73.6983827231877
20
17.8541597949322
11
77.1061927095191
21
16.9326713763016
72
1
10
77.1061927095191
20
16.9326713763016
11
76.7515785501489
21
16.0820625214787
72
1
10
76.7515785501489
20
16.0820625214787
11
73.6983827231877
21
17.8541597949322
97
0
75
0
76
1
52
0
41
0.0062
77
0
78
1
53
45
43
0
44
0
45
-0.0139193969876572
46
0.0139193969876572
79
0
47
0
98
1
10
0
20
0
0
DIMENSION
5
15B
100
AcDbEntity
8
SK2
62
256
6
ByLayer
370
18
48
1
60
0
100
AcDbDimension
2
_U0
10
67.2
20
-46.35
30
0
11
5.05
21
-46.35
31
0
70
32
71
1
72
1
41
1
210
0
220
0
230
1
3
Standard
100
AcDbAlignedDimension
13
-57.1
23
-12.7
33
0
14
67.2
24
0
34
0
50
0
100
AcDbRotatedDimension
1001
ACAD
1000
DSTYLE
1002
{
1070
   371
1070
    13
1070
   372
1070
    13
1070
     3
1000

1070
   170
1070
     0
1070
   144
1040
1.0
1070
   277
1070
     2
1070
   284
1070
     8
1070
   278
1070
    46
1070
   146
1040
1.166667
1070
   345
1005
16
1070
   347
1005
16
1070
   346
1005
16
1070
   344
1005
0
1070
   343
1005
0
1070
   172
1070
     1
1070
    76
1070
     0
1070
    75
1070
     0
1070
   282
1070
     0
1070
   281
1070
     0
1070
    71
1070
     0
1070
    74
1070
     0
1070
   279
1070
     0
1070
   173
1070
     1
1070
   340
1005
13A
1070
   271
1070
     2
1070
   272
1070
     3
1070
    77
1070
     1
1070
    73
1070
     1
1070
   171
1070
     3
1070
   274
1070
     4
1070
   177
1070
     2
1070
   176
1070
     2
1070
   178
1070
     2
1070
    78
1070
     8
1070
    48
1040
-0.1
1070
    41
1040
3.5
1070
   147
1040
1.5
1070
    42
1040
1.5875
1070
    44
1040
2.0
1070
   140
1040
3.0
1002
}
1001
ACAD_DSTYLE_DIM_LINETYPE
1070
   380
1005
16
1001
ACAD_DSTYLE_DIM_EXT1_LINETYPE
1070
   381
1005
16
1001
ACAD_DSTYLE_DIM_EXT2_LINETYPE
1070
   382
1005
16
0
DIMENSION
5
174
100
AcDbEntity
8
SK2
62
256
6
ByLayer
370
18
48
1
60
0
100
AcDbDimension
2
_U1
10
6
20
-36.35
30
0
11
36.6
21
-36.35
31
0
70
32
71
1
72
1
41
1
210
0
220
0
230
1
3
Standard
100
AcDbAlignedDimension
13
67.2
23
0
33
0
14
6
24
-12.303
34
0
50
0
100
AcDbRotatedDimension
1001
ACAD
1000
DSTYLE
1002
{
1070
   371
1070
    13
1070
   372
1070
    13
1070
     3
1000

1070
   170
1070
     0
1070
   144
1040
1.0
1070
   277
1070
     2
1070
   284
1070
     8
1070
   278
1070
    46
1070
   146
1040
1.166667
1070
   345
1005
16
1070
   347
1005
16
1070
   346
1005
16
1070
   344
1005
0
1070
   343
1005
0
1070
   172
1070
     1
1070
    76
1070
     0
1070
    75
1070
     0
1070
   282
1070
     0
1070
   281
1070
     0
1070
    71
1070
     0
1070
    74
1070
     0
1070
   279
1070
     0
1070
   173
1070
     1
1070
   340
1005
13A
1070
   271
1070
     2
1070
   272
1070
     3
1070
    77
1070
     1
1070
    73
1070
     1
1070
   171
1070
     3
1070
   274
1070
     4
1070
   177
1070
     2
1070
   176
1070
     2
1070
   178
1070
     2
1070
    78
1070
     8
1070
    48
1040
-0.1
1070
    41
1040
3.5
1070
   147
1040
1.5
1070
    42
1040
1.5875
1070
    44
1040
2.0
1070
   140
1040
3.0
1002
}
1001
ACAD_DSTYLE_DIM_LINETYPE
1070
   380
1005
16
1001
ACAD_DSTYLE_DIM_EXT1_LINETYPE
1070
   381
1005
16
1001
ACAD_DSTYLE_DIM_EXT2_LINETYPE
1070
   382
1005
16
0
DIMENSION
5
18C
100
AcDbEntity
8
SK2
62
256
6
ByLayer
370
18
48
1
60
0
100
AcDbDimension
2
_U2
10
0
20
-36.35
30
0
11
-28.55
21
-36.35
31
0
70
32
71
1
72
1
41
1
210
0
220
0
230
1
3
Standard
100
AcDbAlignedDimension
13
-57.1
23
-12.7
33
0
14
0
24
-12.7
34
0
50
0
100
AcDbRotatedDimension
1001
ACAD
1000
DSTYLE
1002
{
1070
   371
1070
    13
1070
   372
1070
    13
1070
     3
1000

1070
   170
1070
     0
1070
   144
1040
1.0
1070
   277
1070
     2
1070
   284
1070
     8
1070
   278
1070
    46
1070
   146
1040
1.166667
1070
   345
1005
16
1070
   347
1005
16
1070
   346
1005
16
1070
   344
1005
0
1070
   343
1005
0
1070
   172
1070
     1
1070
    76
1070
     0
1070
    75
1070
     0
1070
   282
1070
     0
1070
   281
1070
     0
1070
    71
1070
     0
1070
    74
1070
     0
1070
   279
1070
     0
1070
   173
1070
     1
1070
   340
1005
13A
1070
   271
1070
     2
1070
   272
1070
     3
1070
    77
1070
     1
1070
    73
1070
     1
1070
   171
1070
     3
1070
   274
1070
     4
1070
   177
1070
     2
1070
   176
1070
     2
1070
   178
1070
     2
1070
    78
1070
     8
1070
    48
1040
-0.1
1070
    41
1040
3.5
1070
   147
1040
1.5
1070
    42
1040
1.5875
1070
    44
1040
2.0
1070
   140
1040
3.0
1002
}
1001
ACAD_DSTYLE_DIM_LINETYPE
1070
   380
1005
16
1001
ACAD_DSTYLE_DIM_EXT1_LINETYPE
1070
   381
1005
16
1001
ACAD_DSTYLE_DIM_EXT2_LINETYPE
1070
   382
1005
16
0
DIMENSION
5
1A4
100
AcDbEntity
8
SK2
62
256
6
ByLayer
370
18
48
1
60
0
100
AcDbDimension
2
_U3
10
17.9
20
33.35
30
0
11
42.55
21
33.35
31
0
70
32
71
1
72
1
41
1
210
0
220
0
230
1
3
Standard
100
AcDbAlignedDimension
13
67.2
23
0
33
0
14
17.9
24
12.303
34
0
50
0
100
AcDbRotatedDimension
1001
ACAD
1000
DSTYLE
1002
{
1070
   371
1070
    13
1070
   372
1070
    13
1070
     3
1000

1070
   170
1070
     0
1070
   144
1040
1.0
1070
   277
1070
     2
1070
   284
1070
     8
1070
   278
1070
    46
1070
   146
1040
1.166667
1070
   345
1005
16
1070
   347
1005
16
1070
   346
1005
16
1070
   344
1005
0
1070
   343
1005
0
1070
   172
1070
     1
1070
    76
1070
     0
1070
    75
1070
     0
1070
   282
1070
     0
1070
   281
1070
     0
1070
    71
1070
     0
1070
    74
1070
     0
1070
   279
1070
     0
1070
   173
1070
     1
1070
   340
1005
13A
1070
   271
1070
     2
1070
   272
1070
     3
1070
    77
1070
     1
1070
    73
1070
     1
1070
   171
1070
     3
1070
   274
1070
     4
1070
   177
1070
     2
1070
   176
1070
     2
1070
   178
1070
     2
1070
    78
1070
     8
1070
    48
1040
-0.1
1070
    41
1040
3.5
1070
   147
1040
1.5
1070
    42
1040
1.5875
1070
    44
1040
2.0
1070
   140
1040
3.0
1002
}
1001
ACAD_DSTYLE_DIM_LINETYPE
1070
   380
1005
16
1001
ACAD_DSTYLE_DIM_EXT1_LINETYPE
1070
   381
1005
16
1001
ACAD_DSTYLE_DIM_EXT2_LINETYPE
1070
   382
1005
16
0
ENDSEC
0
SECTION
2
OBJECTS
0
DICTIONARY
5
22c
330
0
100
AcDbDictionary
280
0
281
1
3
ACAD_GROUP
350
22d
3
ACAD_MLINESTYLE
350
22e
0
DICTIONARY
5
22d
330
0
100
AcDbDictionary
280
0
281
1
0
DICTIONARY
5
22e
330
0
100
AcDbDictionary
280
0
281
1
3
Standard
350
18
0
MLINESTYLE
5
18
330
22e
100
AcDbMlineStyle
2
Standard
70
0
3

62
256
51
90
52
90
71
2
49
-0.5
62
256
6
ByLayer
49
0.5
62
256
6
ByLayer
0
RASTERVARIABLES
5
21a
330

100
AcDbRasterVariables
90
0
70
1
71
1
72
1
0
ENDSEC
0
EOF
