0
SECTION
2
HEADER
9
$ACADVER
1
AC1015
9
$DWGCODEPAGE
3
ANSI_1252
9
$HANDSEED
5
22e
9
$ANGBASE
50
0
9
$ANGDIR
70
0
9
$ATTMODE
70
1
9
$AUNITS
70
0
9
$AUPREC
70
0
9
$CECOLOR
62
256
9
$CELTSCALE
40
1
9
$CELTYPE
6
ByLayer
9
$CELWEIGHT
370
18
9
$CLAYER
8
0
9
$CMLJUST
70
0
9
$CMLSCALE
40
1
9
$CMLSTYLE
2
Standard
9
$DIMSTYLE
2
Standard
9
$TEXTSIZE
40
0.2
9
$TEXTSTYLE
7
Standard
9
$LUNITS
70
2
9
$LUPREC
70
4
9
$EXTNAMES
290
1
9
$INSUNITS
70
4
9
$LTSCALE
40
1
9
$LWDISPLAY
290
1
9
$PDMODE
70
0
9
$PDSIZE
40
0
9
$PLINEGEN
70
0
0
ENDSEC
0
SECTION
2
CLASSES
0
CLASS
1
RASTERVARIABLES
2
AcDbRasterVariables
3
ISM
90
0
280
0
281
0
0
ENDSEC
0
SECTION
2
TABLES
0
TABLE
2
VPORT
5
224
100
AcDbSymbolTable
0
VPORT
5
1
100
AcDbSymbolTableRecord
100
AcDbViewportTableRecord
2
*Active
70
0
10
0
20
0
11
1
21
1
12
-1
22
1
13
0
23
0
14
0.5
24
0.5
15
10
25
10
16
0
26
0
36
1
17
0
27
0
37
0
0
ENDTAB
0
TABLE
2
LTYPE
5
225
100
AcDbSymbolTable
0
LTYPE
5
14
100
AcDbSymbolTableRecord
100
AcDbLinetypeTableRecord
70
0
2
ByBlock
3

72
65
73
0
40
0
0
LTYPE
5
15
100
AcDbSymbolTableRecord
100
AcDbLinetypeTableRecord
70
0
2
ByLayer
3

72
65
73
0
40
0
0
LTYPE
5
16
100
AcDbSymbolTableRecord
100
AcDbLinetypeTableRecord
70
0
2
Continuous
3
Solid line
72
65
73
0
40
0
0
LTYPE
5
6E
100
AcDbSymbolTableRecord
100
AcDbLinetypeTableRecord
70
0
2
CENTER
3
____ _ ____ _ ____ _ ____
72
65
73
4
40
47.5
49
22
74
0
49
-8.5
74
0
49
8.5
74
0
49
-8.5
74
0
0
LTYPE
5
6F
100
AcDbSymbolTableRecord
100
AcDbLinetypeTableRecord
70
0
2
DASHED
3
__ __ __ __ __ __ __ __ __
72
65
73
2
40
25.72
49
12.86
74
0
49
-12.86
74
0
0
ENDTAB
0
TABLE
2
LAYER
5
226
100
AcDbSymbolTable
0
LAYER
5
10
100
AcDbSymbolTableRecord
100
AcDbLayerTableRecord
2
0
70
0
62
7
6
Continuous
290
1
370
-3
390
0
0
LAYER
5
71
100
AcDbSymbolTableRecord
100
AcDbLayerTableRecord
2
81
70
0
62
-3
6
Continuous
290
1
370
-3
390
0
0
LAYER
5
73
100
AcDbSymbolTableRecord
100
AcDbLayerTableRecord
2
80
70
0
62
-6
6
Continuous
290
1
370
-3
390
0
0
LAYER
5
75
100
AcDbSymbolTableRecord
100
AcDbLayerTableRecord
2
1
70
0
62
4
6
Continuous
290
1
370
-3
390
0
0
LAYER
5
7E
100
AcDbSymbolTableRecord
100
AcDbLayerTableRecord
2
4
70
0
62
-2
6
CENTER
290
1
370
-3
390
0
0
LAYER
5
AB
100
AcDbSymbolTableRecord
100
AcDbLayerTableRecord
2
2
70
0
62
7
6
Continuous
290
1
370
-3
390
0
0
LAYER
5
153
100
AcDbSymbolTableRecord
100
AcDbLayerTableRecord
2
Defpoints
70
0
62
7
6
Continuous
290
0
370
-3
390
0
0
LAYER
5
210
100
AcDbSymbolTableRecord
100
AcDbLayerTableRecord
2
SK4
70
0
62
2
6
CENTER
290
1
370
-3
390
0
0
LAYER
5
211
100
AcDbSymbolTableRecord
100
AcDbLayerTableRecord
2
SK1
70
0
62
4
6
Continuous
290
1
370
-3
390
0
0
LAYER
5
212
100
AcDbSymbolTableRecord
100
AcDbLayerTableRecord
2
SK2
70
0
62
7
6
Continuous
290
1
370
-3
390
0
0
LAYER
5
213
100
AcDbSymbolTableRecord
100
AcDbLayerTableRecord
2
SK6
70
0
62
5
6
Continuous
290
1
370
-3
390
0
0
ENDTAB
0
TABLE
2
STYLE
5
227
100
AcDbSymbolTable
0
STYLE
5
11
100
AcDbSymbolTableRecord
100
AcDbTextStyleTableRecord
2
Standard
3
txt
70
0
71
0
40
0
41
1
42
0
50
0
0
STYLE
5
12F
100
AcDbSymbolTableRecord
100
AcDbTextStyleTableRecord
2
iso_b_vert
3
simplex.shx
70
0
71
0
40
0
41
1
42
0
50
0
0
STYLE
5
130
100
AcDbSymbolTableRecord
100
AcDbTextStyleTableRecord
2
DWGDirectTextStyle
3
simplex
70
0
71
0
40
0
41
1
42
0
50
0
0
ENDTAB
0
TABLE
2
DIMSTYLE
5
228
100
AcDbSymbolTable
100
AcDbDimStyleTable
0
DIMSTYLE
105
27
100
AcDbSymbolTableRecord
100
AcDbDimStyleTableRecord
2
Standard
70
0
3
<>
41
0.18
42
0.0625
44
0.18
140
0.18
147
0.09
73
0
74
0
77
1
271
2
275
0
278
52
280
0
340
11
0
ENDTAB
0
TABLE
2
VIEW
5
229
100
AcDbSymbolTable
0
ENDTAB
0
TABLE
2
UCS
5
22a
100
AcDbSymbolTable
0
ENDTAB
0
TABLE
2
APPID
5
22b
100
AcDbSymbolTable
0
APPID
5
12
100
AcDbSymbolTableRecord
100
AcDbRegAppTableRecord
2
ACAD
70
0
0
APPID
5
14F
100
AcDbSymbolTableRecord
100
AcDbRegAppTableRecord
2
ACAD_DSTYLE_DIMBREAK
70
0
0
APPID
5
1CF
100
AcDbSymbolTableRecord
100
AcDbRegAppTableRecord
2
ACAD_DSTYLE_DIM_LINETYPE
70
0
0
APPID
5
1D0
100
AcDbSymbolTableRecord
100
AcDbRegAppTableRecord
2
ACAD_DSTYLE_DIM_EXT1_LINETYPE
70
0
0
APPID
5
1D1
100
AcDbSymbolTableRecord
100
AcDbRegAppTableRecord
2
ACAD_DSTYLE_DIM_EXT2_LINETYPE
70
0
0
APPID
5
20C
100
AcDbSymbolTableRecord
100
AcDbRegAppTableRecord
2
ACAD_MLEADERVER
70
0
0
ENDTAB
0
TABLE
2
BLOCK_RECORD
5
22c
100
AcDbSymbolTable
0
BLOCK_RECORD
5
1F
100
AcDbSymbolTableRecord
100
AcDbBlockTableRecord
2
*Model_Space
340
0
70
0
0
BLOCK_RECORD
5
1B
100
AcDbSymbolTableRecord
100
AcDbBlockTableRecord
2
*Paper_Space
340
0
70
0
0
BLOCK_RECORD
5
23
100
AcDbSymbolTableRecord
100
AcDbBlockTableRecord
2
*Paper_Space0
340
0
70
0
0
BLOCK_RECORD
5
154
100
AcDbSymbolTableRecord
100
AcDbBlockTableRecord
2
*D1
340
0
70
0
0
BLOCK_RECORD
5
160
100
AcDbSymbolTableRecord
100
AcDbBlockTableRecord
2
_U0
340
0
70
0
0
BLOCK_RECORD
5
16C
100
AcDbSymbolTableRecord
100
AcDbBlockTableRecord
2
*D3
340
0
70
0
0
BLOCK_RECORD
5
178
100
AcDbSymbolTableRecord
100
AcDbBlockTableRecord
2
_U1
340
0
70
0
0
BLOCK_RECORD
5
184
100
AcDbSymbolTableRecord
100
AcDbBlockTableRecord
2
*D5
340
0
70
0
0
BLOCK_RECORD
5
190
100
AcDbSymbolTableRecord
100
AcDbBlockTableRecord
2
_U2
340
0
70
0
0
BLOCK_RECORD
5
19C
100
AcDbSymbolTableRecord
100
AcDbBlockTableRecord
2
*D7
340
0
70
0
0
BLOCK_RECORD
5
1A8
100
AcDbSymbolTableRecord
100
AcDbBlockTableRecord
2
_U3
340
0
70
0
0
ENDTAB
0
ENDSEC
0
SECTION
2
BLOCKS
0
BLOCK
5
20
100
AcDbEntity
8
0
100
AcDbBlockBegin
2
*Model_Space
70
0
10
0
20
0
30
0
3
*Model_Space
0
ENDBLK
5
21
100
AcDbEntity
8
0
100
AcDbBlockEnd
0
BLOCK
5
1C
100
AcDbEntity
8
0
100
AcDbBlockBegin
2
*Paper_Space
70
0
10
0
20
0
30
0
3
*Paper_Space
0
ENDBLK
5
1D
100
AcDbEntity
8
0
100
AcDbBlockEnd
0
BLOCK
5
24
100
AcDbEntity
8
0
100
AcDbBlockBegin
2
*Paper_Space0
70
0
10
0
20
0
30
0
3
*Paper_Space0
0
ENDBLK
5
25
100
AcDbEntity
8
0
100
AcDbBlockEnd
0
BLOCK
5
155
100
AcDbEntity
8
0
100
AcDbBlockBegin
2
*D1
70
1
10
0
20
0
30
0
3
*D1
0
LINE
5
157
100
AcDbEntity
8
0
62
256
6
ByLayer
370
-2
48
1
60
0
100
AcDbLine
10
-57.1
20
-14.2875
30
0
11
-57.1
21
-45.567145
31
0
39
0
210
0
220
0
230
1
0
LINE
5
158
100
AcDbEntity
8
0
62
256
6
ByLayer
370
-2
48
1
60
0
100
AcDbLine
10
58.4
20
-1.5875
30
0
11
58.4
21
-45.567145
31
0
39
0
210
0
220
0
230
1
0
LINE
5
159
100
AcDbEntity
8
0
62
256
6
ByLayer
370
-2
48
1
60
0
100
AcDbLine
10
-53.6
20
-43.567145
30
0
11
54.9
21
-43.567145
31
0
39
0
210
0
220
0
230
1
0
SOLID
5
15A
100
AcDbEntity
8
0
62
256
6
ByLayer
370
-1
48
1
60
0
100
AcDbTrace
10
-53.6
20
-42.983812
30
0
11
-53.6
21
-44.150478
31
0
12
-57.1
22
-43.567145
32
0
13
-57.1
23
-43.567145
33
0
39
0
210
0
220
0
230
1
0
SOLID
5
15B
100
AcDbEntity
8
0
62
256
6
ByLayer
370
-1
48
1
60
0
100
AcDbTrace
10
54.9
20
-44.150478
30
0
11
54.9
21
-42.983812
31
0
12
58.4
22
-43.567145
32
0
13
58.4
23
-43.567145
33
0
39
0
210
0
220
0
230
1
0
MTEXT
5
15C
100
AcDbEntity
8
0
62
256
6
ByLayer
370
18
48
1
60
0
100
AcDbMText
10
0.65
20
-37.567145
30
0
210
0
220
0
230
1
1
\A1;115.5
40
3
41
0
44
1
50
0
71
5
72
5
7
iso_b_vert
0
POINT
5
15D
100
AcDbEntity
8
Defpoints
62
0
6
ByLayer
370
-1
48
1
60
0
100
AcDbPoint
10
-57.1
20
-12.7
30
0
39
0
210
0
220
0
230
1
50
360
0
POINT
5
15E
100
AcDbEntity
8
Defpoints
62
0
6
ByLayer
370
-1
48
1
60
0
100
AcDbPoint
10
58.4
20
0
30
0
39
0
210
0
220
0
230
1
50
360
0
POINT
5
15F
100
AcDbEntity
8
Defpoints
62
0
6
ByLayer
370
-1
48
1
60
0
100
AcDbPoint
10
58.4
20
-43.567145
30
0
39
0
210
0
220
0
230
1
50
360
0
ENDBLK
5
156
100
AcDbEntity
8
0
100
AcDbBlockEnd
0
BLOCK
5
167
100
AcDbEntity
8
0
100
AcDbBlockBegin
2
_U0
70
0
10
0
20
0
30
0
3
_U0
0
MTEXT
5
161
100
AcDbEntity
8
SK2
62
256
6
ByLayer
370
18
48
1
60
0
100
AcDbMText
10
-4.203399
20
-42.68203
30
0
210
0
220
0
230
1
1
\W0.6532;115.50
40
3
41
0
44
1.084337
50
0
71
7
72
5
7
iso_b_vert
0
LINE
5
162
100
AcDbEntity
8
SK2
62
256
6
ByLayer
370
13
48
1
60
0
100
AcDbLine
10
-57.1
20
-14.2875
30
0
11
-57.1
21
-45.567145
31
0
39
0
210
0
220
0
230
1
0
LINE
5
163
100
AcDbEntity
8
SK2
62
256
6
ByLayer
370
13
48
1
60
0
100
AcDbLine
10
58.4
20
-1.5875
30
0
11
58.4
21
-45.567145
31
0
39
0
210
0
220
0
230
1
0
LINE
5
164
100
AcDbEntity
8
SK2
62
256
6
ByLayer
370
13
48
1
60
0
100
AcDbLine
10
-57.1
20
-43.567145
30
0
11
58.4
21
-43.567145
31
0
39
0
210
0
220
0
230
1
0
SOLID
5
165
100
AcDbEntity
8
SK2
62
256
6
ByLayer
370
18
48
1
60
0
100
AcDbTrace
10
-57.1
20
-43.567145
30
0
11
-53.600002
21
-43.106361
31
0
12
-53.599998
22
-44.027929
32
0
13
-53.599998
23
-44.027929
33
0
39
0
210
0
220
0
230
1
0
SOLID
5
166
100
AcDbEntity
8
SK2
62
256
6
ByLayer
370
18
48
1
60
0
100
AcDbTrace
10
58.4
20
-43.567145
30
0
11
54.900002
21
-44.027929
31
0
12
54.899998
22
-43.106361
32
0
13
54.899998
23
-43.106361
33
0
39
0
210
0
220
0
230
1
0
ENDBLK
5
168
100
AcDbEntity
8
0
100
AcDbBlockEnd
0
BLOCK
5
16D
100
AcDbEntity
8
0
100
AcDbBlockBegin
2
*D3
70
1
10
0
20
0
30
0
3
*D3
0
LINE
5
16F
100
AcDbEntity
8
0
62
256
6
ByLayer
370
-2
48
1
60
0
100
AcDbLine
10
58.4
20
-1.5875
30
0
11
58.4
21
-35.567145
31
0
39
0
210
0
220
0
230
1
0
LINE
5
170
100
AcDbEntity
8
0
62
256
6
ByLayer
370
-2
48
1
60
0
100
AcDbLine
10
6
20
-12.303
30
0
11
6
21
-35.567145
31
0
39
0
210
0
220
0
230
1
0
LINE
5
171
100
AcDbEntity
8
0
62
256
6
ByLayer
370
-2
48
1
60
0
100
AcDbLine
10
54.9
20
-33.567145
30
0
11
9.5
21
-33.567145
31
0
39
0
210
0
220
0
230
1
0
SOLID
5
172
100
AcDbEntity
8
0
62
256
6
ByLayer
370
-1
48
1
60
0
100
AcDbTrace
10
54.9
20
-34.150478
30
0
11
54.9
21
-32.983812
31
0
12
58.4
22
-33.567145
32
0
13
58.4
23
-33.567145
33
0
39
0
210
0
220
0
230
1
0
SOLID
5
173
100
AcDbEntity
8
0
62
256
6
ByLayer
370
-1
48
1
60
0
100
AcDbTrace
10
9.5
20
-32.983812
30
0
11
9.5
21
-34.150478
31
0
12
6
22
-33.567145
32
0
13
6
23
-33.567145
33
0
39
0
210
0
220
0
230
1
0
MTEXT
5
174
100
AcDbEntity
8
0
62
256
6
ByLayer
370
18
48
1
60
0
100
AcDbMText
10
32.2
20
-27.567145
30
0
210
0
220
0
230
1
1
\A1;52.4
40
3
41
0
44
1
50
0
71
5
72
5
7
iso_b_vert
0
POINT
5
175
100
AcDbEntity
8
Defpoints
62
0
6
ByLayer
370
-1
48
1
60
0
100
AcDbPoint
10
58.4
20
0
30
0
39
0
210
0
220
0
230
1
50
360
0
POINT
5
176
100
AcDbEntity
8
Defpoints
62
0
6
ByLayer
370
-1
48
1
60
0
100
AcDbPoint
10
6
20
-10.7155
30
0
39
0
210
0
220
0
230
1
50
360
0
POINT
5
177
100
AcDbEntity
8
Defpoints
62
0
6
ByLayer
370
-1
48
1
60
0
100
AcDbPoint
10
6
20
-33.567145
30
0
39
0
210
0
220
0
230
1
50
360
0
ENDBLK
5
16E
100
AcDbEntity
8
0
100
AcDbBlockEnd
0
BLOCK
5
17F
100
AcDbEntity
8
0
100
AcDbBlockBegin
2
_U1
70
0
10
0
20
0
30
0
3
_U1
0
MTEXT
5
179
100
AcDbEntity
8
SK2
62
256
6
ByLayer
370
18
48
1
60
0
100
AcDbMText
10
27.559687
20
-32.68203
30
0
210
0
220
0
230
1
1
\W0.7694;52.40
40
3
41
0
44
1.084337
50
0
71
7
72
5
7
iso_b_vert
0
LINE
5
17A
100
AcDbEntity
8
SK2
62
256
6
ByLayer
370
13
48
1
60
0
100
AcDbLine
10
58.4
20
-1.5875
30
0
11
58.4
21
-35.567145
31
0
39
0
210
0
220
0
230
1
0
LINE
5
17B
100
AcDbEntity
8
SK2
62
256
6
ByLayer
370
13
48
1
60
0
100
AcDbLine
10
6
20
-12.303
30
0
11
6
21
-35.567145
31
0
39
0
210
0
220
0
230
1
0
LINE
5
17C
100
AcDbEntity
8
SK2
62
256
6
ByLayer
370
13
48
1
60
0
100
AcDbLine
10
58.4
20
-33.567145
30
0
11
6
21
-33.567145
31
0
39
0
210
0
220
0
230
1
0
SOLID
5
17D
100
AcDbEntity
8
SK2
62
256
6
ByLayer
370
18
48
1
60
0
100
AcDbTrace
10
58.4
20
-33.567145
30
0
11
54.900002
21
-34.027929
31
0
12
54.899998
22
-33.106361
32
0
13
54.899998
23
-33.106361
33
0
39
0
210
0
220
0
230
1
0
SOLID
5
17E
100
AcDbEntity
8
SK2
62
256
6
ByLayer
370
18
48
1
60
0
100
AcDbTrace
10
6
20
-33.567145
30
0
11
9.499998
21
-33.106361
31
0
12
9.500002
22
-34.027929
32
0
13
9.500002
23
-34.027929
33
0
39
0
210
0
220
0
230
1
0
ENDBLK
5
180
100
AcDbEntity
8
0
100
AcDbBlockEnd
0
BLOCK
5
185
100
AcDbEntity
8
0
100
AcDbBlockBegin
2
*D5
70
1
10
0
20
0
30
0
3
*D5
0
LINE
5
187
100
AcDbEntity
8
0
62
256
6
ByLayer
370
-2
48
1
60
0
100
AcDbLine
10
-57.1
20
-14.2875
30
0
11
-57.1
21
-35.567145
31
0
39
0
210
0
220
0
230
1
0
LINE
5
188
100
AcDbEntity
8
0
62
256
6
ByLayer
370
-2
48
1
60
0
100
AcDbLine
10
0
20
-14.2875
30
0
11
0
21
-35.567145
31
0
39
0
210
0
220
0
230
1
0
LINE
5
189
100
AcDbEntity
8
0
62
256
6
ByLayer
370
-2
48
1
60
0
100
AcDbLine
10
-53.6
20
-33.567145
30
0
11
-3.5
21
-33.567145
31
0
39
0
210
0
220
0
230
1
0
SOLID
5
18A
100
AcDbEntity
8
0
62
256
6
ByLayer
370
-1
48
1
60
0
100
AcDbTrace
10
-53.6
20
-32.983812
30
0
11
-53.6
21
-34.150478
31
0
12
-57.1
22
-33.567145
32
0
13
-57.1
23
-33.567145
33
0
39
0
210
0
220
0
230
1
0
SOLID
5
18B
100
AcDbEntity
8
0
62
256
6
ByLayer
370
-1
48
1
60
0
100
AcDbTrace
10
-3.5
20
-34.150478
30
0
11
-3.5
21
-32.983812
31
0
12
0
22
-33.567145
32
0
13
0
23
-33.567145
33
0
39
0
210
0
220
0
230
1
0
MTEXT
5
18C
100
AcDbEntity
8
0
62
256
6
ByLayer
370
18
48
1
60
0
100
AcDbMText
10
-28.55
20
-27.567145
30
0
210
0
220
0
230
1
1
\A1;57.1
40
3
41
0
44
1
50
0
71
5
72
5
7
iso_b_vert
0
POINT
5
18D
100
AcDbEntity
8
Defpoints
62
0
6
ByLayer
370
-1
48
1
60
0
100
AcDbPoint
10
-57.1
20
-12.7
30
0
39
0
210
0
220
0
230
1
50
360
0
POINT
5
18E
100
AcDbEntity
8
Defpoints
62
0
6
ByLayer
370
-1
48
1
60
0
100
AcDbPoint
10
0
20
-12.7
30
0
39
0
210
0
220
0
230
1
50
360
0
POINT
5
18F
100
AcDbEntity
8
Defpoints
62
0
6
ByLayer
370
-1
48
1
60
0
100
AcDbPoint
10
0
20
-33.567145
30
0
39
0
210
0
220
0
230
1
50
360
0
ENDBLK
5
186
100
AcDbEntity
8
0
100
AcDbBlockEnd
0
BLOCK
5
197
100
AcDbEntity
8
0
100
AcDbBlockBegin
2
_U2
70
0
10
0
20
0
30
0
3
_U2
0
MTEXT
5
191
100
AcDbEntity
8
SK2
62
256
6
ByLayer
370
18
48
1
60
0
100
AcDbMText
10
-32.657428
20
-32.68203
30
0
210
0
220
0
230
1
1
\W0.6864;57.10
40
3
41
0
44
1.084337
50
0
71
7
72
5
7
iso_b_vert
0
LINE
5
192
100
AcDbEntity
8
SK2
62
256
6
ByLayer
370
13
48
1
60
0
100
AcDbLine
10
-57.1
20
-14.2875
30
0
11
-57.1
21
-35.567145
31
0
39
0
210
0
220
0
230
1
0
LINE
5
193
100
AcDbEntity
8
SK2
62
256
6
ByLayer
370
13
48
1
60
0
100
AcDbLine
10
0
20
-14.2875
30
0
11
0
21
-35.567145
31
0
39
0
210
0
220
0
230
1
0
LINE
5
194
100
AcDbEntity
8
SK2
62
256
6
ByLayer
370
13
48
1
60
0
100
AcDbLine
10
-57.1
20
-33.567145
30
0
11
0
21
-33.567145
31
0
39
0
210
0
220
0
230
1
0
SOLID
5
195
100
AcDbEntity
8
SK2
62
256
6
ByLayer
370
18
48
1
60
0
100
AcDbTrace
10
-57.1
20
-33.567145
30
0
11
-53.600002
21
-33.106361
31
0
12
-53.599998
22
-34.027929
32
0
13
-53.599998
23
-34.027929
33
0
39
0
210
0
220
0
230
1
0
SOLID
5
196
100
AcDbEntity
8
SK2
62
256
6
ByLayer
370
18
48
1
60
0
100
AcDbTrace
10
0
20
-33.567145
30
0
11
-3.499998
21
-34.027929
31
0
12
-3.500002
22
-33.106361
32
0
13
-3.500002
23
-33.106361
33
0
39
0
210
0
220
0
230
1
0
ENDBLK
5
198
100
AcDbEntity
8
0
100
AcDbBlockEnd
0
BLOCK
5
19D
100
AcDbEntity
8
0
100
AcDbBlockBegin
2
*D7
70
1
10
0
20
0
30
0
3
*D7
0
LINE
5
19F
100
AcDbEntity
8
0
62
256
6
ByLayer
370
-2
48
1
60
0
100
AcDbLine
10
58.4
20
1.5875
30
0
11
58.4
21
32.567145
31
0
39
0
210
0
220
0
230
1
0
LINE
5
1A0
100
AcDbEntity
8
0
62
256
6
ByLayer
370
-2
48
1
60
0
100
AcDbLine
10
13.9
20
12.303
30
0
11
13.9
21
32.567145
31
0
39
0
210
0
220
0
230
1
0
LINE
5
1A1
100
AcDbEntity
8
0
62
256
6
ByLayer
370
-2
48
1
60
0
100
AcDbLine
10
54.9
20
30.567145
30
0
11
17.4
21
30.567145
31
0
39
0
210
0
220
0
230
1
0
SOLID
5
1A2
100
AcDbEntity
8
0
62
256
6
ByLayer
370
-1
48
1
60
0
100
AcDbTrace
10
54.9
20
29.983812
30
0
11
54.9
21
31.150478
31
0
12
58.4
22
30.567145
32
0
13
58.4
23
30.567145
33
0
39
0
210
0
220
0
230
1
0
SOLID
5
1A3
100
AcDbEntity
8
0
62
256
6
ByLayer
370
-1
48
1
60
0
100
AcDbTrace
10
17.4
20
31.150478
30
0
11
17.4
21
29.983812
31
0
12
13.9
22
30.567145
32
0
13
13.9
23
30.567145
33
0
39
0
210
0
220
0
230
1
0
MTEXT
5
1A4
100
AcDbEntity
8
0
62
256
6
ByLayer
370
18
48
1
60
0
100
AcDbMText
10
36.15
20
36.567145
30
0
210
0
220
0
230
1
1
\A1;44.5
40
3
41
0
44
1
50
0
71
5
72
5
7
iso_b_vert
0
POINT
5
1A5
100
AcDbEntity
8
Defpoints
62
0
6
ByLayer
370
-1
48
1
60
0
100
AcDbPoint
10
58.4
20
0
30
0
39
0
210
0
220
0
230
1
50
360
0
POINT
5
1A6
100
AcDbEntity
8
Defpoints
62
0
6
ByLayer
370
-1
48
1
60
0
100
AcDbPoint
10
13.9
20
10.7155
30
0
39
0
210
0
220
0
230
1
50
360
0
POINT
5
1A7
100
AcDbEntity
8
Defpoints
62
0
6
ByLayer
370
-1
48
1
60
0
100
AcDbPoint
10
13.9
20
30.567145
30
0
39
0
210
0
220
0
230
1
50
360
0
ENDBLK
5
19E
100
AcDbEntity
8
0
100
AcDbBlockEnd
0
BLOCK
5
1AF
100
AcDbEntity
8
0
100
AcDbBlockBegin
2
_U3
70
0
10
0
20
0
30
0
3
_U3
0
MTEXT
5
1A9
100
AcDbEntity
8
SK2
62
256
6
ByLayer
370
18
48
1
60
0
100
AcDbMText
10
31.351744
20
31.452259
30
0
210
0
220
0
230
1
1
\W0.7958;44.50
40
3
41
0
44
1.084337
50
0
71
7
72
5
7
iso_b_vert
0
LINE
5
1AA
100
AcDbEntity
8
SK2
62
256
6
ByLayer
370
13
48
1
60
0
100
AcDbLine
10
58.4
20
1.5875
30
0
11
58.4
21
32.567145
31
0
39
0
210
0
220
0
230
1
0
LINE
5
1AB
100
AcDbEntity
8
SK2
62
256
6
ByLayer
370
13
48
1
60
0
100
AcDbLine
10
13.9
20
12.303
30
0
11
13.9
21
32.567145
31
0
39
0
210
0
220
0
230
1
0
LINE
5
1AC
100
AcDbEntity
8
SK2
62
256
6
ByLayer
370
13
48
1
60
0
100
AcDbLine
10
58.4
20
30.567145
30
0
11
13.9
21
30.567145
31
0
39
0
210
0
220
0
230
1
0
SOLID
5
1AD
100
AcDbEntity
8
SK2
62
256
6
ByLayer
370
18
48
1
60
0
100
AcDbTrace
10
58.4
20
30.567145
30
0
11
54.900002
21
30.106361
31
0
12
54.899998
22
31.027929
32
0
13
54.899998
23
31.027929
33
0
39
0
210
0
220
0
230
1
0
SOLID
5
1AE
100
AcDbEntity
8
SK2
62
256
6
ByLayer
370
18
48
1
60
0
100
AcDbTrace
10
13.9
20
30.567145
30
0
11
17.399998
21
31.027929
31
0
12
17.400002
22
30.106361
32
0
13
17.400002
23
30.106361
33
0
39
0
210
0
220
0
230
1
0
ENDBLK
5
1B0
100
AcDbEntity
8
0
100
AcDbBlockEnd
0
ENDSEC
0
SECTION
2
ENTITIES
0
ARC
5
BC
100
AcDbEntity
8
SK2
62
256
6
ByLayer
370
13
48
1
60
0
100
AcDbCircle
39
0
10
58.4
20
0
30
0
40
19
210
0
220
0
230
1
100
AcDbArc
50
290
51
70
0
POINT
5
70
100
AcDbEntity
8
81
62
256
6
ByLayer
370
18
48
1
60
0
100
AcDbPoint
10
58.4
20
0
30
0
39
0
210
0
220
0
230
1
50
360
0
POINT
5
72
100
AcDbEntity
8
80
62
256
6
ByLayer
370
18
48
1
60
0
100
AcDbPoint
10
0
20
0
30
0
39
0
210
0
220
0
230
1
50
360
0
POINT
5
74
100
AcDbEntity
8
1
62
256
6
ByLayer
370
18
48
1
60
1
100
AcDbPoint
10
-57.1
20
-12.7
30
0
39
0
210
0
220
0
230
1
50
360
0
POINT
5
76
100
AcDbEntity
8
1
62
256
6
ByLayer
370
18
48
1
60
1
100
AcDbPoint
10
58.4
20
0
30
0
39
0
210
0
220
0
230
1
50
360
0
POINT
5
77
100
AcDbEntity
8
1
62
256
6
ByLayer
370
18
48
1
60
1
100
AcDbPoint
10
58.4
20
0
30
0
39
0
210
0
220
0
230
1
50
360
0
POINT
5
78
100
AcDbEntity
8
1
62
256
6
ByLayer
370
18
48
1
60
1
100
AcDbPoint
10
6
20
-10.7155
30
0
39
0
210
0
220
0
230
1
50
360
0
POINT
5
79
100
AcDbEntity
8
1
62
256
6
ByLayer
370
18
48
1
60
1
100
AcDbPoint
10
-57.1
20
-12.7
30
0
39
0
210
0
220
0
230
1
50
360
0
POINT
5
7A
100
AcDbEntity
8
1
62
256
6
ByLayer
370
18
48
1
60
1
100
AcDbPoint
10
0
20
-12.7
30
0
39
0
210
0
220
0
230
1
50
360
0
POINT
5
7B
100
AcDbEntity
8
1
62
256
6
ByLayer
370
18
48
1
60
1
100
AcDbPoint
10
58.4
20
0
30
0
39
0
210
0
220
0
230
1
50
360
0
POINT
5
7C
100
AcDbEntity
8
1
62
256
6
ByLayer
370
18
48
1
60
1
100
AcDbPoint
10
13.9
20
10.7155
30
0
39
0
210
0
220
0
230
1
50
360
0
SPLINE
5
BD
100
AcDbEntity
8
1
62
256
6
ByLayer
370
18
48
1
60
0
100
AcDbSpline
70
4
71
3
72
18
73
14
40
0
40
0
40
0
40
0
40
0.186247628962016
40
0.186247628962016
40
0.389685721721512
40
0.389685721721512
40
0.49140476810126
40
0.49140476810126
40
0.593123814481008
40
0.593123814481008
40
0.796561907240504
40
0.796561907240504
40
1
40
1
40
1
40
1
41
1
10
25.5286542618791
20
-7.4796140698804
30
0
41
1
10
25.0314201788749
20
-7.59683909517642
30
0
41
1
10
24.5342818584815
20
-7.71086888048575
30
0
41
1
10
23.4939621724833
20
-7.94210327799357
30
0
41
1
10
22.9508150987582
20
-8.05873134387207
30
0
41
1
10
22.1360850432704
20
-8.22762766825448
30
0
41
1
10
21.8645084232179
20
-8.28292062883162
30
0
41
1
10
21.3213449607126
20
-8.39146800225311
30
0
41
1
10
21.0497501109685
20
-8.44470772162813
30
0
41
1
10
20.2347329892692
20
-8.60100968593881
30
0
41
1
10
19.6911300645058
20
-8.70074708542151
30
0
41
1
10
18.6034399031791
20
-8.89135775249736
30
0
41
1
10
18.0593562346457
20
-8.9822376627279
30
0
41
1
10
17.5150763956595
20
-9.06870876612587
30
0
0
SPLINE
5
BE
100
AcDbEntity
8
1
62
256
6
ByLayer
370
18
48
1
60
0
100
AcDbSpline
70
4
71
3
72
12
73
8
40
0
40
0
40
0
40
0
40
0.5
40
0.5
40
0.75
40
0.75
40
1
40
1
40
1
40
1
41
1
10
17.5150763956595
20
9.06870876612592
30
0
41
1
10
17.088678756125
20
9.13866154854617
30
0
41
1
10
16.6664671170924
20
9.21018091832016
30
0
41
1
10
16.0380084350527
20
9.31651655425384
30
0
41
1
10
15.829340668028
20
9.35181850065575
30
0
41
1
10
15.4135302249696
20
9.42174997110888
30
0
41
1
10
15.206387332493
20
9.45638026529392
30
0
41
1
10
15
20
9.4905283375503
30
0
0
SPLINE
5
BF
100
AcDbEntity
8
1
62
256
6
ByLayer
370
18
48
1
60
0
100
AcDbSpline
70
4
71
3
72
49
73
45
40
0
40
0
40
0
40
0
40
0.124999999999997
40
0.124999999999997
40
0.156249999999998
40
0.156249999999998
40
0.187499999999999
40
0.187499999999999
40
0.218749999999999
40
0.218749999999999
40
0.25
40
0.312499999999999
40
0.312499999999999
40
0.374999999999999
40
0.374999999999999
40
0.40625
40
0.40625
40
0.4375
40
0.4375
40
0.500000000000001
40
0.500000000000001
40
0.531250000000002
40
0.531250000000002
40
0.562500000000003
40
0.562500000000003
40
0.625000000000004
40
0.625000000000004
40
0.656250000000004
40
0.656250000000004
40
0.687500000000004
40
0.687500000000004
40
0.750000000000003
40
0.750000000000003
40
0.781250000000003
40
0.781250000000003
40
0.812500000000003
40
0.812500000000003
40
0.875000000000002
40
0.875000000000002
40
0.906250000000002
40
0.906250000000002
40
0.937500000000002
40
0.937500000000002
40
1
40
1
40
1
40
1
41
1
10
22.1263528204368
20
-6.61835679909984
30
0
41
1
10
23.0220816271011
20
-6.85520165654566
30
0
41
1
10
23.9173858009148
20
-7.08128250737943
30
0
41
1
10
25.0354970393394
20
-7.35171075908056
30
0
41
1
10
25.259068636802
20
-7.40518400397173
30
0
41
1
10
25.7060995370141
20
-7.51092312889079
30
0
41
1
10
25.9295503576522
20
-7.5632052006016
30
0
41
1
10
26.3763973644859
20
-7.66644252789357
30
0
41
1
10
26.5998115066757
20
-7.71736309339539
30
0
41
1
10
27.0466686737434
20
-7.81772552082705
30
0
41
1
10
27.7169712112484
20
-7.96610164425596
30
0
41
1
10
28.3872439346877
20
-8.10816221105054
30
0
41
1
10
29.2807801751723
20
-8.2921921213746
30
0
41
1
10
29.7274428925334
20
-8.38155022690779
30
0
41
1
10
30.3975212548806
20
-8.51117155200421
30
0
41
1
10
30.620896479396
20
-8.55364060097423
30
0
41
1
10
31.0677287978577
20
-8.63702594907181
30
0
41
1
10
31.2911913142432
20
-8.6779343484454
30
0
41
1
10
31.9616891935422
20
-8.79835990023855
30
0
41
1
10
32.4088157582423
20
-8.87560888979414
30
0
41
1
10
33.0796135395473
20
-8.98703648399103
30
0
41
1
10
33.3032325076345
20
-9.02343489015416
30
0
41
1
10
33.750503018033
20
-9.09474437702156
30
0
41
1
10
33.9741484773479
20
-9.12966264640968
30
0
41
1
10
34.6452773018662
20
-9.23198634054216
30
0
41
1
10
35.0930240448457
20
-9.29687552768561
30
0
41
1
10
35.7650530783055
20
-9.38934967343408
30
0
41
1
10
35.9890989251873
20
-9.41936086627112
30
0
41
1
10
36.4370549352317
20
-9.47774994343484
30
0
41
1
10
36.660992836757
20
-9.50613175805432
30
0
41
1
10
37.3326613373902
20
-9.58885846503691
30
0
41
1
10
37.7802401575373
20
-9.64078440965775
30
0
41
1
10
38.4515760053999
20
-9.71356175929941
30
0
41
1
10
38.6753503558839
20
-9.73696895748799
30
0
41
1
10
39.122941145342
20
-9.78204276838821
30
0
41
1
10
39.3467571146077
20
-9.80371063436382
30
0
41
1
10
40.0182212692942
20
-9.86615378023609
30
0
41
1
10
40.4658744448335
20
-9.90437927832045
30
0
41
1
10
41.1373036721305
20
-9.95663894751488
30
0
41
1
10
41.3611048674599
20
-9.97321169526396
30
0
41
1
10
41.8086897262279
20
-10.0046534533761
30
0
41
1
10
42.0324753820364
20
-10.019519885637
30
0
41
1
10
42.7040087226113
20
-10.0614479616529
30
0
41
1
10
43.1519265128867
20
-10.0858517205701
30
0
41
1
10
43.6
20
-10.1067624173314
30
0
0
SPLINE
5
C0
100
AcDbEntity
8
1
62
256
6
ByLayer
370
18
48
1
60
0
100
AcDbSpline
70
4
71
3
72
14
73
10
40
0
40
0
40
0
40
0
40
0.393584519610678
40
0.393584519610678
40
0.787169039221356
40
0.787169039221356
40
0.9839612990267
40
0.9839612990267
40
1
40
1
40
1
40
1
41
1
10
43.6
20
-10.6394751211021
30
0
41
1
10
44.0548472462965
20
-10.6589614874023
30
0
41
1
10
44.509482668079
20
-10.6746387955664
30
0
41
1
10
45.4181964593707
20
-10.698393458441
30
0
41
1
10
45.8722892536974
20
-10.7064563446944
30
0
41
1
10
46.5533346736949
20
-10.7127867337239
30
0
41
1
10
46.7803377425065
20
-10.7139372904461
30
0
41
1
10
47.0258517043637
20
-10.7141485237184
30
0
41
1
10
47.0443533780442
20
-10.7141581025126
30
0
41
1
10
47.0628550614487
20
-10.7141613430673
30
0
0
SPLINE
5
C1
100
AcDbEntity
8
1
62
256
6
ByLayer
370
18
48
1
60
0
100
AcDbSpline
70
4
71
3
72
23
73
19
40
0
40
0
40
0
40
0
40
0.125
40
0.125
40
0.1875
40
0.1875
40
0.25
40
0.375
40
0.375
40
0.5
40
0.5
40
0.625
40
0.625
40
0.75
40
0.75
40
0.875
40
0.875
40
1
40
1
40
1
40
1
41
1
10
54.4998769547133
20
-1.52898091782967
30
0
41
1
10
54.0450679404371
20
-1.36530151316148
30
0
41
1
10
53.5905095986098
20
-1.20108941465961
30
0
41
1
10
52.9090563717393
20
-0.953949962967812
30
0
41
1
10
52.681965796515
20
-0.871443184113872
30
0
41
1
10
52.2277963405607
20
-0.706478998626153
30
0
41
1
10
51.5465815282995
20
-0.45904609597153
30
0
41
1
10
50.8655108784115
20
-0.211579118069182
30
0
41
1
10
49.957603469698
20
0.118570142569467
30
0
41
1
10
49.5037659966975
20
0.283804378134761
30
0
41
1
10
48.5961370454485
20
0.614075419565012
30
0
41
1
10
48.1423257956615
20
0.779057541047081
30
0
41
1
10
47.2344263299462
20
1.10793428902488
30
0
41
1
10
46.7803727194684
20
1.27192459912393
30
0
41
1
10
45.8721196257799
20
1.59917923147279
30
0
41
1
10
45.4179391087294
20
1.76249555792864
30
0
41
1
10
44.5093508027906
20
2.08817583020326
30
0
41
1
10
44.0548123318968
20
2.25018110260515
30
0
41
1
10
43.6
20
2.41127109126671
30
0
0
SPLINE
5
C2
100
AcDbEntity
8
1
62
256
6
ByLayer
370
18
48
1
60
0
100
AcDbSpline
70
4
71
3
72
90
73
86
40
0
40
0
40
0
40
0
40
0.0312500000000006
40
0.0312500000000006
40
0.0625000000000012
40
0.0625000000000012
40
0.125000000000002
40
0.125000000000002
40
0.140625000000002
40
0.140625000000002
40
0.148437500000002
40
0.148437500000002
40
0.156250000000002
40
0.187500000000003
40
0.187500000000003
40
0.218750000000004
40
0.218750000000004
40
0.250000000000005
40
0.250000000000005
40
0.281250000000006
40
0.281250000000006
40
0.296875000000006
40
0.296875000000006
40
0.312500000000007
40
0.312500000000007
40
0.343750000000008
40
0.343750000000008
40
0.37500000000001
40
0.37500000000001
40
0.406250000000012
40
0.406250000000012
40
0.437500000000014
40
0.437500000000014
40
0.445312500000014
40
0.445312500000014
40
0.453125000000015
40
0.468750000000016
40
0.468750000000016
40
0.500000000000018
40
0.500000000000018
40
0.531250000000019
40
0.531250000000019
40
0.53906250000002
40
0.53906250000002
40
0.54687500000002
40
0.562500000000021
40
0.562500000000021
40
0.593750000000021
40
0.593750000000021
40
0.625000000000022
40
0.625000000000022
40
0.632812500000022
40
0.632812500000022
40
0.640625000000021
40
0.656250000000021
40
0.656250000000021
40
0.687500000000019
40
0.687500000000019
40
0.718750000000017
40
0.718750000000017
40
0.726562500000017
40
0.726562500000017
40
0.734375000000016
40
0.734375000000016
40
0.750000000000015
40
0.750000000000015
40
0.781250000000014
40
0.781250000000014
40
0.812500000000012
40
0.812500000000012
40
0.843750000000011
40
0.843750000000011
40
0.851562500000011
40
0.851562500000011
40
0.859375000000011
40
0.875000000000009
40
0.875000000000009
40
0.906250000000007
40
0.937500000000005
40
0.968750000000002
40
0.968750000000002
40
0.976562500000002
40
0.976562500000002
40
0.984375000000001
40
1
40
1
40
1
40
1
41
1
10
54.4998769547205
20
10.3752495696864
30
0
41
1
10
54.5668053958809
20
10.209283338465
30
0
41
1
10
54.6338387532045
20
10.0408282922272
30
0
41
1
10
54.7682284813412
20
9.69933727785465
30
0
41
1
10
54.8355847439224
20
9.52630022912578
30
0
41
1
10
55.0382575538955
20
9.00074068742001
30
0
41
1
10
55.174196533463
20
8.64180647341783
30
0
41
1
10
55.3452956405631
20
8.18322681687837
30
0
41
1
10
55.3795727582168
20
8.09101230835986
30
0
41
1
10
55.4310721608552
20
7.9519487747171
30
0
41
1
10
55.4482644404056
20
7.90543837424303
30
0
41
1
10
55.4826153289834
20
7.81233582589854
30
0
41
1
10
55.5683662131833
20
7.57948744425525
30
0
41
1
10
55.6534939237997
20
7.34618631801413
30
0
41
1
10
55.7888449230489
20
6.97232099606913
30
0
41
1
10
55.8560945905884
20
6.78509684855442
30
0
41
1
10
55.9895875587232
20
6.41002169524575
30
0
41
1
10
56.0558323893586
20
6.22217122463073
30
0
41
1
10
56.1870303599055
20
5.84574891855277
30
0
41
1
10
56.2519861368061
20
5.65717802682809
30
0
41
1
10
56.3480923260107
20
5.37365525833116
30
0
41
1
10
56.3799047492239
20
5.27903595782476
30
0
41
1
10
56.4429976773593
20
5.0895434441839
30
0
41
1
10
56.4742920766399
20
4.99462526763529
30
0
41
1
10
56.5667694735099
20
4.71081394416461
30
0
41
1
10
56.6267115932586
20
4.52242292450947
30
0
41
1
10
56.7420894298922
20
4.14695690378136
30
0
41
1
10
56.7975328334529
20
3.95988316647848
30
0
41
1
10
56.9022290045895
20
3.58666591608747
30
0
41
1
10
56.9514906046123
20
3.40052319205324
30
0
41
1
10
57.0412870164135
20
3.02866746087352
30
0
41
1
10
57.0818258466095
20
2.84295292921652
30
0
41
1
10
57.1247872682302
20
2.6106949640656
30
0
41
1
10
57.1329960755999
20
2.56420858610943
30
0
41
1
10
57.1485494934831
20
2.47133954818207
30
0
41
1
10
57.1705295008749
20
2.33252475237793
30
0
41
1
10
57.188222823596
20
2.19519512428974
30
0
41
1
10
57.2173183161525
20
1.92259253027785
30
0
41
1
10
57.2282651730528
20
1.74359033518243
30
0
41
1
10
57.231214505739
20
1.39168790102784
30
0
41
1
10
57.2231998541244
20
1.21879059571739
30
0
41
1
10
57.2014160466531
20
1.00704539969814
30
0
41
1
10
57.1964711533521
20
0.964874372466397
30
0
41
1
10
57.1854639843654
20
0.881168915586557
30
0
41
1
10
57.1673315210866
20
0.756946927187698
30
0
41
1
10
57.1446151945991
20
0.636683885720288
30
0
41
1
10
57.0938339705031
20
0.401307763511937
30
0
41
1
10
57.0528777506691
20
0.251247378095542
30
0
41
1
10
56.9604560994278
20
-0.0356986395208594
30
0
41
1
10
56.9089984289803
20
-0.172588144247214
30
0
41
1
10
56.8398177763498
20
-0.335592938358644
30
0
41
1
10
56.8257245950125
20
-0.367813151991982
30
0
41
1
10
56.7971326264865
20
-0.431323306898435
30
0
41
1
10
56.7537094066353
20
-0.525033162313207
30
0
41
1
10
56.7088466881781
20
-0.614168664188071
30
0
41
1
10
56.6175504166389
20
-0.786524106278762
30
0
41
1
10
56.55461257431
20
-0.893556765278504
30
0
41
1
10
56.4258108448815
20
-1.09240798659872
30
0
41
1
10
56.3599382484751
20
-1.18422368582324
30
0
41
1
10
56.2761651104015
20
-1.28950053597103
30
0
41
1
10
56.2593377978331
20
-1.31008015336388
30
0
41
1
10
56.2255440643671
20
-1.35028397644083
30
0
41
1
10
56.2085652876856
20
-1.36992102544033
30
0
41
1
10
56.1576453634316
20
-1.42715223579992
30
0
41
1
10
56.1236585559106
20
-1.46314518985929
30
0
41
1
10
56.0216307144833
20
-1.56478650537474
30
0
41
1
10
55.9535273243417
20
-1.62411039186659
30
0
41
1
10
55.8172745388187
20
-1.72631272366667
30
0
41
1
10
55.7491230185696
20
-1.7691894661956
30
0
41
1
10
55.6127529262198
20
-1.83852085710413
30
0
41
1
10
55.5445333824023
20
-1.8649755145552
30
0
41
1
10
55.4591457862532
20
-1.88756108208764
30
0
41
1
10
55.442050857094
20
-1.89155435992041
30
0
41
1
10
55.4079998979092
20
-1.89845488989403
30
0
41
1
10
55.3570796707557
20
-1.907192312219
30
0
41
1
10
55.3066113776768
20
-1.91114356255551
30
0
41
1
10
55.206233097889
20
-1.91277320189093
30
0
41
1
10
55.0738837974792
20
-1.89824042080343
30
0
41
1
10
54.879127382015
20
-1.82723195646307
30
0
41
1
10
54.7513439475549
20
-1.74702791014033
30
0
41
1
10
54.6719774766658
20
-1.68640499520726
30
0
41
1
10
54.6561401211079
20
-1.67376251563084
30
0
41
1
10
54.624596202754
20
-1.64749375513796
30
0
41
1
10
54.5774487043346
20
-1.60659361029622
30
0
41
1
10
54.5307863793593
20
-1.56121724306988
30
0
41
1
10
54.4998769547205
20
-1.52898091783229
30
0
0
SPLINE
5
C3
100
AcDbEntity
8
1
62
256
6
ByLayer
370
18
48
1
60
0
100
AcDbSpline
70
4
71
3
72
20
73
16
40
0
40
0
40
0
40
0
40
0.0841232531089755
40
0.0841232531089755
40
0.267298602487178
40
0.267298602487178
40
0.358886277176278
40
0.358886277176278
40
0.450473951865379
40
0.450473951865379
40
0.633649301243586
40
0.633649301243586
40
0.816824650621793
40
0.816824650621793
40
1
40
1
40
1
40
1
41
1
10
47.062854799357
20
10.7141613430214
30
0
41
1
10
47.2713658581078
20
10.7141978642369
30
0
41
1
10
47.4798781518958
20
10.7134293697704
30
0
41
1
10
48.1423818327708
20
10.708435362173
30
0
41
1
10
48.5963224133535
20
10.7012059167614
30
0
41
1
10
49.2770880788873
20
10.6846174093039
30
0
41
1
10
49.503980220096
20
10.6781283304339
30
0
41
1
10
49.9577432580492
20
10.6632301095679
30
0
41
1
10
50.1846264959703
20
10.6548232439389
30
0
41
1
10
50.8654528232925
20
10.6267882840611
30
0
41
1
10
51.319515233309
20
10.6043375262308
30
0
41
1
10
52.2278411046217
20
10.5518891558962
30
0
41
1
10
52.6820900947416
20
10.5218826740943
30
0
41
1
10
53.5907244203115
20
10.4542228900615
30
0
41
1
10
54.0451436848449
20
10.4165789323962
30
0
41
1
10
54.4998769547133
20
10.375249569687
30
0
0
SPLINE
5
C4
100
AcDbEntity
8
1
62
256
6
ByLayer
370
18
48
1
60
0
100
AcDbSpline
70
4
71
3
72
45
73
41
40
0
40
0
40
0
40
0
40
0.0345698124875712
40
0.0345698124875712
40
0.0717017427765117
40
0.0717017427765117
40
0.108833673065452
40
0.183097533643333
40
0.183097533643333
40
0.257361394221214
40
0.257361394221214
40
0.294493324510156
40
0.294493324510156
40
0.331625254799097
40
0.331625254799097
40
0.405889115376981
40
0.405889115376981
40
0.443021045665921
40
0.443021045665921
40
0.480152975954861
40
0.480152975954861
40
0.554416836532741
40
0.554416836532741
40
0.591548766821679
40
0.591548766821679
40
0.628680697110617
40
0.628680697110617
40
0.702944557688494
40
0.702944557688494
40
0.740076487977433
40
0.740076487977433
40
0.777208418266371
40
0.777208418266371
40
0.851472278844248
40
0.851472278844248
40
0.888604209133187
40
0.888604209133187
40
0.925736139422125
40
0.925736139422125
40
1
40
1
40
1
40
1
41
1
10
25.5288511380848
20
7.46898921210701
30
0
41
1
10
25.7369357960595
20
7.51813493741116
30
0
41
1
10
25.9449666673053
20
7.56676690870515
30
0
41
1
10
26.376397364486
20
7.66644252789354
30
0
41
1
10
26.5998115066758
20
7.71736309339536
30
0
41
1
10
27.0466686737434
20
7.81772552082705
30
0
41
1
10
27.7169712112484
20
7.96610164425596
30
0
41
1
10
28.3872439346877
20
8.10816221105054
30
0
41
1
10
29.2807801751723
20
8.29219212137457
30
0
41
1
10
29.7274428925334
20
8.38155022690776
30
0
41
1
10
30.3975212548806
20
8.51117155200421
30
0
41
1
10
30.620896479396
20
8.55364060097432
30
0
41
1
10
31.0677287978577
20
8.6370259490719
30
0
41
1
10
31.2911913142432
20
8.67793434844538
30
0
41
1
10
31.9616891935422
20
8.79835990023852
30
0
41
1
10
32.4088157582423
20
8.87560888979414
30
0
41
1
10
33.0796135395474
20
8.98703648399103
30
0
41
1
10
33.3032325076346
20
9.02343489015416
30
0
41
1
10
33.750503018033
20
9.09474437702153
30
0
41
1
10
33.9741484773479
20
9.12966264640968
30
0
41
1
10
34.6452773018662
20
9.23198634054219
30
0
41
1
10
35.0930240448457
20
9.29687552768561
30
0
41
1
10
35.7650530783055
20
9.38934967343408
30
0
41
1
10
35.9890989251874
20
9.41936086627112
30
0
41
1
10
36.4370549352318
20
9.47774994343487
30
0
41
1
10
36.6609928367571
20
9.50613175805432
30
0
41
1
10
37.3326613373903
20
9.58885846503691
30
0
41
1
10
37.7802401575373
20
9.64078440965775
30
0
41
1
10
38.4515760053999
20
9.71356175929941
30
0
41
1
10
38.6753503558839
20
9.73696895748799
30
0
41
1
10
39.122941145342
20
9.78204276838821
30
0
41
1
10
39.3467571146078
20
9.80371063436382
30
0
41
1
10
40.0182212692943
20
9.86615378023609
30
0
41
1
10
40.4658744448336
20
9.90437927832045
30
0
41
1
10
41.1373036721306
20
9.95663894751488
30
0
41
1
10
41.3611048674601
20
9.97321169526396
30
0
41
1
10
41.808689726228
20
10.0046534533761
30
0
41
1
10
42.0324753820364
20
10.019519885637
30
0
41
1
10
42.7040087226114
20
10.0614479616529
30
0
41
1
10
43.1519265128868
20
10.0858517205701
30
0
41
1
10
43.6000000000001
20
10.1067624173314
30
0
0
SPLINE
5
C5
100
AcDbEntity
8
1
62
256
6
ByLayer
370
18
48
1
60
0
100
AcDbSpline
70
4
71
3
72
42
73
38
40
0
40
0
40
0
40
0
40
0.0624999999999997
40
0.0624999999999997
40
0.124999999999999
40
0.124999999999999
40
0.187499999999999
40
0.187499999999999
40
0.218749999999999
40
0.218749999999999
40
0.249999999999999
40
0.249999999999999
40
0.374999999999995
40
0.374999999999995
40
0.437499999999994
40
0.437499999999994
40
0.499999999999992
40
0.499999999999992
40
0.531249999999992
40
0.531249999999992
40
0.562499999999992
40
0.562499999999992
40
0.624999999999993
40
0.624999999999993
40
0.687499999999994
40
0.687499999999994
40
0.749999999999995
40
0.749999999999995
40
0.812499999999996
40
0.812499999999996
40
0.843749999999997
40
0.843749999999997
40
0.874999999999997
40
0.874999999999997
40
0.937499999999999
40
0.937499999999999
40
1
40
1
40
1
40
1
41
1
10
43.6
20
2.11983348824395
30
0
41
1
10
43.0555765470954
20
2.30420120960309
30
0
41
1
10
42.5114894914923
20
2.48727252677065
30
0
41
1
10
41.4240394465755
20
2.8509753065068
30
0
41
1
10
40.8806689880058
20
3.03157943955472
30
0
41
1
10
39.7941768193233
20
3.38900508815073
30
0
41
1
10
39.2510218617503
20
3.56574040719545
30
0
41
1
10
38.4364912396852
20
3.82807193455224
30
0
41
1
10
38.1650138524035
20
3.91505111698061
30
0
41
1
10
37.6221308668111
20
4.0880942813842
30
0
41
1
10
37.3507335812445
20
4.17418013052958
30
0
41
1
10
35.9938018396899
20
4.60197864775336
30
0
41
1
10
34.9078529813317
20
4.93430441036486
30
0
41
1
10
33.2784717023231
20
5.41831582807939
30
0
41
1
10
32.7352426193609
20
5.57716380298032
30
0
41
1
10
31.6480888092355
20
5.88866231041411
30
0
41
1
10
31.1041820825735
20
6.04136349282342
30
0
41
1
10
30.2878906996501
20
6.26598895899434
30
0
41
1
10
30.0156621397769
20
6.34013821721896
30
0
41
1
10
29.4714452541599
20
6.48685788433659
30
0
41
1
10
29.1994534070339
20
6.55945353127316
30
0
41
1
10
28.3836094051454
20
6.77445358709411
30
0
41
1
10
27.839877162722
20
6.91405508373609
30
0
41
1
10
26.752804447341
20
7.18599775164037
30
0
41
1
10
26.2094885977968
20
7.31838731756221
30
0
41
1
10
25.1231902438705
20
7.57575950573559
30
0
41
1
10
24.5801741683689
20
7.70066828467864
30
0
41
1
10
23.4939621724833
20
7.9421032779936
30
0
41
1
10
22.9508150987582
20
8.0587313438721
30
0
41
1
10
22.1360850432704
20
8.22762766825451
30
0
41
1
10
21.8645084232179
20
8.28292062883165
30
0
41
1
10
21.3213449607125
20
8.39146800225308
30
0
41
1
10
21.0497501109685
20
8.44470772162813
30
0
41
1
10
20.2347329892691
20
8.60100968593883
30
0
41
1
10
19.6911300645058
20
8.70074708542151
30
0
41
1
10
18.6034399031791
20
8.89135775249736
30
0
41
1
10
18.0593562346457
20
8.98223766272793
30
0
41
1
10
17.5150763956595
20
9.06870876612587
30
0
0
SPLINE
5
C6
100
AcDbEntity
8
1
62
256
6
ByLayer
370
18
48
1
60
0
100
AcDbSpline
70
4
71
3
72
12
73
8
40
0
40
0
40
0
40
0
40
0.5
40
0.5
40
0.75
40
0.75
40
1
40
1
40
1
40
1
41
1
10
17.5150763956595
20
-9.06870876612589
30
0
41
1
10
17.088678756125
20
-9.13866154854614
30
0
41
1
10
16.6664671170924
20
-9.21018091832016
30
0
41
1
10
16.0380084350526
20
-9.31651655425384
30
0
41
1
10
15.829340668028
20
-9.35181850065572
30
0
41
1
10
15.4135302249696
20
-9.42174997110885
30
0
41
1
10
15.206387332493
20
-9.45638026529392
30
0
41
1
10
15
20
-9.4905283375503
30
0
0
SPLINE
5
C7
100
AcDbEntity
8
1
62
256
6
ByLayer
370
18
48
1
60
0
100
AcDbSpline
70
4
71
4
72
10
73
5
40
0
40
0
40
0
40
0
40
0
40
1
40
1
40
1
40
1
40
1
41
0.998096254736466
10
18.1852449001882
20
-5.82479942018516
30
0
41
0.99647537399885
10
17.9620597008158
20
-6.5202424923402
30
0
41
0.994793852043909
10
17.7662677159277
20
-7.32050645116936
30
0
41
0.995246783272822
10
17.6160565555417
20
-8.18895860632511
30
0
41
0.996537753475019
10
17.5150763956595
20
-9.06870876612588
30
0
0
SPLINE
5
C8
100
AcDbEntity
8
1
62
256
6
ByLayer
370
18
48
1
60
0
100
AcDbSpline
70
4
71
3
72
18
73
14
40
0
40
0
40
0
40
0
40
0.125
40
0.125
40
0.25
40
0.25
40
0.375
40
0.375
40
0.5
40
0.5
40
0.75
40
0.75
40
1
40
1
40
1
40
1
41
1
10
15.0000000000002
20
-5.8050397871751
30
0
41
1
10
15.3025375959202
20
-5.77511665057676
30
0
41
1
10
15.6047786946438
20
-5.75493230688727
30
0
41
1
10
16.2087074593895
20
-5.73301387894293
30
0
41
1
10
16.5103949391051
20
-5.73128408915812
30
0
41
1
10
17.1132486746873
20
-5.74522187599939
30
0
41
1
10
17.4144147777705
20
-5.76089306823022
30
0
41
1
10
18.0162561005542
20
-5.80842604204023
30
0
41
1
10
18.3169735196809
20
-5.84029613956807
30
0
41
1
10
19.2181825607649
20
-5.95797217429765
30
0
41
1
10
19.8095045451542
20
-6.06475496144765
30
0
41
1
10
20.9776641658509
20
-6.31703656580171
30
0
41
1
10
21.5545268824437
20
-6.46241107323434
30
0
41
1
10
22.1263528204368
20
-6.6183567990999
30
0
0
SPLINE
5
C9
100
AcDbEntity
8
1
62
256
6
ByLayer
370
18
48
1
60
0
100
AcDbSpline
70
4
71
3
72
30
73
26
40
0
40
0
40
0
40
0
40
0.0740740279165945
40
0.0740740279165945
40
0.176954691481407
40
0.176954691481407
40
0.279835355046219
40
0.279835355046219
40
0.331275686828625
40
0.331275686828625
40
0.356995852719831
40
0.356995852719831
40
0.382716018611036
40
0.382716018611036
40
0.485596682175863
40
0.485596682175863
40
0.58847734574069
40
0.58847734574069
40
0.691358009305518
40
0.691358009305518
40
0.794238672870345
40
0.794238672870345
40
0.897119336435173
40
0.897119336435173
40
1
40
1
40
1
40
1
41
1
10
8.43009996438937
20
12.8279634314133
30
0
41
1
10
8.57487637423887
20
12.7700033635075
30
0
41
1
10
8.72230071959623
20
12.7088931727879
30
0
41
1
10
9.07993086628952
20
12.5565966457699
30
0
41
1
10
9.29226279170967
20
12.4629437745808
30
0
41
1
10
9.72409496306483
20
12.2673141643617
30
0
41
1
10
9.94359725512149
20
12.1653312587766
30
0
41
1
10
10.2771376921926
20
12.0071014670086
30
0
41
1
10
10.3890336070032
20
11.9534784774994
30
0
41
1
10
10.5578267048688
20
11.8718181511941
30
0
41
1
10
10.6142709841027
20
11.8443829247649
30
0
41
1
10
10.7272912599427
20
11.789197791585
30
0
41
1
10
10.7838794377205
20
11.7614420934949
30
0
41
1
10
11.0671778719728
20
11.6218754565027
30
0
41
1
10
11.2949523418296
20
11.5077114124008
30
0
41
1
10
11.7520633621003
20
11.274867958305
30
0
41
1
10
11.9813972577331
20
11.1561845254645
30
0
41
1
10
12.4411716563715
20
10.914579100193
30
0
41
1
10
12.6716096522015
20
10.7916530385205
30
0
41
1
10
13.1334758072961
20
10.5417387668446
30
0
41
1
10
13.3649026105377
20
10.4147465243644
30
0
41
1
10
13.8290305713116
20
10.1568982907509
30
0
41
1
10
14.0617320637512
20
10.0260388079695
30
0
41
1
10
14.5291109722431
20
9.76079149857628
30
0
41
1
10
14.76379019248
20
9.6264012404562
30
0
41
1
10
15
20
9.49052833755027
30
0
0
SPLINE
5
CA
100
AcDbEntity
8
1
62
256
6
ByLayer
370
18
48
1
60
0
100
AcDbSpline
70
4
71
3
72
113
73
109
40
0
40
0
40
0
40
0
40
0.0312499999999951
40
0.0312499999999951
40
0.0624999999999901
40
0.0624999999999901
40
0.0937499999999852
40
0.0937499999999852
40
0.12499999999998
40
0.12499999999998
40
0.156249999999975
40
0.156249999999975
40
0.171874999999972
40
0.171874999999972
40
0.179687499999971
40
0.179687499999971
40
0.187499999999969
40
0.187499999999969
40
0.218749999999967
40
0.218749999999967
40
0.249999999999964
40
0.249999999999964
40
0.281249999999962
40
0.281249999999962
40
0.289062499999961
40
0.289062499999961
40
0.29687499999996
40
0.312499999999958
40
0.312499999999958
40
0.343749999999954
40
0.343749999999954
40
0.359374999999952
40
0.359374999999952
40
0.367187499999951
40
0.367187499999951
40
0.371093749999951
40
0.371093749999951
40
0.37499999999995
40
0.390624999999951
40
0.390624999999951
40
0.406249999999952
40
0.406249999999952
40
0.421874999999953
40
0.421874999999953
40
0.429687499999954
40
0.429687499999954
40
0.437499999999954
40
0.437499999999954
40
0.453124999999955
40
0.468749999999956
40
0.468749999999956
40
0.484374999999957
40
0.484374999999957
40
0.488281249999957
40
0.488281249999957
40
0.492187499999957
40
0.492187499999957
40
0.499999999999958
40
0.499999999999958
40
0.515624999999958
40
0.515624999999958
40
0.531249999999959
40
0.531249999999959
40
0.539062499999959
40
0.542968749999959
40
0.542968749999959
40
0.546874999999959
40
0.546874999999959
40
0.56249999999996
40
0.56249999999996
40
0.593749999999961
40
0.593749999999961
40
0.597656249999961
40
0.597656249999961
40
0.601562499999961
40
0.609374999999962
40
0.609374999999962
40
0.624999999999963
40
0.624999999999963
40
0.656249999999966
40
0.656249999999966
40
0.671874999999968
40
0.671874999999968
40
0.68749999999997
40
0.68749999999997
40
0.718749999999975
40
0.718749999999975
40
0.74999999999998
40
0.74999999999998
40
0.781249999999985
40
0.781249999999985
40
0.796874999999987
40
0.796874999999987
40
0.804687499999988
40
0.804687499999988
40
0.812499999999989
40
0.812499999999989
40
0.843749999999991
40
0.843749999999991
40
0.874999999999993
40
0.874999999999993
40
0.906249999999994
40
0.906249999999994
40
0.937499999999996
40
0.937499999999996
40
0.968749999999998
40
0.968749999999998
40
1
40
1
40
1
40
1
41
1
10
15.0000000000003
20
-5.80503978717513
30
0
41
1
10
14.7377051846167
20
-5.90141706986418
30
0
41
1
10
14.4775251758015
20
-6.00299296705643
30
0
41
1
10
13.9613063333657
20
-6.2164975107371
30
0
41
1
10
13.7052674252832
20
-6.32842580730133
30
0
41
1
10
13.1972530091265
20
-6.56265806976396
30
0
41
1
10
12.9452773812894
20
-6.68496140880862
30
0
41
1
10
12.4453253486319
20
-6.94004868287243
30
0
41
1
10
12.1973487534238
20
-7.07283157307756
30
0
41
1
10
11.7053487443584
20
-7.3490893067914
30
0
41
1
10
11.4613250211935
20
-7.49256240947923
30
0
41
1
10
11.0982388456931
20
-7.71605973658686
30
0
41
1
10
10.9777019149968
20
-7.79194142855832
30
0
41
1
10
10.7976348236149
20
-7.90788607243295
30
0
41
1
10
10.7377355303615
20
-7.94688808489087
30
0
41
1
10
10.6181834504524
20
-8.02560925598164
30
0
41
1
10
10.5584772114649
20
-8.06536496920904
30
0
41
1
10
10.2616667631606
20
-8.26521476056371
30
0
41
1
10
10.0291361801564
20
-8.42888825782813
30
0
41
1
10
9.57408845717097
20
-8.76349882125965
30
0
41
1
10
9.35156822102886
20
-8.93443496111095
30
0
41
1
10
8.91696417672631
20
-9.28335120406396
30
0
41
1
10
8.70487438906275
20
-9.46132938066594
30
0
41
1
10
8.44678520264074
20
-9.68815816150072
30
0
41
1
10
8.39546819260059
20
-9.73378867232847
30
0
41
1
10
8.29379765808753
20
-9.82527017434691
30
0
41
1
10
8.14299450526141
20
-9.96258863868195
30
0
41
1
10
7.99734191849407
20
-10.1001238824586
30
0
41
1
10
7.71308670619868
20
-10.3752856501551
30
0
41
1
10
7.53294499788657
20
-10.558854118359
30
0
41
1
10
7.27807120372253
20
-10.8335359730886
30
0
41
1
10
7.19567816880087
20
-10.924983637335
30
0
41
1
10
7.07620044603547
20
-11.0618618613303
30
0
41
1
10
7.03706069914452
20
-11.10743891384
30
0
41
1
10
6.97942245255223
20
-11.1757139067118
30
0
41
1
10
6.96039110819376
20
-11.1984543637758
30
0
41
1
10
6.92284337237854
20
-11.2437192172062
30
0
41
1
10
6.83016624957097
20
-11.356454442913
30
0
41
1
10
6.7434708862842
20
-11.4670136390191
30
0
41
1
10
6.61267154575941
20
-11.6408618448683
30
0
41
1
10
6.55122729385835
20
-11.7262632670923
30
0
41
1
10
6.43665681923241
20
-11.893707273392
30
0
41
1
10
6.38352868364041
20
-11.9757507120204
30
0
41
1
10
6.31052470532981
20
-12.0960079486068
30
0
41
1
10
6.2872963438378
20
-12.1356430031247
30
0
41
1
10
6.24321310250903
20
-12.2138448607047
30
0
41
1
10
6.22252679633084
20
-12.2521115218631
30
0
41
1
10
6.16452461580818
20
-12.3643911944573
30
0
41
1
10
6.09799410119237
20
-12.507381987544
30
0
41
1
10
6.05327934236726
20
-12.6366221046945
30
0
41
1
10
6.01979429038977
20
-12.7587249587454
30
0
41
1
10
6.00866512414905
20
-12.8162086107271
30
0
41
1
10
6.00212907029444
20
-12.8833637441042
30
0
41
1
10
6.00119131299843
20
-12.8965594641028
30
0
41
1
10
6.00006654140489
20
-12.9224728837135
30
0
41
1
10
5.99988006230026
20
-12.9352100139054
30
0
41
1
10
6.000462651124
20
-12.9725415562429
30
0
41
1
10
6.0023667295045
20
-12.9962100113674
30
0
41
1
10
6.01252649467713
20
-13.0636448792811
30
0
41
1
10
6.02522244556991
20
-13.1038454465401
30
0
41
1
10
6.06212077025336
20
-13.1750760114731
30
0
41
1
10
6.08632424201565
20
-13.2061052079311
30
0
41
1
10
6.13117201082386
20
-13.2459209230642
30
0
41
1
10
6.15573396081703
20
-13.2641452355349
30
0
41
1
10
6.18350733792184
20
-13.2798594991236
30
0
41
1
10
6.20273844177478
20
-13.2897787327781
30
0
41
1
10
6.21269964168312
20
-13.2944525642114
30
0
41
1
10
6.26402078811049
20
-13.3163342186113
30
0
41
1
10
6.31008611866545
20
-13.3291773692498
30
0
41
1
10
6.46229371964355
20
-13.3549118648073
30
0
41
1
10
6.58238583046898
20
-13.3550659739572
30
0
41
1
10
6.73658230162778
20
-13.3385871257476
30
0
41
1
10
6.7539680193438
20
-13.3365246573559
30
0
41
1
10
6.78912143603859
20
-13.3319632939414
30
0
41
1
10
6.84247286788266
20
-13.324461455298
30
0
41
1
10
6.89764054623686
20
-13.315044466608
30
0
41
1
10
7.01028459562806
20
-13.2938101193385
30
0
41
1
10
7.0884555223594
20
-13.2764578834153
30
0
41
1
10
7.33143720170565
20
-13.2158454157365
30
0
41
1
10
7.50468922168156
20
-13.1640714702577
30
0
41
1
10
7.77920238140862
20
-13.072433545208
30
0
41
1
10
7.87317718789296
20
-13.0395376325787
30
0
41
1
10
8.06562441768725
20
-12.9694930963096
30
0
41
1
10
8.16334618517826
20
-12.9326197779649
30
0
41
1
10
8.46055772275776
20
-12.8171340898224
30
0
41
1
10
8.66408174135742
20
-12.7336856805624
30
0
41
1
10
9.07993086628952
20
-12.5565966457699
30
0
41
1
10
9.29226279170965
20
-12.4629437745808
30
0
41
1
10
9.7240949630648
20
-12.2673141643617
30
0
41
1
10
9.94359725512149
20
-12.1653312587766
30
0
41
1
10
10.2771376921926
20
-12.0071014670086
30
0
41
1
10
10.3890336070032
20
-11.9534784774994
30
0
41
1
10
10.5578267048688
20
-11.8718181511941
30
0
41
1
10
10.6142709841027
20
-11.8443829247649
30
0
41
1
10
10.7272912599426
20
-11.7891977915849
30
0
41
1
10
10.7838794377205
20
-11.7614420934948
30
0
41
1
10
11.0671778719728
20
-11.6218754565027
30
0
41
1
10
11.2949523418295
20
-11.5077114124008
30
0
41
1
10
11.7520633621002
20
-11.274867958305
30
0
41
1
10
11.9813972577331
20
-11.1561845254645
30
0
41
1
10
12.4411716563715
20
-10.914579100193
30
0
41
1
10
12.6716096522015
20
-10.7916530385205
30
0
41
1
10
13.1334758072961
20
-10.5417387668446
30
0
41
1
10
13.3649026105378
20
-10.4147465243645
30
0
41
1
10
13.8290305713116
20
-10.1568982907509
30
0
41
1
10
14.0617320637511
20
-10.0260388079695
30
0
41
1
10
14.5291109722431
20
-9.76079149857631
30
0
41
1
10
14.7637901924801
20
-9.62640124045618
30
0
41
1
10
15
20
-9.49052833755024
30
0
0
SPLINE
5
CB
100
AcDbEntity
8
1
62
256
6
ByLayer
370
13
48
1
60
0
100
AcDbSpline
70
4
71
3
72
76
73
72
40
0
40
0
40
0
40
0
40
0.03125
40
0.03125
40
0.0625000000000001
40
0.0625000000000001
40
0.0937500000000001
40
0.0937500000000001
40
0.125
40
0.125
40
0.15625
40
0.15625
40
0.1875
40
0.1875
40
0.21875
40
0.21875
40
0.25
40
0.25
40
0.28125
40
0.28125
40
0.3125
40
0.3125
40
0.343750000000001
40
0.343750000000001
40
0.375000000000001
40
0.375000000000001
40
0.406250000000001
40
0.406250000000001
40
0.421875000000001
40
0.421875000000001
40
0.437500000000001
40
0.437500000000001
40
0.468750000000001
40
0.468750000000001
40
0.5
40
0.5
40
0.53125
40
0.53125
40
0.5625
40
0.5625
40
0.59375
40
0.59375
40
0.625
40
0.625
40
0.65625
40
0.65625
40
0.6875
40
0.6875
40
0.71875
40
0.71875
40
0.75
40
0.75
40
0.78125
40
0.78125
40
0.8125
40
0.8125
40
0.828125
40
0.828125
40
0.8359375
40
0.8359375
40
0.84375
40
0.84375
40
0.875
40
0.875
40
0.90625
40
0.90625
40
0.9375
40
0.9375
40
0.96875
40
0.96875
40
1
40
1
40
1
40
1
41
1
10
48.0365473452903
20
10.7155
30
0
41
1
10
48.1038736953886
20
10.7155
30
0
41
1
10
48.1712000454868
20
10.6958421822554
30
0
41
1
10
48.3058527456832
20
10.6124840697362
30
0
41
1
10
48.3731790957814
20
10.5487672378545
30
0
41
1
10
48.5078317959779
20
10.3736463646351
30
0
41
1
10
48.5751581460761
20
10.2622269652151
30
0
41
1
10
48.7098108462726
20
9.98965721547481
30
0
41
1
10
48.7771371963709
20
9.82849544454598
30
0
41
1
10
48.9117898965673
20
9.45641086456163
30
0
41
1
10
48.9791162466655
20
9.24548321082119
30
0
41
1
10
49.113768946862
20
8.77610420406469
30
0
41
1
10
49.1810952969603
20
8.51765633868661
30
0
41
1
10
49.3157479971567
20
7.95776763221102
30
0
41
1
10
49.3830743472549
20
7.65633883530953
30
0
41
1
10
49.5177270474514
20
7.01707855491352
30
0
41
1
10
49.5850533975496
20
6.67926612113368
30
0
41
1
10
49.7197060977461
20
5.97541429988797
30
0
41
1
10
49.7870324478443
20
5.60939796180193
30
0
41
1
10
49.9216851480408
20
4.85825523165641
30
0
41
1
10
49.989011498139
20
4.47315221975941
30
0
41
1
10
50.1236641983355
20
3.69318330075427
30
0
41
1
10
50.1909905484337
20
3.2983377274777
30
0
41
1
10
50.3256432486302
20
2.50779293304808
30
0
41
1
10
50.3929695987284
20
2.11210867126357
30
0
41
1
10
50.5276222989248
20
1.32782058873846
30
0
41
1
10
50.5949486490231
20
0.939225403226203
30
0
41
1
10
50.6959381741705
20
0.366594912301025
30
0
41
1
10
50.7296013492196
20
0.177554331662037
30
0
41
1
10
50.7969276993178
20
-0.196999152119389
30
0
41
1
10
50.8305908743669
20
-0.386306392777243
30
0
41
1
10
50.9315803995143
20
-0.959287673444777
30
0
41
1
10
50.9989067496125
20
-1.34806583828691
30
0
41
1
10
51.133559449809
20
-2.13259334786235
30
0
41
1
10
51.2008857999072
20
-2.52833394741001
30
0
41
1
10
51.3355385001037
20
-3.31884441096622
30
0
41
1
10
51.4028648502019
20
-3.7135992104694
30
0
41
1
10
51.5375175503984
20
-4.49322689585708
30
0
41
1
10
51.6048439004966
20
-4.87807937161054
30
0
41
1
10
51.7394966006931
20
-5.62855927603053
30
0
41
1
10
51.8068229507913
20
-5.99416329941099
30
0
41
1
10
51.9414756509878
20
-6.69703888520459
30
0
41
1
10
52.008802001086
20
-7.03428743679513
30
0
41
1
10
52.1434547012824
20
-7.67229054266053
30
0
41
1
10
52.2107810513807
20
-7.97302614617681
30
0
41
1
10
52.3454337515772
20
-8.53143120784591
30
0
41
1
10
52.4127601016754
20
-8.78908876170374
30
0
41
1
10
52.5474128018718
20
-9.25682832348147
30
0
41
1
10
52.61473915197
20
-9.46690699495991
30
0
41
1
10
52.7493918521666
20
-9.83727502145598
30
0
41
1
10
52.8167182022648
20
-9.99756935354117
30
0
41
1
10
52.9513709024612
20
-10.2684233001026
30
0
41
1
10
53.0186972525594
20
-10.3789944271848
30
0
41
1
10
53.1533499527559
20
-10.5524694857814
30
0
41
1
10
53.2206763028542
20
-10.6153888185605
30
0
41
1
10
53.3216658280015
20
-10.6767669017487
30
0
41
1
10
53.3553290030506
20
-10.6917370838774
30
0
41
1
10
53.4058237656242
20
-10.706382421288
30
0
41
1
10
53.4226553531488
20
-10.7099630357927
30
0
41
1
10
53.4563185281979
20
-10.7145978225231
30
0
41
1
10
53.4731501157225
20
-10.7156523666769
30
0
41
1
10
53.5573080533453
20
-10.7148022865876
30
0
41
1
10
53.6246344034435
20
-10.6944198600747
30
0
41
1
10
53.75928710364
20
-10.6095385366817
30
0
41
1
10
53.8266134537382
20
-10.5450231017368
30
0
41
1
10
53.9612661539347
20
-10.3682546874384
30
0
41
1
10
54.0285925040329
20
-10.2559863940272
30
0
41
1
10
54.1632452042293
20
-9.98170020504762
30
0
41
1
10
54.2305715543276
20
-9.81967098167866
30
0
41
1
10
54.3652242545241
20
-9.44587050608206
30
0
41
1
10
54.4325506046223
20
-9.23409454209576
30
0
41
1
10
54.4998769547205
20
-8.99858633509214
30
0
0
SPLINE
5
CC
100
AcDbEntity
8
1
62
256
6
ByLayer
370
13
48
1
60
0
100
AcDbSpline
70
4
71
3
72
44
73
40
40
0
40
0
40
0
40
0
40
0.0625
40
0.0625
40
0.125
40
0.125
40
0.1875
40
0.1875
40
0.25
40
0.25
40
0.3125
40
0.3125
40
0.375
40
0.375
40
0.390625
40
0.390625
40
0.3984375
40
0.3984375
40
0.40625
40
0.40625
40
0.4375
40
0.4375
40
0.5
40
0.5
40
0.5625
40
0.5625
40
0.625
40
0.625
40
0.6875
40
0.6875
40
0.75
40
0.75
40
0.8125
40
0.8125
40
0.875
40
0.875
40
0.9375
40
0.9375
40
1
40
1
40
1
40
1
41
1
10
43.6000000000001
20
-9.18563553197137
30
0
41
1
10
43.6935735858648
20
-8.87636650415126
30
0
41
1
10
43.7871471717295
20
-8.52026943427254
30
0
41
1
10
43.974294343459
20
-7.7261947054281
30
0
41
1
10
44.0678679293238
20
-7.28828466137119
30
0
41
1
10
44.2550151010533
20
-6.34987220798877
30
0
41
1
10
44.3485886869181
20
-5.84948094055946
30
0
41
1
10
44.5357358586476
20
-4.81012333169116
30
0
41
1
10
44.6293094445124
20
-4.27127802867466
30
0
41
1
10
44.8164566162419
20
-3.18013760654591
30
0
41
1
10
44.9100302021066
20
-2.62793996933226
30
0
41
1
10
45.0971773738362
20
-1.53292926609663
30
0
41
1
10
45.1907509597009
20
-0.990171103321586
30
0
41
1
10
45.3077179420319
20
-0.328964584316452
30
0
41
1
10
45.3311113384981
20
-0.197572315588445
30
0
41
1
10
45.3662014331973
20
-0.0019294264890561
30
0
41
1
10
45.3778981314305
20
0.0630342367890364
30
0
41
1
10
45.4012915278966
20
0.193761232434696
30
0
41
1
10
45.4129882261297
20
0.25936117739198
30
0
41
1
10
45.4714717172952
20
0.588472131119971
30
0
41
1
10
45.5182585102275
20
0.855330381009253
30
0
41
1
10
45.6586188890248
20
1.66355933682971
30
0
41
1
10
45.7521924748895
20
2.21273084614498
30
0
41
1
10
45.9393396466189
20
3.31160848521273
30
0
41
1
10
46.0329132324837
20
3.86124099212716
30
0
41
1
10
46.2200604042132
20
4.93697377942789
30
0
41
1
10
46.313633990078
20
5.46296347314029
30
0
41
1
10
46.5007811618075
20
6.4663171170381
30
0
41
1
10
46.5943547476722
20
6.94355965326864
30
0
41
1
10
46.7815019194017
20
7.82689578985463
30
0
41
1
10
46.8750755052666
20
8.23289280595583
30
0
41
1
10
47.0622226769961
20
8.95719469532321
30
0
41
1
10
47.1557962628608
20
9.27545638598718
30
0
41
1
10
47.3429434345903
20
9.81591615503152
30
0
41
1
10
47.4365170204551
20
10.0381321259258
30
0
41
1
10
47.6236641921846
20
10.3866865983624
30
0
41
1
10
47.7172377780494
20
10.5130894429344
30
0
41
1
10
47.9043849497789
20
10.6774539500334
30
0
41
1
10
47.9979585356436
20
10.7155
30
0
41
1
10
48.0915321215084
20
10.7155
30
0
0
SPLINE
5
CD
100
AcDbEntity
8
1
62
256
6
ByLayer
370
13
48
1
60
0
100
AcDbSpline
70
4
71
3
72
79
73
75
40
0
40
0
40
0
40
0
40
0.0312500000000001
40
0.0312500000000001
40
0.0625000000000001
40
0.0625000000000001
40
0.0937500000000002
40
0.0937500000000002
40
0.125
40
0.125
40
0.15625
40
0.15625
40
0.1875
40
0.1875
40
0.21875
40
0.21875
40
0.25
40
0.25
40
0.28125
40
0.28125
40
0.3125
40
0.3125
40
0.34375
40
0.34375
40
0.375
40
0.375
40
0.390625
40
0.390625
40
0.3984375
40
0.3984375
40
0.40625
40
0.40625
40
0.4375
40
0.4375
40
0.46875
40
0.46875
40
0.5
40
0.5
40
0.53125
40
0.53125
40
0.5625
40
0.5625
40
0.59375
40
0.59375
40
0.625
40
0.625
40
0.65625
40
0.65625
40
0.6875
40
0.6875
40
0.71875
40
0.71875
40
0.75
40
0.75
40
0.78125
40
0.78125
40
0.78515625
40
0.78515625
40
0.7890625
40
0.796875
40
0.796875
40
0.8125
40
0.8125
40
0.84375
40
0.84375
40
0.875
40
0.875
40
0.90625
40
0.90625
40
0.9375
40
0.9375
40
0.96875
40
0.96875
40
1
40
1
40
1
40
1
41
1
10
47.543597700813
20
10.7155
30
0
41
1
10
47.6160589430411
20
10.7155
30
0
41
1
10
47.6885201852693
20
10.6927221880203
30
0
41
1
10
47.8334426697258
20
10.5957621096779
30
0
41
1
10
47.9059039119539
20
10.5215559888259
30
0
41
1
10
48.0508263964104
20
10.3173896787739
30
0
41
1
10
48.1232876386386
20
10.1874079439508
30
0
41
1
10
48.268210123095
20
9.86958189966151
30
0
41
1
10
48.3406713653232
20
9.68172299023848
30
0
41
1
10
48.4855938497796
20
9.24883566498244
30
0
41
1
10
48.5580550920078
20
9.00380375752258
30
0
41
1
10
48.7029775764642
20
8.46035144609672
30
0
41
1
10
48.7754388186924
20
8.16194088748696
30
0
41
1
10
48.9203613031488
20
7.51851102658677
30
0
41
1
10
48.992822545377
20
7.17351414641229
30
0
41
1
10
49.1377450298335
20
6.44620000304059
30
0
41
1
10
49.2102062720616
20
6.06391392797406
30
0
41
1
10
49.3551287565181
20
5.27299677084508
30
0
41
1
10
49.4275899987462
20
4.86439985898812
30
0
41
1
10
49.5725124832026
20
4.03251944394759
30
0
41
1
10
49.6449737254309
20
3.60926710385499
30
0
41
1
10
49.7898962098873
20
2.75941467187462
30
0
41
1
10
49.8623574521154
20
2.33283821102219
30
0
41
1
10
50.0072799365718
20
1.48651925361622
30
0
41
1
10
50.0797411788001
20
1.06679071143989
30
0
41
1
10
50.1884330421424
20
0.448664486367761
30
0
41
1
10
50.2246636632565
20
0.244518775754898
30
0
41
1
10
50.2790095949277
20
-0.0582034558068756
30
0
41
1
10
50.2971249054847
20
-0.159112399007427
30
0
41
1
10
50.3333555265988
20
-0.362543322024067
30
0
41
1
10
50.3514708371558
20
-0.46480335800419
30
0
41
1
10
50.4420473899411
20
-0.97855052236676
30
0
41
1
10
50.5145086321693
20
-1.39745400222557
30
0
41
1
10
50.6594311166257
20
-2.24277977501856
30
0
41
1
10
50.7318923588539
20
-2.66918881308297
30
0
41
1
10
50.8768148433103
20
-3.51947014126085
30
0
41
1
10
50.9492760855386
20
-3.94331944284102
30
0
41
1
10
51.094198569995
20
-4.77721492738709
30
0
41
1
10
51.1666598122232
20
-5.18723035547077
30
0
41
1
10
51.3115822966796
20
-5.9817972438936
30
0
41
1
10
51.3840435389078
20
-6.36631455874863
30
0
41
1
10
51.5289660233642
20
-7.09882257033405
30
0
41
1
10
51.6014272655924
20
-7.4467816655804
30
0
41
1
10
51.7463497500488
20
-8.0967189097413
30
0
41
1
10
51.818810992277
20
-8.39867386114594
30
0
41
1
10
51.9637334767333
20
-8.94960060496686
30
0
41
1
10
52.0361947189616
20
-9.19856160111942
30
0
41
1
10
52.181117203418
20
-9.63947327090736
30
0
41
1
10
52.2535784456462
20
-9.83142653699119
30
0
41
1
10
52.3985009301026
20
-10.1573944395102
30
0
41
1
10
52.4709621723308
20
-10.2914230137678
30
0
41
1
10
52.6158846567872
20
-10.5034536490651
30
0
41
1
10
52.6883458990154
20
-10.5814769200609
30
0
41
1
10
52.8332683834719
20
-10.6857051839755
30
0
41
1
10
52.9057296257
20
-10.7119340097201
30
0
41
1
10
52.9872485232068
20
-10.7155622005245
30
0
41
1
10
52.9963061784853
20
-10.7156079830175
30
0
41
1
10
53.0144214890424
20
-10.7149872385149
30
0
41
1
10
53.0415944548779
20
-10.7129825369647
30
0
41
1
10
53.0687674207135
20
-10.7077015160835
30
0
41
1
10
53.1231133523846
20
-10.6926284015054
30
0
41
1
10
53.1593439734988
20
-10.6765622548044
30
0
41
1
10
53.2680358368411
20
-10.6092545976535
30
0
41
1
10
53.3404970790693
20
-10.5388436680686
30
0
41
1
10
53.4854195635257
20
-10.3425089891734
30
0
41
1
10
53.5578808057539
20
-10.2165633822072
30
0
41
1
10
53.7028032902103
20
-9.90687184867335
30
0
41
1
10
53.7752645324385
20
-9.72311068139868
30
0
41
1
10
53.9201870168949
20
-9.29827001865843
30
0
41
1
10
53.9926482591231
20
-9.0571861439654
30
0
41
1
10
54.1375707435795
20
-8.5212612672504
30
0
41
1
10
54.2100319858077
20
-8.22642915592408
30
0
41
1
10
54.3549544702641
20
-7.58958742946257
30
0
41
1
10
54.4274157124923
20
-7.24759944158782
30
0
41
1
10
54.4998769547205
20
-6.88659022317668
30
0
0
SPLINE
5
CE
100
AcDbEntity
8
1
62
256
6
ByLayer
370
13
48
1
60
0
100
AcDbSpline
70
4
71
3
72
43
73
39
40
0
40
0
40
0
40
0
40
0.0624999999999999
40
0.0624999999999999
40
0.125
40
0.125
40
0.1875
40
0.1875
40
0.25
40
0.25
40
0.3125
40
0.3125
40
0.3203125
40
0.3203125
40
0.328125
40
0.34375
40
0.34375
40
0.375
40
0.375
40
0.4375
40
0.4375
40
0.5
40
0.5
40
0.5625
40
0.5625
40
0.625
40
0.625
40
0.6875
40
0.6875
40
0.75
40
0.75
40
0.8125
40
0.8125
40
0.875
40
0.875
40
0.9375
40
0.9375
40
1
40
1
40
1
40
1
41
1
10
43.6000000000001
20
-7.15681508927821
30
0
41
1
10
43.6833038016049
20
-6.75316431646314
30
0
41
1
10
43.7666076032097
20
-6.32272767661271
30
0
41
1
10
43.9332152064193
20
-5.42435608536536
30
0
41
1
10
44.0165190080241
20
-4.9564894201938
30
0
41
1
10
44.1831266112338
20
-4.0009595343387
30
0
41
1
10
44.2664304128385
20
-3.51335902172164
30
0
41
1
10
44.4330380160482
20
-2.53555007486722
30
0
41
1
10
44.5163418176529
20
-2.04538673433939
30
0
41
1
10
44.6829494208626
20
-1.07746975392874
30
0
41
1
10
44.7662532224674
20
-0.59973871834282
30
0
41
1
10
44.8599699992728
20
-0.075920079630265
30
0
41
1
10
44.8703829744734
20
-0.0180222221358122
30
0
41
1
10
44.8912089248746
20
0.0979721637056628
30
0
41
1
10
44.9224478504764
20
0.272540396167727
30
0
41
1
10
44.9536867760783
20
0.448752136166206
30
0
41
1
10
45.0161646272819
20
0.803116976653428
30
0
41
1
10
45.0578165280842
20
1.04195536443521
30
0
41
1
10
45.1827722304915
20
1.76401010138025
30
0
41
1
10
45.2660760320963
20
2.25285676584815
30
0
41
1
10
45.4326836353059
20
3.231125305826
30
0
41
1
10
45.5159874369108
20
3.72050627314772
30
0
41
1
10
45.6825950401204
20
4.68299937257203
30
0
41
1
10
45.7658988417252
20
5.15605145119358
30
0
41
1
10
45.9325064449347
20
6.06814904133989
30
0
41
1
10
46.0158102465395
20
6.50712614826693
30
0
41
1
10
46.1824178497492
20
7.33441789877566
30
0
41
1
10
46.265721651354
20
7.72267139768294
30
0
41
1
10
46.4323292545636
20
8.43494801562389
30
0
41
1
10
46.5156330561685
20
8.758932064867
30
0
41
1
10
46.6822406593781
20
9.33374659772102
30
0
41
1
10
46.7655444609829
20
9.58456822743449
30
0
41
1
10
46.9321520641925
20
10.0095213772134
30
0
41
1
10
47.0154558657973
20
10.1836729596295
30
0
41
1
10
47.1820634690069
20
10.4569540713994
30
0
41
1
10
47.2653672706118
20
10.5561235360782
30
0
41
1
10
47.4319748738214
20
10.6853726819665
30
0
41
1
10
47.5152786754262
20
10.7155
30
0
41
1
10
47.598582477031
20
10.7155
30
0
0
SPLINE
5
CF
100
AcDbEntity
8
1
62
256
6
ByLayer
370
13
48
1
60
0
100
AcDbSpline
70
4
71
3
72
81
73
77
40
0
40
0
40
0
40
0
40
0.0312499999999986
40
0.0312499999999986
40
0.0624999999999972
40
0.0624999999999972
40
0.0937499999999958
40
0.0937499999999958
40
0.124999999999994
40
0.124999999999994
40
0.156249999999993
40
0.156249999999993
40
0.187499999999992
40
0.187499999999992
40
0.21874999999999
40
0.21874999999999
40
0.249999999999989
40
0.249999999999989
40
0.281249999999988
40
0.281249999999988
40
0.312499999999986
40
0.312499999999986
40
0.343749999999985
40
0.343749999999985
40
0.359374999999984
40
0.359374999999984
40
0.363281249999984
40
0.363281249999984
40
0.367187499999984
40
0.367187499999984
40
0.374999999999984
40
0.374999999999984
40
0.406249999999984
40
0.406249999999984
40
0.437499999999984
40
0.437499999999984
40
0.468749999999984
40
0.468749999999984
40
0.499999999999985
40
0.499999999999985
40
0.531249999999985
40
0.531249999999985
40
0.562499999999985
40
0.562499999999985
40
0.593749999999985
40
0.593749999999985
40
0.624999999999985
40
0.624999999999985
40
0.656249999999986
40
0.656249999999986
40
0.687499999999986
40
0.687499999999986
40
0.718749999999986
40
0.718749999999986
40
0.726562499999986
40
0.730468749999986
40
0.730468749999986
40
0.734374999999986
40
0.734374999999986
40
0.749999999999987
40
0.749999999999987
40
0.781249999999989
40
0.781249999999989
40
0.81249999999999
40
0.81249999999999
40
0.843749999999992
40
0.843749999999992
40
0.874999999999994
40
0.874999999999994
40
0.906249999999995
40
0.906249999999995
40
0.937499999999997
40
0.937499999999997
40
0.968749999999998
40
0.968749999999998
40
1
40
1
40
1
40
1
41
1
10
47.0506480563356
20
10.7155
30
0
41
1
10
47.1282441906937
20
10.7155
30
0
41
1
10
47.2058403250519
20
10.6893706053239
30
0
41
1
10
47.3610325937683
20
10.57772609488
30
0
41
1
10
47.4386287281264
20
10.4921774569249
30
0
41
1
10
47.5938209968428
20
10.2566010179385
30
0
41
1
10
47.671417131201
20
10.1065439056389
30
0
41
1
10
47.8266093999173
20
9.73992258297383
30
0
41
1
10
47.9042055342754
20
9.52334074872448
30
0
41
1
10
48.0593978029918
20
9.02544071543099
30
0
41
1
10
48.13699393735
20
8.74412278405543
30
0
41
1
10
48.2921862060664
20
8.12260177377539
30
0
41
1
10
48.3697823404245
20
7.7824191751036
30
0
41
1
10
48.5249746091409
20
7.05279344322509
30
0
41
1
10
48.6025707434991
20
6.66338795244377
30
0
41
1
10
48.7577630122154
20
5.84782541554597
30
0
41
1
10
48.8353591465736
20
5.42171540903954
30
0
41
1
10
48.99055141529
20
4.54683325931728
30
0
41
1
10
49.0681475496481
20
4.09810772884856
30
0
41
1
10
49.2233398183645
20
3.19222109774827
30
0
41
1
10
49.3009359527226
20
2.73509762344904
30
0
41
1
10
49.456128221439
20
1.82548456607418
30
0
41
1
10
49.5337243557972
20
1.37301870446819
30
0
41
1
10
49.6501185573345
20
0.706028087278895
30
0
41
1
10
49.6889166245136
20
0.485630752651332
30
0
41
1
10
49.7374142084874
20
0.213256348042847
30
0
41
1
10
49.7471137252822
20
0.158937177289829
30
0
41
1
10
49.7665127588717
20
0.0506262907791211
30
0
41
1
10
49.7762122756666
20
-0.0032533834086905
30
0
41
1
10
49.8053108260509
20
-0.165430471931216
30
0
41
1
10
49.8247098596404
20
-0.274212898608482
30
0
41
1
10
49.9217050275881
20
-0.821123473815845
30
0
41
1
10
49.9993011619462
20
-1.26834738516843
30
0
41
1
10
50.1544934306626
20
-2.17227343588982
30
0
41
1
10
50.2320895650209
20
-2.6289579993356
30
0
41
1
10
50.3872818337371
20
-3.53953793115642
30
0
41
1
10
50.4648779680953
20
-3.99340104777733
30
0
41
1
10
50.6200702368117
20
-4.88447104540111
30
0
41
1
10
50.6976663711698
20
-5.32163414757957
30
0
41
1
10
50.8528586398862
20
-6.16499450289808
30
0
41
1
10
50.9304547742444
20
-6.5711437029907
30
0
41
1
10
51.0856470429607
20
-7.33913331736682
30
0
41
1
10
51.1632431773189
20
-7.70093108866413
30
0
41
1
10
51.3184354460353
20
-8.36924067515585
30
0
41
1
10
51.3960315803934
20
-8.67572426833232
30
0
41
1
10
51.5512238491098
20
-9.22588974550519
30
0
41
1
10
51.628819983468
20
-9.46956303125685
30
0
41
1
10
51.7840122521843
20
-9.89062127221143
30
0
41
1
10
51.8616083865425
20
-10.0680170714826
30
0
41
1
10
52.0168006552589
20
-10.35702328185
30
0
41
1
10
52.094396789617
20
-10.4686590891201
30
0
41
1
10
52.2495890583334
20
-10.6300717064229
30
0
41
1
10
52.3271851926916
20
-10.6798811833899
30
0
41
1
10
52.4241803606393
20
-10.7075121898766
30
0
41
1
10
52.4532789110236
20
-10.7132112986751
30
0
41
1
10
52.4823774614079
20
-10.715156440878
30
0
41
1
10
52.5017764949975
20
-10.7156341837123
30
0
41
1
10
52.5114760117922
20
-10.7154657558489
30
0
41
1
10
52.5599735957661
20
-10.7125648337888
30
0
41
1
10
52.5987716629452
20
-10.7036377664948
30
0
41
1
10
52.7151658644825
20
-10.6556518399485
30
0
41
1
10
52.7927619988406
20
-10.5953166573704
30
0
41
1
10
52.947954267557
20
-10.4119445499367
30
0
41
1
10
53.0255504019152
20
-10.2888756941939
30
0
41
1
10
53.1807426706315
20
-9.9766392480015
30
0
41
1
10
53.2583388049897
20
-9.78744833757821
30
0
41
1
10
53.413531073706
20
-9.34311096860728
30
0
41
1
10
53.4911272080642
20
-9.08795685949508
30
0
41
1
10
53.6463194767805
20
-8.51586695453759
30
0
41
1
10
53.7239156111387
20
-8.19894337256781
30
0
41
1
10
53.8791078798551
20
-7.51146279618521
30
0
41
1
10
53.9567040142133
20
-7.14093709503953
30
0
41
1
10
54.1118962829296
20
-6.3577138797647
30
0
41
1
10
54.1894924172878
20
-5.94506068616431
30
0
41
1
10
54.3446846860041
20
-5.09119517153135
30
0
41
1
10
54.4222808203624
20
-4.65003081814419
30
0
41
1
10
54.4998769547205
20
-4.20175754550846
30
0
0
SPLINE
5
D0
100
AcDbEntity
8
1
62
256
6
ByLayer
370
13
48
1
60
0
100
AcDbSpline
70
4
71
3
72
43
73
39
40
0
40
0
40
0
40
0
40
0.0625000000000006
40
0.0625000000000006
40
0.125000000000001
40
0.125000000000001
40
0.187500000000002
40
0.187500000000002
40
0.218750000000002
40
0.218750000000002
40
0.226562500000002
40
0.226562500000002
40
0.234375000000002
40
0.250000000000002
40
0.250000000000002
40
0.312500000000002
40
0.312500000000002
40
0.375000000000001
40
0.375000000000001
40
0.437500000000001
40
0.437500000000001
40
0.500000000000001
40
0.500000000000001
40
0.562500000000001
40
0.562500000000001
40
0.625000000000001
40
0.625000000000001
40
0.687500000000001
40
0.687500000000001
40
0.750000000000001
40
0.750000000000001
40
0.8125
40
0.8125
40
0.875
40
0.875
40
0.9375
40
0.9375
40
1
40
1
40
1
40
1
41
1
10
43.6000000000001
20
-4.51812091607371
30
0
41
1
10
43.6730340173449
20
-4.09973799995237
30
0
41
1
10
43.7460680346898
20
-3.67359662943861
30
0
41
1
10
43.8921360693795
20
-2.8173822245264
30
0
41
1
10
43.9651700867244
20
-2.38733421617815
30
0
41
1
10
44.1112381214141
20
-1.53379888398473
30
0
41
1
10
44.184272138759
20
-1.11032648869661
30
0
41
1
10
44.2938231647763
20
-0.486584309547652
30
0
41
1
10
44.3303401734488
20
-0.28056620175667
30
0
41
1
10
44.3759864342893
20
-0.0259745276570413
30
0
41
1
10
44.3851156864573
20
0.0247216512463524
30
0
41
1
10
44.4033741907935
20
0.126553513977484
30
0
41
1
10
44.4307619472979
20
0.279740029088742
30
0
41
1
10
44.4581497038022
20
0.434183946750437
30
0
41
1
10
44.5494422254833
20
0.951510933924482
30
0
41
1
10
44.6224762428282
20
1.37349509448058
30
0
41
1
10
44.7685442775179
20
2.22525755161277
30
0
41
1
10
44.8415782948628
20
2.65502222907523
30
0
41
1
10
44.9876463295525
20
3.5120692000375
30
0
41
1
10
45.0606803468973
20
3.93932766421622
30
0
41
1
10
45.2067483815871
20
4.77983011157065
30
0
41
1
10
45.279782398932
20
5.19304211187546
30
0
41
1
10
45.4258504336217
20
5.99351182892445
30
0
41
1
10
45.4988844509665
20
6.38073402978995
30
0
41
1
10
45.6449524856563
20
7.11790938121797
30
0
41
1
10
45.7179865030012
20
7.46782975644939
30
0
41
1
10
45.8640545376909
20
8.12076136749707
30
0
41
1
10
45.9370885550357
20
8.42374873989849
30
0
41
1
10
46.0831565897255
20
8.97572143780789
30
0
41
1
10
46.1561906070703
20
9.22469596900169
30
0
41
1
10
46.3022586417601
20
9.66463058140556
30
0
41
1
10
46.375292659105
20
9.85559387518433
30
0
41
1
10
46.5213606937947
20
10.1786881993521
30
0
41
1
10
46.5943947111396
20
10.3108341836622
30
0
41
1
10
46.7404627458293
20
10.5183867066668
30
0
41
1
10
46.8134967631742
20
10.5938155763072
30
0
41
1
10
46.9595647978639
20
10.6923598191209
30
0
41
1
10
47.0325988152087
20
10.7155
30
0
41
1
10
47.1056328325536
20
10.7155
30
0
0
SPLINE
5
D1
100
AcDbEntity
8
1
62
256
6
ByLayer
370
13
48
1
60
0
100
AcDbSpline
70
4
71
3
72
79
73
75
40
0
40
0
40
0
40
0
40
0.03125
40
0.03125
40
0.0625
40
0.0625
40
0.09375
40
0.09375
40
0.125
40
0.125
40
0.15625
40
0.15625
40
0.1875
40
0.1875
40
0.21875
40
0.21875
40
0.25
40
0.25
40
0.28125
40
0.28125
40
0.3125
40
0.3125
40
0.328125
40
0.328125
40
0.3359375
40
0.3359375
40
0.34375
40
0.34375
40
0.375
40
0.375
40
0.40625
40
0.40625
40
0.4375
40
0.4375
40
0.46875
40
0.46875
40
0.5
40
0.5
40
0.53125
40
0.53125
40
0.5625
40
0.5625
40
0.59375
40
0.59375
40
0.625
40
0.625
40
0.65625
40
0.65625
40
0.671875
40
0.671875
40
0.6796875
40
0.68359375
40
0.68359375
40
0.6875
40
0.6875
40
0.71875
40
0.71875
40
0.75
40
0.75
40
0.78125
40
0.78125
40
0.8125
40
0.8125
40
0.84375
40
0.84375
40
0.875
40
0.875
40
0.90625
40
0.90625
40
0.9375
40
0.9375
40
0.96875
40
0.96875
40
1
40
1
40
1
40
1
41
1
10
46.5576984118582
20
10.7155
30
0
41
1
10
46.6404294383463
20
10.7155
30
0
41
1
10
46.7231604648345
20
10.6857868543358
30
0
41
1
10
46.8886225178108
20
10.5583656579981
30
0
41
1
10
46.9713535442989
20
10.4606115671531
30
0
41
1
10
47.1368155972752
20
10.1912471911126
30
0
41
1
10
47.2195466237634
20
10.0195981336071
30
0
41
1
10
47.3850086767397
20
9.60069094216033
30
0
41
1
10
47.4677397032278
20
9.3534129168805
30
0
41
1
10
47.6332017562041
20
8.78652788517667
30
0
41
1
10
47.7159327826923
20
8.46692860450702
30
0
41
1
10
47.8813948356685
20
7.7639252339099
30
0
41
1
10
47.9641258621567
20
7.38055797143087
30
0
41
1
10
48.129587915133
20
6.56311566826289
30
0
41
1
10
48.2123189416212
20
6.12909908438283
30
0
41
1
10
48.3777809945975
20
5.22656152949273
30
0
41
1
10
48.4605120210856
20
4.75810667989501
30
0
41
1
10
48.625974074062
20
3.80407561547702
30
0
41
1
10
48.7087051005501
20
3.31855820002656
30
0
41
1
10
48.8741671535263
20
2.34703459826852
30
0
41
1
10
48.9568981800145
20
1.86106925070806
30
0
41
1
10
49.0809947197467
20
1.14251880293614
30
0
41
1
10
49.1223602329908
20
0.904713331129926
30
0
41
1
10
49.1844085028569
20
0.551694185648358
30
0
41
1
10
49.205091259479
20
0.43463437081266
30
0
41
1
10
49.2464567727231
20
0.201908484130541
30
0
41
1
10
49.2671395293451
20
0.0864655554019294
30
0
41
1
10
49.3705533124553
20
-0.489270327920423
30
0
41
1
10
49.4532843389434
20
-0.962175309439857
30
0
41
1
10
49.6187463919197
20
-1.92135210664802
30
0
41
1
10
49.7014774184078
20
-2.40760387085834
30
0
41
1
10
49.8669394713841
20
-3.37904793916874
30
0
41
1
10
49.9496704978723
20
-3.86419853522193
30
0
41
1
10
50.1151325508486
20
-4.81677753155594
30
0
41
1
10
50.1978635773368
20
-5.28414657282539
30
0
41
1
10
50.363325630313
20
-6.18380199888642
30
0
41
1
10
50.4460566568012
20
-6.61602226873273
30
0
41
1
10
50.6115187097775
20
-7.42925250591455
30
0
41
1
10
50.6942497362657
20
-7.81020466555063
30
0
41
1
10
50.859711789242
20
-8.5079228523839
30
0
41
1
10
50.9424428157301
20
-8.82465317157497
30
0
41
1
10
51.1079048687064
20
-9.38555571940833
30
0
41
1
10
51.1906358951945
20
-9.62972146026436
30
0
41
1
10
51.3560979481709
20
-10.0423790755737
30
0
41
1
10
51.438828974659
20
-10.2108918360267
30
0
41
1
10
51.6042910276353
20
-10.4741524894653
30
0
41
1
10
51.6870220541235
20
-10.5689396905415
30
0
41
1
10
51.8111185938557
20
-10.6602903535595
30
0
41
1
10
51.8524841070997
20
-10.6822967807084
30
0
41
1
10
51.9145323769658
20
-10.7034024849889
30
0
41
1
10
51.9455565118988
20
-10.7109811574352
30
0
41
1
10
51.976580646832
20
-10.7142556349249
30
0
41
1
10
51.997263403454
20
-10.7155004036855
30
0
41
1
10
52.007604781765
20
-10.7156550083487
30
0
41
1
10
52.1006771865641
20
-10.7128765339565
30
0
41
1
10
52.1834082130523
20
-10.680494886779
30
0
41
1
10
52.3488702660286
20
-10.5474279248953
30
0
41
1
10
52.4316012925167
20
-10.4466966482937
30
0
41
1
10
52.5970633454931
20
-10.1712151022563
30
0
41
1
10
52.6797943719813
20
-9.99642661698991
30
0
41
1
10
52.8452564249576
20
-9.57127237709895
30
0
41
1
10
52.9279874514457
20
-9.3208877415567
30
0
41
1
10
53.093449504422
20
-8.74804075406908
30
0
41
1
10
53.1761805309102
20
-8.42558736868685
30
0
41
1
10
53.3416425838864
20
-7.71733653693587
30
0
41
1
10
53.4243736103746
20
-7.33157702418686
30
0
41
1
10
53.5898356633508
20
-6.50997378828569
30
0
41
1
10
53.672566689839
20
-6.07418914610429
30
0
41
1
10
53.8380287428153
20
-5.16882800840267
30
0
41
1
10
53.9207597693035
20
-4.69931761407622
30
0
41
1
10
54.0862218222798
20
-3.74389365277321
30
0
41
1
10
54.1689528487679
20
-3.25803830679078
30
0
41
1
10
54.3344149017442
20
-2.28648892128783
30
0
41
1
10
54.4171459282324
20
-1.80083484494895
30
0
41
1
10
54.4998769547205
20
-1.32237803687462
30
0
0
SPLINE
5
D2
100
AcDbEntity
8
1
62
256
6
ByLayer
370
13
48
1
60
0
100
AcDbSpline
70
4
71
3
72
42
73
38
40
0
40
0
40
0
40
0
40
0.0624999999999993
40
0.0624999999999993
40
0.0937499999999992
40
0.0937499999999992
40
0.109374999999999
40
0.109374999999999
40
0.124999999999999
40
0.124999999999999
40
0.187499999999999
40
0.187499999999999
40
0.249999999999999
40
0.249999999999999
40
0.312499999999999
40
0.312499999999999
40
0.374999999999999
40
0.374999999999999
40
0.437499999999999
40
0.437499999999999
40
0.499999999999999
40
0.499999999999999
40
0.562499999999999
40
0.562499999999999
40
0.624999999999999
40
0.624999999999999
40
0.6875
40
0.6875
40
0.75
40
0.75
40
0.8125
40
0.8125
40
0.875
40
0.875
40
0.9375
40
0.9375
40
1
40
1
40
1
40
1
41
1
10
43.6000000000001
20
-1.64134249852381
30
0
41
1
10
43.662764233085
20
-1.27622086150049
30
0
41
1
10
43.7255284661699
20
-0.914387299581819
30
0
41
1
10
43.8196748157973
20
-0.380542094635615
30
0
41
1
10
43.8510569323397
20
-0.204069414364227
30
0
41
1
10
43.8981301071534
20
0.058007934139539
30
0
41
1
10
43.9138211654246
20
0.145449830320473
30
0
41
1
10
43.9452032819671
20
0.321487048621634
30
0
41
1
10
43.9608943402383
20
0.409917738381381
30
0
41
1
10
44.0393496315945
20
0.853954310226698
30
0
41
1
10
44.1021138646794
20
1.2152525617806
30
0
41
1
10
44.2276423308493
20
1.94475073363736
30
0
41
1
10
44.2904065639341
20
2.31294510652481
30
0
41
1
10
44.415935030104
20
3.04996846501592
30
0
41
1
10
44.4786992631889
20
3.41878772548949
30
0
41
1
10
44.6042277293587
20
4.14999496898483
30
0
41
1
10
44.6669919624437
20
4.51236947123681
30
0
41
1
10
44.7925204286136
20
5.22317298698087
30
0
41
1
10
44.8552846616984
20
5.57158598356091
30
0
41
1
10
44.9808131278683
20
6.24695195673496
30
0
41
1
10
45.0435773609532
20
6.57388828634708
30
0
41
1
10
45.1691058271231
20
7.19928401436195
30
0
41
1
10
45.231870060208
20
7.49772838842557
30
0
41
1
10
45.3573985263778
20
8.06010488335443
30
0
41
1
10
45.4201627594627
20
8.32402570913297
30
0
41
1
10
45.5456912256326
20
8.81270398509227
30
0
41
1
10
45.6084554587175
20
9.03745533897433
30
0
41
1
10
45.7339839248873
20
9.44479353877603
30
0
41
1
10
45.7967481579723
20
9.62737999915527
30
0
41
1
10
45.9222766241421
20
9.94913550428637
30
0
41
1
10
45.985040857227
20
10.0883093824887
30
0
41
1
10
46.1105693233968
20
10.3236655157606
30
0
41
1
10
46.1733335564818
20
10.4198565487224
30
0
41
1
10
46.2988620226516
20
10.5711417696712
30
0
41
1
10
46.3616262557365
20
10.6262470058044
30
0
41
1
10
46.4871547219063
20
10.6984202977569
30
0
41
1
10
46.5499189549913
20
10.7155
30
0
41
1
10
46.6126831880762
20
10.7155
30
0
0
SPLINE
5
D3
100
AcDbEntity
8
1
62
256
6
ByLayer
370
13
48
1
60
0
100
AcDbSpline
70
4
71
3
72
85
73
81
40
0
40
0
40
0
40
0
40
0.0312499999999996
40
0.0312499999999996
40
0.0624999999999992
40
0.0624999999999992
40
0.0937499999999988
40
0.0937499999999988
40
0.124999999999998
40
0.124999999999998
40
0.156249999999998
40
0.156249999999998
40
0.187499999999998
40
0.187499999999998
40
0.218749999999997
40
0.218749999999997
40
0.249999999999997
40
0.249999999999997
40
0.281249999999996
40
0.281249999999996
40
0.312499999999996
40
0.312499999999996
40
0.320312499999996
40
0.320312499999996
40
0.324218749999996
40
0.324218749999996
40
0.328124999999996
40
0.343749999999995
40
0.343749999999995
40
0.374999999999995
40
0.374999999999995
40
0.406249999999995
40
0.406249999999995
40
0.437499999999994
40
0.437499999999994
40
0.468749999999994
40
0.468749999999994
40
0.499999999999993
40
0.499999999999993
40
0.531249999999993
40
0.531249999999993
40
0.562499999999993
40
0.562499999999993
40
0.593749999999992
40
0.593749999999992
40
0.624999999999992
40
0.624999999999992
40
0.640624999999991
40
0.640624999999991
40
0.644531249999992
40
0.644531249999992
40
0.648437499999992
40
0.648437499999992
40
0.656249999999992
40
0.656249999999992
40
0.687499999999993
40
0.687499999999993
40
0.718749999999993
40
0.718749999999993
40
0.749999999999994
40
0.749999999999994
40
0.781249999999995
40
0.781249999999995
40
0.812499999999996
40
0.812499999999996
40
0.843749999999997
40
0.843749999999997
40
0.874999999999997
40
0.874999999999997
40
0.906249999999998
40
0.906249999999998
40
0.937499999999999
40
0.937499999999999
40
0.96875
40
0.96875
40
0.9765625
40
0.9765625
40
0.984375
40
0.984375
40
1
40
1
40
1
40
1
41
1
10
46.0647487673808
20
10.7155
30
0
41
1
10
46.1526146859989
20
10.7155
30
0
41
1
10
46.240480604617
20
10.6819702954606
30
0
41
1
10
46.4162124418533
20
10.537670733283
30
0
41
1
10
46.5040783604714
20
10.4268389143699
30
0
41
1
10
46.6798101977077
20
10.1212999932163
30
0
41
1
10
46.7676761163258
20
9.92654292543031
30
0
41
1
10
46.943407953562
20
9.45192508103926
30
0
41
1
10
47.0312738721802
20
9.17204377042304
30
0
41
1
10
47.2070057094164
20
8.53247907074703
30
0
41
1
10
47.2948716280345
20
8.17281616441875
30
0
41
1
10
47.4706034652708
20
7.3855557404101
30
0
41
1
10
47.5584693838889
20
6.95801858187167
30
0
41
1
10
47.7342012211251
20
6.05221145450565
30
0
41
1
10
47.8220671397432
20
5.57402666823231
30
0
41
1
10
47.9977989769795
20
4.58720736206385
30
0
41
1
10
48.0856648955976
20
4.07866005847188
30
0
41
1
10
48.2613967328338
20
3.05180305959186
30
0
41
1
10
48.3492626514519
20
2.53356194730282
30
0
41
1
10
48.5249944886882
20
1.50599828571239
30
0
41
1
10
48.6128604073063
20
0.996714581097649
30
0
41
1
10
48.722692805579
20
0.375078275324967
30
0
41
1
10
48.7446592852335
20
0.251489297166472
30
0
41
1
10
48.7776090047153
20
0.0673573617689271
30
0
41
1
10
48.7885922445426
20
0.0063311954921232
30
0
41
1
10
48.8105587241971
20
-0.11608490429191
30
0
41
1
10
48.8654749233334
20
-0.423187605951171
30
0
41
1
10
48.9203911224698
20
-0.735343551114426
30
0
41
1
10
49.0521900003969
20
-1.49175263920728
30
0
41
1
10
49.140055919015
20
-2.00579020040709
30
0
41
1
10
49.3157877562513
20
-3.03715396363714
30
0
41
1
10
49.4036536748694
20
-3.55443115733013
30
0
41
1
10
49.5793855121056
20
-4.5727722853843
30
0
41
1
10
49.6672514307238
20
-5.07375981356526
30
0
41
1
10
49.8429832679601
20
-6.03870085062005
30
0
41
1
10
49.9308491865782
20
-6.50256523716743
30
0
41
1
10
50.1065810238144
20
-7.37367085504798
30
0
41
1
10
50.1944469424325
20
-7.78083265108811
30
0
41
1
10
50.3701787796688
20
-8.52279464199978
30
0
41
1
10
50.4580446982869
20
-8.85754639126895
30
0
41
1
10
50.6337765355231
20
-9.44479513450094
30
0
41
1
10
50.7216424541413
20
-9.6972855540422
30
0
41
1
10
50.8973742913775
20
-10.1168179933431
30
0
41
1
10
50.9852402099957
20
-10.283891828652
30
0
41
1
10
51.1609720472319
20
-10.5356917671338
30
0
41
1
10
51.24883796585
20
-10.6204736934421
30
0
41
1
10
51.3806368437772
20
-10.6918991607661
30
0
41
1
10
51.4245698030863
20
-10.7064491480202
30
0
41
1
10
51.4794860022226
20
-10.7138771769463
30
0
41
1
10
51.4904692420498
20
-10.7148251963431
30
0
41
1
10
51.5124357217043
20
-10.7156678329104
30
0
41
1
10
51.5234189615317
20
-10.7155656430924
30
0
41
1
10
51.5563686810135
20
-10.7136789217342
30
0
41
1
10
51.5783351606681
20
-10.7103053971406
30
0
41
1
10
51.6881675589407
20
-10.6824310389381
30
0
41
1
10
51.7760334775587
20
-10.6247842627986
30
0
41
1
10
51.9517653147949
20
-10.429602804506
30
0
41
1
10
52.039631233413
20
-10.2920081235241
30
0
41
1
10
52.2153630706493
20
-9.93187955925166
30
0
41
1
10
52.3032289892674
20
-9.70930347147748
30
0
41
1
10
52.4789608265037
20
-9.18002636180506
30
0
41
1
10
52.5668267451218
20
-8.87331736953831
30
0
41
1
10
52.7425585823581
20
-8.1832661994859
30
0
41
1
10
52.8304245009762
20
-7.79995830394247
30
0
41
1
10
53.0061563382124
20
-6.97050292702403
30
0
41
1
10
53.0940222568305
20
-6.52442607748537
30
0
41
1
10
53.2697540940668
20
-5.58791725860232
30
0
41
1
10
53.357620012685
20
-5.09757373023754
30
0
41
1
10
53.5333518499212
20
-4.0932398008143
30
0
41
1
10
53.6212177685393
20
-3.57933246741891
30
0
41
1
10
53.7969496057756
20
-2.54814103247298
30
0
41
1
10
53.8848155243936
20
-2.03091650909715
30
0
41
1
10
54.0605473616299
20
-1.01072123975453
30
0
41
1
10
54.148413280248
20
-0.50777919985066
30
0
41
1
10
54.2582456785206
20
0.103459243851489
30
0
41
1
10
54.2802121581752
20
0.226236344068923
30
0
41
1
10
54.3241451174843
20
0.473673830847133
30
0
41
1
10
54.3461115971388
20
0.598170469253489
30
0
41
1
10
54.4120110361024
20
0.973690554907506
30
0
41
1
10
54.4559439954115
20
1.22675230446575
30
0
41
1
10
54.4998769547205
20
1.48161971472527
30
0
0
SPLINE
5
D4
100
AcDbEntity
8
1
62
256
6
ByLayer
370
13
48
1
60
0
100
AcDbSpline
70
4
71
3
72
32
73
28
40
0
40
0
40
0
40
0
40
0.125
40
0.125
40
0.1875
40
0.1875
40
0.250000000000001
40
0.250000000000001
40
0.312500000000001
40
0.312500000000001
40
0.375000000000001
40
0.375000000000001
40
0.437500000000001
40
0.437500000000001
40
0.500000000000001
40
0.500000000000001
40
0.562500000000001
40
0.562500000000001
40
0.625000000000001
40
0.625000000000001
40
0.687500000000001
40
0.687500000000001
40
0.750000000000001
40
0.750000000000001
40
0.875000000000001
40
0.875000000000001
40
1
40
1
40
1
40
1
41
1
10
43.6000000000001
20
1.16364451609047
30
0
41
1
10
43.70498889765
20
1.76873803264277
30
0
41
1
10
43.8099777952999
20
2.38665431524862
30
0
41
1
10
43.9674611417749
20
3.31098647233679
30
0
41
1
10
44.0199555905999
20
3.61861267489198
30
0
41
1
10
44.1249444882498
20
4.22869881127977
30
0
41
1
10
44.1774389370747
20
4.53115305375073
30
0
41
1
10
44.2824278347248
20
5.12649552628622
30
0
41
1
10
44.3349222835497
20
5.41937721550548
30
0
41
1
10
44.4399111811996
20
5.99116640393308
30
0
41
1
10
44.4924056300246
20
6.27006705651274
30
0
41
1
10
44.5973945276745
20
6.80968063279343
30
0
41
1
10
44.6498889764996
20
7.07038704509836
30
0
41
1
10
44.7548778741495
20
7.56979616812768
30
0
41
1
10
44.8073723229745
20
7.80849334441163
30
0
41
1
10
44.9123612206244
20
8.26064873354011
30
0
41
1
10
44.9648556694494
20
8.47410292638662
30
0
41
1
10
45.0698445670994
20
8.87326306642427
30
0
41
1
10
45.1223390159243
20
9.05896685334704
30
0
41
1
10
45.2273279135743
20
9.4009367156641
30
0
41
1
10
45.2798223623992
20
9.5572025941554
30
0
41
1
10
45.3848112600492
20
9.83946251253121
30
0
41
1
10
45.4373057088742
20
9.96545818037976
30
0
41
1
10
45.5947890553491
20
10.2980359087149
30
0
41
1
10
45.699777952999
20
10.4588932298953
30
0
41
1
10
45.9097557482989
20
10.6675514118181
30
0
41
1
10
46.0147446459488
20
10.7155
30
0
41
1
10
46.1197335435988
20
10.7155
30
0
0
SPLINE
5
D5
100
AcDbEntity
8
1
62
256
6
ByLayer
370
13
48
1
60
0
100
AcDbSpline
70
4
71
3
72
84
73
80
40
0
40
0
40
0
40
0
40
0.0312500000000002
40
0.0312500000000002
40
0.0625000000000005
40
0.0625000000000005
40
0.0937500000000007
40
0.0937500000000007
40
0.125000000000001
40
0.125000000000001
40
0.156250000000001
40
0.156250000000001
40
0.187500000000001
40
0.187500000000001
40
0.218750000000002
40
0.218750000000002
40
0.250000000000002
40
0.250000000000002
40
0.281250000000002
40
0.281250000000002
40
0.296875000000002
40
0.296875000000002
40
0.304687500000002
40
0.304687500000002
40
0.312500000000002
40
0.312500000000002
40
0.343750000000003
40
0.343750000000003
40
0.375000000000003
40
0.375000000000003
40
0.406250000000004
40
0.406250000000004
40
0.437500000000004
40
0.437500000000004
40
0.468750000000004
40
0.468750000000004
40
0.500000000000005
40
0.500000000000005
40
0.531250000000005
40
0.531250000000005
40
0.562500000000006
40
0.562500000000006
40
0.593750000000006
40
0.593750000000006
40
0.609375000000006
40
0.609375000000006
40
0.613281250000006
40
0.613281250000006
40
0.617187500000007
40
0.625000000000006
40
0.625000000000006
40
0.656250000000006
40
0.656250000000006
40
0.687500000000005
40
0.687500000000005
40
0.718750000000005
40
0.718750000000005
40
0.750000000000004
40
0.750000000000004
40
0.781250000000004
40
0.781250000000004
40
0.812500000000003
40
0.812500000000003
40
0.843750000000003
40
0.843750000000003
40
0.875000000000002
40
0.875000000000002
40
0.906250000000001
40
0.906250000000001
40
0.914062500000001
40
0.914062500000001
40
0.917968750000001
40
0.917968750000001
40
0.921875000000001
40
0.937500000000001
40
0.937500000000001
40
0.96875
40
0.96875
40
1
40
1
40
1
40
1
41
1
10
45.5717991229035
20
10.7155
30
0
41
1
10
45.6647999336515
20
10.7155
30
0
41
1
10
45.7578007443997
20
10.6779202267959
30
0
41
1
10
45.9438023658958
20
10.5156315668439
30
0
41
1
10
46.0368031766439
20
10.3908407916874
30
0
41
1
10
46.2228047981401
20
10.0467363894876
30
0
41
1
10
46.3158056088882
20
9.82735994729495
30
0
41
1
10
46.5018072303843
20
9.29369008231092
30
0
41
1
10
46.5948080411325
20
8.97937828852199
30
0
41
1
10
46.7808096626287
20
8.26375490251084
30
0
41
1
10
46.8738104733768
20
7.86248373294831
30
0
41
1
10
47.059812094873
20
6.98887740954555
30
0
41
1
10
47.152812905621
20
6.51663468375503
30
0
41
1
10
47.3388145271173
20
5.52299798526329
30
0
41
1
10
47.4318153378653
20
5.00172151475979
30
0
41
1
10
47.6178169593615
20
3.93463912397212
30
0
41
1
10
47.7108177701096
20
3.38894154307783
30
0
41
1
10
47.8968193916058
20
2.29682892687688
30
0
41
1
10
47.9898202023539
20
1.7504873796226
30
0
41
1
10
48.129321418476
20
0.945578918533926
30
0
41
1
10
48.1758218238501
20
0.679674984901339
30
0
41
1
10
48.2455724319112
20
0.285945417030376
30
0
41
1
10
48.2688226345981
20
0.155553999824093
30
0
41
1
10
48.3153230399722
20
-0.103302528991975
30
0
41
1
10
48.3385732426592
20
-0.233212429768287
30
0
41
1
10
48.4548242560944
20
-0.888272239096978
30
0
41
1
10
48.5478250668425
20
-1.42640376514262
30
0
41
1
10
48.7338266883386
20
-2.51340620038491
30
0
41
1
10
48.8268274990867
20
-3.06222685454904
30
0
41
1
10
49.012829120583
20
-4.14853521380604
30
0
41
1
10
49.105829931331
20
-4.68593100104718
30
0
41
1
10
49.2918315528272
20
-5.72483781101963
30
0
41
1
10
49.3848323635753
20
-6.2262321834755
30
0
41
1
10
49.5708339850715
20
-7.16931684266945
30
0
41
1
10
49.6638347958196
20
-7.61089711069744
30
0
41
1
10
49.8498364173157
20
-8.4147974782195
30
0
41
1
10
49.9428372280639
20
-8.7770470884943
30
0
41
1
10
50.12883884956
20
-9.409821335934
30
0
41
1
10
50.2218396603081
20
-9.68033354385199
30
0
41
1
10
50.4078412818044
20
-10.1255550370527
30
0
41
1
10
50.5008420925525
20
-10.3003061904658
30
0
41
1
10
50.6868437140486
20
-10.5578375186283
30
0
41
1
10
50.7798445247967
20
-10.6406927180657
30
0
41
1
10
50.9193457409189
20
-10.7034191882297
30
0
41
1
10
50.9658461462929
20
-10.7141083199543
30
0
41
1
10
51.0239716530105
20
-10.715688514978
30
0
41
1
10
51.035596754354
20
-10.7154197162384
30
0
41
1
10
51.0588469570411
20
-10.7136956519742
30
0
41
1
10
51.0937222610715
20
-10.7093258582156
30
0
41
1
10
51.1285975651021
20
-10.6994885334919
30
0
41
1
10
51.2448485785372
20
-10.6540568638422
30
0
41
1
10
51.3378493892853
20
-10.5770859251068
30
0
41
1
10
51.5238510107814
20
-10.331827449978
30
0
41
1
10
51.6168518215295
20
-10.1634636117257
30
0
41
1
10
51.8028534430257
20
-9.73104716699748
30
0
41
1
10
51.8958542537738
20
-9.46694966893381
30
0
41
1
10
52.0818558752701
20
-8.84647110395832
30
0
41
1
10
52.1748566860182
20
-8.49009844544136
30
0
41
1
10
52.3608583075143
20
-7.69687332590078
30
0
41
1
10
52.4538591182624
20
-7.26008779264458
30
0
41
1
10
52.6398607397586
20
-6.32510800879527
30
0
41
1
10
52.7328615505067
20
-5.82702206753049
30
0
41
1
10
52.9188631720029
20
-4.79306446434418
30
0
41
1
10
53.011863982751
20
-4.25731009612142
30
0
41
1
10
53.1978656042472
20
-3.17267355353636
30
0
41
1
10
53.2908664149953
20
-2.62388569456911
30
0
41
1
10
53.4768680364915
20
-1.53558535535296
30
0
41
1
10
53.5698688472395
20
-0.99612609966789
30
0
41
1
10
53.6861198606747
20
-0.338775179588254
30
0
41
1
10
53.7093700633617
20
-0.208140950725152
30
0
41
1
10
53.7442453673922
20
-0.0136127821665468
30
0
41
1
10
53.7558704687358
20
0.0509317914479652
30
0
41
1
10
53.7791206714228
20
0.180798402030518
30
0
41
1
10
53.8372461781404
20
0.506633790634567
30
0
41
1
10
53.8953716848579
20
0.838002470984378
30
0
41
1
10
54.0348729009801
20
1.64092477260132
30
0
41
1
10
54.1278737117281
20
2.1865333898314
30
0
41
1
10
54.3138753332243
20
3.27867209178137
30
0
41
1
10
54.4068761439724
20
3.82513154415719
30
0
41
1
10
54.4998769547205
20
4.36026561714516
30
0
0
SPLINE
5
D6
100
AcDbEntity
8
1
62
256
6
ByLayer
370
13
48
1
60
0
100
AcDbSpline
70
4
71
3
72
22
73
18
40
0
40
0
40
0
40
0
40
0.125
40
0.125
40
0.25
40
0.25
40
0.375
40
0.375
40
0.5
40
0.5
40
0.625
40
0.625
40
0.75
40
0.75
40
0.875
40
0.875
40
1
40
1
40
1
40
1
41
1
10
43.6000000000001
20
4.04264147508675
30
0
41
1
10
43.6844493291301
20
4.53222769379576
30
0
41
1
10
43.7688986582601
20
5.01438566087097
30
0
41
1
10
43.9377973165203
20
5.94549448545951
30
0
41
1
10
44.0222466456503
20
6.39437230383325
30
0
41
1
10
44.1911453039104
20
7.2413770297841
30
0
41
1
10
44.2755946330405
20
7.63943719449117
30
0
41
1
10
44.4444932913006
20
8.37035993832515
30
0
41
1
10
44.5289426204307
20
8.70317868651898
30
0
41
1
10
44.6978412786908
20
9.29398826448227
30
0
41
1
10
44.7822906078208
20
9.55196777735372
30
0
41
1
10
44.951189266081
20
9.98914006985683
30
0
41
1
10
45.035638595211
20
10.168353188397
30
0
41
1
10
45.2045372534712
20
10.4495567474067
30
0
41
1
10
45.2889865826012
20
10.5515895140709
30
0
41
1
10
45.4578852408613
20
10.6845356602815
30
0
41
1
10
45.5423345699914
20
10.7155
30
0
41
1
10
45.6267838991214
20
10.7155
30
0
0
SPLINE
5
D7
100
AcDbEntity
8
1
62
256
6
ByLayer
370
13
48
1
60
0
100
AcDbSpline
70
4
71
3
72
84
73
80
40
0
40
0
40
0
40
0
40
0.0312499999999999
40
0.0312499999999999
40
0.0624999999999998
40
0.0624999999999998
40
0.0937499999999997
40
0.0937499999999997
40
0.125
40
0.125
40
0.15625
40
0.15625
40
0.1875
40
0.1875
40
0.21875
40
0.21875
40
0.249999999999999
40
0.249999999999999
40
0.281249999999999
40
0.281249999999999
40
0.289062499999999
40
0.289062499999999
40
0.296874999999999
40
0.296874999999999
40
0.312499999999999
40
0.312499999999999
40
0.343749999999999
40
0.343749999999999
40
0.374999999999999
40
0.374999999999999
40
0.406249999999999
40
0.406249999999999
40
0.437499999999999
40
0.437499999999999
40
0.468749999999999
40
0.468749999999999
40
0.499999999999999
40
0.499999999999999
40
0.531249999999998
40
0.531249999999998
40
0.562499999999998
40
0.562499999999998
40
0.578124999999998
40
0.578124999999998
40
0.585937499999998
40
0.585937499999998
40
0.593749999999998
40
0.593749999999998
40
0.624999999999999
40
0.624999999999999
40
0.656249999999999
40
0.656249999999999
40
0.687499999999999
40
0.687499999999999
40
0.718749999999999
40
0.718749999999999
40
0.75
40
0.75
40
0.78125
40
0.78125
40
0.8125
40
0.8125
40
0.84375
40
0.84375
40
0.859375
40
0.859375
40
0.8671875
40
0.8671875
40
0.87109375
40
0.87109375
40
0.875
40
0.875
40
0.90625
40
0.90625
40
0.9375
40
0.9375
40
0.96875
40
0.96875
40
1
40
1
40
1
40
1
41
1
10
45.078849478426
20
10.7155
30
0
41
1
10
45.1769851813041
20
10.7155
30
0
41
1
10
45.2751208841821
20
10.6736358816169
30
0
41
1
10
45.4713922899383
20
10.4922387268694
30
0
41
1
10
45.5695279928164
20
10.3525992202043
30
0
41
1
10
45.7657993985725
20
9.96753868985559
30
0
41
1
10
45.8639351014506
20
9.72204056954303
30
0
41
1
10
46.0602065072067
20
9.12607839552393
30
0
41
1
10
46.1583422100848
20
8.77560247237668
30
0
41
1
10
46.3546136158409
20
7.98089248701757
30
0
41
1
10
46.452749318719
20
7.53672808236036
30
0
41
1
10
46.6490207244751
20
6.57540806613488
30
0
41
1
10
46.7471564273532
20
6.0583865335405
30
0
41
1
10
46.9434278331093
20
4.97852258186703
30
0
41
1
10
47.0415635359874
20
4.41583446564948
30
0
41
1
10
47.2378349417435
20
3.27369837887702
30
0
41
1
10
47.3359706446217
20
2.69437723757275
30
0
41
1
10
47.5322420503777
20
1.54553517857087
30
0
41
1
10
47.6303777532558
20
0.976085311025031
30
0
41
1
10
47.7530473818534
20
0.283526946007157
30
0
41
1
10
47.7775813075729
20
0.145962211330726
30
0
41
1
10
47.8266491590119
20
-0.127012033811838
30
0
41
1
10
47.8511830847315
20
-0.264386111533412
30
0
41
1
10
47.9247848618899
20
-0.679657559385561
30
0
41
1
10
47.973852713329
20
-0.960331286685431
30
0
41
1
10
48.1210562676461
20
-1.81023465981966
30
0
41
1
10
48.2191919705242
20
-2.38751740454001
30
0
41
1
10
48.4154633762804
20
-3.53965622455013
30
0
41
1
10
48.5135990791584
20
-4.11441219326667
30
0
41
1
10
48.7098704849145
20
-5.23332125427709
30
0
41
1
10
48.8080061877926
20
-5.77732897033198
30
0
41
1
10
49.0042775935487
20
-6.80602348775392
30
0
41
1
10
49.1024132964268
20
-7.29055947464798
30
0
41
1
10
49.298684702183
20
-8.17566791141633
30
0
41
1
10
49.396820405061
20
-8.57613348860849
30
0
41
1
10
49.5930918108171
20
-9.27658671306151
30
0
41
1
10
49.6912275136952
20
-9.57654458063038
30
0
41
1
10
49.8874989194514
20
-10.0697468871091
30
0
41
1
10
49.9856346223295
20
-10.2630387933892
30
0
41
1
10
50.1819060280855
20
-10.5466549162112
30
0
41
1
10
50.2800417309637
20
-10.6370754323315
30
0
41
1
10
50.4272452852807
20
-10.7040619405782
30
0
41
1
10
50.4763131367197
20
-10.7150002221358
30
0
41
1
10
50.5499149138784
20
-10.7157247449361
30
0
41
1
10
50.5744488395978
20
-10.7133646215361
30
0
41
1
10
50.6235166910369
20
-10.7032022255194
30
0
41
1
10
50.6480506167564
20
-10.6953993438862
30
0
41
1
10
50.7707202453539
20
-10.642206564078
30
0
41
1
10
50.868855948232
20
-10.5540548959092
30
0
41
1
10
51.0651273539882
20
-10.2751671560166
30
0
41
1
10
51.1632630568662
20
-10.0843341069659
30
0
41
1
10
51.3595344626223
20
-9.59603215421541
30
0
41
1
10
51.4576701655005
20
-9.29851425390794
30
0
41
1
10
51.6539415712565
20
-8.60268076712015
30
0
41
1
10
51.7520772741346
20
-8.20439303871692
30
0
41
1
10
51.9483486798908
20
-7.32315650192515
30
0
41
1
10
52.0464843827688
20
-6.8403130469178
30
0
41
1
10
52.242755788525
20
-5.81437022287611
30
0
41
1
10
52.340891491403
20
-5.27142119701412
30
0
41
1
10
52.5371628971592
20
-4.15395253672776
30
0
41
1
10
52.6352986000372
20
-3.57957893512312
30
0
41
1
10
52.8315700057934
20
-2.42758713555176
30
0
41
1
10
52.9297057086715
20
-1.85007036255342
30
0
41
1
10
53.0769092629885
20
-0.999450434102641
30
0
41
1
10
53.1259771144276
20
-0.718477353290041
30
0
41
1
10
53.1995788915861
20
-0.302680528661057
30
0
41
1
10
53.2241128173056
20
-0.165022153866971
30
0
41
1
10
53.260913705885
20
0.039857621785103
30
0
41
1
10
53.2731806687447
20
0.108154377384892
30
0
41
1
10
53.2977145944642
20
0.245497794699617
30
0
41
1
10
53.3099815573239
20
0.314425790657992
30
0
41
1
10
53.4203842230618
20
0.936934969237512
30
0
41
1
10
53.5185199259399
20
1.50588313889048
30
0
41
1
10
53.714791331696
20
2.65427624040592
30
0
41
1
10
53.8129270345741
20
3.23365152874149
30
0
41
1
10
54.0091984403302
20
4.37655175877697
30
0
41
1
10
54.1073341432082
20
4.93995094560495
30
0
41
1
10
54.3036055489644
20
6.02190632204471
30
0
41
1
10
54.4017412518424
20
6.54030834518667
30
0
41
1
10
54.4998769547205
20
7.02263604802718
30
0
0
SPLINE
5
D8
100
AcDbEntity
8
1
62
256
6
ByLayer
370
13
48
1
60
0
100
AcDbSpline
70
4
71
3
72
22
73
18
40
0
40
0
40
0
40
0
40
0.125
40
0.125
40
0.25
40
0.25
40
0.375
40
0.375
40
0.5
40
0.5
40
0.625
40
0.625
40
0.75
40
0.75
40
0.875
40
0.875
40
1
40
1
40
1
40
1
41
1
10
43.6000000000001
20
6.74871662659547
30
0
41
1
10
43.6639097606102
20
7.07127384719985
30
0
41
1
10
43.7278195212203
20
7.37955535492517
30
0
41
1
10
43.8556390424407
20
7.9610583891357
30
0
41
1
10
43.9195488030509
20
8.23426692423249
30
0
41
1
10
44.0473683242712
20
8.74052154926503
30
0
41
1
10
44.1112780848814
20
8.9735602960919
30
0
41
1
10
44.2390976061017
20
9.39612376888704
30
0
41
1
10
44.3030073667119
20
9.58564750826329
30
0
41
1
10
44.4308268879322
20
9.91970684996539
30
0
41
1
10
44.4947366485424
20
10.064247362758
30
0
41
1
10
44.6225561697627
20
10.3086818973933
30
0
41
1
10
44.6864659303729
20
10.4085853337565
30
0
41
1
10
44.8142854515933
20
10.5656821239941
30
0
41
1
10
44.8781952122034
20
10.6228875110959
30
0
41
1
10
45.0060147334237
20
10.697790074649
30
0
41
1
10
45.0699244940339
20
10.7155
30
0
41
1
10
45.1338342546441
20
10.7155
30
0
0
SPLINE
5
D9
100
AcDbEntity
8
1
62
256
6
ByLayer
370
13
48
1
60
0
100
AcDbSpline
70
4
71
3
72
107
73
103
40
0
40
0
40
0
40
0
40
0.03125
40
0.03125
40
0.0625
40
0.0625
40
0.0937499999999999
40
0.0937499999999999
40
0.109375
40
0.109375
40
0.125
40
0.125
40
0.140625
40
0.140625
40
0.15625
40
0.15625
40
0.171875
40
0.171875
40
0.1875
40
0.1875
40
0.21875
40
0.21875
40
0.25
40
0.25
40
0.265625
40
0.265625
40
0.2734375
40
0.2734375
40
0.27734375
40
0.27734375
40
0.28125
40
0.28125
40
0.3125
40
0.3125
40
0.34375
40
0.34375
40
0.375
40
0.375
40
0.390625
40
0.390625
40
0.40625
40
0.40625
40
0.421875
40
0.421875
40
0.4375
40
0.4375
40
0.453125
40
0.453125
40
0.46875
40
0.46875
40
0.5
40
0.5
40
0.53125
40
0.53125
40
0.546875
40
0.546875
40
0.55078125
40
0.55078125
40
0.5546875
40
0.5625
40
0.5625
40
0.59375
40
0.59375
40
0.625
40
0.625
40
0.65625
40
0.65625
40
0.671875
40
0.671875
40
0.6875
40
0.6875
40
0.703125
40
0.703125
40
0.71875
40
0.71875
40
0.75
40
0.75
40
0.78125
40
0.78125
40
0.8125
40
0.8125
40
0.8203125
40
0.8203125
40
0.828125
40
0.828125
40
0.84375
40
0.84375
40
0.875
40
0.875
40
0.90625
40
0.90625
40
0.921875
40
0.921875
40
0.9375
40
0.9375
40
0.953125
40
0.953125
40
0.96875
40
0.96875
40
0.984375
40
0.984375
40
1
40
1
40
1
40
1
41
1
10
44.5858998339486
20
10.7155
30
0
41
1
10
44.6891704289567
20
10.7155
30
0
41
1
10
44.7924410239647
20
10.669116425891
30
0
41
1
10
44.9989822139808
20
10.4674831137965
30
0
41
1
10
45.1022528089889
20
10.3120969801542
30
0
41
1
10
45.3087939990049
20
9.88369471223632
30
0
41
1
10
45.412064594013
20
9.61058618060608
30
0
41
1
10
45.5669704865251
20
9.11455408392982
30
0
41
1
10
45.618605784029
20
8.93491216933765
30
0
41
1
10
45.7218763790371
20
8.5485507630811
30
0
41
1
10
45.7735116765411
20
8.34183305405287
30
0
41
1
10
45.8767822715491
20
7.90361248305734
30
0
41
1
10
45.9284175690532
20
7.67211311254377
30
0
41
1
10
46.0316881640613
20
7.18731627861109
30
0
41
1
10
46.0833234615652
20
6.93402373425303
30
0
41
1
10
46.1865940565733
20
6.40919479473277
30
0
41
1
10
46.2382293540772
20
6.13766428800994
30
0
41
1
10
46.3414999490853
20
5.58031680338789
30
0
41
1
10
46.3931352465894
20
5.29450612011158
30
0
41
1
10
46.5480411391015
20
4.42190762961448
30
0
41
1
10
46.6513117341095
20
3.8200446048107
30
0
41
1
10
46.8578529241256
20
2.60908834174433
30
0
41
1
10
46.9611235191336
20
2.00013466636392
30
0
41
1
10
47.1160294116456
20
1.10283938149584
30
0
41
1
10
47.1676647091496
20
0.80638052211944
30
0
41
1
10
47.2451176554057
20
0.367804587064626
30
0
41
1
10
47.2709353041578
20
0.222627401849678
30
0
41
1
10
47.3096617772857
20
0.0066167676689872
30
0
41
1
10
47.3225706016617
20
-0.0650590797864652
30
0
41
1
10
47.3483882504137
20
-0.209380162286351
30
0
41
1
10
47.3612970747898
20
-0.281827951035979
30
0
41
1
10
47.4774764941738
20
-0.936270663219915
30
0
41
1
10
47.5807470891819
20
-1.53548029808673
30
0
41
1
10
47.7872882791979
20
-2.74466287357706
30
0
41
1
10
47.8905588742059
20
-3.35454321885985
30
0
41
1
10
48.097100064222
20
-4.55405233160428
30
0
41
1
10
48.2003706592301
20
-5.1435139036912
30
0
41
1
10
48.3552765517421
20
-5.98712904986544
30
0
41
1
10
48.4069118492461
20
-6.26156603322423
30
0
41
1
10
48.5101824442542
20
-6.79290462233655
30
0
41
1
10
48.5618177417582
20
-7.04980022197017
30
0
41
1
10
48.6650883367663
20
-7.54241351713122
30
0
41
1
10
48.7167236342702
20
-7.7781260785751
30
0
41
1
10
48.8199942292783
20
-8.22526940092354
30
0
41
1
10
48.8716295267823
20
-8.43669638329783
30
0
41
1
10
48.9749001217903
20
-8.83283873266871
30
0
41
1
10
49.0265354192944
20
-9.01755199413017
30
0
41
1
10
49.1298060143024
20
-9.35860048221161
30
0
41
1
10
49.1814413118064
20
-9.51493538305647
30
0
41
1
10
49.3363472043185
20
-9.94007351176026
30
0
41
1
10
49.4396177993265
20
-10.164653374406
30
0
41
1
10
49.6461589893426
20
-10.4983511740338
30
0
41
1
10
49.7494295843506
20
-10.6075862013218
30
0
41
1
10
49.9043354768627
20
-10.6940888992672
30
0
41
1
10
49.9559707743668
20
-10.7100973798556
30
0
41
1
10
50.0205148962468
20
-10.7154041957007
30
0
41
1
10
50.0334237206228
20
-10.7157330197179
30
0
41
1
10
50.0592413693748
20
-10.7149484155018
30
0
41
1
10
50.0979678425027
20
-10.7115928430023
30
0
41
1
10
50.1366943156308
20
-10.7015402162349
30
0
41
1
10
50.2657825593909
20
-10.6524732209528
30
0
41
1
10
50.3690531543989
20
-10.5631608665448
30
0
41
1
10
50.575594344415
20
-10.2709338012245
30
0
41
1
10
50.6788649394231
20
-10.0678939869861
30
0
41
1
10
50.8854061294391
20
-9.5436852901837
30
0
41
1
10
50.9886767244471
20
-9.22245736080262
30
0
41
1
10
51.1435826169592
20
-8.65777713646372
30
0
41
1
10
51.1952179144632
20
-8.45584511946288
30
0
41
1
10
51.2984885094713
20
-8.02672334090886
30
0
41
1
10
51.3501238069752
20
-7.79953677428921
30
0
41
1
10
51.4533944019833
20
-7.32277456686415
30
0
41
1
10
51.5050296994874
20
-7.07320361467731
30
0
41
1
10
51.6083002944954
20
-6.55513484615059
30
0
41
1
10
51.6599355919994
20
-6.28664278161415
30
0
41
1
10
51.8148414845114
20
-5.4586222523975
30
0
41
1
10
51.9181120795196
20
-4.8765365080815
30
0
41
1
10
52.1246532695356
20
-3.68564892964864
30
0
41
1
10
52.2279238645436
20
-3.07702442466078
30
0
41
1
10
52.4344650545597
20
-1.86509235945758
30
0
41
1
10
52.5377356495677
20
-1.26189232932407
30
0
41
1
10
52.6668238933278
20
-0.527348276413392
30
0
41
1
10
52.6926415420798
20
-0.381393599171986
30
0
41
1
10
52.7442768395838
20
-0.0917149923581349
30
0
41
1
10
52.7700944883359
20
0.0513158561889497
30
0
41
1
10
52.8475474345919
20
0.485204632821024
30
0
41
1
10
52.8991827320959
20
0.778998440275899
30
0
41
1
10
53.0540886246079
20
1.66995668931972
30
0
41
1
10
53.157359219616
20
2.27691367290288
30
0
41
1
10
53.3639004096321
20
3.48955864216214
30
0
41
1
10
53.4671710046401
20
4.09512097483625
30
0
41
1
10
53.6220768971521
20
4.97792813247753
30
0
41
1
10
53.6737121946562
20
5.2679112327624
30
0
41
1
10
53.7769827896642
20
5.83511033296907
30
0
41
1
10
53.8286180871682
20
6.1123200360982
30
0
41
1
10
53.9318886821762
20
6.64991307668717
30
0
41
1
10
53.9835239796803
20
6.910290309625
30
0
41
1
10
54.0867945746883
20
7.41049520551854
30
0
41
1
10
54.1384298721923
20
7.65031753564116
30
0
41
1
10
54.2417004672004
20
8.10619928110427
30
0
41
1
10
54.2933357647044
20
8.32225464150511
30
0
41
1
10
54.3966063597125
20
8.72804164397621
30
0
41
1
10
54.4482416572165
20
8.91777086116633
30
0
41
1
10
54.4998769547205
20
9.09343328518432
30
0
0
SPLINE
5
DA
100
AcDbEntity
8
1
62
256
6
ByLayer
370
13
48
1
60
0
100
AcDbSpline
70
4
71
3
72
14
73
10
40
0
40
0
40
0
40
0
40
0.25
40
0.25
40
0.5
40
0.5
40
0.75
40
0.75
40
1
40
1
40
1
40
1
41
1
10
43.6000000000001
20
8.9011044884154
30
0
41
1
10
43.6867403841805
20
9.21277103586721
30
0
41
1
10
43.7734807683612
20
9.48534657045596
30
0
41
1
10
43.9469615367222
20
9.94746389953468
30
0
41
1
10
44.0337019209028
20
10.1370262809872
30
0
41
1
10
44.2071826892639
20
10.4344314592477
30
0
41
1
10
44.2939230734445
20
10.5423216216968
30
0
41
1
10
44.4674038418055
20
10.6828268168861
30
0
41
1
10
44.5541442259861
20
10.7155
30
0
41
1
10
44.6408846101667
20
10.7155
30
0
0
SPLINE
5
DB
100
AcDbEntity
8
1
62
256
6
ByLayer
370
13
48
1
60
0
100
AcDbSpline
70
4
71
3
72
134
73
130
40
0
40
0
40
0
40
0
40
0.0312500000000003
40
0.0312500000000003
40
0.0468750000000004
40
0.0468750000000004
40
0.0625000000000005
40
0.0625000000000005
40
0.0781250000000006
40
0.0781250000000006
40
0.0937500000000007
40
0.0937500000000007
40
0.109375000000001
40
0.109375000000001
40
0.125000000000001
40
0.125000000000001
40
0.140625000000001
40
0.140625000000001
40
0.156250000000001
40
0.156250000000001
40
0.171875000000001
40
0.171875000000001
40
0.187500000000001
40
0.187500000000001
40
0.203125000000001
40
0.203125000000001
40
0.218750000000002
40
0.218750000000002
40
0.250000000000002
40
0.250000000000002
40
0.257812500000002
40
0.257812500000002
40
0.265625000000002
40
0.265625000000002
40
0.281250000000001
40
0.281250000000001
40
0.296875000000001
40
0.296875000000001
40
0.312500000000001
40
0.312500000000001
40
0.328125000000001
40
0.328125000000001
40
0.343750000000001
40
0.343750000000001
40
0.359375000000001
40
0.359375000000001
40
0.375
40
0.375
40
0.390625
40
0.390625
40
0.40625
40
0.40625
40
0.421875
40
0.421875
40
0.437499999999999
40
0.437499999999999
40
0.453124999999999
40
0.453124999999999
40
0.468749999999999
40
0.468749999999999
40
0.484374999999999
40
0.484374999999999
40
0.499999999999998
40
0.499999999999998
40
0.515624999999998
40
0.515624999999998
40
0.523437499999998
40
0.523437499999998
40
0.531249999999998
40
0.531249999999998
40
0.562499999999998
40
0.562499999999998
40
0.578124999999997
40
0.578124999999997
40
0.593749999999997
40
0.593749999999997
40
0.609374999999997
40
0.609374999999997
40
0.624999999999997
40
0.624999999999997
40
0.640624999999997
40
0.640624999999997
40
0.656249999999997
40
0.656249999999997
40
0.671874999999996
40
0.671874999999996
40
0.687499999999996
40
0.687499999999996
40
0.703124999999996
40
0.703124999999996
40
0.718749999999996
40
0.718749999999996
40
0.734374999999996
40
0.734374999999996
40
0.749999999999995
40
0.749999999999995
40
0.781249999999995
40
0.781249999999995
40
0.785156249999995
40
0.785156249999995
40
0.789062499999995
40
0.789062499999995
40
0.796874999999995
40
0.796874999999995
40
0.812499999999996
40
0.812499999999996
40
0.828124999999996
40
0.828124999999996
40
0.843749999999996
40
0.843749999999996
40
0.859374999999997
40
0.859374999999997
40
0.874999999999997
40
0.874999999999997
40
0.890624999999998
40
0.890624999999998
40
0.906249999999998
40
0.906249999999998
40
0.921874999999998
40
0.921874999999998
40
0.937499999999999
40
0.937499999999999
40
0.953124999999999
40
0.953124999999999
40
0.968749999999999
40
0.968749999999999
40
0.984375
40
0.984375
40
1
40
1
40
1
40
1
41
1
10
44.0929501894713
20
10.7155
30
0
41
1
10
44.2013556766093
20
10.7155
30
0
41
1
10
44.3097611637473
20
10.6643609558286
30
0
41
1
10
44.4723693944543
20
10.4971072167677
30
0
41
1
10
44.5265721380233
20
10.426314517042
30
0
41
1
10
44.6349776251613
20
10.2531571536886
30
0
41
1
10
44.6891803687303
20
10.1507877160729
30
0
41
1
10
44.7975858558683
20
9.91372786115721
30
0
41
1
10
44.8517885994374
20
9.77903398632054
30
0
41
1
10
44.9601940865754
20
9.47745311285399
30
0
41
1
10
45.0143968301444
20
9.31056453154343
30
0
41
1
10
45.1228023172825
20
8.94567664180224
30
0
41
1
10
45.1770050608514
20
8.74767801042495
30
0
41
1
10
45.2854105479894
20
8.32262182352363
30
0
41
1
10
45.3396132915584
20
8.09556732134809
30
0
41
1
10
45.4480187786964
20
7.61536480484449
30
0
41
1
10
45.5022215222654
20
7.36222201941848
30
0
41
1
10
45.6106270094034
20
6.83359662611181
30
0
41
1
10
45.6648297529725
20
6.55812092042802
30
0
41
1
10
45.7732352401105
20
5.98918746229663
30
0
41
1
10
45.8274379836795
20
5.69573756270987
30
0
41
1
10
45.9358434708175
20
5.09559327290097
30
0
41
1
10
45.9900462143865
20
4.78890687014035
30
0
41
1
10
46.0984517015245
20
4.16716609562579
30
0
41
1
10
46.1526544450935
20
3.85211907596204
30
0
41
1
10
46.2610599322316
20
3.21843955913386
30
0
41
1
10
46.3152626758005
20
2.89981317202773
30
0
41
1
10
46.4778709065076
20
1.94528232798115
30
0
41
1
10
46.5862763936456
20
1.31102339300293
30
0
41
1
10
46.721783252568
20
0.539513858469263
30
0
41
1
10
46.7488846243526
20
0.386255183223852
30
0
41
1
10
46.8030873679216
20
0.082198043904981
30
0
41
1
10
46.8301887397061
20
-0.067903267495808
30
0
41
1
10
46.9114928550596
20
-0.52375611947113
30
0
41
1
10
46.9656955986286
20
-0.832620265928853
30
0
41
1
10
47.0741010857666
20
-1.45713652237845
30
0
41
1
10
47.1283038293356
20
-1.77278675051949
30
0
41
1
10
47.2367093164737
20
-2.40713505464632
30
0
41
1
10
47.2909120600426
20
-2.72582953246351
30
0
41
1
10
47.3993175471807
20
-3.36200497283528
30
0
41
1
10
47.4535202907497
20
-3.67948062775059
30
0
41
1
10
47.5619257778876
20
-4.30856964171446
30
0
41
1
10
47.6161285214566
20
-4.62017622724812
30
0
41
1
10
47.7245340085947
20
-5.23267332252018
30
0
41
1
10
47.7787367521637
20
-5.53355608437647
30
0
41
1
10
47.8871422393017
20
-6.11976672901145
30
0
41
1
10
47.9413449828708
20
-6.40508658734933
30
0
41
1
10
48.0497504700087
20
-6.95558707453037
30
0
41
1
10
48.1039532135778
20
-7.22076021142752
30
0
41
1
10
48.2123587007157
20
-7.72687331366134
30
0
41
1
10
48.2665614442848
20
-7.96780710787388
30
0
41
1
10
48.3749669314228
20
-8.42204592790887
30
0
41
1
10
48.4291696749918
20
-8.6353467330384
30
0
41
1
10
48.5375751621298
20
-9.03178044668732
30
0
41
1
10
48.5917779056988
20
-9.21491144752821
30
0
41
1
10
48.7001833928368
20
-9.54941594261425
30
0
41
1
10
48.7543861364058
20
-9.70078988699939
30
0
41
1
10
48.8627916235439
20
-9.97116190851767
30
0
41
1
10
48.9169943671128
20
-10.0901625375604
30
0
41
1
10
49.0253998542509
20
-10.2960945272268
30
0
41
1
10
49.0796025978199
20
-10.3830300590213
30
0
41
1
10
49.1880080849579
20
-10.5259605142894
30
0
41
1
10
49.2422108285269
20
-10.5819606260355
30
0
41
1
10
49.3506163156649
20
-10.6648281585893
30
0
41
1
10
49.4048190592339
20
-10.6917011725649
30
0
41
1
10
49.4861231745874
20
-10.711903498283
30
0
41
1
10
49.5132245463719
20
-10.7152898967261
30
0
41
1
10
49.5674272899409
20
-10.7156911375089
30
0
41
1
10
49.5945286617254
20
-10.7127158514476
30
0
41
1
10
49.7300355206479
20
-10.6811521023327
30
0
41
1
10
49.838441007786
20
-10.602192443175
30
0
41
1
10
50.001049238493
20
-10.3907145118682
30
0
41
1
10
50.055251982062
20
-10.3047752861404
30
0
41
1
10
50.1636574692
20
-10.1008596858995
30
0
41
1
10
50.217860212769
20
-9.98287909864123
30
0
41
1
10
50.326265699907
20
-9.7145432347387
30
0
41
1
10
50.380468443476
20
-9.5641853468583
30
0
41
1
10
50.4888739306141
20
-9.2316788677837
30
0
41
1
10
50.543076674183
20
-9.04952975486248
30
0
41
1
10
50.651482161321
20
-8.65499506977724
30
0
41
1
10
50.7056849048901
20
-8.44261132996326
30
0
41
1
10
50.8140903920281
20
-7.99011300315678
30
0
41
1
10
50.8682931355971
20
-7.75000256787681
30
0
41
1
10
50.9766986227351
20
-7.24541762071595
30
0
41
1
10
51.0309013663041
20
-6.98094922691988
30
0
41
1
10
51.1393068534421
20
-6.43172056866956
30
0
41
1
10
51.1935095970111
20
-6.14696776607144
30
0
41
1
10
51.3019150841492
20
-5.5617415830005
30
0
41
1
10
51.3561178277181
20
-5.26127622278977
30
0
41
1
10
51.4645233148562
20
-4.64945991139265
30
0
41
1
10
51.5187260584252
20
-4.33811672833721
30
0
41
1
10
51.6271315455632
20
-3.70940350264377
30
0
41
1
10
51.6813342891322
20
-3.39204027298501
30
0
41
1
10
51.7897397762702
20
-2.75594812245456
30
0
41
1
10
51.8439425198392
20
-2.43722456046808
30
0
41
1
10
52.0065507505462
20
-1.48542428832548
30
0
41
1
10
52.1149562376842
20
-0.857029680059838
30
0
41
1
10
52.2369124107146
20
-0.172553413641594
30
0
41
1
10
52.2504630966068
20
-0.096806316384118
30
0
41
1
10
52.2775644683913
20
0.0540330756965943
30
0
41
1
10
52.2911151542835
20
0.129552688487166
30
0
41
1
10
52.3317672119602
20
0.357362160321117
30
0
41
1
10
52.3588685837447
20
0.510476366323104
30
0
41
1
10
52.4401726990983
20
0.972985768838612
30
0
41
1
10
52.4943754426673
20
1.28556652616913
30
0
41
1
10
52.6027809298053
20
1.91577635002059
30
0
41
1
10
52.6569836733743
20
2.23340271600509
30
0
41
1
10
52.7653891605123
20
2.86969781233842
30
0
41
1
10
52.8195919040813
20
3.18836210205276
30
0
41
1
10
52.9279973912194
20
3.82226419709619
30
0
41
1
10
52.9822001347884
20
4.13749593890546
30
0
41
1
10
53.0906056219264
20
4.7597594427499
30
0
41
1
10
53.1448083654954
20
5.06678388368638
30
0
41
1
10
53.2532138526334
20
5.66775708916515
30
0
41
1
10
53.3074165962024
20
5.96169787511497
30
0
41
1
10
53.4158220833404
20
6.53175792041694
30
0
41
1
10
53.4700248269094
20
6.80786931009754
30
0
41
1
10
53.5784303140474
20
7.33789539074346
30
0
41
1
10
53.6326330576164
20
7.59180313766609
30
0
41
1
10
53.7410385447545
20
8.07364281794412
30
0
41
1
10
53.7952412883235
20
8.30156946055965
30
0
41
1
10
53.9036467754615
20
8.72845008602295
30
0
41
1
10
53.9578495190305
20
8.92740094218743
30
0
41
1
10
54.0662550061685
20
9.29424341484167
30
0
41
1
10
54.1204577497374
20
9.46213427955482
30
0
41
1
10
54.2288632368755
20
9.7657391483967
30
0
41
1
10
54.2830659804445
20
9.90145466865522
30
0
41
1
10
54.3914714675825
20
10.1405480127074
30
0
41
1
10
54.4456742111514
20
10.2439292428406
30
0
41
1
10
54.4998769547205
20
10.3315018339608
30
0
0
SPLINE
5
DC
100
AcDbEntity
8
1
62
256
6
ByLayer
370
13
48
1
60
0
100
AcDbSpline
70
4
71
3
72
10
73
6
40
0
40
0
40
0
40
0
40
0.5
40
0.5
40
1
40
1
40
1
40
1
41
1
10
43.6000000000001
20
10.2372343830629
30
0
41
1
10
43.6913224942816
20
10.4028525560748
30
0
41
1
10
43.7826449885631
20
10.5229834332777
30
0
41
1
10
43.9652899771262
20
10.6792697073955
30
0
41
1
10
44.0566124714078
20
10.7155
30
0
41
1
10
44.1479349656893
20
10.7155
30
0
0
SPLINE
5
DD
100
AcDbEntity
8
1
62
256
6
ByLayer
370
13
48
1
60
0
100
AcDbSpline
70
4
71
3
72
134
73
130
40
0
40
0
40
0
40
0
40
0.015625
40
0.015625
40
0.03125
40
0.03125
40
0.0468750000000001
40
0.0468750000000001
40
0.0625000000000001
40
0.0625000000000001
40
0.0781250000000001
40
0.0781250000000001
40
0.0937500000000001
40
0.0937500000000001
40
0.109375
40
0.109375
40
0.125
40
0.125
40
0.140625
40
0.140625
40
0.15625
40
0.15625
40
0.171875
40
0.171875
40
0.1875
40
0.1875
40
0.203125
40
0.203125
40
0.218750000000001
40
0.218750000000001
40
0.234375000000001
40
0.234375000000001
40
0.250000000000001
40
0.250000000000001
40
0.265625000000001
40
0.265625000000001
40
0.281250000000001
40
0.281250000000001
40
0.296875000000001
40
0.296875000000001
40
0.312500000000001
40
0.312500000000001
40
0.328125000000001
40
0.328125000000001
40
0.343750000000001
40
0.343750000000001
40
0.359375000000001
40
0.359375000000001
40
0.375000000000001
40
0.375000000000001
40
0.390625000000001
40
0.390625000000001
40
0.406250000000001
40
0.406250000000001
40
0.421875000000001
40
0.421875000000001
40
0.437500000000001
40
0.437500000000001
40
0.453125000000001
40
0.453125000000001
40
0.468750000000001
40
0.468750000000001
40
0.484375000000001
40
0.484375000000001
40
0.500000000000001
40
0.500000000000001
40
0.515625000000001
40
0.515625000000001
40
0.531250000000001
40
0.531250000000001
40
0.546875000000001
40
0.546875000000001
40
0.562500000000001
40
0.562500000000001
40
0.578125000000001
40
0.578125000000001
40
0.593750000000001
40
0.593750000000001
40
0.609375000000001
40
0.609375000000001
40
0.625000000000001
40
0.625000000000001
40
0.640625000000001
40
0.640625000000001
40
0.656250000000001
40
0.656250000000001
40
0.671875000000001
40
0.671875000000001
40
0.687500000000001
40
0.687500000000001
40
0.703125000000001
40
0.703125000000001
40
0.718750000000001
40
0.718750000000001
40
0.734375000000001
40
0.734375000000001
40
0.750000000000001
40
0.750000000000001
40
0.765625000000001
40
0.765625000000001
40
0.781250000000001
40
0.781250000000001
40
0.796875000000001
40
0.796875000000001
40
0.812500000000001
40
0.812500000000001
40
0.828125000000001
40
0.828125000000001
40
0.843750000000001
40
0.843750000000001
40
0.859375000000001
40
0.859375000000001
40
0.875000000000001
40
0.875000000000001
40
0.890625000000001
40
0.890625000000001
40
0.906250000000001
40
0.906250000000001
40
0.921875000000001
40
0.921875000000001
40
0.9375
40
0.9375
40
0.953125
40
0.953125
40
0.96875
40
0.96875
40
0.984375
40
0.984375
40
1
40
1
40
1
40
1
41
1
10
43.6000005449939
20
10.7155
30
0
41
1
10
43.6567707346279
20
10.7155
30
0
41
1
10
43.7135409242619
20
10.7015309177327
30
0
41
1
10
43.8270813035299
20
10.6427787375628
30
0
41
1
10
43.8838514931639
20
10.5979885945776
30
0
41
1
10
43.9973918724319
20
10.4752287927859
30
0
41
1
10
44.0541620620658
20
10.3972522930297
30
0
41
1
10
44.1677024413338
20
10.2064888657201
30
0
41
1
10
44.2244726309678
20
10.0936961133034
30
0
41
1
10
44.3380130102358
20
9.83259712342488
30
0
41
1
10
44.3947831998698
20
9.6842869297939
30
0
41
1
10
44.5083235791377
20
9.35252786939384
30
0
41
1
10
44.5650937687718
20
9.16907765147485
30
0
41
1
10
44.6786341480398
20
8.76857350990582
30
0
41
1
10
44.7354043376738
20
8.55152129292043
30
0
41
1
10
44.8489447169417
20
8.08650435826382
30
0
41
1
10
44.9057149065757
20
7.83854444425998
30
0
41
1
10
45.0192552858437
20
7.31546161104833
30
0
41
1
10
45.0760254754777
20
7.04034617030149
30
0
41
1
10
45.1895658547457
20
6.46757374980322
30
0
41
1
10
45.2463360443797
20
6.16992609778109
30
0
41
1
10
45.3598764236476
20
5.55732704591452
30
0
41
1
10
45.4166466132817
20
5.24238574771982
30
0
41
1
10
45.5301869925496
20
4.60075773474964
30
0
41
1
10
45.5869571821836
20
4.27408077664333
30
0
41
1
10
45.7004975614516
20
3.61455813111795
30
0
41
1
10
45.7572677510856
20
3.28172089351582
30
0
41
1
10
45.8708081303536
20
2.61519610855862
30
0
41
1
10
45.9275783199876
20
2.28151504258273
30
0
41
1
10
46.0411186992556
20
1.61813652675684
30
0
41
1
10
46.0978888888896
20
1.28844328726635
30
0
41
1
10
46.2114292681576
20
0.637228636552322
30
0
41
1
10
46.2681994577916
20
0.315709197570243
30
0
41
1
10
46.3817398370596
20
-0.315707682169716
30
0
41
1
10
46.4385100266935
20
-0.637227086617742
30
0
41
1
10
46.5520504059615
20
-1.28844171137064
30
0
41
1
10
46.6088205955955
20
-1.61813494094375
30
0
41
1
10
46.7223609748635
20
-2.28151344417893
30
0
41
1
10
46.7791311644975
20
-2.61519450748523
30
0
41
1
10
46.8926715437655
20
-3.28171929527022
30
0
41
1
10
46.9494417333995
20
-3.61455653837325
30
0
41
1
10
47.0629821126675
20
-4.27407920367924
30
0
41
1
10
47.1197523023014
20
-4.60075617606796
30
0
41
1
10
47.2332926815694
20
-5.24238422658692
30
0
41
1
10
47.2900628712035
20
-5.55732554804939
30
0
41
1
10
47.4036032504714
20
-6.1699246551706
30
0
41
1
10
47.4603734401054
20
-6.46757233917927
30
0
41
1
10
47.5739138193734
20
-7.0403448316176
30
0
41
1
10
47.6306840090074
20
-7.31546031231582
30
0
41
1
10
47.7442243882753
20
-7.83854323219467
30
0
41
1
10
47.8009945779093
20
-8.08650319291061
30
0
41
1
10
47.9145349571773
20
-8.55152022619208
30
0
41
1
10
47.9713051468114
20
-8.76857249508546
30
0
41
1
10
48.0848455260793
20
-9.16907674387505
30
0
41
1
10
48.1416157157133
20
-9.35252701710152
30
0
41
1
10
48.2551560949812
20
-9.68428618964245
30
0
41
1
10
48.3119262846153
20
-9.83259644010218
30
0
41
1
10
48.4254666638833
20
-10.0936955433507
30
0
41
1
10
48.4822368535173
20
-10.206488352305
30
0
41
1
10
48.5957772327853
20
-10.3972518907801
30
0
41
1
10
48.6525474224192
20
-10.4752284451619
30
0
41
1
10
48.7660878016872
20
-10.5979883529543
30
0
41
1
10
48.8228579913212
20
-10.6427785473137
30
0
41
1
10
48.9363983705892
20
-10.7015308259711
30
0
41
1
10
48.9931685602232
20
-10.715499955352
30
0
41
1
10
49.1067089394912
20
-10.7155000446478
30
0
41
1
10
49.1634791291252
20
-10.701531009494
30
0
41
1
10
49.2770195083932
20
-10.6427789278116
30
0
41
1
10
49.3337896980272
20
-10.5979888362007
30
0
41
1
10
49.4473300772952
20
-10.4752291404097
30
0
41
1
10
49.5041002669292
20
-10.3972526952791
30
0
41
1
10
49.6176406461972
20
-10.206489379135
30
0
41
1
10
49.6744108358311
20
-10.0936966832559
30
0
41
1
10
49.7879512150991
20
-9.83259780674732
30
0
41
1
10
49.8447214047331
20
-9.68428766994509
30
0
41
1
10
49.9582617840011
20
-9.3525287216859
30
0
41
1
10
50.0150319736351
20
-9.16907855907439
30
0
41
1
10
50.1285723529031
20
-8.76857452472592
30
0
41
1
10
50.1853425425371
20
-8.55152235964854
30
0
41
1
10
50.2988829218051
20
-8.08650552361681
30
0
41
1
10
50.355653111439
20
-7.83854565632509
30
0
41
1
10
50.469193490707
20
-7.31546290978065
30
0
41
1
10
50.5259636803411
20
-7.04034750898518
30
0
41
1
10
50.639504059609
20
-6.46757516042697
30
0
41
1
10
50.696274249243
20
-6.16992754039143
30
0
41
1
10
50.809814628511
20
-5.55732854377953
30
0
41
1
10
50.866584818145
20
-5.24238726885261
30
0
41
1
10
50.9801251974129
20
-4.60075929343125
30
0
41
1
10
51.0368953870469
20
-4.27408234960737
30
0
41
1
10
51.1504357663149
20
-3.61455972386261
30
0
41
1
10
51.2072059559489
20
-3.2817224917614
30
0
41
1
10
51.3207463352169
20
-2.61519770963204
30
0
41
1
10
51.3775165248509
20
-2.28151664098652
30
0
41
1
10
51.4910569041189
20
-1.61813811256999
30
0
41
1
10
51.5478270937529
20
-1.28844486316211
30
0
41
1
10
51.6613674730209
20
-0.637230186486988
30
0
41
1
10
51.7181376626549
20
-0.315710731464577
30
0
41
1
10
51.8316780419229
20
0.315706185262911
30
0
41
1
10
51.8884482315569
20
0.637225536683218
30
0
41
1
10
52.0019886108248
20
1.28844013547499
30
0
41
1
10
52.0587588004588
20
1.61813335513071
30
0
41
1
10
52.1722991797268
20
2.28151184577516
30
0
41
1
10
52.2290693693608
20
2.61519290641181
30
0
41
1
10
52.3426097486288
20
3.28171769702462
30
0
41
1
10
52.3993799382628
20
3.61455494562853
30
0
41
1
10
52.5129203175307
20
4.27407763071508
30
0
41
1
10
52.5696905071648
20
4.6007546173862
30
0
41
1
10
52.6832308864327
20
5.24238270545391
30
0
41
1
10
52.7400010760668
20
5.55732405018412
30
0
41
1
10
52.8535414553347
20
6.16992321255998
30
0
41
1
10
52.9103116449687
20
6.46757092855518
30
0
41
1
10
53.0238520242367
20
7.04034349293354
30
0
41
1
10
53.0806222138707
20
7.31545901358311
30
0
41
1
10
53.1941625931386
20
7.83854202012913
30
0
41
1
10
53.2509327827727
20
8.0865020275572
30
0
41
1
10
53.3644731620406
20
8.55151915946351
30
0
41
1
10
53.4212433516747
20
8.76857148026488
30
0
41
1
10
53.5347837309426
20
9.16907583627497
30
0
41
1
10
53.5915539205766
20
9.35252616480895
30
0
41
1
10
53.7050942998446
20
9.68428544949072
30
0
41
1
10
53.7618644894786
20
9.8325957567792
30
0
41
1
10
53.8754048687466
20
10.0936949733977
30
0
41
1
10
53.9321750583806
20
10.2064878388896
30
0
41
1
10
54.0457154376485
20
10.3972514885302
30
0
41
1
10
54.1024856272826
20
10.4752280975376
30
0
41
1
10
54.2160260065505
20
10.5979881113308
30
0
41
1
10
54.2727961961845
20
10.6427783570643
30
0
41
1
10
54.3863365754525
20
10.7015307342092
30
0
41
1
10
54.4431067650865
20
10.7154999107037
30
0
41
1
10
54.4998769547205
20
10.7154999999996
30
0
0
SPLINE
5
DE
100
AcDbEntity
8
1
62
256
6
ByLayer
370
13
48
1
60
0
100
AcDbSpline
70
4
71
3
72
10
73
6
40
0
40
0
40
0
40
0
40
0.5
40
0.5
40
1
40
1
40
1
40
1
41
1
10
53.951943079019
20
10.7155
30
0
41
1
10
54.0432653916359
20
10.7155
30
0
41
1
10
54.1345877042528
20
10.6792698521126
30
0
41
1
10
54.3172323294866
20
10.522984221244
30
0
41
1
10
54.4085546421036
20
10.402853843304
30
0
41
1
10
54.4998769547205
20
10.237236359811
30
0
0
SPLINE
5
DF
100
AcDbEntity
8
1
62
256
6
ByLayer
370
13
48
1
60
0
100
AcDbSpline
70
4
71
3
72
8
73
4
40
0
40
0
40
0
40
0
40
1
40
1
40
1
40
1
41
1
10
43.6000000000001
20
10.711085901922
30
0
41
1
10
43.618328440404
20
10.7140455194873
30
0
41
1
10
43.6366568808079
20
10.7155
30
0
41
1
10
43.6549853212119
20
10.7155
30
0
0
SPLINE
5
E0
100
AcDbEntity
8
1
62
256
6
ByLayer
370
13
48
1
60
0
100
AcDbSpline
70
4
71
3
72
134
73
130
40
0
40
0
40
0
40
0
40
0.0156250000000004
40
0.0156250000000004
40
0.0312500000000007
40
0.0312500000000007
40
0.0468750000000011
40
0.0468750000000011
40
0.0625000000000014
40
0.0625000000000014
40
0.0781250000000018
40
0.0781250000000018
40
0.0937500000000022
40
0.0937500000000022
40
0.109375000000002
40
0.109375000000002
40
0.125000000000003
40
0.125000000000003
40
0.140625000000003
40
0.140625000000003
40
0.156250000000003
40
0.156250000000003
40
0.171875000000004
40
0.171875000000004
40
0.187500000000004
40
0.187500000000004
40
0.203125000000005
40
0.203125000000005
40
0.210937500000005
40
0.210937500000005
40
0.214843750000005
40
0.214843750000005
40
0.218750000000005
40
0.218750000000005
40
0.250000000000004
40
0.250000000000004
40
0.265625000000004
40
0.265625000000004
40
0.281250000000004
40
0.281250000000004
40
0.296875000000004
40
0.296875000000004
40
0.312500000000004
40
0.312500000000004
40
0.328125000000004
40
0.328125000000004
40
0.343750000000004
40
0.343750000000004
40
0.359375000000003
40
0.359375000000003
40
0.375000000000003
40
0.375000000000003
40
0.390625000000003
40
0.390625000000003
40
0.406250000000003
40
0.406250000000003
40
0.421875000000003
40
0.421875000000003
40
0.437500000000003
40
0.437500000000003
40
0.468750000000002
40
0.468750000000002
40
0.476562500000002
40
0.476562500000002
40
0.484375000000002
40
0.484375000000002
40
0.500000000000002
40
0.500000000000002
40
0.515625000000002
40
0.515625000000002
40
0.531250000000002
40
0.531250000000002
40
0.546875000000002
40
0.546875000000002
40
0.562500000000002
40
0.562500000000002
40
0.578125000000002
40
0.578125000000002
40
0.593750000000002
40
0.593750000000002
40
0.609375000000002
40
0.609375000000002
40
0.625000000000002
40
0.625000000000002
40
0.640625000000001
40
0.640625000000001
40
0.656250000000001
40
0.656250000000001
40
0.671875000000001
40
0.671875000000001
40
0.687500000000001
40
0.687500000000001
40
0.703125000000001
40
0.703125000000001
40
0.718750000000001
40
0.718750000000001
40
0.734375000000001
40
0.734375000000001
40
0.742187500000001
40
0.742187500000001
40
0.750000000000001
40
0.750000000000001
40
0.781250000000001
40
0.781250000000001
40
0.796875
40
0.796875
40
0.8125
40
0.8125
40
0.828125
40
0.828125
40
0.84375
40
0.84375
40
0.859375
40
0.859375
40
0.875
40
0.875
40
0.890625
40
0.890625
40
0.90625
40
0.90625
40
0.921875
40
0.921875
40
0.9375
40
0.9375
40
0.953125
40
0.953125
40
0.96875
40
0.96875
40
1
40
1
40
1
40
1
41
1
10
43.6000000000001
20
10.3315035949958
30
0
41
1
10
43.6542027492461
20
10.2439312061865
30
0
41
1
10
43.7084054984921
20
10.1405501788084
30
0
41
1
10
43.8168109969842
20
9.90145723546138
30
0
41
1
10
43.8710137462302
20
9.76574191314032
30
0
41
1
10
43.9794192447222
20
9.4621374293443
30
0
41
1
10
44.0336219939682
20
9.29424675172501
30
0
41
1
10
44.1420274924603
20
8.92740463650577
30
0
41
1
10
44.1962302417063
20
8.72845395066761
30
0
41
1
10
44.3046357401984
20
8.30157364372752
30
0
41
1
10
44.3588384894444
20
8.07364714929591
30
0
41
1
10
44.4672439879364
20
7.59180773885026
30
0
41
1
10
44.5214467371825
20
7.33790011356686
30
0
41
1
10
44.6298522356745
20
6.80787424656998
30
0
41
1
10
44.6840549849206
20
6.53176294889479
30
0
41
1
10
44.7924604834125
20
5.96170305640149
30
0
41
1
10
44.8466632326586
20
5.66776233125591
30
0
41
1
10
44.9550687311506
20
5.06678921618285
30
0
41
1
10
45.0092714803967
20
4.75976480485377
30
0
41
1
10
45.1176769788888
20
4.13750133048705
30
0
41
1
10
45.1718797281348
20
3.82226958855767
30
0
41
1
10
45.2802852266268
20
3.18836746623177
30
0
41
1
10
45.3344879758729
20
2.86970314936662
30
0
41
1
10
45.4428934743649
20
2.23340797529025
30
0
41
1
10
45.4970962236109
20
1.91578155872543
30
0
41
1
10
45.605501722103
20
1.28557161442072
30
0
41
1
10
45.659704471349
20
0.972990787228099
30
0
41
1
10
45.7410085952181
20
0.510481268713761
30
0
41
1
10
45.7681099698411
20
0.357367022178437
30
0
41
1
10
45.8087620317756
20
0.129557487146229
30
0
41
1
10
45.8223127190871
20
0.0540378330406668
30
0
41
1
10
45.8494140937101
20
-0.0968015472772663
30
0
41
1
10
45.8629647810216
20
-0.172548639163182
30
0
41
1
10
45.9849209668252
20
-0.857024861999577
30
0
41
1
10
46.0933264653172
20
-1.48541946572311
30
0
41
1
10
46.2559347130553
20
-2.43721979419991
30
0
41
1
10
46.3101374623013
20
-2.75594338542547
30
0
41
1
10
46.4185429607934
20
-3.39203561628042
30
0
41
1
10
46.4727457100394
20
-3.70939889702979
30
0
41
1
10
46.5811512085315
20
-4.33811224673644
30
0
41
1
10
46.6353539577775
20
-4.64945550271696
30
0
41
1
10
46.7437594562695
20
-5.2612719807118
30
0
41
1
10
46.7979622055155
20
-5.56173743459405
30
0
41
1
10
46.9063677040076
20
-6.14696382357809
30
0
41
1
10
46.9605704532536
20
-6.43171673841286
30
0
41
1
10
47.0689759517457
20
-6.98094563652464
30
0
41
1
10
47.1231787009917
20
-7.24541415793726
30
0
41
1
10
47.2315841994838
20
-7.74999937173214
30
0
41
1
10
47.2857869487298
20
-7.99010994601898
30
0
41
1
10
47.3941924472218
20
-8.44260855773553
30
0
41
1
10
47.4483951964679
20
-8.6549924434411
30
0
41
1
10
47.5568006949598
20
-9.0495274225234
30
0
41
1
10
47.6110034442059
20
-9.23167668353909
30
0
41
1
10
47.719408942698
20
-9.56418345650053
30
0
41
1
10
47.773611691944
20
-9.71454149016435
30
0
41
1
10
47.882017190436
20
-9.9828776392867
30
0
41
1
10
47.9362199396821
20
-10.1008583659753
30
0
41
1
10
48.0446254381741
20
-10.3047742353854
30
0
41
1
10
48.0988281874201
20
-10.3907135908492
30
0
41
1
10
48.2614364351582
20
-10.6021918930637
30
0
41
1
10
48.3698419336503
20
-10.681151774677
30
0
41
1
10
48.5053488067654
20
-10.7127157647608
30
0
41
1
10
48.5324501813884
20
-10.7156910970523
30
0
41
1
10
48.5866529306344
20
-10.7152899456288
30
0
41
1
10
48.6137543052574
20
-10.7119035923673
30
0
41
1
10
48.6950584291264
20
-10.6917014033481
30
0
41
1
10
48.7492611783725
20
-10.6648284820556
30
0
41
1
10
48.8576666768645
20
-10.5819611357787
30
0
41
1
10
48.9118694261106
20
-10.5259611176229
30
0
41
1
10
49.0202749246026
20
-10.3830308479034
30
0
41
1
10
49.0744776738486
20
-10.296095408062
30
0
41
1
10
49.1828831723407
20
-10.0901635979025
30
0
41
1
10
49.2370859215867
20
-9.97116305640719
30
0
41
1
10
49.3454914200788
20
-9.70079120276509
30
0
41
1
10
49.3996941693248
20
-9.54941733870163
30
0
41
1
10
49.5080996678168
20
-9.21491299437272
30
0
41
1
10
49.5623024170629
20
-9.03178206396038
30
0
41
1
10
49.6707079155549
20
-8.63534847898003
30
0
41
1
10
49.7249106648009
20
-8.42204773208471
30
0
41
1
10
49.833316163293
20
-7.96780901458618
30
0
41
1
10
49.887518912539
20
-7.72687526467212
30
0
41
1
10
49.995924411031
20
-7.2207622360643
30
0
41
1
10
50.0501271602771
20
-6.95558912849356
30
0
41
1
10
50.1585326587691
20
-6.4050886847352
30
0
41
1
10
50.2127354080152
20
-6.11976884049517
30
0
41
1
10
50.3211409065072
20
-5.53355820934047
30
0
41
1
10
50.3753436557533
20
-5.23267544687053
30
0
41
1
10
50.4837491542453
20
-4.62017833686065
30
0
41
1
10
50.5379519034913
20
-4.30857173720838
30
0
41
1
10
50.6463574019834
20
-3.6794826832471
30
0
41
1
10
50.7005601512293
20
-3.36200700245931
30
0
41
1
10
50.8089656497214
20
-2.7258315006963
30
0
41
1
10
50.8631683989675
20
-2.40713698736661
30
0
41
1
10
50.9715738974595
20
-1.77278860485527
30
0
41
1
10
51.0257766467055
20
-1.45713833384761
30
0
41
1
10
51.1341821451976
20
-0.832621986589089
30
0
41
1
10
51.1883848944437
20
-0.523757792193152
30
0
41
1
10
51.2696890183127
20
-0.0679048661066872
30
0
41
1
10
51.2967903929357
20
0.0821964600990839
30
0
41
1
10
51.3509931421817
20
0.386253614280179
30
0
41
1
10
51.3780945168047
20
0.539512297826462
30
0
41
1
10
51.5136013899197
20
1.31102187825581
30
0
41
1
10
51.6220068884118
20
1.94528086422756
30
0
41
1
10
51.7846151361499
20
2.89981180444093
30
0
41
1
10
51.8388178853959
20
3.21843822683624
30
0
41
1
10
51.947223383888
20
3.85211781984788
30
0
41
1
10
52.001426133134
20
4.1671648804047
30
0
41
1
10
52.109831631626
20
4.78890574107353
30
0
41
1
10
52.1640343808721
20
5.09559218909271
30
0
41
1
10
52.2724398793641
20
5.69573657223174
30
0
41
1
10
52.3266426286102
20
5.9891865198862
30
0
41
1
10
52.4350481271022
20
6.55812007519117
30
0
41
1
10
52.4892508763482
20
6.8335958299761
30
0
41
1
10
52.5976563748403
20
7.36222132065851
30
0
41
1
10
52.6518591240864
20
7.61536415435421
30
0
41
1
10
52.7602646225784
20
8.09556676476188
30
0
41
1
10
52.8144673718244
20
8.32262131256743
30
0
41
1
10
52.9228728703165
20
8.74767758648204
30
0
41
1
10
52.9770756195625
20
8.94567625923929
30
0
41
1
10
53.0854811180545
20
9.31056422619724
30
0
41
1
10
53.1396838673005
20
9.47745284334272
30
0
41
1
10
53.2480893657926
20
9.77903378203277
30
0
41
1
10
53.3022921150386
20
9.91372768625774
30
0
41
1
10
53.4106976135307
20
10.1507875930258
30
0
41
1
10
53.4649003627767
20
10.2531570531068
30
0
41
1
10
53.5733058612687
20
10.4263144544003
30
0
41
1
10
53.6275086105148
20
10.4971071696033
30
0
41
1
10
53.7901168582529
20
10.6643609450518
30
0
41
1
10
53.8985223567449
20
10.7155
30
0
41
1
10
54.006927855237
20
10.7155
30
0
0
SPLINE
5
E1
100
AcDbEntity
8
1
62
256
6
ByLayer
370
13
48
1
60
0
100
AcDbSpline
70
4
71
3
72
14
73
10
40
0
40
0
40
0
40
0
40
0.25
40
0.25
40
0.5
40
0.5
40
0.75
40
0.75
40
1
40
1
40
1
40
1
41
1
10
53.4589934345415
20
10.7155
30
0
41
1
10
53.5457337278898
20
10.7155
30
0
41
1
10
53.632474021238
20
10.6828268855561
30
0
41
1
10
53.8059546079345
20
10.5423219944269
30
0
41
1
10
53.8926949012828
20
10.4344320676676
30
0
41
1
10
54.0661754879793
20
10.1370275411767
30
0
41
1
10
54.1529157813276
20
9.94746557601025
30
0
41
1
10
54.326396368024
20
9.48534924923479
30
0
41
1
10
54.4131366613722
20
9.21277430066394
30
0
41
1
10
54.4998769547205
20
8.90110840484402
30
0
0
SPLINE
5
E2
100
AcDbEntity
8
1
62
256
6
ByLayer
370
13
48
1
60
0
100
AcDbSpline
70
4
71
3
72
108
73
104
40
0
40
0
40
0
40
0
40
0.0156249999999998
40
0.0156249999999998
40
0.0312499999999996
40
0.0312499999999996
40
0.0468749999999994
40
0.0468749999999994
40
0.0624999999999992
40
0.0624999999999992
40
0.078124999999999
40
0.078124999999999
40
0.0937499999999988
40
0.0937499999999988
40
0.124999999999998
40
0.124999999999998
40
0.156249999999998
40
0.156249999999998
40
0.171874999999998
40
0.171874999999998
40
0.179687499999998
40
0.179687499999998
40
0.187499999999998
40
0.187499999999998
40
0.218749999999998
40
0.218749999999998
40
0.249999999999997
40
0.249999999999997
40
0.281249999999997
40
0.281249999999997
40
0.296874999999997
40
0.296874999999997
40
0.312499999999997
40
0.312499999999997
40
0.328124999999997
40
0.328124999999997
40
0.343749999999996
40
0.343749999999996
40
0.374999999999996
40
0.374999999999996
40
0.406249999999996
40
0.406249999999996
40
0.437499999999995
40
0.437499999999995
40
0.445312499999995
40
0.445312499999995
40
0.449218749999995
40
0.449218749999995
40
0.453124999999995
40
0.453124999999995
40
0.468749999999996
40
0.468749999999996
40
0.499999999999996
40
0.499999999999996
40
0.531249999999996
40
0.531249999999996
40
0.546874999999997
40
0.546874999999997
40
0.562499999999997
40
0.562499999999997
40
0.578124999999997
40
0.578124999999997
40
0.593749999999997
40
0.593749999999997
40
0.609374999999998
40
0.609374999999998
40
0.624999999999998
40
0.624999999999998
40
0.656249999999998
40
0.656249999999998
40
0.687499999999999
40
0.687499999999999
40
0.718749999999999
40
0.718749999999999
40
0.722656249999999
40
0.722656249999999
40
0.726562499999999
40
0.726562499999999
40
0.734374999999999
40
0.734374999999999
40
0.749999999999999
40
0.749999999999999
40
0.78125
40
0.78125
40
0.8125
40
0.8125
40
0.828125
40
0.828125
40
0.84375
40
0.84375
40
0.859375
40
0.859375
40
0.875
40
0.875
40
0.890625
40
0.890625
40
0.90625
40
0.90625
40
0.9375
40
0.9375
40
0.96875
40
0.96875
40
1
40
1
40
1
40
1
41
1
10
43.6000000000001
20
9.09343699330216
30
0
41
1
10
43.6516353031811
20
8.91777474747184
30
0
41
1
10
43.703270606362
20
8.7280457003929
30
0
41
1
10
43.8065412127242
20
8.32225901714313
30
0
41
1
10
43.8581765159052
20
8.10620380584174
30
0
41
1
10
43.9614471222673
20
7.65032233353836
30
0
41
1
10
44.0130824254484
20
7.41050012746814
30
0
41
1
10
44.1163530318104
20
6.91029545172069
30
0
41
1
10
44.1679883349914
20
6.64991831487251
30
0
41
1
10
44.2712589413535
20
6.11232543688635
30
0
41
1
10
44.3228942445345
20
5.83511580027056
30
0
41
1
10
44.4261648508966
20
5.26791680325806
30
0
41
1
10
44.4778001540777
20
4.97793373965814
30
0
41
1
10
44.6327060636208
20
4.09512664888359
30
0
41
1
10
44.7359766699829
20
3.48956430278892
30
0
41
1
10
44.9425178827071
20
2.27691921146649
30
0
41
1
10
45.0457884890691
20
1.66996211955046
30
0
41
1
10
45.2006943986123
20
0.779003659596725
30
0
41
1
10
45.2523297017933
20
0.485209773812102
30
0
41
1
10
45.3297826565649
20
0.0513208705828276
30
0
41
1
10
45.3556003081554
20
-0.0917099860035364
30
0
41
1
10
45.4072356113364
20
-0.381388573224257
30
0
41
1
10
45.4330532629269
20
-0.527343242682207
30
0
41
1
10
45.5621415208795
20
-1.26188726740861
30
0
41
1
10
45.6654121272416
20
-1.86508730967145
30
0
41
1
10
45.8719533399658
20
-3.07701948104833
30
0
41
1
10
45.9752239463279
20
-3.68564408024506
30
0
41
1
10
46.181765159052
20
-4.8765319304101
30
0
41
1
10
46.2850357654141
20
-5.45861785228743
30
0
41
1
10
46.4399416749572
20
-6.28663870016103
30
0
41
1
10
46.4915769781382
20
-6.55513087951516
30
0
41
1
10
46.5948475845003
20
-7.07319989186885
30
0
41
1
10
46.6464828876813
20
-7.32277097305789
30
0
41
1
10
46.7497534940435
20
-7.79953344899681
30
0
41
1
10
46.8013887972245
20
-8.02672015511928
30
0
41
1
10
46.9046594035866
20
-8.45584221908274
30
0
41
1
10
46.9562947067676
20
-8.65777438198063
30
0
41
1
10
47.1112006163107
20
-9.2224550472441
30
0
41
1
10
47.2144712226728
20
-9.54368327466202
30
0
41
1
10
47.4210124353969
20
-10.067892544473
30
0
41
1
10
47.524283041759
20
-10.2709326335151
30
0
41
1
10
47.7308242544832
20
-10.5631602029129
30
0
41
1
10
47.8340948608453
20
-10.6524727865818
30
0
41
1
10
47.9631831187979
20
-10.7015400335159
30
0
41
1
10
47.9890007703884
20
-10.7082418333067
30
0
41
1
10
48.0277272477742
20
-10.7138297313623
30
0
41
1
10
48.0406360735694
20
-10.7149483746957
30
0
41
1
10
48.06645372516
20
-10.7157330240337
30
0
41
1
10
48.0793625509552
20
-10.715404222218
30
0
41
1
10
48.1439066799315
20
-10.7100975188348
30
0
41
1
10
48.1955419831125
20
-10.6940891300043
30
0
41
1
10
48.3504478926556
20
-10.6075867099168
30
0
41
1
10
48.4537184990177
20
-10.4983518714299
30
0
41
1
10
48.6602597117419
20
-10.164654438045
30
0
41
1
10
48.7635303181039
20
-9.94007475269098
30
0
41
1
10
48.918436227647
20
-9.51493686596316
30
0
41
1
10
48.9700715308281
20
-9.35860204178348
30
0
41
1
10
49.0733421371902
20
-9.01755369674598
30
0
41
1
10
49.1249774403712
20
-8.83284050165787
30
0
41
1
10
49.2282480467333
20
-8.43669827281784
30
0
41
1
10
49.2798833499144
20
-8.22527134459676
30
0
41
1
10
49.3831539562764
20
-7.7781281169396
30
0
41
1
10
49.4347892594575
20
-7.54241559603128
30
0
41
1
10
49.5380598658195
20
-7.04980236756077
30
0
41
1
10
49.5896951690006
20
-6.79290679408172
30
0
41
1
10
49.6929657753627
20
-6.26156824281199
30
0
41
1
10
49.7446010785437
20
-5.98713127114289
30
0
41
1
10
49.8995069880868
20
-5.14351613919933
30
0
41
1
10
50.0027775944489
20
-4.55405454859638
30
0
41
1
10
50.2093188071731
20
-3.35454535389053
30
0
41
1
10
50.3125894135351
20
-2.74466494532615
30
0
41
1
10
50.5191306262593
20
-1.53548221462836
30
0
41
1
10
50.6224012326213
20
-0.93627248797705
30
0
41
1
10
50.7385806647787
20
-0.281829665656318
30
0
41
1
10
50.751489490574
20
-0.20938186457235
30
0
41
1
10
50.7773071421645
20
-0.0650607572387401
30
0
41
1
10
50.7902159679598
20
0.0066151018066876
30
0
41
1
10
50.8289424453456
20
0.222625746244489
30
0
41
1
10
50.8547600969361
20
0.367802939121305
30
0
41
1
10
50.9322130517077
20
0.806378899665134
30
0
41
1
10
50.9838483548886
20
1.1028377793813
30
0
41
1
10
51.1387542644318
20
2.0001331352625
30
0
41
1
10
51.2420248707939
20
2.60908687148086
30
0
41
1
10
51.4485660835181
20
3.82004327917551
30
0
41
1
10
51.5518366898801
20
4.42190638775025
30
0
41
1
10
51.7067425994232
20
5.29450501416972
30
0
41
1
10
51.7583779026043
20
5.58031574442512
30
0
41
1
10
51.8616485089664
20
6.13766332482129
30
0
41
1
10
51.9132838121473
20
6.40919388033558
30
0
41
1
10
52.0165544185094
20
6.93402291758784
30
0
41
1
10
52.0681897216905
20
7.18731551088243
30
0
41
1
10
52.1714603280526
20
7.67211244115171
30
0
41
1
10
52.2230956312336
20
7.90361185906147
30
0
41
1
10
52.3263662375956
20
8.3418325217296
30
0
41
1
10
52.3780015407767
20
8.54855027503095
30
0
41
1
10
52.4812721471388
20
8.93491176534289
30
0
41
1
10
52.5329074503198
20
9.11455371971505
30
0
41
1
10
52.6878133598629
20
9.61058592738721
30
0
41
1
10
52.791083966225
20
9.88369452170164
30
0
41
1
10
52.9976251789492
20
10.3120968880859
30
0
41
1
10
53.1008957853113
20
10.4674830575449
30
0
41
1
10
53.3074369980355
20
10.6691164156372
30
0
41
1
10
53.4107076043975
20
10.7155
30
0
41
1
10
53.5139782107596
20
10.7155
30
0
0
SPLINE
5
E3
100
AcDbEntity
8
1
62
256
6
ByLayer
370
13
48
1
60
0
100
AcDbSpline
70
4
71
3
72
22
73
18
40
0
40
0
40
0
40
0
40
0.125
40
0.125
40
0.25
40
0.25
40
0.375
40
0.375
40
0.5
40
0.5
40
0.625
40
0.625
40
0.75
40
0.75
40
0.875
40
0.875
40
1
40
1
40
1
40
1
41
1
10
52.9660437900642
20
10.7155
30
0
41
1
10
53.0299535052582
20
10.7155
30
0
41
1
10
53.0938632204522
20
10.6977900998628
30
0
41
1
10
53.2216826508402
20
10.622887645566
30
0
41
1
10
53.2855923660343
20
10.565682342552
30
0
41
1
10
53.4134117964223
20
10.4085857850238
30
0
41
1
10
53.4773215116163
20
10.3086824973223
30
0
41
1
10
53.6051409420044
20
10.0642483261496
30
0
41
1
10
53.6690506571983
20
9.91970802818349
30
0
41
1
10
53.7968700875863
20
9.5856491787527
30
0
41
1
10
53.8607798027804
20
9.39612571682349
30
0
41
1
10
53.9885992331684
20
8.97356285244408
30
0
41
1
10
54.0525089483624
20
8.74052443655989
30
0
41
1
10
54.1803283787504
20
8.23427051260481
30
0
41
1
10
54.2442380939445
20
7.96106234759029
30
0
41
1
10
54.3720575243325
20
7.37956007436395
30
0
41
1
10
54.4359672395265
20
7.07127895747016
30
0
41
1
10
54.4998769547205
20
6.74872212784138
30
0
0
SPLINE
5
E4
100
AcDbEntity
8
1
62
256
6
ByLayer
370
13
48
1
60
0
100
AcDbSpline
70
4
71
3
72
84
73
80
40
0
40
0
40
0
40
0
40
0.03125
40
0.03125
40
0.0624999999999999
40
0.0624999999999999
40
0.0937499999999999
40
0.0937499999999999
40
0.125
40
0.125
40
0.12890625
40
0.12890625
40
0.1328125
40
0.1328125
40
0.140625
40
0.140625
40
0.15625
40
0.15625
40
0.1875
40
0.1875
40
0.21875
40
0.21875
40
0.25
40
0.25
40
0.28125
40
0.28125
40
0.3125
40
0.3125
40
0.343749999999999
40
0.343749999999999
40
0.374999999999999
40
0.374999999999999
40
0.406249999999999
40
0.406249999999999
40
0.414062499999999
40
0.414062499999999
40
0.421874999999999
40
0.421874999999999
40
0.437499999999999
40
0.437499999999999
40
0.468749999999999
40
0.468749999999999
40
0.499999999999999
40
0.499999999999999
40
0.531249999999999
40
0.531249999999999
40
0.562499999999999
40
0.562499999999999
40
0.593749999999999
40
0.593749999999999
40
0.624999999999999
40
0.624999999999999
40
0.656249999999998
40
0.656249999999998
40
0.687499999999998
40
0.687499999999998
40
0.703124999999998
40
0.703124999999998
40
0.710937499999998
40
0.710937499999998
40
0.718749999999998
40
0.718749999999998
40
0.749999999999999
40
0.749999999999999
40
0.781249999999999
40
0.781249999999999
40
0.812499999999999
40
0.812499999999999
40
0.843749999999999
40
0.843749999999999
40
0.874999999999999
40
0.874999999999999
40
0.906249999999999
40
0.906249999999999
40
0.9375
40
0.9375
40
0.96875
40
0.96875
40
1
40
1
40
1
40
1
41
1
10
43.6000000000001
20
7.02264140521208
30
0
41
1
10
43.6981357142322
20
6.5403139122914
30
0
41
1
10
43.7962714284642
20
6.02191204460831
30
0
41
1
10
43.9925428569284
20
4.93995686471845
30
0
41
1
10
44.0906785711606
20
4.37655771909331
30
0
41
1
10
44.2869499996248
20
3.23365746916946
30
0
41
1
10
44.3850857138569
20
2.65428211997741
30
0
41
1
10
44.5813571423211
20
1.50588881866216
30
0
41
1
10
44.6794928565532
20
0.936940510310109
30
0
41
1
10
44.7898955350644
20
0.314431147926769
30
0
41
1
10
44.8021624993433
20
0.245503131160319
30
0
41
1
10
44.8266964279014
20
0.108159671513135
30
0
41
1
10
44.8389633921804
20
0.0398628782322419
30
0
41
1
10
44.8757642850174
20
-0.165016879870962
30
0
41
1
10
44.9002982135754
20
-0.302675244814537
30
0
41
1
10
44.9738999992496
20
-0.718472045812916
30
0
41
1
10
45.0229678563656
20
-0.999445118777601
30
0
41
1
10
45.1701714277138
20
-1.85006505006351
30
0
41
1
10
45.2683071419459
20
-2.42758186042505
30
0
41
1
10
45.4645785704101
20
-3.57957381422491
30
0
41
1
10
45.5627142846422
20
-4.15394753280714
30
0
41
1
10
45.7589857131063
20
-5.27141650432387
30
0
41
1
10
45.8571214273385
20
-5.81436572443528
30
0
41
1
10
46.0533928558027
20
-6.84030899904079
30
0
41
1
10
46.1515285700348
20
-7.3231527102179
30
0
41
1
10
46.3477999984989
20
-8.20438979540941
30
0
41
1
10
46.4459357127311
20
-8.60267781580629
30
0
41
1
10
46.6422071411954
20
-9.29851189181906
30
0
41
1
10
46.7403428554274
20
-9.59603008913047
30
0
41
1
10
46.9366142838916
20
-10.0843326128495
30
0
41
1
10
47.0347499981237
20
-10.2751659357332
30
0
41
1
10
47.2310214265879
20
-10.5540541801971
30
0
41
1
10
47.3291571408201
20
-10.6422060790933
30
0
41
1
10
47.4518267836102
20
-10.6953991143386
30
0
41
1
10
47.4763607121682
20
-10.7032020454349
30
0
41
1
10
47.5254285692843
20
-10.7133645370729
30
0
41
1
10
47.5499624978424
20
-10.7157247064486
30
0
41
1
10
47.6235642835165
20
-10.7150003177183
30
0
41
1
10
47.6726321406324
20
-10.7040621273638
30
0
41
1
10
47.8198357119806
20
-10.6370758957757
30
0
41
1
10
47.9179714262127
20
-10.5466555682724
30
0
41
1
10
48.1142428546769
20
-10.2630398148217
30
0
41
1
10
48.212378568909
20
-10.0697480891823
30
0
41
1
10
48.4086499973732
20
-9.57654611754111
30
0
41
1
10
48.5067857116054
20
-9.27658840401909
30
0
41
1
10
48.7030571400695
20
-8.57613544447543
30
0
41
1
10
48.8011928543017
20
-8.17566997801887
30
0
41
1
10
48.9974642827659
20
-7.29056170904124
30
0
41
1
10
49.0955999969979
20
-6.80602577915809
30
0
41
1
10
49.2918714254622
20
-5.77733132059836
30
0
41
1
10
49.3900071396943
20
-5.23332360645176
30
0
41
1
10
49.5862785681585
20
-4.1144145014641
30
0
41
1
10
49.6844142823906
20
-3.5396584869857
30
0
41
1
10
49.8806857108548
20
-2.38751954098396
30
0
41
1
10
49.9788214250869
20
-1.8102367161643
30
0
41
1
10
50.126024996435
20
-0.960333208459588
30
0
41
1
10
50.1750928535511
20
-0.679659433901236
30
0
41
1
10
50.2486946392252
20
-0.264387912886008
30
0
41
1
10
50.2732285677833
20
-0.127013793209045
30
0
41
1
10
50.3222964248993
20
0.145960465082766
30
0
41
1
10
50.3468303534573
20
0.28352520711428
30
0
41
1
10
50.4694999962474
20
0.976083612864585
30
0
41
1
10
50.5676357104796
20
1.54553352581806
30
0
41
1
10
50.7639071389438
20
2.69437570029473
30
0
41
1
10
50.8620428531758
20
3.2736969116813
30
0
41
1
10
51.05831428164
20
4.4158331578613
30
0
41
1
10
51.1564499958722
20
4.97852136336832
30
0
41
1
10
51.3527214243364
20
6.05838550316648
30
0
41
1
10
51.4508571385685
20
6.57540713451104
30
0
41
1
10
51.6471285670327
20
7.53672734565183
30
0
41
1
10
51.7452642812648
20
7.98089184637098
30
0
41
1
10
51.9415357097291
20
8.77560200967335
30
0
41
1
10
52.0396714239612
20
9.12607801462536
30
0
41
1
10
52.2359428524254
20
9.72204032988051
30
0
41
1
10
52.3340785666575
20
9.96753850960391
30
0
41
1
10
52.5303499951216
20
10.3525991331531
30
0
41
1
10
52.6284857093537
20
10.4922386736409
30
0
41
1
10
52.8247571378179
20
10.673635871884
30
0
41
1
10
52.9228928520501
20
10.7155
30
0
41
1
10
53.0210285662822
20
10.7155
30
0
0
SPLINE
5
E5
100
AcDbEntity
8
1
62
256
6
ByLayer
370
13
48
1
60
0
100
AcDbSpline
70
4
71
3
72
22
73
18
40
0
40
0
40
0
40
0
40
0.125
40
0.125
40
0.25
40
0.25
40
0.375
40
0.375
40
0.5
40
0.5
40
0.625
40
0.625
40
0.75
40
0.75
40
0.875
40
0.875
40
1
40
1
40
1
40
1
41
1
10
52.4730941455868
20
10.7155
30
0
41
1
10
52.5575434293007
20
10.7155
30
0
41
1
10
52.6419927130146
20
10.6845356936963
30
0
41
1
10
52.8108912804424
20
10.551589695148
30
0
41
1
10
52.8953405641563
20
10.4495570428666
30
0
41
1
10
53.0642391315842
20
10.1683538003105
30
0
41
1
10
53.148688415298
20
9.98914088393772
30
0
41
1
10
53.3175869827258
20
9.55196907924113
30
0
41
1
10
53.4020362664397
20
9.29398985201794
30
0
41
1
10
53.5709348338676
20
8.70318091177256
30
0
41
1
10
53.6553841175815
20
8.370362515545
30
0
41
1
10
53.8242826850093
20
7.63944051353334
30
0
41
1
10
53.9087319687232
20
7.2413807384861
30
0
41
1
10
54.077630536151
20
6.3943767943486
30
0
41
1
10
54.1620798198649
20
5.94549936790057
30
0
41
1
10
54.3309783872927
20
5.01439129402425
30
0
41
1
10
54.4154276710066
20
4.53223368555027
30
0
41
1
10
54.4998769547205
20
4.04264779417676
30
0
0
SPLINE
5
E6
100
AcDbEntity
8
1
62
256
6
ByLayer
370
13
48
1
60
0
100
AcDbSpline
70
4
71
3
72
85
73
81
40
0
40
0
40
0
40
0
40
0.0312500000000006
40
0.0312500000000006
40
0.0625000000000012
40
0.0625000000000012
40
0.0781250000000015
40
0.0781250000000015
40
0.0820312500000015
40
0.0820312500000015
40
0.0859375000000015
40
0.0859375000000015
40
0.0937500000000016
40
0.0937500000000016
40
0.125000000000002
40
0.125000000000002
40
0.156250000000003
40
0.156250000000003
40
0.187500000000003
40
0.187500000000003
40
0.218750000000004
40
0.218750000000004
40
0.250000000000005
40
0.250000000000005
40
0.281250000000005
40
0.281250000000005
40
0.312500000000006
40
0.312500000000006
40
0.343750000000007
40
0.343750000000007
40
0.375000000000007
40
0.375000000000007
40
0.382812500000007
40
0.386718750000007
40
0.386718750000007
40
0.390625000000007
40
0.390625000000007
40
0.406250000000007
40
0.406250000000007
40
0.437500000000007
40
0.437500000000007
40
0.468750000000006
40
0.468750000000006
40
0.500000000000006
40
0.500000000000006
40
0.531250000000006
40
0.531250000000006
40
0.562500000000005
40
0.562500000000005
40
0.593750000000005
40
0.593750000000005
40
0.625000000000004
40
0.625000000000004
40
0.656250000000004
40
0.656250000000004
40
0.687500000000004
40
0.687500000000004
40
0.695312500000004
40
0.695312500000004
40
0.703125000000004
40
0.703125000000004
40
0.718750000000003
40
0.718750000000003
40
0.750000000000003
40
0.750000000000003
40
0.781250000000003
40
0.781250000000003
40
0.812500000000002
40
0.812500000000002
40
0.843750000000002
40
0.843750000000002
40
0.875000000000002
40
0.875000000000002
40
0.906250000000001
40
0.906250000000001
40
0.937500000000001
40
0.937500000000001
40
0.96875
40
0.96875
40
1
40
1
40
1
40
1
41
1
10
43.6
20
4.36027188902054
30
0
41
1
10
43.6930008221021
20
3.82513783992715
30
0
41
1
10
43.7860016442043
20
3.27867836055384
30
0
41
1
10
43.9720032884085
20
2.1865395211355
30
0
41
1
10
44.0650041105107
20
1.64093079363914
30
0
41
1
10
44.204505343664
20
0.838008282721972
30
0
41
1
10
44.2510057547149
20
0.572913261387157
30
0
41
1
10
44.3091312685287
20
0.245971772848236
30
0
41
1
10
44.3207563712916
20
0.180804012228748
30
0
41
1
10
44.3440065768171
20
0.0509373588940889
30
0
41
1
10
44.3556316795799
20
-0.0136072305142818
30
0
41
1
10
44.3905069878682
20
-0.208135382203068
30
0
41
1
10
44.4137571933937
20
-0.338769601586421
30
0
41
1
10
44.5300082210213
20
-0.996120483658359
30
0
41
1
10
44.6230090431235
20
-1.53557973920425
30
0
41
1
10
44.8090106873277
20
-2.6238801500121
30
0
41
1
10
44.9020115094298
20
-3.17266808082849
30
0
41
1
10
45.0880131536342
20
-4.25730484295039
30
0
41
1
10
45.1810139757363
20
-4.79305935891887
30
0
41
1
10
45.3670156199406
20
-5.82701732692925
30
0
41
1
10
45.4600164420426
20
-6.32510348522797
30
0
41
1
10
45.6460180862469
20
-7.26008375515877
30
0
41
1
10
45.7390189083491
20
-7.69686955731578
30
0
41
1
10
45.9250205525534
20
-8.49009524145927
30
0
41
1
10
46.0180213746555
20
-8.84646819548087
30
0
41
1
10
46.2040230188597
20
-9.46694735056565
30
0
41
1
10
46.2970238409619
20
-9.73104514306161
30
0
41
1
10
46.4830254851661
20
-10.1634621514059
30
0
41
1
10
46.5760263072683
20
-10.3318262587506
30
0
41
1
10
46.7620279514726
20
-10.5770852299566
30
0
41
1
10
46.8550287735747
20
-10.6540563956769
30
0
41
1
10
46.9712798012023
20
-10.6994883177398
30
0
41
1
10
47.0061551094907
20
-10.7093257158695
30
0
41
1
10
47.041030417779
20
-10.7136955795055
30
0
41
1
10
47.0642806233045
20
-10.7154196895682
30
0
41
1
10
47.0759057260672
20
-10.7156885106531
30
0
41
1
10
47.134031239881
20
-10.7141084275368
30
0
41
1
10
47.1805316509322
20
-10.7034193870364
30
0
41
1
10
47.3200328840854
20
-10.6406931934605
30
0
41
1
10
47.4130337061875
20
-10.5578381823997
30
0
41
1
10
47.5990353503918
20
-10.3003072244966
30
0
41
1
10
47.6920361724939
20
-10.1255562528768
30
0
41
1
10
47.8780378166981
20
-9.68033510013322
30
0
41
1
10
47.9710386388003
20
-9.40982305075892
30
0
41
1
10
48.1570402830045
20
-8.77704908178723
30
0
41
1
10
48.2500411051067
20
-8.41479959132732
30
0
41
1
10
48.4360427493109
20
-7.61089941409008
30
0
41
1
10
48.5290435714131
20
-7.16931921647907
30
0
41
1
10
48.7150452156173
20
-6.22623464541257
30
0
41
1
10
48.8080460377195
20
-5.72484029069253
30
0
41
1
10
48.9940476819238
20
-4.68593346795151
30
0
41
1
10
49.0870485040259
20
-4.14853765029378
30
0
41
1
10
49.2730501482302
20
-3.06222919246608
30
0
41
1
10
49.3660509703323
20
-2.51340847025679
30
0
41
1
10
49.5520526145366
20
-1.42640587460488
30
0
41
1
10
49.6450534366387
20
-0.888274256284632
30
0
41
1
10
49.7613044642664
20
-0.233214324668012
30
0
41
1
10
49.784554669792
20
-0.103304384381772
30
0
41
1
10
49.831055080843
20
0.155552157710417
30
0
41
1
10
49.8543052863685
20
0.285943582294863
30
0
41
1
10
49.9240559029451
20
0.67967317454989
30
0
41
1
10
49.9705563139962
20
0.945577127444466
30
0
41
1
10
50.1100575471494
20
1.75048565535408
30
0
41
1
10
50.2030583692515
20
2.29682725932506
30
0
41
1
10
50.3890600134557
20
3.38894001068633
30
0
41
1
10
50.4820608355579
20
3.93463767002063
30
0
41
1
10
50.6680624797621
20
5.00172023293311
30
0
41
1
10
50.7610633018642
20
5.5229967970765
30
0
41
1
10
50.9470649460685
20
6.51663368838868
30
0
41
1
10
51.0400657681707
20
6.98887651328283
30
0
41
1
10
51.2260674123749
20
7.86248302939273
30
0
41
1
10
51.3190682344771
20
8.26375429247761
30
0
41
1
10
51.5050698786814
20
8.9793778501494
30
0
41
1
10
51.5980707007834
20
9.29368972202312
30
0
41
1
10
51.7840723449877
20
9.82735972120318
30
0
41
1
10
51.8770731670899
20
10.0467362194981
30
0
41
1
10
52.0630748112942
20
10.3908407096161
30
0
41
1
10
52.1560756333963
20
10.5156315166187
30
0
41
1
10
52.3420772776005
20
10.6779202175819
30
0
41
1
10
52.4350780997027
20
10.7155
30
0
41
1
10
52.5280789218048
20
10.7155
30
0
0
SPLINE
5
E7
100
AcDbEntity
8
1
62
256
6
ByLayer
370
13
48
1
60
0
100
AcDbSpline
70
4
71
3
72
32
73
28
40
0
40
0
40
0
40
0
40
0.125
40
0.125
40
0.25
40
0.25
40
0.3125
40
0.3125
40
0.375
40
0.375
40
0.4375
40
0.4375
40
0.5
40
0.5
40
0.5625
40
0.5625
40
0.625
40
0.625
40
0.6875
40
0.6875
40
0.75
40
0.75
40
0.812500000000001
40
0.812500000000001
40
0.875000000000001
40
0.875000000000001
40
1
40
1
40
1
40
1
41
1
10
51.9801445011094
20
10.7155
30
0
41
1
10
52.0851333533432
20
10.7155
30
0
41
1
10
52.190122205577
20
10.6675514535323
30
0
41
1
10
52.4000999100446
20
10.4588934589654
30
0
41
1
10
52.5050887622784
20
10.2980362837357
30
0
41
1
10
52.662572040629
20
9.96545885606909
30
0
41
1
10
52.715066466746
20
9.83946330190975
30
0
41
1
10
52.8200553189798
20
9.55720363627864
30
0
41
1
10
52.8725497450967
20
9.40093789684278
30
0
41
1
10
52.9775385973304
20
9.05896833489891
30
0
41
1
10
53.0300330234474
20
8.87326470928841
30
0
41
1
10
53.1350218756811
20
8.47410490956875
30
0
41
1
10
53.187516301798
20
8.2606508957173
30
0
41
1
10
53.2925051540319
20
7.80849587648041
30
0
41
1
10
53.3449995801488
20
7.56979889107828
30
0
41
1
10
53.4499884323826
20
7.07039015508272
30
0
41
1
10
53.5024828584994
20
6.8096839389128
30
0
41
1
10
53.6074717107332
20
6.27007075318227
30
0
41
1
10
53.6599661368502
20
5.99117029500081
30
0
41
1
10
53.7649549890839
20
5.41938148681763
30
0
41
1
10
53.8174494152008
20
5.12649998342974
30
0
41
1
10
53.9224382674347
20
4.53115786781478
30
0
41
1
10
53.9749326935516
20
4.22870379642202
30
0
41
1
10
54.0799215457853
20
3.61861798229339
30
0
41
1
10
54.1324159719022
20
3.31099193091288
30
0
41
1
10
54.2898992502529
20
2.38666019171643
30
0
41
1
10
54.3948881024867
20
1.76874413949599
30
0
41
1
10
54.4998769547205
20
1.16365079813116
30
0
0
SPLINE
5
E8
100
AcDbEntity
8
1
62
256
6
ByLayer
370
13
48
1
60
0
100
AcDbSpline
70
4
71
3
72
85
73
81
40
0
40
0
40
0
40
0
40
0.0156249999999992
40
0.0156249999999992
40
0.0234374999999989
40
0.0234374999999989
40
0.0312499999999986
40
0.0312499999999986
40
0.0624999999999973
40
0.0624999999999973
40
0.0937499999999959
40
0.0937499999999959
40
0.124999999999995
40
0.124999999999995
40
0.156249999999993
40
0.156249999999993
40
0.187499999999992
40
0.187499999999992
40
0.218749999999991
40
0.218749999999991
40
0.249999999999989
40
0.249999999999989
40
0.281249999999988
40
0.281249999999988
40
0.312499999999986
40
0.312499999999986
40
0.343749999999985
40
0.343749999999985
40
0.351562499999985
40
0.351562499999985
40
0.355468749999985
40
0.355468749999985
40
0.359374999999985
40
0.374999999999985
40
0.374999999999985
40
0.406249999999985
40
0.406249999999985
40
0.437499999999984
40
0.437499999999984
40
0.468749999999984
40
0.468749999999984
40
0.499999999999984
40
0.499999999999984
40
0.531249999999984
40
0.531249999999984
40
0.562499999999984
40
0.562499999999984
40
0.593749999999984
40
0.593749999999984
40
0.624999999999984
40
0.624999999999984
40
0.656249999999984
40
0.656249999999984
40
0.671874999999984
40
0.671874999999984
40
0.675781249999984
40
0.675781249999984
40
0.679687499999984
40
0.679687499999984
40
0.687499999999985
40
0.687499999999985
40
0.718749999999986
40
0.718749999999986
40
0.749999999999988
40
0.749999999999988
40
0.781249999999989
40
0.781249999999989
40
0.812499999999991
40
0.812499999999991
40
0.843749999999992
40
0.843749999999992
40
0.874999999999994
40
0.874999999999994
40
0.906249999999995
40
0.906249999999995
40
0.937499999999997
40
0.937499999999997
40
0.968749999999998
40
0.968749999999998
40
1
40
1
40
1
40
1
41
1
10
43.6000000000001
20
1.48162603804963
30
0
41
1
10
43.6439329649861
20
1.22675856516889
30
0
41
1
10
43.6878659299722
20
0.973696745399906
30
0
41
1
10
43.7537653774513
20
0.598176545180877
30
0
41
1
10
43.7757318599443
20
0.47367986704495
30
0
41
1
10
43.8196648249304
20
0.226242298078859
30
0
41
1
10
43.8416313074235
20
0.103465108493651
30
0
41
1
10
43.9514637198887
20
-0.507773276277476
30
0
41
1
10
44.0393296498609
20
-1.01071529561557
30
0
41
1
10
44.2150615098052
20
-2.03091058856535
30
0
41
1
10
44.3029274397773
20
-2.54813515621507
30
0
41
1
10
44.4786592997216
20
-3.57932675087386
30
0
41
1
10
44.5665252296938
20
-4.09323419977892
30
0
41
1
10
44.7422570896382
20
-5.09756842974537
30
0
41
1
10
44.8301230196103
20
-5.58791214314789
30
0
41
1
10
45.0058548795546
20
-6.52442139066531
30
0
41
1
10
45.0937208095268
20
-6.97049848372234
30
0
41
1
10
45.2694526694711
20
-7.79995438702545
30
0
41
1
10
45.3573185994432
20
-8.1832625652934
30
0
41
1
10
45.5330504593876
20
-8.87331431609499
30
0
41
1
10
45.6209163893597
20
-9.18002360622933
30
0
41
1
10
45.7966482493041
20
-9.70930130273942
30
0
41
1
10
45.8845141792762
20
-9.93187767936377
30
0
41
1
10
46.0602460392205
20
-10.2920067924374
30
0
41
1
10
46.1481119691927
20
-10.4296017333179
30
0
41
1
10
46.323843829137
20
-10.6247836693751
30
0
41
1
10
46.4117097591092
20
-10.6824306633942
30
0
41
1
10
46.5215421715744
20
-10.7103052641042
30
0
41
1
10
46.5435086540674
20
-10.7136788357241
30
0
41
1
10
46.576458377807
20
-10.7155656253896
30
0
41
1
10
46.5874416190535
20
-10.7156678374542
30
0
41
1
10
46.6094081015465
20
-10.7148252456962
30
0
41
1
10
46.6643243077791
20
-10.7100868067005
30
0
41
1
10
46.7192405140117
20
-10.6918994373877
30
0
41
1
10
46.85103940897
20
-10.6204742477491
30
0
41
1
10
46.9389053389421
20
-10.5356925096751
30
0
41
1
10
47.1146371988864
20
-10.2838929407525
30
0
41
1
10
47.2025031288586
20
-10.1168192866956
30
0
41
1
10
47.3782349888029
20
-9.69728718813639
30
0
41
1
10
47.4661009187751
20
-9.44479692798888
30
0
41
1
10
47.6418327787194
20
-8.8575484678797
30
0
41
1
10
47.7296987086915
20
-8.52279684225064
30
0
41
1
10
47.9054305686359
20
-7.78083505290184
30
0
41
1
10
47.9932964986081
20
-7.37367333473546
30
0
41
1
10
48.1690283585524
20
-6.50256782287326
30
0
41
1
10
48.2568942885245
20
-6.03870346448005
30
0
41
1
10
48.4326261484688
20
-5.07376243667343
30
0
41
1
10
48.520492078441
20
-4.57277488964777
30
0
41
1
10
48.6962239383854
20
-3.55443368508006
30
0
41
1
10
48.7840898683575
20
-3.03715643380414
30
0
41
1
10
48.9598217283018
20
-2.00579252806361
30
0
41
1
10
49.047687658274
20
-1.4917548820159
30
0
41
1
10
49.1794865532322
20
-0.735345655236443
30
0
41
1
10
49.2234195182183
20
-0.485620850971827
30
0
41
1
10
49.2783357244509
20
-0.177507968717066
30
0
41
1
10
49.2893189656975
20
-0.116086886187219
30
0
41
1
10
49.3112854481905
20
0.0063292385523255
30
0
41
1
10
49.322268689437
20
0.0673554071843796
30
0
41
1
10
49.3552184131765
20
0.251487353125498
30
0
41
1
10
49.3771848956696
20
0.375076339015209
30
0
41
1
10
49.4870173081348
20
0.996712686992169
30
0
41
1
10
49.5748832381069
20
1.50599643683921
30
0
41
1
10
49.7506150980513
20
2.53356021106674
30
0
41
1
10
49.8384810280234
20
3.05180139077203
30
0
41
1
10
50.0142128879678
20
4.07865854271941
30
0
41
1
10
50.1020788179399
20
4.58720593194533
30
0
41
1
10
50.2778106778842
20
5.57402542049709
30
0
41
1
10
50.3656766078564
20
6.05221030347224
30
0
41
1
10
50.5414084678007
20
6.95801762603304
30
0
41
1
10
50.6292743977729
20
7.38555488299889
30
0
41
1
10
50.8050062577172
20
8.17281549588242
30
0
41
1
10
50.8928721876893
20
8.53247849259711
30
0
41
1
10
51.0686040476337
20
9.17204335683792
30
0
41
1
10
51.1564699776058
20
9.45192474159711
30
0
41
1
10
51.3322018375502
20
9.92654271290115
30
0
41
1
10
51.4200677675223
20
10.121299833456
30
0
41
1
10
51.5957996274666
20
10.4268388372397
30
0
41
1
10
51.6836655574388
20
10.5376706860407
30
0
41
1
10
51.8593974173831
20
10.6819702867637
30
0
41
1
10
51.9472633473553
20
10.7155
30
0
41
1
10
52.0351292773274
20
10.7155
30
0
0
SPLINE
5
E9
100
AcDbEntity
8
1
62
256
6
ByLayer
370
13
48
1
60
0
100
AcDbSpline
70
4
71
3
72
42
73
38
40
0
40
0
40
0
40
0
40
0.0624999999999998
40
0.0624999999999998
40
0.125
40
0.125
40
0.187499999999999
40
0.187499999999999
40
0.249999999999999
40
0.249999999999999
40
0.312499999999999
40
0.312499999999999
40
0.374999999999999
40
0.374999999999999
40
0.437499999999998
40
0.437499999999998
40
0.499999999999998
40
0.499999999999998
40
0.562499999999998
40
0.562499999999998
40
0.624999999999998
40
0.624999999999998
40
0.687499999999998
40
0.687499999999998
40
0.749999999999998
40
0.749999999999998
40
0.812499999999998
40
0.812499999999998
40
0.874999999999998
40
0.874999999999998
40
0.890624999999998
40
0.890624999999998
40
0.906249999999998
40
0.906249999999998
40
0.937499999999999
40
0.937499999999999
40
1
40
1
40
1
40
1
41
1
10
51.487194856632
20
10.7155
30
0
41
1
10
51.5499590670089
20
10.7155
30
0
41
1
10
51.6127232773857
20
10.6984203101361
30
0
41
1
10
51.7382516981394
20
10.6262470717619
30
0
41
1
10
51.8010159085162
20
10.5711418768488
30
0
41
1
10
51.9265443292699
20
10.4198567699544
30
0
41
1
10
51.9893085396468
20
10.3236658098459
30
0
41
1
10
52.1148369604005
20
10.0883098547691
30
0
41
1
10
52.1776011707773
20
9.9491360819209
30
0
41
1
10
52.303129591531
20
9.62738081845276
30
0
41
1
10
52.3658938019078
20
9.4447944943843
30
0
41
1
10
52.4914222226615
20
9.03745659398783
30
0
41
1
10
52.5541864330384
20
8.81270540318937
30
0
41
1
10
52.6797148537921
20
8.32402747350048
30
0
41
1
10
52.7424790641689
20
8.06010683088556
30
0
41
1
10
52.8680074849226
20
7.49773071371362
30
0
41
1
10
52.9307716952995
20
7.19928653421124
30
0
41
1
10
53.0563001160531
20
6.5738911969278
30
0
41
1
10
53.1190643264299
20
6.24695506345071
30
0
41
1
10
53.2445927471837
20
5.57158947421789
30
0
41
1
10
53.3073569575605
20
5.22317666541241
30
0
41
1
10
53.4328853783141
20
4.51237350785831
30
0
41
1
10
53.495649588691
20
4.14999917599894
30
0
41
1
10
53.6211780094447
20
3.41879224864209
30
0
41
1
10
53.6839422198216
20
3.04997313390308
30
0
41
1
10
53.8094706405752
20
2.31295003720987
30
0
41
1
10
53.8722348509521
20
1.94475578038595
30
0
41
1
10
53.9977632717058
20
1.21525780838721
30
0
41
1
10
54.0605274820826
20
0.853959640637186
30
0
41
1
10
54.1389827450537
20
0.409923153174674
30
0
41
1
10
54.1546737976478
20
0.321492479277936
30
0
41
1
10
54.1860559028362
20
0.145455290689654
30
0
41
1
10
54.2017469554306
20
0.0580133836860171
30
0
41
1
10
54.2488201132132
20
-0.204063814867823
30
0
41
1
10
54.2802022184016
20
-0.380536396638348
30
0
41
1
10
54.3743485339669
20
-0.914381312527837
30
0
41
1
10
54.4371127443437
20
-1.27621469030899
30
0
41
1
10
54.4998769547205
20
-1.64133615768211
30
0
0
SPLINE
5
EA
100
AcDbEntity
8
1
62
256
6
ByLayer
370
13
48
1
60
0
100
AcDbSpline
70
4
71
3
72
79
73
75
40
0
40
0
40
0
40
0
40
0.0312499999999995
40
0.0312499999999995
40
0.062499999999999
40
0.062499999999999
40
0.0937499999999985
40
0.0937499999999985
40
0.124999999999998
40
0.124999999999998
40
0.156249999999997
40
0.156249999999997
40
0.187499999999997
40
0.187499999999997
40
0.218749999999996
40
0.218749999999996
40
0.249999999999996
40
0.249999999999996
40
0.281249999999995
40
0.281249999999995
40
0.312499999999995
40
0.312499999999995
40
0.316406249999995
40
0.316406249999995
40
0.320312499999995
40
0.328124999999995
40
0.328124999999995
40
0.343749999999995
40
0.343749999999995
40
0.374999999999996
40
0.374999999999996
40
0.406249999999996
40
0.406249999999996
40
0.437499999999997
40
0.437499999999997
40
0.468749999999997
40
0.468749999999997
40
0.499999999999998
40
0.499999999999998
40
0.531249999999998
40
0.531249999999998
40
0.562499999999998
40
0.562499999999998
40
0.593749999999999
40
0.593749999999999
40
0.624999999999999
40
0.624999999999999
40
0.656249999999999
40
0.656249999999999
40
0.6640625
40
0.6640625
40
0.671875
40
0.671875
40
0.6875
40
0.6875
40
0.71875
40
0.71875
40
0.75
40
0.75
40
0.78125
40
0.78125
40
0.8125
40
0.8125
40
0.84375
40
0.84375
40
0.875
40
0.875
40
0.90625
40
0.90625
40
0.9375
40
0.9375
40
0.96875
40
0.96875
40
1
40
1
40
1
40
1
41
1
10
43.6000000000001
20
-1.32237173316958
30
0
41
1
10
43.6827310378422
20
-1.80082854476248
30
0
41
1
10
43.7654620756844
20
-2.28648265455487
30
0
41
1
10
43.9309241513688
20
-3.25803217329286
30
0
41
1
10
44.0136551892109
20
-3.74388761911942
30
0
41
1
10
44.1791172648954
20
-4.69931184668113
30
0
41
1
10
44.2618483027375
20
-5.16882240744062
30
0
41
1
10
44.4273103784219
20
-6.0741839371307
30
0
41
1
10
44.5100414162641
20
-6.5099688048256
30
0
41
1
10
44.6755034919484
20
-7.33157253604432
30
0
41
1
10
44.7582345297907
20
-7.71733231850052
30
0
41
1
10
44.923696605475
20
-8.4255837138694
30
0
41
1
10
45.0064276433172
20
-8.74803739303843
30
0
41
1
10
45.1718897190016
20
-9.32088497040061
30
0
41
1
10
45.2546207568438
20
-9.57126990191784
30
0
41
1
10
45.4200828325283
20
-9.99642471604335
30
0
41
1
10
45.5028138703704
20
-10.1712134794981
30
0
41
1
10
45.6682759460548
20
-10.4466955489315
30
0
41
1
10
45.751006983897
20
-10.5474270707218
30
0
41
1
10
45.9164690595813
20
-10.6804944808613
30
0
41
1
10
45.9992000974234
20
-10.7128763311306
30
0
41
1
10
46.0922725149959
20
-10.715655008534
30
0
41
1
10
46.1026138947262
20
-10.7155004260794
30
0
41
1
10
46.1232966541868
20
-10.7142557022165
30
0
41
1
10
46.1543207933775
20
-10.7109812923457
30
0
41
1
10
46.1853449325684
20
-10.7034026882603
30
0
41
1
10
46.24739321095
20
-10.6822971214743
30
0
41
1
10
46.2887587298711
20
-10.660290787024
30
0
41
1
10
46.4128552866344
20
-10.5689404032721
30
0
41
1
10
46.4955863244766
20
-10.4741533899892
30
0
41
1
10
46.661048400161
20
-10.2108931033008
30
0
41
1
10
46.7437794380031
20
-10.0423805217429
30
0
41
1
10
46.9092415136876
20
-9.62972324219123
30
0
41
1
10
46.9919725515297
20
-9.38555765812154
30
0
41
1
10
47.1574346272141
20
-8.82465538969853
30
0
41
1
10
47.2401656650563
20
-8.50792519306245
30
0
41
1
10
47.4056277407406
20
-7.81020720838194
30
0
41
1
10
47.4883587785828
20
-7.42925512830487
30
0
41
1
10
47.6538208542672
20
-6.61602500352734
30
0
41
1
10
47.7365518921094
20
-6.18380476653081
30
0
41
1
10
47.9020139677938
20
-5.28414936128829
30
0
41
1
10
47.984745005636
20
-4.81678030803172
30
0
41
1
10
48.1502070813203
20
-3.86420124950305
30
0
41
1
10
48.2329381191625
20
-3.37905060330837
30
0
41
1
10
48.3984001948469
20
-2.40760640625183
30
0
41
1
10
48.4811312326891
20
-1.92135456350263
30
0
41
1
10
48.6465933083735
20
-0.962177591546066
30
0
41
1
10
48.7293243462156
20
-0.489272513866183
30
0
41
1
10
48.8327381435184
20
0.0864634944190925
30
0
41
1
10
48.853420902979
20
0.201906416288551
30
0
41
1
10
48.8947864219001
20
0.434632318473319
30
0
41
1
10
48.9154691813606
20
0.551692141725624
30
0
41
1
10
48.9775174597422
20
0.904711314466454
30
0
41
1
10
49.0188829786634
20
1.14251680712957
30
0
41
1
10
49.1429795354266
20
1.86106732547268
30
0
41
1
10
49.2257105732688
20
2.34703273083451
30
0
41
1
10
49.3911726489532
20
3.31855646748906
30
0
41
1
10
49.4739036867954
20
3.80407396003261
30
0
41
1
10
49.6393657624797
20
4.75810519298108
30
0
41
1
10
49.7220968003219
20
5.22656013399097
30
0
41
1
10
49.8875588760062
20
6.12909787872775
30
0
41
1
10
49.9702899138485
20
6.56311456099724
30
0
41
1
10
50.1357519895328
20
7.38055705934661
30
0
41
1
10
50.218483027375
20
7.76392441856513
30
0
41
1
10
50.3839451030595
20
8.46692797264487
30
0
41
1
10
50.4666761409016
20
8.78652734001415
30
0
41
1
10
50.6321382165859
20
9.3534125284487
30
0
41
1
10
50.7148692544282
20
9.60069062373788
30
0
41
1
10
50.8803313301126
20
10.0195979346106
30
0
41
1
10
50.9630623679548
20
10.1912470415364
30
0
41
1
10
51.1285244436391
20
10.4606114949233
30
0
41
1
10
51.2112554814813
20
10.5583656137174
30
0
41
1
10
51.3767175571657
20
10.6857868461544
30
0
41
1
10
51.4594485950079
20
10.7155
30
0
41
1
10
51.54217963285
20
10.7155
30
0
0
SPLINE
5
EB
100
AcDbEntity
8
1
62
256
6
ByLayer
370
13
48
1
60
0
100
AcDbSpline
70
4
71
3
72
43
73
39
40
0
40
0
40
0
40
0
40
0.0624999999999997
40
0.0624999999999997
40
0.124999999999999
40
0.124999999999999
40
0.187499999999999
40
0.187499999999999
40
0.249999999999999
40
0.249999999999999
40
0.312499999999998
40
0.312499999999998
40
0.374999999999998
40
0.374999999999998
40
0.437499999999998
40
0.437499999999998
40
0.499999999999997
40
0.499999999999997
40
0.562499999999997
40
0.562499999999997
40
0.624999999999997
40
0.624999999999997
40
0.687499999999996
40
0.687499999999996
40
0.749999999999996
40
0.749999999999996
40
0.765624999999996
40
0.773437499999996
40
0.773437499999996
40
0.781249999999996
40
0.781249999999996
40
0.812499999999997
40
0.812499999999997
40
0.874999999999998
40
0.874999999999998
40
0.937499999999999
40
0.937499999999999
40
1
40
1
40
1
40
1
41
1
10
50.9942452121547
20
10.7155
30
0
41
1
10
51.0672792067914
20
10.7155
30
0
41
1
10
51.1403132014282
20
10.6923598335444
30
0
41
1
10
51.2863811907018
20
10.5938156538031
30
0
41
1
10
51.3594151853386
20
10.5183868328501
30
0
41
1
10
51.5054831746122
20
10.3108344446779
30
0
41
1
10
51.5785171692489
20
10.1786885465444
30
0
41
1
10
51.7245851585225
20
9.85559443211378
30
0
41
1
10
51.7976191531593
20
9.66463126190959
30
0
41
1
10
51.9436871424329
20
9.22469692993559
30
0
41
1
10
52.0167211370697
20
8.97572255558541
30
0
41
1
10
52.1627891263432
20
8.42375019644939
30
0
41
1
10
52.23582312098
20
8.12076300593907
30
0
41
1
10
52.3818911102537
20
7.46783177223256
30
0
41
1
10
52.4549251048904
20
7.11791159239289
30
0
41
1
10
52.600993094164
20
6.38073663194035
30
0
41
1
10
52.6740270888008
20
5.99351462659473
30
0
41
1
10
52.8200950780744
20
5.19304528746315
30
0
41
1
10
52.8931290727112
20
4.77983346950222
30
0
41
1
10
53.0391970619847
20
3.93933136227349
30
0
41
1
10
53.1122310566215
20
3.51207305584441
30
0
41
1
10
53.2582990458951
20
2.65502636757921
30
0
41
1
10
53.3313330405319
20
2.22526181505714
30
0
41
1
10
53.4774010298055
20
1.37349957055673
30
0
41
1
10
53.5504350244422
20
0.951515497706367
30
0
41
1
10
53.6417275177382
20
0.434188596395103
30
0
41
1
10
53.6691152657271
20
0.279744702721729
30
0
41
1
10
53.6965030137158
20
0.126558208963615
30
0
41
1
10
53.714761512375
20
0.024726359885932
30
0
41
1
10
53.7238907617046
20
-0.0259698030514812
30
0
41
1
10
53.7695370083526
20
-0.280561352532573
30
0
41
1
10
53.806054005671
20
-0.48657936240258
30
0
41
1
10
53.9156049976262
20
-1.11032125591584
30
0
41
1
10
53.988638992263
20
-1.53379347158318
30
0
41
1
10
54.1347069815366
20
-2.38732848240255
30
0
41
1
10
54.2077409761734
20
-2.81737634906608
30
0
41
1
10
54.353808965447
20
-3.6735905250811
30
0
41
1
10
54.4268429600838
20
-4.0997318084649
30
0
41
1
10
54.4998769547205
20
-4.51811467196606
30
0
0
SPLINE
5
EC
100
AcDbEntity
8
1
62
256
6
ByLayer
370
13
48
1
60
0
100
AcDbSpline
70
4
71
3
72
80
73
76
40
0
40
0
40
0
40
0
40
0.0312500000000008
40
0.0312500000000008
40
0.0625000000000016
40
0.0625000000000016
40
0.0937500000000024
40
0.0937500000000024
40
0.125000000000003
40
0.125000000000003
40
0.156250000000004
40
0.156250000000004
40
0.187500000000005
40
0.187500000000005
40
0.218750000000006
40
0.218750000000006
40
0.250000000000007
40
0.250000000000007
40
0.265625000000007
40
0.265625000000007
40
0.269531250000007
40
0.269531250000007
40
0.273437500000007
40
0.281250000000007
40
0.281250000000007
40
0.312500000000006
40
0.312500000000006
40
0.343750000000006
40
0.343750000000006
40
0.375000000000005
40
0.375000000000005
40
0.406250000000005
40
0.406250000000005
40
0.437500000000004
40
0.437500000000004
40
0.468750000000003
40
0.468750000000003
40
0.500000000000003
40
0.500000000000003
40
0.531250000000002
40
0.531250000000002
40
0.562500000000001
40
0.562500000000001
40
0.593750000000001
40
0.593750000000001
40
0.625
40
0.625
40
0.6328125
40
0.6328125
40
0.63671875
40
0.63671875
40
0.640625
40
0.65625
40
0.65625
40
0.6875
40
0.6875
40
0.71875
40
0.71875
40
0.75
40
0.75
40
0.78125
40
0.78125
40
0.8125
40
0.8125
40
0.84375
40
0.84375
40
0.875
40
0.875
40
0.90625
40
0.90625
40
0.9375
40
0.9375
40
0.96875
40
0.96875
40
1
40
1
40
1
40
1
41
1
10
43.6000000000001
20
-4.20175124864352
30
0
41
1
10
43.6775961457122
20
-4.65002465349497
30
0
41
1
10
43.7551922914245
20
-5.09118917032131
30
0
41
1
10
43.9103845828489
20
-5.94505506799973
30
0
41
1
10
43.9879807285611
20
-6.35770848117764
30
0
41
1
10
44.1431730199855
20
-7.14093217935817
30
0
41
1
10
44.2207691656978
20
-7.51145814376179
30
0
41
1
10
44.3759614571222
20
-8.19893927333811
30
0
41
1
10
44.4535576028344
20
-8.51586314514941
30
0
41
1
10
44.6087498942589
20
-9.08795363728535
30
0
41
1
10
44.686346039971
20
-9.34310804364196
30
0
41
1
10
44.8415383313955
20
-9.78744599620978
30
0
41
1
10
44.9191344771077
20
-9.97663719291816
30
0
41
1
10
45.0743267685321
20
-10.2888741856784
30
0
41
1
10
45.1519229142443
20
-10.4119433016738
30
0
41
1
10
45.3071152056687
20
-10.5953158932749
30
0
41
1
10
45.384711351381
20
-10.6556512997733
30
0
41
1
10
45.5011055699493
20
-10.7036375310395
30
0
41
1
10
45.5399036428054
20
-10.7125646947524
30
0
41
1
10
45.5884012338755
20
-10.7154657307567
30
0
41
1
10
45.5981007520896
20
-10.7156341809435
30
0
41
1
10
45.6174997885176
20
-10.7151564828614
30
0
41
1
10
45.6465983431596
20
-10.7132114080514
30
0
41
1
10
45.6756968978018
20
-10.7075123673747
30
0
41
1
10
45.7726920799421
20
-10.6798815892691
30
0
41
1
10
45.8502882256543
20
-10.6300722992809
30
0
41
1
10
46.0054805170787
20
-10.4686600550647
30
0
41
1
10
46.0830766627909
20
-10.3570244338672
30
0
41
1
10
46.2382689542154
20
-10.0680185836094
30
0
41
1
10
46.3158650999275
20
-9.89062295832264
30
0
41
1
10
46.471057391352
20
-9.46956504175444
30
0
41
1
10
46.5486535370641
20
-9.2258919063452
30
0
41
1
10
46.7038458284886
20
-8.67572669607242
30
0
41
1
10
46.7814419742009
20
-8.36924321940302
30
0
41
1
10
46.9366342656252
20
-7.70093382499689
30
0
41
1
10
47.0142304113375
20
-7.33913612925164
30
0
41
1
10
47.1694227027619
20
-6.57114662217606
30
0
41
1
10
47.2470188484741
20
-6.16499745383732
30
0
41
1
10
47.4022111398985
20
-5.3216371199529
30
0
41
1
10
47.4798072856108
20
-4.88447400748876
30
0
41
1
10
47.6349995770353
20
-3.99340395293956
30
0
41
1
10
47.7125957227475
20
-3.53954078972947
30
0
41
1
10
47.8677880141718
20
-2.62896073676154
30
0
41
1
10
47.9453841598841
20
-2.1722760988097
30
0
41
1
10
48.1005764513085
20
-1.26834988056268
30
0
41
1
10
48.1781725970207
20
-0.821125876231605
30
0
41
1
10
48.275167779161
20
-0.27421517891068
30
0
41
1
10
48.294566815589
20
-0.165432727513746
30
0
41
1
10
48.323665370231
20
-0.003255601563211
30
0
41
1
10
48.3333648884451
20
0.0506240764740369
30
0
41
1
10
48.3527639248732
20
0.158934969922512
30
0
41
1
10
48.4012615159434
20
0.430529229744451
30
0
41
1
10
48.4497591070134
20
0.706025920045278
30
0
41
1
10
48.5661533255818
20
1.37301659762966
30
0
41
1
10
48.643749471294
20
1.82548250964214
30
0
41
1
10
48.7989417627184
20
2.73509568698319
30
0
41
1
10
48.8765379084306
20
3.19221923084657
30
0
41
1
10
49.031730199855
20
4.09810601686402
30
0
41
1
10
49.1093263455673
20
4.5468316326743
30
0
41
1
10
49.2645186369917
20
5.42171396332975
30
0
41
1
10
49.3421147827039
20
5.84782406539992
30
0
41
1
10
49.4973070741283
20
6.66338679655644
30
0
41
1
10
49.5749032198406
20
7.0527923859938
30
0
41
1
10
49.730095511265
20
7.78241831064662
30
0
41
1
10
49.8076916569772
20
8.12260100339702
30
0
41
1
10
49.9628839484016
20
8.74412219029873
30
0
41
1
10
50.0404800941139
20
9.02544020418802
30
0
41
1
10
50.1956723855384
20
9.52334038572135
30
0
41
1
10
50.2732685312505
20
9.739922285685
30
0
41
1
10
50.428460822675
20
10.1065437201241
30
0
41
1
10
50.5060569683872
20
10.2566008784896
30
0
41
1
10
50.6612492598116
20
10.4921773895535
30
0
41
1
10
50.7388454055238
20
10.5777260535391
30
0
41
1
10
50.8940376969482
20
10.6893705976565
30
0
41
1
10
50.9716338426605
20
10.7155
30
0
41
1
10
51.0492299883727
20
10.7155
30
0
0
SPLINE
5
ED
100
AcDbEntity
8
1
62
256
6
ByLayer
370
13
48
1
60
0
100
AcDbSpline
70
4
71
3
72
43
73
39
40
0
40
0
40
0
40
0
40
0.0625000000000004
40
0.0625000000000004
40
0.125000000000001
40
0.125000000000001
40
0.187500000000001
40
0.187500000000001
40
0.250000000000002
40
0.250000000000002
40
0.312500000000002
40
0.312500000000002
40
0.375000000000002
40
0.375000000000002
40
0.437500000000003
40
0.437500000000003
40
0.500000000000003
40
0.500000000000003
40
0.562500000000004
40
0.562500000000004
40
0.625000000000004
40
0.625000000000004
40
0.656250000000004
40
0.656250000000004
40
0.671875000000004
40
0.679687500000004
40
0.679687500000004
40
0.687500000000004
40
0.687500000000004
40
0.750000000000003
40
0.750000000000003
40
0.812500000000003
40
0.812500000000003
40
0.875000000000002
40
0.875000000000002
40
0.937500000000001
40
0.937500000000001
40
1
40
1
40
1
40
1
41
1
10
50.5012955676773
20
10.7155
30
0
41
1
10
50.584599346574
20
10.7155
30
0
41
1
10
50.6679031254708
20
10.6853726984441
30
0
41
1
10
50.8345106832642
20
10.556123625298
30
0
41
1
10
50.9178144621609
20
10.456954216948
30
0
41
1
10
51.0844220199544
20
10.1836732610487
30
0
41
1
10
51.1677257988511
20
10.009521778221
30
0
41
1
10
51.3343333566446
20
9.58456886898205
30
0
41
1
10
51.4176371355414
20
9.33374738022655
30
0
41
1
10
51.5842446933348
20
8.75893316264978
30
0
41
1
10
51.6675484722316
20
8.43494928767987
30
0
41
1
10
51.834156030025
20
7.72267303805649
30
0
41
1
10
51.9174598089217
20
7.33441973310286
30
0
41
1
10
52.0840673667152
20
6.50712837319802
30
0
41
1
10
52.167371145612
20
6.06815146281315
30
0
41
1
10
52.3339787034054
20
5.15605425098974
30
0
41
1
10
52.4172824823021
20
4.68300235405789
30
0
41
1
10
52.5838900400956
20
3.72050958852685
30
0
41
1
10
52.6671938189923
20
3.23112877335962
30
0
41
1
10
52.8338013767858
20
2.25286049839551
30
0
41
1
10
52.9171051556825
20
1.76401394678541
30
0
41
1
10
53.0420608240277
20
1.04195934655618
30
0
41
1
10
53.083712713476
20
0.803120998961816
30
0
41
1
10
53.1461905476486
20
0.448756210658644
30
0
41
1
10
53.1774294647348
20
0.272544494731505
30
0
41
1
10
53.2086683818211
20
0.0979762833361804
30
0
41
1
10
53.2294943265453
20
-0.0180180891236148
30
0
41
1
10
53.2399072989075
20
-0.0759159159750595
30
0
41
1
10
53.3336240501663
20
-0.599734331141406
30
0
41
1
10
53.416927829063
20
-1.0774651764049
30
0
41
1
10
53.5835353868565
20
-2.04538181333925
30
0
41
1
10
53.6668391657532
20
-2.53554500081762
30
0
41
1
10
53.8334467235466
20
-3.51335370054011
30
0
41
1
10
53.9167505024434
20
-4.0009541192116
30
0
41
1
10
54.0833580602368
20
-4.95648389552724
30
0
41
1
10
54.1666618391335
20
-5.42435054523835
30
0
41
1
10
54.333269396927
20
-6.32272219667544
30
0
41
1
10
54.4165731758238
20
-6.75315891225966
30
0
41
1
10
54.4998769547205
20
-7.15680980771256
30
0
0
SPLINE
5
EE
100
AcDbEntity
8
1
62
256
6
ByLayer
370
13
48
1
60
0
100
AcDbSpline
70
4
71
3
72
79
73
75
40
0
40
0
40
0
40
0
40
0.0312499999999999
40
0.0312499999999999
40
0.0624999999999999
40
0.0624999999999999
40
0.0937499999999998
40
0.0937499999999998
40
0.125
40
0.125
40
0.15625
40
0.15625
40
0.1875
40
0.1875
40
0.203125
40
0.203125
40
0.2109375
40
0.21484375
40
0.21484375
40
0.21875
40
0.21875
40
0.25
40
0.25
40
0.28125
40
0.28125
40
0.3125
40
0.3125
40
0.34375
40
0.34375
40
0.375
40
0.375
40
0.40625
40
0.40625
40
0.437499999999999
40
0.437499999999999
40
0.468749999999999
40
0.468749999999999
40
0.499999999999999
40
0.499999999999999
40
0.531249999999999
40
0.531249999999999
40
0.562499999999999
40
0.562499999999999
40
0.593749999999999
40
0.593749999999999
40
0.601562499999999
40
0.601562499999999
40
0.609374999999999
40
0.609374999999999
40
0.624999999999999
40
0.624999999999999
40
0.656249999999999
40
0.656249999999999
40
0.687499999999999
40
0.687499999999999
40
0.718749999999999
40
0.718749999999999
40
0.749999999999999
40
0.749999999999999
40
0.781249999999999
40
0.781249999999999
40
0.8125
40
0.8125
40
0.84375
40
0.84375
40
0.875
40
0.875
40
0.90625
40
0.90625
40
0.9375
40
0.9375
40
0.96875
40
0.96875
40
1
40
1
40
1
40
1
41
1
10
43.6000000000001
20
-6.88658479274673
30
0
41
1
10
43.6724612535823
20
-7.24759425759777
30
0
41
1
10
43.7449225071645
20
-7.58958251141226
30
0
41
1
10
43.889845014329
20
-8.22642479373465
30
0
41
1
10
43.9623062679113
20
-8.52125719490991
30
0
41
1
10
44.1072287750757
20
-9.05718265857874
30
0
41
1
10
44.1796900286579
20
-9.29826683030601
30
0
41
1
10
44.3246125358225
20
-9.72310807826287
30
0
41
1
10
44.3970737894047
20
-9.90686953366657
30
0
41
1
10
44.5419962965692
20
-10.2165616210321
30
0
41
1
10
44.6144575501514
20
-10.3425074936738
30
0
41
1
10
44.7593800573159
20
-10.5388426716882
30
0
41
1
10
44.8318413108982
20
-10.609253834716
30
0
41
1
10
44.9405331912715
20
-10.6765618136429
30
0
41
1
10
44.9767638180626
20
-10.6926280629037
30
0
41
1
10
45.0311097582493
20
-10.7077013240235
30
0
41
1
10
45.0582827283426
20
-10.7129824163537
30
0
41
1
10
45.0854556984361
20
-10.7149871865973
30
0
41
1
10
45.1035710118316
20
-10.7156079762821
30
0
41
1
10
45.1126286685293
20
-10.7155622160067
30
0
41
1
10
45.1941475788093
20
-10.7119342269569
30
0
41
1
10
45.2666088323916
20
-10.6857055858025
30
0
41
1
10
45.4115313395561
20
-10.5814776941106
30
0
41
1
10
45.4839925931383
20
-10.503454610727
30
0
41
1
10
45.6289151003028
20
-10.2914243445137
30
0
41
1
10
45.7013763538851
20
-10.1573959516935
30
0
41
1
10
45.8462988610495
20
-9.83142839584156
30
0
41
1
10
45.9187601146317
20
-9.63947529494365
30
0
41
1
10
46.0636826217963
20
-9.19856392956063
30
0
41
1
10
46.1361438753785
20
-8.94960307258296
30
0
41
1
10
46.281066382543
20
-8.39867657305032
30
0
41
1
10
46.3535276361252
20
-8.09672172672543
30
0
41
1
10
46.4984501432897
20
-7.44678465344313
30
0
41
1
10
46.5709113968719
20
-7.09882562398141
30
0
41
1
10
46.7158339040364
20
-6.36631770308821
30
0
41
1
10
46.7882951576186
20
-5.9818004131495
30
0
41
1
10
46.9332176647832
20
-5.18723353579753
30
0
41
1
10
47.0056789183654
20
-4.77721809389652
30
0
41
1
10
47.1506014255299
20
-3.94332254820699
30
0
41
1
10
47.2230626791122
20
-3.51947319933959
30
0
41
1
10
47.3679851862766
20
-2.66919175042591
30
0
41
1
10
47.4404464398589
20
-2.24278263895246
30
0
41
1
10
47.5853689470234
20
-1.39745670140607
30
0
41
1
10
47.6578302006056
20
-0.978553130235014
30
0
41
1
10
47.7484067675834
20
-0.464805845523785
30
0
41
1
10
47.7665220809789
20
-0.362545785161757
30
0
41
1
10
47.80275270777
20
-0.159114812872474
30
0
41
1
10
47.8208680211657
20
-0.0582058342033349
30
0
41
1
10
47.8752139613524
20
0.244516417462108
30
0
41
1
10
47.9114445881435
20
0.4486621437878
30
0
41
1
10
48.0201364685168
20
1.06678842304481
30
0
41
1
10
48.0925977220991
20
1.48651701079319
30
0
41
1
10
48.2375202292635
20
2.33283607769135
30
0
41
1
10
48.3099814828458
20
2.75941260247004
30
0
41
1
10
48.4549039900103
20
3.60926517832786
30
0
41
1
10
48.5273652435925
20
4.03251759836732
30
0
41
1
10
48.672287750757
20
4.86439818516331
30
0
41
1
10
48.7447490043392
20
5.27299518881247
30
0
41
1
10
48.8896715115037
20
6.06391253569254
30
0
41
1
10
48.9621327650859
20
6.44619870869141
30
0
41
1
10
49.1070552722504
20
7.17351304752322
30
0
41
1
10
49.1795165258327
20
7.51851002519439
30
0
41
1
10
49.3244390329972
20
8.16194007412298
30
0
41
1
10
49.3969002865794
20
8.46035072323647
30
0
41
1
10
49.5418227937438
20
9.00380320306985
30
0
41
1
10
49.6142840473261
20
9.24883518841526
30
0
41
1
10
49.7592065544906
20
9.68172265285003
30
0
41
1
10
49.8316678080729
20
9.86958162356109
30
0
41
1
10
49.9765903152373
20
10.1874077718464
30
0
41
1
10
50.0490515688196
20
10.3173895493844
30
0
41
1
10
50.1939740759841
20
10.5215559262691
30
0
41
1
10
50.2664353295663
20
10.5957620712542
30
0
41
1
10
50.4113578367308
20
10.6927221808657
30
0
41
1
10
50.483819090313
20
10.7155
30
0
41
1
10
50.5562803438953
20
10.7155
30
0
0
SPLINE
5
EF
100
AcDbEntity
8
1
62
256
6
ByLayer
370
13
48
1
60
0
100
AcDbSpline
70
4
71
3
72
44
73
40
40
0
40
0
40
0
40
0
40
0.0624999999999998
40
0.0624999999999998
40
0.125
40
0.125
40
0.187499999999999
40
0.187499999999999
40
0.249999999999999
40
0.249999999999999
40
0.312499999999999
40
0.312499999999999
40
0.374999999999999
40
0.374999999999999
40
0.437499999999998
40
0.437499999999998
40
0.499999999999998
40
0.499999999999998
40
0.562499999999998
40
0.562499999999998
40
0.593749999999998
40
0.593749999999998
40
0.601562499999998
40
0.601562499999998
40
0.609374999999998
40
0.609374999999998
40
0.624999999999998
40
0.624999999999998
40
0.687499999999998
40
0.687499999999998
40
0.749999999999999
40
0.749999999999999
40
0.812499999999999
40
0.812499999999999
40
0.874999999999999
40
0.874999999999999
40
0.9375
40
0.9375
40
1
40
1
40
1
40
1
41
1
10
50.0083459231999
20
10.7155
30
0
41
1
10
50.1019194863566
20
10.7155
30
0
41
1
10
50.1954930495132
20
10.6774539685771
30
0
41
1
10
50.3826401758266
20
10.5130895440528
30
0
41
1
10
50.4762137389833
20
10.386686763612
30
0
41
1
10
50.6633608652967
20
10.0381324681913
30
0
41
1
10
50.7569344284533
20
9.81591661024251
30
0
41
1
10
50.9440815547666
20
9.27545711118626
30
0
41
1
10
51.0376551179234
20
8.95719557754475
30
0
41
1
10
51.2248022442367
20
8.2328940329835
30
0
41
1
10
51.3183758073934
20
7.82689720455417
30
0
41
1
10
51.5055229337067
20
6.94356145403782
30
0
41
1
10
51.5990964968634
20
6.46631911603794
30
0
41
1
10
51.7862436231768
20
5.46296585695998
30
0
41
1
10
51.8798171863334
20
4.93697634968066
30
0
41
1
10
52.0669643126468
20
3.86124390402247
30
0
41
1
10
52.1605378758035
20
3.31161155222912
30
0
41
1
10
52.3476850021169
20
2.21273417924181
30
0
41
1
10
52.4412585652736
20
1.66356278088247
30
0
41
1
10
52.5816189100086
20
0.855333954705941
30
0
41
1
10
52.6284056915869
20
0.588475741961872
30
0
41
1
10
52.6868891685598
20
0.259364827122226
30
0
41
1
10
52.6985858639544
20
0.193764889566438
30
0
41
1
10
52.7219792547436
20
0.0630379079763372
30
0
41
1
10
52.7336759501382
20
-0.0019257481539796
30
0
41
1
10
52.7687660363219
20
-0.197568562439841
30
0
41
1
10
52.7921594271111
20
-0.328960781856864
30
0
41
1
10
52.909126381057
20
-0.990167058075684
30
0
41
1
10
53.0026999442136
20
-1.53292503856588
30
0
41
1
10
53.189847070527
20
-2.62793542767517
30
0
41
1
10
53.2834206336836
20
-3.18013293323614
30
0
41
1
10
53.4705677599971
20
-4.27127316940926
30
0
41
1
10
53.5641413231537
20
-4.81011841834606
30
0
41
1
10
53.7512884494671
20
-5.849476017039
30
0
41
1
10
53.8448620126238
20
-6.34986732854489
30
0
41
1
10
54.0320091389372
20
-7.28827997613985
30
0
41
1
10
54.1255827020938
20
-7.7261901703709
30
0
41
1
10
54.3127298284071
20
-8.52026529769194
30
0
41
1
10
54.4063033915638
20
-8.87636261575102
30
0
41
1
10
54.4998769547205
20
-9.185631929463
30
0
0
SPLINE
5
F0
100
AcDbEntity
8
1
62
256
6
ByLayer
370
13
48
1
60
0
100
AcDbSpline
70
4
71
3
72
75
73
71
40
0
40
0
40
0
40
0
40
0.0312500000000001
40
0.0312500000000001
40
0.0625000000000002
40
0.0625000000000002
40
0.0937500000000004
40
0.0937500000000004
40
0.125000000000001
40
0.125000000000001
40
0.156250000000001
40
0.156250000000001
40
0.164062500000001
40
0.164062500000001
40
0.171875000000001
40
0.187500000000001
40
0.187500000000001
40
0.218750000000001
40
0.218750000000001
40
0.250000000000001
40
0.250000000000001
40
0.281250000000001
40
0.281250000000001
40
0.312500000000001
40
0.312500000000001
40
0.34375
40
0.34375
40
0.375
40
0.375
40
0.40625
40
0.40625
40
0.4375
40
0.4375
40
0.46875
40
0.46875
40
0.5
40
0.5
40
0.53125
40
0.53125
40
0.5625
40
0.5625
40
0.578125
40
0.578125
40
0.59375
40
0.59375
40
0.625
40
0.625
40
0.65625
40
0.65625
40
0.6875
40
0.6875
40
0.71875
40
0.71875
40
0.75
40
0.75
40
0.78125
40
0.78125
40
0.8125
40
0.8125
40
0.84375
40
0.84375
40
0.875
40
0.875
40
0.90625
40
0.90625
40
0.9375
40
0.9375
40
0.96875
40
0.96875
40
1
40
1
40
1
40
1
41
1
10
43.6000000000001
20
-8.99858252230291
30
0
41
1
10
43.6673263614523
20
-9.23409102412825
30
0
41
1
10
43.7346527229046
20
-9.44586728418452
30
0
41
1
10
43.8693054458091
20
-9.81966834100157
30
0
41
1
10
43.9366318072614
20
-9.9816978494847
30
0
41
1
10
44.071284530166
20
-10.2559845865353
30
0
41
1
10
44.1386108916182
20
-10.3682531428855
30
0
41
1
10
44.2732636145227
20
-10.5450220527686
30
0
41
1
10
44.340589975975
20
-10.6095377203595
30
0
41
1
10
44.4752426988795
20
-10.6944194739724
30
0
41
1
10
44.5425690603318
20
-10.7148020980733
30
0
41
1
10
44.6267270121472
20
-10.7156524021918
30
0
41
1
10
44.6435586025102
20
-10.7145979027783
30
0
41
1
10
44.6772217832364
20
-10.7099632064347
30
0
41
1
10
44.7277165543256
20
-10.6992224819802
30
0
41
1
10
44.7782113254148
20
-10.6767673472178
30
0
41
1
10
44.8792008675931
20
-10.6153895423608
30
0
41
1
10
44.9465272290454
20
-10.5524703971317
30
0
41
1
10
45.0811799519499
20
-10.3789957099683
30
0
41
1
10
45.1485063134023
20
-10.2684247667458
30
0
41
1
10
45.2831590363067
20
-9.99757117566139
30
0
41
1
10
45.350485397759
20
-9.83727701516244
30
0
41
1
10
45.4851381206635
20
-9.46690931095941
30
0
41
1
10
45.5524644821158
20
-9.25683079015394
30
0
41
1
10
45.6871172050203
20
-8.7890915011391
30
0
41
1
10
45.7544435664727
20
-8.53143406934157
30
0
41
1
10
45.8890962893772
20
-7.97302921741769
30
0
41
1
10
45.9564226508295
20
-7.67229370156764
30
0
41
1
10
46.091075373734
20
-7.03429073352709
30
0
41
1
10
46.1584017351863
20
-6.69704223209175
30
0
41
1
10
46.2930544580909
20
-5.99416670897347
30
0
41
1
10
46.3603808195431
20
-5.62856269812522
30
0
41
1
10
46.4950335424476
20
-4.87808278387942
30
0
41
1
10
46.5623599038999
20
-4.4932302857919
30
0
41
1
10
46.6970126268044
20
-3.71360252590381
30
0
41
1
10
46.7643389882566
20
-3.31884767426405
30
0
41
1
10
46.8989917111612
20
-2.52833708314213
30
0
41
1
10
46.9663180726135
20
-2.13259640819447
30
0
41
1
10
47.1009707955181
20
-1.34806873164163
30
0
41
1
10
47.1682971569703
20
-0.959290475245581
30
0
41
1
10
47.2692866991488
20
-0.386309050278498
30
0
41
1
10
47.3029498798749
20
-0.197001760355391
30
0
41
1
10
47.3702762413271
20
0.177551823501858
30
0
41
1
10
47.4039394220533
20
0.366592384172236
30
0
41
1
10
47.5049289642317
20
0.939222927067021
30
0
41
1
10
47.5722553256839
20
1.32781815598361
30
0
41
1
10
47.7069080485885
20
2.11210634252277
30
0
41
1
10
47.7742344100408
20
2.5077906649226
30
0
41
1
10
47.9088871329453
20
3.29833559607903
30
0
41
1
10
47.9762134943975
20
3.69318124546578
30
0
41
1
10
48.1108662173021
20
4.47315032898646
30
0
41
1
10
48.1781925787543
20
4.85825342927919
30
0
41
1
10
48.3128453016589
20
5.60939634397892
30
0
41
1
10
48.3801716631112
20
5.97541277820605
30
0
41
1
10
48.5148243860157
20
6.67926479404298
30
0
41
1
10
48.582150747468
20
7.01707732625064
30
0
41
1
10
48.7168034703725
20
7.65633780004586
30
0
41
1
10
48.7841298318247
20
7.95776669189601
30
0
41
1
10
48.9187825547293
20
8.51765557942974
30
0
41
1
10
48.9861089161816
20
8.77610353089909
30
0
41
1
10
49.1207616390861
20
9.24548269663276
30
0
41
1
10
49.1880880005384
20
9.4564104232488
30
0
41
1
10
49.3227407234429
20
9.8284951328705
30
0
41
1
10
49.3900670848952
20
9.9896569605599
30
0
41
1
10
49.5247198077998
20
10.2622268064301
30
0
41
1
10
49.592046169252
20
10.3736462452262
30
0
41
1
10
49.7266988921566
20
10.5487671800672
30
0
41
1
10
49.7940252536089
20
10.6124840342064
30
0
41
1
10
49.9286779765134
20
10.6958421756123
30
0
41
1
10
49.9960043379656
20
10.7155
30
0
41
1
10
50.0633306994179
20
10.7155
30
0
0
SPLINE
5
F1
100
AcDbEntity
8
1
62
256
6
ByLayer
370
13
48
1
60
0
100
AcDbSpline
70
4
71
3
72
56
73
52
40
0
40
0
40
0
40
0
40
0.0624999999999996
40
0.0624999999999996
40
0.124999999999999
40
0.124999999999999
40
0.187499999999999
40
0.187499999999999
40
0.218749999999999
40
0.218749999999999
40
0.249999999999998
40
0.249999999999998
40
0.281249999999998
40
0.281249999999998
40
0.312499999999998
40
0.312499999999998
40
0.343749999999998
40
0.343749999999998
40
0.374999999999998
40
0.374999999999998
40
0.437499999999997
40
0.437499999999997
40
0.499999999999997
40
0.499999999999997
40
0.531249999999997
40
0.531249999999997
40
0.546874999999997
40
0.546874999999997
40
0.562499999999997
40
0.562499999999997
40
0.624999999999997
40
0.624999999999997
40
0.687499999999997
40
0.687499999999997
40
0.718749999999997
40
0.718749999999997
40
0.749999999999998
40
0.749999999999998
40
0.781249999999998
40
0.781249999999998
40
0.812499999999998
40
0.812499999999998
40
0.843749999999999
40
0.843749999999999
40
0.874999999999999
40
0.874999999999999
40
0.906249999999999
40
0.906249999999999
40
0.9375
40
0.9375
40
1
40
1
40
1
40
1
41
1
10
49.5153962787225
20
10.7155
30
0
41
1
10
49.6192396261391
20
10.7155
30
0
41
1
10
49.7230829735558
20
10.6685977064753
30
0
41
1
10
49.930769668389
20
10.4646369755415
30
0
41
1
10
50.0346130158056
20
10.3074384421105
30
0
41
1
10
50.2422997106389
20
9.87405427875066
30
0
41
1
10
50.3461430580556
20
9.59777450717934
30
0
41
1
10
50.5019080791805
20
9.09612933202993
30
0
41
1
10
50.5538297528887
20
8.91447607488499
30
0
41
1
10
50.6576731003053
20
8.52386578902426
30
0
41
1
10
50.7095947740137
20
8.31491066383683
30
0
41
1
10
50.8134381214303
20
7.87205878331679
30
0
41
1
10
50.8653597951386
20
7.63816568996836
30
0
41
1
10
50.9692031425552
20
7.14850538392236
30
0
41
1
10
51.0211248162636
20
6.89274329011488
30
0
41
1
10
51.1249681636802
20
6.36298476759214
30
0
41
1
10
51.1768898373885
20
6.08899443101029
30
0
41
1
10
51.2807331848051
20
5.52682128177142
30
0
41
1
10
51.3326548585135
20
5.23864494581582
30
0
41
1
10
51.4884198796384
20
4.3592067886585
30
0
41
1
10
51.592263227055
20
3.75313509364295
30
0
41
1
10
51.7999499218883
20
2.53492732926909
30
0
41
1
10
51.9037932693049
20
1.92293174281099
30
0
41
1
10
52.0595582904299
20
1.02209882001702
30
0
41
1
10
52.1114799641381
20
0.724629449548985
30
0
41
1
10
52.1893624747006
20
0.28479150676543
30
0
41
1
10
52.2153233115548
20
0.139291841701748
30
0
41
1
10
52.2672449852631
20
-0.149510168530753
30
0
41
1
10
52.2932058221172
20
-0.295119408973108
30
0
41
1
10
52.423010006388
20
-1.02843120563171
30
0
41
1
10
52.5268533538046
20
-1.63224449730743
30
0
41
1
10
52.7345400486378
20
-2.84917593362715
30
0
41
1
10
52.8383833960545
20
-3.4621941987009
30
0
41
1
10
52.9941484171795
20
-4.36482387703208
30
0
41
1
10
53.0460700908878
20
-4.66284125648315
30
0
41
1
10
53.1499134383044
20
-5.24889847774534
30
0
41
1
10
53.2018351120127
20
-5.53693205155517
30
0
41
1
10
53.3056784594293
20
-6.09877038488014
30
0
41
1
10
53.3576001331376
20
-6.37256866866511
30
0
41
1
10
53.4614434805543
20
-6.90189743260754
30
0
41
1
10
53.5133651542626
20
-7.1574218287968
30
0
41
1
10
53.6172085016792
20
-7.64656688989453
30
0
41
1
10
53.6691301753875
20
-7.88018245057222
30
0
41
1
10
53.7729735228041
20
-8.32244703774117
30
0
41
1
10
53.8248951965125
20
-8.53109242164737
30
0
41
1
10
53.928738543929
20
-8.92105991844005
30
0
41
1
10
53.9806602176374
20
-9.1023801494598
30
0
41
1
10
54.0845035650541
20
-9.43613050271935
30
0
41
1
10
54.1364252387623
20
-9.5885605793768
30
0
41
1
10
54.2921902598872
20
-10.001393719042
30
0
41
1
10
54.3960336073039
20
-10.2169832439573
30
0
41
1
10
54.4998769547205
20
-10.3745698573501
30
0
0
SPLINE
5
F2
100
AcDbEntity
8
1
62
256
6
ByLayer
370
13
48
1
60
0
100
AcDbSpline
70
4
71
3
72
78
73
74
40
0
40
0
40
0
40
0
40
0.03125
40
0.03125
40
0.0625
40
0.0625
40
0.078125
40
0.078125
40
0.0859375
40
0.0859375
40
0.09375
40
0.09375
40
0.125
40
0.125
40
0.15625
40
0.15625
40
0.1875
40
0.1875
40
0.21875
40
0.21875
40
0.25
40
0.25
40
0.28125
40
0.28125
40
0.3125
40
0.3125
40
0.34375
40
0.34375
40
0.375
40
0.375
40
0.40625
40
0.40625
40
0.4375
40
0.4375
40
0.468749999999999
40
0.468749999999999
40
0.499999999999999
40
0.499999999999999
40
0.531249999999999
40
0.531249999999999
40
0.539062499999999
40
0.539062499999999
40
0.546874999999999
40
0.546874999999999
40
0.562499999999999
40
0.562499999999999
40
0.593749999999999
40
0.593749999999999
40
0.624999999999999
40
0.624999999999999
40
0.656249999999999
40
0.656249999999999
40
0.687499999999999
40
0.687499999999999
40
0.718749999999999
40
0.718749999999999
40
0.749999999999999
40
0.749999999999999
40
0.781249999999999
40
0.781249999999999
40
0.812499999999999
40
0.812499999999999
40
0.84375
40
0.84375
40
0.875
40
0.875
40
0.90625
40
0.90625
40
0.9375
40
0.9375
40
0.96875
40
0.96875
40
1
40
1
40
1
40
1
41
1
10
43.6000000000001
20
-10.2857284029647
30
0
41
1
10
43.6621914693224
20
-10.3923458440665
30
0
41
1
10
43.7243829386447
20
-10.478027686937
30
0
41
1
10
43.8487658772892
20
-10.6096362003593
30
0
41
1
10
43.9109573466116
20
-10.6555736883098
30
0
41
1
10
44.004244550595
20
-10.6970508171838
30
0
41
1
10
44.0353402852561
20
-10.7063121537585
30
0
41
1
10
44.0819838872478
20
-10.7137077019323
30
0
41
1
10
44.0975317545784
20
-10.715090457715
30
0
41
1
10
44.1286274892396
20
-10.7157528276009
30
0
41
1
10
44.1441753565701
20
-10.7150394942577
30
0
41
1
10
44.221914693223
20
-10.7061154811481
30
0
41
1
10
44.2841061625453
20
-10.6817856310166
30
0
41
1
10
44.4084891011899
20
-10.5951292008032
30
0
41
1
10
44.4706805705123
20
-10.5327914923268
30
0
41
1
10
44.5950635091568
20
-10.3673362126649
30
0
41
1
10
44.6572549784791
20
-10.2642083717515
30
0
41
1
10
44.7816379171237
20
-10.0155698898867
30
0
41
1
10
44.8438293864459
20
-9.87005143293032
30
0
41
1
10
44.9682123250906
20
-9.53648659796283
30
0
41
1
10
45.0304037944129
20
-9.3484363899959
30
0
41
1
10
45.1547867330575
20
-8.93130117211538
30
0
41
1
10
45.2169782023798
20
-8.70221741117251
30
0
41
1
10
45.3413611410243
20
-8.20618880603661
30
0
41
1
10
45.4035526103466
20
-7.93925060627427
30
0
41
1
10
45.5279355489912
20
-7.37224939177196
30
0
41
1
10
45.5901270183135
20
-7.07219778866312
30
0
41
1
10
45.7145099569582
20
-6.44499436740023
30
0
41
1
10
45.7767014262804
20
-6.11785723871185
30
0
41
1
10
45.901084364925
20
-5.44339766184376
30
0
41
1
10
45.9632758342473
20
-5.0960911567889
30
0
41
1
10
46.0876587728919
20
-4.38863033283019
30
0
41
1
10
46.1498502422141
20
-4.02849111428435
30
0
41
1
10
46.2742331808587
20
-3.3026513089529
30
0
41
1
10
46.3364246501811
20
-2.93696325434985
30
0
41
1
10
46.4608075888257
20
-2.2068404663618
30
0
41
1
10
46.522999058148
20
-1.84241463298653
30
0
41
1
10
46.6473819967926
20
-1.12083428145036
30
0
41
1
10
46.7095734661148
20
-0.76368470726652
30
0
41
1
10
46.7873128027677
20
-0.324925462292072
30
0
41
1
10
46.8028606700983
20
-0.237554890176739
30
0
41
1
10
46.8339564047595
20
-0.0636439066811931
30
0
41
1
10
46.84950427209
20
0.0226276082598247
30
0
41
1
10
46.8961478740817
20
0.283098678391525
30
0
41
1
10
46.9272436087429
20
0.458429082556279
30
0
41
1
10
47.0205308127263
20
0.9886404903543
30
0
41
1
10
47.0827222820487
20
1.34777408689743
30
0
41
1
10
47.2071052206933
20
2.07213546949927
30
0
41
1
10
47.2692966900156
20
2.43735748592457
30
0
41
1
10
47.3936796286601
20
3.16769652869658
30
0
41
1
10
47.4558710979824
20
3.53280383917396
30
0
41
1
10
47.5802540366271
20
4.25597571873664
30
0
41
1
10
47.6424455059493
20
4.61402710172658
30
0
41
1
10
47.7668284445939
20
5.3157569226338
30
0
41
1
10
47.8290199139162
20
5.65941992124931
30
0
41
1
10
47.9534028525608
20
6.32508515879709
30
0
41
1
10
48.0155943218831
20
6.64707153947586
30
0
41
1
10
48.1399772605277
20
7.26261521266002
30
0
41
1
10
48.20216872985
20
7.55615834902449
30
0
41
1
10
48.3265516684946
20
8.1090252479365
30
0
41
1
10
48.3887431378169
20
8.36833850412791
30
0
41
1
10
48.5131260764615
20
8.84831053226711
30
0
41
1
10
48.5753175457837
20
9.06896377573352
30
0
41
1
10
48.6997004844283
20
9.46878077327455
30
0
41
1
10
48.7618919537506
20
9.64794440402315
30
0
41
1
10
48.8862748923952
20
9.96363279832619
30
0
41
1
10
48.9484663617176
20
10.100162342335
30
0
41
1
10
49.0728493003622
20
10.3310461842448
30
0
41
1
10
49.1350407696844
20
10.425408949648
30
0
41
1
10
49.259423708329
20
10.5738318686651
30
0
41
1
10
49.3216151776514
20
10.6279026010423
30
0
41
1
10
49.4459981162959
20
10.6987311045239
30
0
41
1
10
49.5081895856182
20
10.7155
30
0
41
1
10
49.5703810549405
20
10.7155
30
0
0
SPLINE
5
F3
100
AcDbEntity
8
1
62
256
6
ByLayer
370
13
48
1
60
0
100
AcDbSpline
70
4
71
3
72
78
73
74
40
0
40
0
40
0
40
0
40
0.03125
40
0.03125
40
0.0625
40
0.0625
40
0.0937500000000001
40
0.0937500000000001
40
0.125
40
0.125
40
0.15625
40
0.15625
40
0.1875
40
0.1875
40
0.21875
40
0.21875
40
0.25
40
0.25
40
0.28125
40
0.28125
40
0.312500000000001
40
0.312500000000001
40
0.343750000000001
40
0.343750000000001
40
0.375000000000001
40
0.375000000000001
40
0.406250000000001
40
0.406250000000001
40
0.437500000000001
40
0.437500000000001
40
0.468750000000001
40
0.468750000000001
40
0.484375000000001
40
0.484375000000001
40
0.492187500000001
40
0.492187500000001
40
0.500000000000001
40
0.500000000000001
40
0.531250000000001
40
0.531250000000001
40
0.562500000000001
40
0.562500000000001
40
0.593750000000001
40
0.593750000000001
40
0.625000000000001
40
0.625000000000001
40
0.65625
40
0.65625
40
0.6875
40
0.6875
40
0.71875
40
0.71875
40
0.75
40
0.75
40
0.78125
40
0.78125
40
0.8125
40
0.8125
40
0.84375
40
0.84375
40
0.875
40
0.875
40
0.90625
40
0.90625
40
0.9375
40
0.9375
40
0.96875
40
0.96875
40
0.984375
40
0.984375
40
0.9921875
40
0.9921875
40
1
40
1
40
1
40
1
41
1
10
49.0224466342451
20
10.7155
30
0
41
1
10
49.0795032000834
20
10.7155
30
0
41
1
10
49.1365597659217
20
10.7013894412271
30
0
41
1
10
49.2506728975983
20
10.642028741214
30
0
41
1
10
49.3077294634365
20
10.5967713749187
30
0
41
1
10
49.4218425951131
20
10.4727203374843
30
0
41
1
10
49.4788991609514
20
10.3939196576759
30
0
41
1
10
49.5930122926279
20
10.2011369047249
30
0
41
1
10
49.6500688584662
20
10.0871488813079
30
0
41
1
10
49.7641819901428
20
9.82329577039556
30
0
41
1
10
49.8212385559811
20
9.67342667344377
30
0
41
1
10
49.9353516876577
20
9.33821796978268
30
0
41
1
10
49.9924082534959
20
9.15287705266516
30
0
41
1
10
50.1065213851725
20
8.74831603621698
30
0
41
1
10
50.1635779510109
20
8.52909778495052
30
0
41
1
10
50.2776910826874
20
8.05955155887943
30
0
41
1
10
50.3347476485257
20
7.80922861687685
30
0
41
1
10
50.4488607802023
20
7.2813170238324
30
0
41
1
10
50.5059173460405
20
7.00373613663757
30
0
41
1
10
50.6200304777171
20
6.42603304752188
30
0
41
1
10
50.6770870435553
20
6.12592047152236
30
0
41
1
10
50.7912001752319
20
5.50849420319619
30
0
41
1
10
50.8482567410702
20
5.1911908783942
30
0
41
1
10
50.9623698727468
20
4.54503469684491
30
0
41
1
10
51.0194264385852
20
4.21619179403106
30
0
41
1
10
51.1335395702617
20
3.55261016690071
30
0
41
1
10
51.1905961360999
20
3.21788000087534
30
0
41
1
10
51.3047092677765
20
2.54789841254586
30
0
41
1
10
51.3617658336148
20
2.2126534893672
30
0
41
1
10
51.4758789652914
20
1.54650969645604
30
0
41
1
10
51.5329355311297
20
1.21561497756679
30
0
41
1
10
51.6185203798871
20
0.725682083197938
30
0
41
1
10
51.6470486628062
20
0.563433725082632
30
0
41
1
10
51.689841087185
20
0.321995603421328
30
0
41
1
10
51.7041052286445
20
0.241838257226789
30
0
41
1
10
51.7326335115636
20
0.0822198341292619
30
0
41
1
10
51.7468976530233
20
0.0030016507729158
30
0
41
1
10
51.8182183603211
20
-0.394784008159775
30
0
41
1
10
51.8752749261594
20
-0.718756348425785
30
0
41
1
10
51.989388057836
20
-1.37462608386173
30
0
41
1
10
52.0464446236742
20
-1.7065212681407
30
0
41
1
10
52.1605577553508
20
-2.37392669464256
30
0
41
1
10
52.2176143211891
20
-2.70943240446451
30
0
41
1
10
52.3317274528657
20
-3.37910207669159
30
0
41
1
10
52.3887840187039
20
-3.71325917995207
30
0
41
1
10
52.5028971503805
20
-4.37479919965861
30
0
41
1
10
52.5599537162188
20
-4.70217327946747
30
0
41
1
10
52.6740668478954
20
-5.3444763545383
30
0
41
1
10
52.7311234137336
20
-5.65939525655705
30
0
41
1
10
52.8452365454102
20
-6.27116573274458
30
0
41
1
10
52.9022931112485
20
-6.56800697884327
30
0
41
1
10
53.0164062429251
20
-7.13835909622676
30
0
41
1
10
53.0734628087634
20
-7.41186056921919
30
0
41
1
10
53.1875759404399
20
-7.93092977373701
30
0
41
1
10
53.2446325062783
20
-8.17649013077457
30
0
41
1
10
53.3587456379548
20
-8.63598910332774
30
0
41
1
10
53.4158022037931
20
-8.84992317929607
30
0
41
1
10
53.5299153354696
20
-9.24357847305799
30
0
41
1
10
53.5869719013079
20
-9.42329836425063
30
0
41
1
10
53.7010850329845
20
-9.74712006586236
30
0
41
1
10
53.7581415988228
20
-9.89122366089953
30
0
41
1
10
53.8722547304994
20
-10.1435857296048
30
0
41
1
10
53.9293112963377
20
-10.2518485809535
30
0
41
1
10
54.0434244280142
20
-10.4333855095733
30
0
41
1
10
54.1004809938525
20
-10.5066657673384
30
0
41
1
10
54.2145941255291
20
-10.6200156107797
30
0
41
1
10
54.2716506913674
20
-10.6600922936105
30
0
41
1
10
54.3572355401248
20
-10.6971722300522
30
0
41
1
10
54.3857638230439
20
-10.705697960921
30
0
41
1
10
54.4285562474227
20
-10.7130054973825
30
0
41
1
10
54.4428203888822
20
-10.7145280563418
30
0
41
1
10
54.4713486718014
20
-10.7157940557906
30
0
41
1
10
54.485612813261
20
-10.7155446760768
30
0
41
1
10
54.4998769547205
20
-10.7144029026691
30
0
0
SPLINE
5
F4
100
AcDbEntity
8
1
62
256
6
ByLayer
370
13
48
1
60
0
100
AcDbSpline
70
4
71
3
72
76
73
72
40
0
40
0
40
0
40
0
40
0.0078125
40
0.0078125
40
0.0156250000000001
40
0.0312500000000004
40
0.0312500000000004
40
0.0625000000000009
40
0.0625000000000009
40
0.0937500000000015
40
0.0937500000000015
40
0.125000000000002
40
0.125000000000002
40
0.156250000000003
40
0.156250000000003
40
0.187500000000003
40
0.187500000000003
40
0.218750000000004
40
0.218750000000004
40
0.250000000000004
40
0.250000000000004
40
0.281250000000005
40
0.281250000000005
40
0.312500000000005
40
0.312500000000005
40
0.343750000000006
40
0.343750000000006
40
0.375000000000007
40
0.375000000000007
40
0.406250000000007
40
0.406250000000007
40
0.437500000000008
40
0.437500000000008
40
0.468750000000008
40
0.468750000000008
40
0.500000000000009
40
0.500000000000009
40
0.507812500000009
40
0.507812500000009
40
0.515625000000009
40
0.531250000000008
40
0.531250000000008
40
0.562500000000008
40
0.562500000000008
40
0.593750000000007
40
0.593750000000007
40
0.625000000000007
40
0.625000000000007
40
0.656250000000006
40
0.656250000000006
40
0.687500000000005
40
0.687500000000005
40
0.718750000000005
40
0.718750000000005
40
0.750000000000004
40
0.750000000000004
40
0.781250000000004
40
0.781250000000004
40
0.812500000000003
40
0.812500000000003
40
0.843750000000003
40
0.843750000000003
40
0.875000000000002
40
0.875000000000002
40
0.906250000000002
40
0.906250000000002
40
0.937500000000001
40
0.937500000000001
40
0.968750000000001
40
0.968750000000001
40
1
40
1
40
1
40
1
41
1
10
43.6000000000001
20
-10.7144028154193
30
0
41
1
10
43.6142641442981
20
-10.7155446347161
30
0
41
1
10
43.6285282885962
20
-10.7157940589475
30
0
41
1
10
43.6570565771924
20
-10.7145281491664
30
0
41
1
10
43.6998490100866
20
-10.7099610544445
30
0
41
1
10
43.7426414429809
20
-10.6971725954108
30
0
41
1
10
43.8282263087694
20
-10.6600929353383
30
0
41
1
10
43.8852828859617
20
-10.6200164392194
30
0
41
1
10
43.9993960403463
20
-10.5066669689518
30
0
41
1
10
44.0564526175387
20
-10.4333868976385
30
0
41
1
10
44.1705657719234
20
-10.2518503357732
30
0
41
1
10
44.2276223491156
20
-10.1435876647131
30
0
41
1
10
44.3417355035003
20
-9.89122594419112
30
0
41
1
10
44.3987920806926
20
-9.74712251703198
30
0
41
1
10
44.5129052350772
20
-9.42330113265959
30
0
41
1
10
44.5699618122695
20
-9.24358139081087
30
0
41
1
10
44.6840749666542
20
-8.84992637174048
30
0
41
1
10
44.7411315438465
20
-8.63599242110431
30
0
41
1
10
44.8552446982312
20
-8.17649367088598
30
0
41
1
10
44.9123012754235
20
-7.93093341084017
30
0
41
1
10
45.0264144298082
20
-7.41186436919472
30
0
41
1
10
45.0834710070004
20
-7.1383629620783
30
0
41
1
10
45.1975841613851
20
-6.56801094434459
30
0
41
1
10
45.2546407385774
20
-6.27116973202209
30
0
41
1
10
45.3687538929621
20
-5.65939929211746
30
0
41
1
10
45.4258104701545
20
-5.34448039261417
30
0
41
1
10
45.5399236245391
20
-4.70217729378979
30
0
41
1
10
45.5969802017314
20
-4.37480318772521
30
0
41
1
10
45.711093356116
20
-3.71326309052111
30
0
41
1
10
45.7681499333084
20
-3.37910593603422
30
0
41
1
10
45.882263087693
20
-2.70943614103885
30
0
41
1
10
45.9393196648853
20
-2.37393035969026
30
0
41
1
10
46.0534328192699
20
-1.70652477489395
30
0
41
1
10
46.1104893964623
20
-1.37462950386023
30
0
41
1
10
46.2246025508469
20
-0.718759584721482
30
0
41
1
10
46.2816591280393
20
-0.394787147517178
30
0
41
1
10
46.3529798495297
20
0.0029986360364944
30
0
41
1
10
46.3672439938278
20
0.0822168253269524
30
0
41
1
10
46.3957722824239
20
0.241835262736373
30
0
41
1
10
46.4385647153181
20
0.482306574370711
30
0
41
1
10
46.4813571482124
20
0.725679138520093
30
0
41
1
10
46.5669420140009
20
1.21561209239337
30
0
41
1
10
46.6239985911932
20
1.54650685838075
30
0
41
1
10
46.7381117455778
20
2.21265075991985
30
0
41
1
10
46.7951683227702
20
2.54789574463081
30
0
41
1
10
46.9092814771548
20
3.21787746916328
30
0
41
1
10
46.9663380543472
20
3.55260770985873
30
0
41
1
10
47.0804512087318
20
4.21618949726559
30
0
41
1
10
47.1375077859242
20
4.54503248568156
30
0
41
1
10
47.2516209403087
20
5.19118884633133
30
0
41
1
10
47.3086775175011
20
5.50849226462381
30
0
41
1
10
47.4227906718857
20
6.1259187241306
30
0
41
1
10
47.4798472490781
20
6.4260313978096
30
0
41
1
10
47.5939604034628
20
7.00373468241065
30
0
41
1
10
47.651016980655
20
7.28131566739941
30
0
41
1
10
47.7651301350396
20
7.80922745205237
30
0
41
1
10
47.822186712232
20
8.05955048785805
30
0
41
1
10
47.9362998666167
20
8.52909689377577
30
0
41
1
10
47.9933564438089
20
8.7483152310765
30
0
41
1
10
48.1074695981936
20
9.15287640869579
30
0
41
1
10
48.1645261753859
20
9.33821740094436
30
0
41
1
10
48.2786393297705
20
9.67342624170323
30
0
41
1
10
48.3356959069629
20
9.82329540062
30
0
41
1
10
48.4498090613476
20
10.0871486210142
30
0
41
1
10
48.5068656385399
20
10.2011366919503
30
0
41
1
10
48.6209787929245
20
10.3939195251832
30
0
41
1
10
48.6780353701169
20
10.4727202377593
30
0
41
1
10
48.7921485245015
20
10.5967713265296
30
0
41
1
10
48.8492051016938
20
10.6420287113997
30
0
41
1
10
48.9633182560785
20
10.7013894356038
30
0
41
1
10
49.0203748332708
20
10.7155
30
0
41
1
10
49.0774314104631
20
10.7155
30
0
0
SPLINE
5
F5
100
AcDbEntity
8
1
62
256
6
ByLayer
370
13
48
1
60
0
100
AcDbSpline
70
4
71
3
72
77
73
73
40
0
40
0
40
0
40
0
40
0.03125
40
0.03125
40
0.0625000000000001
40
0.0625000000000001
40
0.0937500000000002
40
0.0937500000000002
40
0.125
40
0.125
40
0.15625
40
0.15625
40
0.1875
40
0.1875
40
0.21875
40
0.21875
40
0.250000000000001
40
0.250000000000001
40
0.281250000000001
40
0.281250000000001
40
0.312500000000001
40
0.312500000000001
40
0.343750000000001
40
0.343750000000001
40
0.375000000000001
40
0.375000000000001
40
0.406250000000001
40
0.406250000000001
40
0.437500000000001
40
0.437500000000001
40
0.453125000000001
40
0.453125000000001
40
0.460937500000001
40
0.460937500000001
40
0.468750000000001
40
0.468750000000001
40
0.500000000000001
40
0.500000000000001
40
0.531250000000001
40
0.531250000000001
40
0.562500000000001
40
0.562500000000001
40
0.593750000000001
40
0.593750000000001
40
0.625000000000001
40
0.625000000000001
40
0.656250000000001
40
0.656250000000001
40
0.687500000000001
40
0.687500000000001
40
0.718750000000001
40
0.718750000000001
40
0.750000000000001
40
0.750000000000001
40
0.781250000000001
40
0.781250000000001
40
0.812500000000001
40
0.812500000000001
40
0.843750000000001
40
0.843750000000001
40
0.875000000000002
40
0.875000000000002
40
0.906250000000002
40
0.906250000000002
40
0.914062500000002
40
0.914062500000002
40
0.921875000000001
40
0.937500000000001
40
0.937500000000001
40
0.968750000000001
40
0.968750000000001
40
1
40
1
40
1
40
1
41
1
10
48.5294969897677
20
10.7155
30
0
41
1
10
48.5916884477359
20
10.7155
30
0
41
1
10
48.6538799057042
20
10.6987311106566
30
0
41
1
10
48.7782628216407
20
10.6279026337021
30
0
41
1
10
48.840454279609
20
10.5738319217294
30
0
41
1
10
48.9648371955455
20
10.4254090591654
30
0
41
1
10
49.0270286535138
20
10.33104632982
30
0
41
1
10
49.1514115694503
20
10.1001625761233
30
0
41
1
10
49.2136030274186
20
9.9636330842759
30
0
41
1
10
49.3379859433551
20
9.64794480968038
30
0
41
1
10
49.4001774013233
20
9.46878124647907
30
0
41
1
10
49.5245603172598
20
9.06896439742283
30
0
41
1
10
49.5867517752281
20
8.84831123488894
30
0
41
1
10
49.7111346911646
20
8.36833937878291
30
0
41
1
10
49.7733261491329
20
8.10902621368118
30
0
41
1
10
49.8977090650694
20
7.55615950290655
30
0
41
1
10
49.9599005230377
20
7.26261646357449
30
0
41
1
10
50.0842834389741
20
6.64707298561524
30
0
41
1
10
50.1464748969424
20
6.32508670311208
30
0
41
1
10
50.270857812879
20
5.65942165818308
30
0
41
1
10
50.3330492708472
20
5.31575875399534
30
0
41
1
10
50.4574321867837
20
4.61402911372187
30
0
41
1
10
50.519623644752
20
4.25597781692647
30
0
41
1
10
50.6440065606885
20
3.5328060978581
30
0
41
1
10
50.7061980186568
20
3.16769886167447
30
0
41
1
10
50.8305809345933
20
2.43735995300545
30
0
41
1
10
50.8927723925616
20
2.0721379963889
30
0
41
1
10
51.017155308498
20
1.34777671751021
30
0
41
1
10
51.0793467664663
20
0.988643164885588
30
0
41
1
10
51.1726339534187
20
0.458431810827619
30
0
41
1
10
51.2037296824028
20
0.283101422561572
30
0
41
1
10
51.250373275879
20
0.0226303732966073
30
0
41
1
10
51.2659211403711
20
-0.0636411216013357
30
0
41
1
10
51.2970168693552
20
-0.237552055470445
30
0
41
1
10
51.3125647338473
20
-0.324922602973459
30
0
41
1
10
51.3903040563077
20
-0.763681726100145
30
0
41
1
10
51.4524955142759
20
-1.12083120666875
30
0
41
1
10
51.5768784302124
20
-1.84241138444378
30
0
41
1
10
51.6390698881806
20
-2.20683713768901
30
0
41
1
10
51.7634528041171
20
-2.9369597849529
30
0
41
1
10
51.8256442620854
20
-3.30264777898213
30
0
41
1
10
51.9500271780219
20
-4.02848748852273
30
0
41
1
10
52.0122186359902
20
-4.3886266718736
30
0
41
1
10
52.1366015519267
20
-5.09608745572851
30
0
41
1
10
52.198793009895
20
-5.44339395589452
30
0
41
1
10
52.3231759258315
20
-6.11785355666322
30
0
41
1
10
52.3853673837997
20
-6.44499071415493
30
0
41
1
10
52.5097502997362
20
-7.07219422803399
30
0
41
1
10
52.5719417577045
20
-7.3722458949602
30
0
41
1
10
52.696324673641
20
-7.93924727109067
30
0
41
1
10
52.7585161316093
20
-8.2061855686575
30
0
41
1
10
52.8828990475458
20
-8.70221440005574
30
0
41
1
10
52.945090505514
20
-8.93129828944055
30
0
41
1
10
53.0694734214506
20
-9.348433789534
30
0
41
1
10
53.1316648794188
20
-9.53648415124948
30
0
41
1
10
53.2560477953553
20
-9.87004931232499
30
0
41
1
10
53.3182392533236
20
-10.0155679416162
30
0
41
1
10
53.4426221692601
20
-10.2642067793733
30
0
41
1
10
53.5048136272284
20
-10.3673348038217
30
0
41
1
10
53.6291965431649
20
-10.5327904544419
30
0
41
1
10
53.6913880011332
20
-10.5951283503245
30
0
41
1
10
53.8157709170696
20
-10.6817851525699
30
0
41
1
10
53.8779623750379
20
-10.7061151873165
30
0
41
1
10
53.9557016974983
20
-10.7150394259716
30
0
41
1
10
53.9712495619904
20
-10.7157528038415
30
0
41
1
10
54.0023452909744
20
-10.7150905239166
30
0
41
1
10
54.0489888844507
20
-10.7109430263476
30
0
41
1
10
54.0956324779268
20
-10.6970511690376
30
0
41
1
10
54.1889196648793
20
-10.6555743476125
30
0
41
1
10
54.2511111228475
20
-10.6096370811673
30
0
41
1
10
54.375494038784
20
-10.4780290406565
30
0
41
1
10
54.4376854967522
20
-10.3923474491967
30
0
41
1
10
54.4998769547205
20
-10.2857302715741
30
0
0
SPLINE
5
F6
100
AcDbEntity
8
1
62
256
6
ByLayer
370
13
48
1
60
0
100
AcDbSpline
70
4
71
3
72
56
73
52
40
0
40
0
40
0
40
0
40
0.0625
40
0.0625
40
0.09375
40
0.09375
40
0.125
40
0.125
40
0.15625
40
0.15625
40
0.1875
40
0.1875
40
0.21875
40
0.21875
40
0.25
40
0.25
40
0.28125
40
0.28125
40
0.3125
40
0.3125
40
0.375
40
0.375
40
0.4375
40
0.4375
40
0.453125
40
0.453125
40
0.46875
40
0.46875
40
0.499999999999999
40
0.499999999999999
40
0.562499999999999
40
0.562499999999999
40
0.624999999999999
40
0.624999999999999
40
0.656249999999999
40
0.656249999999999
40
0.687499999999999
40
0.687499999999999
40
0.718749999999999
40
0.718749999999999
40
0.749999999999999
40
0.749999999999999
40
0.781249999999999
40
0.781249999999999
40
0.812499999999999
40
0.812499999999999
40
0.875
40
0.875
40
0.9375
40
0.9375
40
1
40
1
40
1
40
1
41
1
10
43.6000000000001
20
-10.3745715114498
30
0
41
1
10
43.7038433701248
20
-10.2169852662107
30
0
41
1
10
43.8076867402494
20
-10.001396099545
30
0
41
1
10
43.9634517954365
20
-9.58856345157909
30
0
41
1
10
44.0153734804988
20
-9.43613353120179
30
0
41
1
10
44.1192168506235
20
-9.10238347051967
30
0
41
1
10
44.1711385356859
20
-8.92106337578582
30
0
41
1
10
44.2749819058106
20
-8.53109612753633
30
0
41
1
10
44.326903590873
20
-8.32245085587823
30
0
41
1
10
44.4307469609976
20
-7.8801864661672
30
0
41
1
10
44.48266864606
20
-7.64657099069353
30
0
41
1
10
44.5865120161847
20
-7.15742607122053
30
0
41
1
10
44.638433701247
20
-6.90190173145041
30
0
41
1
10
44.7422770713718
20
-6.37257305119388
30
0
41
1
10
44.7941987564341
20
-6.09877479467849
30
0
41
1
10
44.8980421265588
20
-5.53693648772716
30
0
41
1
10
44.9499638116212
20
-5.24890291302796
30
0
41
1
10
45.0538071817458
20
-4.66284566401976
30
0
41
1
10
45.1057288668083
20
-4.36482825772129
30
0
41
1
10
45.2614939219953
20
-3.46219846464598
30
0
41
1
10
45.3653372921199
20
-2.84918007733435
30
0
41
1
10
45.5730240323694
20
-1.63224833702142
30
0
41
1
10
45.6768674024941
20
-1.02843486388517
30
0
41
1
10
45.80667161515
20
-0.295122824073133
30
0
41
1
10
45.8326324576812
20
-0.149513534174361
30
0
41
1
10
45.8845541427435
20
0.139288576159316
30
0
41
1
10
45.9105149852747
20
0.284788220209123
30
0
41
1
10
45.9883975128682
20
0.72462621208544
30
0
41
1
10
46.0403191979306
20
1.02209562200187
30
0
41
1
10
46.1960842531176
20
1.92292868328366
30
0
41
1
10
46.2999276232423
20
2.53492438927043
30
0
41
1
10
46.5076143634917
20
3.75313243938567
30
0
41
1
10
46.6114577336164
20
4.35920430057968
30
0
41
1
10
46.7672227888034
20
5.23864272823431
30
0
41
1
10
46.8191444738658
20
5.52681915781307
30
0
41
1
10
46.9229878439905
20
6.08899249814866
30
0
41
1
10
46.9749095290528
20
6.36298293219682
30
0
41
1
10
47.0787528991775
20
6.89274165014129
30
0
41
1
10
47.1306745842399
20
7.148503841896
30
0
41
1
10
47.2345179543646
20
7.63816434091294
30
0
41
1
10
47.286439639427
20
7.87205752927702
30
0
41
1
10
47.3902830095517
20
8.31490959368756
30
0
41
1
10
47.442204694614
20
8.523864807743
30
0
41
1
10
47.5460480647387
20
8.91447526240478
30
0
41
1
10
47.597969749801
20
9.09612859947782
30
0
41
1
10
47.7537348049881
20
9.59777399772111
30
0
41
1
10
47.8575781751128
20
9.87405389538591
30
0
41
1
10
48.0652649153622
20
10.3074382568502
30
0
41
1
10
48.1691082854869
20
10.4646368623614
30
0
41
1
10
48.3767950257363
20
10.6685976858513
30
0
41
1
10
48.480638395861
20
10.7155
30
0
41
1
10
48.5844817659857
20
10.7155
30
0
0
SPLINE
5
F7
100
AcDbEntity
8
1
62
256
6
ByLayer
370
13
48
1
60
0
100
AcDbSpline
70
4
71
3
72
8
73
4
40
0
40
0
40
0
40
0
40
1
40
1
40
1
40
1
41
1
10
54.4998769547205
20
-1.07199885989439
30
0
41
1
10
55.7999179698137
20
-0.700805203715049
30
0
41
1
10
57.0999589849069
20
-0.343469567870841
30
0
41
1
10
58.4
20
0
30
0
0
SPLINE
5
F8
100
AcDbEntity
8
1
62
256
6
ByLayer
370
13
48
1
60
0
100
AcDbSpline
70
4
71
3
72
8
73
4
40
0
40
0
40
0
40
0
40
1
40
1
40
1
40
1
41
1
10
54.4998769547205
20
7.69047851209359
30
0
41
1
10
55.7999179698137
20
5.13668632262792
30
0
41
1
10
57.0999589849069
20
2.57317396410221
30
0
41
1
10
58.4
20
-5.68E-14
30
0
0
SPLINE
5
F9
100
AcDbEntity
8
1
62
256
6
ByLayer
370
13
48
1
60
0
100
AcDbSpline
70
4
71
3
72
8
73
4
40
0
40
0
40
0
40
0
40
1
40
1
40
1
40
1
41
1
10
54.4998769547205
20
-7.50341981169527
30
0
41
1
10
55.7999179698137
20
-4.99233471947599
30
0
41
1
10
57.0999589849069
20
-2.49117578511138
30
0
41
1
10
58.4
20
5.68E-14
30
0
0
SPLINE
5
FA
100
AcDbEntity
8
1
62
256
6
ByLayer
370
13
48
1
60
0
100
AcDbSpline
70
4
71
3
72
8
73
4
40
0
40
0
40
0
40
0
40
1
40
1
40
1
40
1
41
1
10
54.4998769547205
20
3.53543257348218
30
0
41
1
10
55.7999179698137
20
2.34380452802043
30
0
41
1
10
57.0999589849069
20
1.16531807398928
30
0
41
1
10
58.4
20
-2.84E-14
30
0
0
SPLINE
5
FB
100
AcDbEntity
8
1
62
256
6
ByLayer
370
13
48
1
60
0
100
AcDbSpline
70
4
71
3
72
8
73
4
40
0
40
0
40
0
40
0
40
1
40
1
40
1
40
1
41
1
10
54.4998769547205
20
5.70472768960204
30
0
41
1
10
55.7999179698137
20
3.79135948066605
30
0
41
1
10
57.0999589849069
20
1.88976915164849
30
0
41
1
10
58.4
20
-2.84E-14
30
0
0
SPLINE
5
FC
100
AcDbEntity
8
1
62
256
6
ByLayer
370
13
48
1
60
0
100
AcDbSpline
70
4
71
3
72
8
73
4
40
0
40
0
40
0
40
0
40
1
40
1
40
1
40
1
41
1
10
54.4998769547205
20
9.66523054311583
30
0
41
1
10
55.7999179698137
20
6.43747228269388
30
0
41
1
10
57.0999589849069
20
3.2157042806958
30
0
41
1
10
58.4
20
-5.68E-14
30
0
0
SPLINE
5
FD
100
AcDbEntity
8
1
62
256
6
ByLayer
370
13
48
1
60
0
100
AcDbSpline
70
4
71
3
72
8
73
4
40
0
40
0
40
0
40
0
40
1
40
1
40
1
40
1
41
1
10
54.4998769547205
20
10.4542404184956
30
0
41
1
10
55.7999179698137
20
6.9664362216746
30
0
41
1
10
57.0999589849069
20
3.4816629201222
30
0
41
1
10
58.4
20
-5.68E-14
30
0
0
SPLINE
5
FE
100
AcDbEntity
8
1
62
256
6
ByLayer
370
13
48
1
60
0
100
AcDbSpline
70
4
71
3
72
8
73
4
40
0
40
0
40
0
40
0
40
1
40
1
40
1
40
1
41
1
10
54.4998769547205
20
-0.0163498496185639
30
0
41
1
10
55.7999179698137
20
-0.0248304730270092
30
0
41
1
10
57.0999589849069
20
-0.0193804463885101
30
0
41
1
10
58.4
20
0
30
0
0
SPLINE
5
FF
100
AcDbEntity
8
1
62
256
6
ByLayer
370
13
48
1
60
0
100
AcDbSpline
70
4
71
3
72
8
73
4
40
0
40
0
40
0
40
0
40
1
40
1
40
1
40
1
41
1
10
54.4998769547205
20
-10.4281040633509
30
0
41
1
10
55.7999179698137
20
-6.94886467929871
30
0
41
1
10
57.0999589849069
20
-3.4728035627611
30
0
41
1
10
58.4
20
5.68E-14
30
0
0
SPLINE
5
100
100
AcDbEntity
8
1
62
256
6
ByLayer
370
13
48
1
60
0
100
AcDbSpline
70
4
71
3
72
8
73
4
40
0
40
0
40
0
40
0
40
1
40
1
40
1
40
1
41
1
10
54.4998769547205
20
9.72862043733818
30
0
41
1
10
55.7999179698137
20
6.49158642708915
30
0
41
1
10
57.0999589849069
20
3.24868826959471
30
0
41
1
10
58.4
20
0
30
0
0
SPLINE
5
101
100
AcDbEntity
8
1
62
256
6
ByLayer
370
13
48
1
60
0
100
AcDbSpline
70
4
71
3
72
8
73
4
40
0
40
0
40
0
40
0
40
1
40
1
40
1
40
1
41
1
10
54.4998769547205
20
2.37658023933946
30
0
41
1
10
55.7999179698137
20
1.57080318254808
30
0
41
1
10
57.0999589849069
20
0.778603778868188
30
0
41
1
10
58.4
20
-2.84E-14
30
0
0
SPLINE
5
102
100
AcDbEntity
8
1
62
256
6
ByLayer
370
13
48
1
60
0
100
AcDbSpline
70
4
71
3
72
8
73
4
40
0
40
0
40
0
40
0
40
1
40
1
40
1
40
1
41
1
10
54.4998769547205
20
-10.0851310458282
30
0
41
1
10
55.7999179698137
20
-6.7187131713263
30
0
41
1
10
57.0999589849069
20
-3.35697726726318
30
0
41
1
10
58.4
20
5.68E-14
30
0
0
SPLINE
5
103
100
AcDbEntity
8
1
62
256
6
ByLayer
370
13
48
1
60
0
100
AcDbSpline
70
4
71
3
72
8
73
4
40
0
40
0
40
0
40
0
40
1
40
1
40
1
40
1
41
1
10
54.4998769547205
20
-5.60595846720449
30
0
41
1
10
55.7999179698137
20
-3.72543354597872
30
0
41
1
10
57.0999589849069
20
-1.85676654169143
30
0
41
1
10
58.4
20
2.84E-14
30
0
0
SPLINE
5
104
100
AcDbEntity
8
1
62
256
6
ByLayer
370
13
48
1
60
0
100
AcDbSpline
70
4
71
3
72
8
73
4
40
0
40
0
40
0
40
0
40
1
40
1
40
1
40
1
41
1
10
54.4998769547205
20
-3.5662846963244
30
0
41
1
10
55.7999179698137
20
-2.39065956472913
30
0
41
1
10
57.0999589849069
20
-1.20188892489401
30
0
41
1
10
58.4
20
2.84E-14
30
0
0
SPLINE
5
105
100
AcDbEntity
8
1
62
256
6
ByLayer
370
13
48
1
60
0
100
AcDbSpline
70
4
71
3
72
8
73
4
40
0
40
0
40
0
40
0
40
1
40
1
40
1
40
1
41
1
10
54.4998769547205
20
9.16237886918458
30
0
41
1
10
55.7999179698137
20
6.11547603057508
30
0
41
1
10
57.0999589849069
20
3.06132649446766
30
0
41
1
10
58.4
20
-5.68E-14
30
0
0
SPLINE
5
106
100
AcDbEntity
8
1
62
256
6
ByLayer
370
13
48
1
60
0
100
AcDbSpline
70
4
71
3
72
8
73
4
40
0
40
0
40
0
40
0
40
1
40
1
40
1
40
1
41
1
10
54.4998769547205
20
10.6522717499361
30
0
41
1
10
55.7999179698137
20
7.10000340327116
30
0
41
1
10
57.0999589849069
20
3.5492191519447
30
0
41
1
10
58.4
20
-5.68E-14
30
0
0
SPLINE
5
107
100
AcDbEntity
8
1
62
256
6
ByLayer
370
13
48
1
60
0
100
AcDbSpline
70
4
71
3
72
8
73
4
40
0
40
0
40
0
40
0
40
1
40
1
40
1
40
1
41
1
10
54.4998769547205
20
0.132630789642008
30
0
41
1
10
55.7999179698137
20
0.102350048788764
30
0
41
1
10
57.0999589849069
20
0.0581394140213831
30
0
41
1
10
58.4
20
0
30
0
0
SPLINE
5
108
100
AcDbEntity
8
1
62
256
6
ByLayer
370
13
48
1
60
0
100
AcDbSpline
70
4
71
3
72
8
73
4
40
0
40
0
40
0
40
0
40
1
40
1
40
1
40
1
41
1
10
54.4998769547205
20
-6.71321990840605
30
0
41
1
10
55.7999179698136
20
-4.48633778146348
30
0
41
1
10
57.0999589849067
20
-2.2485807654038
30
0
41
1
10
58.3999999999998
20
-3.411E-13
30
0
0
SPLINE
5
109
100
AcDbEntity
8
1
62
256
6
ByLayer
370
13
48
1
60
0
100
AcDbSpline
70
4
71
3
72
8
73
4
40
0
40
0
40
0
40
0
40
1
40
1
40
1
40
1
41
1
10
54.4998769547205
20
-1.22012708475936
30
0
41
1
10
55.7999179698137
20
-0.827258043677801
30
0
41
1
10
57.0999589849069
20
-0.420545887124717
30
0
41
1
10
58.4
20
0
30
0
0
SPLINE
5
10A
100
AcDbEntity
8
1
62
256
6
ByLayer
370
13
48
1
60
0
100
AcDbSpline
70
4
71
3
72
8
73
4
40
0
40
0
40
0
40
0
40
1
40
1
40
1
40
1
41
1
10
54.4998769547205
20
-10.7152410742323
30
0
41
1
10
55.7999179698137
20
-7.14339720759187
30
0
41
1
10
57.0999589849069
20
-3.57162301827753
30
0
41
1
10
58.4
20
5.68E-14
30
0
0
SPLINE
5
10B
100
AcDbEntity
8
1
62
256
6
ByLayer
370
13
48
1
60
0
100
AcDbSpline
70
4
71
3
72
8
73
4
40
0
40
0
40
0
40
0
40
1
40
1
40
1
40
1
41
1
10
54.4998769547205
20
-4.67895681039835
30
0
41
1
10
55.7999179698137
20
-3.13183691565257
30
0
41
1
10
57.0999589849069
20
-1.57217275185928
30
0
41
1
10
58.4
20
2.84E-14
30
0
0
SPLINE
5
10C
100
AcDbEntity
8
1
62
256
6
ByLayer
370
13
48
1
60
0
100
AcDbSpline
70
4
71
3
72
8
73
4
40
0
40
0
40
0
40
0
40
1
40
1
40
1
40
1
41
1
10
54.4998769547205
20
3.6757277326634
30
0
41
1
10
55.7999179698137
20
2.46357050326026
30
0
41
1
10
57.0999589849069
20
1.23831857398639
30
0
41
1
10
58.4
20
-2.84E-14
30
0
0
SPLINE
5
10D
100
AcDbEntity
8
1
62
256
6
ByLayer
370
13
48
1
60
0
100
AcDbSpline
70
4
71
3
72
8
73
4
40
0
40
0
40
0
40
0
40
1
40
1
40
1
40
1
41
1
10
54.4998769547205
20
9.08424285071155
30
0
41
1
10
55.7999179698137
20
6.04877354056481
30
0
41
1
10
57.0999589849069
20
3.02066957907868
30
0
41
1
10
58.4
20
-5.68E-14
30
0
0
SPLINE
5
10E
100
AcDbEntity
8
1
62
256
6
ByLayer
370
13
48
1
60
0
100
AcDbSpline
70
4
71
3
72
8
73
4
40
0
40
0
40
0
40
0
40
1
40
1
40
1
40
1
41
1
10
54.4998769547205
20
-3.42545378457461
30
0
41
1
10
55.7999179698137
20
-2.27043623280477
30
0
41
1
10
57.0999589849069
20
-1.12860965401407
30
0
41
1
10
58.4
20
2.84E-14
30
0
0
SPLINE
5
10F
100
AcDbEntity
8
1
62
256
6
ByLayer
370
13
48
1
60
0
100
AcDbSpline
70
4
71
3
72
8
73
4
40
0
40
0
40
0
40
0
40
1
40
1
40
1
40
1
41
1
10
54.4998769547205
20
-10.4613684396877
30
0
41
1
10
55.7999179698137
20
-6.97726152845564
30
0
41
1
10
57.0999589849069
20
-3.49011218637182
30
0
41
1
10
58.4
20
5.68E-14
30
0
0
SPLINE
5
110
100
AcDbEntity
8
1
62
256
6
ByLayer
370
13
48
1
60
0
100
AcDbSpline
70
4
71
3
72
8
73
4
40
0
40
0
40
0
40
0
40
1
40
1
40
1
40
1
41
1
10
54.4998769547205
20
5.83028795936809
30
0
41
1
10
55.7999179698137
20
3.8985467011494
30
0
41
1
10
57.0999589849069
20
1.95510257103507
30
0
41
1
10
58.4
20
-2.84E-14
30
0
0
SPLINE
5
111
100
AcDbEntity
8
1
62
256
6
ByLayer
370
13
48
1
60
0
100
AcDbSpline
70
4
71
3
72
8
73
4
40
0
40
0
40
0
40
0
40
1
40
1
40
1
40
1
41
1
10
54.4998769547205
20
10.1238320824178
30
0
41
1
10
55.7999179698137
20
6.74465641791653
30
0
41
1
10
57.0999589849069
20
3.37002006984895
30
0
41
1
10
58.4
20
-5.68E-14
30
0
0
SPLINE
5
112
100
AcDbEntity
8
1
62
256
6
ByLayer
370
13
48
1
60
0
100
AcDbSpline
70
4
71
3
72
8
73
4
40
0
40
0
40
0
40
0
40
1
40
1
40
1
40
1
41
1
10
54.4998769547205
20
-9.67930412088515
30
0
41
1
10
55.7999179698137
20
-6.45884578773195
30
0
41
1
10
57.0999589849069
20
-3.23238652706598
30
0
41
1
10
58.4
20
5.68E-14
30
0
0
SPLINE
5
113
100
AcDbEntity
8
1
62
256
6
ByLayer
370
13
48
1
60
0
100
AcDbSpline
70
4
71
3
72
8
73
4
40
0
40
0
40
0
40
0
40
1
40
1
40
1
40
1
41
1
10
54.4998769547205
20
1.33558099945324
30
0
41
1
10
55.7999179698137
20
0.904209291985268
30
0
41
1
10
57.0999589849069
20
0.459012204552835
30
0
41
1
10
58.4
20
0
30
0
0
SPLINE
5
114
100
AcDbEntity
8
1
62
256
6
ByLayer
370
13
48
1
60
0
100
AcDbSpline
70
4
71
3
72
8
73
4
40
0
40
0
40
0
40
0
40
1
40
1
40
1
40
1
41
1
10
54.4998769547205
20
-10.6390310282966
30
0
41
1
10
55.7999179698137
20
-7.09102606507648
30
0
41
1
10
57.0999589849069
20
-3.54465542157791
30
0
41
1
10
58.4
20
5.68E-14
30
0
0
SPLINE
5
115
100
AcDbEntity
8
1
62
256
6
ByLayer
370
13
48
1
60
0
100
AcDbSpline
70
4
71
3
72
8
73
4
40
0
40
0
40
0
40
0
40
1
40
1
40
1
40
1
41
1
10
54.4998769547205
20
-6.59645299092128
30
0
41
1
10
55.7999179698137
20
-4.38665719497752
30
0
41
1
10
57.0999589849069
20
-2.18782283612606
30
0
41
1
10
58.4
20
2.84E-14
30
0
0
SPLINE
5
116
100
AcDbEntity
8
1
62
256
6
ByLayer
370
13
48
1
60
0
100
AcDbSpline
70
4
71
3
72
8
73
4
40
0
40
0
40
0
40
0
40
1
40
1
40
1
40
1
41
1
10
54.4998769547205
20
10.6674024360785
30
0
41
1
10
55.7999179698137
20
7.11292003840288
30
0
41
1
10
57.0999589849069
20
3.55709217949706
30
0
41
1
10
58.4
20
0
30
0
0
SPLINE
5
117
100
AcDbEntity
8
1
62
256
6
ByLayer
370
13
48
1
60
0
100
AcDbSpline
70
4
71
3
72
8
73
4
40
0
40
0
40
0
40
0
40
1
40
1
40
1
40
1
41
1
10
54.4998769547205
20
-9.02203550412037
30
0
41
1
10
55.7999179698137
20
-6.00717425313508
30
0
41
1
10
57.0999589849069
20
-2.99980623187523
30
0
41
1
10
58.4
20
5.68E-14
30
0
0
SPLINE
5
118
100
AcDbEntity
8
1
62
256
6
ByLayer
370
13
48
1
60
0
100
AcDbSpline
70
4
71
3
72
8
73
4
40
0
40
0
40
0
40
0
40
1
40
1
40
1
40
1
41
1
10
54.4998769547205
20
-2.26305430486246
30
0
41
1
10
55.7999179698137
20
-1.49508649790258
30
0
41
1
10
57.0999589849069
20
-0.740729360270677
30
0
41
1
10
58.4
20
0
30
0
0
SPLINE
5
119
100
AcDbEntity
8
1
62
256
6
ByLayer
370
13
48
1
60
0
100
AcDbSpline
70
4
71
3
72
8
73
4
40
0
40
0
40
0
40
0
40
1
40
1
40
1
40
1
41
1
10
54.4998769547205
20
-8.40853433534292
30
0
41
1
10
55.7999179698137
20
-5.6143246570058
30
0
41
1
10
57.0999589849069
20
-2.81145853971424
30
0
41
1
10
58.4
20
5.68E-14
30
0
0
SPLINE
5
11A
100
AcDbEntity
8
1
62
256
6
ByLayer
370
13
48
1
60
0
100
AcDbSpline
70
4
71
3
72
8
73
4
40
0
40
0
40
0
40
0
40
1
40
1
40
1
40
1
41
1
10
54.4998769547205
20
-7.60905199979678
30
0
41
1
10
55.7999179698137
20
-5.08250990512406
30
0
41
1
10
57.0999589849069
20
-2.54613992351932
30
0
41
1
10
58.4
20
5.68E-14
30
0
0
SPLINE
5
11B
100
AcDbEntity
8
1
62
256
6
ByLayer
370
13
48
1
60
0
100
AcDbSpline
70
4
71
3
72
8
73
4
40
0
40
0
40
0
40
0
40
1
40
1
40
1
40
1
41
1
10
54.4998769547205
20
-9.61445487764337
30
0
41
1
10
55.7999179698137
20
-6.40348583870914
30
0
41
1
10
57.0999589849069
20
-3.19864318760429
30
0
41
1
10
58.4
20
5.68E-14
30
0
0
SPLINE
5
11C
100
AcDbEntity
8
1
62
256
6
ByLayer
370
13
48
1
60
0
100
AcDbSpline
70
4
71
3
72
8
73
4
40
0
40
0
40
0
40
0
40
1
40
1
40
1
40
1
41
1
10
54.4998769547205
20
-5.73238155090968
30
0
41
1
10
55.7999179698137
20
-3.83335732610874
30
0
41
1
10
57.0999589849069
20
-1.92254891348185
30
0
41
1
10
58.4
20
2.84E-14
30
0
0
SPLINE
5
11D
100
AcDbEntity
8
1
62
256
6
ByLayer
370
13
48
1
60
0
100
AcDbSpline
70
4
71
3
72
8
73
4
40
0
40
0
40
0
40
0
40
1
40
1
40
1
40
1
41
1
10
54.4998769547205
20
7.58599263605768
30
0
41
1
10
55.7999179698137
20
5.04748971088981
30
0
41
1
10
57.0999589849069
20
2.51880629213284
30
0
41
1
10
58.4
20
-5.68E-14
30
0
0
SPLINE
5
11E
100
AcDbEntity
8
1
62
256
6
ByLayer
370
13
48
1
60
0
100
AcDbSpline
70
4
71
3
72
8
73
4
40
0
40
0
40
0
40
0
40
1
40
1
40
1
40
1
41
1
10
54.4998769547205
20
-10.6557691901003
30
0
41
1
10
55.7999179698137
20
-7.10531495632432
30
0
41
1
10
57.0999589849069
20
-3.55336487518866
30
0
41
1
10
58.4
20
5.68E-14
30
0
0
SPLINE
5
11F
100
AcDbEntity
8
1
62
256
6
ByLayer
370
13
48
1
60
0
100
AcDbSpline
70
4
71
3
72
8
73
4
40
0
40
0
40
0
40
0
40
1
40
1
40
1
40
1
41
1
10
54.4998769547205
20
-4.5444783950114
30
0
41
1
10
55.7999179698137
20
-3.0170365286576
30
0
41
1
10
57.0999589849069
20
-1.50219890800494
30
0
41
1
10
58.4
20
2.84E-14
30
0
0
SPLINE
5
120
100
AcDbEntity
8
1
62
256
6
ByLayer
370
13
48
1
60
0
100
AcDbSpline
70
4
71
3
72
8
73
4
40
0
40
0
40
0
40
0
40
1
40
1
40
1
40
1
41
1
10
54.4998769547205
20
-2.40845443905832
30
0
41
1
10
55.7999179698137
20
-1.61921044468446
30
0
41
1
10
57.0999589849069
20
-0.816386158109538
30
0
41
1
10
58.4
20
2.84E-14
30
0
0
SPLINE
5
121
100
AcDbEntity
8
1
62
256
6
ByLayer
370
13
48
1
60
0
100
AcDbSpline
70
4
71
3
72
8
73
4
40
0
40
0
40
0
40
0
40
1
40
1
40
1
40
1
41
1
10
54.4998769547205
20
-10.1345004259429
30
0
41
1
10
55.7999179698137
20
-6.76085840278643
30
0
41
1
10
57.0999589849069
20
-3.38266589012056
30
0
41
1
10
58.4
20
5.68E-14
30
0
0
SPLINE
5
122
100
AcDbEntity
8
1
62
256
6
ByLayer
370
13
48
1
60
0
100
AcDbSpline
70
4
71
3
72
8
73
4
40
0
40
0
40
0
40
0
40
1
40
1
40
1
40
1
41
1
10
54.4998769547205
20
2.52161939118102
30
0
41
1
10
55.7999179698137
20
1.69461896899173
30
0
41
1
10
57.0999589849069
20
0.854072744906517
30
0
41
1
10
58.4
20
-2.84E-14
30
0
0
SPLINE
5
123
100
AcDbEntity
8
1
62
256
6
ByLayer
370
13
48
1
60
0
100
AcDbSpline
70
4
71
3
72
8
73
4
40
0
40
0
40
0
40
0
40
1
40
1
40
1
40
1
41
1
10
54.4998769547205
20
10.1716731767301
30
0
41
1
10
55.7999179698137
20
6.78549699538405
30
0
41
1
10
57.0999589849069
20
3.39491347191355
30
0
41
1
10
58.4
20
0
30
0
0
SPLINE
5
124
100
AcDbEntity
8
1
62
256
6
ByLayer
370
13
48
1
60
0
100
AcDbSpline
70
4
71
3
72
8
73
4
40
0
40
0
40
0
40
0
40
1
40
1
40
1
40
1
41
1
10
54.4998769547205
20
4.78329210656577
30
0
41
1
10
55.7999179698137
20
3.20132703235581
30
0
41
1
10
57.0999589849069
20
1.6068841721696
30
0
41
1
10
58.4
20
-2.84E-14
30
0
0
SPLINE
5
125
100
AcDbEntity
8
1
62
256
6
ByLayer
370
13
48
1
60
0
100
AcDbSpline
70
4
71
3
72
8
73
4
40
0
40
0
40
0
40
0
40
1
40
1
40
1
40
1
41
1
10
54.4998769547205
20
4.64951742998522
30
0
41
1
10
55.7999179698137
20
3.08712740710456
30
0
41
1
10
57.0999589849069
20
1.53727650833912
30
0
41
1
10
58.4
20
-2.84E-14
30
0
0
SPLINE
5
126
100
AcDbEntity
8
1
62
256
6
ByLayer
370
13
48
1
60
0
100
AcDbSpline
70
4
71
3
72
8
73
4
40
0
40
0
40
0
40
0
40
1
40
1
40
1
40
1
41
1
10
54.4998769547205
20
6.80345768752255
30
0
41
1
10
55.7999179698137
20
4.54640095322424
30
0
41
1
10
57.0999589849069
20
2.27856444893374
30
0
41
1
10
58.4
20
-5.68E-14
30
0
0
SPLINE
5
127
100
AcDbEntity
8
1
62
256
6
ByLayer
370
13
48
1
60
0
100
AcDbSpline
70
4
71
3
72
8
73
4
40
0
40
0
40
0
40
0
40
1
40
1
40
1
40
1
41
1
10
54.4998769547205
20
8.48011851616448
30
0
41
1
10
55.7999179698137
20
5.66192831040556
30
0
41
1
10
57.0999589849069
20
2.8352006183317
30
0
41
1
10
58.4
20
-5.68E-14
30
0
0
SPLINE
5
128
100
AcDbEntity
8
1
62
256
6
ByLayer
370
13
48
1
60
0
100
AcDbSpline
70
4
71
3
72
8
73
4
40
0
40
0
40
0
40
0
40
1
40
1
40
1
40
1
41
1
10
54.4998769547205
20
-8.31537444607915
30
0
41
1
10
55.7999179698137
20
-5.53479671708243
30
0
41
1
10
57.0999589849069
20
-2.76298417655289
30
0
41
1
10
58.4
20
5.68E-14
30
0
0
SPLINE
5
129
100
AcDbEntity
8
1
62
256
6
ByLayer
370
13
48
1
60
0
100
AcDbSpline
70
4
71
3
72
8
73
4
40
0
40
0
40
0
40
0
40
1
40
1
40
1
40
1
41
1
10
54.4998769547205
20
1.18763441578287
30
0
41
1
10
55.7999179698137
20
0.7779115139287
30
0
41
1
10
57.0999589849069
20
0.382030399593674
30
0
41
1
10
58.4
20
0
30
0
0
SPLINE
5
12A
100
AcDbEntity
8
1
62
256
6
ByLayer
370
13
48
1
60
0
100
AcDbSpline
70
4
71
3
72
8
73
4
40
0
40
0
40
0
40
0
40
1
40
1
40
1
40
1
41
1
10
54.4998769547205
20
-9.10154345579696
30
0
41
1
10
55.7999179698137
20
-6.07504792338457
30
0
41
1
10
57.0999589849069
20
-3.04117701230706
30
0
41
1
10
58.4
20
5.68E-14
30
0
0
SPLINE
5
12B
100
AcDbEntity
8
1
62
256
6
ByLayer
370
13
48
1
60
0
100
AcDbSpline
70
4
71
3
72
8
73
4
40
0
40
0
40
0
40
0
40
1
40
1
40
1
40
1
41
1
10
54.4998769547205
20
10.485926924193
30
0
41
1
10
55.7999179698137
20
6.99348608767812
30
0
41
1
10
57.0999589849069
20
3.49815052220751
30
0
41
1
10
58.4
20
-2.84E-14
30
0
0
SPLINE
5
12C
100
AcDbEntity
8
1
62
256
6
ByLayer
370
13
48
1
60
0
100
AcDbSpline
70
4
71
3
72
8
73
4
40
0
40
0
40
0
40
0
40
1
40
1
40
1
40
1
41
1
10
54.4998769547205
20
6.68770173371291
30
0
41
1
10
55.7999179698137
20
4.44758339758843
30
0
41
1
10
57.0999589849069
20
2.21833255957233
30
0
41
1
10
58.4
20
-2.84E-14
30
0
0
SPLINE
5
12D
100
AcDbEntity
8
1
62
256
6
ByLayer
370
13
48
1
60
0
100
AcDbSpline
70
4
71
3
72
8
73
4
40
0
40
0
40
0
40
0
40
1
40
1
40
1
40
1
41
1
10
54.4998769547205
20
8.38822577215998
30
0
41
1
10
55.7999179698137
20
5.58348209624256
30
0
41
1
10
57.0999589849069
20
2.78738559536453
30
0
41
1
10
58.4
20
-5.68E-14
30
0
0
LINE
5
7D
100
AcDbEntity
8
4
62
256
6
ByLayer
370
18
48
0.05
60
0
100
AcDbLine
10
-5
20
0
30
0
11
63.4
21
0
31
0
39
0
210
0
220
0
230
1
0
LINE
5
7F
100
AcDbEntity
8
81
62
256
6
ByLayer
370
18
48
1
60
0
100
AcDbLine
10
58.4
20
0
30
0
11
63.4
21
0
31
0
39
0
210
0
220
0
230
1
0
LINE
5
80
100
AcDbEntity
8
SK4
62
256
6
ByLayer
370
18
48
0.05
60
0
100
AcDbLine
10
-62.1
20
0
30
0
11
63.4
21
0
31
0
39
0
210
0
220
0
230
1
0
LINE
5
82
100
AcDbEntity
8
80
62
256
6
ByLayer
370
18
48
1
60
0
100
AcDbLine
10
0
20
0
30
0
11
-5
21
0
31
0
39
0
210
0
220
0
230
1
0
LINE
5
83
100
AcDbEntity
8
1
62
256
6
ByLayer
370
18
48
1
60
0
100
AcDbLine
10
54.499877
20
10.7155
30
0
11
54.499877
21
10.37525
31
0
39
0
210
0
220
0
230
1
0
LINE
5
84
100
AcDbEntity
8
1
62
256
6
ByLayer
370
18
48
1
60
0
100
AcDbLine
10
54.499877
20
-10.7155
30
0
11
54.499877
21
-1.528981
31
0
39
0
210
0
220
0
230
1
0
LINE
5
85
100
AcDbEntity
8
1
62
256
6
ByLayer
370
18
48
1
60
0
100
AcDbLine
10
15
20
-5.80504
30
0
11
15
21
9.490528
31
0
39
0
210
0
220
0
230
1
0
LINE
5
86
100
AcDbEntity
8
1
62
256
6
ByLayer
370
18
48
1
60
0
100
AcDbLine
10
0
20
-15
30
0
11
0
21
15
31
0
39
0
210
0
220
0
230
1
0
LINE
5
87
100
AcDbEntity
8
1
62
256
6
ByLayer
370
18
48
1
60
0
100
AcDbLine
10
3
20
-15
30
0
11
3
21
15
31
0
39
0
210
0
220
0
230
1
0
LINE
5
88
100
AcDbEntity
8
SK1
62
256
6
ByLayer
370
18
48
1
60
0
100
AcDbLine
10
-57.1
20
-11.7
30
0
11
-57.1
21
11.7
31
0
39
0
210
0
220
0
230
1
0
LINE
5
8A
100
AcDbEntity
8
SK1
62
256
6
ByLayer
370
18
48
1
60
0
100
AcDbLine
10
-56.1
20
-12.7
30
0
11
-56.1
21
12.7
31
0
39
0
210
0
220
0
230
1
0
LINE
5
8B
100
AcDbEntity
8
1
62
256
6
ByLayer
370
18
48
1
60
0
100
AcDbLine
10
58.4
20
0
30
0
11
54.499877
21
10.7155
31
0
39
0
210
0
220
0
230
1
0
LINE
5
8C
100
AcDbEntity
8
1
62
256
6
ByLayer
370
18
48
1
60
0
100
AcDbLine
10
54.499877
20
-10.7155
30
0
11
58.4
21
0
31
0
39
0
210
0
220
0
230
1
0
LINE
5
8D
100
AcDbEntity
8
1
62
256
6
ByLayer
370
18
48
1
60
0
100
AcDbLine
10
8.434256
20
12.826297
30
0
11
3
21
15
31
0
39
0
210
0
220
0
230
1
0
LINE
5
8E
100
AcDbEntity
8
1
62
256
6
ByLayer
370
18
48
1
60
0
100
AcDbLine
10
3
20
-15
30
0
11
8.434256
21
-12.826297
31
0
39
0
210
0
220
0
230
1
0
LINE
5
8F
100
AcDbEntity
8
1
62
256
6
ByLayer
370
18
48
1
60
0
100
AcDbLine
10
0
20
-15
30
0
11
3
21
-15
31
0
39
0
210
0
220
0
230
1
0
LINE
5
90
100
AcDbEntity
8
1
62
256
6
ByLayer
370
18
48
1
60
0
100
AcDbLine
10
3
20
15
30
0
11
0
21
15
31
0
39
0
210
0
220
0
230
1
0
LINE
5
91
100
AcDbEntity
8
SK1
62
256
6
ByLayer
370
18
48
1
60
0
100
AcDbLine
10
-57.1
20
-11.7
30
0
11
-56.1
21
-12.7
31
0
39
0
210
0
220
0
230
1
0
LINE
5
92
100
AcDbEntity
8
SK1
62
256
6
ByLayer
370
18
48
1
60
0
100
AcDbLine
10
-56.1
20
12.7
30
0
11
-57.1
21
11.7
31
0
39
0
210
0
220
0
230
1
0
LINE
5
93
100
AcDbEntity
8
SK1
62
256
6
ByLayer
370
18
48
1
60
0
100
AcDbLine
10
-56.1
20
-12.7
30
0
11
0
21
-12.7
31
0
39
0
210
0
220
0
230
1
0
LINE
5
94
100
AcDbEntity
8
SK1
62
256
6
ByLayer
370
18
48
1
60
0
100
AcDbLine
10
0
20
12.7
30
0
11
-56.1
21
12.7
31
0
39
0
210
0
220
0
230
1
0
LINE
5
95
100
AcDbEntity
8
1
62
256
6
ByLayer
370
18
48
1
60
0
100
AcDbLine
10
43.6
20
-10.7155
30
0
11
54.499877
21
-10.7155
31
0
39
0
210
0
220
0
230
1
0
LINE
5
96
100
AcDbEntity
8
1
62
256
6
ByLayer
370
18
48
1
60
0
100
AcDbLine
10
58.4
20
0
30
0
11
54.499877
21
10.7155
31
0
39
0
210
0
220
0
230
1
0
LINE
5
97
100
AcDbEntity
8
1
62
256
6
ByLayer
370
18
48
1
60
0
100
AcDbLine
10
54.499877
20
-10.7155
30
0
11
58.4
21
0
31
0
39
0
210
0
220
0
230
1
0
LINE
5
98
100
AcDbEntity
8
1
62
256
6
ByLayer
370
18
48
1
60
0
100
AcDbLine
10
54.499877
20
10.7155
30
0
11
54.499877
21
-10.7155
31
0
39
0
210
0
220
0
230
1
0
LINE
5
99
100
AcDbEntity
8
1
62
256
6
ByLayer
370
18
48
1
60
0
100
AcDbLine
10
54.499877
20
10.7155
30
0
11
54.499877
21
-10.7155
31
0
39
0
210
0
220
0
230
1
0
LINE
5
9A
100
AcDbEntity
8
1
62
256
6
ByLayer
370
18
48
1
60
0
100
AcDbLine
10
54.499877
20
10.7155
30
0
11
54.499877
21
-10.7155
31
0
39
0
210
0
220
0
230
1
0
LINE
5
9B
100
AcDbEntity
8
1
62
256
6
ByLayer
370
18
48
1
60
0
100
AcDbLine
10
43.6
20
10.7155
30
0
11
43.6
21
-10.7155
31
0
39
0
210
0
220
0
230
1
0
LINE
5
9C
100
AcDbEntity
8
1
62
256
6
ByLayer
370
18
48
1
60
0
100
AcDbLine
10
43.6
20
10.7155
30
0
11
43.6
21
-10.7155
31
0
39
0
210
0
220
0
230
1
0
LINE
5
9D
100
AcDbEntity
8
1
62
256
6
ByLayer
370
18
48
1
60
0
100
AcDbLine
10
54.499877
20
10.7155
30
0
11
54.499877
21
-10.7155
31
0
39
0
210
0
220
0
230
1
0
LINE
5
9E
100
AcDbEntity
8
1
62
256
6
ByLayer
370
18
48
1
60
0
100
AcDbLine
10
43.6
20
10.7155
30
0
11
43.6
21
-10.7155
31
0
39
0
210
0
220
0
230
1
0
LINE
5
9F
100
AcDbEntity
8
1
62
256
6
ByLayer
370
18
48
1
60
0
100
AcDbLine
10
54.499877
20
10.7155
30
0
11
54.499877
21
-10.7155
31
0
39
0
210
0
220
0
230
1
0
LINE
5
A0
100
AcDbEntity
8
SK2
62
256
6
ByLayer
370
13
48
1
60
0
100
AcDbLine
10
-63.6
20
-12.7
30
0
11
-63.6
21
42.040455
31
0
39
0
210
0
220
0
230
1
0
LINE
5
A2
100
AcDbEntity
8
SK2
62
256
6
ByLayer
370
13
48
1
60
0
100
AcDbLine
10
-58.6875
20
12.7
30
0
11
-65.6
21
12.7
31
0
39
0
210
0
220
0
230
1
0
LINE
5
A3
100
AcDbEntity
8
SK2
62
256
6
ByLayer
370
13
48
1
60
0
100
AcDbLine
10
-58.6875
20
-12.7
30
0
11
-65.6
21
-12.7
31
0
39
0
210
0
220
0
230
1
0
LINE
5
A4
100
AcDbEntity
8
1
62
256
6
ByLayer
370
18
48
1
60
1
100
AcDbLine
10
-63.6
20
12.7
30
0
11
-63.139216
21
9.200002
31
0
39
0
210
0
220
0
230
1
0
LINE
5
A5
100
AcDbEntity
8
1
62
256
6
ByLayer
370
18
48
1
60
1
100
AcDbLine
10
-63.139216
20
9.200002
30
0
11
-64.060784
21
9.199998
31
0
39
0
210
0
220
0
230
1
0
LINE
5
A6
100
AcDbEntity
8
1
62
256
6
ByLayer
370
18
48
1
60
1
100
AcDbLine
10
-64.060784
20
9.199998
30
0
11
-63.6
21
12.7
31
0
39
0
210
0
220
0
230
1
0
LINE
5
A7
100
AcDbEntity
8
1
62
256
6
ByLayer
370
18
48
1
60
1
100
AcDbLine
10
-63.6
20
-12.7
30
0
11
-64.060784
21
-9.200002
31
0
39
0
210
0
220
0
230
1
0
LINE
5
A8
100
AcDbEntity
8
1
62
256
6
ByLayer
370
18
48
1
60
1
100
AcDbLine
10
-64.060784
20
-9.200002
30
0
11
-63.139216
21
-9.199998
31
0
39
0
210
0
220
0
230
1
0
LINE
5
A9
100
AcDbEntity
8
1
62
256
6
ByLayer
370
18
48
1
60
1
100
AcDbLine
10
-63.139216
20
-9.199998
30
0
11
-63.6
21
-12.7
31
0
39
0
210
0
220
0
230
1
0
LINE
5
AA
100
AcDbEntity
8
2
62
256
6
ByLayer
370
13
48
1
60
0
100
AcDbLine
10
65.9
20
-10.7155
30
0
11
65.9
21
38.556184
31
0
39
0
210
0
220
0
230
1
0
LINE
5
AC
100
AcDbEntity
8
2
62
256
6
ByLayer
370
13
48
1
60
0
100
AcDbLine
10
56.087377
20
10.7155
30
0
11
67.9
21
10.7155
31
0
39
0
210
0
220
0
230
1
0
LINE
5
AD
100
AcDbEntity
8
2
62
256
6
ByLayer
370
13
48
1
60
0
100
AcDbLine
10
56.087377
20
-10.7155
30
0
11
67.9
21
-10.7155
31
0
39
0
210
0
220
0
230
1
0
LINE
5
AE
100
AcDbEntity
8
1
62
256
6
ByLayer
370
18
48
1
60
1
100
AcDbLine
10
65.9
20
10.7155
30
0
11
66.360784
21
7.215502
31
0
39
0
210
0
220
0
230
1
0
LINE
5
AF
100
AcDbEntity
8
1
62
256
6
ByLayer
370
18
48
1
60
1
100
AcDbLine
10
66.360784
20
7.215502
30
0
11
65.439216
21
7.215498
31
0
39
0
210
0
220
0
230
1
0
LINE
5
B0
100
AcDbEntity
8
1
62
256
6
ByLayer
370
18
48
1
60
1
100
AcDbLine
10
65.439216
20
7.215498
30
0
11
65.9
21
10.7155
31
0
39
0
210
0
220
0
230
1
0
LINE
5
B1
100
AcDbEntity
8
1
62
256
6
ByLayer
370
18
48
1
60
1
100
AcDbLine
10
65.9
20
-10.7155
30
0
11
65.439216
21
-7.215502
31
0
39
0
210
0
220
0
230
1
0
LINE
5
B2
100
AcDbEntity
8
1
62
256
6
ByLayer
370
18
48
1
60
1
100
AcDbLine
10
65.439216
20
-7.215502
30
0
11
66.360784
21
-7.215498
31
0
39
0
210
0
220
0
230
1
0
LINE
5
B3
100
AcDbEntity
8
1
62
256
6
ByLayer
370
18
48
1
60
1
100
AcDbLine
10
66.360784
20
-7.215498
30
0
11
65.9
21
-10.7155
31
0
39
0
210
0
220
0
230
1
0
LINE
5
B4
100
AcDbEntity
8
SK2
62
256
6
ByLayer
370
13
48
1
60
0
100
AcDbLine
10
58.942957
20
-1.491762
30
0
11
65.582423
21
-19.733545
31
0
39
0
210
0
220
0
230
1
0
LINE
5
B5
100
AcDbEntity
8
SK2
62
256
6
ByLayer
370
13
48
1
60
0
100
AcDbLine
10
58.942957
20
1.491762
30
0
11
65.582423
21
19.733545
31
0
39
0
210
0
220
0
230
1
0
LINE
5
B6
100
AcDbEntity
8
1
62
256
6
ByLayer
370
18
48
1
60
1
100
AcDbLine
10
64.898383
20
-17.85416
30
0
11
67.951575
21
-16.082064
31
0
39
0
210
0
220
0
230
1
0
LINE
5
B7
100
AcDbEntity
8
1
62
256
6
ByLayer
370
18
48
1
60
1
100
AcDbLine
10
67.951575
20
-16.082064
30
0
11
68.306196
21
-16.93267
31
0
39
0
210
0
220
0
230
1
0
LINE
5
B8
100
AcDbEntity
8
1
62
256
6
ByLayer
370
18
48
1
60
1
100
AcDbLine
10
68.306196
20
-16.93267
30
0
11
64.898383
21
-17.85416
31
0
39
0
210
0
220
0
230
1
0
LINE
5
B9
100
AcDbEntity
8
1
62
256
6
ByLayer
370
18
48
1
60
1
100
AcDbLine
10
64.898383
20
17.85416
30
0
11
68.306193
21
16.932671
31
0
39
0
210
0
220
0
230
1
0
LINE
5
BA
100
AcDbEntity
8
1
62
256
6
ByLayer
370
18
48
1
60
1
100
AcDbLine
10
68.306193
20
16.932671
30
0
11
67.951579
21
16.082063
31
0
39
0
210
0
220
0
230
1
0
LINE
5
BB
100
AcDbEntity
8
1
62
256
6
ByLayer
370
18
48
1
60
1
100
AcDbLine
10
67.951579
20
16.082063
30
0
11
64.898383
21
17.85416
31
0
39
0
210
0
220
0
230
1
0
LINE
5
132
100
AcDbEntity
8
1
62
256
6
ByLayer
370
18
48
1
60
1
100
AcDbLine
10
-63.6
20
12.7
30
0
11
-63.139216
21
9.200002
31
0
39
0
210
0
220
0
230
1
0
LINE
5
133
100
AcDbEntity
8
1
62
256
6
ByLayer
370
18
48
1
60
1
100
AcDbLine
10
-63.139216
20
9.200002
30
0
11
-64.060784
21
9.199998
31
0
39
0
210
0
220
0
230
1
0
LINE
5
134
100
AcDbEntity
8
1
62
256
6
ByLayer
370
18
48
1
60
1
100
AcDbLine
10
-64.060784
20
9.199998
30
0
11
-63.6
21
12.7
31
0
39
0
210
0
220
0
230
1
0
LINE
5
136
100
AcDbEntity
8
1
62
256
6
ByLayer
370
18
48
1
60
1
100
AcDbLine
10
-63.6
20
-12.7
30
0
11
-64.060784
21
-9.200002
31
0
39
0
210
0
220
0
230
1
0
LINE
5
137
100
AcDbEntity
8
1
62
256
6
ByLayer
370
18
48
1
60
1
100
AcDbLine
10
-64.060784
20
-9.200002
30
0
11
-63.139216
21
-9.199998
31
0
39
0
210
0
220
0
230
1
0
LINE
5
138
100
AcDbEntity
8
1
62
256
6
ByLayer
370
18
48
1
60
1
100
AcDbLine
10
-63.139216
20
-9.199998
30
0
11
-63.6
21
-12.7
31
0
39
0
210
0
220
0
230
1
0
LINE
5
13C
100
AcDbEntity
8
1
62
256
6
ByLayer
370
18
48
1
60
1
100
AcDbLine
10
65.9
20
10.7155
30
0
11
66.360784
21
7.215502
31
0
39
0
210
0
220
0
230
1
0
LINE
5
13D
100
AcDbEntity
8
1
62
256
6
ByLayer
370
18
48
1
60
1
100
AcDbLine
10
66.360784
20
7.215502
30
0
11
65.439216
21
7.215498
31
0
39
0
210
0
220
0
230
1
0
LINE
5
13E
100
AcDbEntity
8
1
62
256
6
ByLayer
370
18
48
1
60
1
100
AcDbLine
10
65.439216
20
7.215498
30
0
11
65.9
21
10.7155
31
0
39
0
210
0
220
0
230
1
0
LINE
5
140
100
AcDbEntity
8
1
62
256
6
ByLayer
370
18
48
1
60
1
100
AcDbLine
10
65.9
20
-10.7155
30
0
11
65.439216
21
-7.215502
31
0
39
0
210
0
220
0
230
1
0
LINE
5
141
100
AcDbEntity
8
1
62
256
6
ByLayer
370
18
48
1
60
1
100
AcDbLine
10
65.439216
20
-7.215502
30
0
11
66.360784
21
-7.215498
31
0
39
0
210
0
220
0
230
1
0
LINE
5
142
100
AcDbEntity
8
1
62
256
6
ByLayer
370
18
48
1
60
1
100
AcDbLine
10
66.360784
20
-7.215498
30
0
11
65.9
21
-10.7155
31
0
39
0
210
0
220
0
230
1
0
LINE
5
145
100
AcDbEntity
8
1
62
256
6
ByLayer
370
18
48
1
60
1
100
AcDbLine
10
64.898383
20
-17.85416
30
0
11
67.951575
21
-16.082064
31
0
39
0
210
0
220
0
230
1
0
LINE
5
146
100
AcDbEntity
8
1
62
256
6
ByLayer
370
18
48
1
60
1
100
AcDbLine
10
67.951575
20
-16.082064
30
0
11
68.306196
21
-16.93267
31
0
39
0
210
0
220
0
230
1
0
LINE
5
147
100
AcDbEntity
8
1
62
256
6
ByLayer
370
18
48
1
60
1
100
AcDbLine
10
68.306196
20
-16.93267
30
0
11
64.898383
21
-17.85416
31
0
39
0
210
0
220
0
230
1
0
LINE
5
149
100
AcDbEntity
8
1
62
256
6
ByLayer
370
18
48
1
60
1
100
AcDbLine
10
64.898383
20
17.85416
30
0
11
68.306193
21
16.932671
31
0
39
0
210
0
220
0
230
1
0
LINE
5
14A
100
AcDbEntity
8
1
62
256
6
ByLayer
370
18
48
1
60
1
100
AcDbLine
10
68.306193
20
16.932671
30
0
11
67.951579
21
16.082063
31
0
39
0
210
0
220
0
230
1
0
LINE
5
14B
100
AcDbEntity
8
1
62
256
6
ByLayer
370
18
48
1
60
1
100
AcDbLine
10
67.951579
20
16.082063
30
0
11
64.898383
21
17.85416
31
0
39
0
210
0
220
0
230
1
0
MTEXT
5
12E
100
AcDbEntity
8
SK2
62
256
6
ByLayer
370
18
48
1
60
0
100
AcDbMText
10
-64.941114
20
24.358437
30
0
210
0
220
0
230
1
1
%%c
40
3
41
0
44
1.084337
50
90
71
7
72
5
7
iso_b_vert
0
MTEXT
5
131
100
AcDbEntity
8
SK2
62
256
6
ByLayer
370
18
48
1
60
0
100
AcDbMText
10
-64.941114
20
30.335
30
0
210
0
220
0
230
1
1
\W0.7728;25.400
40
3
41
0
44
1.084337
50
90
71
7
72
5
7
iso_b_vert
0
MTEXT
5
13A
100
AcDbEntity
8
2
62
256
6
ByLayer
370
18
48
1
60
0
100
AcDbMText
10
64.558886
20
22.373937
30
0
210
0
220
0
230
1
1
%%c
40
3
41
0
44
1.084337
50
90
71
7
72
5
7
iso_b_vert
0
MTEXT
5
13B
100
AcDbEntity
8
2
62
256
6
ByLayer
370
18
48
1
60
0
100
AcDbMText
10
64.558886
20
28.3505
30
0
210
0
220
0
230
1
1
\W0.7147;21.431
40
3
41
0
44
1.084337
50
90
71
7
72
5
7
iso_b_vert
0
MTEXT
5
144
100
AcDbEntity
8
SK2
62
256
6
ByLayer
370
18
48
1
60
0
100
AcDbMText
10
78.309114
20
3.734657
30
0
210
0
220
0
230
1
1
\W0.7071;140%%d
40
3
41
0
44
1.084337
50
270
71
7
72
5
7
iso_b_vert
0
MTEXT
5
14D
100
AcDbEntity
8
SK6
62
256
6
ByLayer
370
18
48
1
60
0
100
AcDbMText
10
-20.650454
20
-67.114886
30
0
210
0
220
0
230
1
1
\W0.7698;H85127/32
40
3
41
0
44
1.084337
50
0
71
7
72
5
7
iso_b_vert
0
HATCH
5
135
100
AcDbEntity
8
SK2
62
256
6
ByLayer
370
13
48
1
60
0
100
AcDbHatch
10
0
20
0
30
0
210
0
220
0
230
1
2
ANSI31
70
0
71
0
91
1
92
5
93
3
72
1
10
-63.6
20
12.7
11
-63.1392162584472
21
9.20000169255317
72
1
10
-63.1392162584472
20
9.20000169255317
11
-64.0607837415528
21
9.1999983074468
72
1
10
-64.0607837415528
20
9.1999983074468
11
-63.6
21
12.7
97
0
75
0
76
1
52
0
41
0.0062
77
0
78
1
53
45
43
0
44
0
45
-0.0139193969876572
46
0.0139193969876572
79
0
47
0
98
1
10
0
20
0
0
HATCH
5
139
100
AcDbEntity
8
SK2
62
256
6
ByLayer
370
13
48
1
60
0
100
AcDbHatch
10
0
20
0
30
0
210
0
220
0
230
1
2
ANSI31
70
0
71
0
91
1
92
5
93
3
72
1
10
-63.6
20
-12.7
11
-64.0607837415528
21
-9.20000169255317
72
1
10
-64.0607837415528
20
-9.20000169255317
11
-63.1392162584472
21
-9.1999983074468
72
1
10
-63.1392162584472
20
-9.1999983074468
11
-63.6
21
-12.7
97
0
75
0
76
1
52
0
41
0.0062
77
0
78
1
53
45
43
0
44
0
45
-0.0139193969876572
46
0.0139193969876572
79
0
47
0
98
1
10
0
20
0
0
HATCH
5
13F
100
AcDbEntity
8
2
62
256
6
ByLayer
370
13
48
1
60
0
100
AcDbHatch
10
0
20
0
30
0
210
0
220
0
230
1
2
ANSI31
70
0
71
0
91
1
92
5
93
3
72
1
10
65.9
20
10.7155
11
66.3607837415528
21
7.21550169255318
72
1
10
66.3607837415528
20
7.21550169255318
11
65.4392162584472
21
7.21549830744681
72
1
10
65.4392162584472
20
7.21549830744681
11
65.9
21
10.7155
97
0
75
0
76
1
52
0
41
0.0062
77
0
78
1
53
45
43
0
44
0
45
-0.0139193969876572
46
0.0139193969876572
79
0
47
0
98
1
10
0
20
0
0
HATCH
5
143
100
AcDbEntity
8
2
62
256
6
ByLayer
370
13
48
1
60
0
100
AcDbHatch
10
0
20
0
30
0
210
0
220
0
230
1
2
ANSI31
70
0
71
0
91
1
92
5
93
3
72
1
10
65.9
20
-10.7155
11
65.4392162584472
21
-7.21550169255318
72
1
10
65.4392162584472
20
-7.21550169255318
11
66.3607837415528
21
-7.21549830744681
72
1
10
66.3607837415528
20
-7.21549830744681
11
65.9
21
-10.7155
97
0
75
0
76
1
52
0
41
0.0062
77
0
78
1
53
45
43
0
44
0
45
-0.0139193969876572
46
0.0139193969876572
79
0
47
0
98
1
10
0
20
0
0
HATCH
5
148
100
AcDbEntity
8
SK2
62
256
6
ByLayer
370
13
48
1
60
0
100
AcDbHatch
10
0
20
0
30
0
210
0
220
0
230
1
2
ANSI31
70
0
71
0
91
1
92
5
93
3
72
1
10
64.8983827231877
20
-17.8541597949323
11
67.9515754256929
21
-16.0820638240608
72
1
10
67.9515754256929
20
-16.0820638240608
11
68.3061958339751
21
-16.9326700737196
72
1
10
68.3061958339751
20
-16.9326700737196
11
64.8983827231877
21
-17.8541597949323
97
0
75
0
76
1
52
0
41
0.0062
77
0
78
1
53
45
43
0
44
0
45
-0.0139193969876572
46
0.0139193969876572
79
0
47
0
98
1
10
0
20
0
0
HATCH
5
14C
100
AcDbEntity
8
SK2
62
256
6
ByLayer
370
13
48
1
60
0
100
AcDbHatch
10
0
20
0
30
0
210
0
220
0
230
1
2
ANSI31
70
0
71
0
91
1
92
5
93
3
72
1
10
64.8983827231877
20
17.8541597949323
11
68.3061927095191
21
16.9326713763016
72
1
10
68.3061927095191
20
16.9326713763016
11
67.9515785501489
21
16.0820625214788
72
1
10
67.9515785501489
20
16.0820625214788
11
64.8983827231877
21
17.8541597949323
97
0
75
0
76
1
52
0
41
0.0062
77
0
78
1
53
45
43
0
44
0
45
-0.0139193969876572
46
0.0139193969876572
79
0
47
0
98
1
10
0
20
0
0
DIMENSION
5
150
100
AcDbEntity
8
SK2
62
256
6
ByLayer
370
18
48
1
60
0
100
AcDbDimension
2
_U0
10
58.4
20
-43.567145
30
0
11
0.65
21
-43.567145
31
0
70
32
71
1
72
1
41
1
210
0
220
0
230
1
3
Standard
100
AcDbAlignedDimension
13
-57.1
23
-12.7
33
0
14
58.4
24
0
34
0
50
0
100
AcDbRotatedDimension
1001
ACAD
1000
DSTYLE
1002
{
1070
   371
1070
    13
1070
   372
1070
    13
1070
     3
1000

1070
   170
1070
     0
1070
   144
1040
1.0
1070
   277
1070
     2
1070
   284
1070
     8
1070
   278
1070
    46
1070
   146
1040
1.166667
1070
   345
1005
16
1070
   347
1005
16
1070
   346
1005
16
1070
   344
1005
0
1070
   343
1005
0
1070
   172
1070
     1
1070
    76
1070
     0
1070
    75
1070
     0
1070
   282
1070
     0
1070
   281
1070
     0
1070
    71
1070
     0
1070
    74
1070
     0
1070
   279
1070
     0
1070
   173
1070
     1
1070
   340
1005
12F
1070
   271
1070
     2
1070
   272
1070
     3
1070
    77
1070
     1
1070
    73
1070
     1
1070
   171
1070
     3
1070
   274
1070
     4
1070
   177
1070
     2
1070
   176
1070
     2
1070
   178
1070
     2
1070
    78
1070
     8
1070
    48
1040
-0.1
1070
    41
1040
3.5
1070
   147
1040
1.5
1070
    42
1040
1.5875
1070
    44
1040
2.0
1070
   140
1040
3.0
1002
}
1001
ACAD_DSTYLE_DIM_LINETYPE
1070
   380
1005
16
1001
ACAD_DSTYLE_DIM_EXT1_LINETYPE
1070
   381
1005
16
1001
ACAD_DSTYLE_DIM_EXT2_LINETYPE
1070
   382
1005
16
0
DIMENSION
5
169
100
AcDbEntity
8
SK2
62
256
6
ByLayer
370
18
48
1
60
0
100
AcDbDimension
2
_U1
10
6
20
-33.567145
30
0
11
32.2
21
-33.567145
31
0
70
32
71
1
72
1
41
1
210
0
220
0
230
1
3
Standard
100
AcDbAlignedDimension
13
58.4
23
0
33
0
14
6
24
-10.7155
34
0
50
0
100
AcDbRotatedDimension
1001
ACAD
1000
DSTYLE
1002
{
1070
   371
1070
    13
1070
   372
1070
    13
1070
     3
1000

1070
   170
1070
     0
1070
   144
1040
1.0
1070
   277
1070
     2
1070
   284
1070
     8
1070
   278
1070
    46
1070
   146
1040
1.166667
1070
   345
1005
16
1070
   347
1005
16
1070
   346
1005
16
1070
   344
1005
0
1070
   343
1005
0
1070
   172
1070
     1
1070
    76
1070
     0
1070
    75
1070
     0
1070
   282
1070
     0
1070
   281
1070
     0
1070
    71
1070
     0
1070
    74
1070
     0
1070
   279
1070
     0
1070
   173
1070
     1
1070
   340
1005
12F
1070
   271
1070
     2
1070
   272
1070
     3
1070
    77
1070
     1
1070
    73
1070
     1
1070
   171
1070
     3
1070
   274
1070
     4
1070
   177
1070
     2
1070
   176
1070
     2
1070
   178
1070
     2
1070
    78
1070
     8
1070
    48
1040
-0.1
1070
    41
1040
3.5
1070
   147
1040
1.5
1070
    42
1040
1.5875
1070
    44
1040
2.0
1070
   140
1040
3.0
1002
}
1001
ACAD_DSTYLE_DIM_LINETYPE
1070
   380
1005
16
1001
ACAD_DSTYLE_DIM_EXT1_LINETYPE
1070
   381
1005
16
1001
ACAD_DSTYLE_DIM_EXT2_LINETYPE
1070
   382
1005
16
0
DIMENSION
5
181
100
AcDbEntity
8
SK2
62
256
6
ByLayer
370
18
48
1
60
0
100
AcDbDimension
2
_U2
10
0
20
-33.567145
30
0
11
-28.55
21
-33.567145
31
0
70
32
71
1
72
1
41
1
210
0
220
0
230
1
3
Standard
100
AcDbAlignedDimension
13
-57.1
23
-12.7
33
0
14
0
24
-12.7
34
0
50
0
100
AcDbRotatedDimension
1001
ACAD
1000
DSTYLE
1002
{
1070
   371
1070
    13
1070
   372
1070
    13
1070
     3
1000

1070
   170
1070
     0
1070
   144
1040
1.0
1070
   277
1070
     2
1070
   284
1070
     8
1070
   278
1070
    46
1070
   146
1040
1.166667
1070
   345
1005
16
1070
   347
1005
16
1070
   346
1005
16
1070
   344
1005
0
1070
   343
1005
0
1070
   172
1070
     1
1070
    76
1070
     0
1070
    75
1070
     0
1070
   282
1070
     0
1070
   281
1070
     0
1070
    71
1070
     0
1070
    74
1070
     0
1070
   279
1070
     0
1070
   173
1070
     1
1070
   340
1005
12F
1070
   271
1070
     2
1070
   272
1070
     3
1070
    77
1070
     1
1070
    73
1070
     1
1070
   171
1070
     3
1070
   274
1070
     4
1070
   177
1070
     2
1070
   176
1070
     2
1070
   178
1070
     2
1070
    78
1070
     8
1070
    48
1040
-0.1
1070
    41
1040
3.5
1070
   147
1040
1.5
1070
    42
1040
1.5875
1070
    44
1040
2.0
1070
   140
1040
3.0
1002
}
1001
ACAD_DSTYLE_DIM_LINETYPE
1070
   380
1005
16
1001
ACAD_DSTYLE_DIM_EXT1_LINETYPE
1070
   381
1005
16
1001
ACAD_DSTYLE_DIM_EXT2_LINETYPE
1070
   382
1005
16
0
DIMENSION
5
199
100
AcDbEntity
8
SK2
62
256
6
ByLayer
370
18
48
1
60
0
100
AcDbDimension
2
_U3
10
13.9
20
30.567145
30
0
11
36.15
21
30.567145
31
0
70
32
71
1
72
1
41
1
210
0
220
0
230
1
3
Standard
100
AcDbAlignedDimension
13
58.4
23
0
33
0
14
13.9
24
10.7155
34
0
50
0
100
AcDbRotatedDimension
1001
ACAD
1000
DSTYLE
1002
{
1070
   371
1070
    13
1070
   372
1070
    13
1070
     3
1000

1070
   170
1070
     0
1070
   144
1040
1.0
1070
   277
1070
     2
1070
   284
1070
     8
1070
   278
1070
    46
1070
   146
1040
1.166667
1070
   345
1005
16
1070
   347
1005
16
1070
   346
1005
16
1070
   344
1005
0
1070
   343
1005
0
1070
   172
1070
     1
1070
    76
1070
     0
1070
    75
1070
     0
1070
   282
1070
     0
1070
   281
1070
     0
1070
    71
1070
     0
1070
    74
1070
     0
1070
   279
1070
     0
1070
   173
1070
     1
1070
   340
1005
12F
1070
   271
1070
     2
1070
   272
1070
     3
1070
    77
1070
     1
1070
    73
1070
     1
1070
   171
1070
     3
1070
   274
1070
     4
1070
   177
1070
     2
1070
   176
1070
     2
1070
   178
1070
     2
1070
    78
1070
     8
1070
    48
1040
-0.1
1070
    41
1040
3.5
1070
   147
1040
1.5
1070
    42
1040
1.5875
1070
    44
1040
2.0
1070
   140
1040
3.0
1002
}
1001
ACAD_DSTYLE_DIM_LINETYPE
1070
   380
1005
16
1001
ACAD_DSTYLE_DIM_EXT1_LINETYPE
1070
   381
1005
16
1001
ACAD_DSTYLE_DIM_EXT2_LINETYPE
1070
   382
1005
16
0
ENDSEC
0
SECTION
2
OBJECTS
0
DICTIONARY
5
221
330
0
100
AcDbDictionary
280
0
281
1
3
ACAD_GROUP
350
222
3
ACAD_MLINESTYLE
350
223
0
DICTIONARY
5
222
330
0
100
AcDbDictionary
280
0
281
1
0
DICTIONARY
5
223
330
0
100
AcDbDictionary
280
0
281
1
3
Standard
350
18
0
MLINESTYLE
5
18
330
223
100
AcDbMlineStyle
2
Standard
70
0
3

62
256
51
90
52
90
71
2
49
-0.5
62
256
6
ByLayer
49
0.5
62
256
6
ByLayer
0
RASTERVARIABLES
5
20f
330

100
AcDbRasterVariables
90
0
70
1
71
1
72
1
0
ENDSEC
0
EOF
