0
SECTION
2
HEADER
9
$ACADVER
1
AC1015
9
$DWGCODEPAGE
3
ANSI_1252
9
$HANDSEED
5
24b
9
$ANGBASE
50
0
9
$ANGDIR
70
0
9
$ATTMODE
70
1
9
$AUNITS
70
0
9
$AUPREC
70
0
9
$CECOLOR
62
256
9
$CELTSCALE
40
1
9
$CELTYPE
6
ByLayer
9
$CELWEIGHT
370
18
9
$CLAYER
8
0
9
$CMLJUST
70
0
9
$CMLSCALE
40
1
9
$CMLSTYLE
2
Standard
9
$DIMSTYLE
2
Standard
9
$TEXTSIZE
40
0.2
9
$TEXTSTYLE
7
Standard
9
$LUNITS
70
2
9
$LUPREC
70
4
9
$EXTNAMES
290
1
9
$INSUNITS
70
4
9
$LTSCALE
40
1
9
$LWDISPLAY
290
1
9
$PDMODE
70
0
9
$PDSIZE
40
0
9
$PLINEGEN
70
0
0
ENDSEC
0
SECTION
2
CLASSES
0
CLASS
1
RASTERVARIABLES
2
AcDbRasterVariables
3
ISM
90
0
280
0
281
0
0
ENDSEC
0
SECTION
2
TABLES
0
TABLE
2
VPORT
5
241
100
AcDbSymbolTable
0
VPORT
5
1
100
AcDbSymbolTableRecord
100
AcDbViewportTableRecord
2
*Active
70
0
10
0
20
0
11
1
21
1
12
-1
22
1
13
0
23
0
14
0.5
24
0.5
15
10
25
10
16
0
26
0
36
1
17
0
27
0
37
0
0
ENDTAB
0
TABLE
2
LTYPE
5
242
100
AcDbSymbolTable
0
LTYPE
5
14
100
AcDbSymbolTableRecord
100
AcDbLinetypeTableRecord
70
0
2
ByBlock
3

72
65
73
0
40
0
0
LTYPE
5
15
100
AcDbSymbolTableRecord
100
AcDbLinetypeTableRecord
70
0
2
ByLayer
3

72
65
73
0
40
0
0
LTYPE
5
16
100
AcDbSymbolTableRecord
100
AcDbLinetypeTableRecord
70
0
2
Continuous
3
Solid line
72
65
73
0
40
0
0
LTYPE
5
6E
100
AcDbSymbolTableRecord
100
AcDbLinetypeTableRecord
70
0
2
CENTER
3
____ _ ____ _ ____ _ ____
72
65
73
4
40
47.5
49
22
74
0
49
-8.5
74
0
49
8.5
74
0
49
-8.5
74
0
0
LTYPE
5
6F
100
AcDbSymbolTableRecord
100
AcDbLinetypeTableRecord
70
0
2
DASHED
3
__ __ __ __ __ __ __ __ __
72
65
73
2
40
25.72
49
12.86
74
0
49
-12.86
74
0
0
ENDTAB
0
TABLE
2
LAYER
5
243
100
AcDbSymbolTable
0
LAYER
5
10
100
AcDbSymbolTableRecord
100
AcDbLayerTableRecord
2
0
70
0
62
7
6
Continuous
290
1
370
-3
390
0
0
LAYER
5
71
100
AcDbSymbolTableRecord
100
AcDbLayerTableRecord
2
80
70
0
62
-6
6
Continuous
290
1
370
-3
390
0
0
LAYER
5
73
100
AcDbSymbolTableRecord
100
AcDbLayerTableRecord
2
81
70
0
62
-3
6
Continuous
290
1
370
-3
390
0
0
LAYER
5
75
100
AcDbSymbolTableRecord
100
AcDbLayerTableRecord
2
1
70
0
62
4
6
Continuous
290
1
370
-3
390
0
0
LAYER
5
7F
100
AcDbSymbolTableRecord
100
AcDbLayerTableRecord
2
4
70
0
62
-2
6
CENTER
290
1
370
-3
390
0
0
LAYER
5
B0
100
AcDbSymbolTableRecord
100
AcDbLayerTableRecord
2
2
70
0
62
7
6
Continuous
290
1
370
-3
390
0
0
LAYER
5
170
100
AcDbSymbolTableRecord
100
AcDbLayerTableRecord
2
Defpoints
70
0
62
7
6
Continuous
290
0
370
-3
390
0
0
LAYER
5
22d
100
AcDbSymbolTableRecord
100
AcDbLayerTableRecord
2
SK4
70
0
62
2
6
CENTER
290
1
370
-3
390
0
0
LAYER
5
22e
100
AcDbSymbolTableRecord
100
AcDbLayerTableRecord
2
SK1
70
0
62
4
6
Continuous
290
1
370
-3
390
0
0
LAYER
5
22f
100
AcDbSymbolTableRecord
100
AcDbLayerTableRecord
2
SK2
70
0
62
7
6
Continuous
290
1
370
-3
390
0
0
LAYER
5
230
100
AcDbSymbolTableRecord
100
AcDbLayerTableRecord
2
SK6
70
0
62
5
6
Continuous
290
1
370
-3
390
0
0
ENDTAB
0
TABLE
2
STYLE
5
244
100
AcDbSymbolTable
0
STYLE
5
11
100
AcDbSymbolTableRecord
100
AcDbTextStyleTableRecord
2
Standard
3
txt
70
0
71
0
40
0
41
1
42
0
50
0
0
STYLE
5
14C
100
AcDbSymbolTableRecord
100
AcDbTextStyleTableRecord
2
iso_b_vert
3
simplex.shx
70
0
71
0
40
0
41
1
42
0
50
0
0
STYLE
5
14D
100
AcDbSymbolTableRecord
100
AcDbTextStyleTableRecord
2
DWGDirectTextStyle
3
simplex
70
0
71
0
40
0
41
1
42
0
50
0
0
ENDTAB
0
TABLE
2
DIMSTYLE
5
245
100
AcDbSymbolTable
100
AcDbDimStyleTable
0
DIMSTYLE
105
27
100
AcDbSymbolTableRecord
100
AcDbDimStyleTableRecord
2
Standard
70
0
3
<>
41
0.18
42
0.0625
44
0.18
140
0.18
147
0.09
73
0
74
0
77
1
271
2
275
0
278
52
280
0
340
11
0
ENDTAB
0
TABLE
2
VIEW
5
246
100
AcDbSymbolTable
0
ENDTAB
0
TABLE
2
UCS
5
247
100
AcDbSymbolTable
0
ENDTAB
0
TABLE
2
APPID
5
248
100
AcDbSymbolTable
0
APPID
5
12
100
AcDbSymbolTableRecord
100
AcDbRegAppTableRecord
2
ACAD
70
0
0
APPID
5
16C
100
AcDbSymbolTableRecord
100
AcDbRegAppTableRecord
2
ACAD_DSTYLE_DIMBREAK
70
0
0
APPID
5
1EC
100
AcDbSymbolTableRecord
100
AcDbRegAppTableRecord
2
ACAD_DSTYLE_DIM_LINETYPE
70
0
0
APPID
5
1ED
100
AcDbSymbolTableRecord
100
AcDbRegAppTableRecord
2
ACAD_DSTYLE_DIM_EXT1_LINETYPE
70
0
0
APPID
5
1EE
100
AcDbSymbolTableRecord
100
AcDbRegAppTableRecord
2
ACAD_DSTYLE_DIM_EXT2_LINETYPE
70
0
0
APPID
5
229
100
AcDbSymbolTableRecord
100
AcDbRegAppTableRecord
2
ACAD_MLEADERVER
70
0
0
ENDTAB
0
TABLE
2
BLOCK_RECORD
5
249
100
AcDbSymbolTable
0
BLOCK_RECORD
5
1F
100
AcDbSymbolTableRecord
100
AcDbBlockTableRecord
2
*Model_Space
340
0
70
0
0
BLOCK_RECORD
5
1B
100
AcDbSymbolTableRecord
100
AcDbBlockTableRecord
2
*Paper_Space
340
0
70
0
0
BLOCK_RECORD
5
23
100
AcDbSymbolTableRecord
100
AcDbBlockTableRecord
2
*Paper_Space0
340
0
70
0
0
BLOCK_RECORD
5
171
100
AcDbSymbolTableRecord
100
AcDbBlockTableRecord
2
*D1
340
0
70
0
0
BLOCK_RECORD
5
17D
100
AcDbSymbolTableRecord
100
AcDbBlockTableRecord
2
_U0
340
0
70
0
0
BLOCK_RECORD
5
189
100
AcDbSymbolTableRecord
100
AcDbBlockTableRecord
2
*D3
340
0
70
0
0
BLOCK_RECORD
5
195
100
AcDbSymbolTableRecord
100
AcDbBlockTableRecord
2
_U1
340
0
70
0
0
BLOCK_RECORD
5
1A1
100
AcDbSymbolTableRecord
100
AcDbBlockTableRecord
2
*D5
340
0
70
0
0
BLOCK_RECORD
5
1AD
100
AcDbSymbolTableRecord
100
AcDbBlockTableRecord
2
_U2
340
0
70
0
0
BLOCK_RECORD
5
1B9
100
AcDbSymbolTableRecord
100
AcDbBlockTableRecord
2
*D7
340
0
70
0
0
BLOCK_RECORD
5
1C5
100
AcDbSymbolTableRecord
100
AcDbBlockTableRecord
2
_U3
340
0
70
0
0
ENDTAB
0
ENDSEC
0
SECTION
2
BLOCKS
0
BLOCK
5
20
100
AcDbEntity
8
0
100
AcDbBlockBegin
2
*Model_Space
70
0
10
0
20
0
30
0
3
*Model_Space
0
ENDBLK
5
21
100
AcDbEntity
8
0
100
AcDbBlockEnd
0
BLOCK
5
1C
100
AcDbEntity
8
0
100
AcDbBlockBegin
2
*Paper_Space
70
0
10
0
20
0
30
0
3
*Paper_Space
0
ENDBLK
5
1D
100
AcDbEntity
8
0
100
AcDbBlockEnd
0
BLOCK
5
24
100
AcDbEntity
8
0
100
AcDbBlockBegin
2
*Paper_Space0
70
0
10
0
20
0
30
0
3
*Paper_Space0
0
ENDBLK
5
25
100
AcDbEntity
8
0
100
AcDbBlockEnd
0
BLOCK
5
172
100
AcDbEntity
8
0
100
AcDbBlockBegin
2
*D1
70
1
10
0
20
0
30
0
3
*D1
0
LINE
5
174
100
AcDbEntity
8
0
62
256
6
ByLayer
370
-2
48
1
60
0
100
AcDbLine
10
-60
20
-17.5875
30
0
11
-60
21
-48.442628
31
0
39
0
210
0
220
0
230
1
0
LINE
5
175
100
AcDbEntity
8
0
62
256
6
ByLayer
370
-2
48
1
60
0
100
AcDbLine
10
67.3
20
-1.5875
30
0
11
67.3
21
-48.442628
31
0
39
0
210
0
220
0
230
1
0
LINE
5
176
100
AcDbEntity
8
0
62
256
6
ByLayer
370
-2
48
1
60
0
100
AcDbLine
10
-56.5
20
-46.442628
30
0
11
63.8
21
-46.442628
31
0
39
0
210
0
220
0
230
1
0
SOLID
5
177
100
AcDbEntity
8
0
62
256
6
ByLayer
370
-1
48
1
60
0
100
AcDbTrace
10
-56.5
20
-45.859295
30
0
11
-56.5
21
-47.025961
31
0
12
-60
22
-46.442628
32
0
13
-60
23
-46.442628
33
0
39
0
210
0
220
0
230
1
0
SOLID
5
178
100
AcDbEntity
8
0
62
256
6
ByLayer
370
-1
48
1
60
0
100
AcDbTrace
10
63.8
20
-47.025961
30
0
11
63.8
21
-45.859295
31
0
12
67.3
22
-46.442628
32
0
13
67.3
23
-46.442628
33
0
39
0
210
0
220
0
230
1
0
MTEXT
5
179
100
AcDbEntity
8
0
62
256
6
ByLayer
370
18
48
1
60
0
100
AcDbMText
10
3.65
20
-40.442628
30
0
210
0
220
0
230
1
1
\A1;127.3
40
3
41
0
44
1
50
0
71
5
72
5
7
iso_b_vert
0
POINT
5
17A
100
AcDbEntity
8
Defpoints
62
0
6
ByLayer
370
-1
48
1
60
0
100
AcDbPoint
10
-60
20
-16
30
0
39
0
210
0
220
0
230
1
50
360
0
POINT
5
17B
100
AcDbEntity
8
Defpoints
62
0
6
ByLayer
370
-1
48
1
60
0
100
AcDbPoint
10
67.3
20
0
30
0
39
0
210
0
220
0
230
1
50
360
0
POINT
5
17C
100
AcDbEntity
8
Defpoints
62
0
6
ByLayer
370
-1
48
1
60
0
100
AcDbPoint
10
67.3
20
-46.442628
30
0
39
0
210
0
220
0
230
1
50
360
0
ENDBLK
5
173
100
AcDbEntity
8
0
100
AcDbBlockEnd
0
BLOCK
5
184
100
AcDbEntity
8
0
100
AcDbBlockBegin
2
_U0
70
0
10
0
20
0
30
0
3
_U0
0
MTEXT
5
17E
100
AcDbEntity
8
SK2
62
256
6
ByLayer
370
18
48
1
60
0
100
AcDbMText
10
-1.578342
20
-45.557514
30
0
210
0
220
0
230
1
1
\W0.7022;127.30
40
3
41
0
44
1.084337
50
0
71
7
72
5
7
iso_b_vert
0
LINE
5
17F
100
AcDbEntity
8
SK2
62
256
6
ByLayer
370
13
48
1
60
0
100
AcDbLine
10
-60
20
-17.5875
30
0
11
-60
21
-48.442628
31
0
39
0
210
0
220
0
230
1
0
LINE
5
180
100
AcDbEntity
8
SK2
62
256
6
ByLayer
370
13
48
1
60
0
100
AcDbLine
10
67.3
20
-1.5875
30
0
11
67.3
21
-48.442628
31
0
39
0
210
0
220
0
230
1
0
LINE
5
181
100
AcDbEntity
8
SK2
62
256
6
ByLayer
370
13
48
1
60
0
100
AcDbLine
10
-60
20
-46.442628
30
0
11
67.3
21
-46.442628
31
0
39
0
210
0
220
0
230
1
0
SOLID
5
182
100
AcDbEntity
8
SK2
62
256
6
ByLayer
370
18
48
1
60
0
100
AcDbTrace
10
-60
20
-46.442628
30
0
11
-56.500002
21
-45.981844
31
0
12
-56.499998
22
-46.903412
32
0
13
-56.499998
23
-46.903412
33
0
39
0
210
0
220
0
230
1
0
SOLID
5
183
100
AcDbEntity
8
SK2
62
256
6
ByLayer
370
18
48
1
60
0
100
AcDbTrace
10
67.3
20
-46.442628
30
0
11
63.800002
21
-46.903412
31
0
12
63.799998
22
-45.981844
32
0
13
63.799998
23
-45.981844
33
0
39
0
210
0
220
0
230
1
0
ENDBLK
5
185
100
AcDbEntity
8
0
100
AcDbBlockEnd
0
BLOCK
5
18A
100
AcDbEntity
8
0
100
AcDbBlockBegin
2
*D3
70
1
10
0
20
0
30
0
3
*D3
0
LINE
5
18C
100
AcDbEntity
8
0
62
256
6
ByLayer
370
-2
48
1
60
0
100
AcDbLine
10
67.3
20
-1.5875
30
0
11
67.3
21
-38.442628
31
0
39
0
210
0
220
0
230
1
0
LINE
5
18D
100
AcDbEntity
8
0
62
256
6
ByLayer
370
-2
48
1
60
0
100
AcDbLine
10
6
20
-14.5875
30
0
11
6
21
-38.442628
31
0
39
0
210
0
220
0
230
1
0
LINE
5
18E
100
AcDbEntity
8
0
62
256
6
ByLayer
370
-2
48
1
60
0
100
AcDbLine
10
63.8
20
-36.442628
30
0
11
9.5
21
-36.442628
31
0
39
0
210
0
220
0
230
1
0
SOLID
5
18F
100
AcDbEntity
8
0
62
256
6
ByLayer
370
-1
48
1
60
0
100
AcDbTrace
10
63.8
20
-37.025961
30
0
11
63.8
21
-35.859295
31
0
12
67.3
22
-36.442628
32
0
13
67.3
23
-36.442628
33
0
39
0
210
0
220
0
230
1
0
SOLID
5
190
100
AcDbEntity
8
0
62
256
6
ByLayer
370
-1
48
1
60
0
100
AcDbTrace
10
9.5
20
-35.859295
30
0
11
9.5
21
-37.025961
31
0
12
6
22
-36.442628
32
0
13
6
23
-36.442628
33
0
39
0
210
0
220
0
230
1
0
MTEXT
5
191
100
AcDbEntity
8
0
62
256
6
ByLayer
370
18
48
1
60
0
100
AcDbMText
10
36.65
20
-30.442628
30
0
210
0
220
0
230
1
1
\A1;61.3
40
3
41
0
44
1
50
0
71
5
72
5
7
iso_b_vert
0
POINT
5
192
100
AcDbEntity
8
Defpoints
62
0
6
ByLayer
370
-1
48
1
60
0
100
AcDbPoint
10
67.3
20
0
30
0
39
0
210
0
220
0
230
1
50
360
0
POINT
5
193
100
AcDbEntity
8
Defpoints
62
0
6
ByLayer
370
-1
48
1
60
0
100
AcDbPoint
10
6
20
-13
30
0
39
0
210
0
220
0
230
1
50
360
0
POINT
5
194
100
AcDbEntity
8
Defpoints
62
0
6
ByLayer
370
-1
48
1
60
0
100
AcDbPoint
10
6
20
-36.442628
30
0
39
0
210
0
220
0
230
1
50
360
0
ENDBLK
5
18B
100
AcDbEntity
8
0
100
AcDbBlockEnd
0
BLOCK
5
19C
100
AcDbEntity
8
0
100
AcDbBlockBegin
2
_U1
70
0
10
0
20
0
30
0
3
_U1
0
MTEXT
5
196
100
AcDbEntity
8
SK2
62
256
6
ByLayer
370
18
48
1
60
0
100
AcDbMText
10
32.542572
20
-35.557514
30
0
210
0
220
0
230
1
1
\W0.6864;61.30
40
3
41
0
44
1.084337
50
0
71
7
72
5
7
iso_b_vert
0
LINE
5
197
100
AcDbEntity
8
SK2
62
256
6
ByLayer
370
13
48
1
60
0
100
AcDbLine
10
67.3
20
-1.5875
30
0
11
67.3
21
-38.442628
31
0
39
0
210
0
220
0
230
1
0
LINE
5
198
100
AcDbEntity
8
SK2
62
256
6
ByLayer
370
13
48
1
60
0
100
AcDbLine
10
6
20
-14.5875
30
0
11
6
21
-38.442628
31
0
39
0
210
0
220
0
230
1
0
LINE
5
199
100
AcDbEntity
8
SK2
62
256
6
ByLayer
370
13
48
1
60
0
100
AcDbLine
10
67.3
20
-36.442628
30
0
11
6
21
-36.442628
31
0
39
0
210
0
220
0
230
1
0
SOLID
5
19A
100
AcDbEntity
8
SK2
62
256
6
ByLayer
370
18
48
1
60
0
100
AcDbTrace
10
67.3
20
-36.442628
30
0
11
63.800002
21
-36.903412
31
0
12
63.799998
22
-35.981844
32
0
13
63.799998
23
-35.981844
33
0
39
0
210
0
220
0
230
1
0
SOLID
5
19B
100
AcDbEntity
8
SK2
62
256
6
ByLayer
370
18
48
1
60
0
100
AcDbTrace
10
6
20
-36.442628
30
0
11
9.499998
21
-35.981844
31
0
12
9.500002
22
-36.903412
32
0
13
9.500002
23
-36.903412
33
0
39
0
210
0
220
0
230
1
0
ENDBLK
5
19D
100
AcDbEntity
8
0
100
AcDbBlockEnd
0
BLOCK
5
1A2
100
AcDbEntity
8
0
100
AcDbBlockBegin
2
*D5
70
1
10
0
20
0
30
0
3
*D5
0
LINE
5
1A4
100
AcDbEntity
8
0
62
256
6
ByLayer
370
-2
48
1
60
0
100
AcDbLine
10
-60
20
-17.5875
30
0
11
-60
21
-38.442628
31
0
39
0
210
0
220
0
230
1
0
LINE
5
1A5
100
AcDbEntity
8
0
62
256
6
ByLayer
370
-2
48
1
60
0
100
AcDbLine
10
0
20
-17.5875
30
0
11
0
21
-38.442628
31
0
39
0
210
0
220
0
230
1
0
LINE
5
1A6
100
AcDbEntity
8
0
62
256
6
ByLayer
370
-2
48
1
60
0
100
AcDbLine
10
-56.5
20
-36.442628
30
0
11
-3.5
21
-36.442628
31
0
39
0
210
0
220
0
230
1
0
SOLID
5
1A7
100
AcDbEntity
8
0
62
256
6
ByLayer
370
-1
48
1
60
0
100
AcDbTrace
10
-56.5
20
-35.859295
30
0
11
-56.5
21
-37.025961
31
0
12
-60
22
-36.442628
32
0
13
-60
23
-36.442628
33
0
39
0
210
0
220
0
230
1
0
SOLID
5
1A8
100
AcDbEntity
8
0
62
256
6
ByLayer
370
-1
48
1
60
0
100
AcDbTrace
10
-3.5
20
-37.025961
30
0
11
-3.5
21
-35.859295
31
0
12
0
22
-36.442628
32
0
13
0
23
-36.442628
33
0
39
0
210
0
220
0
230
1
0
MTEXT
5
1A9
100
AcDbEntity
8
0
62
256
6
ByLayer
370
18
48
1
60
0
100
AcDbMText
10
-30
20
-30.442628
30
0
210
0
220
0
230
1
1
\A1;60
40
3
41
0
44
1
50
0
71
5
72
5
7
iso_b_vert
0
POINT
5
1AA
100
AcDbEntity
8
Defpoints
62
0
6
ByLayer
370
-1
48
1
60
0
100
AcDbPoint
10
-60
20
-16
30
0
39
0
210
0
220
0
230
1
50
360
0
POINT
5
1AB
100
AcDbEntity
8
Defpoints
62
0
6
ByLayer
370
-1
48
1
60
0
100
AcDbPoint
10
0
20
-16
30
0
39
0
210
0
220
0
230
1
50
360
0
POINT
5
1AC
100
AcDbEntity
8
Defpoints
62
0
6
ByLayer
370
-1
48
1
60
0
100
AcDbPoint
10
0
20
-36.442628
30
0
39
0
210
0
220
0
230
1
50
360
0
ENDBLK
5
1A3
100
AcDbEntity
8
0
100
AcDbBlockEnd
0
BLOCK
5
1B4
100
AcDbEntity
8
0
100
AcDbBlockBegin
2
_U2
70
0
10
0
20
0
30
0
3
_U2
0
MTEXT
5
1AE
100
AcDbEntity
8
SK2
62
256
6
ByLayer
370
18
48
1
60
0
100
AcDbMText
10
-34.48237
20
-35.557514
30
0
210
0
220
0
230
1
1
\W0.7468;60.00
40
3
41
0
44
1.084337
50
0
71
7
72
5
7
iso_b_vert
0
LINE
5
1AF
100
AcDbEntity
8
SK2
62
256
6
ByLayer
370
13
48
1
60
0
100
AcDbLine
10
-60
20
-17.5875
30
0
11
-60
21
-38.442628
31
0
39
0
210
0
220
0
230
1
0
LINE
5
1B0
100
AcDbEntity
8
SK2
62
256
6
ByLayer
370
13
48
1
60
0
100
AcDbLine
10
0
20
-17.5875
30
0
11
0
21
-38.442628
31
0
39
0
210
0
220
0
230
1
0
LINE
5
1B1
100
AcDbEntity
8
SK2
62
256
6
ByLayer
370
13
48
1
60
0
100
AcDbLine
10
-60
20
-36.442628
30
0
11
0
21
-36.442628
31
0
39
0
210
0
220
0
230
1
0
SOLID
5
1B2
100
AcDbEntity
8
SK2
62
256
6
ByLayer
370
18
48
1
60
0
100
AcDbTrace
10
-60
20
-36.442628
30
0
11
-56.500002
21
-35.981844
31
0
12
-56.499998
22
-36.903412
32
0
13
-56.499998
23
-36.903412
33
0
39
0
210
0
220
0
230
1
0
SOLID
5
1B3
100
AcDbEntity
8
SK2
62
256
6
ByLayer
370
18
48
1
60
0
100
AcDbTrace
10
0
20
-36.442628
30
0
11
-3.499998
21
-36.903412
31
0
12
-3.500002
22
-35.981844
32
0
13
-3.500002
23
-35.981844
33
0
39
0
210
0
220
0
230
1
0
ENDBLK
5
1B5
100
AcDbEntity
8
0
100
AcDbBlockEnd
0
BLOCK
5
1BA
100
AcDbEntity
8
0
100
AcDbBlockBegin
2
*D7
70
1
10
0
20
0
30
0
3
*D7
0
LINE
5
1BC
100
AcDbEntity
8
0
62
256
6
ByLayer
370
-2
48
1
60
0
100
AcDbLine
10
67.3
20
1.5875
30
0
11
67.3
21
35.442628
31
0
39
0
210
0
220
0
230
1
0
LINE
5
1BD
100
AcDbEntity
8
0
62
256
6
ByLayer
370
-2
48
1
60
0
100
AcDbLine
10
15
20
14.5875
30
0
11
15
21
35.442628
31
0
39
0
210
0
220
0
230
1
0
LINE
5
1BE
100
AcDbEntity
8
0
62
256
6
ByLayer
370
-2
48
1
60
0
100
AcDbLine
10
63.8
20
33.442628
30
0
11
18.5
21
33.442628
31
0
39
0
210
0
220
0
230
1
0
SOLID
5
1BF
100
AcDbEntity
8
0
62
256
6
ByLayer
370
-1
48
1
60
0
100
AcDbTrace
10
63.8
20
32.859295
30
0
11
63.8
21
34.025961
31
0
12
67.3
22
33.442628
32
0
13
67.3
23
33.442628
33
0
39
0
210
0
220
0
230
1
0
SOLID
5
1C0
100
AcDbEntity
8
0
62
256
6
ByLayer
370
-1
48
1
60
0
100
AcDbTrace
10
18.5
20
34.025961
30
0
11
18.5
21
32.859295
31
0
12
15
22
33.442628
32
0
13
15
23
33.442628
33
0
39
0
210
0
220
0
230
1
0
MTEXT
5
1C1
100
AcDbEntity
8
0
62
256
6
ByLayer
370
18
48
1
60
0
100
AcDbMText
10
41.15
20
39.442628
30
0
210
0
220
0
230
1
1
\A1;52.3
40
3
41
0
44
1
50
0
71
5
72
5
7
iso_b_vert
0
POINT
5
1C2
100
AcDbEntity
8
Defpoints
62
0
6
ByLayer
370
-1
48
1
60
0
100
AcDbPoint
10
67.3
20
0
30
0
39
0
210
0
220
0
230
1
50
360
0
POINT
5
1C3
100
AcDbEntity
8
Defpoints
62
0
6
ByLayer
370
-1
48
1
60
0
100
AcDbPoint
10
15
20
13
30
0
39
0
210
0
220
0
230
1
50
360
0
POINT
5
1C4
100
AcDbEntity
8
Defpoints
62
0
6
ByLayer
370
-1
48
1
60
0
100
AcDbPoint
10
15
20
33.442628
30
0
39
0
210
0
220
0
230
1
50
360
0
ENDBLK
5
1BB
100
AcDbEntity
8
0
100
AcDbBlockEnd
0
BLOCK
5
1CC
100
AcDbEntity
8
0
100
AcDbBlockBegin
2
_U3
70
0
10
0
20
0
30
0
3
_U3
0
MTEXT
5
1C6
100
AcDbEntity
8
SK2
62
256
6
ByLayer
370
18
48
1
60
0
100
AcDbMText
10
36.66763
20
34.327743
30
0
210
0
220
0
230
1
1
\W0.7468;52.30
40
3
41
0
44
1.084337
50
0
71
7
72
5
7
iso_b_vert
0
LINE
5
1C7
100
AcDbEntity
8
SK2
62
256
6
ByLayer
370
13
48
1
60
0
100
AcDbLine
10
67.3
20
1.5875
30
0
11
67.3
21
35.442628
31
0
39
0
210
0
220
0
230
1
0
LINE
5
1C8
100
AcDbEntity
8
SK2
62
256
6
ByLayer
370
13
48
1
60
0
100
AcDbLine
10
15
20
14.5875
30
0
11
15
21
35.442628
31
0
39
0
210
0
220
0
230
1
0
LINE
5
1C9
100
AcDbEntity
8
SK2
62
256
6
ByLayer
370
13
48
1
60
0
100
AcDbLine
10
67.3
20
33.442628
30
0
11
15
21
33.442628
31
0
39
0
210
0
220
0
230
1
0
SOLID
5
1CA
100
AcDbEntity
8
SK2
62
256
6
ByLayer
370
18
48
1
60
0
100
AcDbTrace
10
67.3
20
33.442628
30
0
11
63.800002
21
32.981844
31
0
12
63.799998
22
33.903412
32
0
13
63.799998
23
33.903412
33
0
39
0
210
0
220
0
230
1
0
SOLID
5
1CB
100
AcDbEntity
8
SK2
62
256
6
ByLayer
370
18
48
1
60
0
100
AcDbTrace
10
15
20
33.442628
30
0
11
18.499998
21
33.903412
31
0
12
18.500002
22
32.981844
32
0
13
18.500002
23
32.981844
33
0
39
0
210
0
220
0
230
1
0
ENDBLK
5
1CD
100
AcDbEntity
8
0
100
AcDbBlockEnd
0
ENDSEC
0
SECTION
2
ENTITIES
0
ARC
5
C1
100
AcDbEntity
8
SK2
62
256
6
ByLayer
370
13
48
1
60
0
100
AcDbCircle
39
0
10
67.3
20
0
30
0
40
18.9999999999999
210
0
220
0
230
1
100
AcDbArc
50
290
51
70
0
ELLIPSE
5
C2
100
AcDbEntity
8
SK1
62
256
6
ByLayer
370
18
48
1
60
0
100
AcDbEllipse
10
375.907546
20
0
30
0
11
458.180052524353
21
-5.19163675692399E-13
31
0
210
0
220
0
230
1
40
0.034921
41
2.59367031451701
42
2.79796683129766
0
ELLIPSE
5
C3
100
AcDbEntity
8
SK1
62
256
6
ByLayer
370
18
48
1
60
0
100
AcDbEllipse
10
375.907546
20
0
30
0
11
458.180052528051
21
-5.19163675696589E-13
31
0
210
0
220
0
230
1
40
0.034921
41
-2.79796683129846
42
-2.59367031451889
0
ELLIPSE
5
C4
100
AcDbEntity
8
SK1
62
256
6
ByLayer
370
18
48
1
60
0
100
AcDbEllipse
10
-29.157899
20
0
30
0
11
17.1578993603954
21
-1.94416104542868E-14
31
0
210
0
220
0
230
1
40
0.932515
41
-0.494065251162693
42
0.494065251162695
0
ELLIPSE
5
C5
100
AcDbEntity
8
SK1
62
256
6
ByLayer
370
18
48
1
60
0
100
AcDbEllipse
10
-42.079759
20
0
30
0
11
-2.93905524917505E-15
21
-16.0000000000073
31
0
210
0
220
0
230
1
40
0.932515
41
-1.80249142112189
42
-1.3391012324679
0
POINT
5
70
100
AcDbEntity
8
80
62
256
6
ByLayer
370
18
48
1
60
0
100
AcDbPoint
10
0
20
0
30
0
39
0
210
0
220
0
230
1
50
360
0
POINT
5
72
100
AcDbEntity
8
81
62
256
6
ByLayer
370
18
48
1
60
0
100
AcDbPoint
10
67.3
20
0
30
0
39
0
210
0
220
0
230
1
50
360
0
POINT
5
74
100
AcDbEntity
8
1
62
256
6
ByLayer
370
18
48
1
60
1
100
AcDbPoint
10
-60
20
-16
30
0
39
0
210
0
220
0
230
1
50
360
0
POINT
5
76
100
AcDbEntity
8
1
62
256
6
ByLayer
370
18
48
1
60
1
100
AcDbPoint
10
67.3
20
0
30
0
39
0
210
0
220
0
230
1
50
360
0
POINT
5
77
100
AcDbEntity
8
1
62
256
6
ByLayer
370
18
48
1
60
1
100
AcDbPoint
10
67.3
20
0
30
0
39
0
210
0
220
0
230
1
50
360
0
POINT
5
78
100
AcDbEntity
8
1
62
256
6
ByLayer
370
18
48
1
60
1
100
AcDbPoint
10
6
20
-13
30
0
39
0
210
0
220
0
230
1
50
360
0
POINT
5
79
100
AcDbEntity
8
1
62
256
6
ByLayer
370
18
48
1
60
1
100
AcDbPoint
10
-60
20
-16
30
0
39
0
210
0
220
0
230
1
50
360
0
POINT
5
7A
100
AcDbEntity
8
1
62
256
6
ByLayer
370
18
48
1
60
1
100
AcDbPoint
10
0
20
-16
30
0
39
0
210
0
220
0
230
1
50
360
0
POINT
5
7B
100
AcDbEntity
8
1
62
256
6
ByLayer
370
18
48
1
60
1
100
AcDbPoint
10
67.3
20
0
30
0
39
0
210
0
220
0
230
1
50
360
0
POINT
5
7C
100
AcDbEntity
8
1
62
256
6
ByLayer
370
18
48
1
60
1
100
AcDbPoint
10
15
20
13
30
0
39
0
210
0
220
0
230
1
50
360
0
SPLINE
5
C6
100
AcDbEntity
8
1
62
256
6
ByLayer
370
18
48
1
60
0
100
AcDbSpline
70
4
71
3
72
18
73
14
40
0
40
0
40
0
40
0
40
0.149252906061421
40
0.149252906061421
40
0.361939679546066
40
0.361939679546066
40
0.468283066288389
40
0.468283066288389
40
0.574626453030711
40
0.574626453030711
40
0.787313226515356
40
0.787313226515356
40
1
40
1
40
1
40
1
41
1
10
27.4179580567608
20
-9.48858972181426
30
0
41
1
10
26.9323744402727
20
-9.60548346766672
30
0
41
1
10
26.4468530193682
20
-9.71977190295681
30
0
41
1
10
25.2693082119787
20
-9.99004522179325
30
0
41
1
10
24.5772071923746
20
-10.1431008861991
30
0
41
1
10
23.5389532772384
20
-10.364235466555
30
0
41
1
10
23.1928497278641
20
-10.4365342385268
30
0
41
1
10
22.5006155769475
20
-10.5783117405283
30
0
41
1
10
22.1544973150912
20
-10.6478079866728
30
0
41
1
10
21.115812591318
20
-10.8515956922693
30
0
41
1
10
20.4229313605429
20
-10.9812233969527
30
0
41
1
10
19.036367476294
20
-11.2281139370848
30
0
41
1
10
18.3426893553879
20
-11.3453853039046
30
0
41
1
10
17.64867906077
20
-11.4565049678667
30
0
0
SPLINE
5
C7
100
AcDbEntity
8
1
62
256
6
ByLayer
370
18
48
1
60
0
100
AcDbSpline
70
4
71
3
72
14
73
10
40
0
40
0
40
0
40
0
40
0.25
40
0.25
40
0.5
40
0.5
40
0.75
40
0.75
40
1
40
1
40
1
40
1
41
1
10
17.6486790607699
20
11.4565049678668
30
0
41
1
10
17.4238646745102
20
11.4936757771575
30
0
41
1
10
17.2002287309634
20
11.5313496741657
30
0
41
1
10
16.7550208047445
20
11.607112616472
30
0
41
1
10
16.5334480081173
20
11.6452014383705
30
0
41
1
10
16.0921739629109
20
11.7213331026868
30
0
41
1
10
15.8724722571064
20
11.7593764043744
30
0
41
1
10
15.4348702710158
20
11.8350842320312
30
0
41
1
10
15.2169700054527
20
11.872749879712
30
0
41
1
10
15
20
11.9101119126054
30
0
0
SPLINE
5
C8
100
AcDbEntity
8
1
62
256
6
ByLayer
370
18
48
1
60
0
100
AcDbSpline
70
4
71
3
72
44
73
40
40
0
40
0
40
0
40
0
40
0.124999999999995
40
0.124999999999995
40
0.156249999999995
40
0.156249999999995
40
0.187499999999995
40
0.187499999999995
40
0.249999999999994
40
0.249999999999994
40
0.312499999999994
40
0.312499999999994
40
0.374999999999993
40
0.374999999999993
40
0.437499999999993
40
0.437499999999993
40
0.499999999999993
40
0.499999999999993
40
0.531249999999993
40
0.531249999999993
40
0.562499999999993
40
0.562499999999993
40
0.624999999999994
40
0.624999999999994
40
0.687499999999995
40
0.687499999999995
40
0.718749999999996
40
0.718749999999996
40
0.749999999999996
40
0.749999999999996
40
0.812499999999997
40
0.812499999999997
40
0.843749999999998
40
0.843749999999998
40
0.874999999999998
40
0.874999999999998
40
0.937499999999999
40
0.937499999999999
40
1
40
1
40
1
40
1
41
1
10
23.3390445731692
20
-8.43205350155108
30
0
41
1
10
24.4888270816697
20
-8.74295752378035
30
0
41
1
10
25.6379696545341
20
-9.03863855758448
30
0
41
1
10
27.0729085905582
20
-9.39093573594295
30
0
41
1
10
27.3598221420833
20
-9.46052475794207
30
0
41
1
10
27.9334852753557
20
-9.59798330657256
30
0
41
1
10
28.2202305833349
20
-9.66585904527201
30
0
41
1
10
29.0804864830747
20
-9.8664078258962
30
0
41
1
10
29.6540458086062
20
-9.99596221728581
30
0
41
1
10
30.8010664062369
20
-10.2472257032259
30
0
41
1
10
31.3745183819209
20
-10.368949266425
30
0
41
1
10
32.5211789163698
20
-10.6047465481376
30
0
41
1
10
33.0944271916752
20
-10.7187435375271
30
0
41
1
10
34.2413200379754
20
-10.938057485985
30
0
41
1
10
34.8150265592109
20
-11.0432961828386
30
0
41
1
10
35.9627104548383
20
-11.2453317193128
30
0
41
1
10
36.5366858815735
20
-11.3421282372504
30
0
41
1
10
37.3977903879094
20
-11.4810101871766
30
0
41
1
10
37.6848435249268
20
-11.5262562294874
30
0
41
1
10
38.2591666311046
20
-11.6144230879643
30
0
41
1
10
38.5464456244983
20
-11.6573348240565
30
0
41
1
10
39.408593840686
20
-11.7826175323033
30
0
41
1
10
39.9839323707268
20
-11.8615602266269
30
0
41
1
10
41.1337549110652
20
-12.0102571001121
30
0
41
1
10
41.7083278031225
20
-12.0800756542935
30
0
41
1
10
42.5699472149791
20
-12.177719533634
30
0
41
1
10
42.8571194639946
20
-12.2090823239576
30
0
41
1
10
43.4314722038261
20
-12.2693788334332
30
0
41
1
10
43.7186614068348
20
-12.2983063155206
30
0
41
1
10
44.5802568979398
20
-12.3814541089456
30
0
41
1
10
45.1546514239236
20
-12.4320752270976
30
0
41
1
10
46.0161120776083
20
-12.5008651533424
30
0
41
1
10
46.3032465471226
20
-12.5226017567337
30
0
41
1
10
46.8774678312782
20
-12.563681215281
30
0
41
1
10
47.1645494826239
20
-12.5830248254705
30
0
41
1
10
48.0259839446764
20
-12.6373194042304
30
0
41
1
10
48.6005574535578
20
-12.6685336457021
30
0
41
1
10
49.7500582419849
20
-12.7211539087204
30
0
41
1
10
50.3249758172122
20
-12.742561524433
30
0
41
1
10
50.9
20
-12.7590454495868
30
0
0
SPLINE
5
C9
100
AcDbEntity
8
1
62
256
6
ByLayer
370
18
48
1
60
0
100
AcDbSpline
70
4
71
3
72
10
73
6
40
0
40
0
40
0
40
0
40
0.551457963356248
40
0.551457963356248
40
1
40
1
40
1
40
1
41
1
10
50.9
20
-12.9622043999386
30
0
41
1
10
51.3866616700908
20
-12.9754199022997
30
0
41
1
10
51.8730612079667
20
-12.9850242713282
30
0
41
1
10
52.7549178169258
20
-12.9958525057512
30
0
41
1
10
53.1504373276019
20
-12.9983073207857
30
0
41
1
10
53.5459263757378
20
-12.9983760638987
30
0
0
SPLINE
5
CA
100
AcDbEntity
8
1
62
256
6
ByLayer
370
18
48
1
60
0
100
AcDbSpline
70
4
71
3
72
18
73
14
40
0
40
0
40
0
40
0
40
0.124999999999999
40
0.124999999999999
40
0.187499999999998
40
0.187499999999998
40
0.249999999999998
40
0.249999999999998
40
0.499999999999998
40
0.499999999999998
40
0.749999999999999
40
0.749999999999999
40
1
40
1
40
1
40
1
41
1
10
62.5683869545407
20
-1.85488471307687
30
0
41
1
10
62.0816538113076
20
-1.67973116931569
30
0
41
1
10
61.5951072237903
20
-1.5041364580093
30
0
41
1
10
60.865590638453
20
-1.24001777655383
30
0
41
1
10
60.6224716868055
20
-1.15184967084682
30
0
41
1
10
60.1363250210408
20
-0.975298645477864
30
0
41
1
10
59.8932959299518
20
-0.886919550256039
30
0
41
1
10
58.6781291513809
20
-0.445176648580087
30
0
41
1
10
57.7060320053387
20
-0.0919805660699069
30
0
41
1
10
55.7622833737171
20
0.6150481076711
30
0
41
1
10
54.7906579312692
20
0.968950843759558
30
0
41
1
10
52.8460403312529
20
1.67239161192941
30
0
41
1
10
51.8732272478131
20
2.02242465750538
30
0
41
1
10
50.9
20
2.37101590709372
30
0
0
SPLINE
5
CB
100
AcDbEntity
8
1
62
256
6
ByLayer
370
18
48
1
60
0
100
AcDbSpline
70
4
71
3
72
95
73
91
40
0
40
0
40
0
40
0
40
0.0312500000000011
40
0.0312500000000011
40
0.0625000000000022
40
0.0625000000000022
40
0.0937500000000034
40
0.0937500000000034
40
0.125000000000004
40
0.125000000000004
40
0.140625000000005
40
0.140625000000005
40
0.148437500000005
40
0.148437500000005
40
0.156250000000006
40
0.187500000000006
40
0.187500000000006
40
0.218750000000007
40
0.218750000000007
40
0.250000000000008
40
0.250000000000008
40
0.281250000000008
40
0.281250000000008
40
0.296875000000009
40
0.296875000000009
40
0.304687500000009
40
0.304687500000009
40
0.312500000000008
40
0.312500000000008
40
0.343750000000008
40
0.343750000000008
40
0.375000000000007
40
0.375000000000007
40
0.406250000000007
40
0.406250000000007
40
0.437500000000006
40
0.437500000000006
40
0.445312500000006
40
0.445312500000006
40
0.453125000000005
40
0.468750000000004
40
0.468750000000004
40
0.500000000000002
40
0.500000000000002
40
0.53125
40
0.53125
40
0.539062499999999
40
0.539062499999999
40
0.546874999999999
40
0.562499999999998
40
0.562499999999998
40
0.593749999999995
40
0.593749999999995
40
0.624999999999992
40
0.624999999999992
40
0.632812499999992
40
0.632812499999992
40
0.640624999999991
40
0.656249999999992
40
0.656249999999992
40
0.687499999999992
40
0.687499999999992
40
0.718749999999992
40
0.718749999999992
40
0.726562499999993
40
0.726562499999993
40
0.734374999999993
40
0.734374999999993
40
0.749999999999994
40
0.749999999999994
40
0.781249999999994
40
0.781249999999994
40
0.812499999999994
40
0.812499999999994
40
0.843749999999995
40
0.843749999999995
40
0.851562499999995
40
0.851562499999995
40
0.859374999999995
40
0.874999999999995
40
0.874999999999995
40
0.906249999999996
40
0.906249999999996
40
0.937499999999997
40
0.968749999999997
40
0.968749999999997
40
0.976562499999998
40
0.976562499999998
40
0.984374999999998
40
1
40
1
40
1
40
1
41
1
10
62.5683869545394
20
12.5871816387151
30
0
41
1
10
62.6495825488817
20
12.3858470287204
30
0
41
1
10
62.7309053614278
20
12.181493055013
30
0
41
1
10
62.8939434276793
20
11.7672217694291
30
0
41
1
10
62.9756585398148
20
11.5573033893227
30
0
41
1
10
63.1395780548403
20
11.1322456966034
30
0
41
1
10
63.2217825202801
20
10.9171057790618
30
0
41
1
10
63.3867382989683
20
10.4818422709542
30
0
41
1
10
63.4694899074683
20
10.2617183523194
30
0
41
1
10
63.5940371806327
20
9.92790446070663
30
0
41
1
10
63.6356225414418
20
9.81602779394566
30
0
41
1
10
63.6981022865603
20
9.64731217680901
30
0
41
1
10
63.7189602099081
20
9.59088437849584
30
0
41
1
10
63.7606352582106
20
9.47792933759865
30
0
41
1
10
63.8646694967569
20
9.19543007679246
30
0
41
1
10
63.9679471409799
20
8.9123813810603
30
0
41
1
10
64.1321551820739
20
8.45879523520281
30
0
41
1
10
64.2137421247297
20
8.23164837824606
30
0
41
1
10
64.375693807006
20
7.77659371101026
30
0
41
1
10
64.456060382913
20
7.5486865358628
30
0
41
1
10
64.6152246927424
20
7.09199642807209
30
0
41
1
10
64.694025726291
20
6.86321474368549
30
0
41
1
10
64.8106196132639
20
6.51923593305554
30
0
41
1
10
64.8492141963675
20
6.40444116127637
30
0
41
1
10
64.9066229104502
20
6.23201854652271
30
0
41
1
10
64.9256882390675
20
6.17447605644821
30
0
41
1
10
64.9635940240503
20
6.05945405535945
30
0
41
1
10
64.9824238757774
20
6.00200706848116
30
0
41
1
10
65.0759195794165
20
5.71507881162935
30
0
41
1
10
65.1486474441539
20
5.48652065596107
30
0
41
1
10
65.288635582269
20
5.03100056179241
30
0
41
1
10
65.3559050475866
20
4.80404009806634
30
0
41
1
10
65.4829328454402
20
4.35124618647254
30
0
41
1
10
65.5427019048752
20
4.12541369673079
30
0
41
1
10
65.6516517108454
20
3.67426714354431
30
0
41
1
10
65.700837345295
20
3.44895123484054
30
0
41
1
10
65.7529617994749
20
3.16716411903622
30
0
41
1
10
65.7629219627619
20
3.11076087756152
30
0
41
1
10
65.7817908807127
20
2.99809689034677
30
0
41
1
10
65.8084563200353
20
2.82969343811183
30
0
41
1
10
65.8299212432918
20
2.66309029209194
30
0
41
1
10
65.8652185917214
20
2.33237684089514
30
0
41
1
10
65.8784983372494
20
2.11521366811405
30
0
41
1
10
65.8820725336848
20
1.68828315257687
30
0
41
1
10
65.8723461737266
20
1.47851936094321
30
0
41
1
10
65.8459120741382
20
1.22161950954319
30
0
41
1
10
65.8399110639386
20
1.17045121294234
30
0
41
1
10
65.8265560205387
20
1.0689073088183
30
0
41
1
10
65.8045561657189
20
0.918211646391285
30
0
41
1
10
65.7769955229984
20
0.772316455449385
30
0
41
1
10
65.7153854560948
20
0.486771020684074
30
0
41
1
10
65.6656959628552
20
0.304722368998569
30
0
41
1
10
65.5535659568147
20
-0.0433970897053655
30
0
41
1
10
65.4911348684446
20
-0.209472588596981
30
0
41
1
10
65.4072002753474
20
-0.407233768289899
30
0
41
1
10
65.3901006489738
20
-0.446325923572374
30
0
41
1
10
65.3554136344864
20
-0.52337204105342
30
0
41
1
10
65.302733647051
20
-0.637054811267319
30
0
41
1
10
65.2483069524847
20
-0.745189518508283
30
0
41
1
10
65.1375472865914
20
-0.954283790553205
30
0
41
1
10
65.0611910168612
20
-1.08413305710823
30
0
41
1
10
64.904926727001
20
-1.32537618390342
30
0
41
1
10
64.8250081474347
20
-1.43676657980941
30
0
41
1
10
64.7233708042947
20
-1.56448834916011
30
0
41
1
10
64.7029550873652
20
-1.58945554057394
30
0
41
1
10
64.6619547490957
20
-1.63823083316689
30
0
41
1
10
64.641356338086
20
-1.66205309711742
30
0
41
1
10
64.5795831020504
20
-1.73147960764544
30
0
41
1
10
64.5383519275517
20
-1.77514246773885
30
0
41
1
10
64.4145758355068
20
-1.89844337140678
30
0
41
1
10
64.331954491975
20
-1.9704095878181
30
0
41
1
10
64.1666539113471
20
-2.09439145196504
30
0
41
1
10
64.0839720978173
20
-2.14640504015017
30
0
41
1
10
63.9185250023919
20
-2.23050850863618
30
0
41
1
10
63.8357585424811
20
-2.26259840475206
30
0
41
1
10
63.7321617812092
20
-2.28999195499077
30
0
41
1
10
63.7114227575807
20
-2.29483470298018
30
0
41
1
10
63.6701145758347
20
-2.3032025220393
30
0
41
1
10
63.6083415820312
20
-2.31379714773601
30
0
41
1
10
63.547116180617
20
-2.31858580377607
30
0
41
1
10
63.4253418267765
20
-2.32055344704534
30
0
41
1
10
63.3450606671989
20
-2.31173189704632
30
0
41
1
10
63.1860196152418
20
-2.2741903663601
30
0
41
1
10
63.0284998132882
20
-2.21674814908747
30
0
41
1
10
62.8734678676883
20
-2.11943275283502
30
0
41
1
10
62.7771759210605
20
-2.04587645534704
30
0
41
1
10
62.7579630341781
20
-2.0305383884415
30
0
41
1
10
62.7196946707855
20
-1.99866794479692
30
0
41
1
10
62.6624962678639
20
-1.94904626603218
30
0
41
1
10
62.6058860790222
20
-1.89399445480166
30
0
41
1
10
62.5683869545393
20
-1.85488471307642
30
0
0
SPLINE
5
CC
100
AcDbEntity
8
1
62
256
6
ByLayer
370
18
48
1
60
0
100
AcDbSpline
70
4
71
3
72
22
73
18
40
0
40
0
40
0
40
0
40
0.0301658975412217
40
0.0301658975412217
40
0.191804914617682
40
0.191804914617682
40
0.272624423155912
40
0.272624423155912
40
0.353443931694143
40
0.353443931694143
40
0.515082948770607
40
0.515082948770607
40
0.676721965847071
40
0.676721965847071
40
0.838360982923536
40
0.838360982923536
40
1
40
1
40
1
40
1
41
1
10
53.5459264545241
20
12.9983760639124
30
0
41
1
10
53.6366695884743
20
12.9983918366292
30
0
41
1
10
53.7274111187186
20
12.9982819941572
30
0
41
1
10
54.304366050789
20
12.9967861064849
30
0
41
1
10
54.7904954957489
20
12.9919248731991
30
0
41
1
10
55.5195063165235
20
12.9792157417179
30
0
41
1
10
55.7624801567784
20
12.9740760213249
30
0
41
1
10
56.248362554058
20
12.961981828876
30
0
41
1
10
56.4912659715272
20
12.9550254573509
30
0
41
1
10
57.2200021893406
20
12.9314532301675
30
0
41
1
10
57.7059537032299
20
12.9121627078636
30
0
41
1
10
58.6780576559034
20
12.8664727127942
30
0
41
1
10
59.1641977275505
20
12.8400700602528
30
0
41
1
10
60.1365336437286
20
12.780084674535
30
0
41
1
10
60.6226980224645
20
12.7464803680636
30
0
41
1
10
61.5952598479571
20
12.6721227434463
30
0
41
1
10
62.0816694577911
20
12.6313741961572
30
0
41
1
10
62.5683869545406
20
12.587181638715
30
0
0
SPLINE
5
CD
100
AcDbEntity
8
1
62
256
6
ByLayer
370
18
48
1
60
0
100
AcDbSpline
70
4
71
3
72
42
73
38
40
0
40
0
40
0
40
0
40
0.0097375937322346
40
0.0097375937322346
40
0.04641397914956
40
0.04641397914956
40
0.119766749984211
40
0.119766749984211
40
0.193119520818862
40
0.193119520818862
40
0.266472291653512
40
0.266472291653512
40
0.339825062488163
40
0.339825062488163
40
0.413177833322814
40
0.413177833322814
40
0.449854218740139
40
0.449854218740139
40
0.486530604157464
40
0.486530604157464
40
0.559883374992113
40
0.559883374992113
40
0.633236145826762
40
0.633236145826762
40
0.669912531244086
40
0.669912531244086
40
0.70658891666141
40
0.70658891666141
40
0.779941687496057
40
0.779941687496057
40
0.816618072913381
40
0.816618072913381
40
0.853294458330705
40
0.853294458330705
40
0.926647229165353
40
0.926647229165353
40
1
40
1
40
1
40
1
41
1
10
27.4181748589877
20
9.47432907830625
30
0
41
1
10
27.4943401580307
20
9.49269813336363
30
0
41
1
10
27.5704998229507
20
9.5110063848085
30
0
41
1
10
27.9334852753557
20
9.59798330657256
30
0
41
1
10
28.2202305833349
20
9.66585904527199
30
0
41
1
10
29.0804864830747
20
9.8664078258962
30
0
41
1
10
29.6540458086061
20
9.99596221728578
30
0
41
1
10
30.8010664062369
20
10.2472257032259
30
0
41
1
10
31.3745183819209
20
10.368949266425
30
0
41
1
10
32.5211789163697
20
10.6047465481376
30
0
41
1
10
33.0944271916751
20
10.7187435375271
30
0
41
1
10
34.2413200379753
20
10.938057485985
30
0
41
1
10
34.815026559211
20
11.0432961828386
30
0
41
1
10
35.9627104548382
20
11.2453317193128
30
0
41
1
10
36.5366858815735
20
11.3421282372504
30
0
41
1
10
37.3977903879094
20
11.4810101871766
30
0
41
1
10
37.6848435249267
20
11.5262562294873
30
0
41
1
10
38.2591666311046
20
11.6144230879643
30
0
41
1
10
38.5464456244983
20
11.6573348240565
30
0
41
1
10
39.408593840686
20
11.7826175323033
30
0
41
1
10
39.9839323707267
20
11.8615602266268
30
0
41
1
10
41.1337549110651
20
12.0102571001121
30
0
41
1
10
41.7083278031225
20
12.0800756542935
30
0
41
1
10
42.5699472149791
20
12.177719533634
30
0
41
1
10
42.8571194639945
20
12.2090823239576
30
0
41
1
10
43.431472203826
20
12.2693788334332
30
0
41
1
10
43.7186614068347
20
12.2983063155206
30
0
41
1
10
44.5802568979397
20
12.3814541089455
30
0
41
1
10
45.1546514239235
20
12.4320752270976
30
0
41
1
10
46.0161120776082
20
12.5008651533424
30
0
41
1
10
46.3032465471225
20
12.5226017567337
30
0
41
1
10
46.8774678312782
20
12.563681215281
30
0
41
1
10
47.1645494826239
20
12.5830248254705
30
0
41
1
10
48.0259839446764
20
12.6373194042304
30
0
41
1
10
48.6005574535577
20
12.668533645702
30
0
41
1
10
49.7500582419848
20
12.7211539087204
30
0
41
1
10
50.3249758172122
20
12.742561524433
30
0
41
1
10
50.9
20
12.7590454495868
30
0
0
SPLINE
5
CE
100
AcDbEntity
8
1
62
256
6
ByLayer
370
18
48
1
60
0
100
AcDbSpline
70
4
71
3
72
52
73
48
40
0
40
0
40
0
40
0
40
0.0312499999999992
40
0.0312499999999992
40
0.0624999999999985
40
0.0624999999999985
40
0.124999999999998
40
0.124999999999998
40
0.187499999999998
40
0.187499999999998
40
0.249999999999997
40
0.249999999999997
40
0.281249999999998
40
0.281249999999998
40
0.312499999999998
40
0.312499999999998
40
0.374999999999999
40
0.374999999999999
40
0.406249999999998
40
0.406249999999998
40
0.437499999999998
40
0.437499999999998
40
0.468749999999998
40
0.468749999999998
40
0.484374999999998
40
0.484374999999998
40
0.499999999999998
40
0.499999999999998
40
0.562499999999999
40
0.562499999999999
40
0.593749999999999
40
0.593749999999999
40
0.624999999999999
40
0.624999999999999
40
0.6875
40
0.6875
40
0.750000000000001
40
0.750000000000001
40
0.812500000000001
40
0.812500000000001
40
0.843750000000001
40
0.843750000000001
40
0.875000000000001
40
0.875000000000001
40
0.937500000000001
40
0.937500000000001
40
1
40
1
40
1
40
1
41
1
10
50.9
20
2.26078896581305
30
0
41
1
10
50.5529778652911
20
2.38335869622682
30
0
41
1
10
50.2060988176895
20
2.50559621989603
30
0
41
1
10
49.512461596459
20
2.74894664834724
30
0
41
1
10
49.1657242825759
20
2.87011919497292
30
0
41
1
10
48.1257750562349
20
3.23219174420609
30
0
41
1
10
47.4328416625314
20
3.47169242210319
30
0
41
1
10
46.047738257939
20
3.94701302870891
30
0
41
1
10
45.3555298192536
20
4.18272052945099
30
0
41
1
10
43.971073776793
20
4.64830674212453
30
0
41
1
10
43.2788652421637
20
4.87829805564678
30
0
41
1
10
42.2406768043902
20
5.21933519240847
30
0
41
1
10
41.8946355375519
20
5.33235723144193
30
0
41
1
10
41.2025921526713
20
5.55707095237392
30
0
41
1
10
40.8565814524015
20
5.66873966848846
30
0
41
1
10
39.8182744313836
20
6.00090456114907
30
0
41
1
10
39.1257863883422
20
6.21877639582382
30
0
41
1
10
38.0867191015549
20
6.54045644766202
30
0
41
1
10
37.7403116876819
20
6.64683802432077
30
0
41
1
10
37.0473833895349
20
6.85787994532282
30
0
41
1
10
36.7008564908498
20
6.96252536880698
30
0
41
1
10
36.0075990086002
20
7.16987292813809
30
0
41
1
10
35.6608662567496
20
7.27256977958353
30
0
41
1
10
35.1405382022884
20
7.4249778061789
30
0
41
1
10
34.9670584847502
20
7.47551035929391
30
0
41
1
10
34.6200276633354
20
7.57604171725583
30
0
41
1
10
34.4464582659046
20
7.62604572115319
30
0
41
1
10
33.5788416001214
20
7.87463330874164
30
0
41
1
10
32.8852572047359
20
8.0689961299023
30
0
41
1
10
31.8457007454613
20
8.35389706021456
30
0
41
1
10
31.499320973815
20
8.44775826853592
30
0
41
1
10
30.8066154933278
20
8.63279376532455
30
0
41
1
10
30.4603057746998
20
8.72400447058513
30
0
41
1
10
29.4215235152159
20
8.99377299953201
30
0
41
1
10
28.7292024248114
20
9.16848176394089
30
0
41
1
10
27.3450654040744
20
9.50782391557414
30
0
41
1
10
26.65323056076
20
9.67240356274996
30
0
41
1
10
25.2693082119787
20
9.99004522179325
30
0
41
1
10
24.5772071923745
20
10.1431008861991
30
0
41
1
10
23.5389532772384
20
10.364235466555
30
0
41
1
10
23.1928497278641
20
10.4365342385268
30
0
41
1
10
22.5006155769475
20
10.5783117405283
30
0
41
1
10
22.1544973150912
20
10.6478079866728
30
0
41
1
10
21.115812591318
20
10.8515956922693
30
0
41
1
10
20.422931360543
20
10.9812233969527
30
0
41
1
10
19.0363674762941
20
11.2281139370848
30
0
41
1
10
18.342689355388
20
11.3453853039046
30
0
41
1
10
17.64867906077
20
11.4565049678667
30
0
0
SPLINE
5
CF
100
AcDbEntity
8
1
62
256
6
ByLayer
370
18
48
1
60
0
100
AcDbSpline
70
4
71
3
72
14
73
10
40
0
40
0
40
0
40
0
40
0.25
40
0.25
40
0.5
40
0.5
40
0.75
40
0.75
40
1
40
1
40
1
40
1
41
1
10
17.64867906077
20
-11.4565049678668
30
0
41
1
10
17.4238646745102
20
-11.4936757771575
30
0
41
1
10
17.2002287309635
20
-11.5313496741657
30
0
41
1
10
16.7550208047446
20
-11.607112616472
30
0
41
1
10
16.5334480081173
20
-11.6452014383705
30
0
41
1
10
16.092173962911
20
-11.7213331026868
30
0
41
1
10
15.8724722571064
20
-11.7593764043744
30
0
41
1
10
15.4348702710158
20
-11.8350842320312
30
0
41
1
10
15.2169700054528
20
-11.872749879712
30
0
41
1
10
15
20
-11.9101119126054
30
0
0
SPLINE
5
D0
100
AcDbEntity
8
1
62
256
6
ByLayer
370
18
48
1
60
0
100
AcDbSpline
70
4
71
4
72
10
73
5
40
0
40
0
40
0
40
0
40
0
40
1
40
1
40
1
40
1
40
1
41
0.997284036583095
10
18.3757341073252
20
-7.50676594028199
30
0
41
0.995770930064112
10
18.123814425821
20
-8.37882599666846
30
0
41
0.99468047400591
10
17.9088783627125
20
-9.36195636878563
30
0
41
0.995658334813225
10
17.7498320480731
20
-10.4097806917817
30
0
41
0.997137491136723
10
17.64867906077
20
-11.4565049678662
30
0
0
SPLINE
5
D1
100
AcDbEntity
8
1
62
256
6
ByLayer
370
18
48
1
60
0
100
AcDbSpline
70
4
71
3
72
25
73
21
40
0
40
0
40
0
40
0
40
0.125000000000006
40
0.125000000000006
40
0.250000000000011
40
0.250000000000011
40
0.375000000000017
40
0.375000000000017
40
0.500000000000022
40
0.500000000000022
40
0.53125000000002
40
0.53125000000002
40
0.562500000000018
40
0.625000000000013
40
0.625000000000013
40
0.750000000000009
40
0.750000000000009
40
0.875000000000004
40
0.875000000000004
40
1
40
1
40
1
40
1
41
1
10
15
20
-7.66041447778471
30
0
41
1
10
15.3512196583973
20
-7.60649915894595
30
0
41
1
10
15.7026765585393
20
-7.56525798774896
30
0
41
1
10
16.4060341243816
20
-7.50711308887102
30
0
41
1
10
16.7579349600792
20
-7.49021572602214
30
0
41
1
10
17.4621575670396
20
-7.47975163486998
30
0
41
1
10
17.8144794870918
20
-7.48619114703166
30
0
41
1
10
18.519524216602
20
-7.52119718335408
30
0
41
1
10
18.8722471721516
20
-7.54976990558495
30
0
41
1
10
19.313387898775
20
-7.59832278960974
30
0
41
1
10
19.4016998718937
20
-7.60868333252134
30
0
41
1
10
19.5779085971741
20
-7.63059967249526
30
0
41
1
10
19.8416106988537
20
-7.66526406582656
30
0
41
1
10
20.103537552108
20
-7.70508342512326
30
0
41
1
10
20.6251791288611
20
-7.79100941972047
30
0
41
1
10
20.9699897157038
20
-7.85667991343209
30
0
41
1
10
21.6545546098056
20
-8.00156330767524
30
0
41
1
10
21.9943103948183
20
-8.08076897553181
30
0
41
1
10
22.6696239905667
20
-8.24946043436765
30
0
41
1
10
23.0051857402018
20
-8.33893343049701
30
0
41
1
10
23.3390445731692
20
-8.43205350155105
30
0
0
SPLINE
5
D2
100
AcDbEntity
8
1
62
256
6
ByLayer
370
18
48
1
60
0
100
AcDbSpline
70
4
71
3
72
35
73
31
40
0
40
0
40
0
40
0
40
0.0057665801404988
40
0.0057665801404988
40
0.0554782511334772
40
0.0554782511334772
40
0.0803340866299653
40
0.0803340866299653
40
0.105189922126453
40
0.105189922126453
40
0.204613264112407
40
0.204613264112407
40
0.30403660609836
40
0.30403660609836
40
0.403459948084314
40
0.403459948084314
40
0.502883290070268
40
0.502883290070268
40
0.527739125566754
40
0.527739125566754
40
0.552594961063241
40
0.602306632056214
40
0.602306632056214
40
0.701729974042161
40
0.701729974042161
40
0.801153316028107
40
0.801153316028107
40
0.900576658014054
40
0.900576658014054
40
1
40
1
40
1
40
1
41
1
10
7.98263619157925
20
16.1332402498861
30
0
41
1
10
7.99366585849791
20
16.1279875477472
30
0
41
1
10
8.0047280038454
20
16.1227021722105
30
0
41
1
10
8.11146372087811
20
16.0715421516035
30
0
41
1
10
8.20950935139788
20
16.0232874960452
30
0
41
1
10
8.36003320271223
20
15.9475361608298
30
0
41
1
10
8.41082651677559
20
15.9217018752405
30
0
41
1
10
8.51334872247386
20
15.869046425253
30
0
41
1
10
8.56497405683749
20
15.842278977515
30
0
41
1
10
8.82484795916812
20
15.7063671661302
30
0
41
1
10
9.03832896493273
20
15.5910330923338
30
0
41
1
10
9.47474606322211
20
15.3497274568821
30
0
41
1
10
9.69768720014119
20
15.2237468904536
30
0
41
1
10
10.1514614915618
20
14.9630060851704
30
0
41
1
10
10.3822952638051
20
14.8282414705567
30
0
41
1
10
10.8503345170439
20
14.5512982079015
30
0
41
1
10
11.0875363818274
20
14.4091173458705
30
0
41
1
10
11.387126006852
20
14.2273597908985
30
0
41
1
10
11.4472201929937
20
14.1907926602679
30
0
41
1
10
11.5675634569605
20
14.1173472226459
30
0
41
1
10
11.7483196354101
20
14.0067071137846
30
0
41
1
10
11.9297343052459
20
13.8946915541113
30
0
41
1
10
12.2932949543939
20
13.6689102574772
30
0
41
1
10
12.5366287505928
20
13.5160600376413
30
0
41
1
10
13.024739040155
20
13.2059972469368
30
0
41
1
10
13.2695113499105
20
13.0487794932613
30
0
41
1
10
13.7605454189314
20
12.7301961484937
30
0
41
1
10
14.0068065840323
20
12.568825685422
30
0
41
1
10
14.5014789085688
20
12.2422336613178
30
0
41
1
10
14.7498931178646
20
12.0770086740403
30
0
41
1
10
15
20
11.9101119126054
30
0
0
SPLINE
5
D3
100
AcDbEntity
8
1
62
256
6
ByLayer
370
18
48
1
60
0
100
AcDbSpline
70
4
71
3
72
111
73
107
40
0
40
0
40
0
40
0
40
0.0312500000000031
40
0.0312500000000031
40
0.0625000000000062
40
0.0625000000000062
40
0.0937500000000094
40
0.0937500000000094
40
0.125000000000012
40
0.125000000000012
40
0.140625000000015
40
0.140625000000015
40
0.148437500000016
40
0.148437500000016
40
0.156250000000017
40
0.156250000000017
40
0.187500000000021
40
0.187500000000021
40
0.218750000000025
40
0.218750000000025
40
0.25000000000003
40
0.25000000000003
40
0.25781250000003
40
0.25781250000003
40
0.26171875000003
40
0.26171875000003
40
0.265625000000029
40
0.281250000000028
40
0.281250000000028
40
0.312500000000025
40
0.312500000000025
40
0.343750000000022
40
0.343750000000022
40
0.347656250000021
40
0.347656250000021
40
0.351562500000021
40
0.351562500000021
40
0.35937500000002
40
0.375000000000019
40
0.375000000000019
40
0.406250000000016
40
0.406250000000016
40
0.421875000000015
40
0.421875000000015
40
0.429687500000015
40
0.429687500000015
40
0.437500000000014
40
0.437500000000014
40
0.468750000000012
40
0.468750000000012
40
0.484375000000011
40
0.484375000000011
40
0.492187500000011
40
0.492187500000011
40
0.496093750000011
40
0.496093750000011
40
0.50000000000001
40
0.50000000000001
40
0.531250000000009
40
0.531250000000009
40
0.546875000000008
40
0.546875000000008
40
0.554687500000008
40
0.558593750000008
40
0.558593750000008
40
0.562500000000008
40
0.562500000000008
40
0.593750000000007
40
0.593750000000007
40
0.609375000000007
40
0.609375000000007
40
0.617187500000007
40
0.621093750000007
40
0.621093750000007
40
0.625000000000007
40
0.625000000000007
40
0.656250000000008
40
0.656250000000008
40
0.687500000000009
40
0.687500000000009
40
0.703125000000009
40
0.703125000000009
40
0.710937500000009
40
0.710937500000009
40
0.71875000000001
40
0.71875000000001
40
0.75000000000001
40
0.75000000000001
40
0.78125000000001
40
0.78125000000001
40
0.81250000000001
40
0.81250000000001
40
0.84375000000001
40
0.84375000000001
40
0.851562500000009
40
0.851562500000009
40
0.859375000000009
40
0.875000000000008
40
0.875000000000008
40
0.906250000000006
40
0.906250000000006
40
0.937500000000004
40
0.937500000000004
40
0.968750000000002
40
0.968750000000002
40
1
40
1
40
1
40
1
41
1
10
15
20
-7.66041447778471
30
0
41
1
10
14.7215674773955
20
-7.79980218774054
30
0
41
1
10
14.4460478677818
20
-7.94490713570832
30
0
41
1
10
13.9006427501015
20
-8.2463717752191
30
0
41
1
10
13.6307572776955
20
-8.40273129273706
30
0
41
1
10
13.0964621379592
20
-8.72662386743121
30
0
41
1
10
12.8320523878887
20
-8.8941563564575
30
0
41
1
10
12.3085841804944
20
-9.24042268452038
30
0
41
1
10
12.0495254869593
20
-9.41915539803176
30
0
41
1
10
11.6648863313208
20
-9.69577657491027
30
0
41
1
10
11.5373317483655
20
-9.78940513121773
30
0
41
1
10
11.3469828400385
20
-9.93200761313784
30
0
41
1
10
11.2836378721414
20
-9.97994750924349
30
0
41
1
10
11.1576884447056
20
-10.0762353957099
30
0
41
1
10
11.095061901221
20
-10.1245989088715
30
0
41
1
10
10.7836636829792
20
-10.3674920906687
30
0
41
1
10
10.5400880343538
20
-10.5652459485606
30
0
41
1
10
10.0639750019895
20
-10.9671061913363
30
0
41
1
10
9.8314356757339
20
-11.171212573443
30
0
41
1
10
9.37756431112996
20
-11.585319223838
30
0
41
1
10
9.15622858329363
20
-11.7953192185047
30
0
41
1
10
8.88685619500546
20
-12.0612604864
30
0
41
1
10
8.83334749288301
20
-12.114620992104
30
0
41
1
10
8.75364168840864
20
-12.1949161833285
30
0
41
1
10
8.72714970532914
20
-12.2217403164065
30
0
41
1
10
8.67447704852842
20
-12.2753462534554
30
0
41
1
10
8.54352972154459
20
-12.4092989676692
30
0
41
1
10
8.41625009021001
20
-12.5429142700708
30
0
41
1
10
8.11785582472609
20
-12.8627276105176
30
0
41
1
10
7.92833810540296
20
-13.074791345368
30
0
41
1
10
7.56881984749907
20
-13.4953725048795
30
0
41
1
10
7.39880632266789
20
-13.7038958652077
30
0
41
1
10
7.21941654655708
20
-13.9356411116794
30
0
41
1
10
7.19965005487532
20
-13.9613508429352
30
0
41
1
10
7.16045307176992
20
-14.0126873865176
30
0
41
1
10
7.14100988904548
20
-14.0383313032968
30
0
41
1
10
7.08338503698971
20
-14.1148751605635
30
0
41
1
10
6.97079382788618
20
-14.2666191594885
30
0
41
1
10
6.8661806804968
20
-14.4142336129859
30
0
41
1
10
6.66772126418053
20
-14.7036436542817
30
0
41
1
10
6.54971231867867
20
-14.8888539727519
30
0
41
1
10
6.39558255838699
20
-15.153400734229
30
0
41
1
10
6.34803328005532
20
-15.2393651612973
30
0
41
1
10
6.28278112808206
20
-15.3646990830295
30
0
41
1
10
6.26217135590727
20
-15.4056308244086
30
0
41
1
10
6.22330012164389
20
-15.4856390231924
30
0
41
1
10
6.20502492744725
20
-15.5247418215059
30
0
41
1
10
6.11942773433788
20
-15.7157354919857
30
0
41
1
10
6.06935197523805
20
-15.8541174301404
30
0
41
1
10
6.02245757110691
20
-16.0392003432657
30
0
41
1
10
6.01154689798179
20
-16.0971361810239
30
0
41
1
10
6.00251458135568
20
-16.1781894164849
30
0
41
1
10
6.0007274055163
20
-16.2042312818162
30
0
41
1
10
5.99992643565773
20
-16.2417958423326
30
0
41
1
10
5.99997322865508
20
-16.2540785895642
30
0
41
1
10
6.00070044674726
20
-16.2780878744512
30
0
41
1
10
6.00137954366414
20
-16.2897920084596
30
0
41
1
10
6.01030439550038
20
-16.3924522931895
30
0
41
1
10
6.03813554502392
20
-16.4647488400213
30
0
41
1
10
6.10860814130706
20
-16.54626608931
30
0
41
1
10
6.13690641790959
20
-16.5689357909858
30
0
41
1
10
6.18658959152876
20
-16.5962542081252
30
0
41
1
10
6.21324173592319
20
-16.6082407225593
30
0
41
1
10
6.24262880287696
20
-16.617720703579
30
0
41
1
10
6.26283105498555
20
-16.6234832717356
30
0
41
1
10
6.2732355348405
20
-16.6260842889776
30
0
41
1
10
6.36919604607118
20
-16.6469068268841
30
0
41
1
10
6.47160987866937
20
-16.647323218918
30
0
41
1
10
6.6489144879948
20
-16.6239813356546
30
0
41
1
10
6.71197940466769
20
-16.612189991268
30
0
41
1
10
6.81239115405717
20
-16.5887648552157
30
0
41
1
10
6.8640516443505
20
-16.5756167410253
30
0
41
1
10
6.91787790285701
20
-16.5603591495492
30
0
41
1
10
6.9542420708427
20
-16.5497230179931
30
0
41
1
10
6.97266266830164
20
-16.5441728224649
30
0
41
1
10
7.13997624702009
20
-16.4923517729023
30
0
41
1
10
7.30058578740395
20
-16.4327644831717
30
0
41
1
10
7.64285698330738
20
-16.291135846248
30
0
41
1
10
7.8245398864066
20
-16.20906902351
30
0
41
1
10
8.11146372087808
20
-16.0715421516036
30
0
41
1
10
8.20950935139783
20
-16.0232874960452
30
0
41
1
10
8.36003320271223
20
-15.9475361608299
30
0
41
1
10
8.41082651677561
20
-15.9217018752405
30
0
41
1
10
8.51334872247392
20
-15.8690464252531
30
0
41
1
10
8.56497405683749
20
-15.842278977515
30
0
41
1
10
8.8248479591681
20
-15.7063671661303
30
0
41
1
10
9.03832896493267
20
-15.5910330923338
30
0
41
1
10
9.47474606322206
20
-15.3497274568821
30
0
41
1
10
9.69768720014119
20
-15.2237468904536
30
0
41
1
10
10.1514614915618
20
-14.9630060851704
30
0
41
1
10
10.382295263805
20
-14.8282414705567
30
0
41
1
10
10.8503345170439
20
-14.5512982079015
30
0
41
1
10
11.0875363818274
20
-14.4091173458705
30
0
41
1
10
11.3871260068519
20
-14.2273597908985
30
0
41
1
10
11.4472201929937
20
-14.1907926602679
30
0
41
1
10
11.5675634569605
20
-14.1173472226459
30
0
41
1
10
11.7483196354101
20
-14.0067071137846
30
0
41
1
10
11.9297343052459
20
-13.8946915541114
30
0
41
1
10
12.2932949543939
20
-13.6689102574773
30
0
41
1
10
12.5366287505928
20
-13.5160600376413
30
0
41
1
10
13.024739040155
20
-13.2059972469368
30
0
41
1
10
13.2695113499105
20
-13.0487794932614
30
0
41
1
10
13.7605454189315
20
-12.7301961484938
30
0
41
1
10
14.0068065840323
20
-12.568825685422
30
0
41
1
10
14.5014789085688
20
-12.2422336613178
30
0
41
1
10
14.7498931178646
20
-12.0770086740404
30
0
41
1
10
15
20
-11.9101119126054
30
0
0
SPLINE
5
D4
100
AcDbEntity
8
SK1
62
256
6
ByLayer
370
18
48
1
60
0
100
AcDbSpline
70
4
71
3
72
37
73
33
40
0
40
0
40
0
40
0
40
0.124999999999999
40
0.124999999999999
40
0.249999999999997
40
0.249999999999997
40
0.374999999999996
40
0.374999999999996
40
0.437499999999996
40
0.437499999999996
40
0.499999999999995
40
0.499999999999995
40
0.624999999999995
40
0.624999999999995
40
0.656249999999996
40
0.656249999999996
40
0.687499999999996
40
0.687499999999996
40
0.749999999999997
40
0.749999999999997
40
0.812499999999999
40
0.812499999999999
40
0.843749999999999
40
0.843749999999999
40
0.874999999999999
40
0.874999999999999
40
0.9375
40
0.9375
40
0.953125
40
0.953125
40
0.96875
40
1
40
1
40
1
40
1
41
1
10
-56.6013095599541
20
-3.67404242557649
30
0
41
1
10
-56.5818983671532
20
-3.76227101295461
30
0
41
1
10
-56.5608730792548
20
-3.84980231602845
30
0
41
1
10
-56.5149011456991
20
-4.02327304907473
30
0
41
1
10
-56.4899592553202
20
-4.1092138747162
30
0
41
1
10
-56.4351919062966
20
-4.27922783366643
30
0
41
1
10
-56.4053764863432
20
-4.36330392303796
30
0
41
1
10
-56.3559085219568
20
-4.48770487574166
30
0
41
1
10
-56.3386238532612
20
-4.52888499906533
30
0
41
1
10
-56.3022004610974
20
-4.6105950760475
30
0
41
1
10
-56.2830277903437
20
-4.65119311461675
30
0
41
1
10
-56.2224911706718
20
-4.77130399167868
30
0
41
1
10
-56.1782467144578
20
-4.84907413383172
30
0
41
1
10
-56.115968443464
20
-4.94231131697211
30
0
41
1
10
-56.1031583621301
20
-4.96075692759766
30
0
41
1
10
-56.0767470461803
20
-4.99720157474036
30
0
41
1
10
-56.0631669720757
20
-5.01516889117784
30
0
41
1
10
-56.0213776959376
20
-5.06798704911628
30
0
41
1
10
-55.992061754375
20
-5.10185542724588
30
0
41
1
10
-55.9298321318184
20
-5.16631273888052
30
0
41
1
10
-55.8969272538349
20
-5.19690945406094
30
0
41
1
10
-55.8440712942131
20
-5.23964848292457
30
0
41
1
10
-55.8258658181591
20
-5.25336554431573
30
0
41
1
10
-55.7880772055067
20
-5.27956269503571
30
0
41
1
10
-55.7687283546429
20
-5.29187752331967
30
0
41
1
10
-55.7092375195426
20
-5.32619065397267
30
0
41
1
10
-55.6676447686972
20
-5.34560920419477
30
0
41
1
10
-55.6125612417126
20
-5.36437634382568
30
0
41
1
10
-55.6013755519815
20
-5.36785346658095
30
0
41
1
10
-55.5789098857052
20
-5.37414928699397
30
0
41
1
10
-55.5449888078968
20
-5.38263478003245
30
0
41
1
10
-55.5103812675636
20
-5.38816693911767
30
0
41
1
10
-55.4869828320874
20
-5.39045045482675
30
0
0
SPLINE
5
D5
100
AcDbEntity
8
SK1
62
256
6
ByLayer
370
18
48
1
60
0
100
AcDbSpline
70
4
71
3
72
38
73
34
40
0
40
0
40
0
40
0
40
0.0624999999999988
40
0.0624999999999988
40
0.0937499999999982
40
0.0937499999999982
40
0.109374999999998
40
0.109374999999998
40
0.124999999999999
40
0.124999999999999
40
0.187499999999997
40
0.187499999999997
40
0.218749999999997
40
0.218749999999997
40
0.249999999999996
40
0.249999999999996
40
0.312499999999996
40
0.312499999999996
40
0.374999999999996
40
0.374999999999996
40
0.437499999999996
40
0.437499999999996
40
0.468749999999996
40
0.468749999999996
40
0.499999999999996
40
0.499999999999996
40
0.624999999999997
40
0.624999999999997
40
0.749999999999998
40
0.749999999999998
40
0.874999999999999
40
0.874999999999999
40
1
40
1
40
1
40
1
41
1
10
-55.4869828320874
20
5.39045045482675
30
0
41
1
10
-55.5340112854939
20
5.38586082265942
30
0
41
1
10
-55.5792475407432
20
5.37567921640115
30
0
41
1
10
-55.6448597758275
20
5.35339526064908
30
0
41
1
10
-55.6663543340588
20
5.34479075805541
30
0
41
1
10
-55.6980700363939
20
5.33023526841174
30
0
41
1
10
-55.7085426555182
20
5.32511155488996
30
0
41
1
10
-55.7290868425515
20
5.31446061507978
30
0
41
1
10
-55.7391894091154
20
5.30891956332113
30
0
41
1
10
-55.7889172059676
20
5.28021446580462
30
0
41
1
10
-55.8262117488448
20
5.25408170222258
30
0
41
1
10
-55.87927436858
20
5.21118741343659
30
0
41
1
10
-55.8964771995976
20
5.19626735233749
30
0
41
1
10
-55.9300114215657
20
5.16530406746776
30
0
41
1
10
-55.9462917892921
20
5.14930296213541
30
0
41
1
10
-55.9934356942821
20
5.10035000843709
30
0
41
1
10
-56.0228020768564
20
5.06628595710666
30
0
41
1
10
-56.078326436026
20
4.99590453061043
30
0
41
1
10
-56.1044778219573
20
4.95958275029739
30
0
41
1
10
-56.1541566098392
20
4.88506830814691
30
0
41
1
10
-56.1776808746374
20
4.84687355258669
30
0
41
1
10
-56.2113079014024
20
4.78837896752557
30
0
41
1
10
-56.2222393682361
20
4.76867706562567
30
0
41
1
10
-56.2434756231488
20
4.72911675343036
30
0
41
1
10
-56.2537968848612
20
4.7092302403565
30
0
41
1
10
-56.3040524668077
20
4.60930752204828
30
0
41
1
10
-56.339989360063
20
4.52781806830399
30
0
41
1
10
-56.4056776145828
20
4.36246555081721
30
0
41
1
10
-56.4354058590262
20
4.27859519764016
30
0
41
1
10
-56.4900491389978
20
4.10890313734902
30
0
41
1
10
-56.5149546873467
20
4.02307844746088
30
0
41
1
10
-56.56088189532
20
3.84976160662609
30
0
41
1
10
-56.5818990222464
20
3.76226803539686
30
0
41
1
10
-56.6013095599541
20
3.67404242557649
30
0
0
SPLINE
5
D6
100
AcDbEntity
8
SK1
62
256
6
ByLayer
370
18
48
1
60
0
100
AcDbSpline
70
4
71
3
72
33
73
29
40
0
40
0
40
0
40
0
40
0.125000000000006
40
0.125000000000006
40
0.250000000000012
40
0.250000000000012
40
0.375000000000017
40
0.375000000000017
40
0.40625000000002
40
0.40625000000002
40
0.437500000000023
40
0.437500000000023
40
0.500000000000019
40
0.500000000000019
40
0.625000000000009
40
0.625000000000009
40
0.656250000000005
40
0.656250000000005
40
0.687500000000001
40
0.687500000000001
40
0.749999999999993
40
0.812499999999985
40
0.812499999999985
40
0.843749999999988
40
0.843749999999988
40
0.87499999999999
40
0.87499999999999
40
1
40
1
40
1
40
1
41
1
10
-14.051872681288
20
7.58734230610622
30
0
41
1
10
-14.0806477010082
20
7.63716049470688
30
0
41
1
10
-14.1111960666033
20
7.68574713585582
30
0
41
1
10
-14.1763795738798
20
7.78016829172287
30
0
41
1
10
-14.2110110664831
20
7.82600493913273
30
0
41
1
10
-14.2851110385999
20
7.91451556477941
30
0
41
1
10
-14.3245721279275
20
7.95719387593883
30
0
41
1
10
-14.3776213268518
20
8.00817431396229
30
0
41
1
10
-14.3884185818754
20
8.01825128676794
30
0
41
1
10
-14.4104115542246
20
8.03815365023897
30
0
41
1
10
-14.4216108037395
20
8.04798083475526
30
0
41
1
10
-14.455622663142
20
8.07687937861485
30
0
41
1
10
-14.4789160665747
20
8.09543103467254
30
0
41
1
10
-14.5508106006942
20
8.14878338695524
30
0
41
1
10
-14.6014062936362
20
8.18130323174049
30
0
41
1
10
-14.6687381239779
20
8.21735588111801
30
0
41
1
10
-14.6824104044294
20
8.22433484183665
30
0
41
1
10
-14.710192970406
20
8.23780190427706
30
0
41
1
10
-14.7242927464647
20
8.24428275713819
30
0
41
1
10
-14.7668701147152
20
8.26277278740699
30
0
41
1
10
-14.8246359059293
20
8.28501525135295
30
0
41
1
10
-14.8845078995177
20
8.30218349007504
30
0
41
1
10
-14.9302595196826
20
8.31302504752674
30
0
41
1
10
-14.9456514993249
20
8.31629937780269
30
0
41
1
10
-14.976730334019
20
8.3221411784192
30
0
41
1
10
-14.9924519952567
20
8.32471328587587
30
0
41
1
10
-15.0714171524834
20
8.33566995587665
30
0
41
1
10
-15.1349687406039
20
8.33829643503807
30
0
41
1
10
-15.198909252112
20
8.33463752287949
30
0
0
SPLINE
5
D7
100
AcDbEntity
8
SK1
62
256
6
ByLayer
370
18
48
1
60
0
100
AcDbSpline
70
4
71
3
72
28
73
24
40
0
40
0
40
0
40
0
40
0.124999999999995
40
0.124999999999995
40
0.187499999999992
40
0.187499999999992
40
0.24999999999999
40
0.24999999999999
40
0.374999999999983
40
0.374999999999983
40
0.437499999999979
40
0.437499999999979
40
0.499999999999976
40
0.499999999999976
40
0.624999999999981
40
0.624999999999981
40
0.687499999999984
40
0.687499999999984
40
0.749999999999987
40
0.749999999999987
40
0.874999999999994
40
0.874999999999994
40
1
40
1
40
1
40
1
41
1
10
-15.198909252112
20
-8.33463752287949
30
0
41
1
10
-15.1350143484387
20
-8.33829382518937
30
0
41
1
10
-15.0719017967204
20
-8.33565332559238
30
0
41
1
10
-14.978337274282
20
-8.32279548271791
30
0
41
1
10
-14.9473338896935
20
-8.31702027865589
30
0
41
1
10
-14.8856931933269
20
-8.30251274872501
30
0
41
1
10
-14.8554833479755
20
-8.29387762923409
30
0
41
1
10
-14.7669559756536
20
-8.26429996307647
30
0
41
1
10
-14.7105270717761
20
-8.23965842490716
30
0
41
1
10
-14.6292411643099
20
-8.19624288886422
30
0
41
1
10
-14.6029581616285
20
-8.18081975592636
30
0
41
1
10
-14.5521237698499
20
-8.14844888077508
30
0
41
1
10
-14.5275204196119
20
-8.13147265143903
30
0
41
1
10
-14.4558957807576
20
-8.07840113768455
30
0
41
1
10
-14.4110480069579
20
-8.04017416621042
30
0
41
1
10
-14.347408645875
20
-7.9791980354984
30
0
41
1
10
-14.3267704985616
20
-7.9582267315275
30
0
41
1
10
-14.2867812208927
20
-7.91531082173958
30
0
41
1
10
-14.267487937703
20
-7.89343345035931
30
0
41
1
10
-14.2115013365259
20
-7.82665213506647
30
0
41
1
10
-14.1766922853205
20
-7.78060380498701
30
0
41
1
10
-14.1112733091054
20
-7.68587638410847
30
0
41
1
10
-14.080667629502
20
-7.63719499690606
30
0
41
1
10
-14.051872681288
20
-7.58734230610622
30
0
0
SPLINE
5
D8
100
AcDbEntity
8
1
62
256
6
ByLayer
370
13
48
1
60
0
100
AcDbSpline
70
4
71
3
72
14
73
10
40
0
40
0
40
0
40
0
40
0.25
40
0.25
40
0.5
40
0.5
40
0.75
40
0.75
40
1
40
1
40
1
40
1
41
1
10
50.9
20
11.2355631631071
30
0
41
1
10
50.9834350612982
20
11.5403155585388
30
0
41
1
10
51.0668701225964
20
11.8054902999018
30
0
41
1
10
51.2337402451928
20
12.2543878826826
30
0
41
1
10
51.317175306491
20
12.4381323279268
30
0
41
1
10
51.4840454290874
20
12.7265860181749
30
0
41
1
10
51.5674804903856
20
12.8313315263914
30
0
41
1
10
51.7343506129821
20
12.9680177321312
30
0
41
1
10
51.8177856742802
20
13
30
0
41
1
10
51.9012207355784
20
13
30
0
0
SPLINE
5
D9
100
AcDbEntity
8
1
62
256
6
ByLayer
370
13
48
1
60
0
100
AcDbSpline
70
4
71
3
72
146
73
142
40
0
40
0
40
0
40
0
40
0.015625
40
0.015625
40
0.03125
40
0.03125
40
0.046875
40
0.046875
40
0.0624999999999999
40
0.0624999999999999
40
0.078125
40
0.078125
40
0.09375
40
0.09375
40
0.109375
40
0.109375
40
0.125
40
0.125
40
0.140625
40
0.140625
40
0.15625
40
0.15625
40
0.171875
40
0.171875
40
0.1875
40
0.1875
40
0.203125
40
0.203125
40
0.2109375
40
0.2109375
40
0.21484375
40
0.21484375
40
0.21875
40
0.21875
40
0.234375
40
0.234375
40
0.25
40
0.25
40
0.265625
40
0.265625
40
0.28125
40
0.28125
40
0.296875
40
0.296875
40
0.3125
40
0.3125
40
0.328125
40
0.328125
40
0.34375
40
0.34375
40
0.359375
40
0.359375
40
0.375
40
0.375
40
0.390625
40
0.390625
40
0.40625
40
0.40625
40
0.421875
40
0.421875
40
0.4375
40
0.4375
40
0.453125
40
0.453125
40
0.46875
40
0.46875
40
0.4765625
40
0.4765625
40
0.48046875
40
0.48046875
40
0.484375
40
0.484375
40
0.5
40
0.5
40
0.515625
40
0.515625
40
0.53125
40
0.53125
40
0.546875
40
0.546875
40
0.5625
40
0.5625
40
0.578125
40
0.578125
40
0.59375
40
0.59375
40
0.609375
40
0.609375
40
0.625
40
0.625
40
0.640625
40
0.640625
40
0.65625
40
0.65625
40
0.671875
40
0.671875
40
0.687499999999999
40
0.687499999999999
40
0.703124999999999
40
0.703124999999999
40
0.718749999999999
40
0.718749999999999
40
0.734374999999999
40
0.734374999999999
40
0.738281249999999
40
0.738281249999999
40
0.742187499999999
40
0.742187499999999
40
0.749999999999999
40
0.749999999999999
40
0.765624999999999
40
0.765624999999999
40
0.781249999999999
40
0.781249999999999
40
0.796874999999999
40
0.796874999999999
40
0.812499999999999
40
0.812499999999999
40
0.828124999999999
40
0.828124999999999
40
0.843749999999999
40
0.843749999999999
40
0.859374999999999
40
0.859374999999999
40
0.874999999999999
40
0.874999999999999
40
0.890624999999999
40
0.890624999999999
40
0.906249999999999
40
0.906249999999999
40
0.921875
40
0.921875
40
0.9375
40
0.9375
40
0.953125
40
0.953125
40
0.96875
40
0.96875
40
0.984375
40
0.984375
40
1
40
1
40
1
40
1
41
1
10
50.9
20
12.6091009248044
30
0
41
1
10
50.9582474808317
20
12.5118615878142
30
0
41
1
10
51.0164949616632
20
12.3954779071414
30
0
41
1
10
51.1329899233264
20
12.1233043672559
30
0
41
1
10
51.1912374041581
20
11.9675098272554
30
0
41
1
10
51.3077323658213
20
11.6164365845737
30
0
41
1
10
51.3659798466529
20
11.4211553970233
30
0
41
1
10
51.4824748083161
20
10.992192885014
30
0
41
1
10
51.5407222891477
20
10.7585118068093
30
0
41
1
10
51.6572172508109
20
10.2550309663786
30
0
41
1
10
51.7154647316425
20
9.98523440185474
30
0
41
1
10
51.8319596933057
20
9.41295031292273
30
0
41
1
10
51.8902071741373
20
9.11046876743845
30
0
41
1
10
52.0067021358006
20
8.47725000318624
30
0
41
1
10
52.0649496166321
20
8.14652098652638
30
0
41
1
10
52.1814445782954
20
7.46203488590498
30
0
41
1
10
52.239692059127
20
7.10828736841702
30
0
41
1
10
52.3561870207902
20
6.38351408239387
30
0
41
1
10
52.4144345016219
20
6.01249823631895
30
0
41
1
10
52.530929463285
20
5.2591639866306
30
0
41
1
10
52.5891769441166
20
4.87685487920265
30
0
41
1
10
52.7056719057798
20
4.10684366598474
30
0
41
1
10
52.7639193866115
20
3.71914942913045
30
0
41
1
10
52.8804143482747
20
2.943951005988
30
0
41
1
10
52.9386618291063
20
2.55645274181265
30
0
41
1
10
53.0551567907695
20
1.78669419821907
30
0
41
1
10
53.1134042716011
20
1.4044376867437
30
0
41
1
10
53.2007754928485
20
0.8382566171029
30
0
41
1
10
53.2298992332643
20
0.650724551245474
30
0
41
1
10
53.273584843888
20
0.371574741633907
30
0
41
1
10
53.2881467140959
20
0.278882476485478
30
0
41
1
10
53.3172704545117
20
0.094268041343355
30
0
41
1
10
53.3318323247196
20
0.0026140167558992
30
0
41
1
10
53.4046416757591
20
-0.457553294873833
30
0
41
1
10
53.4628891565908
20
-0.832026351807713
30
0
41
1
10
53.579384118254
20
-1.58992367474369
30
0
41
1
10
53.6376315990855
20
-1.9733459309378
30
0
41
1
10
53.7541265607488
20
-2.74466130862277
30
0
41
1
10
53.8123740415804
20
-3.13255031117296
30
0
41
1
10
53.9288690032437
20
-3.90765712791591
30
0
41
1
10
53.9871164840752
20
-4.2948686820948
30
0
41
1
10
54.1036114457384
20
-5.06297265813194
30
0
41
1
10
54.16185892657
20
-5.44385693617173
30
0
41
1
10
54.2783538882333
20
-6.19336989705349
30
0
41
1
10
54.3366013690649
20
-6.56198912141187
30
0
41
1
10
54.4530963307281
20
-7.28101355166319
30
0
41
1
10
54.5113438115597
20
-7.63140882332041
30
0
41
1
10
54.6278387732229
20
-8.30829935558492
30
0
41
1
10
54.6860862540545
20
-8.63478520428774
30
0
41
1
10
54.8025812157178
20
-9.25873750362919
30
0
41
1
10
54.8608286965494
20
-9.55619606066929
30
0
41
1
10
54.9773236582125
20
-10.1178043804709
30
0
41
1
10
55.0355711390442
20
-10.3819485869748
30
0
41
1
10
55.1520661007073
20
-10.8736734983484
30
0
41
1
10
55.2103135815389
20
-11.1012514832564
30
0
41
1
10
55.3268085432021
20
-11.5177496678914
30
0
41
1
10
55.3850560240338
20
-11.7066700887634
30
0
41
1
10
55.501550985697
20
-12.0449567910243
30
0
41
1
10
55.5597984665286
20
-12.1943259563819
30
0
41
1
10
55.6762934281918
20
-12.4537637244417
30
0
41
1
10
55.7345409090234
20
-12.5638372987723
30
0
41
1
10
55.8510358706866
20
-12.7459670881697
30
0
41
1
10
55.9092833515183
20
-12.8180296217883
30
0
41
1
10
56.0257783131815
20
-12.9262778237153
30
0
41
1
10
56.0840257940131
20
-12.9624703900988
30
0
41
1
10
56.1713970152605
20
-12.9919490187842
30
0
41
1
10
56.2005207556763
20
-12.9976446555239
30
0
41
1
10
56.2442063663
20
-13.0002867945186
30
0
41
1
10
56.2587682365079
20
-13.0001911111883
30
0
41
1
10
56.2878919769238
20
-12.9980394380318
30
0
41
1
10
56.3024538471317
20
-12.9959777382521
30
0
41
1
10
56.3752631981711
20
-12.9806156461474
30
0
41
1
10
56.4335106790028
20
-12.9521353168478
30
0
41
1
10
56.5500056406659
20
-12.8598917212308
30
0
41
1
10
56.6082531214976
20
-12.7961215249556
30
0
41
1
10
56.7247480831608
20
-12.6309909779061
30
0
41
1
10
56.7829955639924
20
-12.5296241126859
30
0
41
1
10
56.8994905256556
20
-12.2878051603252
30
0
41
1
10
56.9577380064872
20
-12.1473477305016
30
0
41
1
10
57.0742329681505
20
-11.826845606791
30
0
41
1
10
57.132480448982
20
-11.6467975004042
30
0
41
1
10
57.2489754106453
20
-11.2477392366701
30
0
41
1
10
57.3072228914769
20
-11.0287282217798
30
0
41
1
10
57.4237178531401
20
-10.5535628994733
30
0
41
1
10
57.4819653339717
20
-10.2974106443228
30
0
41
1
10
57.5984602956349
20
-9.75095828750864
30
0
41
1
10
57.6567077764665
20
-9.46066313336641
30
0
41
1
10
57.7732027381296
20
-8.84999166894033
30
0
41
1
10
57.8314502189613
20
-8.52962278775223
30
0
41
1
10
57.9479451806245
20
-7.86375416289573
30
0
41
1
10
58.0061926614562
20
-7.51826357245051
30
0
41
1
10
58.1226876231193
20
-6.80773345219296
30
0
41
1
10
58.180935103951
20
-6.44270382876954
30
0
41
1
10
58.2974300656142
20
-5.69901938150747
30
0
41
1
10
58.3556775464458
20
-5.32037420436839
30
0
41
1
10
58.472172508109
20
-4.55542699565319
30
0
41
1
10
58.5304199889406
20
-4.16913346442962
30
0
41
1
10
58.6469149506038
20
-3.39462701942421
30
0
41
1
10
58.7051624314354
20
-3.00642082355051
30
0
41
1
10
58.8216573930986
20
-2.23336516361636
30
0
41
1
10
58.8799048739303
20
-1.84852030740583
30
0
41
1
10
58.9963998355935
20
-1.08683121286745
30
0
41
1
10
59.0546473164251
20
-0.709989443842119
30
0
41
1
10
59.1274566674645
20
-0.246378648322008
30
0
41
1
10
59.1420185376725
20
-0.154026681577733
30
0
41
1
10
59.1711422780883
20
0.0298834924162747
30
0
41
1
10
59.1857041482962
20
0.121644200016391
30
0
41
1
10
59.2293897589199
20
0.398793923635481
30
0
41
1
10
59.2585134993357
20
0.585091540580379
30
0
41
1
10
59.3458847205831
20
1.14789885869209
30
0
41
1
10
59.4041322014147
20
1.52834622282438
30
0
41
1
10
59.5206271630779
20
2.29553237303989
30
0
41
1
10
59.5788746439096
20
2.68226787499472
30
0
41
1
10
59.6953696055728
20
3.45712966771518
30
0
41
1
10
59.7536170864044
20
3.84525051432604
30
0
41
1
10
59.8701120480676
20
4.61740843922234
30
0
41
1
10
59.9283595288992
20
5.00143805284435
30
0
41
1
10
60.0448544905624
20
5.75955950350976
30
0
41
1
10
60.1031019713941
20
6.13364230485763
30
0
41
1
10
60.2195969330573
20
6.86588624464022
30
0
41
1
10
60.2778444138889
20
7.22403752027429
30
0
41
1
10
60.394339375552
20
7.91859128917224
30
0
41
1
10
60.4525868563836
20
8.25498404596047
30
0
41
1
10
60.5690818180468
20
8.90064828193661
30
0
41
1
10
60.6273292988785
20
9.2099111687516
30
0
41
1
10
60.7438242605417
20
9.79667668221268
30
0
41
1
10
60.8020717413733
20
10.0741727678771
30
0
41
1
10
60.9185667030366
20
10.5937295627181
30
0
41
1
10
60.9768141838681
20
10.8357864184587
30
0
41
1
10
61.0933091455314
20
11.2819115806933
30
0
41
1
10
61.1515566263629
20
11.4859789822029
30
0
41
1
10
61.2680515880262
20
11.8547660170946
30
0
41
1
10
61.3262990688578
20
12.0194875574589
30
0
41
1
10
61.442794030521
20
12.3094016788838
30
0
41
1
10
61.5010415113526
20
12.4345985048139
30
0
41
1
10
61.6175364730159
20
12.6463656327136
30
0
41
1
10
61.6757839538475
20
12.7329418239622
30
0
41
1
10
61.7922789155107
20
12.8692988810598
30
0
41
1
10
61.8505263963422
20
12.9190865080233
30
0
41
1
10
61.9670213580055
20
12.984433613326
30
0
41
1
10
62.0252688388371
20
13
30
0
41
1
10
62.0835163196687
20
13
30
0
0
SPLINE
5
DA
100
AcDbEntity
8
1
62
256
6
ByLayer
370
13
48
1
60
0
100
AcDbSpline
70
4
71
3
72
22
73
18
40
0
40
0
40
0
40
0
40
0.125
40
0.125
40
0.25
40
0.25
40
0.375
40
0.375
40
0.5
40
0.5
40
0.625
40
0.625
40
0.75
40
0.75
40
0.875
40
0.875
40
1
40
1
40
1
40
1
41
1
10
60.5974249492196
20
13
30
0
41
1
10
60.6795483661079
20
13
30
0
41
1
10
60.7616717829962
20
12.9690180217423
30
0
41
1
10
60.9259186167729
20
12.836723823767
30
0
41
1
10
61.0080420336612
20
12.7353731769193
30
0
41
1
10
61.1722888674379
20
12.456319849931
30
0
41
1
10
61.2544122843262
20
12.2785833702945
30
0
41
1
10
61.4186591181029
20
11.8442662830278
30
0
41
1
10
61.5007825349912
20
11.5876648828098
30
0
41
1
10
61.6650293687678
20
10.9975071616242
30
0
41
1
10
61.7471527856561
20
10.6639501116488
30
0
41
1
10
61.9113996194328
20
9.92649903689443
30
0
41
1
10
61.9935230363211
20
9.522627200617
30
0
41
1
10
62.1577698700977
20
8.65557710060656
30
0
41
1
10
62.2398932869861
20
8.19244087181048
30
0
41
1
10
62.4041401207627
20
7.22132389160873
30
0
41
1
10
62.4862635376511
20
6.71339660121629
30
0
41
1
10
62.5683869545394
20
6.1912590425934
30
0
0
SPLINE
5
DB
100
AcDbEntity
8
1
62
256
6
ByLayer
370
13
48
1
60
0
100
AcDbSpline
70
4
71
3
72
10
73
6
40
0
40
0
40
0
40
0
40
0.5
40
0.5
40
1
40
1
40
1
40
1
41
1
10
50.9
20
12.5546850854677
30
0
41
1
10
50.9860582528814
20
12.7085584958614
30
0
41
1
10
51.0721165057628
20
12.8202725802792
30
0
41
1
10
51.2442330115256
20
12.965969101112
30
0
41
1
10
51.330291264407
20
13
30
0
41
1
10
51.4163495172885
20
13
30
0
0
SPLINE
5
DC
100
AcDbEntity
8
1
62
256
6
ByLayer
370
13
48
1
60
0
100
AcDbSpline
70
4
71
3
72
141
73
137
40
0
40
0
40
0
40
0
40
0.015625
40
0.015625
40
0.03125
40
0.03125
40
0.0468749999999999
40
0.0468749999999999
40
0.0624999999999999
40
0.0624999999999999
40
0.0781249999999999
40
0.0781249999999999
40
0.0937499999999998
40
0.0937499999999998
40
0.109375
40
0.109375
40
0.125
40
0.125
40
0.140625
40
0.140625
40
0.15625
40
0.15625
40
0.171875
40
0.171875
40
0.1796875
40
0.1796875
40
0.18359375
40
0.18359375
40
0.1875
40
0.1875
40
0.218749999999999
40
0.218749999999999
40
0.234374999999999
40
0.234374999999999
40
0.249999999999999
40
0.249999999999999
40
0.265624999999999
40
0.265624999999999
40
0.281249999999999
40
0.281249999999999
40
0.296874999999999
40
0.296874999999999
40
0.312499999999999
40
0.312499999999999
40
0.328124999999999
40
0.328124999999999
40
0.343749999999999
40
0.343749999999999
40
0.359374999999999
40
0.359374999999999
40
0.374999999999999
40
0.374999999999999
40
0.390624999999999
40
0.390624999999999
40
0.406249999999999
40
0.406249999999999
40
0.421874999999999
40
0.421874999999999
40
0.437499999999999
40
0.437499999999999
40
0.453124999999999
40
0.453124999999999
40
0.457031249999999
40
0.457031249999999
40
0.460937499999999
40
0.468749999999999
40
0.468749999999999
40
0.484374999999999
40
0.484374999999999
40
0.499999999999999
40
0.499999999999999
40
0.515624999999999
40
0.515624999999999
40
0.531249999999999
40
0.531249999999999
40
0.546874999999999
40
0.546874999999999
40
0.562499999999999
40
0.562499999999999
40
0.578124999999999
40
0.578124999999999
40
0.593749999999999
40
0.593749999999999
40
0.609374999999999
40
0.609374999999999
40
0.624999999999999
40
0.624999999999999
40
0.640624999999999
40
0.640624999999999
40
0.656249999999999
40
0.656249999999999
40
0.671874999999999
40
0.671874999999999
40
0.687499999999999
40
0.687499999999999
40
0.703124999999999
40
0.703124999999999
40
0.718749999999999
40
0.718749999999999
40
0.726562499999999
40
0.726562499999999
40
0.730468749999999
40
0.730468749999999
40
0.734374999999999
40
0.734374999999999
40
0.749999999999999
40
0.749999999999999
40
0.765624999999999
40
0.765624999999999
40
0.781249999999999
40
0.781249999999999
40
0.796874999999999
40
0.796874999999999
40
0.812499999999999
40
0.812499999999999
40
0.828124999999999
40
0.828124999999999
40
0.843749999999999
40
0.843749999999999
40
0.859374999999999
40
0.859374999999999
40
0.874999999999999
40
0.874999999999999
40
0.890624999999999
40
0.890624999999999
40
0.906249999999999
40
0.906249999999999
40
0.921875
40
0.921875
40
0.9375
40
0.9375
40
0.953125
40
0.953125
40
0.96875
40
0.96875
40
1
40
1
40
1
40
1
41
1
10
50.9
20
11.3486693208089
30
0
41
1
10
50.955722109903
20
11.1517780598943
30
0
41
1
10
51.011444219806
20
10.937159437205
30
0
41
1
10
51.122888439612
20
10.4742080280264
30
0
41
1
10
51.1786105495151
20
10.2258771685429
30
0
41
1
10
51.2900547693211
20
9.69822010986667
30
0
41
1
10
51.3457768792241
20
9.41889804164234
30
0
41
1
10
51.4572210990302
20
8.83286497607372
30
0
41
1
10
51.5129432089332
20
8.52615998859957
30
0
41
1
10
51.6243874287392
20
7.8897014376731
30
0
41
1
10
51.6801095386422
20
7.55995519973746
30
0
41
1
10
51.7915537584482
20
6.88228601746781
30
0
41
1
10
51.8472758683512
20
6.53437100199247
30
0
41
1
10
51.9587200881573
20
5.82553596095852
30
0
41
1
10
52.0144421980603
20
5.46462372183345
30
0
41
1
10
52.1258864178663
20
4.73502713733822
30
0
41
1
10
52.1816085277693
20
4.36634977096062
30
0
41
1
10
52.2930527475754
20
3.62629308704655
30
0
41
1
10
52.3487748574784
20
3.25491944434106
30
0
41
1
10
52.4602190772844
20
2.51418605346234
30
0
41
1
10
52.5159411871874
20
2.14483039311114
30
0
41
1
10
52.6273854069935
20
1.41234716664067
30
0
41
1
10
52.6831075168965
20
1.04922203366544
30
0
41
1
10
52.766690681751
20
0.511916403725706
30
0
41
1
10
52.7945517367025
20
0.334039972117466
30
0
41
1
10
52.8363433191297
20
0.0693567392300452
30
0
41
1
10
52.8502738466055
20
-0.0182813093220489
30
0
41
1
10
52.878134901557
20
-0.194460243184409
30
0
41
1
10
52.8920654290328
20
-0.282909086904027
30
0
41
1
10
53.0174401763145
20
-1.08197111725343
30
0
41
1
10
53.1288843961206
20
-1.81415189687692
30
0
41
1
10
53.2960507258296
20
-2.92289171034997
30
0
41
1
10
53.3517728357327
20
-3.29413633383453
30
0
41
1
10
53.4632170555387
20
-4.03538601862758
30
0
41
1
10
53.5189391654417
20
-4.40538585916619
30
0
41
1
10
53.6303833852477
20
-5.13916615747939
30
0
41
1
10
53.6861054951507
20
-5.50293998265852
30
0
41
1
10
53.7975497149568
20
-6.2190635934559
30
0
41
1
10
53.8532718248597
20
-6.57140577024737
30
0
41
1
10
53.9647160446658
20
-7.25945212363521
30
0
41
1
10
54.0204381545688
20
-7.59514833741295
30
0
41
1
10
54.1318823743748
20
-8.2449156607002
30
0
41
1
10
54.1876044842778
20
-8.55897918623896
30
0
41
1
10
54.2990487040838
20
-9.16095701117337
30
0
41
1
10
54.3547708139869
20
-9.44886484032429
30
0
41
1
10
54.4662150337929
20
-9.99468376238025
30
0
41
1
10
54.5219371436959
20
-10.2525901175314
30
0
41
1
10
54.633381363502
20
-10.7354055656572
30
0
41
1
10
54.689103473405
20
-10.9603120562997
30
0
41
1
10
54.8005476932109
20
-11.3750856656715
30
0
41
1
10
54.856269803114
20
-11.5649524473372
30
0
41
1
10
54.9677140229201
20
-11.9086072712575
30
0
41
1
10
55.023436132823
20
-12.0623970957422
30
0
41
1
10
55.134880352629
20
-12.3338388845087
30
0
41
1
10
55.1906024625321
20
-12.4514943768772
30
0
41
1
10
55.3020466823381
20
-12.6515073324288
30
0
41
1
10
55.3577687922412
20
-12.7338695516163
30
0
41
1
10
55.4692130120472
20
-12.8649083657593
30
0
41
1
10
55.5249351219501
20
-12.9135903768791
30
0
41
1
10
55.6363793417562
20
-12.9794989476702
30
0
41
1
10
55.6921014516592
20
-12.9967310509798
30
0
41
1
10
55.761754089038
20
-13.0002874771024
30
0
41
1
10
55.7756846165138
20
-13.0001069086845
30
0
41
1
10
55.8035456714653
20
-12.9979486468428
30
0
41
1
10
55.8453372538924
20
-12.9920031207099
30
0
41
1
10
55.8871288363198
20
-12.9777347457161
30
0
41
1
10
55.9707120011743
20
-12.9376028961257
30
0
41
1
10
56.0264341110773
20
-12.8953720170853
30
0
41
1
10
56.1378783308834
20
-12.7776352791113
30
0
41
1
10
56.1936004407863
20
-12.7021239385701
30
0
41
1
10
56.3050446605924
20
-12.5160769370681
30
0
41
1
10
56.3607667704954
20
-12.4055363435527
30
0
41
1
10
56.4722109903014
20
-12.1484238541801
30
0
41
1
10
56.5279331002044
20
-12.0018481417449
30
0
41
1
10
56.6393773200104
20
-11.6725342577712
30
0
41
1
10
56.6950994299135
20
-11.4897939209899
30
0
41
1
10
56.8065436497194
20
-11.0889872002539
30
0
41
1
10
56.8622657596225
20
-10.8709207119011
30
0
41
1
10
56.9737099794285
20
-10.4013011442217
30
0
41
1
10
57.0294320893315
20
-10.1497502178231
30
0
41
1
10
57.1408763091375
20
-9.61597407092825
30
0
41
1
10
57.1965984190406
20
-9.33375318726641
30
0
41
1
10
57.3080426388466
20
-8.74232435331956
30
0
41
1
10
57.3637647487496
20
-8.43312257226879
30
0
41
1
10
57.4752089685557
20
-7.79213488032531
30
0
41
1
10
57.5309310784587
20
-7.46035638835812
30
0
41
1
10
57.6423752982646
20
-6.77912763597115
30
0
41
1
10
57.6980974081677
20
-6.42968532315734
30
0
41
1
10
57.8095416279737
20
-5.71831732040283
30
0
41
1
10
57.8652637378768
20
-5.35639936416229
30
0
41
1
10
57.9767079576828
20
-4.62530640981723
30
0
41
1
10
58.0324300675858
20
-4.25613827992154
30
0
41
1
10
58.1438742873918
20
-3.51558781460713
30
0
41
1
10
58.1995963972949
20
-3.14421100516927
30
0
41
1
10
58.3110406171008
20
-2.40391493415595
30
0
41
1
10
58.3667627270039
20
-2.03499959551144
30
0
41
1
10
58.4782069468099
20
-1.30378459188361
30
0
41
1
10
58.5339290567129
20
-0.941487199111776
30
0
41
1
10
58.6175122215675
20
-0.405666543938281
30
0
41
1
10
58.6453732765189
20
-0.228325625136847
30
0
41
1
10
58.6871648589462
20
0.0354996587292078
30
0
41
1
10
58.7010953864219
20
0.123315532510702
30
0
41
1
10
58.7289564413735
20
0.300058945279943
30
0
41
1
10
58.7428869688493
20
0.388780811530722
30
0
41
1
10
58.812539606228
20
0.834020642985649
30
0
41
1
10
58.868261716131
20
1.19545513453639
30
0
41
1
10
58.9797059359371
20
1.92532555461472
30
0
41
1
10
59.0354280458401
20
2.29375937054408
30
0
41
1
10
59.1468722656461
20
3.0335305956346
30
0
41
1
10
59.2025943755491
20
3.40486424719575
30
0
41
1
10
59.3140385953551
20
4.14581213041916
30
0
41
1
10
59.3697607052581
20
4.51542098752785
30
0
41
1
10
59.4812049250642
20
5.24790838569436
30
0
41
1
10
59.5369270349671
20
5.61078017407752
30
0
41
1
10
59.6483712547732
20
6.3245777169472
30
0
41
1
10
59.7040933646762
20
6.67549579698402
30
0
41
1
10
59.8155375844823
20
7.36018377920237
30
0
41
1
10
59.8712596943853
20
7.69394572247271
30
0
41
1
10
59.9827039141913
20
8.33936999832349
30
0
41
1
10
60.0384260240943
20
8.65102482580201
30
0
41
1
10
60.1498702439003
20
9.24776904265474
30
0
41
1
10
60.2055923538034
20
9.53285210927444
30
0
41
1
10
60.3170365736094
20
10.0726827801666
30
0
41
1
10
60.3727586835124
20
10.3274258452554
30
0
41
1
10
60.4842029033184
20
10.8036673953567
30
0
41
1
10
60.5399250132214
20
11.0251635022377
30
0
41
1
10
60.6513692330275
20
11.4329679104721
30
0
41
1
10
60.7070913429304
20
11.6192760963636
30
0
41
1
10
60.8185355627365
20
11.9557648582924
30
0
41
1
10
60.8742576726395
20
12.105947410041
30
0
41
1
10
60.9857018924455
20
12.3702197040155
30
0
41
1
10
61.0414240023485
20
12.4843131212213
30
0
41
1
10
61.1528682221546
20
12.6773300866166
30
0
41
1
10
61.2085903320576
20
12.7562584819289
30
0
41
1
10
61.3757566617666
20
12.9428105230702
30
0
41
1
10
61.4872008815726
20
13
30
0
41
1
10
61.5986451013787
20
13
30
0
0
SPLINE
5
DD
100
AcDbEntity
8
1
62
256
6
ByLayer
370
13
48
1
60
0
100
AcDbSpline
70
4
71
3
72
22
73
18
40
0
40
0
40
0
40
0
40
0.125
40
0.125
40
0.25
40
0.25
40
0.375
40
0.375
40
0.5
40
0.5
40
0.625
40
0.625
40
0.75
40
0.75
40
0.875
40
0.875
40
1
40
1
40
1
40
1
41
1
10
60.1125537309295
20
13
30
0
41
1
10
60.2148801152466
20
13
30
0
41
1
10
60.3172064995638
20
12.9518262114517
30
0
41
1
10
60.5218592681979
20
12.7434333067121
30
0
41
1
10
60.624185652515
20
12.5831005813718
30
0
41
1
10
60.8288384211491
20
12.1409724742198
30
0
41
1
10
60.9311648054662
20
11.8590923509972
30
0
41
1
10
61.1358175741003
20
11.1740682900692
30
0
41
1
10
61.2381439584174
20
10.7709052449833
30
0
41
1
10
61.4427967270516
20
9.854822598314
30
0
41
1
10
61.5451231113685
20
9.34196832183926
30
0
41
1
10
61.7497758800027
20
8.22867071007312
30
0
41
1
10
61.8521022643199
20
7.628363445986
30
0
41
1
10
62.056755032954
20
6.36987994959529
30
0
41
1
10
62.1590814172711
20
5.71186820243054
30
0
41
1
10
62.3637341859053
20
4.37055727473742
30
0
41
1
10
62.4660605702223
20
3.68740145601771
30
0
41
1
10
62.5683869545394
20
3.00692169795775
30
0
0
SPLINE
5
DE
100
AcDbEntity
8
1
62
256
6
ByLayer
370
13
48
1
60
0
100
AcDbSpline
70
4
71
3
72
8
73
4
40
0
40
0
40
0
40
0
40
1
40
1
40
1
40
1
41
1
10
50.9
20
12.9984766897412
30
0
41
1
10
50.9104927663329
20
12.9994953901204
30
0
41
1
10
50.9209855326657
20
13
30
0
41
1
10
50.9314782989985
20
13
30
0
0
SPLINE
5
DF
100
AcDbEntity
8
1
62
256
6
ByLayer
370
13
48
1
60
0
100
AcDbSpline
70
4
71
3
72
117
73
113
40
0
40
0
40
0
40
0
40
0.015625
40
0.015625
40
0.0312500000000001
40
0.0312500000000001
40
0.0468750000000001
40
0.0468750000000001
40
0.0625000000000001
40
0.0625000000000001
40
0.0937500000000002
40
0.0937500000000002
40
0.125
40
0.125
40
0.140625
40
0.140625
40
0.14453125
40
0.14453125
40
0.1484375
40
0.156250000000001
40
0.156250000000001
40
0.187500000000001
40
0.187500000000001
40
0.218750000000001
40
0.218750000000001
40
0.234375000000001
40
0.234375000000001
40
0.250000000000002
40
0.250000000000002
40
0.265625000000002
40
0.265625000000002
40
0.281250000000002
40
0.281250000000002
40
0.296875000000002
40
0.296875000000002
40
0.312500000000002
40
0.312500000000002
40
0.328125000000002
40
0.328125000000002
40
0.343750000000002
40
0.343750000000002
40
0.375000000000003
40
0.375000000000003
40
0.406250000000003
40
0.406250000000003
40
0.421875000000003
40
0.421875000000003
40
0.425781250000003
40
0.425781250000003
40
0.429687500000003
40
0.429687500000003
40
0.437500000000004
40
0.437500000000004
40
0.468750000000004
40
0.468750000000004
40
0.500000000000004
40
0.500000000000004
40
0.515625000000005
40
0.515625000000005
40
0.531250000000005
40
0.531250000000005
40
0.546875000000005
40
0.546875000000005
40
0.562500000000005
40
0.562500000000005
40
0.578125000000006
40
0.578125000000006
40
0.593750000000006
40
0.593750000000006
40
0.609375000000006
40
0.609375000000006
40
0.625000000000006
40
0.625000000000006
40
0.656250000000007
40
0.656250000000007
40
0.687500000000007
40
0.687500000000007
40
0.703125000000007
40
0.703125000000007
40
0.710937500000007
40
0.710937500000007
40
0.714843750000007
40
0.714843750000007
40
0.718750000000007
40
0.718750000000007
40
0.750000000000006
40
0.750000000000006
40
0.781250000000006
40
0.781250000000006
40
0.796875000000005
40
0.796875000000005
40
0.812500000000005
40
0.812500000000005
40
0.828125000000005
40
0.828125000000005
40
0.843750000000004
40
0.843750000000004
40
0.859375000000004
40
0.859375000000004
40
0.875000000000003
40
0.875000000000003
40
0.890625000000003
40
0.890625000000003
40
0.906250000000003
40
0.906250000000003
40
0.921875000000002
40
0.921875000000002
40
0.937500000000002
40
0.937500000000002
40
0.968750000000001
40
0.968750000000001
40
1
40
1
40
1
40
1
41
1
10
50.9
20
9.21291174227233
30
0
41
1
10
50.9531967389744
20
8.93578821323644
30
0
41
1
10
51.0063934779488
20
8.6460110562204
30
0
41
1
10
51.1127869558976
20
8.04484707461529
30
0
41
1
10
51.1659836948721
20
7.73346594378802
30
0
41
1
10
51.272377172821
20
7.09326859827038
30
0
41
1
10
51.3255739117954
20
6.7644586289901
30
0
41
1
10
51.4319673897442
20
6.09386477527156
30
0
41
1
10
51.4851641287187
20
5.75208714579995
30
0
41
1
10
51.6447543456419
20
4.7141305809464
30
0
41
1
10
51.7511478235907
20
4.00546833142016
30
0
41
1
10
51.9639347794884
20
2.58953371593077
30
0
41
1
10
52.0703282574373
20
1.88238006230253
30
0
41
1
10
52.2299184743605
20
0.844552559298165
30
0
41
1
10
52.283115213335
20
0.502369520239341
30
0
41
1
10
52.349611137053
20
0.0811239935542005
30
0
41
1
10
52.3629103217965
20
-0.0025786740886815
30
0
41
1
10
52.3895086912837
20
-0.170670248277759
30
0
41
1
10
52.4294062455146
20
-0.423794349793951
30
0
41
1
10
52.4693037997454
20
-0.679698918736619
30
0
41
1
10
52.6022956471815
20
-1.53801461119102
30
0
41
1
10
52.7086891251303
20
-2.24193960266072
30
0
41
1
10
52.921476081028
20
-3.65667588154113
30
0
41
1
10
53.0278695589768
20
-4.36738123949388
30
0
41
1
10
53.1874597759001
20
-5.41289064347947
30
0
41
1
10
53.2406565148745
20
-5.75792831044277
30
0
41
1
10
53.3470499928233
20
-6.43653552042767
30
0
41
1
10
53.4002467317978
20
-6.77009891860754
30
0
41
1
10
53.5066402097466
20
-7.42124410032588
30
0
41
1
10
53.559836948721
20
-7.73881957603803
30
0
41
1
10
53.6662304266698
20
-8.35369887279697
30
0
41
1
10
53.7194271656444
20
-8.65099676005192
30
0
41
1
10
53.8258206435931
20
-9.2214400424875
30
0
41
1
10
53.8790173825675
20
-9.49458040390476
30
0
41
1
10
53.9854108605164
20
-10.0134035208348
30
0
41
1
10
54.0386075994908
20
-10.259082579915
30
0
41
1
10
54.1450010774396
20
-10.7203862443936
30
0
41
1
10
54.1981978164141
20
-10.9360087751463
30
0
41
1
10
54.3045912943629
20
-11.3353983094236
30
0
41
1
10
54.3577880333373
20
-11.5191649551686
30
0
41
1
10
54.5173782502606
20
-12.021228657234
30
0
41
1
10
54.6237717282094
20
-12.2899138436473
30
0
41
1
10
54.8365586841071
20
-12.6970696248963
30
0
41
1
10
54.942952162056
20
-12.835654352291
30
0
41
1
10
55.1025423789792
20
-12.9552983058469
30
0
41
1
10
55.1557391179536
20
-12.9805453522526
30
0
41
1
10
55.2222350416716
20
-12.9951995308566
30
0
41
1
10
55.2355342264153
20
-12.9972859608339
30
0
41
1
10
55.2621325959024
20
-12.999807752903
30
0
41
1
10
55.2754317806461
20
-13.0002446987066
30
0
41
1
10
55.3153293348769
20
-12.9991261396249
30
0
41
1
10
55.3419277043641
20
-12.9951194858251
30
0
41
1
10
55.4749195518001
20
-12.9580259362396
30
0
41
1
10
55.5813130297489
20
-12.8735016165529
30
0
41
1
10
55.7940999856466
20
-12.5789703409901
30
0
41
1
10
55.9004934635955
20
-12.3688318395309
30
0
41
1
10
56.0600836805188
20
-11.9541366190159
30
0
41
1
10
56.1132804194932
20
-11.799406262416
30
0
41
1
10
56.219673897442
20
-11.457192406749
30
0
41
1
10
56.2728706364165
20
-11.2697078202799
30
0
41
1
10
56.3792641143653
20
-10.863046525416
30
0
41
1
10
56.4324608533397
20
-10.6438703702438
30
0
41
1
10
56.5388543312885
20
-10.1757176775111
30
0
41
1
10
56.5920510702629
20
-9.92674340912518
30
0
41
1
10
56.6984445482118
20
-9.40167472669174
30
0
41
1
10
56.7516412871862
20
-9.12558418020686
30
0
41
1
10
56.8580347651351
20
-8.54965897377957
30
0
41
1
10
56.9112315041095
20
-8.24982947533428
30
0
41
1
10
57.0176249820583
20
-7.630361399164
30
0
41
1
10
57.0708217210327
20
-7.31072882574054
30
0
41
1
10
57.1772151989816
20
-6.65597927190751
30
0
41
1
10
57.2304119379559
20
-6.32086860731687
30
0
41
1
10
57.3900021548792
20
-5.29910108966817
30
0
41
1
10
57.496395632828
20
-4.59610686825076
30
0
41
1
10
57.7091825887258
20
-3.18215586551949
30
0
41
1
10
57.8155760666746
20
-2.47133859323103
30
0
41
1
10
57.9751662835979
20
-1.42251324538654
30
0
41
1
10
58.0283630225723
20
-1.07575358347043
30
0
41
1
10
58.1081581310339
20
-0.562249902924378
30
0
41
1
10
58.1347565005211
20
-0.392183913549729
30
0
41
1
10
58.1746540547519
20
-0.138995647508352
30
0
41
1
10
58.1879532394956
20
-0.0550452701366737
30
0
41
1
10
58.2145516089828
20
0.112742397414564
30
0
41
1
10
58.2278507937264
20
0.196969845116655
30
0
41
1
10
58.3475434564188
20
0.957838152431634
30
0
41
1
10
58.4539369343677
20
1.65457227766188
30
0
41
1
10
58.6667238902654
20
3.06343882472936
30
0
41
1
10
58.7731173682141
20
3.77548741962852
30
0
41
1
10
58.9327075851374
20
4.83051668681162
30
0
41
1
10
58.9859043241118
20
5.1799700707991
30
0
41
1
10
59.0922978020606
20
5.86995106277095
30
0
41
1
10
59.145494541035
20
6.21047282902347
30
0
41
1
10
59.2518880189839
20
6.87803493051325
30
0
41
1
10
59.3050847579584
20
7.20506898500506
30
0
41
1
10
59.4114782359072
20
7.84121760448582
30
0
41
1
10
59.4646749748817
20
8.1503259597946
30
0
41
1
10
59.5710684528305
20
8.74649213677333
30
0
41
1
10
59.6242651918049
20
9.03354436171495
30
0
41
1
10
59.7306586697537
20
9.58195345735649
30
0
41
1
10
59.7838554087281
20
9.84330584017732
30
0
41
1
10
59.8902488866769
20
10.3373097803048
30
0
41
1
10
59.9434456256514
20
10.5699583347608
30
0
41
1
10
60.0498391036002
20
11.0043021821884
30
0
41
1
10
60.1030358425747
20
11.2059961604805
30
0
41
1
10
60.2094293205235
20
11.5769968296556
30
0
41
1
10
60.2626260594979
20
11.7463039025738
30
0
41
1
10
60.3690195374468
20
12.0519289827382
30
0
41
1
10
60.4222162764212
20
12.18824889587
30
0
41
1
10
60.5818064933444
20
12.5480180136864
30
0
41
1
10
60.6881999712932
20
12.7219794428618
30
0
41
1
10
60.900986927191
20
12.9479017458614
30
0
41
1
10
61.0073804051399
20
13
30
0
41
1
10
61.1137738830887
20
13
30
0
0
SPLINE
5
E0
100
AcDbEntity
8
1
62
256
6
ByLayer
370
13
48
1
60
0
100
AcDbSpline
70
4
71
3
72
42
73
38
40
0
40
0
40
0
40
0
40
0.0625000000000001
40
0.0625000000000001
40
0.125
40
0.125
40
0.1875
40
0.1875
40
0.25
40
0.25
40
0.3125
40
0.3125
40
0.375
40
0.375
40
0.4375
40
0.4375
40
0.5
40
0.5
40
0.5625
40
0.5625
40
0.625
40
0.625
40
0.6875
40
0.6875
40
0.75
40
0.75
40
0.8125
40
0.8125
40
0.875
40
0.875
40
0.9375
40
0.9375
40
0.96875
40
0.96875
40
0.984375
40
0.984375
40
1
40
1
40
1
40
1
41
1
10
59.6276825126396
20
13
30
0
41
1
10
59.6889471885125
20
13
30
0
41
1
10
59.7502118643854
20
12.9827769843356
30
0
41
1
10
59.8727412161312
20
12.910312771509
30
0
41
1
10
59.9340058920042
20
12.8550626748547
30
0
41
1
10
60.05653524375
20
12.7036135940956
30
0
41
1
10
60.1177999196228
20
12.6074059823127
30
0
41
1
10
60.2403292713687
20
12.3720357234336
30
0
41
1
10
60.3015939472416
20
12.232865764583
30
0
41
1
10
60.4241232989874
20
11.9107325282295
30
0
41
1
10
60.4853879748603
20
11.7277643477989
30
0
41
1
10
60.6079173266061
20
11.3185516925162
30
0
41
1
10
60.6691820024791
20
11.0923056597476
30
0
41
1
10
60.7917113542249
20
10.5985099353537
30
0
41
1
10
60.8529760300978
20
10.3309625928939
30
0
41
1
10
60.9755053818436
20
9.75798235807272
30
0
41
1
10
61.0367700577166
20
9.45255574375548
30
0
41
1
10
61.1592994094623
20
8.80855064576909
30
0
41
1
10
61.2205640853353
20
8.46998179462446
30
0
41
1
10
61.3430934370811
20
7.76550001048787
30
0
41
1
10
61.404358112954
20
7.39959897747713
30
0
41
1
10
61.5268874646998
20
6.64700707940878
30
0
41
1
10
61.5881521405728
20
6.2603289886662
30
0
41
1
10
61.7106814923186
20
5.47310796494156
30
0
41
1
10
61.7719461681915
20
5.07257725228268
30
0
41
1
10
61.8944755199373
20
4.26456631585592
30
0
41
1
10
61.9557401958103
20
3.8570965524479
30
0
41
1
10
62.0782695475561
20
3.04176858019622
30
0
41
1
10
62.1395342234289
20
2.63391826594128
30
0
41
1
10
62.2620635751748
20
1.82375794862708
30
0
41
1
10
62.3233282510477
20
1.42145293423425
30
0
41
1
10
62.4152252648571
20
0.825977373419931
30
0
41
1
10
62.4458576027936
20
0.628808941777805
30
0
41
1
10
62.4918061096982
20
0.335454212186875
30
0
41
1
10
62.5071222786665
20
0.238068493809777
30
0
41
1
10
62.5377546166029
20
0.0441586570310051
30
0
41
1
10
62.5530707855711
20
-0.0521556841326571
30
0
41
1
10
62.5683869545393
20
-0.149134326763288
30
0
0
SPLINE
5
E1
100
AcDbEntity
8
1
62
256
6
ByLayer
370
13
48
1
60
0
100
AcDbSpline
70
4
71
3
72
88
73
84
40
0
40
0
40
0
40
0
40
0.0312500000000003
40
0.0312500000000003
40
0.0625000000000007
40
0.0625000000000007
40
0.093750000000001
40
0.093750000000001
40
0.0976562500000011
40
0.0976562500000011
40
0.101562500000001
40
0.101562500000001
40
0.109375000000001
40
0.109375000000001
40
0.125000000000001
40
0.125000000000001
40
0.156250000000002
40
0.156250000000002
40
0.187500000000003
40
0.187500000000003
40
0.218750000000003
40
0.218750000000003
40
0.250000000000004
40
0.250000000000004
40
0.281250000000004
40
0.281250000000004
40
0.312500000000005
40
0.312500000000005
40
0.343750000000006
40
0.343750000000006
40
0.375000000000006
40
0.375000000000006
40
0.390625000000006
40
0.390625000000006
40
0.398437500000006
40
0.398437500000006
40
0.402343750000006
40
0.402343750000006
40
0.406250000000006
40
0.406250000000006
40
0.437500000000006
40
0.437500000000006
40
0.468750000000006
40
0.468750000000006
40
0.500000000000006
40
0.500000000000006
40
0.531250000000006
40
0.531250000000006
40
0.562500000000005
40
0.562500000000005
40
0.593750000000005
40
0.593750000000005
40
0.625000000000005
40
0.625000000000005
40
0.656250000000005
40
0.656250000000005
40
0.687500000000005
40
0.687500000000005
40
0.695312500000005
40
0.695312500000005
40
0.699218750000005
40
0.699218750000005
40
0.703125000000005
40
0.703125000000005
40
0.718750000000004
40
0.718750000000004
40
0.750000000000004
40
0.750000000000004
40
0.781250000000003
40
0.781250000000003
40
0.812500000000003
40
0.812500000000003
40
0.843750000000003
40
0.843750000000003
40
0.875000000000002
40
0.875000000000002
40
0.906250000000002
40
0.906250000000002
40
0.937500000000001
40
0.937500000000001
40
0.968750000000001
40
0.968750000000001
40
1
40
1
40
1
40
1
41
1
10
50.9
20
6.39068178849908
30
0
41
1
10
51.0013427360917
20
5.75098509932585
30
0
41
1
10
51.1026854721833
20
5.08811277002462
30
0
41
1
10
51.3053709443666
20
3.7472298043264
30
0
41
1
10
51.4067136804583
20
3.0693420570336
30
0
41
1
10
51.6093991526415
20
1.72684859832469
30
0
41
1
10
51.7107418887332
20
1.06230976527584
30
0
41
1
10
51.8247524668363
20
0.334775852282434
30
0
41
1
10
51.8374203088478
20
0.254213130495259
30
0
41
1
10
51.8627559928707
20
0.0936722698309893
30
0
41
1
10
51.8754238348822
20
0.013891155053841
30
0
41
1
10
51.9134273609166
20
-0.226123287321229
30
0
41
1
10
51.9387630449394
20
-0.387333953121356
30
0
41
1
10
52.0147700970082
20
-0.874138104607994
30
0
41
1
10
52.065441465054
20
-1.20291733271262
30
0
41
1
10
52.2174555691915
20
-2.19803891646853
30
0
41
1
10
52.3187983052832
20
-2.87334515327598
30
0
41
1
10
52.5214837774665
20
-4.2218616899807
30
0
41
1
10
52.6228265135581
20
-4.89497181293564
30
0
41
1
10
52.8255119857414
20
-6.20853624086948
30
0
41
1
10
52.926854721833
20
-6.84884484617081
30
0
41
1
10
53.1295401940163
20
-8.06541326959999
30
0
41
1
10
53.230882930108
20
-8.64151842369606
30
0
41
1
10
53.4335684022914
20
-9.70212038973045
30
0
41
1
10
53.534911138383
20
-10.1865005449917
30
0
41
1
10
53.7375966105663
20
-11.0441772580142
30
0
41
1
10
53.838939346658
20
-11.417429825919
30
0
41
1
10
54.0416248188413
20
-12.0439814341178
30
0
41
1
10
54.1429675549329
20
-12.297314658563
30
0
41
1
10
54.3456530271162
20
-12.6859006310301
30
0
41
1
10
54.4469957632079
20
-12.8212429313378
30
0
41
1
10
54.5990098673453
20
-12.9436843898017
30
0
41
1
10
54.6496812353911
20
-12.9711287731218
30
0
41
1
10
54.7256882874599
20
-12.9936523348931
30
0
41
1
10
54.7510239714828
20
-12.9980554361316
30
0
41
1
10
54.7890274975172
20
-13.0001978628048
30
0
41
1
10
54.8016953395286
20
-13.000172760505
30
0
41
1
10
54.8270310235515
20
-12.9986423463931
30
0
41
1
10
54.839698865563
20
-12.9971329713667
30
0
41
1
10
54.953709443666
20
-12.9767030987338
30
0
41
1
10
55.0550521797577
20
-12.9096627605671
30
0
41
1
10
55.2577376519411
20
-12.6634779331291
30
0
41
1
10
55.3590803880328
20
-12.4842273588682
30
0
41
1
10
55.561765860216
20
-12.0059035483889
30
0
41
1
10
55.6631085963076
20
-11.7067578416588
30
0
41
1
10
55.8657940684909
20
-10.9905787384759
30
0
41
1
10
55.9671368045826
20
-10.5735394181466
30
0
41
1
10
56.1698222767659
20
-9.63445438956305
30
0
41
1
10
56.2711650128576
20
-9.11248264797166
30
0
41
1
10
56.4738504850409
20
-7.98636370307869
30
0
41
1
10
56.5751932211325
20
-7.38235282809663
30
0
41
1
10
56.7778786933158
20
-6.12168349080028
30
0
41
1
10
56.8792214294075
20
-5.46518171426766
30
0
41
1
10
57.0819069015909
20
-4.13118304474855
30
0
41
1
10
57.1832496376825
20
-3.45381773915634
30
0
41
1
10
57.3859351098659
20
-2.10737735463121
30
0
41
1
10
57.4872778459574
20
-1.43838042811444
30
0
41
1
10
57.613956266072
20
-0.622118556799137
30
0
41
1
10
57.6392919500949
20
-0.459849206215978
30
0
41
1
10
57.6772954761293
20
-0.218145310492332
30
0
41
1
10
57.6899633181407
20
-0.137860482784021
30
0
41
1
10
57.7152990021636
20
0.0221079199917824
30
0
41
1
10
57.7279668441751
20
0.101919052190141
30
0
41
1
10
57.7913060542324
20
0.503371404151522
30
0
41
1
10
57.8419774222782
20
0.829217714353092
30
0
41
1
10
57.9939915264157
20
1.81711461365399
30
0
41
1
10
58.0953342625074
20
2.48971574726176
30
0
41
1
10
58.2980197346906
20
3.8381882625788
30
0
41
1
10
58.3993624707823
20
4.51397033673501
30
0
41
1
10
58.6020479429656
20
5.83887198844323
30
0
41
1
10
58.7033906790572
20
6.48785232031241
30
0
41
1
10
58.9060761512406
20
7.72756850906944
30
0
41
1
10
59.0074188873322
20
8.31814781759493
30
0
41
1
10
59.2101043595155
20
9.41241590401697
30
0
41
1
10
59.3114470956072
20
9.91597746262187
30
0
41
1
10
59.5141325677905
20
10.8149407085885
30
0
41
1
10
59.6154753038822
20
11.2102832057315
30
0
41
1
10
59.8181607760654
20
11.8818423089856
30
0
41
1
10
59.9195035121571
20
12.1580793215338
30
0
41
1
10
60.1221889843404
20
12.5913605335555
30
0
41
1
10
60.223531720432
20
12.7484863943935
30
0
41
1
10
60.4262171926153
20
12.9527519420927
30
0
41
1
10
60.527559928707
20
13
30
0
41
1
10
60.6289026647986
20
13
30
0
0
SPLINE
5
E2
100
AcDbEntity
8
1
62
256
6
ByLayer
370
13
48
1
60
0
100
AcDbSpline
70
4
71
3
72
42
73
38
40
0
40
0
40
0
40
0
40
0.0624999999999999
40
0.0624999999999999
40
0.125
40
0.125
40
0.1875
40
0.1875
40
0.25
40
0.25
40
0.312499999999999
40
0.312499999999999
40
0.374999999999999
40
0.374999999999999
40
0.437499999999999
40
0.437499999999999
40
0.499999999999999
40
0.499999999999999
40
0.562499999999999
40
0.562499999999999
40
0.624999999999999
40
0.624999999999999
40
0.687499999999999
40
0.687499999999999
40
0.749999999999999
40
0.749999999999999
40
0.812499999999999
40
0.812499999999999
40
0.843749999999999
40
0.843749999999999
40
0.859374999999999
40
0.859374999999999
40
0.874999999999999
40
0.874999999999999
40
0.937499999999999
40
0.937499999999999
40
1
40
1
40
1
40
1
41
1
10
59.1428112943495
20
13
30
0
41
1
10
59.2141774539369
20
13
30
0
41
1
10
59.2855436135241
20
12.9766177759074
30
0
41
1
10
59.4282759326986
20
12.8775161442298
30
0
41
1
10
59.4996420922859
20
12.8017776374821
30
0
41
1
10
59.6423744114606
20
12.5936474575465
30
0
41
1
10
59.7137405710478
20
12.4612379887827
30
0
41
1
10
59.8564728902224
20
12.1373065515651
30
0
41
1
10
59.9278390498096
20
11.9457712111215
30
0
41
1
10
60.0705713689842
20
11.5034652966681
30
0
41
1
10
60.1419375285716
20
11.2526887800968
30
0
41
1
10
60.2846698477462
20
10.6944152900573
30
0
41
1
10
60.3560360073334
20
10.3869218492591
30
0
41
1
10
60.498768326508
20
9.72040955704583
30
0
41
1
10
60.5701344860953
20
9.36140406464989
30
0
41
1
10
60.7128668052699
20
8.59948906786985
30
0
41
1
10
60.7842329648572
20
8.19660110639137
30
0
41
1
10
60.9269652840317
20
7.35643709841676
30
0
41
1
10
60.998331443619
20
6.91918746192621
30
0
41
1
10
61.1410637627936
20
6.0209770686478
30
0
41
1
10
61.2124299223809
20
5.56004345139189
30
0
41
1
10
61.3551622415555
20
4.6254834582991
30
0
41
1
10
61.4265284011427
20
4.15188105587043
30
0
41
1
10
61.5692607203173
20
3.20256208508192
30
0
41
1
10
61.6406268799047
20
2.72686354498219
30
0
41
1
10
61.7833591990792
20
1.78285160404721
30
0
41
1
10
61.8547253586665
20
1.31454904108409
30
0
41
1
10
61.9617745980474
20
0.623621783108575
30
0
41
1
10
61.997457677841
20
0.395220986919327
30
0
41
1
10
62.0509822975315
20
0.0561087091940919
30
0
41
1
10
62.0688238374283
20
-0.0560460053953022
30
0
41
1
10
62.104506917222
20
-0.282120426500114
30
0
41
1
10
62.1223484571188
20
-0.395738274823628
30
0
41
1
10
62.2115561566029
20
-0.966478250790061
30
0
41
1
10
62.2829223161902
20
-1.43161923658175
30
0
41
1
10
62.4256546353647
20
-2.37145497625119
30
0
41
1
10
62.4970207949521
20
-2.84614070676847
30
0
41
1
10
62.5683869545394
20
-3.32103426822442
30
0
0
SPLINE
5
E3
100
AcDbEntity
8
1
62
256
6
ByLayer
370
13
48
1
60
0
100
AcDbSpline
70
4
71
3
72
87
73
83
40
0
40
0
40
0
40
0
40
0.0312499999999995
40
0.0312499999999995
40
0.0468749999999993
40
0.0468749999999993
40
0.0507812499999994
40
0.0507812499999994
40
0.0546874999999994
40
0.0546874999999994
40
0.0624999999999995
40
0.0624999999999995
40
0.0937499999999994
40
0.0937499999999994
40
0.124999999999999
40
0.124999999999999
40
0.156249999999999
40
0.156249999999999
40
0.187499999999999
40
0.187499999999999
40
0.218749999999999
40
0.218749999999999
40
0.249999999999999
40
0.249999999999999
40
0.281249999999999
40
0.281249999999999
40
0.312499999999999
40
0.312499999999999
40
0.343749999999999
40
0.343749999999999
40
0.359374999999999
40
0.359374999999999
40
0.367187499999999
40
0.367187499999999
40
0.371093749999999
40
0.371093749999999
40
0.374999999999999
40
0.374999999999999
40
0.406249999999999
40
0.406249999999999
40
0.437499999999999
40
0.437499999999999
40
0.468749999999999
40
0.468749999999999
40
0.499999999999999
40
0.499999999999999
40
0.53125
40
0.53125
40
0.5625
40
0.5625
40
0.59375
40
0.59375
40
0.625
40
0.625
40
0.65625
40
0.65625
40
0.671875
40
0.671875
40
0.6796875
40
0.68359375
40
0.68359375
40
0.6875
40
0.6875
40
0.71875
40
0.71875
40
0.75
40
0.75
40
0.78125
40
0.78125
40
0.8125
40
0.8125
40
0.84375
40
0.84375
40
0.875
40
0.875
40
0.90625
40
0.90625
40
0.9375
40
0.9375
40
0.96875
40
0.96875
40
1
40
1
40
1
40
1
41
1
10
50.9
20
3.21631494469466
30
0
41
1
10
50.9962919942345
20
2.57562216586274
30
0
41
1
10
51.0925839884689
20
1.93605669444281
30
0
41
1
10
51.2370219798207
20
0.994518101626966
30
0
41
1
10
51.2851679769379
20
0.683601571403216
30
0
41
1
10
51.3453504733344
20
0.299980581260968
30
0
41
1
10
51.3573869726137
20
0.223506737927153
30
0
41
1
10
51.3814599711723
20
0.0710902868976575
30
0
41
1
10
51.3934964704517
20
-0.0046697016265114
30
0
41
1
10
51.4296059682896
20
-0.232826130076973
30
0
41
1
10
51.4536789668482
20
-0.386010859643278
30
0
41
1
10
51.5740439596413
20
-1.1567202588721
30
0
41
1
10
51.6703359538757
20
-1.78881903335426
30
0
41
1
10
51.8629199423446
20
-3.06474822988005
30
0
41
1
10
51.9592119365792
20
-3.70852620539296
30
0
41
1
10
52.1517959250481
20
-4.98357807416056
30
0
41
1
10
52.2480879192825
20
-5.61475805726238
30
0
41
1
10
52.4406719077515
20
-6.83770521277126
30
0
41
1
10
52.5369639019859
20
-7.42935305345628
30
0
41
1
10
52.7295478904549
20
-8.54693172471852
30
0
41
1
10
52.8258398846893
20
-9.07274760084792
30
0
41
1
10
53.0184238731582
20
-10.0366017175311
30
0
41
1
10
53.1147158673927
20
-10.4745615970111
30
0
41
1
10
53.3072998558616
20
-11.2479060325875
30
0
41
1
10
53.4035918500961
20
-11.5832688550526
30
0
41
1
10
53.596175838565
20
-12.1454457561438
30
0
41
1
10
53.6924678327995
20
-12.3722941823347
30
0
41
1
10
53.8850518212684
20
-12.720081725679
30
0
41
1
10
53.9813438155028
20
-12.8410930427771
30
0
41
1
10
54.1257818068545
20
-12.9503565426798
30
0
41
1
10
54.1739278039718
20
-12.9747821864033
30
0
41
1
10
54.2461467996477
20
-12.994651014615
30
0
41
1
10
54.2702197982063
20
-12.998480938775
30
0
41
1
10
54.3063292960441
20
-13.0002040426836
30
0
41
1
10
54.3183657953235
20
-13.0001122359149
30
0
41
1
10
54.3424387938822
20
-12.9985903306746
30
0
41
1
10
54.3544752931615
20
-12.9971571808267
30
0
41
1
10
54.4628037866752
20
-12.9780821091317
30
0
41
1
10
54.5590957809096
20
-12.9170416107984
30
0
41
1
10
54.7516797693786
20
-12.6943552442127
30
0
41
1
10
54.8479717636131
20
-12.532626501937
30
0
41
1
10
55.040555752082
20
-12.1013996158077
30
0
41
1
10
55.1368477463165
20
-11.8318412345396
30
0
41
1
10
55.3294317347854
20
-11.185470099106
30
0
41
1
10
55.4257237290199
20
-10.8086436175633
30
0
41
1
10
55.6183077174888
20
-9.95712676924623
30
0
41
1
10
55.7145997117232
20
-9.48248148754493
30
0
41
1
10
55.9071837001922
20
-8.45315315263662
30
0
41
1
10
56.0034756944267
20
-7.89856617534107
30
0
41
1
10
56.1960596828956
20
-6.73344741278342
30
0
41
1
10
56.29235167713
20
-6.12303633910267
30
0
41
1
10
56.4849356655989
20
-4.87326191315321
30
0
41
1
10
56.5812276598334
20
-4.23401087534012
30
0
41
1
10
56.7738116483023
20
-2.95282634618971
30
0
41
1
10
56.8701036425369
20
-2.3109714679963
30
0
41
1
10
57.0145416338886
20
-1.36312572007853
30
0
41
1
10
57.0626876310058
20
-1.04963058551846
30
0
41
1
10
57.1349066266817
20
-0.584807697518556
30
0
41
1
10
57.1710161245196
20
-0.353747102054115
30
0
41
1
10
57.2071256223574
20
-0.125001043603589
30
0
41
1
10
57.231198620916
20
0.0269526279644481
30
0
41
1
10
57.2432351201954
20
0.102810507227502
30
0
41
1
10
57.3515636137092
20
0.789346357170956
30
0
41
1
10
57.4478556079436
20
1.41670070406968
30
0
41
1
10
57.6404395964126
20
2.68736978564695
30
0
41
1
10
57.736731590647
20
3.33064064852024
30
0
41
1
10
57.9293155791159
20
4.60973128147472
30
0
41
1
10
58.0256075733504
20
5.24546454401715
30
0
41
1
10
58.2181915618193
20
6.48286357001283
30
0
41
1
10
58.3144835560538
20
7.08441296032586
30
0
41
1
10
58.5070675445228
20
8.2267326230556
30
0
41
1
10
58.6033595387573
20
8.767384403975
30
0
41
1
10
58.7959435272261
20
9.76474400205575
30
0
41
1
10
58.8922355214606
20
10.2213641329492
30
0
41
1
10
59.0848195099295
20
11.0342604149852
30
0
41
1
10
59.181111504164
20
11.3905030886501
30
0
41
1
10
59.3736954926329
20
11.9949015180748
30
0
41
1
10
59.4699874868674
20
12.2430816259746
30
0
41
1
10
59.6625714753364
20
12.6323994081942
30
0
41
1
10
59.7588634695708
20
12.7736037960044
30
0
41
1
10
59.9514474580397
20
12.9573619150435
30
0
41
1
10
60.0477394522742
20
13
30
0
41
1
10
60.1440314465086
20
13
30
0
0
SPLINE
5
E4
100
AcDbEntity
8
1
62
256
6
ByLayer
370
13
48
1
60
0
100
AcDbSpline
70
4
71
3
72
43
73
39
40
0
40
0
40
0
40
0
40
0.0625
40
0.0625
40
0.125
40
0.125
40
0.1875
40
0.1875
40
0.25
40
0.25
40
0.3125
40
0.3125
40
0.375
40
0.375
40
0.4375
40
0.4375
40
0.5
40
0.5
40
0.5625
40
0.5625
40
0.625
40
0.625
40
0.6875
40
0.6875
40
0.71875
40
0.71875
40
0.734375
40
0.7421875
40
0.7421875
40
0.75
40
0.75
40
0.8125
40
0.8125
40
0.875
40
0.875
40
0.9375
40
0.9375
40
1
40
1
40
1
40
1
41
1
10
58.6579400760595
20
13
30
0
41
1
10
58.7394077193611
20
13
30
0
41
1
10
58.8208753626628
20
12.969512118357
30
0
41
1
10
58.9838106492661
20
12.8393855035635
30
0
41
1
10
59.0652782925678
20
12.7397098428488
30
0
41
1
10
59.2282135791712
20
12.4652947918535
30
0
41
1
10
59.3096812224728
20
12.2905227900717
30
0
41
1
10
59.4726165090761
20
11.8634047743047
30
0
41
1
10
59.5540841523778
20
11.6110383899452
30
0
41
1
10
59.7170194389811
20
11.0304496455168
30
0
41
1
10
59.7984870822828
20
10.7022258969507
30
0
41
1
10
59.9614223688862
20
9.97621879488369
30
0
41
1
10
60.0428900121878
20
9.57845589828833
30
0
41
1
10
60.2058252987911
20
8.72396535667647
30
0
41
1
10
60.2872929420928
20
8.26727733887054
30
0
41
1
10
60.4502282286961
20
7.30891262442657
30
0
41
1
10
60.5316958719977
20
6.8072869540359
30
0
41
1
10
60.6946311586011
20
5.77501021965674
30
0
41
1
10
60.7760988019027
20
5.24441124579624
30
0
41
1
10
60.9390340885061
20
4.17055066812759
30
0
41
1
10
61.0205017318077
20
3.62733272919772
30
0
41
1
10
61.183437018411
20
2.54352556523691
30
0
41
1
10
61.2649046617127
20
2.00296559965904
30
0
41
1
10
61.3871061266653
20
1.20392732146328
30
0
41
1
10
61.4278399483161
20
0.939528432949857
30
0
41
1
10
61.4889406807923
20
0.546881471055258
30
0
41
1
10
61.5194910470304
20
0.351543709014095
30
0
41
1
10
61.5500414132686
20
0.157858240883513
30
0
41
1
10
61.570408324094
20
0.0291197051275276
30
0
41
1
10
61.5805917795068
20
-0.0349647750308861
30
0
41
1
10
61.6722428782211
20
-0.614393238439305
30
0
41
1
10
61.7537105215228
20
-1.14187184172033
30
0
41
1
10
61.9166458081261
20
-2.21105694429832
30
0
41
1
10
61.9981134514277
20
-2.75274814784908
30
0
41
1
10
62.161048738031
20
-3.83695599319199
30
0
41
1
10
62.2425163813327
20
-4.37944134122242
30
0
41
1
10
62.405451667936
20
-5.44976419507717
30
0
41
1
10
62.4869193112378
20
-5.97755652417933
30
0
41
1
10
62.5683869545394
20
-6.48983272262456
30
0
0
SPLINE
5
E5
100
AcDbEntity
8
1
62
256
6
ByLayer
370
13
48
1
60
0
100
AcDbSpline
70
4
71
3
72
86
73
82
40
0
40
0
40
0
40
0
40
0.0039062499999999
40
0.0039062499999999
40
0.0078124999999998
40
0.0156249999999995
40
0.0156249999999995
40
0.0312499999999992
40
0.0312499999999992
40
0.0624999999999984
40
0.0624999999999984
40
0.0937499999999977
40
0.0937499999999977
40
0.124999999999997
40
0.124999999999997
40
0.156249999999996
40
0.156249999999996
40
0.187499999999996
40
0.187499999999996
40
0.218749999999995
40
0.218749999999995
40
0.249999999999994
40
0.249999999999994
40
0.281249999999993
40
0.281249999999993
40
0.312499999999993
40
0.312499999999993
40
0.328124999999992
40
0.328124999999992
40
0.332031249999992
40
0.332031249999992
40
0.335937499999992
40
0.335937499999992
40
0.343749999999992
40
0.343749999999992
40
0.374999999999992
40
0.374999999999992
40
0.406249999999993
40
0.406249999999993
40
0.437499999999993
40
0.437499999999993
40
0.468749999999993
40
0.468749999999993
40
0.499999999999993
40
0.499999999999993
40
0.531249999999993
40
0.531249999999993
40
0.562499999999993
40
0.562499999999993
40
0.593749999999993
40
0.593749999999993
40
0.624999999999994
40
0.624999999999994
40
0.656249999999994
40
0.656249999999994
40
0.664062499999994
40
0.664062499999994
40
0.667968749999994
40
0.667968749999994
40
0.671874999999994
40
0.687499999999994
40
0.687499999999994
40
0.718749999999995
40
0.718749999999995
40
0.749999999999995
40
0.749999999999995
40
0.781249999999996
40
0.781249999999996
40
0.812499999999996
40
0.812499999999996
40
0.843749999999997
40
0.843749999999997
40
0.874999999999998
40
0.874999999999998
40
0.906249999999998
40
0.906249999999998
40
0.937499999999999
40
0.937499999999999
40
0.96875
40
0.96875
40
1
40
1
40
1
40
1
41
1
10
50.9
20
0.0496391870056812
30
0
41
1
10
50.9114051565472
20
-0.0223538750218211
30
0
41
1
10
50.9228103130944
20
-0.094220737373405
30
0
41
1
10
50.9456206261887
20
-0.238726781865211
30
0
41
1
10
50.9798360958301
20
-0.456197625858095
30
0
41
1
10
51.0140515654716
20
-0.675688616953977
30
0
41
1
10
51.0824825047546
20
-1.11703119960325
30
0
41
1
10
51.1281031309432
20
-1.41441583999455
30
0
41
1
10
51.2649650095091
20
-2.3130502452895
30
0
41
1
10
51.3562062618864
20
-2.92089693456569
30
0
41
1
10
51.5386887666409
20
-4.13504054064427
30
0
41
1
10
51.6299300190182
20
-4.74127845425085
30
0
41
1
10
51.8124125237727
20
-5.93004597430769
30
0
41
1
10
51.90365377615
20
-6.51249131229767
30
0
41
1
10
52.0861362809046
20
-7.63065958777943
30
0
41
1
10
52.1773775332819
20
-8.16628960289444
30
0
41
1
10
52.3598600380364
20
-9.16968911423817
30
0
41
1
10
52.4511012904137
20
-9.63737963493278
30
0
41
1
10
52.6335837951683
20
-10.4883061102036
30
0
41
1
10
52.7248250475456
20
-10.8714968961053
30
0
41
1
10
52.9073075523001
20
-11.543305807719
30
0
41
1
10
52.9985488046774
20
-11.8319214947037
30
0
41
1
10
53.1810313094319
20
-12.3116737304546
30
0
41
1
10
53.2722725618092
20
-12.5028457972317
30
0
41
1
10
53.4547550665638
20
-12.7914891281747
30
0
41
1
10
53.545996318941
20
-12.8890192212102
30
0
41
1
10
53.6828581975069
20
-12.9717776258652
30
0
41
1
10
53.7284788236956
20
-12.9888090317488
30
0
41
1
10
53.7855046064314
20
-12.9978064847349
30
0
41
1
10
53.7969097629786
20
-12.9989917996825
30
0
41
1
10
53.8197200760728
20
-13.0001581550778
30
0
41
1
10
53.8311252326201
20
-13.0001423489321
30
0
41
1
10
53.8653407022615
20
-12.9982965154331
30
0
41
1
10
53.8881510153558
20
-12.9946558337852
30
0
41
1
10
54.0022025808274
20
-12.963926123821
30
0
41
1
10
54.0934438332047
20
-12.899125743394
30
0
41
1
10
54.2759263379593
20
-12.6787801804123
30
0
41
1
10
54.3671675903366
20
-12.5231719962711
30
0
41
1
10
54.5496500950912
20
-12.1152557071201
30
0
41
1
10
54.6408913474684
20
-11.8629014047295
30
0
41
1
10
54.8233738522229
20
-11.2617260827879
30
0
41
1
10
54.9146151046002
20
-10.9128921707784
30
0
41
1
10
55.0970976093548
20
-10.1261259530545
30
0
41
1
10
55.188338861732
20
-9.68822323153111
30
0
41
1
10
55.3708213664866
20
-8.73759721374375
30
0
41
1
10
55.4620626188638
20
-8.22494220207633
30
0
41
1
10
55.6445451236185
20
-7.14450237917458
30
0
41
1
10
55.7357863759957
20
-6.57680800998926
30
0
41
1
10
55.9182688807503
20
-5.40893811689253
30
0
41
1
10
56.0095101331275
20
-4.80885249382359
30
0
41
1
10
56.1919926378821
20
-3.59901205124996
30
0
41
1
10
56.2832338902594
20
-2.9893269304678
30
0
41
1
10
56.4657163950139
20
-1.78079929854752
30
0
41
1
10
56.5569576473912
20
-1.18199611472954
30
0
41
1
10
56.6710092128628
20
-0.450610669616793
30
0
41
1
10
56.6938195259571
20
-0.305178591583825
30
0
41
1
10
56.7280349955986
20
-0.0884574957462974
30
0
41
1
10
56.7394401521457
20
-0.0166107348565561
30
0
41
1
10
56.7622504652401
20
0.127401391307018
30
0
41
1
10
56.8192762479759
20
0.488647928627614
30
0
41
1
10
56.8763020307116
20
0.855688794542289
30
0
41
1
10
57.0131639092776
20
1.74499544146664
30
0
41
1
10
57.1044051616549
20
2.34920659207808
30
0
41
1
10
57.2868876664094
20
3.56249337061254
30
0
41
1
10
57.3781289187868
20
4.17151970651423
30
0
41
1
10
57.5606114235413
20
5.37303615152942
30
0
41
1
10
57.6518526759185
20
5.9654485995373
30
0
41
1
10
57.8343351806731
20
7.11071328297601
30
0
41
1
10
57.9255764330504
20
7.66347301328889
30
0
41
1
10
58.1080589378049
20
8.70740038909744
30
0
41
1
10
58.1993001901822
20
9.19848221646296
30
0
41
1
10
58.3817826949367
20
10.1007770969992
30
0
41
1
10
58.473023947314
20
10.5119327635965
30
0
41
1
10
58.6555064520686
20
11.24208170507
30
0
41
1
10
58.7467477044459
20
11.5610590065648
30
0
41
1
10
58.9292302092004
20
12.1016795077657
30
0
41
1
10
59.0204714615777
20
12.3233475447468
30
0
41
1
10
59.2029539663322
20
12.6711513006002
30
0
41
1
10
59.2941952187096
20
12.7973404110314
30
0
41
1
10
59.4766777234641
20
12.9617324090996
30
0
41
1
10
59.5679189758413
20
13
30
0
41
1
10
59.6591602282186
20
13
30
0
0
SPLINE
5
E6
100
AcDbEntity
8
1
62
256
6
ByLayer
370
13
48
1
60
0
100
AcDbSpline
70
4
71
3
72
42
73
38
40
0
40
0
40
0
40
0
40
0.0625000000000002
40
0.0625000000000002
40
0.125
40
0.125
40
0.187500000000001
40
0.187500000000001
40
0.250000000000001
40
0.250000000000001
40
0.312500000000001
40
0.312500000000001
40
0.375000000000001
40
0.375000000000001
40
0.437500000000001
40
0.437500000000001
40
0.500000000000002
40
0.500000000000002
40
0.562500000000002
40
0.562500000000002
40
0.625000000000002
40
0.625000000000002
40
0.656250000000002
40
0.656250000000002
40
0.671875000000002
40
0.671875000000002
40
0.687500000000002
40
0.687500000000002
40
0.750000000000001
40
0.750000000000001
40
0.812500000000001
40
0.812500000000001
40
0.875000000000001
40
0.875000000000001
40
0.9375
40
0.9375
40
1
40
1
40
1
40
1
41
1
10
58.1730688577695
20
13
30
0
41
1
10
58.2646379847855
20
13
30
0
41
1
10
58.3562071118015
20
12.9614559481971
30
0
41
1
10
58.5393453658336
20
12.7958412543683
30
0
41
1
10
58.6309144928497
20
12.6687047542771
30
0
41
1
10
58.8140527468818
20
12.3182803887755
30
0
41
1
10
58.9056218738978
20
12.0949383195131
30
0
41
1
10
59.0887601279299
20
11.5502820333769
30
0
41
1
10
59.180329254946
20
11.2289429318164
30
0
41
1
10
59.3634675089781
20
10.4935293833636
30
0
41
1
10
59.455036635994
20
10.0794718348734
30
0
41
1
10
59.6381748900261
20
9.17107480492029
30
0
41
1
10
59.7297440170422
20
8.67679441838578
30
0
41
1
10
59.9128822710742
20
7.6264694142408
30
0
41
1
10
60.0044513980902
20
7.07051255681762
30
0
41
1
10
60.1875896521224
20
5.91914911031037
30
0
41
1
10
60.2791587791384
20
5.32383656024837
30
0
41
1
10
60.4622970331705
20
4.11705498949758
30
0
41
1
10
60.5538661601865
20
3.50566434102407
30
0
41
1
10
60.7370044142186
20
2.28833224077687
30
0
41
1
10
60.8285735412346
20
1.68243993419142
30
0
41
1
10
60.9659272317587
20
0.791160490818385
30
0
41
1
10
61.0117117952667
20
0.496960934659285
30
0
41
1
10
61.0803886405288
20
0.0613593789048252
30
0
41
1
10
61.1032809222827
20
-0.0824488192577348
30
0
41
1
10
61.1490654857908
20
-0.373033409455019
30
0
41
1
10
61.1719577675448
20
-0.519267961963266
30
0
41
1
10
61.2864191763148
20
-1.25460732370252
30
0
41
1
10
61.3779883033309
20
-1.8563880230779
30
0
41
1
10
61.5611265573629
20
-3.0701376194225
30
0
41
1
10
61.652695684379
20
-3.68206508154978
30
0
41
1
10
61.8358339384111
20
-4.89528765994788
30
0
41
1
10
61.9274030654271
20
-5.49651054075656
30
0
41
1
10
62.1105413194591
20
-6.66524949813234
30
0
41
1
10
62.2021104464753
20
-7.23267348712596
30
0
41
1
10
62.3852487005073
20
-8.31100490486517
30
0
41
1
10
62.4768178275233
20
-8.82182090469644
30
0
41
1
10
62.5683869545394
20
-9.29452570598733
30
0
0
SPLINE
5
E7
100
AcDbEntity
8
1
62
256
6
ByLayer
370
13
48
1
60
0
100
AcDbSpline
70
4
71
3
72
81
73
77
40
0
40
0
40
0
40
0
40
0.0312500000000009
40
0.0312500000000009
40
0.0625000000000018
40
0.0625000000000018
40
0.0937500000000027
40
0.0937500000000027
40
0.125000000000004
40
0.125000000000004
40
0.156250000000005
40
0.156250000000005
40
0.187500000000005
40
0.187500000000005
40
0.218750000000006
40
0.218750000000006
40
0.250000000000007
40
0.250000000000007
40
0.281250000000008
40
0.281250000000008
40
0.289062500000008
40
0.292968750000008
40
0.292968750000008
40
0.296875000000009
40
0.296875000000009
40
0.312500000000008
40
0.312500000000008
40
0.343750000000008
40
0.343750000000008
40
0.375000000000008
40
0.375000000000008
40
0.406250000000008
40
0.406250000000008
40
0.437500000000008
40
0.437500000000008
40
0.468750000000008
40
0.468750000000008
40
0.500000000000008
40
0.500000000000008
40
0.531250000000008
40
0.531250000000008
40
0.562500000000008
40
0.562500000000008
40
0.593750000000008
40
0.593750000000008
40
0.625000000000008
40
0.625000000000008
40
0.640625000000008
40
0.640625000000008
40
0.644531250000007
40
0.644531250000007
40
0.648437500000007
40
0.648437500000007
40
0.656250000000007
40
0.656250000000007
40
0.687500000000006
40
0.687500000000006
40
0.718750000000006
40
0.718750000000006
40
0.750000000000005
40
0.750000000000005
40
0.781250000000005
40
0.781250000000005
40
0.812500000000004
40
0.812500000000004
40
0.843750000000003
40
0.843750000000003
40
0.875000000000003
40
0.875000000000003
40
0.906250000000002
40
0.906250000000002
40
0.937500000000001
40
0.937500000000001
40
0.968750000000001
40
0.968750000000001
40
1
40
1
40
1
40
1
41
1
10
50.9
20
-3.11159656889572
30
0
41
1
10
50.9861905105201
20
-3.68495582105609
30
0
41
1
10
51.0723810210402
20
-4.25966534069764
30
0
41
1
10
51.2447620420804
20
-5.39369619679709
30
0
41
1
10
51.3309525526005
20
-5.95295853512374
30
0
41
1
10
51.5033335736406
20
-7.03669304535487
30
0
41
1
10
51.5895240841607
20
-7.56109564605754
30
0
41
1
10
51.761905105201
20
-8.55644497260604
30
0
41
1
10
51.848095615721
20
-9.02732600167005
30
0
41
1
10
52.0204766367612
20
-9.89979103102667
30
0
41
1
10
52.1066671472813
20
-10.3013281215955
30
0
41
1
10
52.2790481683215
20
-11.0238332984302
30
0
41
1
10
52.3652386788415
20
-11.3447831153483
30
0
41
1
10
52.5376196998817
20
-11.9004197471525
30
0
41
1
10
52.6238102104018
20
-12.1351183025078
30
0
41
1
10
52.796191231442
20
-12.5182310654267
30
0
41
1
10
52.8823817419621
20
-12.6666803247726
30
0
41
1
10
53.0547627630023
20
-12.8822116406788
30
0
41
1
10
53.1409532735223
20
-12.9493408820781
30
0
41
1
10
53.2486914116725
20
-12.9877583413838
30
0
41
1
10
53.2810128531174
20
-12.995881836695
30
0
41
1
10
53.3133342945626
20
-12.9990794593373
30
0
41
1
10
53.3348819221925
20
-13.0001370793664
30
0
41
1
10
53.3456557360076
20
-13.0001314021986
30
0
41
1
10
53.3995248050826
20
-12.9974297525928
30
0
41
1
10
53.4426200603426
20
-12.9866682391891
30
0
41
1
10
53.5719058261228
20
-12.926700307771
30
0
41
1
10
53.6580963366429
20
-12.8497090014415
30
0
41
1
10
53.830477357683
20
-12.6135987981032
30
0
41
1
10
53.9166678682032
20
-12.4544335922094
30
0
41
1
10
54.0890488892433
20
-12.0495923957495
30
0
41
1
10
54.1752393997635
20
-11.8038837296829
30
0
41
1
10
54.3476204208036
20
-11.2266191347238
30
0
41
1
10
54.4338109313237
20
-10.8950550287106
30
0
41
1
10
54.6061919523638
20
-10.152442006834
30
0
41
1
10
54.692382462884
20
-9.7414152427958
30
0
41
1
10
54.8647634839242
20
-8.85174423877854
30
0
41
1
10
54.9509539944442
20
-8.37314997801514
30
0
41
1
10
55.1233350154845
20
-7.3646156744455
30
0
41
1
10
55.2095255260046
20
-6.83474268731015
30
0
41
1
10
55.3819065470447
20
-5.74252305032411
30
0
41
1
10
55.4680970575648
20
-5.18024536253824
30
0
41
1
10
55.640478078605
20
-4.04258812693072
30
0
41
1
10
55.726668589125
20
-3.46726543910339
30
0
41
1
10
55.8990496101652
20
-2.32145157615506
30
0
41
1
10
55.9852401206853
20
-1.75099668604685
30
0
41
1
10
56.1145258864654
20
-0.910241401910298
30
0
41
1
10
56.1576211417255
20
-0.632451830218741
30
0
41
1
10
56.2114902108005
20
-0.289258070971613
30
0
41
1
10
56.2222640246155
20
-0.220820913687675
30
0
41
1
10
56.2438116522456
20
-0.0843716500732228
30
0
41
1
10
56.2545854660605
20
-0.016497843942858
30
0
41
1
10
56.2869069075056
20
0.187537625863911
30
0
41
1
10
56.3084545351357
20
0.324432782000514
30
0
41
1
10
56.4161926732857
20
1.01282877977559
30
0
41
1
10
56.5023831838058
20
1.57623126560009
30
0
41
1
10
56.674764204846
20
2.71491647159758
30
0
41
1
10
56.7609547153661
20
3.29017277187555
30
0
41
1
10
56.9333357364062
20
4.43578975561169
30
0
41
1
10
57.0195262469263
20
5.0061019359122
30
0
41
1
10
57.1919072679666
20
6.1229063392172
30
0
41
1
10
57.2780977784867
20
6.6693334191408
30
0
41
1
10
57.4504787995268
20
7.71902771015257
30
0
41
1
10
57.5366693100469
20
8.22222510683955
30
0
41
1
10
57.7090503310871
20
9.16778087414562
30
0
41
1
10
57.7952408416072
20
9.61008010131312
30
0
41
1
10
57.9676218626473
20
10.4198159187701
30
0
41
1
10
58.0538123731674
20
10.7872173594349
30
0
41
1
10
58.2261933942076
20
11.438250926457
30
0
41
1
10
58.3123839047277
20
11.7218782534999
30
0
41
1
10
58.4847649257679
20
12.2021894986514
30
0
41
1
10
58.570955436288
20
12.3988965330469
30
0
41
1
10
58.7433364573281
20
12.7076335140152
30
0
41
1
10
58.8295269678482
20
12.8197052848919
30
0
41
1
10
59.0019079888885
20
12.9658641117181
30
0
41
1
10
59.0880984994085
20
13
30
0
41
1
10
59.1742890099286
20
13
30
0
0
SPLINE
5
E8
100
AcDbEntity
8
1
62
256
6
ByLayer
370
13
48
1
60
0
100
AcDbSpline
70
4
71
3
72
43
73
39
40
0
40
0
40
0
40
0
40
0.0624999999999999
40
0.0624999999999999
40
0.125
40
0.125
40
0.1875
40
0.1875
40
0.25
40
0.25
40
0.3125
40
0.3125
40
0.375
40
0.375
40
0.437499999999999
40
0.437499999999999
40
0.499999999999999
40
0.499999999999999
40
0.562499999999999
40
0.562499999999999
40
0.593749999999999
40
0.593749999999999
40
0.601562499999999
40
0.601562499999999
40
0.609374999999999
40
0.624999999999999
40
0.624999999999999
40
0.687499999999999
40
0.687499999999999
40
0.749999999999999
40
0.749999999999999
40
0.8125
40
0.8125
40
0.875
40
0.875
40
0.9375
40
0.9375
40
1
40
1
40
1
40
1
41
1
10
57.6881976394795
20
13
30
0
41
1
10
57.7898682502099
20
13
30
0
41
1
10
57.8915388609404
20
12.9524443854644
30
0
41
1
10
58.0948800824011
20
12.7468079326255
30
0
41
1
10
58.1965506931316
20
12.588616998546
30
0
41
1
10
58.3998919145924
20
12.1523972087668
30
0
41
1
10
58.5015625253228
20
11.8742856706871
30
0
41
1
10
58.7049037467837
20
11.1982521538272
30
0
41
1
10
58.8065743575141
20
10.8003101798943
30
0
41
1
10
59.0099155789749
20
9.89565303577115
30
0
41
1
10
59.1115861897053
20
9.38899905674523
30
0
41
1
10
59.3149274111661
20
8.28839257320257
30
0
41
1
10
59.4165980218965
20
7.69457019572414
30
0
41
1
10
59.6199392433573
20
6.44858964166076
30
0
41
1
10
59.7216098540878
20
5.79659064231569
30
0
41
1
10
59.9249510755485
20
4.46619493791064
30
0
41
1
10
60.0266216862791
20
3.78793886705804
30
0
41
1
10
60.2299629077399
20
2.43526591385543
30
0
41
1
10
60.3316335184702
20
1.7609382568638
30
0
41
1
10
60.4841394345658
20
0.771062715785916
30
0
41
1
10
60.5349747399311
20
0.444657670807573
30
0
41
1
10
60.5985188716377
20
0.0426311445936562
30
0
41
1
10
60.6112276979789
20
-0.0373164594043089
30
0
41
1
10
60.6366453506615
20
-0.198100738930719
30
0
41
1
10
60.6747718296855
20
-0.440171536512082
30
0
41
1
10
60.7128983087094
20
-0.684767618284212
30
0
41
1
10
60.8399865721223
20
-1.50493184160754
30
0
41
1
10
60.9416571828528
20
-2.17682445844321
30
0
41
1
10
61.1449984043135
20
-3.52815229419315
30
0
41
1
10
61.246669015044
20
-4.20750594790718
30
0
41
1
10
61.4500102365048
20
-5.54413393289971
30
0
41
1
10
61.5516808472352
20
-6.20127285875756
30
0
41
1
10
61.755022068696
20
-7.46155084797621
30
0
41
1
10
61.8566926794264
20
-8.06453056919395
30
0
41
1
10
62.0600339008872
20
-9.18683193590118
30
0
41
1
10
62.1617045116177
20
-9.70601711647751
30
0
41
1
10
62.3650457330785
20
-10.6379591504024
30
0
41
1
10
62.4667163438089
20
-11.0506446269296
30
0
41
1
10
62.5683869545393
20
-11.4038069005014
30
0
0
SPLINE
5
E9
100
AcDbEntity
8
1
62
256
6
ByLayer
370
13
48
1
60
0
100
AcDbSpline
70
4
71
3
72
79
73
75
40
0
40
0
40
0
40
0
40
0.0312499999999991
40
0.0312499999999991
40
0.0624999999999983
40
0.0624999999999983
40
0.0937499999999974
40
0.0937499999999974
40
0.124999999999997
40
0.124999999999997
40
0.156249999999996
40
0.156249999999996
40
0.187499999999995
40
0.187499999999995
40
0.218749999999994
40
0.218749999999994
40
0.249999999999993
40
0.249999999999993
40
0.253906249999993
40
0.253906249999993
40
0.257812499999993
40
0.265624999999993
40
0.265624999999993
40
0.281249999999993
40
0.281249999999993
40
0.312499999999993
40
0.312499999999993
40
0.343749999999993
40
0.343749999999993
40
0.374999999999993
40
0.374999999999993
40
0.406249999999994
40
0.406249999999994
40
0.437499999999994
40
0.437499999999994
40
0.468749999999994
40
0.468749999999994
40
0.499999999999994
40
0.499999999999994
40
0.531249999999994
40
0.531249999999994
40
0.562499999999994
40
0.562499999999994
40
0.593749999999995
40
0.593749999999995
40
0.624999999999995
40
0.624999999999995
40
0.632812499999995
40
0.632812499999995
40
0.640624999999995
40
0.640624999999995
40
0.656249999999995
40
0.656249999999995
40
0.687499999999996
40
0.687499999999996
40
0.718749999999996
40
0.718749999999996
40
0.749999999999996
40
0.749999999999996
40
0.781249999999997
40
0.781249999999997
40
0.812499999999997
40
0.812499999999997
40
0.843749999999998
40
0.843749999999998
40
0.874999999999998
40
0.874999999999998
40
0.906249999999999
40
0.906249999999999
40
0.937499999999999
40
0.937499999999999
40
0.96875
40
0.96875
40
1
40
1
40
1
40
1
41
1
10
50.9
20
-6.29114304246474
30
0
41
1
10
50.9811397686629
20
-6.80520426263266
30
0
41
1
10
51.0622795373259
20
-7.30486984186075
30
0
41
1
10
51.2245590746516
20
-8.2597365455326
30
0
41
1
10
51.3056988433145
20
-8.71488763321477
30
0
41
1
10
51.4679783806403
20
-9.56687914641032
30
0
41
1
10
51.5491181493032
20
-9.96368060686598
30
0
41
1
10
51.7113976866291
20
-10.6884290354205
30
0
41
1
10
51.7925374552919
20
-11.0163556999491
30
0
41
1
10
51.9548169926177
20
-11.5970277588885
30
0
41
1
10
52.0359567612806
20
-11.8497741793729
30
0
41
1
10
52.1982362986064
20
-12.2782702375344
30
0
41
1
10
52.2793760672693
20
-12.4540395237197
30
0
41
1
10
52.4416556045951
20
-12.7309517980116
30
0
41
1
10
52.522795373258
20
-12.8321265521569
30
0
41
1
10
52.6850749105838
20
-12.9656073383835
30
0
41
1
10
52.7662146792467
20
-12.9979495440825
30
0
41
1
10
52.8574969189926
20
-13.0001496930561
30
0
41
1
10
52.8676393900753
20
-12.9999229020403
30
0
41
1
10
52.8879243322411
20
-12.9985153466495
30
0
41
1
10
52.9183517454897
20
-12.9949705768876
30
0
41
1
10
52.9487791587383
20
-12.9870488113501
30
0
41
1
10
53.0096339852355
20
-12.9651730994613
30
0
41
1
10
53.0502038695669
20
-12.9425423994578
30
0
41
1
10
53.1719135225612
20
-12.8490669850916
30
0
41
1
10
53.2530532912241
20
-12.7525479872723
30
0
41
1
10
53.41533282855
20
-12.4852285942845
30
0
41
1
10
53.4964725972129
20
-12.314395916661
30
0
41
1
10
53.6587521345387
20
-11.895808333568
30
0
41
1
10
53.7398919032015
20
-11.6480327722802
30
0
41
1
10
53.9021714405274
20
-11.0770517533685
30
0
41
1
10
53.9833112091903
20
-10.7538439311345
30
0
41
1
10
54.1455907465161
20
-10.0379927310409
30
0
41
1
10
54.226730515179
20
-9.64536829798345
30
0
41
1
10
54.3890100525048
20
-8.8009385412989
30
0
41
1
10
54.4701498211677
20
-8.34917116202047
30
0
41
1
10
54.6324293584934
20
-7.40010272744206
30
0
41
1
10
54.7135691271564
20
-6.90285128759402
30
0
41
1
10
54.8758486644822
20
-5.87850860673831
30
0
41
1
10
54.9569884331451
20
-5.351468658192
30
0
41
1
10
55.1192679704709
20
-4.28373603228275
30
0
41
1
10
55.2004077391338
20
-3.74308695055629
30
0
41
1
10
55.3626872764595
20
-2.66335864245093
30
0
41
1
10
55.4438270451225
20
-2.12430921717512
30
0
41
1
10
55.6061065824483
20
-1.06091751239603
30
0
41
1
10
55.6872463511112
20
-0.536589421745362
30
0
41
1
10
55.7886710619398
20
0.103135616264524
30
0
41
1
10
55.8089560041056
20
0.231482231857456
30
0
41
1
10
55.8495258884371
20
0.489969231307413
30
0
41
1
10
55.8698108306027
20
0.619927169537021
30
0
41
1
10
55.9306656570999
20
1.01171211621991
30
0
41
1
10
55.9712355414314
20
1.2754558023704
30
0
41
1
10
56.0929451944258
20
2.07228736405071
30
0
41
1
10
56.1740849630886
20
2.61105254561878
30
0
41
1
10
56.3363645004145
20
3.69067356117623
30
0
41
1
10
56.4175042690773
20
4.2315000931182
30
0
41
1
10
56.5797838064032
20
5.30010124055977
30
0
41
1
10
56.660923575066
20
5.82783263341855
30
0
41
1
10
56.8232031123918
20
6.85408200744953
30
0
41
1
10
56.9043428810547
20
7.35254881042991
30
0
41
1
10
57.0666224183806
20
8.30453192422004
30
0
41
1
10
57.1477621870435
20
8.7579984035298
30
0
41
1
10
57.3100417243692
20
9.60622176333251
30
0
41
1
10
57.3911814930322
20
10.0009401851111
30
0
41
1
10
57.553461030358
20
10.7212487071231
30
0
41
1
10
57.6346007990209
20
11.0468191818528
30
0
41
1
10
57.7968803363467
20
11.6226497987069
30
0
41
1
10
57.8780201050095
20
11.8729116377477
30
0
41
1
10
58.0402996423354
20
12.2964529563787
30
0
41
1
10
58.1214394109982
20
12.469752591696
30
0
41
1
10
58.2837189483241
20
12.7418639678076
30
0
41
1
10
58.364858716987
20
12.8407077369807
30
0
41
1
10
58.5271382543128
20
12.9697576554156
30
0
41
1
10
58.6082780229757
20
13
30
0
41
1
10
58.6894177916386
20
13
30
0
0
SPLINE
5
EA
100
AcDbEntity
8
1
62
256
6
ByLayer
370
13
48
1
60
0
100
AcDbSpline
70
4
71
3
72
72
73
68
40
0
40
0
40
0
40
0
40
0.0624999999999998
40
0.0624999999999998
40
0.0937499999999999
40
0.0937499999999999
40
0.125
40
0.125
40
0.15625
40
0.15625
40
0.1875
40
0.1875
40
0.21875
40
0.21875
40
0.25
40
0.25
40
0.28125
40
0.28125
40
0.3125
40
0.3125
40
0.34375
40
0.34375
40
0.375
40
0.375
40
0.40625
40
0.40625
40
0.4375
40
0.4375
40
0.46875
40
0.46875
40
0.5
40
0.5
40
0.53125
40
0.53125
40
0.5390625
40
0.5390625
40
0.546875
40
0.546875
40
0.5625
40
0.5625
40
0.59375
40
0.59375
40
0.625
40
0.625
40
0.65625
40
0.65625
40
0.6875
40
0.6875
40
0.71875
40
0.71875
40
0.75
40
0.75
40
0.78125
40
0.78125
40
0.8125
40
0.8125
40
0.84375
40
0.84375
40
0.875
40
0.875
40
0.90625
40
0.90625
40
0.9375
40
0.9375
40
0.96875
40
0.96875
40
1
40
1
40
1
40
1
41
1
10
57.2033264211895
20
13
30
0
41
1
10
57.3150985156343
20
13
30
0
41
1
10
57.4268706100791
20
12.9424716692403
30
0
41
1
10
57.5945287517463
20
12.7547787668889
30
0
41
1
10
57.6504147989686
20
12.6753653004378
30
0
41
1
10
57.7621868934134
20
12.4811589102811
30
0
41
1
10
57.8180729406359
20
12.3663610758646
30
0
41
1
10
57.9298450350806
20
12.100461041433
30
0
41
1
10
57.985731082303
20
11.9493551295688
30
0
41
1
10
58.0975031767479
20
11.6108129178349
30
0
41
1
10
58.1533892239702
20
11.4233746419207
30
0
41
1
10
58.2651613184151
20
11.0131278936927
30
0
41
1
10
58.3210473656374
20
10.7903195783845
30
0
41
1
10
58.4328194600822
20
10.3113078114189
30
0
41
1
10
58.4887055073046
20
10.0551068202503
30
0
41
1
10
58.6004776017494
20
9.51226077790068
30
0
41
1
10
58.6563636489717
20
9.22562038099585
30
0
41
1
10
58.7681357434165
20
8.62571518586105
30
0
41
1
10
58.824021790639
20
8.31245684421603
30
0
41
1
10
58.9357938850838
20
7.66383555161218
30
0
41
1
10
58.9916799323061
20
7.32848024104544
30
0
41
1
10
59.1034520267509
20
6.64067088701293
30
0
41
1
10
59.1593380739733
20
6.28822492212572
30
0
41
1
10
59.2711101684181
20
5.5714874562938
30
0
41
1
10
59.3269962156405
20
5.20720372027264
30
0
41
1
10
59.4387683100854
20
4.47205068986747
30
0
41
1
10
59.4946543573077
20
4.1011882016295
30
0
41
1
10
59.6064264517525
20
3.35792348423786
30
0
41
1
10
59.6623124989748
20
2.98552664475633
30
0
41
1
10
59.7740845934196
20
2.24384035754105
30
0
41
1
10
59.8299706406421
20
1.87455464847773
30
0
41
1
10
59.9417427350869
20
1.14320144058897
30
0
41
1
10
59.9976287823092
20
0.781136009523351
30
0
41
1
10
60.0674863413372
20
0.335245299418091
30
0
41
1
10
60.0814578531428
20
0.246400124442857
30
0
41
1
10
60.109400876754
20
0.069423733850698
30
0
41
1
10
60.1233723885596
20
-0.0184714805613169
30
0
41
1
10
60.1652869239764
20
-0.283521058415204
30
0
41
1
10
60.1932299475876
20
-0.461667894106739
30
0
41
1
10
60.2770590184212
20
-0.999863912025887
30
0
41
1
10
60.3329450656436
20
-1.36368851052151
30
0
41
1
10
60.4447171600884
20
-2.09777908565883
30
0
41
1
10
60.5006032073108
20
-2.46804266480939
30
0
41
1
10
60.6123753017555
20
-3.21078685017346
30
0
41
1
10
60.668261348978
20
-3.58326337637362
30
0
41
1
10
60.7800334434228
20
-4.32569639688518
30
0
41
1
10
60.8359194906452
20
-4.69564718938142
30
0
41
1
10
60.94769158509
20
-5.42792614569154
30
0
41
1
10
61.0035776323124
20
-5.79024726609356
30
0
41
1
10
61.1153497267571
20
-6.5019912424016
30
0
41
1
10
61.1712357739795
20
-6.85140621322986
30
0
41
1
10
61.2830078684243
20
-7.53211529995062
30
0
41
1
10
61.3388939156467
20
-7.8634013635758
30
0
41
1
10
61.4506660100915
20
-8.50292492212154
30
0
41
1
10
61.5065520573139
20
-8.81115495793384
30
0
41
1
10
61.6183241517587
20
-9.40016929627024
30
0
41
1
10
61.6742101989811
20
-9.68094746228678
30
0
41
1
10
61.7859822934258
20
-10.2113981410748
30
0
41
1
10
61.8418683406482
20
-10.4610664194948
30
0
41
1
10
61.953640435093
20
-10.9265322795266
30
0
41
1
10
62.0095264823154
20
-11.1423278661967
30
0
41
1
10
62.1212985767602
20
-11.5382726695593
30
0
41
1
10
62.1771846239826
20
-11.7184221819027
30
0
41
1
10
62.2889567184274
20
-12.0423139463237
30
0
41
1
10
62.3448427656498
20
-12.1860585627227
30
0
41
1
10
62.4566148600946
20
-12.4373534234666
30
0
41
1
10
62.512500907317
20
-12.5449076676655
30
0
41
1
10
62.5683869545394
20
-12.6349094014129
30
0
0
SPLINE
5
EB
100
AcDbEntity
8
1
62
256
6
ByLayer
370
13
48
1
60
0
100
AcDbSpline
70
4
71
3
72
81
73
77
40
0
40
0
40
0
40
0
40
0.0312500000000002
40
0.0312500000000002
40
0.0625000000000005
40
0.0625000000000005
40
0.0937500000000008
40
0.0937500000000008
40
0.125000000000001
40
0.125000000000001
40
0.156250000000001
40
0.156250000000001
40
0.187500000000002
40
0.187500000000002
40
0.195312500000002
40
0.199218750000002
40
0.199218750000002
40
0.203125000000002
40
0.203125000000002
40
0.218750000000001
40
0.218750000000001
40
0.250000000000001
40
0.250000000000001
40
0.28125
40
0.28125
40
0.3125
40
0.3125
40
0.343749999999999
40
0.343749999999999
40
0.374999999999998
40
0.374999999999998
40
0.406249999999998
40
0.406249999999998
40
0.437499999999997
40
0.437499999999997
40
0.468749999999996
40
0.468749999999996
40
0.499999999999996
40
0.499999999999996
40
0.531249999999995
40
0.531249999999995
40
0.562499999999994
40
0.562499999999994
40
0.593749999999994
40
0.593749999999994
40
0.597656249999994
40
0.597656249999994
40
0.601562499999994
40
0.601562499999994
40
0.609374999999994
40
0.609374999999994
40
0.624999999999994
40
0.624999999999994
40
0.656249999999995
40
0.656249999999995
40
0.687499999999995
40
0.687499999999995
40
0.718749999999996
40
0.718749999999996
40
0.749999999999996
40
0.749999999999996
40
0.781249999999997
40
0.781249999999997
40
0.812499999999997
40
0.812499999999997
40
0.843749999999998
40
0.843749999999998
40
0.874999999999998
40
0.874999999999998
40
0.906249999999999
40
0.906249999999999
40
0.937499999999999
40
0.937499999999999
40
0.96875
40
0.96875
40
1
40
1
40
1
40
1
41
1
10
50.9
20
-9.13054859514864
30
0
41
1
10
50.9760890268057
20
-9.53046701808796
30
0
41
1
10
51.0521780536115
20
-9.90477374988615
30
0
41
1
10
51.2043561072229
20
-10.5934078552242
30
0
41
1
10
51.2804451340286
20
-10.9077194298335
30
0
41
1
10
51.43262318764
20
-11.4707774989107
30
0
41
1
10
51.5087122144457
20
-11.7195227304127
30
0
41
1
10
51.6608902680572
20
-12.1493497592482
30
0
41
1
10
51.7369792948629
20
-12.3304435087453
30
0
41
1
10
51.8891573484743
20
-12.6261882025073
30
0
41
1
10
51.96524637528
20
-12.7408604893685
30
0
41
1
10
52.1174244288915
20
-12.9077858219774
30
0
41
1
10
52.1935134556971
20
-12.9600646945505
30
0
41
1
10
52.2886247392043
20
-12.9902134849756
30
0
41
1
10
52.3171581242565
20
-12.9966240797867
30
0
41
1
10
52.3456915093086
20
-12.9992059858333
30
0
41
1
10
52.36471376601
20
-13.0000905537673
30
0
41
1
10
52.3742248943607
20
-13.000116127451
30
0
41
1
10
52.4217805361143
20
-12.9981637330475
30
0
41
1
10
52.4598250495171
20
-12.9899120046335
30
0
41
1
10
52.5739585897257
20
-12.9437814006166
30
0
41
1
10
52.6500476165315
20
-12.8844694001621
30
0
41
1
10
52.8022256701429
20
-12.7028829082868
30
0
41
1
10
52.8783146969486
20
-12.5805828619474
30
0
41
1
10
53.03049275056
20
-12.2692803106231
30
0
41
1
10
53.1065817773657
20
-12.0802573170469
30
0
41
1
10
53.2587598309771
20
-11.6346364493185
30
0
41
1
10
53.3348488577829
20
-11.3780280112548
30
0
41
1
10
53.4870269113943
20
-10.7997155948062
30
0
41
1
10
53.5631159382
20
-10.4780145753649
30
0
41
1
10
53.7152939918114
20
-9.77547417611669
30
0
41
1
10
53.7913830186171
20
-9.39465223594237
30
0
41
1
10
53.9435610722286
20
-8.58299966449187
30
0
41
1
10
54.0196500990343
20
-8.15219861378768
30
0
41
1
10
54.1718281526457
20
-7.25217238215814
30
0
41
1
10
54.2479171794515
20
-6.78298376832623
30
0
41
1
10
54.4000952330629
20
-5.8192074607947
30
0
41
1
10
54.4761842598686
20
-5.32465684812237
30
0
41
1
10
54.62836231348
20
-4.32349181219584
30
0
41
1
10
54.7044513402857
20
-3.81690906263134
30
0
41
1
10
54.8566293938972
20
-2.80427221557466
30
0
41
1
10
54.9327184207029
20
-2.29824047524673
30
0
41
1
10
55.0848964743143
20
-1.29773194336175
30
0
41
1
10
55.16098550112
20
-0.803266861944223
30
0
41
1
10
55.2465856562765
20
-0.258525605891634
30
0
41
1
10
55.2560967846271
20
-0.198157538399983
30
0
41
1
10
55.2751190413286
20
-0.0777538397227318
30
0
41
1
10
55.2846301696793
20
-0.017822632460252
30
0
41
1
10
55.3131635547315
20
0.162247278799072
30
0
41
1
10
55.3321858114329
20
0.282974469957821
30
0
41
1
10
55.3892525815371
20
0.647018496450954
30
0
41
1
10
55.42729709494
20
0.892202168219143
30
0
41
1
10
55.5414306351486
20
1.63362246234917
30
0
41
1
10
55.6175196619543
20
2.13579202425319
30
0
41
1
10
55.7696977155657
20
3.14579287996082
30
0
41
1
10
55.8457867423715
20
3.6536065010624
30
0
41
1
10
55.9979647959829
20
4.66293060349318
30
0
41
1
10
56.0740538227886
20
5.16441319209508
30
0
41
1
10
56.2262318763999
20
6.14796368811537
30
0
41
1
10
56.3023209032057
20
6.629996265514
30
0
41
1
10
56.4544989568172
20
7.56135032403938
30
0
41
1
10
56.5305879836229
20
8.01063420395707
30
0
41
1
10
56.6827660372343
20
8.86412563924688
30
0
41
1
10
56.75885506404
20
9.26829977420576
30
0
41
1
10
56.9110331176514
20
10.0212285748603
30
0
41
1
10
56.9871221444572
20
10.3699599624534
30
0
41
1
10
57.1393001980686
20
11.0045544776223
30
0
41
1
10
57.2153892248743
20
11.2904081808828
30
0
41
1
10
57.3675672784857
20
11.7951950428753
30
0
41
1
10
57.4436563052914
20
12.0141331108431
30
0
41
1
10
57.5958343589029
20
12.3844993176488
30
0
41
1
10
57.6719233857085
20
12.5359441247064
30
0
41
1
10
57.8241014393201
20
12.773861174361
30
0
41
1
10
57.9001904661257
20
12.860357352531
30
0
41
1
10
58.0523685197371
20
12.9734136197774
30
0
41
1
10
58.1284575465429
20
13
30
0
41
1
10
58.2045465733486
20
13
30
0
0
SPLINE
5
EC
100
AcDbEntity
8
1
62
256
6
ByLayer
370
13
48
1
60
0
100
AcDbSpline
70
4
71
3
72
78
73
74
40
0
40
0
40
0
40
0
40
0.03125
40
0.03125
40
0.0625
40
0.0625
40
0.09375
40
0.09375
40
0.125
40
0.125
40
0.15625
40
0.15625
40
0.1875
40
0.1875
40
0.21875
40
0.21875
40
0.25
40
0.25
40
0.28125
40
0.28125
40
0.3125
40
0.3125
40
0.34375
40
0.34375
40
0.375
40
0.375
40
0.40625
40
0.40625
40
0.4375
40
0.4375
40
0.46875
40
0.46875
40
0.484375
40
0.484375
40
0.4921875
40
0.4921875
40
0.5
40
0.5
40
0.53125
40
0.53125
40
0.5625
40
0.5625
40
0.59375
40
0.59375
40
0.625
40
0.625
40
0.65625
40
0.65625
40
0.6875
40
0.6875
40
0.71875
40
0.71875
40
0.75
40
0.75
40
0.78125
40
0.78125
40
0.8125
40
0.8125
40
0.84375
40
0.84375
40
0.875
40
0.875
40
0.90625
40
0.90625
40
0.9375
40
0.9375
40
0.96875
40
0.96875
40
0.984375
40
0.984375
40
0.9921875
40
0.9921875
40
1
40
1
40
1
40
1
41
1
10
56.7184552028995
20
13
30
0
41
1
10
56.7793919919791
20
13
30
0
41
1
10
56.8403287810587
20
12.9829610881893
30
0
41
1
10
56.9622023592177
20
12.9112888843681
30
0
41
1
10
57.0231391482974
20
12.8566469290759
30
0
41
1
10
57.1450127264566
20
12.7068785982248
30
0
41
1
10
57.2059495155361
20
12.6117438149076
30
0
41
1
10
57.3278230936953
20
12.3790019997478
30
0
41
1
10
57.3887598827749
20
12.2413878200879
30
0
41
1
10
57.510633460934
20
11.9228389854399
30
0
41
1
10
57.5715702500136
20
11.7418994961737
30
0
41
1
10
57.6934438281728
20
11.337175223142
30
0
41
1
10
57.7543806172524
20
11.1133888260939
30
0
41
1
10
57.8762541954116
20
10.6248693341737
30
0
41
1
10
57.9371909844911
20
10.360138400684
30
0
41
1
10
58.0590645626503
20
9.79304534878784
30
0
41
1
10
58.1200013517299
20
9.49068920573791
30
0
41
1
10
58.241874929889
20
8.85295571346015
30
0
41
1
10
58.3028117189686
20
8.51758762114244
30
0
41
1
10
58.4246852971278
20
7.81950356908598
30
0
41
1
10
58.4856220862074
20
7.45679911833992
30
0
41
1
10
58.6074956643666
20
6.71046313582997
30
0
41
1
10
58.6684324534461
20
6.32684403143577
30
0
41
1
10
58.7903060316053
20
5.54548254872623
30
0
41
1
10
58.8512428206848
20
5.14775213522822
30
0
41
1
10
58.973116398844
20
4.34498366789424
30
0
41
1
10
59.0340531879235
20
3.93995593623285
30
0
41
1
10
59.1559267660827
20
3.12908166927844
30
0
41
1
10
59.2168635551623
20
2.72324300947676
30
0
41
1
10
59.3387371333215
20
1.91663322684116
30
0
41
1
10
59.3996739224011
20
1.51586717427432
30
0
41
1
10
59.4910791060205
20
0.922335254621061
30
0
41
1
10
59.5215475005603
20
0.725754119215765
30
0
41
1
10
59.56725009237
20
0.433189974017125
30
0
41
1
10
59.5824842896399
20
0.336052735589874
30
0
41
1
10
59.6129526841797
20
0.142609983334694
30
0
41
1
10
59.6281868814495
20
0.046529534348025
30
0
41
1
10
59.704357867799
20
-0.434286451926653
30
0
41
1
10
59.7652946568786
20
-0.825946251005632
30
0
41
1
10
59.8871682350378
20
-1.61902377719713
30
0
41
1
10
59.9481050241173
20
-2.02043895865873
30
0
41
1
10
60.0699786022765
20
-2.82786991268483
30
0
41
1
10
60.1309153913561
20
-3.23388037029972
30
0
41
1
10
60.2527889695153
20
-4.04456035959808
30
0
41
1
10
60.3137257585949
20
-4.44922178466618
30
0
41
1
10
60.435599336754
20
-5.25067962659057
30
0
41
1
10
60.4965361258336
20
-5.64746554207983
30
0
41
1
10
60.6184097039927
20
-6.42634683271328
30
0
41
1
10
60.6793464930724
20
-6.8084301524645
30
0
41
1
10
60.8012200712315
20
-7.55112132421274
30
0
41
1
10
60.8621568603111
20
-7.91171677243329
30
0
41
1
10
60.9840304384702
20
-8.60505975985492
30
0
41
1
10
61.0449672275498
20
-8.9377959341457
30
0
41
1
10
61.166840805709
20
-9.5698224278818
30
0
41
1
10
61.2277775947886
20
-9.86910373847599
30
0
41
1
10
61.3496511729477
20
-10.4297076067352
30
0
41
1
10
61.4105879620273
20
-10.6910245044642
30
0
41
1
10
61.5324615401865
20
-11.1724951854835
30
0
41
1
10
61.593398329266
20
-11.3926471419743
30
0
41
1
10
61.7152719074252
20
-11.7900057656734
30
0
41
1
10
61.7762086965048
20
-11.9672143515969
30
0
41
1
10
61.8980822746639
20
-12.2783239911132
30
0
41
1
10
61.9590190637436
20
-12.412230117395
30
0
41
1
10
62.0808926419026
20
-12.6376849342359
30
0
41
1
10
62.1418294309823
20
-12.7292409230484
30
0
41
1
10
62.2637030091414
20
-12.8720684902488
30
0
41
1
10
62.3246397982211
20
-12.9233485359656
30
0
41
1
10
62.4160449818404
20
-12.972271787109
30
0
41
1
10
62.4465133763802
20
-12.9839194765584
30
0
41
1
10
62.4922159681899
20
-12.994722819607
30
0
41
1
10
62.5074501654598
20
-12.9972128465344
30
0
41
1
10
62.5379185599996
20
-13.0000273727248
30
0
41
1
10
62.5531527572694
20
-13.000356433691
30
0
41
1
10
62.5683869545394
20
-12.9996204026135
30
0
0
SPLINE
5
ED
100
AcDbEntity
8
1
62
256
6
ByLayer
370
13
48
1
60
0
100
AcDbSpline
70
4
71
3
72
79
73
75
40
0
40
0
40
0
40
0
40
0.0312499999999995
40
0.0312499999999995
40
0.0624999999999991
40
0.0624999999999991
40
0.0937499999999986
40
0.0937499999999986
40
0.124999999999998
40
0.124999999999998
40
0.140624999999998
40
0.140624999999998
40
0.148437499999998
40
0.148437499999998
40
0.156249999999998
40
0.156249999999998
40
0.187499999999997
40
0.187499999999997
40
0.218749999999997
40
0.218749999999997
40
0.249999999999996
40
0.249999999999996
40
0.281249999999996
40
0.281249999999996
40
0.312499999999995
40
0.312499999999995
40
0.343749999999995
40
0.343749999999995
40
0.374999999999994
40
0.374999999999994
40
0.406249999999994
40
0.406249999999994
40
0.437499999999993
40
0.437499999999993
40
0.468749999999993
40
0.468749999999993
40
0.499999999999992
40
0.499999999999992
40
0.531249999999992
40
0.531249999999992
40
0.562499999999991
40
0.562499999999991
40
0.570312499999991
40
0.570312499999991
40
0.574218749999991
40
0.574218749999991
40
0.578124999999991
40
0.593749999999992
40
0.593749999999992
40
0.624999999999992
40
0.624999999999992
40
0.656249999999993
40
0.656249999999993
40
0.687499999999994
40
0.687499999999994
40
0.718749999999994
40
0.718749999999994
40
0.749999999999995
40
0.749999999999995
40
0.781249999999996
40
0.781249999999996
40
0.812499999999996
40
0.812499999999996
40
0.843749999999997
40
0.843749999999997
40
0.874999999999998
40
0.874999999999998
40
0.906249999999998
40
0.906249999999998
40
0.937499999999999
40
0.937499999999999
40
0.968749999999999
40
0.968749999999999
40
1
40
1
40
1
40
1
41
1
10
50.9
20
-11.2925828777766
30
0
41
1
10
50.9710382849485
20
-11.5478318225448
30
0
41
1
10
51.042076569897
20
-11.7743258770547
30
0
41
1
10
51.1841531397941
20
-12.1683533045176
30
0
41
1
10
51.2551914247427
20
-12.3358956442727
30
0
41
1
10
51.3972679946397
20
-12.6130744006696
30
0
41
1
10
51.4683062795882
20
-12.7227259353804
30
0
41
1
10
51.6103828494853
20
-12.8873109971048
30
0
41
1
10
51.6814211344338
20
-12.9422627464551
30
0
41
1
10
51.7879785618566
20
-12.9872585503989
30
0
41
1
10
51.8234977043308
20
-12.9960294035568
30
0
41
1
10
51.8767764180422
20
-13.0003717909931
30
0
41
1
10
51.8945359892794
20
-13.0003624062496
30
0
41
1
10
51.9300551317537
20
-12.9974290409773
30
0
41
1
10
51.9478147029908
20
-12.9944935220299
30
0
41
1
10
52.0366125591764
20
-12.9722474879965
30
0
41
1
10
52.1076508441249
20
-12.9301862950475
30
0
41
1
10
52.249727414022
20
-12.7924476370207
30
0
41
1
10
52.3207656989705
20
-12.6967516452166
30
0
41
1
10
52.4628422688676
20
-12.4480969745086
30
0
41
1
10
52.5338805538161
20
-12.2951221169054
30
0
41
1
10
52.6759571237133
20
-11.9302725799709
30
0
41
1
10
52.7469954086617
20
-11.7183871401668
30
0
41
1
10
52.8890719785588
20
-11.2365046469198
30
0
41
1
10
52.9601102635073
20
-10.9665049236427
30
0
41
1
10
53.1021868334044
20
-10.3718184786057
30
0
41
1
10
53.1732251183529
20
-10.0471386413459
30
0
41
1
10
53.3153016882499
20
-9.34909392517196
30
0
41
1
10
53.3863399731984
20
-8.97574515112254
30
0
41
1
10
53.5284165430955
20
-8.18859381160101
30
0
41
1
10
53.5994548280441
20
-7.77481435280512
30
0
41
1
10
53.741531397941
20
-6.91666368958002
30
0
41
1
10
53.8125696828896
20
-6.47231899780604
30
0
41
1
10
53.9546462527866
20
-5.56377148607621
30
0
41
1
10
54.0256845377352
20
-5.09959454274957
30
0
41
1
10
54.1677611076322
20
-4.16218620181789
30
0
41
1
10
54.2387993925808
20
-3.68897655607682
30
0
41
1
10
54.3808759624779
20
-2.74364945144711
30
0
41
1
10
54.4519142474264
20
-2.27154739619525
30
0
41
1
10
54.5939908173234
20
-1.33736046625592
30
0
41
1
10
54.665029102272
20
-0.875283925762631
30
0
41
1
10
54.7538269584576
20
-0.308540133794139
30
0
41
1
10
54.7715865296946
20
-0.195729856718032
30
0
41
1
10
54.7982258865504
20
-0.0273955611631038
30
0
41
1
10
54.8071056721691
20
0.0284952256913016
30
0
41
1
10
54.8248652434062
20
0.140721931030157
30
0
41
1
10
54.869264171499
20
0.422021453012434
30
0
41
1
10
54.9136630995918
20
0.706846020055337
30
0
41
1
10
55.0202205270146
20
1.39593807152406
30
0
41
1
10
55.0912588119632
20
1.86273343117398
30
0
41
1
10
55.2333353818602
20
2.8031798311836
30
0
41
1
10
55.3043736668087
20
3.27681988675948
30
0
41
1
10
55.4464502367057
20
4.22153199031163
30
0
41
1
10
55.5174885216543
20
4.69258608399025
30
0
41
1
10
55.6595650915513
20
5.62166765229424
30
0
41
1
10
55.7306033764999
20
6.07967148562864
30
0
41
1
10
55.872679946397
20
6.97178945093751
30
0
41
1
10
55.9437182313454
20
7.40587700842642
30
0
41
1
10
56.0857948012424
20
8.2396601766585
30
0
41
1
10
56.156833086191
20
8.63933008175044
30
0
41
1
10
56.2989096560881
20
9.39493622670349
30
0
41
1
10
56.3699479410366
20
9.75085162632377
30
0
41
1
10
56.5120245109336
20
10.4114810195279
30
0
41
1
10
56.5830627958822
20
10.716182209472
30
0
41
1
10
56.7251393657792
20
11.269305175623
30
0
41
1
10
56.7961776507278
20
11.5177237236242
30
0
41
1
10
56.9382542206248
20
11.9558377940305
30
0
41
1
10
57.0092925055733
20
12.1455392802378
30
0
41
1
10
57.1513690754704
20
12.4663657033312
30
0
41
1
10
57.2224073604189
20
12.5975037898815
30
0
41
1
10
57.364483930316
20
12.8036442169153
30
0
41
1
10
57.4355222152645
20
12.8786639744506
30
0
41
1
10
57.5775987851615
20
12.976832533484
30
0
41
1
10
57.6486370701101
20
13
30
0
41
1
10
57.7196753550586
20
13
30
0
0
SPLINE
5
EE
100
AcDbEntity
8
1
62
256
6
ByLayer
370
13
48
1
60
0
100
AcDbSpline
70
4
71
3
72
78
73
74
40
0
40
0
40
0
40
0
40
0.0312499999999999
40
0.0312499999999999
40
0.0624999999999998
40
0.0624999999999998
40
0.0937499999999996
40
0.0937499999999996
40
0.125
40
0.125
40
0.156249999999999
40
0.156249999999999
40
0.187499999999999
40
0.187499999999999
40
0.218749999999999
40
0.218749999999999
40
0.249999999999999
40
0.249999999999999
40
0.281249999999999
40
0.281249999999999
40
0.312499999999999
40
0.312499999999999
40
0.343749999999999
40
0.343749999999999
40
0.374999999999999
40
0.374999999999999
40
0.406249999999998
40
0.406249999999998
40
0.437499999999998
40
0.437499999999998
40
0.453124999999998
40
0.453124999999998
40
0.460937499999998
40
0.460937499999998
40
0.468749999999998
40
0.468749999999998
40
0.499999999999998
40
0.499999999999998
40
0.531249999999999
40
0.531249999999999
40
0.562499999999999
40
0.562499999999999
40
0.593749999999999
40
0.593749999999999
40
0.624999999999999
40
0.624999999999999
40
0.656249999999999
40
0.656249999999999
40
0.6875
40
0.6875
40
0.71875
40
0.71875
40
0.75
40
0.75
40
0.78125
40
0.78125
40
0.8125
40
0.8125
40
0.843750000000001
40
0.843750000000001
40
0.875000000000001
40
0.875000000000001
40
0.906250000000001
40
0.906250000000001
40
0.914062500000001
40
0.914062500000001
40
0.921875000000001
40
0.921875000000001
40
0.937500000000001
40
0.937500000000001
40
0.96875
40
0.96875
40
1
40
1
40
1
40
1
41
1
10
56.2335839846095
20
13
30
0
41
1
10
56.2995715155463
20
13
30
0
41
1
10
56.365559046483
20
12.9800148837256
30
0
41
1
10
56.4975341083565
20
12.8956377343893
30
0
41
1
10
56.5635216392933
20
12.8312327920694
30
0
41
1
10
56.6954967011669
20
12.6544684747637
30
0
41
1
10
56.7614842321036
20
12.5420967953372
30
0
41
1
10
56.8934592939772
20
12.2671490943484
30
0
41
1
10
56.9594468249139
20
12.1045631553372
30
0
41
1
10
57.0914218867875
20
11.7285751173845
30
0
41
1
10
57.1574094177242
20
11.5151672903338
30
0
41
1
10
57.2893844795978
20
11.0388032929795
30
0
41
1
10
57.3553720105346
20
10.7758469939484
30
0
41
1
10
57.4873470724081
20
10.203626257168
30
0
41
1
10
57.5533346033448
20
9.89436790518923
30
0
41
1
10
57.6853096652185
20
9.23466775661493
30
0
41
1
10
57.7512971961552
20
8.88423783121516
30
0
41
1
10
57.8832722580288
20
8.14893162779086
30
0
41
1
10
57.9492597889655
20
7.76407154852842
30
0
41
1
10
58.081234850839
20
6.96782689436776
30
0
41
1
10
58.1472223817758
20
6.55646065873171
30
0
41
1
10
58.2791974436493
20
5.71578322724562
30
0
41
1
10
58.3451849745861
20
5.28649008733734
30
0
41
1
10
58.4771600364597
20
4.41864071142933
30
0
41
1
10
58.5431475673964
20
3.98010010880844
30
0
41
1
10
58.67512262927
20
3.10202680265715
30
0
41
1
10
58.7411101602067
20
2.66250584343825
30
0
41
1
10
58.8730852220803
20
1.78991631435258
30
0
41
1
10
58.939072753017
20
1.35685496812346
30
0
41
1
10
59.0380540494222
20
0.716851080667254
30
0
41
1
10
59.0710478148906
20
0.505105134050609
30
0
41
1
10
59.1205384630931
20
0.190374088744676
30
0
41
1
10
59.1370353458273
20
0.0860532076686411
30
0
41
1
10
59.1700291112957
20
-0.122006267028667
30
0
41
1
10
59.18652599403
20
-0.226550711287302
30
0
41
1
10
59.2690104077008
20
-0.751653495085407
30
0
41
1
10
59.3349979386377
20
-1.17940287913777
30
0
41
1
10
59.4669730005112
20
-2.04449861581099
30
0
41
1
10
59.532960531448
20
-2.48183986634754
30
0
41
1
10
59.6649355933215
20
-3.35918100474001
30
0
41
1
10
59.7309231242583
20
-3.79917125056281
30
0
41
1
10
59.8628981861319
20
-4.67389308887206
30
0
41
1
10
59.9288857170686
20
-5.10861074781087
30
0
41
1
10
60.0608607789422
20
-5.96424654956132
30
0
41
1
10
60.1268483098789
20
-6.38514754582724
30
0
41
1
10
60.2588233717525
20
-7.20445683802527
30
0
41
1
10
60.3248109026892
20
-7.60284663229587
30
0
41
1
10
60.4567859645627
20
-8.36883065572425
30
0
41
1
10
60.5227734954995
20
-8.73640737788168
30
0
41
1
10
60.654748557373
20
-9.43340228180733
30
0
41
1
10
60.7207360883098
20
-9.76280631717825
30
0
41
1
10
60.8527111501833
20
-10.3775165447888
30
0
41
1
10
60.91869868112
20
-10.6628138050818
30
0
41
1
10
61.0506737429937
20
-11.185147531344
30
0
41
1
10
61.1166612739305
20
-11.4221812137967
30
0
41
1
10
61.248636335804
20
-11.8457795522231
30
0
41
1
10
61.3146238667408
20
-12.0323474333551
30
0
41
1
10
61.4465989286143
20
-12.3547524805024
30
0
41
1
10
61.5125864595511
20
-12.4905978007609
30
0
41
1
10
61.6445615214246
20
-12.7130669277662
30
0
41
1
10
61.7105490523614
20
-12.7997021463072
30
0
41
1
10
61.8425241142349
20
-12.926730792208
30
0
41
1
10
61.9085116451717
20
-12.9671370504568
30
0
41
1
10
61.9909960588426
20
-12.9912934183224
30
0
41
1
10
62.0074929415768
20
-12.9948092615074
30
0
41
1
10
62.0404867070452
20
-12.9992812137896
30
0
41
1
10
62.0569835897794
20
-13.0002382088058
30
0
41
1
10
62.106474237982
20
-12.9993743483178
30
0
41
1
10
62.1394680034504
20
-12.993790562922
30
0
41
1
10
62.2384492998556
20
-12.961154158397
30
0
41
1
10
62.3044368307923
20
-12.9181863738922
30
0
41
1
10
62.4364118926659
20
-12.7858293449525
30
0
41
1
10
62.5023994236027
20
-12.6964273036454
30
0
41
1
10
62.5683869545394
20
-12.5823606858079
30
0
0
SPLINE
5
EF
100
AcDbEntity
8
1
62
256
6
ByLayer
370
13
48
1
60
0
100
AcDbSpline
70
4
71
3
72
78
73
74
40
0
40
0
40
0
40
0
40
0.03125
40
0.03125
40
0.0625000000000001
40
0.0625000000000001
40
0.0781250000000001
40
0.0781250000000001
40
0.0859375000000001
40
0.0859375000000001
40
0.0937500000000001
40
0.0937500000000001
40
0.125
40
0.125
40
0.15625
40
0.15625
40
0.1875
40
0.1875
40
0.21875
40
0.21875
40
0.25
40
0.25
40
0.28125
40
0.28125
40
0.3125
40
0.3125
40
0.34375
40
0.34375
40
0.375
40
0.375
40
0.40625
40
0.40625
40
0.4375
40
0.4375
40
0.46875
40
0.46875
40
0.5
40
0.5
40
0.53125
40
0.53125
40
0.5390625
40
0.5390625
40
0.546875
40
0.546875
40
0.5625
40
0.5625
40
0.59375
40
0.59375
40
0.625
40
0.625
40
0.65625
40
0.65625
40
0.6875
40
0.6875
40
0.718750000000001
40
0.718750000000001
40
0.750000000000001
40
0.750000000000001
40
0.781250000000001
40
0.781250000000001
40
0.812500000000001
40
0.812500000000001
40
0.843750000000001
40
0.843750000000001
40
0.875
40
0.875
40
0.90625
40
0.90625
40
0.9375
40
0.9375
40
0.96875
40
0.96875
40
1
40
1
40
1
40
1
41
1
10
50.9
20
-12.5823586687979
30
0
41
1
10
50.9659875430914
20
-12.6964255977427
30
0
41
1
10
51.0319750861827
20
-12.7858279345044
30
0
41
1
10
51.1639501723654
20
-12.9181855170427
30
0
41
1
10
51.2299377154567
20
-12.9611535596997
30
0
41
1
10
51.3289190300937
20
-12.9937903212363
30
0
41
1
10
51.3619128016394
20
-12.9993742206227
30
0
41
1
10
51.4114034589579
20
-13.0002382444867
30
0
41
1
10
51.4279003447307
20
-12.9992813036012
30
0
41
1
10
51.4608941162764
20
-12.9948094608148
30
0
41
1
10
51.4773910020493
20
-12.9912936726864
30
0
41
1
10
51.5598754309134
20
-12.9671375814108
30
0
41
1
10
51.6258629740047
20
-12.9267315486698
30
0
41
1
10
51.7578380601874
20
-12.7997033552765
30
0
41
1
10
51.8238256032787
20
-12.7130683637206
30
0
41
1
10
51.9558006894614
20
-12.4905996839957
30
0
41
1
10
52.0217882325528
20
-12.3547545840104
30
0
41
1
10
52.1537633187354
20
-12.0323499619032
30
0
41
1
10
52.2197508618268
20
-11.8457822855106
30
0
41
1
10
52.3517259480094
20
-11.4221843323564
30
0
41
1
10
52.4177134911008
20
-11.185150830408
30
0
41
1
10
52.5496885772835
20
-10.6628174332237
30
0
41
1
10
52.6156761203748
20
-10.3775203214793
30
0
41
1
10
52.7476512065575
20
-9.76281035311493
30
0
41
1
10
52.8136387496489
20
-9.43340642842495
30
0
41
1
10
52.9456138358315
20
-8.73641170453601
30
0
41
1
10
53.0116013789228
20
-8.36883505172952
30
0
41
1
10
53.1435764651056
20
-7.60285112498337
30
0
41
1
10
53.2095640081969
20
-7.20446135805162
30
0
41
1
10
53.3415390943796
20
-6.38515208055767
30
0
41
1
10
53.407526637471
20
-5.96425107167477
30
0
41
1
10
53.5395017236537
20
-5.10861520911283
30
0
41
1
10
53.605489266745
20
-4.6738975020036
30
0
41
1
10
53.7374643529276
20
-3.79917553787541
30
0
41
1
10
53.803451896019
20
-3.35918521442977
30
0
41
1
10
53.9354269822016
20
-2.4818438983497
30
0
41
1
10
54.0014145252929
20
-2.04450254777146
30
0
41
1
10
54.1333896114756
20
-1.17940659579801
30
0
41
1
10
54.199377154567
20
-0.751657096504829
30
0
41
1
10
54.2818615834312
20
-0.226554163390148
30
0
41
1
10
54.298358469204
20
-0.122009689003221
30
0
41
1
10
54.3313522407497
20
0.0860498463827639
30
0
41
1
10
54.3478491265224
20
0.190370717318785
30
0
41
1
10
54.397339783841
20
0.505101789797976
30
0
41
1
10
54.4303335553867
20
0.716847756931656
30
0
41
1
10
54.5293148700237
20
1.35685171321475
30
0
41
1
10
54.595302413115
20
1.78991311506954
30
0
41
1
10
54.7272774992977
20
2.66250277438485
30
0
41
1
10
54.793265042389
20
3.10202380821198
30
0
41
1
10
54.9252401285717
20
3.98009728073373
30
0
41
1
10
54.991227671663
20
4.41863797511567
30
0
41
1
10
55.1232027578457
20
5.28648754848649
30
0
41
1
10
55.1891903009371
20
5.71578079408886
30
0
41
1
10
55.3211653871197
20
6.55645844643232
30
0
41
1
10
55.387152930211
20
6.96782479721776
30
0
41
1
10
55.5191280163938
20
7.76406968574375
30
0
41
1
10
55.5851155594851
20
8.14892988420382
30
0
41
1
10
55.7170906456678
20
8.88423632424954
30
0
41
1
10
55.7830781887591
20
9.23466636705334
30
0
41
1
10
55.9150532749418
20
9.89436674296854
30
0
41
1
10
55.9810408180332
20
10.2036252048666
30
0
41
1
10
56.1130159042158
20
10.7758461490467
30
0
41
1
10
56.1790034473071
20
11.0388025455459
30
0
41
1
10
56.3109785334898
20
11.5151667216097
30
0
41
1
10
56.3769660765812
20
11.7285746298963
30
0
41
1
10
56.5089411627639
20
12.1045628117641
30
0
41
1
10
56.5749287058552
20
12.267148813456
30
0
41
1
10
56.7069037920379
20
12.5420966204339
30
0
41
1
10
56.7728913351292
20
12.6544683431762
30
0
41
1
10
56.9048664213119
20
12.8312327283024
30
0
41
1
10
56.9708539644032
20
12.8956376951378
30
0
41
1
10
57.1028290505859
20
12.9800148763516
30
0
41
1
10
57.1688165936772
20
13
30
0
41
1
10
57.2348041367685
20
13
30
0
0
SPLINE
5
F0
100
AcDbEntity
8
1
62
256
6
ByLayer
370
13
48
1
60
0
100
AcDbSpline
70
4
71
3
72
80
73
76
40
0
40
0
40
0
40
0
40
0.0312499999999995
40
0.0312499999999995
40
0.062499999999999
40
0.062499999999999
40
0.0937499999999985
40
0.0937499999999985
40
0.124999999999998
40
0.124999999999998
40
0.156249999999998
40
0.156249999999998
40
0.187499999999997
40
0.187499999999997
40
0.218749999999997
40
0.218749999999997
40
0.249999999999996
40
0.249999999999996
40
0.281249999999996
40
0.281249999999996
40
0.312499999999995
40
0.312499999999995
40
0.343749999999995
40
0.343749999999995
40
0.374999999999995
40
0.374999999999995
40
0.406249999999994
40
0.406249999999994
40
0.421874999999994
40
0.421874999999994
40
0.425781249999994
40
0.425781249999994
40
0.429687499999994
40
0.429687499999994
40
0.437499999999994
40
0.437499999999994
40
0.468749999999995
40
0.468749999999995
40
0.499999999999995
40
0.499999999999995
40
0.531249999999995
40
0.531249999999995
40
0.562499999999996
40
0.562499999999996
40
0.593749999999996
40
0.593749999999996
40
0.624999999999996
40
0.624999999999996
40
0.656249999999997
40
0.656249999999997
40
0.687499999999997
40
0.687499999999997
40
0.718749999999998
40
0.718749999999998
40
0.749999999999998
40
0.749999999999998
40
0.781249999999998
40
0.781249999999998
40
0.812499999999999
40
0.812499999999999
40
0.843749999999999
40
0.843749999999999
40
0.851562499999999
40
0.851562499999999
40
0.859374999999999
40
0.859374999999999
40
0.874999999999999
40
0.874999999999999
40
0.906249999999999
40
0.906249999999999
40
0.9375
40
0.9375
40
0.96875
40
0.96875
40
1
40
1
40
1
40
1
41
1
10
55.7487127663194
20
13
30
0
41
1
10
55.8197510391134
20
13
30
0
41
1
10
55.8907893119073
20
12.9768325414268
30
0
41
1
10
56.0328658574953
20
12.8786640168974
30
0
41
1
10
56.1039041302893
20
12.8036442859394
30
0
41
1
10
56.2459806758772
20
12.5975039324797
30
0
41
1
10
56.3170189486711
20
12.4663658929402
30
0
41
1
10
56.459095494259
20
12.1455395846661
30
0
41
1
10
56.5301337670531
20
11.9558381662755
30
0
41
1
10
56.6722103126409
20
11.5177242509089
30
0
41
1
10
56.7432485854348
20
11.2693057901302
30
0
41
1
10
56.8853251310228
20
10.7161830145454
30
0
41
1
10
56.9563634038168
20
10.4114819279339
30
0
41
1
10
57.0984399494047
20
9.75085275251044
30
0
41
1
10
57.1694782221986
20
9.39493746731787
30
0
41
1
10
57.3115547677866
20
8.63933155608623
30
0
41
1
10
57.3825930405805
20
8.23966177026219
30
0
41
1
10
57.5246695861684
20
7.40587883864691
30
0
41
1
10
57.5957078589623
20
6.97179139848095
30
0
41
1
10
57.7377844045502
20
6.07967365937489
30
0
41
1
10
57.8088226773442
20
5.62166993489947
30
0
41
1
10
57.9508992229321
20
4.69258857032878
30
0
41
1
10
58.0219374957261
20
4.22153457151211
30
0
41
1
10
58.164014041314
20
3.27682263965136
30
0
41
1
10
58.235052314108
20
2.803182660902
30
0
41
1
10
58.3771288596959
20
1.86273639419068
30
0
41
1
10
58.4481671324899
20
1.39594109101773
30
0
41
1
10
58.5547245416808
20
0.706849108520316
30
0
41
1
10
58.5902436780778
20
0.478989475264996
30
0
41
1
10
58.6346425985739
20
0.196985176609104
30
0
41
1
10
58.6435223826732
20
0.140725066407157
30
0
41
1
10
58.6612819508716
20
0.0284983693231879
30
0
41
1
10
58.670161734971
20
-0.0273924080903498
30
0
41
1
10
58.6968010872687
20
-0.195726658268001
30
0
41
1
10
58.7145606554672
20
-0.308536905336013
30
0
41
1
10
58.8033584964596
20
-0.875280548767535
30
0
41
1
10
58.8743967692535
20
-1.33735697521013
30
0
41
1
10
59.0164733148415
20
-2.27154369451694
30
0
41
1
10
59.0875115876355
20
-2.74364565321193
30
0
41
1
10
59.2295881332234
20
-3.68897259058136
30
0
41
1
10
59.3006264060174
20
-4.16218216565122
30
0
41
1
10
59.4427029516052
20
-5.09959039905166
30
0
41
1
10
59.5137412243992
20
-5.56376730555277
30
0
41
1
10
59.6558177699871
20
-6.47231478395102
30
0
41
1
10
59.7268560427811
20
-6.91665947924889
30
0
41
1
10
59.8689325883689
20
-7.77481019390513
30
0
41
1
10
59.9399708611629
20
-8.18858970062647
30
0
41
1
10
60.0820474067508
20
-8.97574118125391
30
0
41
1
10
60.1530856795448
20
-9.34909004848507
30
0
41
1
10
60.2951622251327
20
-10.0471349936477
30
0
41
1
10
60.3662004979267
20
-10.3718149666979
30
0
41
1
10
60.5082770435147
20
-10.9665017200367
30
0
41
1
10
60.5793153163085
20
-11.2365016157946
30
0
41
1
10
60.7213918618965
20
-11.7183844822706
30
0
41
1
10
60.7924301346904
20
-11.930270122785
30
0
41
1
10
60.9345066802784
20
-12.2951200794639
30
0
41
1
10
61.0055449530723
20
-12.4480951560638
30
0
41
1
10
61.1476214986602
20
-12.6967502728184
30
0
41
1
10
61.2186597714542
20
-12.7924464916419
30
0
41
1
10
61.3607363170421
20
-12.9301856022028
30
0
41
1
10
61.4317745898361
20
-12.9722470206468
30
0
41
1
10
61.5205724308285
20
-12.9944933305575
30
0
41
1
10
61.538331999027
20
-12.997428904385
30
0
41
1
10
61.573851135424
20
-13.0003623787191
30
0
41
1
10
61.5916107036225
20
-13.0003718171982
30
0
41
1
10
61.6448894082179
20
-12.9960295963244
30
0
41
1
10
61.6804085446149
20
-12.9872588596644
30
0
41
1
10
61.7869659538058
20
-12.9422634213057
30
0
41
1
10
61.8580042265998
20
-12.8873119372504
30
0
41
1
10
62.0000807721877
20
-12.7227274451782
30
0
41
1
10
62.0711190449817
20
-12.6130762148321
30
0
41
1
10
62.2131955905695
20
-12.3358980983528
30
0
41
1
10
62.2842338633635
20
-12.1683560941393
30
0
41
1
10
62.4263104089515
20
-11.7743293572688
30
0
41
1
10
62.4973486817454
20
-11.5478356577774
30
0
41
1
10
62.5683869545393
20
-11.2925870703631
30
0
0
SPLINE
5
F1
100
AcDbEntity
8
1
62
256
6
ByLayer
370
13
48
1
60
0
100
AcDbSpline
70
4
71
3
72
76
73
72
40
0
40
0
40
0
40
0
40
0.0078125
40
0.0078125
40
0.015625
40
0.0312500000000001
40
0.0312500000000001
40
0.0625000000000002
40
0.0625000000000002
40
0.0937500000000003
40
0.0937500000000003
40
0.125000000000001
40
0.125000000000001
40
0.156250000000001
40
0.156250000000001
40
0.187500000000001
40
0.187500000000001
40
0.218750000000001
40
0.218750000000001
40
0.250000000000001
40
0.250000000000001
40
0.281250000000001
40
0.281250000000001
40
0.312500000000001
40
0.312500000000001
40
0.343750000000001
40
0.343750000000001
40
0.375000000000001
40
0.375000000000001
40
0.406250000000002
40
0.406250000000002
40
0.437500000000002
40
0.437500000000002
40
0.468750000000002
40
0.468750000000002
40
0.500000000000002
40
0.500000000000002
40
0.507812500000002
40
0.507812500000002
40
0.515625000000002
40
0.531250000000002
40
0.531250000000002
40
0.562500000000002
40
0.562500000000002
40
0.593750000000002
40
0.593750000000002
40
0.625000000000001
40
0.625000000000001
40
0.656250000000001
40
0.656250000000001
40
0.687500000000001
40
0.687500000000001
40
0.718750000000001
40
0.718750000000001
40
0.750000000000001
40
0.750000000000001
40
0.781250000000001
40
0.781250000000001
40
0.812500000000001
40
0.812500000000001
40
0.843750000000001
40
0.843750000000001
40
0.875
40
0.875
40
0.90625
40
0.90625
40
0.9375
40
0.9375
40
0.96875
40
0.96875
40
1
40
1
40
1
40
1
41
1
10
50.9
20
-12.9996203462363
30
0
41
1
10
50.9152342003086
20
-13.0003564322861
30
0
41
1
10
50.9304684006171
20
-13.0000274250957
30
0
41
1
10
50.9609368012342
20
-12.9972130080492
30
0
41
1
10
51.0066394021598
20
-12.9897436474033
30
0
41
1
10
51.0523420030854
20
-12.9722722801539
30
0
41
1
10
51.1437472049367
20
-12.923349364918
30
0
41
1
10
51.2046840061708
20
-12.8720695459137
30
0
41
1
10
51.3265576086391
20
-12.7292424313588
30
0
41
1
10
51.3874944098733
20
-12.6376866684668
30
0
41
1
10
51.5093680123415
20
-12.4122322955196
30
0
41
1
10
51.5703048135757
20
-12.2783263871938
30
0
41
1
10
51.692178416044
20
-11.9672171680927
30
0
41
1
10
51.7531152172781
20
-11.7900087846081
30
0
41
1
10
51.8749888197464
20
-11.3926505429272
30
0
41
1
10
51.9359256209806
20
-11.1724987659949
30
0
41
1
10
52.0577992234489
20
-10.691028414685
30
0
41
1
10
52.1187360246831
20
-10.4297116670887
30
0
41
1
10
52.2406096271514
20
-9.86910806455438
30
0
41
1
10
52.3015464283855
20
-9.5698268695397
30
0
41
1
10
52.4234200308537
20
-8.9378005691816
30
0
41
1
10
52.4843568320879
20
-8.60506447268423
30
0
41
1
10
52.6062304345562
20
-7.91172160199375
30
0
41
1
10
52.6671672357904
20
-7.55112619271432
30
0
41
1
10
52.7890408382587
20
-6.80843506111023
30
0
41
1
10
52.8499776394928
20
-6.42635174257293
30
0
41
1
10
52.9718512419612
20
-5.6474704197208
30
0
41
1
10
53.0327880431953
20
-5.25068447081506
30
0
41
1
10
53.1546616456636
20
-4.44922653206092
30
0
41
1
10
53.2155984468978
20
-4.04456504359814
30
0
41
1
10
53.337472049366
20
-3.23388490318789
30
0
41
1
10
53.3984088506002
20
-2.82787435787401
30
0
41
1
10
53.5202824530686
20
-2.02044321026347
30
0
41
1
10
53.5812192543027
20
-1.61902792293199
30
0
41
1
10
53.703092856771
20
-0.825950172898558
30
0
41
1
10
53.7640296580051
20
-0.434290255859082
30
0
41
1
10
53.8402006595478
20
0.0465258819156418
30
0
41
1
10
53.8554348598564
20
0.142606328258495
30
0
41
1
10
53.8859032604734
20
0.336049098202693
30
0
41
1
10
53.931605861399
20
0.627459942317785
30
0
41
1
10
53.9773084623247
20
0.922331678632844
30
0
41
1
10
54.0687136641759
20
1.5158636714192
30
0
41
1
10
54.1296504654101
20
1.9166297817319
30
0
41
1
10
54.2515240678784
20
2.72323969729251
30
0
41
1
10
54.3124608691126
20
3.12907843227626
30
0
41
1
10
54.4343344715808
20
3.93995286543176
30
0
41
1
10
54.495271272815
20
4.34498068811132
30
0
41
1
10
54.6171448752833
20
5.14774935062812
30
0
41
1
10
54.6780816765174
20
5.54547986828555
30
0
41
1
10
54.7999552789857
20
6.32684156876459
30
0
41
1
10
54.8608920802199
20
6.7104607867594
30
0
41
1
10
54.9827656826882
20
7.45679700144183
30
0
41
1
10
55.0437024839223
20
7.81950157074701
30
0
41
1
10
55.1655760863906
20
8.51758585996896
30
0
41
1
10
55.2265128876248
20
8.85295407087872
30
0
41
1
10
55.348386490093
20
9.49068779543381
30
0
41
1
10
55.4093232913272
20
9.79304405215524
30
0
41
1
10
55.5311968937955
20
10.3601373219335
30
0
41
1
10
55.5921336950297
20
10.6248683596226
30
0
41
1
10
55.7140072974981
20
11.1133880467061
30
0
41
1
10
55.7749440987322
20
11.3371745347111
30
0
41
1
10
55.8968177012005
20
11.7418989736982
30
0
41
1
10
55.9577545024346
20
11.922838537961
30
0
41
1
10
56.0796281049029
20
12.2413875051064
30
0
41
1
10
56.1405649061371
20
12.3790017422697
30
0
41
1
10
56.2624385086054
20
12.6117436545775
30
0
41
1
10
56.3233753098396
20
12.7068784775454
30
0
41
1
10
56.4452489123079
20
12.8566468705168
30
0
41
1
10
56.506185713542
20
12.9112888482867
30
0
41
1
10
56.6280593160103
20
12.9829610813831
30
0
41
1
10
56.6889961172444
20
13
30
0
41
1
10
56.7499329184786
20
13
30
0
0
SPLINE
5
F2
100
AcDbEntity
8
1
62
256
6
ByLayer
370
13
48
1
60
0
100
AcDbSpline
70
4
71
3
72
81
73
77
40
0
40
0
40
0
40
0
40
0.0312499999999994
40
0.0312499999999994
40
0.0624999999999987
40
0.0624999999999987
40
0.0937499999999981
40
0.0937499999999981
40
0.124999999999998
40
0.124999999999998
40
0.156249999999997
40
0.156249999999997
40
0.187499999999996
40
0.187499999999996
40
0.218749999999996
40
0.218749999999996
40
0.249999999999995
40
0.249999999999995
40
0.281249999999995
40
0.281249999999995
40
0.312499999999994
40
0.312499999999994
40
0.343749999999993
40
0.343749999999993
40
0.374999999999993
40
0.374999999999993
40
0.390624999999993
40
0.390624999999993
40
0.398437499999992
40
0.398437499999992
40
0.402343749999992
40
0.402343749999992
40
0.406249999999992
40
0.406249999999992
40
0.437499999999993
40
0.437499999999993
40
0.468749999999993
40
0.468749999999993
40
0.499999999999993
40
0.499999999999993
40
0.531249999999994
40
0.531249999999994
40
0.562499999999994
40
0.562499999999994
40
0.593749999999995
40
0.593749999999995
40
0.624999999999995
40
0.624999999999995
40
0.656249999999996
40
0.656249999999996
40
0.687499999999996
40
0.687499999999996
40
0.718749999999997
40
0.718749999999997
40
0.749999999999997
40
0.749999999999997
40
0.781249999999998
40
0.781249999999998
40
0.796874999999998
40
0.796874999999998
40
0.800781249999998
40
0.800781249999998
40
0.804687499999998
40
0.812499999999998
40
0.812499999999998
40
0.843749999999998
40
0.843749999999998
40
0.874999999999999
40
0.874999999999999
40
0.906249999999999
40
0.906249999999999
40
0.937499999999999
40
0.937499999999999
40
0.96875
40
0.96875
40
1
40
1
40
1
40
1
41
1
10
55.2638415480294
20
13
30
0
41
1
10
55.3399305626806
20
13
30
0
41
1
10
55.4160195773318
20
12.97341362829
30
0
41
1
10
55.568197606634
20
12.8603573981976
30
0
41
1
10
55.6442866212851
20
12.7738612486901
30
0
41
1
10
55.7964646505875
20
12.5359442784085
30
0
41
1
10
55.8725536652386
20
12.3844995220792
30
0
41
1
10
56.0247316945409
20
12.0141334388781
30
0
41
1
10
56.100820709192
20
11.7951954437952
30
0
41
1
10
56.2529987384944
20
11.2904087475873
30
0
41
1
10
56.3290877531455
20
11.0045551372218
30
0
41
1
10
56.4812657824478
20
10.3699608234192
30
0
41
1
10
56.557354797099
20
10.0212295442781
30
0
41
1
10
56.7095328264012
20
9.26830096971838
30
0
41
1
10
56.7856218410523
20
8.86412695237186
30
0
41
1
10
56.9377998703547
20
8.01063575392863
30
0
41
1
10
57.0138888850058
20
7.56135199321025
30
0
41
1
10
57.166066914308
20
6.62999816696274
30
0
41
1
10
57.2421559289592
20
6.14796570261166
30
0
41
1
10
57.3943339582615
20
5.16441541967012
30
0
41
1
10
57.4704229729127
20
4.66293293107881
30
0
41
1
10
57.622601002215
20
3.65360901040285
30
0
41
1
10
57.698690016866
20
3.14579547103807
30
0
41
1
10
57.8508680461684
20
2.13579475736216
30
0
41
1
10
57.9269570608195
20
1.63362525575775
30
0
41
1
10
58.0410905827962
20
0.892205035194223
30
0
41
1
10
58.0791350901218
20
0.647021385150225
30
0
41
1
10
58.1362018511101
20
0.282977387076727
30
0
41
1
10
58.155224104773
20
0.162250204697585
30
0
41
1
10
58.1837574852672
20
-0.017819694421803
30
0
41
1
10
58.1932686120986
20
-0.0777508832392186
30
0
41
1
10
58.2122908657613
20
-0.198154551745148
30
0
41
1
10
58.2218019925927
20
-0.258522604218797
30
0
41
1
10
58.3074021340753
20
-0.803263725791965
30
0
41
1
10
58.3834911487264
20
-1.29772869248311
30
0
41
1
10
58.5356691780287
20
-2.2982370135739
30
0
41
1
10
58.6117581926798
20
-2.80426865786691
30
0
41
1
10
58.7639362219821
20
-3.81690534113673
30
0
41
1
10
58.8400252366333
20
-4.32348802299211
30
0
41
1
10
58.9922032659355
20
-5.32465296080451
30
0
41
1
10
59.0682922805867
20
-5.81920354311691
30
0
41
1
10
59.220470309889
20
-6.78297983429846
30
0
41
1
10
59.2965593245401
20
-7.25216846217708
30
0
41
1
10
59.4487373538424
20
-8.15219477010825
30
0
41
1
10
59.5248263684936
20
-8.58299588308546
30
0
41
1
10
59.6770043977959
20
-9.39464862703872
30
0
41
1
10
59.753093412447
20
-9.77547067743615
30
0
41
1
10
59.9052714417493
20
-10.4780113405554
30
0
41
1
10
59.9813604564004
20
-10.7997125136142
30
0
41
1
10
60.1335384857027
20
-11.3780252724763
30
0
41
1
10
60.2096275003538
20
-11.6346338992896
30
0
41
1
10
60.3618055296562
20
-12.0802551689219
30
0
41
1
10
60.4378945443073
20
-12.2692783756017
30
0
41
1
10
60.5900725736096
20
-12.5805813657402
30
0
41
1
10
60.6661615882607
20
-12.7028816377462
30
0
41
1
10
60.818339617563
20
-12.8844685822043
30
0
41
1
10
60.8944286322142
20
-12.9437808095448
30
0
41
1
10
61.0085621541909
20
-12.9899117474948
30
0
41
1
10
61.0466066615164
20
-12.9981635861689
30
0
41
1
10
61.0941622956734
20
-13.0001161164516
30
0
41
1
10
61.1036734225048
20
-13.0000905697453
30
0
41
1
10
61.1226956761676
20
-12.9992060567535
30
0
41
1
10
61.1512290566618
20
-12.9966242342148
30
0
41
1
10
61.179762437156
20
-12.9902137261904
30
0
41
1
10
61.2748737054699
20
-12.9600652322795
30
0
41
1
10
61.3509627201211
20
-12.9077866202096
30
0
41
1
10
61.5031407494234
20
-12.7408618509889
30
0
41
1
10
61.5792297640745
20
-12.6261898670244
30
0
41
1
10
61.7314077933768
20
-12.3304458126092
30
0
41
1
10
61.8074968080279
20
-12.149352399548
30
0
41
1
10
61.9596748373302
20
-11.7195260636314
30
0
41
1
10
62.0357638519814
20
-11.4707811885685
30
0
41
1
10
62.1879418812836
20
-10.907723835104
30
0
41
1
10
62.2640308959348
20
-10.5934126195984
30
0
41
1
10
62.4162089252371
20
-9.90477921582308
30
0
41
1
10
62.4922979398882
20
-9.53047282640139
30
0
41
1
10
62.5683869545394
20
-9.13055472796634
30
0
0
SPLINE
5
F3
100
AcDbEntity
8
1
62
256
6
ByLayer
370
13
48
1
60
0
100
AcDbSpline
70
4
71
3
72
72
73
68
40
0
40
0
40
0
40
0
40
0.0312499999999998
40
0.0312499999999998
40
0.0624999999999996
40
0.0624999999999996
40
0.0937499999999993
40
0.0937499999999993
40
0.124999999999999
40
0.124999999999999
40
0.156249999999999
40
0.156249999999999
40
0.187499999999999
40
0.187499999999999
40
0.218749999999998
40
0.218749999999998
40
0.249999999999998
40
0.249999999999998
40
0.281249999999998
40
0.281249999999998
40
0.312499999999998
40
0.312499999999998
40
0.343749999999998
40
0.343749999999998
40
0.374999999999997
40
0.374999999999997
40
0.406249999999997
40
0.406249999999997
40
0.437499999999997
40
0.437499999999997
40
0.453124999999997
40
0.453124999999997
40
0.460937499999997
40
0.460937499999997
40
0.468749999999997
40
0.468749999999997
40
0.499999999999997
40
0.499999999999997
40
0.531249999999997
40
0.531249999999997
40
0.562499999999997
40
0.562499999999997
40
0.593749999999997
40
0.593749999999997
40
0.624999999999997
40
0.624999999999997
40
0.656249999999997
40
0.656249999999997
40
0.687499999999998
40
0.687499999999998
40
0.718749999999998
40
0.718749999999998
40
0.749999999999998
40
0.749999999999998
40
0.781249999999998
40
0.781249999999998
40
0.812499999999998
40
0.812499999999998
40
0.843749999999999
40
0.843749999999999
40
0.874999999999999
40
0.874999999999999
40
0.906249999999999
40
0.906249999999999
40
0.937499999999999
40
0.937499999999999
40
1
40
1
40
1
40
1
41
1
10
50.9
20
-12.6349112805467
30
0
41
1
10
50.955886059377
20
-12.5449097710813
30
0
41
1
10
51.011772118754
20
-12.4373557486785
30
0
41
1
10
51.1235442375078
20
-12.1860613203026
30
0
41
1
10
51.1794302968849
20
-12.0423169144617
30
0
41
1
10
51.2912024156388
20
-11.7184255536044
30
0
41
1
10
51.3470884750157
20
-11.5382762342517
30
0
41
1
10
51.4588605937697
20
-11.1423317933676
30
0
41
1
10
51.5147466531467
20
-10.926536376171
30
0
41
1
10
51.6265187719006
20
-10.4610708264561
30
0
41
1
10
51.6824048312775
20
-10.2114026888676
30
0
41
1
10
51.7941769500314
20
-9.68095225920908
30
0
41
1
10
51.8500630094084
20
-9.40017420148271
30
0
41
1
10
51.9618351281623
20
-8.81116004481609
30
0
41
1
10
52.0177211875393
20
-8.50293008238074
30
0
41
1
10
52.1294933062932
20
-7.86340663498837
30
0
41
1
10
52.1853793656702
20
-7.5321206091424
30
0
41
1
10
52.2971514844241
20
-6.85141156337457
30
0
41
1
10
52.3530375438011
20
-6.50199659572766
30
0
41
1
10
52.4648096625551
20
-5.79025259369681
30
0
41
1
10
52.520695721932
20
-5.42793144440179
30
0
41
1
10
52.6324678406858
20
-4.69565240197662
30
0
41
1
10
52.6883539000629
20
-4.32570155227137
30
0
41
1
10
52.8001260188168
20
-3.58326839363528
30
0
41
1
10
52.8560120781937
20
-3.21079178653275
30
0
41
1
10
52.9677841969477
20
-2.4680474207469
30
0
41
1
10
53.0236702563246
20
-2.09778374208869
30
0
41
1
10
53.1354423750786
20
-1.3636929544964
30
0
41
1
10
53.1913284344555
20
-0.999868243062849
30
0
41
1
10
53.275157523521
20
-0.461672049365035
30
0
41
1
10
53.3031005532095
20
-0.283525154015933
30
0
41
1
10
53.3450150977422
20
-0.0184754855094695
30
0
41
1
10
53.3589866125864
20
0.0694197415686233
30
0
41
1
10
53.3869296422749
20
0.246396149229213
30
0
41
1
10
53.4009011571192
20
0.335241333244596
30
0
41
1
10
53.4707587313403
20
0.781132091098669
30
0
41
1
10
53.5266447907173
20
1.14319756854368
30
0
41
1
10
53.6384169094712
20
1.87455088560139
30
0
41
1
10
53.6943029688482
20
2.24383665745765
30
0
41
1
10
53.8060750876021
20
2.98552308597093
30
0
41
1
10
53.8619611469792
20
3.35792000395898
30
0
41
1
10
53.9737332657331
20
4.10118489254586
30
0
41
1
10
54.02961932511
20
4.47204747347146
30
0
41
1
10
54.1413914438639
20
5.20720070106418
30
0
41
1
10
54.1972775032408
20
5.57148454158136
30
0
41
1
10
54.3090496219948
20
6.28822222508174
30
0
41
1
10
54.3649356813717
20
6.64066830313473
30
0
41
1
10
54.4767078001258
20
7.32847788843401
30
0
41
1
10
54.5325938595027
20
7.66383331709281
30
0
41
1
10
54.6443659782566
20
8.312454846706
30
0
41
1
10
54.7002520376335
20
8.62571330725811
30
0
41
1
10
54.8120241563875
20
9.22561873684239
30
0
41
1
10
54.8679102157644
20
9.51225924927951
30
0
41
1
10
54.9796823345185
20
10.0551055153654
30
0
41
1
10
55.0355683938954
20
10.3113066147293
30
0
41
1
10
55.1473405126492
20
10.7903185873039
30
0
41
1
10
55.2032265720262
20
11.0131270000195
30
0
41
1
10
55.3149986907802
20
11.423373929563
30
0
41
1
10
55.3708847501572
20
11.6108122893822
30
0
41
1
10
55.4826568689111
20
11.9493546535861
30
0
41
1
10
55.538542928288
20
12.1004606340153
30
0
41
1
10
55.650315047042
20
12.36636078932
30
0
41
1
10
55.7062011064189
20
12.4811586760474
30
0
41
1
10
55.8179732251729
20
12.6753651545327
30
0
41
1
10
55.8738592845498
20
12.7547786570063
30
0
41
1
10
56.0415174626807
20
12.9424716440794
30
0
41
1
10
56.1532895814346
20
13
30
0
41
1
10
56.2650617001886
20
13
30
0
0
SPLINE
5
F4
100
AcDbEntity
8
1
62
256
6
ByLayer
370
13
48
1
60
0
100
AcDbSpline
70
4
71
3
72
79
73
75
40
0
40
0
40
0
40
0
40
0.0312500000000005
40
0.0312500000000005
40
0.0625000000000011
40
0.0625000000000011
40
0.0937500000000016
40
0.0937500000000016
40
0.125000000000002
40
0.125000000000002
40
0.156250000000003
40
0.156250000000003
40
0.187500000000003
40
0.187500000000003
40
0.218750000000004
40
0.218750000000004
40
0.250000000000004
40
0.250000000000004
40
0.281250000000005
40
0.281250000000005
40
0.312500000000006
40
0.312500000000006
40
0.343750000000006
40
0.343750000000006
40
0.359375000000006
40
0.359375000000006
40
0.367187500000006
40
0.367187500000006
40
0.375000000000006
40
0.375000000000006
40
0.406250000000006
40
0.406250000000006
40
0.437500000000006
40
0.437500000000006
40
0.468750000000006
40
0.468750000000006
40
0.500000000000006
40
0.500000000000006
40
0.531250000000006
40
0.531250000000006
40
0.562500000000006
40
0.562500000000006
40
0.593750000000006
40
0.593750000000006
40
0.625000000000005
40
0.625000000000005
40
0.656250000000005
40
0.656250000000005
40
0.687500000000005
40
0.687500000000005
40
0.718750000000005
40
0.718750000000005
40
0.734375000000005
40
0.734375000000005
40
0.742187500000005
40
0.746093750000005
40
0.746093750000005
40
0.750000000000005
40
0.750000000000005
40
0.781250000000004
40
0.781250000000004
40
0.812500000000004
40
0.812500000000004
40
0.843750000000003
40
0.843750000000003
40
0.875000000000002
40
0.875000000000002
40
0.906250000000002
40
0.906250000000002
40
0.937500000000001
40
0.937500000000001
40
0.968750000000001
40
0.968750000000001
40
1
40
1
40
1
40
1
41
1
10
54.7789703297395
20
13
30
0
41
1
10
54.8601100862478
20
13
30
0
41
1
10
54.9412498427562
20
12.9697576644993
30
0
41
1
10
55.1035293557728
20
12.8407077858912
30
0
41
1
10
55.1846691122811
20
12.7418640474881
30
0
41
1
10
55.3469486252978
20
12.4697527565857
30
0
41
1
10
55.4280883818061
20
12.2964531757289
30
0
41
1
10
55.5903678948228
20
11.872911989408
30
0
41
1
10
55.6715076513311
20
11.6226502282249
30
0
41
1
10
55.8337871643478
20
11.0468197874336
30
0
41
1
10
55.9149269208561
20
10.7212494108978
30
0
41
1
10
56.0772064338727
20
10.0009410998472
30
0
41
1
10
56.1583461903811
20
9.60622279080562
30
0
41
1
10
56.3206257033978
20
8.75799966317445
30
0
41
1
10
56.4017654599061
20
8.30453330325633
30
0
41
1
10
56.5640449729228
20
7.35255042610063
30
0
41
1
10
56.6451847294311
20
6.854083740319
30
0
41
1
10
56.8074642424478
20
5.82783459006978
30
0
41
1
10
56.8886039989561
20
5.30010330376021
30
0
41
1
10
57.0508835119728
20
4.23150235192222
30
0
41
1
10
57.1320232684811
20
3.69067590901801
30
0
41
1
10
57.2943027814977
20
2.61105504952687
30
0
41
1
10
57.3754425380061
20
2.07228993498859
30
0
41
1
10
57.4971521727685
20
1.2754584559043
30
0
41
1
10
57.5377220510227
20
1.01171479431431
30
0
41
1
10
57.598576868404
20
0.619929880001621
30
0
41
1
10
57.6188618075311
20
0.489971951818063
30
0
41
1
10
57.6594316857852
20
0.231484970982336
30
0
41
1
10
57.6797166249123
20
0.103138345818763
30
0
41
1
10
57.7811413205477
20
-0.536586540516851
30
0
41
1
10
57.8622810770561
20
-1.06091451404191
30
0
41
1
10
58.0245605900727
20
-2.12430600306817
30
0
41
1
10
58.1057003465811
20
-2.66335532975694
30
0
41
1
10
58.2679798595978
20
-3.74308347012547
30
0
41
1
10
58.349119616106
20
-4.28373248275676
30
0
41
1
10
58.5113991291227
20
-5.35146501023152
30
0
41
1
10
58.5925388856311
20
-5.87850492949676
30
0
41
1
10
58.7548183986477
20
-6.90284759950313
30
0
41
1
10
58.8359581551561
20
-7.40009905782927
30
0
41
1
10
58.9982376681728
20
-8.34916758103947
30
0
41
1
10
59.0793774246811
20
-8.8009350304911
30
0
41
1
10
59.2416569376977
20
-9.64536497812307
30
0
41
1
10
59.322796694206
20
-10.0379895319398
30
0
41
1
10
59.4850762072227
20
-10.7538410179513
30
0
41
1
10
59.566215963731
20
-11.0770490052979
30
0
41
1
10
59.7284954767477
20
-11.6480303884422
30
0
41
1
10
59.8096352332561
20
-11.8958061487865
30
0
41
1
10
59.9719147462727
20
-12.3143941511163
30
0
41
1
10
60.0530545027811
20
-12.4852270488565
30
0
41
1
10
60.2153340157977
20
-12.752546889801
30
0
41
1
10
60.2964737723061
20
-12.8490661154109
30
0
41
1
10
60.4181834070685
20
-12.9425418681291
30
0
41
1
10
60.4587532853227
20
-12.9651726803752
30
0
41
1
10
60.519608102704
20
-12.9870485588433
30
0
41
1
10
60.5500355113947
20
-12.9949704072263
30
0
41
1
10
60.5804629200852
20
-12.9985152590027
30
0
41
1
10
60.6007478592123
20
-12.9999228688684
30
0
41
1
10
60.6108903287758
20
-13.0001496868632
30
0
41
1
10
60.7021725548477
20
-12.9979497834523
30
0
41
1
10
60.783312311356
20
-12.9656078211549
30
0
41
1
10
60.9455918243727
20
-12.8321275690186
30
0
41
1
10
61.0267315808811
20
-12.7309531055861
30
0
41
1
10
61.1890110938977
20
-12.4540414516509
30
0
41
1
10
61.270150850406
20
-12.2782724951011
30
0
41
1
10
61.4324303634227
20
-11.8497771210162
30
0
41
1
10
61.5135701199311
20
-11.5970310549236
30
0
41
1
10
61.6758496329477
20
-11.0163597105217
30
0
41
1
10
61.7569893894561
20
-10.6884334060523
30
0
41
1
10
61.9192689024727
20
-9.96368568145618
30
0
41
1
10
62.000408658981
20
-9.56688456479364
30
0
41
1
10
62.1626881719977
20
-8.71489370121887
30
0
41
1
10
62.243827928506
20
-8.25974291926545
30
0
41
1
10
62.4061074415227
20
-7.30487677057133
30
0
41
1
10
62.487247198031
20
-6.80521144052622
30
0
41
1
10
62.5683869545394
20
-6.29115043497325
30
0
0
SPLINE
5
F5
100
AcDbEntity
8
1
62
256
6
ByLayer
370
13
48
1
60
0
100
AcDbSpline
70
4
71
3
72
44
73
40
40
0
40
0
40
0
40
0
40
0.0625000000000003
40
0.0625000000000003
40
0.125000000000001
40
0.125000000000001
40
0.187500000000001
40
0.187500000000001
40
0.250000000000001
40
0.250000000000001
40
0.312500000000001
40
0.312500000000001
40
0.375000000000001
40
0.375000000000001
40
0.390625000000002
40
0.390625000000002
40
0.398437500000002
40
0.398437500000002
40
0.406250000000001
40
0.406250000000001
40
0.437500000000001
40
0.437500000000001
40
0.500000000000001
40
0.500000000000001
40
0.562500000000001
40
0.562500000000001
40
0.625000000000001
40
0.625000000000001
40
0.687500000000001
40
0.687500000000001
40
0.750000000000001
40
0.750000000000001
40
0.8125
40
0.8125
40
0.875
40
0.875
40
0.9375
40
0.9375
40
1
40
1
40
1
40
1
41
1
10
50.9
20
-11.4038109536209
30
0
41
1
10
51.0016706350396
20
-11.0506490475262
30
0
41
1
10
51.1033412700791
20
-10.6379638963801
30
0
41
1
10
51.3066825401582
20
-9.70602239760063
30
0
41
1
10
51.4083531751978
20
-9.1868374265911
30
0
41
1
10
51.6116944452769
20
-8.06453634873509
30
0
41
1
10
51.7133650803164
20
-7.46155670680716
30
0
41
1
10
51.9167063503955
20
-6.2012787517443
30
0
41
1
10
52.0183769854351
20
-5.54413978094755
30
0
41
1
10
52.2217182555142
20
-4.20751160487396
30
0
41
1
10
52.3233888905538
20
-3.52815780530219
30
0
41
1
10
52.5267301606328
20
-2.17682960958299
30
0
41
1
10
52.6284007956724
20
-1.50493677889187
30
0
41
1
10
52.7554890894719
20
-0.684772266927894
30
0
41
1
10
52.7809067482317
20
-0.521708153611968
30
0
41
1
10
52.8190332363716
20
-0.278795651759452
30
0
41
1
10
52.8317420657516
20
-0.198105209303662
30
0
41
1
10
52.8571597245114
20
-0.0373208693743265
30
0
41
1
10
52.8698685538913
20
0.0426267529683173
30
0
41
1
10
52.9334127007911
20
0.444653321188781
30
0
41
1
10
52.9842480183108
20
0.771058407146541
30
0
41
1
10
53.1367539708702
20
1.76093409362386
30
0
41
1
10
53.2384246059098
20
2.43526187780725
30
0
41
1
10
53.4417658759888
20
3.78793514102483
30
0
41
1
10
53.5434365110284
20
4.46619139470803
30
0
41
1
10
53.7467777811075
20
5.79658750555177
30
0
41
1
10
53.8484484161471
20
6.44858672840255
30
0
41
1
10
54.0517896862262
20
7.69456774659795
30
0
41
1
10
54.1534603212657
20
8.28839036450714
30
0
41
1
10
54.3568015913449
20
9.38899731816451
30
0
41
1
10
54.4584722263844
20
9.89565152665725
30
0
41
1
10
54.6618134964635
20
10.8003090933981
30
0
41
1
10
54.763484131503
20
11.1982512603318
30
0
41
1
10
54.9668254015821
20
11.8742851094439
30
0
41
1
10
55.0684960366217
20
12.1523967867436
30
0
41
1
10
55.2718373067009
20
12.588616794776
30
0
41
1
10
55.3735079417403
20
12.7468078079646
30
0
41
1
10
55.5768492118194
20
12.9524443626241
30
0
41
1
10
55.678519846859
20
13
30
0
41
1
10
55.7801904818985
20
13
30
0
0
SPLINE
5
F6
100
AcDbEntity
8
1
62
256
6
ByLayer
370
13
48
1
60
0
100
AcDbSpline
70
4
71
3
72
80
73
76
40
0
40
0
40
0
40
0
40
0.0312500000000005
40
0.0312500000000005
40
0.062500000000001
40
0.062500000000001
40
0.0937500000000015
40
0.0937500000000015
40
0.125000000000002
40
0.125000000000002
40
0.156250000000002
40
0.156250000000002
40
0.187500000000003
40
0.187500000000003
40
0.218750000000003
40
0.218750000000003
40
0.250000000000004
40
0.250000000000004
40
0.281250000000004
40
0.281250000000004
40
0.312500000000005
40
0.312500000000005
40
0.343750000000005
40
0.343750000000005
40
0.351562500000006
40
0.351562500000006
40
0.355468750000005
40
0.355468750000005
40
0.359375000000005
40
0.375000000000005
40
0.375000000000005
40
0.406250000000005
40
0.406250000000005
40
0.437500000000004
40
0.437500000000004
40
0.468750000000004
40
0.468750000000004
40
0.500000000000003
40
0.500000000000003
40
0.531250000000003
40
0.531250000000003
40
0.562500000000002
40
0.562500000000002
40
0.593750000000002
40
0.593750000000002
40
0.625000000000001
40
0.625000000000001
40
0.656250000000001
40
0.656250000000001
40
0.6875
40
0.6875
40
0.703125
40
0.703125
40
0.70703125
40
0.70703125
40
0.7109375
40
0.71875
40
0.71875
40
0.75
40
0.75
40
0.78125
40
0.78125
40
0.8125
40
0.8125
40
0.84375
40
0.84375
40
0.875
40
0.875
40
0.90625
40
0.90625
40
0.9375
40
0.9375
40
0.96875
40
0.96875
40
1
40
1
40
1
40
1
41
1
10
54.2940991114494
20
13
30
0
41
1
10
54.3802896098149
20
13
30
0
41
1
10
54.4664801081805
20
12.9658641213742
30
0
41
1
10
54.6388611049115
20
12.8197053370697
30
0
41
1
10
54.725051603277
20
12.7076335990926
30
0
41
1
10
54.8974326000081
20
12.3988967091977
30
0
41
1
10
54.9836230983736
20
12.2021897330015
30
0
41
1
10
55.1560040951046
20
11.7218786287503
30
0
41
1
10
55.2421945934702
20
11.4382513844143
30
0
41
1
10
55.4145755902012
20
10.787218003181
30
0
41
1
10
55.5007660885667
20
10.4198166655774
30
0
41
1
10
55.6731470852977
20
9.61008106733757
30
0
41
1
10
55.7593375836633
20
9.16778195628123
30
0
41
1
10
55.9317185803943
20
8.2222264248615
30
0
41
1
10
56.0179090787598
20
7.71902914789288
30
0
41
1
10
56.1902900754908
20
6.66933508998187
30
0
41
1
10
56.2764805738564
20
6.12290812338887
30
0
41
1
10
56.4488615705874
20
5.0061039315375
30
0
41
1
10
56.535052068953
20
4.4357918493273
30
0
41
1
10
56.707433065684
20
3.29017504013655
30
0
41
1
10
56.7936235640495
20
2.71491881630567
30
0
41
1
10
56.9660045607805
20
1.57623373820724
30
0
41
1
10
57.0521950591461
20
1.01283130384778
30
0
41
1
10
57.159933182103
20
0.32443535453919
30
0
41
1
10
57.1814808066943
20
0.187540207309155
30
0
41
1
10
57.2138022435814
20
-0.0164952503044447
30
0
41
1
10
57.2245760558771
20
-0.0843690386082301
30
0
41
1
10
57.2461236804685
20
-0.220818272073416
30
0
41
1
10
57.2999927419469
20
-0.56300172069632
30
0
41
1
10
57.3538618034254
20
-0.910238612517304
30
0
41
1
10
57.4831475509736
20
-1.75099372828618
30
0
41
1
10
57.5693380493392
20
-2.32144851458489
30
0
41
1
10
57.7417190460702
20
-3.46726219895791
30
0
41
1
10
57.8279095444358
20
-4.0425848120862
30
0
41
1
10
58.0002905411668
20
-5.18024193922989
30
0
41
1
10
58.0864810395323
20
-5.74251959332545
30
0
41
1
10
58.2588620362634
20
-6.83473921320106
30
0
41
1
10
58.3450525346289
20
-7.36461221697684
30
0
41
1
10
58.51743353136
20
-8.37314660876379
30
0
41
1
10
58.6036240297255
20
-8.85174094112909
30
0
41
1
10
58.7760050264564
20
-9.74141214192102
30
0
41
1
10
58.8621955248221
20
-10.1524390311105
30
0
41
1
10
59.0345765215531
20
-10.8950523493826
30
0
41
1
10
59.1207670199186
20
-11.2266166265782
30
0
41
1
10
59.2931480166496
20
-11.8038815976993
30
0
41
1
10
59.3793385150151
20
-12.0495904686632
30
0
41
1
10
59.5517195117461
20
-12.4544320938559
30
0
41
1
10
59.6379100101117
20
-12.6135975235071
30
0
41
1
10
59.8102910068427
20
-12.8497081783739
30
0
41
1
10
59.8964815052082
20
-12.9266997124191
30
0
41
1
10
60.0257672527565
20
-12.9866679787234
30
0
41
1
10
60.0688625019393
20
-12.997429602662
30
0
41
1
10
60.1227315634177
20
-13.0001313882468
30
0
41
1
10
60.1335053757134
20
-13.0001370923658
30
0
41
1
10
60.1550530003048
20
-12.9990795273217
30
0
41
1
10
60.1873744371918
20
-12.9958819883969
30
0
41
1
10
60.2196958740789
20
-12.9877585805157
30
0
41
1
10
60.3274339970358
20
-12.9493414208086
30
0
41
1
10
60.4136244954014
20
-12.882212445469
30
0
41
1
10
60.5860054921324
20
-12.6666817083609
30
0
41
1
10
60.6721959904978
20
-12.5182327617656
30
0
41
1
10
60.844576987229
20
-12.1351206581523
30
0
41
1
10
60.9307674855945
20
-11.9004224493129
30
0
41
1
10
61.1031484823255
20
-11.3447865249347
30
0
41
1
10
61.189338980691
20
-11.0238370688332
30
0
41
1
10
61.361719977422
20
-10.30133260408
30
0
41
1
10
61.4479104757876
20
-9.89979586464594
30
0
41
1
10
61.6202914725186
20
-9.02733150297524
30
0
41
1
10
61.7064819708841
20
-8.55645079033096
30
0
41
1
10
61.8788629676153
20
-7.56110203999566
30
0
41
1
10
61.9650534659807
20
-7.03669969899238
30
0
41
1
10
62.1374344627118
20
-5.95296563600758
30
0
41
1
10
62.2236249610774
20
-5.39370348519546
30
0
41
1
10
62.3960059578083
20
-4.25967292493433
30
0
41
1
10
62.4821964561738
20
-3.68496351364649
30
0
41
1
10
62.5683869545394
20
-3.11160433097706
30
0
0
SPLINE
5
F7
100
AcDbEntity
8
1
62
256
6
ByLayer
370
13
48
1
60
0
100
AcDbSpline
70
4
71
3
72
42
73
38
40
0
40
0
40
0
40
0
40
0.0624999999999999
40
0.0624999999999999
40
0.125
40
0.125
40
0.1875
40
0.1875
40
0.25
40
0.25
40
0.3125
40
0.3125
40
0.328125
40
0.328125
40
0.34375
40
0.34375
40
0.375
40
0.375
40
0.4375
40
0.4375
40
0.5
40
0.5
40
0.5625
40
0.5625
40
0.625
40
0.625
40
0.6875
40
0.6875
40
0.75
40
0.75
40
0.8125
40
0.8125
40
0.875
40
0.875
40
0.9375
40
0.9375
40
1
40
1
40
1
40
1
41
1
10
50.9
20
-9.29453172952466
30
0
41
1
10
50.9915691513252
20
-8.8218271248455
30
0
41
1
10
51.0831383026504
20
-8.31101126463389
30
0
41
1
10
51.2662766053007
20
-7.23268000941334
30
0
41
1
10
51.3578457566259
20
-6.66525604338929
30
0
41
1
10
51.5409840592763
20
-5.49651702678537
30
0
41
1
10
51.6325532106015
20
-4.8952940639407
30
0
41
1
10
51.8156915132518
20
-3.68207123859645
30
0
41
1
10
51.907260664577
20
-3.07014361174853
30
0
41
1
10
52.0903989672273
20
-1.85639363059497
30
0
41
1
10
52.1819681185525
20
-1.25461271128975
30
0
41
1
10
52.2964295577089
20
-0.519273057089691
30
0
41
1
10
52.3193218455402
20
-0.37303844520531
30
0
41
1
10
52.3651064212029
20
-0.0824537348763386
30
0
41
1
10
52.3879987090341
20
0.0613545045653154
30
0
41
1
10
52.456675572528
20
0.496956112637491
30
0
41
1
10
52.5024601481906
20
0.791155710330628
30
0
41
1
10
52.6398138751783
20
1.68243529852521
30
0
41
1
10
52.7313830265036
20
2.28832772884192
30
0
41
1
10
52.9145213291539
20
3.50566012739844
30
0
41
1
10
53.0060904804791
20
4.1170509504619
30
0
41
1
10
53.1892287831294
20
5.32383291045107
30
0
41
1
10
53.2807979344546
20
5.91914567510943
30
0
41
1
10
53.463936237105
20
7.07050957324191
30
0
41
1
10
53.5555053884301
20
7.62646666758013
30
0
41
1
10
53.7386436910805
20
8.67679214605155
30
0
41
1
10
53.8302128424056
20
9.1710727698526
30
0
41
1
10
54.013351145056
20
10.0794702526162
30
0
41
1
10
54.1049202963812
20
10.4935280165224
30
0
41
1
10
54.2880585990315
20
11.2289419558672
30
0
41
1
10
54.3796277503567
20
11.5502812328341
30
0
41
1
10
54.5627660530071
20
12.0949378187314
30
0
41
1
10
54.6543352043323
20
12.3182800123515
30
0
41
1
10
54.8374735069827
20
12.6687045725316
30
0
41
1
10
54.9290426583079
20
12.7958411430041
30
0
41
1
10
55.1121809609582
20
12.9614559276626
30
0
41
1
10
55.2037501122834
20
13
30
0
41
1
10
55.2953192636085
20
13
30
0
0
SPLINE
5
F8
100
AcDbEntity
8
1
62
256
6
ByLayer
370
13
48
1
60
0
100
AcDbSpline
70
4
71
3
72
86
73
82
40
0
40
0
40
0
40
0
40
0.0312500000000012
40
0.0312500000000012
40
0.0625000000000024
40
0.0625000000000024
40
0.0937500000000036
40
0.0937500000000036
40
0.125000000000005
40
0.125000000000005
40
0.156250000000006
40
0.156250000000006
40
0.187500000000007
40
0.187500000000007
40
0.218750000000008
40
0.218750000000008
40
0.250000000000009
40
0.250000000000009
40
0.281250000000011
40
0.281250000000011
40
0.312500000000012
40
0.312500000000012
40
0.328125000000012
40
0.328125000000012
40
0.332031250000012
40
0.332031250000012
40
0.335937500000012
40
0.335937500000012
40
0.343750000000012
40
0.343750000000012
40
0.375000000000012
40
0.375000000000012
40
0.406250000000012
40
0.406250000000012
40
0.437500000000012
40
0.437500000000012
40
0.468750000000012
40
0.468750000000012
40
0.500000000000013
40
0.500000000000013
40
0.531250000000013
40
0.531250000000013
40
0.562500000000012
40
0.562500000000012
40
0.593750000000012
40
0.593750000000012
40
0.625000000000012
40
0.625000000000012
40
0.656250000000012
40
0.656250000000012
40
0.664062500000012
40
0.664062500000012
40
0.667968750000012
40
0.667968750000012
40
0.671875000000012
40
0.687500000000012
40
0.687500000000012
40
0.718750000000011
40
0.718750000000011
40
0.750000000000009
40
0.750000000000009
40
0.781250000000008
40
0.781250000000008
40
0.812500000000007
40
0.812500000000007
40
0.843750000000006
40
0.843750000000006
40
0.875000000000005
40
0.875000000000005
40
0.906250000000004
40
0.906250000000004
40
0.937500000000003
40
0.937500000000003
40
0.968750000000001
40
0.968750000000001
40
0.984375000000001
40
0.984375000000001
40
0.9921875
40
0.99609375
40
0.99609375
40
1
40
1
40
1
40
1
41
1
10
53.8092278931594
20
13
30
0
41
1
10
53.9004691333821
20
13
30
0
41
1
10
53.9917103736048
20
12.9617324193296
30
0
41
1
10
54.1741928540503
20
12.7973404664991
30
0
41
1
10
54.265434094273
20
12.6711513911183
30
0
41
1
10
54.4479165747184
20
12.3233477322217
30
0
41
1
10
54.5391578149411
20
12.1016797571772
30
0
41
1
10
54.7216402953865
20
11.561059405315
30
0
41
1
10
54.8128815356092
20
11.2420821912244
30
0
41
1
10
54.9953640160546
20
10.5119334446306
30
0
41
1
10
55.0866052562773
20
10.100777885475
30
0
41
1
10
55.2690877367228
20
9.19848323095536
30
0
41
1
10
55.3603289769455
20
8.70740152210206
30
0
41
1
10
55.5428114573908
20
7.66347438345872
30
0
41
1
10
55.6340526976135
20
7.11071477172732
30
0
41
1
10
55.816535178059
20
5.96545031464569
30
0
41
1
10
55.9077764182817
20
5.37303797435666
30
0
41
1
10
56.0902588987271
20
4.17152172508492
30
0
41
1
10
56.1815001389498
20
3.56249547718122
30
0
41
1
10
56.3639826193952
20
2.3492088494173
30
0
41
1
10
56.455223859618
20
1.74499776158339
30
0
41
1
10
56.592085719952
20
0.855691188514413
30
0
41
1
10
56.6377063400634
20
0.562058517043852
30
0
41
1
10
56.6947321152025
20
0.199653706130704
30
0
41
1
10
56.7061372702304
20
0.127403833241743
30
0
41
1
10
56.7289475802861
20
-0.0166082847782718
30
0
41
1
10
56.7403527353139
20
-0.0884550279791938
30
0
41
1
10
56.7745682003974
20
-0.305176078611225
30
0
41
1
10
56.7973785104531
20
-0.450608126836329
30
0
41
1
10
56.9114300607315
20
-1.18199342503402
30
0
41
1
10
57.0026713009542
20
-1.78079649806313
30
0
41
1
10
57.1851537813996
20
-2.98932393523185
30
0
41
1
10
57.2763950216223
20
-3.59900897212836
30
0
41
1
10
57.4588775020678
20
-4.80884928742751
30
0
41
1
10
57.5501187422905
20
-5.40893486720091
30
0
41
1
10
57.7326012227358
20
-6.57680472548546
30
0
41
1
10
57.8238424629585
20
-7.14449910323529
30
0
41
1
10
58.0063249434039
20
-8.22493900120074
30
0
41
1
10
58.0975661836267
20
-8.73759407940511
30
0
41
1
10
58.2800486640721
20
-9.68822028732876
30
0
41
1
10
58.3712899042948
20
-10.1261231324281
30
0
41
1
10
58.5537723847403
20
-10.9128896462002
30
0
41
1
10
58.645013624963
20
-11.2617237306044
30
0
41
1
10
58.8274961054084
20
-11.8628994323382
30
0
41
1
10
58.9187373456311
20
-12.1152539420228
30
0
41
1
10
59.1012198260765
20
-12.5231706639882
30
0
41
1
10
59.1924610662992
20
-12.6787790735544
30
0
41
1
10
59.3749435467446
20
-12.8991250890694
30
0
41
1
10
59.4661847869673
20
-12.9639256965415
30
0
41
1
10
59.5802363372457
20
-12.9946556827063
30
0
41
1
10
59.6030466473014
20
-12.9982964192228
30
0
41
1
10
59.6372621123849
20
-13.0001423343339
30
0
41
1
10
59.6486672674127
20
-13.0001581674209
30
0
41
1
10
59.6714775774684
20
-12.9989918670445
30
0
41
1
10
59.7285033526076
20
-12.9930670903133
30
0
41
1
10
59.7855291277468
20
-12.971777983626
30
0
41
1
10
59.9223909880809
20
-12.8890199609245
30
0
41
1
10
60.0136322283036
20
-12.7914901499173
30
0
41
1
10
60.196114708749
20
-12.5028474286191
30
0
41
1
10
60.2873559489717
20
-12.3116756894529
30
0
41
1
10
60.4698384294171
20
-11.8319241371857
30
0
41
1
10
60.5610796696398
20
-11.5433088059957
30
0
41
1
10
60.7435621500852
20
-10.8715006098784
30
0
41
1
10
60.8348033903078
20
-10.4883101835351
30
0
41
1
10
61.0172858707533
20
-9.63738440328203
30
0
41
1
10
61.108527110976
20
-9.16969421787616
30
0
41
1
10
61.2910095914214
20
-8.16629532623165
30
0
41
1
10
61.3822508316441
20
-7.6306655953845
30
0
41
1
10
61.5647333120896
20
-6.51249781692292
30
0
41
1
10
61.6559745523123
20
-5.93005269161509
30
0
41
1
10
61.8384570327577
20
-4.7412855142554
30
0
41
1
10
61.9296982729804
20
-4.13504773067945
30
0
41
1
10
62.1121807534258
20
-2.92090430116267
30
0
41
1
10
62.2034219936485
20
-2.31305765849888
30
0
41
1
10
62.3402838539826
20
-1.414423266445
30
0
41
1
10
62.385904474094
20
-1.11703862108089
30
0
41
1
10
62.454335404261
20
-0.675696018056158
30
0
41
1
10
62.4885508693445
20
-0.456205013547162
30
0
41
1
10
62.522766334428
20
-0.238734151549693
30
0
41
1
10
62.5455766444837
20
-0.0942280940633964
30
0
41
1
10
62.5569817995115
20
-0.022361214247411
30
0
41
1
10
62.5683869545393
20
0.0496318215408564
30
0
0
SPLINE
5
F9
100
AcDbEntity
8
1
62
256
6
ByLayer
370
13
48
1
60
0
100
AcDbSpline
70
4
71
3
72
43
73
39
40
0
40
0
40
0
40
0
40
0.0625000000000001
40
0.0625000000000001
40
0.125
40
0.125
40
0.1875
40
0.1875
40
0.25
40
0.25
40
0.257812500000001
40
0.257812500000001
40
0.265625000000001
40
0.281250000000001
40
0.281250000000001
40
0.312500000000001
40
0.312500000000001
40
0.375000000000001
40
0.375000000000001
40
0.437500000000001
40
0.437500000000001
40
0.500000000000001
40
0.500000000000001
40
0.562500000000001
40
0.562500000000001
40
0.625000000000001
40
0.625000000000001
40
0.687500000000001
40
0.687500000000001
40
0.75
40
0.75
40
0.8125
40
0.8125
40
0.875
40
0.875
40
0.9375
40
0.9375
40
1
40
1
40
1
40
1
41
1
10
50.9
20
-6.48984005981472
30
0
41
1
10
50.9814676676109
20
-5.97756385667856
30
0
41
1
10
51.0629353352216
20
-5.44977147458386
30
0
41
1
10
51.2258706704432
20
-4.37944843353375
30
0
41
1
10
51.307338338054
20
-3.8369629514184
30
0
41
1
10
51.4702736732756
20
-2.7527547773324
30
0
41
1
10
51.5517413408864
20
-2.21106337923558
30
0
41
1
10
51.714676676108
20
-1.14187784911982
30
0
41
1
10
51.7961443437189
20
-0.614399012930761
30
0
41
1
10
51.887795469781
20
-0.0349702774660159
30
0
41
1
10
51.8979789282324
20
0.0291142228007004
30
0
41
1
10
51.9183458451351
20
0.157852775134131
30
0
41
1
10
51.9488962204891
20
0.351538269234482
30
0
41
1
10
51.9794465958431
20
0.546876060577631
30
0
41
1
10
52.0405473465513
20
0.939523085554384
30
0
41
1
10
52.0812811803566
20
1.20392202210223
30
0
41
1
10
52.2034826817728
20
2.00296046232407
30
0
41
1
10
52.2849503493836
20
2.54352055997734
30
0
41
1
10
52.4478856846052
20
3.62732803253721
30
0
41
1
10
52.5293533522161
20
4.17054614799463
30
0
41
1
10
52.6922886874377
20
5.24440711433581
30
0
41
1
10
52.7737563550484
20
5.775006300309
30
0
41
1
10
52.9366916902701
20
6.80728348087513
30
0
41
1
10
53.0181593578809
20
7.30890938527236
30
0
41
1
10
53.1810946931024
20
8.26727457272656
30
0
41
1
10
53.2625623607132
20
8.723962829447
30
0
41
1
10
53.4254976959348
20
9.57845383602975
30
0
41
1
10
53.5069653635457
20
9.97621695859408
30
0
41
1
10
53.6699006987673
20
10.7022244837398
30
0
41
1
10
53.7513683663781
20
11.0304484293532
30
0
41
1
10
53.9143037015997
20
11.6110375272052
30
0
41
1
10
53.9957713692105
20
11.8634040679178
30
0
41
1
10
54.1587067044321
20
12.2905223494282
30
0
41
1
10
54.2401743720429
20
12.4652944606162
30
0
41
1
10
54.4031097072645
20
12.7397096827896
30
0
41
1
10
54.4845773748753
20
12.8393854053197
30
0
41
1
10
54.6475127100969
20
12.9695121001154
30
0
41
1
10
54.7289803777077
20
13
30
0
41
1
10
54.8104480453185
20
13
30
0
0
SPLINE
5
FA
100
AcDbEntity
8
1
62
256
6
ByLayer
370
13
48
1
60
0
100
AcDbSpline
70
4
71
3
72
87
73
83
40
0
40
0
40
0
40
0
40
0.0312500000000008
40
0.0312500000000008
40
0.0625000000000016
40
0.0625000000000016
40
0.0937500000000024
40
0.0937500000000024
40
0.125000000000003
40
0.125000000000003
40
0.156250000000004
40
0.156250000000004
40
0.187500000000005
40
0.187500000000005
40
0.218750000000006
40
0.218750000000006
40
0.250000000000006
40
0.250000000000006
40
0.281250000000007
40
0.281250000000007
40
0.312500000000008
40
0.312500000000008
40
0.316406250000008
40
0.316406250000008
40
0.320312500000008
40
0.328125000000008
40
0.328125000000008
40
0.343750000000008
40
0.343750000000008
40
0.375000000000007
40
0.375000000000007
40
0.406250000000007
40
0.406250000000007
40
0.437500000000007
40
0.437500000000007
40
0.468750000000007
40
0.468750000000007
40
0.500000000000006
40
0.500000000000006
40
0.531250000000006
40
0.531250000000006
40
0.562500000000006
40
0.562500000000006
40
0.593750000000006
40
0.593750000000006
40
0.625000000000006
40
0.625000000000006
40
0.628906250000005
40
0.628906250000005
40
0.632812500000005
40
0.632812500000005
40
0.640625000000005
40
0.640625000000005
40
0.656250000000005
40
0.656250000000005
40
0.687500000000005
40
0.687500000000005
40
0.718750000000004
40
0.718750000000004
40
0.750000000000004
40
0.750000000000004
40
0.781250000000004
40
0.781250000000004
40
0.812500000000004
40
0.812500000000004
40
0.843750000000003
40
0.843750000000003
40
0.875000000000003
40
0.875000000000003
40
0.906250000000003
40
0.906250000000003
40
0.937500000000002
40
0.937500000000002
40
0.945312500000002
40
0.945312500000002
40
0.949218750000002
40
0.949218750000002
40
0.953125000000002
40
0.953125000000002
40
0.968750000000001
40
0.968750000000001
40
1
40
1
40
1
40
1
41
1
10
53.3243566748694
20
13
30
0
41
1
10
53.4206486569493
20
13
30
0
41
1
10
53.5169406390292
20
12.9573619258489
30
0
41
1
10
53.7095246031891
20
12.7736038547842
30
0
41
1
10
53.8058165852689
20
12.6323995041953
30
0
41
1
10
53.9984005494287
20
12.243081824826
30
0
41
1
10
54.0946925315086
20
11.9949017825894
30
0
41
1
10
54.2872764956684
20
11.3905035107535
30
0
41
1
10
54.3835684777482
20
11.0342609290096
30
0
41
1
10
54.5761524419081
20
10.2213648502302
30
0
41
1
10
54.672444423988
20
9.76474483062105
30
0
41
1
10
54.8650283881477
20
8.76738546380281
30
0
41
1
10
54.9613203702276
20
8.22673380277789
30
0
41
1
10
55.1539043343874
20
7.08441437603489
30
0
41
1
10
55.2501963164673
20
6.48286510172861
30
0
41
1
10
55.4427802806271
20
5.2454662923362
30
0
41
1
10
55.539072262707
20
4.60973313033313
30
0
41
1
10
55.7316562268668
20
3.33064267457488
30
0
41
1
10
55.8279482089467
20
2.68737188834353
30
0
41
1
10
56.0205321731065
20
1.4167029319488
30
0
41
1
10
56.1168241551864
20
0.789348633612292
30
0
41
1
10
56.2251526350263
20
0.102812822436135
30
0
41
1
10
56.2371891327862
20
0.0269549432483132
30
0
41
1
10
56.2612621283062
20
-0.124998698018857
30
0
41
1
10
56.2973716215862
20
-0.353744711259992
30
0
41
1
10
56.3334811148661
20
-0.584805262356781
30
0
41
1
10
56.405700101426
20
-1.04962806306787
30
0
41
1
10
56.453846092466
20
-1.36312314136055
30
0
41
1
10
56.5982840655858
20
-2.31096872899857
30
0
41
1
10
56.6945760476657
20
-2.95282351171315
30
0
41
1
10
56.8871600118255
20
-4.23400788793214
30
0
41
1
10
56.9834519939054
20
-4.87325886840466
30
0
41
1
10
57.1760359580652
20
-6.12303323143573
30
0
41
1
10
57.2723279401452
20
-6.73344429964755
30
0
41
1
10
57.464911904305
20
-7.8985631116004
30
0
41
1
10
57.5612038863848
20
-8.4531501438218
30
0
41
1
10
57.7537878505446
20
-9.48247864959114
30
0
41
1
10
57.8500798326245
20
-9.95712404721189
30
0
41
1
10
58.0426637967843
20
-10.8086411803784
30
0
41
1
10
58.1389557788642
20
-11.1854678307613
30
0
41
1
10
58.331539743024
20
-11.8318393418463
30
0
41
1
10
58.4278317251039
20
-12.1013979297978
30
0
41
1
10
58.6204156892637
20
-12.5326252486109
30
0
41
1
10
58.7167076713436
20
-12.6943542167686
30
0
41
1
10
58.9092916355034
20
-12.9170410360366
30
0
41
1
10
59.0055836175833
20
-12.9780817610945
30
0
41
1
10
59.1139120974231
20
-12.997157079864
30
0
41
1
10
59.125948595183
20
-12.9985902570564
30
0
41
1
10
59.150021590703
20
-13.0001122167451
30
0
41
1
10
59.1620580884631
20
-13.0002040504368
30
0
41
1
10
59.198167581743
20
-12.9984810289716
30
0
41
1
10
59.222240577263
20
-12.9946511616227
30
0
41
1
10
59.2944595638229
20
-12.9747825093449
30
0
41
1
10
59.3426055548629
20
-12.9503569902621
30
0
41
1
10
59.4870435279827
20
-12.8410938853905
30
0
41
1
10
59.5833355100626
20
-12.7200828600979
30
0
41
1
10
59.7759194742224
20
-12.372295945306
30
0
41
1
10
59.8722114563023
20
-12.1454478558368
30
0
41
1
10
60.0647954204621
20
-11.5832716516961
30
0
41
1
10
60.161087402542
20
-11.2479091893385
30
0
41
1
10
60.3536713667018
20
-10.4745654686313
30
0
41
1
10
60.4499633487817
20
-10.0366059437178
30
0
41
1
10
60.6425473129415
20
-9.07275249942953
30
0
41
1
10
60.7388392950213
20
-8.54693694092251
30
0
41
1
10
60.9314232591812
20
-7.42935884052875
30
0
41
1
10
61.0277152412611
20
-6.83771125294766
30
0
41
1
10
61.2202992054208
20
-5.61476452088726
30
0
41
1
10
61.3165911875007
20
-4.9835847080964
30
0
41
1
10
61.5091751516605
20
-3.70853309082923
30
0
41
1
10
61.6054671337404
20
-3.06475519657485
30
0
41
1
10
61.7980510979002
20
-1.78882607850179
30
0
41
1
10
61.8943430799801
20
-1.15672730134125
30
0
41
1
10
62.0147080575799
20
-0.386017854559327
30
0
41
1
10
62.0387810530999
20
-0.232833113286574
30
0
41
1
10
62.0748905463799
20
-0.0046766641730471
30
0
41
1
10
62.0869270441399
20
0.0710833002135018
30
0
41
1
10
62.1110000396598
20
0.223499699422177
30
0
41
1
10
62.1230365374198
20
0.299973517235713
30
0
41
1
10
62.1832190262198
20
0.683594381866016
30
0
41
1
10
62.2313650172598
20
0.994510818363324
30
0
41
1
10
62.3758029903796
20
1.93604915546521
30
0
41
1
10
62.4720949724594
20
2.57561449048106
30
0
41
1
10
62.5683869545393
20
3.21630718096401
30
0
0
SPLINE
5
FB
100
AcDbEntity
8
1
62
256
6
ByLayer
370
13
48
1
60
0
100
AcDbSpline
70
4
71
3
72
42
73
38
40
0
40
0
40
0
40
0
40
0.062500000000001
40
0.062500000000001
40
0.125000000000002
40
0.125000000000002
40
0.140625000000002
40
0.140625000000002
40
0.156250000000002
40
0.156250000000002
40
0.187500000000002
40
0.187500000000002
40
0.250000000000002
40
0.250000000000002
40
0.312500000000002
40
0.312500000000002
40
0.375000000000002
40
0.375000000000002
40
0.437500000000001
40
0.437500000000001
40
0.500000000000001
40
0.500000000000001
40
0.562500000000001
40
0.562500000000001
40
0.625000000000001
40
0.625000000000001
40
0.687500000000001
40
0.687500000000001
40
0.750000000000001
40
0.750000000000001
40
0.8125
40
0.8125
40
0.875
40
0.875
40
0.9375
40
0.9375
40
1
40
1
40
1
40
1
41
1
10
50.9
20
-3.32104203274724
30
0
41
1
10
50.9713661838964
20
-2.84614830789388
30
0
41
1
10
51.0427323677929
20
-2.37146238738936
30
0
41
1
10
51.1854647355857
20
-1.43162623138827
30
0
41
1
10
51.2568309194822
20
-0.966485019304315
30
0
41
1
10
51.3460386493526
20
-0.395744747858288
30
0
41
1
10
51.3638801953268
20
-0.282126839804306
30
0
41
1
10
51.399563287275
20
-0.0560522982026441
30
0
41
1
10
51.4174048332491
20
0.0561024544836641
30
0
41
1
10
51.4709294711714
20
0.395214783671065
30
0
41
1
10
51.5066125631197
20
0.623615619344946
30
0
41
1
10
51.6136618389643
20
1.31454301150822
30
0
41
1
10
51.6850280228607
20
1.78284568500945
30
0
41
1
10
51.8277603906535
20
2.72685788805441
30
0
41
1
10
51.89912657455
20
3.2025565797374
30
0
41
1
10
52.0418589423429
20
4.15187589025834
30
0
41
1
10
52.1132251262393
20
4.62547848083113
30
0
41
1
10
52.2559574940321
20
5.5600388788084
30
0
41
1
10
52.3273236779285
20
6.02097271278035
30
0
41
1
10
52.4700560457214
20
6.91918355705039
30
0
41
1
10
52.5414222296179
20
7.35643342777462
30
0
41
1
10
52.6841545974107
20
8.19659790868042
30
0
41
1
10
52.7555207813071
20
8.5994861088038
30
0
41
1
10
52.8982531491
20
9.3614015736328
30
0
41
1
10
52.9696193329964
20
9.72040729538011
30
0
41
1
10
53.1123517007892
20
10.3869200243639
30
0
41
1
10
53.1837178846856
20
10.6944136725394
30
0
41
1
10
53.3264502524785
20
11.2526875451808
30
0
41
1
10
53.3978164363749
20
11.5034642369539
30
0
41
1
10
53.5405488041679
20
11.945770462907
30
0
41
1
10
53.6119149880642
20
12.1373059396466
30
0
41
1
10
53.7546473558571
20
12.461237607647
30
0
41
1
10
53.8260135397535
20
12.5936471709137
30
0
41
1
10
53.9687459075464
20
12.8017774987479
30
0
41
1
10
54.0401120914428
20
12.8775160589196
30
0
41
1
10
54.1828444592357
20
12.976617759948
30
0
41
1
10
54.254210643132
20
13
30
0
41
1
10
54.3255768270285
20
13
30
0
0
SPLINE
5
FC
100
AcDbEntity
8
1
62
256
6
ByLayer
370
13
48
1
60
0
100
AcDbSpline
70
4
71
3
72
87
73
83
40
0
40
0
40
0
40
0
40
0.031249999999999
40
0.031249999999999
40
0.062499999999998
40
0.062499999999998
40
0.093749999999997
40
0.093749999999997
40
0.124999999999996
40
0.124999999999996
40
0.156249999999995
40
0.156249999999995
40
0.187499999999994
40
0.187499999999994
40
0.218749999999993
40
0.218749999999993
40
0.249999999999992
40
0.249999999999992
40
0.281249999999991
40
0.281249999999991
40
0.296874999999991
40
0.296874999999991
40
0.300781249999991
40
0.300781249999991
40
0.304687499999991
40
0.312499999999991
40
0.312499999999991
40
0.34374999999999
40
0.34374999999999
40
0.37499999999999
40
0.37499999999999
40
0.40624999999999
40
0.40624999999999
40
0.43749999999999
40
0.43749999999999
40
0.46874999999999
40
0.46874999999999
40
0.49999999999999
40
0.49999999999999
40
0.53124999999999
40
0.53124999999999
40
0.56249999999999
40
0.56249999999999
40
0.59374999999999
40
0.59374999999999
40
0.59765624999999
40
0.59765624999999
40
0.60156249999999
40
0.60156249999999
40
0.60937499999999
40
0.60937499999999
40
0.62499999999999
40
0.62499999999999
40
0.656249999999991
40
0.656249999999991
40
0.687499999999991
40
0.687499999999991
40
0.718749999999992
40
0.718749999999992
40
0.749999999999993
40
0.749999999999993
40
0.781249999999993
40
0.781249999999993
40
0.812499999999994
40
0.812499999999994
40
0.843749999999994
40
0.843749999999994
40
0.874999999999995
40
0.874999999999995
40
0.890624999999995
40
0.890624999999995
40
0.898437499999995
40
0.898437499999995
40
0.902343749999996
40
0.902343749999996
40
0.906249999999996
40
0.906249999999996
40
0.937499999999997
40
0.937499999999997
40
0.968749999999999
40
0.968749999999999
40
1
40
1
40
1
40
1
41
1
10
52.8394854565794
20
13
30
0
41
1
10
52.9408281805165
20
13
30
0
41
1
10
53.0421709044536
20
12.9527519534753
30
0
41
1
10
53.2448563523277
20
12.7484864565068
30
0
41
1
10
53.3461990762648
20
12.5913606350805
30
0
41
1
10
53.548884524139
20
12.158079531803
30
0
41
1
10
53.6502272480761
20
11.881842588625
30
0
41
1
10
53.8529126959503
20
11.2102836509847
30
0
41
1
10
53.9542554198873
20
10.8149412500704
30
0
41
1
10
54.1569408677615
20
9.91597821494884
30
0
41
1
10
54.2582835916985
20
9.41241677088695
30
0
41
1
10
54.4609690395728
20
8.31814891934508
30
0
41
1
10
54.5623117635098
20
7.72756973104967
30
0
41
1
10
54.764997211384
20
6.48785377467485
30
0
41
1
10
54.8663399353211
20
5.83887355486061
30
0
41
1
10
55.0690253831952
20
4.51397210726907
30
0
41
1
10
55.1703681071323
20
3.83819012512277
30
0
41
1
10
55.3730535550065
20
2.48971776622412
30
0
41
1
10
55.4743962789436
20
1.81711669702727
30
0
41
1
10
55.6264103648492
20
0.829219871726195
30
0
41
1
10
55.6770817268177
20
0.503373582460455
30
0
41
1
10
55.7404209292784
20
0.101921252066148
30
0
41
1
10
55.7530887697705
20
0.022110120813835
30
0
41
1
10
55.7784244507548
20
-0.137858251673663
30
0
41
1
10
55.8164279722312
20
-0.378712254637719
30
0
41
1
10
55.8544314937076
20
-0.622116236233438
30
0
41
1
10
55.9811098986289
20
-1.43837796254601
30
0
41
1
10
56.082452622566
20
-2.10737478130281
30
0
41
1
10
56.2851380704402
20
-3.45381498345648
30
0
41
1
10
56.3864807943773
20
-4.13118021456225
30
0
41
1
10
56.5891662422514
20
-5.46517878468765
30
0
41
1
10
56.6905089661886
20
-6.12168053645388
30
0
41
1
10
56.8931944140627
20
-7.38234988569215
30
0
41
1
10
56.9945371379998
20
-7.98636079748192
30
0
41
1
10
57.197222585874
20
-9.11247988098933
30
0
41
1
10
57.298565309811
20
-9.63445172439489
30
0
41
1
10
57.5012507576853
20
-10.5735370149896
30
0
41
1
10
57.6025934816223
20
-10.9905764954225
30
0
41
1
10
57.8052789294965
20
-11.7067559617442
30
0
41
1
10
57.9066216534336
20
-12.0059018713565
30
0
41
1
10
58.1093071013077
20
-12.4842261101362
30
0
41
1
10
58.2106498252448
20
-12.6634769096666
30
0
41
1
10
58.413335273119
20
-12.9096621896107
30
0
41
1
10
58.514677997056
20
-12.9767027549176
30
0
41
1
10
58.6286885614853
20
-12.997132874678
30
0
41
1
10
58.6413564019774
20
-12.9986422770494
30
0
41
1
10
58.6666920829617
20
-13.0001727455975
30
0
41
1
10
58.6793599234538
20
-13.0001978748219
30
0
41
1
10
58.7173634449302
20
-12.9980555308073
30
0
41
1
10
58.7426991259145
20
-12.9936524866202
30
0
41
1
10
58.8187061688673
20
-12.9711291017858
30
0
41
1
10
58.8693775308358
20
-12.9436848441542
30
0
41
1
10
59.0213916167414
20
-12.8212437848361
30
0
41
1
10
59.1227343406785
20
-12.6859017804237
30
0
41
1
10
59.3254197885527
20
-12.2973164452928
30
0
41
1
10
59.4267625124898
20
-12.0439835622459
30
0
41
1
10
59.629447960364
20
-11.4174326574008
30
0
41
1
10
59.7307906843011
20
-11.0441804512857
30
0
41
1
10
59.9334761321752
20
-10.1865044494508
30
0
41
1
10
60.0348188561123
20
-9.70212464333798
30
0
41
1
10
60.2375043039865
20
-8.64152332874505
30
0
41
1
10
60.3388470279235
20
-8.06541847670181
30
0
41
1
10
60.5415324757977
20
-6.84885058227792
30
0
41
1
10
60.6428751997348
20
-6.20854220379314
30
0
41
1
10
60.845560647609
20
-4.89497813834302
30
0
41
1
10
60.946903371546
20
-4.22186815106366
30
0
41
1
10
61.1495888194202
20
-2.87335179270437
30
0
41
1
10
61.2509315433573
20
-2.19804559868908
30
0
41
1
10
61.4029456292629
20
-1.20292401701857
30
0
41
1
10
61.4536169912315
20
-0.874144779339446
30
0
41
1
10
61.5296240341843
20
-0.387340599590232
30
0
41
1
10
61.5549597151686
20
-0.22612992205552
30
0
41
1
10
61.592963236645
20
0.0138845411811417
30
0
41
1
10
61.6056310771371
20
0.0936656239619538
30
0
41
1
10
61.6309667581213
20
0.254206432987985
30
0
41
1
10
61.6436345986135
20
0.334769129370045
30
0
41
1
10
61.7576451630427
20
1.06230281771988
30
0
41
1
10
61.8589878869798
20
1.7268414795536
30
0
41
1
10
62.061673334854
20
3.06933468469552
30
0
41
1
10
62.163016058791
20
3.74722234989068
30
0
41
1
10
62.3657015066653
20
5.08810526827645
30
0
41
1
10
62.4670442306023
20
5.75097763261587
30
0
41
1
10
62.5683869545394
20
6.3906744231667
30
0
0
SPLINE
5
FD
100
AcDbEntity
8
1
62
256
6
ByLayer
370
13
48
1
60
0
100
AcDbSpline
70
4
71
3
72
41
73
37
40
0
40
0
40
0
40
0
40
0.0156249999999998
40
0.0156249999999998
40
0.0312499999999996
40
0.0624999999999995
40
0.0624999999999995
40
0.125
40
0.125
40
0.1875
40
0.1875
40
0.249999999999999
40
0.249999999999999
40
0.312499999999999
40
0.312499999999999
40
0.374999999999999
40
0.374999999999999
40
0.437499999999999
40
0.437499999999999
40
0.499999999999999
40
0.499999999999999
40
0.562499999999999
40
0.562499999999999
40
0.625
40
0.625
40
0.6875
40
0.6875
40
0.75
40
0.75
40
0.8125
40
0.8125
40
0.875
40
0.875
40
0.9375
40
0.9375
40
1
40
1
40
1
40
1
41
1
10
50.9
20
-0.149141714932199
30
0
41
1
10
50.9153161750455
20
-0.0521630119925476
30
0
41
1
10
50.930632350091
20
0.0441513691426394
30
0
41
1
10
50.961264700182
20
0.238061239802192
30
0
41
1
10
51.0072132253187
20
0.530217526094788
30
0
41
1
10
51.0531617504552
20
0.825970237768303
30
0
41
1
10
51.1450588007282
20
1.42144594051462
30
0
41
1
10
51.2063235009103
20
1.82375106760816
30
0
41
1
10
51.3288529012744
20
2.63391164553306
30
0
41
1
10
51.3901176014564
20
3.0417621077043
30
0
41
1
10
51.5126470018205
20
3.85709040793156
30
0
41
1
10
51.5739117020026
20
4.26456035139773
30
0
41
1
10
51.6964411023667
20
5.07257167479074
30
0
41
1
10
51.7577058025487
20
5.47310259434769
30
0
41
1
10
51.8802352029129
20
6.26032405136252
30
0
41
1
10
51.9414999030949
20
6.64700236847833
30
0
41
1
10
52.064029303459
20
7.39959472980485
30
0
41
1
10
52.125294003641
20
7.7654959996747
30
0
41
1
10
52.2478234040052
20
8.46997825811303
30
0
41
1
10
52.3090881041872
20
8.80854734667105
30
0
41
1
10
52.4316175045513
20
9.45255291003582
30
0
41
1
10
52.4928822047334
20
9.75797975228986
30
0
41
1
10
52.6154116050975
20
10.3309604242807
30
0
41
1
10
52.6766763052795
20
10.5985079759503
30
0
41
1
10
52.7992057056436
20
11.0923040923629
30
0
41
1
10
52.8604704058257
20
11.318550307926
30
0
41
1
10
52.9829998061898
20
11.7277632968235
30
0
41
1
10
53.0442645063719
20
11.9107316280703
30
0
41
1
10
53.1667939067359
20
12.2328651309154
30
0
41
1
10
53.228058606918
20
12.3720352054465
30
0
41
1
10
53.3505880072821
20
12.6074056597691
30
0
41
1
10
53.4118527074641
20
12.703613351327
30
0
41
1
10
53.5343821078282
20
12.8550625570633
30
0
41
1
10
53.5956468080103
20
12.9103126989361
30
0
41
1
10
53.7181762083744
20
12.9827769706495
30
0
41
1
10
53.7794409085565
20
13
30
0
41
1
10
53.8407056087385
20
13
30
0
0
SPLINE
5
FE
100
AcDbEntity
8
1
62
256
6
ByLayer
370
13
48
1
60
0
100
AcDbSpline
70
4
71
3
72
118
73
114
40
0
40
0
40
0
40
0
40
0.03125
40
0.03125
40
0.0625
40
0.0625
40
0.078125
40
0.078125
40
0.09375
40
0.09375
40
0.109375
40
0.109375
40
0.125
40
0.125
40
0.140625
40
0.140625
40
0.15625
40
0.15625
40
0.171875
40
0.171875
40
0.1875
40
0.1875
40
0.203125
40
0.203125
40
0.21875
40
0.21875
40
0.25
40
0.25
40
0.28125
40
0.28125
40
0.28515625
40
0.28515625
40
0.2890625
40
0.2890625
40
0.296875
40
0.296875
40
0.3125
40
0.3125
40
0.343750000000001
40
0.343750000000001
40
0.375000000000001
40
0.375000000000001
40
0.390625000000002
40
0.390625000000002
40
0.406250000000002
40
0.406250000000002
40
0.421875000000002
40
0.421875000000002
40
0.437500000000003
40
0.437500000000003
40
0.453125000000003
40
0.453125000000003
40
0.468750000000003
40
0.468750000000003
40
0.484375000000003
40
0.484375000000003
40
0.500000000000004
40
0.500000000000004
40
0.531250000000004
40
0.531250000000004
40
0.562500000000005
40
0.562500000000005
40
0.570312500000005
40
0.570312500000005
40
0.574218750000005
40
0.574218750000005
40
0.578125000000005
40
0.578125000000005
40
0.593750000000005
40
0.593750000000005
40
0.625000000000005
40
0.625000000000005
40
0.656250000000004
40
0.656250000000004
40
0.671875000000004
40
0.671875000000004
40
0.687500000000004
40
0.687500000000004
40
0.703125000000004
40
0.703125000000004
40
0.718750000000004
40
0.718750000000004
40
0.734375000000004
40
0.734375000000004
40
0.750000000000004
40
0.750000000000004
40
0.765625000000004
40
0.765625000000004
40
0.781250000000003
40
0.781250000000003
40
0.812500000000003
40
0.812500000000003
40
0.843750000000003
40
0.843750000000003
40
0.851562500000003
40
0.851562500000003
40
0.855468750000003
40
0.855468750000003
40
0.859375000000003
40
0.859375000000003
40
0.875000000000003
40
0.875000000000003
40
0.906250000000002
40
0.906250000000002
40
0.937500000000001
40
0.937500000000001
40
0.953125000000001
40
0.953125000000001
40
0.968750000000001
40
0.968750000000001
40
0.984375
40
0.984375
40
1
40
1
40
1
40
1
41
1
10
52.3546142382894
20
13
30
0
41
1
10
52.4610077040836
20
13
30
0
41
1
10
52.5674011698779
20
12.947901757823
30
0
41
1
10
52.7801881014664
20
12.7219795083293
30
0
41
1
10
52.8865815672607
20
12.5480181207746
30
0
41
1
10
53.0461717659522
20
12.1882490889296
30
0
41
1
10
53.0993684988493
20
12.0519292083393
30
0
41
1
10
53.2057619646435
20
11.7463042006995
30
0
41
1
10
53.2589586975406
20
11.576997167765
30
0
41
1
10
53.3653521633349
20
11.2059965852783
30
0
41
1
10
53.4185488962321
20
11.0043026536902
30
0
41
1
10
53.5249423620263
20
10.5699589052826
30
0
41
1
10
53.5781390949235
20
10.3373104031405
30
0
41
1
10
53.6845325607178
20
9.84330657180166
30
0
41
1
10
53.7377292936149
20
9.58195424545229
30
0
41
1
10
53.8441227594092
20
9.03354526520084
30
0
41
1
10
53.8973194923064
20
8.74649309917396
30
0
41
1
10
54.0037129581006
20
8.15032704060465
30
0
41
1
10
54.0569096909977
20
7.84121874478635
30
0
41
1
10
54.1633031567919
20
7.20507024296904
30
0
41
1
10
54.2164998896891
20
6.87803624664625
30
0
41
1
10
54.3228933554834
20
6.21047425837335
30
0
41
1
10
54.3760900883806
20
5.86995254716547
30
0
41
1
10
54.4824835541748
20
5.17997166056341
30
0
41
1
10
54.535680287072
20
4.83051832689873
30
0
41
1
10
54.6952704857634
20
3.7754892016435
30
0
41
1
10
54.8016639515576
20
3.0634406891227
30
0
41
1
10
55.0144508831461
20
1.65457427609931
30
0
41
1
10
55.1208443489404
20
0.957840202559538
30
0
41
1
10
55.240536997959
20
0.196971935768318
30
0
41
1
10
55.2538361811833
20
0.112744492327153
30
0
41
1
10
55.2804345476319
20
-0.0550431671816227
30
0
41
1
10
55.2937337308561
20
-0.138993522104045
30
0
41
1
10
55.3336312805289
20
-0.3921817430857
30
0
41
1
10
55.3602296469776
20
-0.562247702819974
30
0
41
1
10
55.4400247463233
20
-1.07575129603782
30
0
41
1
10
55.4932214792204
20
-1.42251090185454
30
0
41
1
10
55.6528116779117
20
-2.47133609112106
30
0
41
1
10
55.759205143706
20
-3.18215327068091
30
0
41
1
10
55.9719920752946
20
-4.59610413252881
30
0
41
1
10
56.0783855410889
20
-5.29909830596114
30
0
41
1
10
56.2379757397803
20
-6.32086579694646
30
0
41
1
10
56.2911724726774
20
-6.6559764601609
30
0
41
1
10
56.3975659384717
20
-7.31072602751016
30
0
41
1
10
56.4507626713688
20
-7.63035861582958
30
0
41
1
10
56.557156137163
20
-8.24982673868047
30
0
41
1
10
56.6103528700602
20
-8.54965626891212
30
0
41
1
10
56.7167463358545
20
-9.12558155570602
30
0
41
1
10
56.7699430687516
20
-9.40167215077074
30
0
41
1
10
56.8763365345459
20
-9.92674094632824
30
0
41
1
10
56.9295332674431
20
-10.1757152792558
30
0
41
1
10
57.0359267332374
20
-10.6438681155162
30
0
41
1
10
57.0891234661344
20
-10.8630443496701
30
0
41
1
10
57.1955169319287
20
-11.2697058148345
30
0
41
1
10
57.2487136648259
20
-11.4571904926169
30
0
41
1
10
57.3551071306201
20
-11.7994045407039
30
0
41
1
10
57.4083038635172
20
-11.9541349984044
30
0
41
1
10
57.5678940622087
20
-12.368830532706
30
0
41
1
10
57.6742875280029
20
-12.578969257272
30
0
41
1
10
57.8870744595915
20
-12.8735009842345
30
0
41
1
10
57.9934679253858
20
-12.9580255320856
30
0
41
1
10
58.1264597576286
20
-12.9951193580308
30
0
41
1
10
58.1530581240772
20
-12.9991260666736
30
0
41
1
10
58.19295567375
20
-13.0002447071961
30
0
41
1
10
58.2062548569743
20
-12.9998077885571
30
0
41
1
10
58.2328532234228
20
-12.9972860522277
30
0
41
1
10
58.2461524066471
20
-12.9951996506302
30
0
41
1
10
58.3126483227685
20
-12.980545616463
30
0
41
1
10
58.3658450556656
20
-12.9552986937566
30
0
41
1
10
58.5254352543571
20
-12.8356551346583
30
0
41
1
10
58.6318287201513
20
-12.6970707017964
30
0
41
1
10
58.8446156517399
20
-12.2899155575948
30
0
41
1
10
58.9510091175341
20
-12.0212307136446
30
0
41
1
10
59.1105993162256
20
-11.5191675404274
30
0
41
1
10
59.1637960491227
20
-11.335401073396
30
0
41
1
10
59.270189514917
20
-10.9360118970456
30
0
41
1
10
59.3233862478141
20
-10.7203895454974
30
0
41
1
10
59.4297797136084
20
-10.2590862352227
30
0
41
1
10
59.4829764465055
20
-10.0134073511322
30
0
41
1
10
59.5893699122998
20
-9.49458457522044
30
0
41
1
10
59.6425666451969
20
-9.22144437982192
30
0
41
1
10
59.7489601109912
20
-8.6510014159544
30
0
41
1
10
59.8021568438883
20
-8.35370368123989
30
0
41
1
10
59.9085503096826
20
-7.73882467211624
30
0
41
1
10
59.9617470425797
20
-7.42124933149211
30
0
41
1
10
60.068140508374
20
-6.77010439930015
30
0
41
1
10
60.1213372412711
20
-6.43654111555446
30
0
41
1
10
60.2277307070654
20
-5.75793411152324
30
0
41
1
10
60.2809274399625
20
-5.41289653607825
30
0
41
1
10
60.440517638654
20
-4.3673873704077
30
0
41
1
10
60.5469111044482
20
-3.65668212255378
30
0
41
1
10
60.7596980360368
20
-2.24194596815232
30
0
41
1
10
60.8660915018311
20
-1.53802099123615
30
0
41
1
10
60.9990833340739
20
-0.679705266215421
30
0
41
1
10
61.0256817005224
20
-0.509102211224814
30
0
41
1
10
61.0655792501953
20
-0.255051445956752
30
0
41
1
10
61.0788784334195
20
-0.170676563345694
30
0
41
1
10
61.1054767998681
20
-0.0025849754347576
30
0
41
1
10
61.1187759830924
20
0.0811176670622729
30
0
41
1
10
61.1852718992139
20
0.502363064504664
30
0
41
1
10
61.238468632111
20
0.844546007099666
30
0
41
1
10
61.3980588308023
20
1.88237324809066
30
0
41
1
10
61.5044522965966
20
2.58952676370572
30
0
41
1
10
61.7172392281853
20
4.00546121063425
30
0
41
1
10
61.8236326939795
20
4.71412342993557
30
0
41
1
10
61.9832228926709
20
5.75208004929345
30
0
41
1
10
62.036419625568
20
6.09385771347004
30
0
41
1
10
62.1428130913622
20
6.76445167120227
30
0
41
1
10
62.1960098242594
20
7.09326170979656
30
0
41
1
10
62.3024032900537
20
7.73345922873642
30
0
41
1
10
62.3556000229508
20
8.04484046367349
30
0
41
1
10
62.4619934887451
20
8.6460046870202
30
0
41
1
10
62.5151902216422
20
8.9357819816654
30
0
41
1
10
62.5683869545393
20
9.21290566373133
30
0
0
SPLINE
5
FF
100
AcDbEntity
8
1
62
256
6
ByLayer
370
13
48
1
60
0
100
AcDbSpline
70
4
71
3
72
22
73
18
40
0
40
0
40
0
40
0
40
0.125
40
0.125
40
0.25
40
0.25
40
0.375
40
0.375
40
0.5
40
0.5
40
0.625
40
0.625
40
0.75
40
0.75
40
0.875
40
0.875
40
1
40
1
40
1
40
1
41
1
10
50.9
20
3.00691393837462
30
0
41
1
10
51.0023264329353
20
3.68739400076677
30
0
41
1
10
51.1046528658707
20
4.37055018033601
30
0
41
1
10
51.3093057317414
20
5.71186191360849
30
0
41
1
10
51.4116321646768
20
6.36987410530338
30
0
41
1
10
51.6162850305475
20
7.62835852731038
30
0
41
1
10
51.7186114634828
20
8.22866627208774
30
0
41
1
10
51.9232643293535
20
9.34196482541603
30
0
41
1
10
52.0255907622889
20
9.85481956231556
30
0
41
1
10
52.2302436281596
20
10.7709030578864
30
0
41
1
10
52.332570061095
20
11.1740664911361
30
0
41
1
10
52.5372229269657
20
11.8590912206536
30
0
41
1
10
52.639549359901
20
12.1409716242328
30
0
41
1
10
52.8442022257717
20
12.5831001709499
30
0
41
1
10
52.9465286587071
20
12.7434330556521
30
0
41
1
10
53.1511815245778
20
12.9518261654708
30
0
41
1
10
53.2535079575131
20
13
30
0
41
1
10
53.3558343904485
20
13
30
0
0
SPLINE
5
100
100
AcDbEntity
8
1
62
256
6
ByLayer
370
13
48
1
60
0
100
AcDbSpline
70
4
71
3
72
142
73
138
40
0
40
0
40
0
40
0
40
0.03125
40
0.03125
40
0.046875
40
0.046875
40
0.0625000000000001
40
0.0625000000000001
40
0.0781250000000002
40
0.0781250000000002
40
0.0937500000000002
40
0.0937500000000002
40
0.109375
40
0.109375
40
0.125
40
0.125
40
0.140625
40
0.140625
40
0.15625
40
0.15625
40
0.171875
40
0.171875
40
0.1875
40
0.1875
40
0.203125000000001
40
0.203125000000001
40
0.218750000000001
40
0.218750000000001
40
0.234375000000001
40
0.234375000000001
40
0.250000000000001
40
0.250000000000001
40
0.265625000000001
40
0.265625000000001
40
0.26953125
40
0.26953125
40
0.2734375
40
0.2734375
40
0.28125
40
0.28125
40
0.296875
40
0.296875
40
0.3125
40
0.3125
40
0.328125000000001
40
0.328125000000001
40
0.343750000000001
40
0.343750000000001
40
0.359375000000001
40
0.359375000000001
40
0.375
40
0.375
40
0.390625
40
0.390625
40
0.40625
40
0.40625
40
0.421875
40
0.421875
40
0.4375
40
0.4375
40
0.453125
40
0.453125
40
0.46875
40
0.46875
40
0.484375
40
0.484375
40
0.5
40
0.5
40
0.515625
40
0.515625
40
0.53125
40
0.53125
40
0.539062500000001
40
0.539062500000001
40
0.542968750000001
40
0.542968750000001
40
0.546875000000001
40
0.546875000000001
40
0.562500000000001
40
0.562500000000001
40
0.578125000000001
40
0.578125000000001
40
0.593750000000001
40
0.593750000000001
40
0.609375000000001
40
0.609375000000001
40
0.625000000000001
40
0.625000000000001
40
0.640625000000001
40
0.640625000000001
40
0.656250000000001
40
0.656250000000001
40
0.671875000000001
40
0.671875000000001
40
0.687500000000002
40
0.687500000000002
40
0.703125000000002
40
0.703125000000002
40
0.718750000000002
40
0.718750000000002
40
0.734375000000002
40
0.734375000000002
40
0.750000000000002
40
0.750000000000002
40
0.765625000000002
40
0.765625000000002
40
0.781250000000002
40
0.781250000000002
40
0.812500000000002
40
0.812500000000002
40
0.816406250000002
40
0.816406250000002
40
0.820312500000002
40
0.820312500000002
40
0.828125000000002
40
0.828125000000002
40
0.843750000000002
40
0.843750000000002
40
0.859375000000002
40
0.859375000000002
40
0.875000000000002
40
0.875000000000002
40
0.890625000000001
40
0.890625000000001
40
0.906250000000001
40
0.906250000000001
40
0.921875000000001
40
0.921875000000001
40
0.937500000000001
40
0.937500000000001
40
0.953125000000001
40
0.953125000000001
40
0.96875
40
0.96875
40
0.984375
40
0.984375
40
1
40
1
40
1
40
1
41
1
10
51.8697430199994
20
13
30
0
41
1
10
51.9811872276509
20
13
30
0
41
1
10
52.0926314353023
20
12.9428105356129
30
0
41
1
10
52.2597977467795
20
12.756258536696
30
0
41
1
10
52.3155198506052
20
12.6773301593363
30
0
41
1
10
52.4269640582566
20
12.4843132379627
30
0
41
1
10
52.4826861620824
20
12.370219846828
30
0
41
1
10
52.5941303697338
20
12.1059476131001
30
0
41
1
10
52.6498524735595
20
11.9557650955284
30
0
41
1
10
52.761296681211
20
11.6192764096105
30
0
41
1
10
52.8170187850368
20
11.4329682655531
30
0
41
1
10
52.9284629926882
20
11.0251639477398
30
0
41
1
10
52.9841850965139
20
10.8036678894442
30
0
41
1
10
53.0956293041654
20
10.3274264419264
30
0
41
1
10
53.1513514079911
20
10.0726834308326
30
0
41
1
10
53.2627956156426
20
9.53285287163646
30
0
41
1
10
53.3185177194684
20
9.24776986271331
30
0
41
1
10
53.4299619271198
20
8.65102576299523
30
0
41
1
10
53.4856840309455
20
8.33937099494995
30
0
41
1
10
53.597128238597
20
7.69394683762576
30
0
41
1
10
53.6528503424227
20
7.36018495344376
30
0
41
1
10
53.7642945500741
20
6.67549708701475
30
0
41
1
10
53.8200166538999
20
6.32457906367443
30
0
41
1
10
53.9314608615514
20
5.6107816299403
30
0
41
1
10
53.9871829653771
20
5.24790989399281
30
0
41
1
10
54.0986271730285
20
4.51542259486598
30
0
41
1
10
54.1543492768543
20
4.14581378435932
30
0
41
1
10
54.2657934845058
20
3.40486598731144
30
0
41
1
10
54.3215155883314
20
3.03353237532321
30
0
41
1
10
54.4329597959828
20
2.29376122156901
30
0
41
1
10
54.4886818998086
20
1.92532743740372
30
0
41
1
10
54.6001261074602
20
1.19545707267699
30
0
41
1
10
54.6558482112859
20
0.834022604715415
30
0
41
1
10
54.725500841068
20
0.38878279764333
30
0
41
1
10
54.7394313670244
20
0.300060936014802
30
0
41
1
10
54.7672924189373
20
0.123317531984696
30
0
41
1
10
54.7812229448938
20
0.0355016577528318
30
0
41
1
10
54.8230145227631
20
-0.228323580669184
30
0
41
1
10
54.8508755746758
20
-0.405664469547958
30
0
41
1
10
54.9344587304144
20
-0.94148503649933
30
0
41
1
10
54.9901808342402
20
-1.30378237251193
30
0
41
1
10
55.1016250418917
20
-2.0349972691705
30
0
41
1
10
55.1573471457174
20
-2.40391255760963
30
0
41
1
10
55.2687913533688
20
-3.14420853732977
30
0
41
1
10
55.3245134571946
20
-3.51558530568565
30
0
41
1
10
55.435957664846
20
-4.25613570048989
30
0
41
1
10
55.4916797686717
20
-4.62530380096379
30
0
41
1
10
55.6031239763233
20
-5.35639671043734
30
0
41
1
10
55.6588460801489
20
-5.71831465123455
30
0
41
1
10
55.7702902878005
20
-6.42968263897768
30
0
41
1
10
55.8260123916262
20
-6.77912495222907
30
0
41
1
10
55.9374565992776
20
-7.46035372266996
30
0
41
1
10
55.9931787031033
20
-7.79213223225744
30
0
41
1
10
56.1046229107548
20
-8.43311997717763
30
0
41
1
10
56.1603450145805
20
-8.7423217935864
30
0
41
1
10
56.2717892222319
20
-9.33375071571149
30
0
41
1
10
56.3275113260578
20
-9.61597165219246
30
0
41
1
10
56.4389555337092
20
-10.1497479210748
30
0
41
1
10
56.4946776375349
20
-10.401298916638
30
0
41
1
10
56.6061218451863
20
-10.8709186371164
30
0
41
1
10
56.6618439490121
20
-11.0889852090977
30
0
41
1
10
56.7732881566635
20
-11.4897921090579
30
0
41
1
10
56.8290102604892
20
-11.672532541428
30
0
41
1
10
56.9404544681407
20
-12.0018466256164
30
0
41
1
10
56.9961765719665
20
-12.1484224426701
30
0
41
1
10
57.1076207796179
20
-12.4055351471781
30
0
41
1
10
57.1633428834437
20
-12.5160758512036
30
0
41
1
10
57.2747870910951
20
-12.7021230764917
30
0
41
1
10
57.3305091949208
20
-12.7776345303035
30
0
41
1
10
57.4419534025723
20
-12.895371494647
30
0
41
1
10
57.497675506398
20
-12.9376024867824
30
0
41
1
10
57.5812586621365
20
-12.9777345039382
30
0
41
1
10
57.6091197140495
20
-12.9872468094461
30
0
41
1
10
57.6509112919188
20
-12.9959665758971
30
0
41
1
10
57.6648418178752
20
-12.9979485705089
30
0
41
1
10
57.6927028697881
20
-13.0001068868599
30
0
41
1
10
57.7066333957445
20
-13.0002874821747
30
0
41
1
10
57.7762860255267
20
-12.9967311935964
30
0
41
1
10
57.8320081293524
20
-12.9794992089071
30
0
41
1
10
57.9434523370038
20
-12.9135908919731
30
0
41
1
10
57.9991744408295
20
-12.8649090160936
30
0
41
1
10
58.1106186484811
20
-12.7338704876522
30
0
41
1
10
58.1663407523068
20
-12.6515084189276
30
0
41
1
10
58.2777849599583
20
-12.4514957772004
30
0
41
1
10
58.333507063784
20
-12.3338404481922
30
0
41
1
10
58.4449512714355
20
-12.0623989957914
30
0
41
1
10
58.5006733752611
20
-11.9086093443076
30
0
41
1
10
58.6121175829126
20
-11.5649548719358
30
0
41
1
10
58.6678396867383
20
-11.3750882688098
30
0
41
1
10
58.7792838943897
20
-10.9603150173019
30
0
41
1
10
58.8350059982155
20
-10.7354087059734
30
0
41
1
10
58.946450205867
20
-10.2525936121033
30
0
41
1
10
59.0021723096927
20
-9.99468743188228
30
0
41
1
10
59.1136165173442
20
-9.44886885009723
30
0
41
1
10
59.1693386211699
20
-9.16096118627522
30
0
41
1
10
59.2807828288213
20
-8.55898367748995
30
0
41
1
10
59.3365049326471
20
-8.24492030276099
30
0
41
1
10
59.4479491402985
20
-7.59515326230422
30
0
41
1
10
59.5036712441243
20
-7.25945718053941
30
0
41
1
10
59.6151154517757
20
-6.57141106902657
30
0
41
1
10
59.6708375556015
20
-6.21906900209282
30
0
41
1
10
59.7822817632529
20
-5.50294558660227
30
0
41
1
10
59.8380038670786
20
-5.13917184687162
30
0
41
1
10
59.9494480747301
20
-4.40539169396772
30
0
41
1
10
60.0051701785559
20
-4.03539191339269
30
0
41
1
10
60.1166143862074
20
-3.29414232310342
30
0
41
1
10
60.172336490033
20
-2.92289773416454
30
0
41
1
10
60.3395028015102
20
-1.81415798781359
30
0
41
1
10
60.4509470091616
20
-1.08197720397496
30
0
41
1
10
60.5763217427695
20
-0.282915123688269
30
0
41
1
10
60.590252268726
20
-0.194466273798014
30
0
41
1
10
60.6181133206389
20
-0.0182873263931072
30
0
41
1
10
60.6320438465953
20
0.069350702940767
30
0
41
1
10
60.6738354244646
20
0.334033858202474
30
0
41
1
10
60.7016964763775
20
0.511910239871696
30
0
41
1
10
60.785279632116
20
1.04921572632577
30
0
41
1
10
60.8410017359418
20
1.41234077208685
30
0
41
1
10
60.9524459435932
20
2.14482384586421
30
0
41
1
10
61.008168047419
20
2.51417944074737
30
0
41
1
10
61.1196122550704
20
3.25491272712532
30
0
41
1
10
61.1753343588962
20
3.62628633081022
30
0
41
1
10
61.2867785665475
20
4.36634296730247
30
0
41
1
10
61.3425006703734
20
4.73502032529098
30
0
41
1
10
61.4539448780248
20
5.46461692692523
30
0
41
1
10
61.5096669818505
20
5.825529191589
30
0
41
1
10
61.6211111895019
20
6.53436431968251
30
0
41
1
10
61.6768332933277
20
6.88227939668604
30
0
41
1
10
61.7882775009791
20
7.55994873855039
30
0
41
1
10
61.8439996048049
20
7.88969507455539
30
0
41
1
10
61.9554438124563
20
8.526153857048
30
0
41
1
10
62.0111659162821
20
8.83285897801653
30
0
41
1
10
62.1226101239335
20
9.41889234321428
30
0
41
1
10
62.1783322277593
20
9.69821457756578
30
0
41
1
10
62.2897764354107
20
10.2258719968241
30
0
41
1
10
62.3454985392365
20
10.4742030507506
30
0
41
1
10
62.4569427468878
20
10.9371548716008
30
0
41
1
10
62.5126648507136
20
11.151773711504
30
0
41
1
10
62.5683869545394
20
11.3486651978408
30
0
0
SPLINE
5
101
100
AcDbEntity
8
1
62
256
6
ByLayer
370
13
48
1
60
0
100
AcDbSpline
70
4
71
3
72
10
73
6
40
0
40
0
40
0
40
0
40
0.5
40
0.5
40
1
40
1
40
1
40
1
41
1
10
62.0520386040896
20
13
30
0
41
1
10
62.1380966624979
20
13
30
0
41
1
10
62.2241547209062
20
12.9659692553693
30
0
41
1
10
62.3962708377228
20
12.8202734137489
30
0
41
1
10
62.4823288961311
20
12.7085598548283
30
0
41
1
10
62.5683869545394
20
12.5546871717896
30
0
0
SPLINE
5
102
100
AcDbEntity
8
1
62
256
6
ByLayer
370
13
48
1
60
0
100
AcDbSpline
70
4
71
3
72
22
73
18
40
0
40
0
40
0
40
0
40
0.125
40
0.125
40
0.25
40
0.25
40
0.375
40
0.375
40
0.5
40
0.5
40
0.625
40
0.625
40
0.75
40
0.75
40
0.875
40
0.875
40
1
40
1
40
1
40
1
41
1
10
50.9
20
6.19125162387658
30
0
41
1
10
50.9821234655067
20
6.71338962583695
30
0
41
1
10
51.0642469310133
20
7.22131738258454
30
0
41
1
10
51.2284938620264
20
8.19243530760426
30
0
41
1
10
51.310617327533
20
8.65557201468044
30
0
41
1
10
51.4748642585462
20
9.52262304702404
30
0
41
1
10
51.5569877240529
20
9.92649533717247
30
0
41
1
10
51.721234655066
20
10.6639472626396
30
0
41
1
10
51.8033581205726
20
10.9975047093251
30
0
41
1
10
51.9676050515858
20
11.5876631425224
30
0
41
1
10
52.0497285170924
20
11.8442648579911
30
0
41
1
10
52.2139754481057
20
12.2785824812311
30
0
41
1
10
52.2960989136123
20
12.4563191816212
30
0
41
1
10
52.4603458446254
20
12.7353728540065
30
0
41
1
10
52.5424693101321
20
12.8367236255868
30
0
41
1
10
52.7067162411453
20
12.969017984962
30
0
41
1
10
52.7888397066519
20
13
30
0
41
1
10
52.8709631721585
20
13
30
0
0
SPLINE
5
103
100
AcDbEntity
8
1
62
256
6
ByLayer
370
13
48
1
60
0
100
AcDbSpline
70
4
71
3
72
145
73
141
40
0
40
0
40
0
40
0
40
0.0156250000000001
40
0.0156250000000001
40
0.0312500000000002
40
0.0312500000000002
40
0.0468750000000002
40
0.0468750000000002
40
0.0625000000000003
40
0.0625000000000003
40
0.0781250000000004
40
0.0781250000000004
40
0.0937500000000005
40
0.0937500000000005
40
0.109375000000001
40
0.109375000000001
40
0.125000000000001
40
0.125000000000001
40
0.140625000000001
40
0.140625000000001
40
0.156250000000001
40
0.156250000000001
40
0.171875000000001
40
0.171875000000001
40
0.187500000000001
40
0.187500000000001
40
0.203125000000001
40
0.203125000000001
40
0.218750000000001
40
0.218750000000001
40
0.234375000000001
40
0.234375000000001
40
0.250000000000001
40
0.250000000000001
40
0.257812500000001
40
0.257812500000001
40
0.261718750000001
40
0.261718750000001
40
0.265625000000001
40
0.265625000000001
40
0.281250000000001
40
0.281250000000001
40
0.296875000000001
40
0.296875000000001
40
0.312500000000001
40
0.312500000000001
40
0.328125000000001
40
0.328125000000001
40
0.343750000000001
40
0.343750000000001
40
0.359375000000001
40
0.359375000000001
40
0.375000000000001
40
0.375000000000001
40
0.390625000000001
40
0.390625000000001
40
0.406250000000001
40
0.406250000000001
40
0.421875000000001
40
0.421875000000001
40
0.437500000000001
40
0.437500000000001
40
0.453125000000001
40
0.453125000000001
40
0.468750000000001
40
0.468750000000001
40
0.484375000000002
40
0.484375000000002
40
0.500000000000001
40
0.500000000000001
40
0.515625000000002
40
0.515625000000002
40
0.519531250000002
40
0.519531250000002
40
0.523437500000002
40
0.523437500000002
40
0.531250000000002
40
0.531250000000002
40
0.546875000000001
40
0.546875000000001
40
0.562500000000001
40
0.562500000000001
40
0.578125000000001
40
0.578125000000001
40
0.593750000000001
40
0.593750000000001
40
0.609375000000001
40
0.609375000000001
40
0.625000000000001
40
0.625000000000001
40
0.640625000000001
40
0.640625000000001
40
0.65625
40
0.65625
40
0.671875
40
0.671875
40
0.6875
40
0.6875
40
0.703125
40
0.703125
40
0.71875
40
0.71875
40
0.734375
40
0.734375
40
0.75
40
0.75
40
0.765624999999999
40
0.765624999999999
40
0.781249999999999
40
0.781249999999999
40
0.785156249999999
40
0.785156249999999
40
0.789062499999999
40
0.796874999999999
40
0.796874999999999
40
0.812499999999999
40
0.812499999999999
40
0.828124999999999
40
0.828124999999999
40
0.843749999999999
40
0.843749999999999
40
0.859374999999999
40
0.859374999999999
40
0.874999999999999
40
0.874999999999999
40
0.890625
40
0.890625
40
0.90625
40
0.90625
40
0.921875
40
0.921875
40
0.9375
40
0.9375
40
0.953125
40
0.953125
40
0.96875
40
0.96875
40
0.984375
40
0.984375
40
1
40
1
40
1
40
1
41
1
10
51.3848718017094
20
13
30
0
41
1
10
51.4431192764637
20
13
30
0
41
1
10
51.5013667512181
20
12.9844336165781
30
0
41
1
10
51.6178617007267
20
12.9190865252253
30
0
41
1
10
51.676109175481
20
12.869298908963
30
0
41
1
10
51.7926041249896
20
12.7329418814203
30
0
41
1
10
51.8508515997439
20
12.6463657090286
30
0
41
1
10
51.9673465492525
20
12.4345986273525
30
0
41
1
10
52.0255940240069
20
12.3094018287918
30
0
41
1
10
52.1420889735155
20
12.0194877705311
30
0
41
1
10
52.2003364482699
20
11.8547662659628
30
0
41
1
10
52.3168313977786
20
11.4859793104988
30
0
41
1
10
52.3750788725328
20
11.2819119526204
30
0
41
1
10
52.4915738220415
20
10.8357868843727
30
0
41
1
10
52.5498212967958
20
10.5937300789855
30
0
41
1
10
52.6663162463045
20
10.0741733899832
30
0
41
1
10
52.7245637210588
20
9.79667735979999
30
0
41
1
10
52.8410586705675
20
9.20991196045674
30
0
41
1
10
52.8993061453218
20
8.90064913227297
30
0
41
1
10
53.0158010948304
20
8.2549850144994
30
0
41
1
10
53.0740485695847
20
7.91859231727651
30
0
41
1
10
53.1905435190934
20
7.22403866617009
30
0
41
1
10
53.2487909938477
20
6.86588744875644
30
0
41
1
10
53.3652859433563
20
6.13364362191155
30
0
41
1
10
53.4235334181107
20
5.75956087527621
30
0
41
1
10
53.5400283676193
20
5.00143952864337
30
0
41
1
10
53.5982758423737
20
4.61740996433829
30
0
41
1
10
53.7147707918823
20
3.84525213118837
30
0
41
1
10
53.7730182666366
20
3.45713132700561
30
0
41
1
10
53.8895132161453
20
2.68226961122184
30
0
41
1
10
53.9477606908996
20
2.29553414377585
30
0
41
1
10
54.0642556404082
20
1.52834805410507
30
0
41
1
10
54.1225031151626
20
1.14790071601018
30
0
41
1
10
54.2098743272941
20
0.585093430521141
30
0
41
1
10
54.2389980646712
20
0.398795823381562
30
0
41
1
10
54.2826836707369
20
0.121646112884605
30
0
41
1
10
54.2972455394255
20
0.0298854057067217
30
0
41
1
10
54.3263692768027
20
-0.154024738004978
30
0
41
1
10
54.3409311454913
20
-0.246376689706437
30
0
41
1
10
54.4137404889341
20
-0.709987410599979
30
0
41
1
10
54.4719879636885
20
-1.08682912179429
30
0
41
1
10
54.5884829131972
20
-1.84851810703023
30
0
41
1
10
54.6467303879514
20
-2.23336291177449
30
0
41
1
10
54.7632253374601
20
-3.00641847793133
30
0
41
1
10
54.8214728122145
20
-3.39462463150065
30
0
41
1
10
54.9379677617231
20
-4.16913100383834
30
0
41
1
10
54.9962152364774
20
-4.55542450470622
30
0
41
1
10
55.1127101859861
20
-5.32037166720892
30
0
41
1
10
55.1709576607404
20
-5.69901682849891
30
0
41
1
10
55.2874526102489
20
-6.44270126065646
30
0
41
1
10
55.3457000850033
20
-6.80773088483116
30
0
41
1
10
55.462195034512
20
-7.51826102459543
30
0
41
1
10
55.5204425092663
20
-7.86375163380069
30
0
41
1
10
55.636937458775
20
-8.52962031473393
30
0
41
1
10
55.6951849335292
20
-8.84998923324039
30
0
41
1
10
55.8116798830379
20
-9.4606607904586
30
0
41
1
10
55.8699273577922
20
-9.7509560000729
30
0
41
1
10
55.9864223073009
20
-10.2974084846328
30
0
41
1
10
56.0446697820552
20
-10.5535608120519
30
0
41
1
10
56.1611647315638
20
-11.0287262934917
30
0
41
1
10
56.2194122063182
20
-11.2477373952391
30
0
41
1
10
56.3359071558268
20
-11.6467958444122
30
0
41
1
10
56.3941546305811
20
-11.8268440493721
30
0
41
1
10
56.5106495800897
20
-12.147346378659
30
0
41
1
10
56.5688970548441
20
-12.2878039154773
30
0
41
1
10
56.6853920043527
20
-12.5296230868038
30
0
41
1
10
56.743639479107
20
-12.6309900639876
30
0
41
1
10
56.8601344286158
20
-12.7961208365767
30
0
41
1
10
56.91838190337
20
-12.8598911464221
30
0
41
1
10
57.0348768528787
20
-12.9521349677236
30
0
41
1
10
57.093124327633
20
-12.9806154091337
30
0
41
1
10
57.165933671076
20
-12.9959776388263
30
0
41
1
10
57.1804955397645
20
-12.9980393659973
30
0
41
1
10
57.2096192771416
20
-13.0001910936477
30
0
41
1
10
57.2241811458303
20
-13.0002868038708
30
0
41
1
10
57.267866751896
20
-12.9976447476368
30
0
41
1
10
57.2969904892732
20
-12.9919491683076
30
0
41
1
10
57.3843617014046
20
-12.9624707184868
30
0
41
1
10
57.4426091761589
20
-12.9262782802211
30
0
41
1
10
57.5591041256676
20
-12.8180303511657
30
0
41
1
10
57.6173516004219
20
-12.7459679623036
30
0
41
1
10
57.7338465499306
20
-12.5638384769195
30
0
41
1
10
57.7920940246849
20
-12.4537650618453
30
0
41
1
10
57.9085889741935
20
-12.1943276235901
30
0
41
1
10
57.9668364489478
20
-12.0449586287766
30
0
41
1
10
58.0833313984564
20
-11.706672274678
30
0
41
1
10
58.1415788732108
20
-11.5177520314163
30
0
41
1
10
58.2580738227195
20
-11.1012542040324
30
0
41
1
10
58.3163212974738
20
-10.8736763987538
30
0
41
1
10
58.4328162469824
20
-10.3819518430961
30
0
41
1
10
58.4910637217368
20
-10.117807812665
30
0
41
1
10
58.6075586712454
20
-9.5561998357482
30
0
41
1
10
58.6658061459997
20
-9.25874144550585
30
0
41
1
10
58.7823010955084
20
-8.63478946506302
30
0
41
1
10
58.8405485702626
20
-8.30830376844833
30
0
41
1
10
58.9570435197714
20
-7.63141352092148
30
0
41
1
10
59.0152909945257
20
-7.28101838190423
30
0
41
1
10
59.1317859440343
20
-6.56199419378746
30
0
41
1
10
59.1900334187886
20
-6.19337507891845
30
0
41
1
10
59.3065283682973
20
-5.4438623114234
30
0
41
1
10
59.3647758430516
20
-5.06297811728041
30
0
41
1
10
59.4812707925603
20
-4.29487428234515
30
0
41
1
10
59.5395182673146
20
-3.90766278537504
30
0
41
1
10
59.6560132168231
20
-3.13255605655581
30
0
41
1
10
59.7142606915776
20
-2.74466708472744
30
0
41
1
10
59.8307556410862
20
-1.97335174332531
30
0
41
1
10
59.8890031158404
20
-1.58992949270095
30
0
41
1
10
60.0054980653491
20
-0.832032157972805
30
0
41
1
10
60.0637455401035
20
-0.457559083686192
30
0
41
1
10
60.1365548835464
20
0.0026082621847934
30
0
41
1
10
60.151116752235
20
0.094262259670387
30
0
41
1
10
60.1802404896121
20
0.278876643261299
30
0
41
1
10
60.2239260956778
20
0.556952609199016
30
0
41
1
10
60.2676117017436
20
0.83825063675684
30
0
41
1
10
60.3549829138751
20
1.40443157115084
30
0
41
1
10
60.4132303886294
20
1.78668800207993
30
0
41
1
10
60.5297253381381
20
2.55644640909236
30
0
41
1
10
60.5879728128924
20
2.9439446172465
30
0
41
1
10
60.704467762401
20
3.71914295782832
30
0
41
1
10
60.7627152371554
20
4.1068371681578
30
0
41
1
10
60.879210186664
20
4.87684836201919
30
0
41
1
10
60.9374576614183
20
5.25915747662927
30
0
41
1
10
61.053952610927
20
6.01249177739067
30
0
41
1
10
61.1122000856813
20
6.38350766736744
30
0
41
1
10
61.2286950351899
20
7.10828107934185
30
0
41
1
10
61.2869425099443
20
7.46202867888525
30
0
41
1
10
61.4034374594529
20
8.14651498136411
30
0
41
1
10
61.4616849342072
20
8.47724411782573
30
0
41
1
10
61.5781798837159
20
9.11046315709478
30
0
41
1
10
61.6364273584702
20
9.41294485778732
30
0
41
1
10
61.7529223079788
20
9.98522928838852
30
0
41
1
10
61.8111697827332
20
10.2550260393607
30
0
41
1
10
61.9276647322418
20
10.7585072782491
30
0
41
1
10
61.9859122069961
20
10.9921885684466
30
0
41
1
10
62.1024071565048
20
11.4211515232284
30
0
41
1
10
62.1606546312591
20
11.6164329415402
30
0
41
1
10
62.2771495807678
20
11.96750665721
30
0
41
1
10
62.3353970555221
20
12.1233014394195
30
0
41
1
10
62.4518920050307
20
12.395475467867
30
0
41
1
10
62.5101394797851
20
12.5118593948778
30
0
41
1
10
62.5683869545394
20
12.6090989768614
30
0
0
SPLINE
5
104
100
AcDbEntity
8
1
62
256
6
ByLayer
370
13
48
1
60
0
100
AcDbSpline
70
4
71
3
72
14
73
10
40
0
40
0
40
0
40
0
40
0.25
40
0.25
40
0.5
40
0.5
40
0.75
40
0.75
40
1
40
1
40
1
40
1
41
1
10
61.5671673857996
20
13
30
0
41
1
10
61.6506023498612
20
13
30
0
41
1
10
61.7340373139229
20
12.9680178068804
30
0
41
1
10
61.9009072420462
20
12.8313319295309
30
0
41
1
10
61.9843422061078
20
12.7265866751957
30
0
41
1
10
62.1512121342311
20
12.438133687916
30
0
41
1
10
62.2346470982927
20
12.2543896919458
30
0
41
1
10
62.4015170264161
20
11.8054931990076
30
0
41
1
10
62.4849519904777
20
11.5403190982715
30
0
41
1
10
62.5683869545394
20
11.2355674250644
30
0
0
SPLINE
5
105
100
AcDbEntity
8
1
62
256
6
ByLayer
370
13
48
1
60
0
100
AcDbSpline
70
4
71
3
72
22
73
18
40
0
40
0
40
0
40
0
40
0.125
40
0.125
40
0.25
40
0.25
40
0.375
40
0.375
40
0.5
40
0.5
40
0.625
40
0.625
40
0.75
40
0.75
40
0.875
40
0.875
40
1
40
1
40
1
40
1
41
1
10
50.9
20
9.04746439373207
30
0
41
1
10
50.9619204980779
20
9.37575508173992
30
0
41
1
10
51.0238409961557
20
9.68734662324104
30
0
41
1
10
51.1476819923114
20
10.2721581681797
30
0
41
1
10
51.2096024903893
20
10.5453712572395
30
0
41
1
10
51.333443486545
20
11.0497882446636
30
0
41
1
10
51.3953639846228
20
11.2809893932642
30
0
41
1
10
51.5192049807785
20
11.6992482267123
30
0
41
1
10
51.5811254788564
20
11.8863073440593
30
0
41
1
10
51.7049664750121
20
12.2156704305349
30
0
41
1
10
51.76688697309
20
12.3579794368049
30
0
41
1
10
51.8907279692456
20
12.5986534082716
30
0
41
1
10
51.9526484673235
20
12.6970260199011
30
0
41
1
10
52.0764894634792
20
12.8518666750104
30
0
41
1
10
52.138409961557
20
12.9083437991357
30
0
41
1
10
52.2622509577128
20
12.9824057679617
30
0
41
1
10
52.3241714557906
20
13
30
0
41
1
10
52.3860919538684
20
13
30
0
0
SPLINE
5
106
100
AcDbEntity
8
1
62
256
6
ByLayer
370
13
48
1
60
0
100
AcDbSpline
70
4
71
3
72
134
73
130
40
0
40
0
40
0
40
0
40
0.015625
40
0.015625
40
0.03125
40
0.03125
40
0.046875
40
0.046875
40
0.0625
40
0.0625
40
0.078125
40
0.078125
40
0.09375
40
0.09375
40
0.109375
40
0.109375
40
0.125
40
0.125
40
0.140625
40
0.140625
40
0.15625
40
0.15625
40
0.171875
40
0.171875
40
0.1875
40
0.1875
40
0.203125
40
0.203125
40
0.21875
40
0.21875
40
0.234375
40
0.234375
40
0.25
40
0.25
40
0.265625
40
0.265625
40
0.28125
40
0.28125
40
0.296875
40
0.296875
40
0.3125
40
0.3125
40
0.328125
40
0.328125
40
0.34375
40
0.34375
40
0.359375
40
0.359375
40
0.375
40
0.375
40
0.390625
40
0.390625
40
0.40625
40
0.40625
40
0.421875
40
0.421875
40
0.4375
40
0.4375
40
0.453125
40
0.453125
40
0.46875
40
0.46875
40
0.484375000000001
40
0.484375000000001
40
0.500000000000001
40
0.500000000000001
40
0.515625000000001
40
0.515625000000001
40
0.531250000000001
40
0.531250000000001
40
0.546875000000001
40
0.546875000000001
40
0.5625
40
0.5625
40
0.578125
40
0.578125
40
0.59375
40
0.59375
40
0.609375
40
0.609375
40
0.625
40
0.625
40
0.640625
40
0.640625
40
0.65625
40
0.65625
40
0.671875
40
0.671875
40
0.6875
40
0.6875
40
0.703125
40
0.703125
40
0.71875
40
0.71875
40
0.734375
40
0.734375
40
0.75
40
0.75
40
0.765625
40
0.765625
40
0.78125
40
0.78125
40
0.796875
40
0.796875
40
0.8125
40
0.8125
40
0.828125
40
0.828125
40
0.84375
40
0.84375
40
0.859375
40
0.859375
40
0.875
40
0.875
40
0.890625
40
0.890625
40
0.90625
40
0.90625
40
0.921875
40
0.921875
40
0.9375
40
0.9375
40
0.953125
40
0.953125
40
0.96875
40
0.96875
40
0.984375
40
0.984375
40
1
40
1
40
1
40
1
41
1
10
50.9000005834193
20
13
30
0
41
1
10
50.9607734291023
20
13
30
0
41
1
10
51.0215462747852
20
12.9830527675353
30
0
41
1
10
51.143091966151
20
12.9117748670912
30
0
41
1
10
51.203864811834
20
12.857435652047
30
0
41
1
10
51.3254105031997
20
12.7085039714635
30
0
41
1
10
51.3861833488827
20
12.6139032065126
30
0
41
1
10
51.5077290402485
20
12.3824698104952
30
0
41
1
10
51.5685018859314
20
12.2456301127287
30
0
41
1
10
51.6900475772973
20
11.928865904953
30
0
41
1
10
51.7508204229802
20
11.7489365953358
30
0
41
1
10
51.872366114346
20
11.3464478841043
30
0
41
1
10
51.9331389600289
20
11.1238868432806
30
0
41
1
10
52.0546846513948
20
10.6379968857054
30
0
41
1
10
52.1154574970777
20
10.3746700394723
30
0
41
1
10
52.2370031884435
20
9.81051342983807
30
0
41
1
10
52.2977760341264
20
9.50968949422611
30
0
41
1
10
52.4193217254922
20
8.87508757814646
30
0
41
1
10
52.4800945711752
20
8.54131867051649
30
0
41
1
10
52.6016402625411
20
7.84643355395846
30
0
41
1
10
52.6624131082239
20
7.48532866139277
30
0
41
1
10
52.7839587995897
20
6.74212604142491
30
0
41
1
10
52.8447316452727
20
6.36004056930219
30
0
41
1
10
52.9662773366385
20
5.58162013454765
30
0
41
1
10
53.0270501823215
20
5.18529700866625
30
0
41
1
10
53.1485958736872
20
4.38516688017671
30
0
41
1
10
53.2093687193701
20
3.98137012885127
30
0
41
1
10
53.330914410736
20
3.17274503394731
30
0
41
1
10
53.3916872564189
20
2.76792455355096
30
0
41
1
10
53.5132329477848
20
1.96311649926173
30
0
41
1
10
53.5740057934677
20
1.5631340333594
30
0
41
1
10
53.6955514848335
20
0.773083129595477
30
0
41
1
10
53.7563243305165
20
0.383017084448994
30
0
41
1
10
53.8778700218823
20
-0.383015245971393
30
0
41
1
10
53.9386428675652
20
-0.773081249221264
30
0
41
1
10
54.0601885589311
20
-1.56313212148928
30
0
41
1
10
54.120961404614
20
-1.9631145753599
30
0
41
1
10
54.2425070959798
20
-2.76792261437413
30
0
41
1
10
54.3032799416627
20
-3.17274309153169
30
0
41
1
10
54.4248256330285
20
-3.98136818986635
30
0
41
1
10
54.4855984787114
20
-4.38516494786546
30
0
41
1
10
54.6071441700772
20
-5.18529510035276
30
0
41
1
10
54.6679170157602
20
-5.58161824356151
30
0
41
1
10
54.789462707126
20
-6.36003872387008
30
0
41
1
10
54.8502355528089
20
-6.74212422422116
30
0
41
1
10
54.9717812441747
20
-7.48532691122372
30
0
41
1
10
55.0325540898576
20
-7.84643184259534
30
0
41
1
10
55.1540997812235
20
-8.54131704643075
30
0
41
1
10
55.2148726269064
20
-8.87508600252957
30
0
41
1
10
55.3364183182722
20
-9.50968802375348
30
0
41
1
10
55.3971911639552
20
-9.8105120160364
30
0
41
1
10
55.5187368553211
20
-10.3746687453219
30
0
41
1
10
55.5795097010039
20
-10.6379956545295
30
0
41
1
10
55.7010553923697
20
-11.1238857421843
30
0
41
1
10
55.7618282380527
20
-11.3464468501068
30
0
41
1
10
55.8833739294185
20
-11.7489356973871
30
0
41
1
10
55.9441467751015
20
-11.9288650759487
30
0
41
1
10
56.0656924664672
20
-12.2456294212645
30
0
41
1
10
56.1264653121502
20
-12.3824691876221
30
0
41
1
10
56.248011003516
20
-12.6139027185051
30
0
41
1
10
56.3087838491989
20
-12.7085035497275
30
0
41
1
10
56.4303295405648
20
-12.8574353589106
30
0
41
1
10
56.4911023862477
20
-12.9117746362818
30
0
41
1
10
56.6126480776135
20
-12.9830526562105
30
0
41
1
10
56.6734209232964
20
-12.9999999458332
30
0
41
1
10
56.7949666146623
20
-13.0000000541666
30
0
41
1
10
56.8557394603452
20
-12.9830528788598
30
0
41
1
10
56.9772851517111
20
-12.9117750979004
30
0
41
1
10
57.038057997394
20
-12.857435945183
30
0
41
1
10
57.1596036887597
20
-12.7085043931992
30
0
41
1
10
57.2203765344427
20
-12.6139036945199
30
0
41
1
10
57.3419222258086
20
-12.382470433368
30
0
41
1
10
57.4026950714914
20
-12.2456308041927
30
0
41
1
10
57.5242407628573
20
-11.9288667339569
30
0
41
1
10
57.5850136085402
20
-11.7489374932842
30
0
41
1
10
57.7065592999061
20
-11.3464489181015
30
0
41
1
10
57.7673321455889
20
-11.1238879443766
30
0
41
1
10
57.8888778369548
20
-10.6379981168809
30
0
41
1
10
57.9496506826377
20
-10.3746713336224
30
0
41
1
10
58.0711963740036
20
-9.81051484363945
30
0
41
1
10
58.1319692196864
20
-9.50969096469845
30
0
41
1
10
58.2535149110523
20
-8.87508915376313
30
0
41
1
10
58.3142877567352
20
-8.541320294602
30
0
41
1
10
58.435833448101
20
-7.84643526532136
30
0
41
1
10
58.4966062937839
20
-7.48533041156165
30
0
41
1
10
58.6181519851498
20
-6.74212785862852
30
0
41
1
10
58.6789248308327
20
-6.36004241473418
30
0
41
1
10
58.8004705221985
20
-5.58162202553373
30
0
41
1
10
58.8612433678814
20
-5.18529891697969
30
0
41
1
10
58.9827890592473
20
-4.3851688124879
30
0
41
1
10
59.0435619049302
20
-3.98137206783619
30
0
41
1
10
59.1651075962961
20
-3.1727469763629
30
0
41
1
10
59.2258804419789
20
-2.76792649272781
30
0
41
1
10
59.3474261333448
20
-1.96311842316365
30
0
41
1
10
59.4081989790277
20
-1.56313594522962
30
0
41
1
10
59.5297446703935
20
-0.773085009969776
30
0
41
1
10
59.5905175160765
20
-0.383018945363233
30
0
41
1
10
59.7120632074424
20
0.383013429930259
30
0
41
1
10
59.7728360531252
20
0.773079368847135
30
0
41
1
10
59.894381744491
20
1.5631302096192
30
0
41
1
10
59.9551545901739
20
1.96311265145806
30
0
41
1
10
60.0767002815397
20
2.7679206751973
30
0
41
1
10
60.1374731272228
20
3.17274114911609
30
0
41
1
10
60.2590188185886
20
3.98136625088139
30
0
41
1
10
60.3197916642714
20
4.38516301555416
30
0
41
1
10
60.4413373556373
20
5.18529319203918
30
0
41
1
10
60.5021102013202
20
5.58161635257525
30
0
41
1
10
60.623655892686
20
6.36003687843782
30
0
41
1
10
60.6844287383689
20
6.74212240701726
30
0
41
1
10
60.8059744297348
20
7.48532516105448
30
0
41
1
10
60.8667472754177
20
7.84643013123204
30
0
41
1
10
60.9882929667835
20
8.54131542234481
30
0
41
1
10
61.0490658124664
20
8.87508442691242
30
0
41
1
10
61.1706115038323
20
9.50968655328063
30
0
41
1
10
61.2313843495151
20
9.81051060223444
30
0
41
1
10
61.352930040881
20
10.3746674511712
30
0
41
1
10
61.4137028865639
20
10.6379944233534
30
0
41
1
10
61.5352485779298
20
11.1238846410876
30
0
41
1
10
61.5960214236127
20
11.346445816109
30
0
41
1
10
61.7175671149786
20
11.7489347994381
30
0
41
1
10
61.7783399606614
20
11.9288642469441
30
0
41
1
10
61.8998856520273
20
12.2456287297999
30
0
41
1
10
61.9606584977102
20
12.3824685647487
30
0
41
1
10
62.0822041890761
20
12.6139022304972
30
0
41
1
10
62.142977034759
20
12.7085031279912
30
0
41
1
10
62.2645227261247
20
12.8574350657739
30
0
41
1
10
62.3252955718077
20
12.9117744054721
30
0
41
1
10
62.4468412631735
20
12.9830525448854
30
0
41
1
10
62.5076141088564
20
12.9999998916661
30
0
41
1
10
62.5683869545393
20
12.9999999999995
30
0
0
SPLINE
5
107
100
AcDbEntity
8
1
62
256
6
ByLayer
370
13
48
1
60
0
100
AcDbSpline
70
4
71
3
72
22
73
18
40
0
40
0
40
0
40
0
40
0.125
40
0.125
40
0.25
40
0.25
40
0.375
40
0.375
40
0.5
40
0.5
40
0.625
40
0.625
40
0.75
40
0.75
40
0.875
40
0.875
40
1
40
1
40
1
40
1
41
1
10
61.0822961675095
20
13
30
0
41
1
10
61.1442166169692
20
13
30
0
41
1
10
61.2061370664287
20
12.9824057956286
30
0
41
1
10
61.3299779653479
20
12.908343945923
30
0
41
1
10
61.3918984148075
20
12.8518669132883
30
0
41
1
10
61.5157393137265
20
12.6970265110827
30
0
41
1
10
61.5776597631862
20
12.5986540609005
30
0
41
1
10
61.7015006621054
20
12.3579804849108
30
0
41
1
10
61.7634211115649
20
12.2156717126955
30
0
41
1
10
61.8872620104841
20
11.8863091651797
30
0
41
1
10
61.9491824599436
20
11.6992503527475
30
0
41
1
10
62.0730233588627
20
11.2809921933075
30
0
41
1
10
62.1349438083223
20
11.0497914137902
30
0
41
1
10
62.2587847072415
20
10.5453752170892
30
0
41
1
10
62.3207051567011
20
10.2721625496383
30
0
41
1
10
62.4445460556202
20
9.68735188451689
30
0
41
1
10
62.5064665050798
20
9.37576080117535
30
0
41
1
10
62.5683869545393
20
9.04747058008653
30
0
0
SPLINE
5
108
100
AcDbEntity
8
1
62
256
6
ByLayer
370
13
48
1
60
0
100
AcDbSpline
70
4
71
3
72
8
73
4
40
0
40
0
40
0
40
0
40
1
40
1
40
1
40
1
41
1
10
62.5683869545394
20
-6.64218137005719
30
0
41
1
10
64.1455913030262
20
-4.41049559820624
30
0
41
1
10
65.7227956515131
20
-2.19641042296098
30
0
41
1
10
67.3
20
-5.68E-14
30
0
0
SPLINE
5
109
100
AcDbEntity
8
1
62
256
6
ByLayer
370
13
48
1
60
0
100
AcDbSpline
70
4
71
3
72
8
73
4
40
0
40
0
40
0
40
0
40
1
40
1
40
1
40
1
41
1
10
62.5683869545392
20
1.15553678712112
30
0
41
1
10
64.1455913030264
20
0.749935361647943
30
0
41
1
10
65.7227956515135
20
0.364752197095044
30
0
41
1
10
67.3000000000007
20
-1.421E-13
30
0
0
SPLINE
5
10A
100
AcDbEntity
8
1
62
256
6
ByLayer
370
13
48
1
60
0
100
AcDbSpline
70
4
71
3
72
8
73
4
40
0
40
0
40
0
40
0
40
1
40
1
40
1
40
1
41
1
10
62.5683869545392
20
2.35184234240455
30
0
41
1
10
64.1455913030264
20
1.54772955938785
30
0
41
1
10
65.7227956515135
20
0.763773411608753
30
0
41
1
10
67.3000000000007
20
-3.126E-13
30
0
0
SPLINE
5
10B
100
AcDbEntity
8
1
62
256
6
ByLayer
370
13
48
1
60
0
100
AcDbSpline
70
4
71
3
72
8
73
4
40
0
40
0
40
0
40
0
40
1
40
1
40
1
40
1
41
1
10
62.5683869545394
20
-11.1172684807974
30
0
41
1
10
64.1455913030262
20
-7.42214019023814
30
0
41
1
10
65.722795651513
20
-3.71634250785891
30
0
41
1
10
67.2999999999998
20
-6.253E-13
30
0
0
SPLINE
5
10C
100
AcDbEntity
8
1
62
256
6
ByLayer
370
13
48
1
60
0
100
AcDbSpline
70
4
71
3
72
8
73
4
40
0
40
0
40
0
40
0
40
1
40
1
40
1
40
1
41
1
10
62.5683869545394
20
-10.4441707110042
30
0
41
1
10
64.1455913030262
20
-6.97498922748747
30
0
41
1
10
65.7227956515131
20
-3.49355997403927
30
0
41
1
10
67.3
20
-8.53E-14
30
0
0
SPLINE
5
10D
100
AcDbEntity
8
1
62
256
6
ByLayer
370
13
48
1
60
0
100
AcDbSpline
70
4
71
3
72
8
73
4
40
0
40
0
40
0
40
0
40
1
40
1
40
1
40
1
41
1
10
62.5683869545392
20
10.3834322381843
30
0
41
1
10
64.1455913030262
20
6.9099512007474
30
0
41
1
10
65.7227956515132
20
3.44876842313116
30
0
41
1
10
67.3000000000002
20
-4.263E-13
30
0
0
SPLINE
5
10E
100
AcDbEntity
8
1
62
256
6
ByLayer
370
13
48
1
60
0
100
AcDbSpline
70
4
71
3
72
8
73
4
40
0
40
0
40
0
40
0
40
1
40
1
40
1
40
1
41
1
10
62.5683869545394
20
12.5993373904844
30
0
41
1
10
64.1455913030262
20
8.40460942741933
30
0
41
1
10
65.7227956515131
20
4.20478326583012
30
0
41
1
10
67.3
20
0
30
0
0
SPLINE
5
10F
100
AcDbEntity
8
1
62
256
6
ByLayer
370
13
48
1
60
0
100
AcDbSpline
70
4
71
3
72
8
73
4
40
0
40
0
40
0
40
0
40
1
40
1
40
1
40
1
41
1
10
62.5683869545394
20
-10.246812809796
30
0
41
1
10
64.1455913030262
20
-6.81859062638318
30
0
41
1
10
65.7227956515131
20
-3.40294816905356
30
0
41
1
10
67.3
20
-8.53E-14
30
0
0
SPLINE
5
110
100
AcDbEntity
8
1
62
256
6
ByLayer
370
13
48
1
60
0
100
AcDbSpline
70
4
71
3
72
8
73
4
40
0
40
0
40
0
40
0
40
1
40
1
40
1
40
1
41
1
10
62.5683869545394
20
-12.745102946748
30
0
41
1
10
64.1455913030262
20
-8.49269495991152
30
0
41
1
10
65.7227956515131
20
-4.24427976958859
30
0
41
1
10
67.3
20
-8.53E-14
30
0
0
SPLINE
5
111
100
AcDbEntity
8
1
62
256
6
ByLayer
370
13
48
1
60
0
100
AcDbSpline
70
4
71
3
72
8
73
4
40
0
40
0
40
0
40
0
40
1
40
1
40
1
40
1
41
1
10
62.5683869545393
20
7.10927451198236
30
0
41
1
10
64.1455913030262
20
4.75668239868784
30
0
41
1
10
65.7227956515131
20
2.38689763675893
30
0
41
1
10
67.3
20
-2.84E-14
30
0
0
SPLINE
5
112
100
AcDbEntity
8
1
62
256
6
ByLayer
370
13
48
1
60
0
100
AcDbSpline
70
4
71
3
72
8
73
4
40
0
40
0
40
0
40
0
40
1
40
1
40
1
40
1
41
1
10
62.5683869545394
20
-12.927795843691
30
0
41
1
10
64.1455913030262
20
-8.61637256035638
30
0
41
1
10
65.7227956515131
20
-4.30705904900373
30
0
41
1
10
67.3
20
-8.53E-14
30
0
0
SPLINE
5
113
100
AcDbEntity
8
1
62
256
6
ByLayer
370
13
48
1
60
0
100
AcDbSpline
70
4
71
3
72
8
73
4
40
0
40
0
40
0
40
0
40
1
40
1
40
1
40
1
41
1
10
62.5683869545392
20
6.83416181404786
30
0
41
1
10
64.1455913030262
20
4.53866609004447
30
0
41
1
10
65.7227956515132
20
2.26058671643722
30
0
41
1
10
67.3000000000002
20
-2.842E-13
30
0
0
SPLINE
5
114
100
AcDbEntity
8
1
62
256
6
ByLayer
370
13
48
1
60
0
100
AcDbSpline
70
4
71
3
72
8
73
4
40
0
40
0
40
0
40
0
40
1
40
1
40
1
40
1
41
1
10
62.5683869545394
20
-2.13071143727004
30
0
41
1
10
64.1455913030262
20
-1.40024790977469
30
0
41
1
10
65.7227956515131
20
-0.690002889052522
30
0
41
1
10
67.3
20
-2.84E-14
30
0
0
SPLINE
5
115
100
AcDbEntity
8
1
62
256
6
ByLayer
370
13
48
1
60
0
100
AcDbSpline
70
4
71
3
72
8
73
4
40
0
40
0
40
0
40
0
40
1
40
1
40
1
40
1
41
1
10
62.5683869545394
20
-10.9448292988563
30
0
41
1
10
64.1455913030262
20
-7.28548872269567
30
0
41
1
10
65.7227956515131
20
-3.63717149200215
30
0
41
1
10
67.3
20
-8.53E-14
30
0
0
SPLINE
5
116
100
AcDbEntity
8
1
62
256
6
ByLayer
370
13
48
1
60
0
100
AcDbSpline
70
4
71
3
72
8
73
4
40
0
40
0
40
0
40
0
40
1
40
1
40
1
40
1
41
1
10
62.5683869545394
20
-3.31127541314063
30
0
41
1
10
64.1455913030262
20
-2.18768956659289
30
0
41
1
10
65.7227956515131
20
-1.08391881399032
30
0
41
1
10
67.3
20
-2.84E-14
30
0
0
SPLINE
5
117
100
AcDbEntity
8
1
62
256
6
ByLayer
370
13
48
1
60
0
100
AcDbSpline
70
4
71
3
72
8
73
4
40
0
40
0
40
0
40
0
40
1
40
1
40
1
40
1
41
1
10
62.5683869545393
20
10.5762810231846
30
0
41
1
10
64.1455913030262
20
7.06277649942609
30
0
41
1
10
65.7227956515132
20
3.53730998336891
30
0
41
1
10
67.3000000000001
20
-1.705E-13
30
0
0
SPLINE
5
118
100
AcDbEntity
8
1
62
256
6
ByLayer
370
13
48
1
60
0
100
AcDbSpline
70
4
71
3
72
8
73
4
40
0
40
0
40
0
40
0
40
1
40
1
40
1
40
1
41
1
10
62.5683869545392
20
-2.45156760341456
30
0
41
1
10
64.1455913030262
20
-1.65451417037775
30
0
41
1
10
65.7227956515132
20
-0.837315746440765
30
0
41
1
10
67.3000000000002
20
1.137E-13
30
0
0
SPLINE
5
119
100
AcDbEntity
8
1
62
256
6
ByLayer
370
13
48
1
60
0
100
AcDbSpline
70
4
71
3
72
8
73
4
40
0
40
0
40
0
40
0
40
1
40
1
40
1
40
1
41
1
10
62.5683869545392
20
7.83064557963473
30
0
41
1
10
64.145591303026
20
5.20406382347252
30
0
41
1
10
65.7227956515129
20
2.59381947242477
30
0
41
1
10
67.2999999999998
20
4.263E-13
30
0
0
SPLINE
5
11A
100
AcDbEntity
8
1
62
256
6
ByLayer
370
13
48
1
60
0
100
AcDbSpline
70
4
71
3
72
8
73
4
40
0
40
0
40
0
40
0
40
1
40
1
40
1
40
1
41
1
10
62.5683869545392
20
-1.25657116357854
30
0
41
1
10
64.1455913030264
20
-0.858121757725911
30
0
41
1
10
65.7227956515135
20
-0.439259938340427
30
0
41
1
10
67.3000000000007
20
1.705E-13
30
0
0
SPLINE
5
11B
100
AcDbEntity
8
1
62
256
6
ByLayer
370
13
48
1
60
0
100
AcDbSpline
70
4
71
3
72
8
73
4
40
0
40
0
40
0
40
0
40
1
40
1
40
1
40
1
41
1
10
62.5683869545394
20
-12.5421560671145
30
0
41
1
10
64.1455913030262
20
-8.36683093758316
30
0
41
1
10
65.7227956515131
20
-4.18606542920338
30
0
41
1
10
67.3
20
-8.53E-14
30
0
0
SPLINE
5
11C
100
AcDbEntity
8
1
62
256
6
ByLayer
370
13
48
1
60
0
100
AcDbSpline
70
4
71
3
72
8
73
4
40
0
40
0
40
0
40
0
40
1
40
1
40
1
40
1
41
1
10
62.5683869545392
20
12.7874382594011
30
0
41
1
10
64.145591303026
20
8.52126621962094
30
0
41
1
10
65.7227956515129
20
4.25873909914839
30
0
41
1
10
67.2999999999998
20
7.105E-13
30
0
0
SPLINE
5
11D
100
AcDbEntity
8
1
62
256
6
ByLayer
370
13
48
1
60
0
100
AcDbSpline
70
4
71
3
72
8
73
4
40
0
40
0
40
0
40
0
40
1
40
1
40
1
40
1
41
1
10
62.5683869545393
20
9.8293648171761
30
0
41
1
10
64.1455913030262
20
6.56632850314745
30
0
41
1
10
65.7227956515131
20
3.28983683718548
30
0
41
1
10
67.3
20
-5.68E-14
30
0
0
SPLINE
5
11E
100
AcDbEntity
8
1
62
256
6
ByLayer
370
13
48
1
60
0
100
AcDbSpline
70
4
71
3
72
8
73
4
40
0
40
0
40
0
40
0
40
1
40
1
40
1
40
1
41
1
10
62.5683869545394
20
0.275211074259829
30
0
41
1
10
64.1455913030263
20
0.203973110935493
30
0
41
1
10
65.7227956515132
20
0.11223498278315
30
0
41
1
10
67.3000000000001
20
0
30
0
0
SPLINE
5
11F
100
AcDbEntity
8
1
62
256
6
ByLayer
370
13
48
1
60
0
100
AcDbSpline
70
4
71
3
72
8
73
4
40
0
40
0
40
0
40
0
40
1
40
1
40
1
40
1
41
1
10
62.5683869545394
20
-7.65028863910774
30
0
41
1
10
64.1455913030262
20
-5.08361503418243
30
0
41
1
10
65.7227956515131
20
-2.53349033707238
30
0
41
1
10
67.3
20
-5.68E-14
30
0
0
SPLINE
5
120
100
AcDbEntity
8
1
62
256
6
ByLayer
370
13
48
1
60
0
100
AcDbSpline
70
4
71
3
72
8
73
4
40
0
40
0
40
0
40
0
40
1
40
1
40
1
40
1
41
1
10
62.5683869545394
20
12.9741268211913
30
0
41
1
10
64.1455913030262
20
8.6507108355832
30
0
41
1
10
65.7227956515131
20
4.32595347930973
30
0
41
1
10
67.3
20
-2.84E-14
30
0
0
SPLINE
5
121
100
AcDbEntity
8
1
62
256
6
ByLayer
370
13
48
1
60
0
100
AcDbSpline
70
4
71
3
72
8
73
4
40
0
40
0
40
0
40
0
40
1
40
1
40
1
40
1
41
1
10
62.5683869545394
20
-12.1708048674491
30
0
41
1
10
64.1455913030264
20
-8.12107542435399
30
0
41
1
10
65.7227956515133
20
-4.0640950280773
30
0
41
1
10
67.3000000000002
20
5.116E-13
30
0
0
SPLINE
5
122
100
AcDbEntity
8
1
62
256
6
ByLayer
370
13
48
1
60
0
100
AcDbSpline
70
4
71
3
72
8
73
4
40
0
40
0
40
0
40
0
40
1
40
1
40
1
40
1
41
1
10
62.5683869545392
20
12.9494951568193
30
0
41
1
10
64.1455913030262
20
8.63119118206484
30
0
41
1
10
65.7227956515132
20
4.31464448405308
30
0
41
1
10
67.3000000000002
20
-5.4E-13
30
0
0
SPLINE
5
123
100
AcDbEntity
8
1
62
256
6
ByLayer
370
13
48
1
60
0
100
AcDbSpline
70
4
71
3
72
8
73
4
40
0
40
0
40
0
40
0
40
1
40
1
40
1
40
1
41
1
10
62.5683869545392
20
3.52786177106853
30
0
41
1
10
64.1455913030262
20
2.33217361147894
30
0
41
1
10
65.7227956515132
20
1.15620659772591
30
0
41
1
10
67.3000000000002
20
-1.421E-13
30
0
0
SPLINE
5
124
100
AcDbEntity
8
1
62
256
6
ByLayer
370
13
48
1
60
0
100
AcDbSpline
70
4
71
3
72
8
73
4
40
0
40
0
40
0
40
0
40
1
40
1
40
1
40
1
41
1
10
62.5683869545392
20
-5.86944794266435
30
0
41
1
10
64.1455913030262
20
-3.93126015721362
30
0
41
1
10
65.7227956515132
20
-1.97475554040972
30
0
41
1
10
67.3000000000002
20
2.558E-13
30
0
0
SPLINE
5
125
100
AcDbEntity
8
1
62
256
6
ByLayer
370
13
48
1
60
0
100
AcDbSpline
70
4
71
3
72
8
73
4
40
0
40
0
40
0
40
0
40
1
40
1
40
1
40
1
41
1
10
62.5683869545394
20
-8.59240733349483
30
0
41
1
10
64.1455913030262
20
-5.71288507753198
30
0
41
1
10
65.7227956515131
20
-2.84871729580473
30
0
41
1
10
67.3
20
-5.68E-14
30
0
0
SPLINE
5
126
100
AcDbEntity
8
1
62
256
6
ByLayer
370
13
48
1
60
0
100
AcDbSpline
70
4
71
3
72
8
73
4
40
0
40
0
40
0
40
0
40
1
40
1
40
1
40
1
41
1
10
62.5683869545394
20
-12.0524375453894
30
0
41
1
10
64.1455913030262
20
-8.02727384117324
30
0
41
1
10
65.7227956515131
20
-4.00974971614698
30
0
41
1
10
67.3
20
-8.53E-14
30
0
0
SPLINE
5
127
100
AcDbEntity
8
1
62
256
6
ByLayer
370
13
48
1
60
0
100
AcDbSpline
70
4
71
3
72
8
73
4
40
0
40
0
40
0
40
0
40
1
40
1
40
1
40
1
41
1
10
62.5683869545394
20
1.47981700766104
30
0
41
1
10
64.1455913030262
20
1.0069150546208
30
0
41
1
10
65.7227956515131
20
0.513637121004479
30
0
41
1
10
67.2999999999999
20
5.68E-14
30
0
0
SPLINE
5
128
100
AcDbEntity
8
1
62
256
6
ByLayer
370
13
48
1
60
0
100
AcDbSpline
70
4
71
3
72
8
73
4
40
0
40
0
40
0
40
0
40
1
40
1
40
1
40
1
41
1
10
62.5683869545392
20
11.649797279184
30
0
41
1
10
64.1455913030262
20
7.75743250968944
30
0
41
1
10
65.7227956515132
20
3.87412331440254
30
0
41
1
10
67.3000000000002
20
-4.832E-13
30
0
0
SPLINE
5
129
100
AcDbEntity
8
1
62
256
6
ByLayer
370
13
48
1
60
0
100
AcDbSpline
70
4
71
3
72
8
73
4
40
0
40
0
40
0
40
0
40
1
40
1
40
1
40
1
41
1
10
62.5683869545392
20
4.67345116227057
30
0
41
1
10
64.1455913030262
20
3.09650119218577
30
0
41
1
10
65.7227956515132
20
1.5386667711895
30
0
41
1
10
67.3000000000002
20
-1.99E-13
30
0
0
SPLINE
5
12A
100
AcDbEntity
8
1
62
256
6
ByLayer
370
13
48
1
60
0
100
AcDbSpline
70
4
71
3
72
8
73
4
40
0
40
0
40
0
40
0
40
1
40
1
40
1
40
1
41
1
10
62.5683869545394
20
12.8421177970886
30
0
41
1
10
64.1455913030262
20
8.5645976654408
30
0
41
1
10
65.7227956515131
20
4.28384380271098
30
0
41
1
10
67.3
20
-2.84E-14
30
0
0
SPLINE
5
12B
100
AcDbEntity
8
1
62
256
6
ByLayer
370
13
48
1
60
0
100
AcDbSpline
70
4
71
3
72
8
73
4
40
0
40
0
40
0
40
0
40
1
40
1
40
1
40
1
41
1
10
62.5683869545394
20
12.247879735828
30
0
41
1
10
64.1455913030262
20
8.17212612118783
30
0
41
1
10
65.7227956515131
20
4.08945381576566
30
0
41
1
10
67.3
20
0
30
0
0
SPLINE
5
12C
100
AcDbEntity
8
1
62
256
6
ByLayer
370
13
48
1
60
0
100
AcDbSpline
70
4
71
3
72
8
73
4
40
0
40
0
40
0
40
0
40
1
40
1
40
1
40
1
41
1
10
62.5683869545394
20
4.97612589406913
30
0
41
1
10
64.1455913030262
20
3.33635936028108
30
0
41
1
10
65.7227956515131
20
1.67763209056088
30
0
41
1
10
67.3
20
2.84E-14
30
0
0
SPLINE
5
12D
100
AcDbEntity
8
1
62
256
6
ByLayer
370
13
48
1
60
0
100
AcDbSpline
70
4
71
3
72
8
73
4
40
0
40
0
40
0
40
0
40
1
40
1
40
1
40
1
41
1
10
62.5683869545394
20
11.7907763775201
30
0
41
1
10
64.1455913030262
20
7.86915306219717
30
0
41
1
10
65.7227956515131
20
3.93885024191525
30
0
41
1
10
67.3
20
8.53E-14
30
0
0
SPLINE
5
12E
100
AcDbEntity
8
1
62
256
6
ByLayer
370
13
48
1
60
0
100
AcDbSpline
70
4
71
3
72
8
73
4
40
0
40
0
40
0
40
0
40
1
40
1
40
1
40
1
41
1
10
62.5683869545392
20
-4.76799632383128
30
0
41
1
10
64.1455913030262
20
-3.19773901493983
30
0
41
1
10
65.7227956515132
20
-1.60838904474198
30
0
41
1
10
67.3000000000002
20
1.99E-13
30
0
0
SPLINE
5
12F
100
AcDbEntity
8
1
62
256
6
ByLayer
370
13
48
1
60
0
100
AcDbSpline
70
4
71
3
72
8
73
4
40
0
40
0
40
0
40
0
40
1
40
1
40
1
40
1
41
1
10
62.5683869545394
20
-12.9989783308301
30
0
41
1
10
64.1455913030262
20
-8.66572850173068
30
0
41
1
10
65.7227956515131
20
-4.33268722196485
30
0
41
1
10
67.3
20
-8.53E-14
30
0
0
SPLINE
5
130
100
AcDbEntity
8
1
62
256
6
ByLayer
370
13
48
1
60
0
100
AcDbSpline
70
4
71
3
72
8
73
4
40
0
40
0
40
0
40
0
40
1
40
1
40
1
40
1
41
1
10
62.5683869545394
20
-8.83429540736623
30
0
41
1
10
64.1455913030262
20
-5.90457214020191
30
0
41
1
10
65.7227956515131
20
-2.95977398440863
30
0
41
1
10
67.3
20
-5.68E-14
30
0
0
SPLINE
5
131
100
AcDbEntity
8
1
62
256
6
ByLayer
370
13
48
1
60
0
100
AcDbSpline
70
4
71
3
72
8
73
4
40
0
40
0
40
0
40
0
40
1
40
1
40
1
40
1
41
1
10
62.5683869545394
20
-4.46327754577376
30
0
41
1
10
64.1455913030263
20
-2.95626101823112
30
0
41
1
10
65.7227956515132
20
-1.4684852540968
30
0
41
1
10
67.3000000000001
20
8.53E-14
30
0
0
SPLINE
5
132
100
AcDbEntity
8
1
62
256
6
ByLayer
370
13
48
1
60
0
100
AcDbSpline
70
4
71
3
72
8
73
4
40
0
40
0
40
0
40
0
40
1
40
1
40
1
40
1
41
1
10
62.5683869545392
20
12.1347745018802
30
0
41
1
10
64.145591303026
20
8.08249454191642
30
0
41
1
10
65.7227956515129
20
4.03752445626938
30
0
41
1
10
67.2999999999998
20
6.821E-13
30
0
0
SPLINE
5
133
100
AcDbEntity
8
1
62
256
6
ByLayer
370
13
48
1
60
0
100
AcDbSpline
70
4
71
3
72
8
73
4
40
0
40
0
40
0
40
0
40
1
40
1
40
1
40
1
41
1
10
62.5683869545392
20
-0.0507360032759721
30
0
41
1
10
64.1455913030264
20
-0.0543275025618755
30
0
41
1
10
65.7227956515135
20
-0.0374152356500588
30
0
41
1
10
67.3000000000007
20
2.84E-14
30
0
0
SPLINE
5
134
100
AcDbEntity
8
1
62
256
6
ByLayer
370
13
48
1
60
0
100
AcDbSpline
70
4
71
3
72
8
73
4
40
0
40
0
40
0
40
0
40
1
40
1
40
1
40
1
41
1
10
62.5683869545392
20
9.61296761872998
30
0
41
1
10
64.145591303026
20
6.39484198594877
30
0
41
1
10
65.7227956515129
20
3.19048362849739
30
0
41
1
10
67.2999999999998
20
5.4E-13
30
0
0
SPLINE
5
135
100
AcDbEntity
8
1
62
256
6
ByLayer
370
13
48
1
60
0
100
AcDbSpline
70
4
71
3
72
8
73
4
40
0
40
0
40
0
40
0
40
1
40
1
40
1
40
1
41
1
10
62.5683869545394
20
-12.4524754817032
30
0
41
1
10
64.1455913030262
20
-8.29576249786706
30
0
41
1
10
65.722795651513
20
-4.14489089468273
30
0
41
1
10
67.2999999999998
20
-6.821E-13
30
0
0
SPLINE
5
136
100
AcDbEntity
8
1
62
256
6
ByLayer
370
13
48
1
60
0
100
AcDbSpline
70
4
71
3
72
8
73
4
40
0
40
0
40
0
40
0
40
1
40
1
40
1
40
1
41
1
10
62.5683869545394
20
3.84045541669244
30
0
41
1
10
64.1455913030262
20
2.57989214005263
30
0
41
1
10
65.7227956515131
20
1.29972593130043
30
0
41
1
10
67.3
20
2.84E-14
30
0
0
SPLINE
5
137
100
AcDbEntity
8
1
62
256
6
ByLayer
370
13
48
1
60
0
100
AcDbSpline
70
4
71
3
72
8
73
4
40
0
40
0
40
0
40
0
40
1
40
1
40
1
40
1
41
1
10
62.5683869545394
20
-0.931768728596381
30
0
41
1
10
64.1455913030262
20
-0.600728229747119
30
0
41
1
10
65.7227956515131
20
-0.290135253099606
30
0
41
1
10
67.3
20
0
30
0
0
SPLINE
5
138
100
AcDbEntity
8
1
62
256
6
ByLayer
370
13
48
1
60
0
100
AcDbSpline
70
4
71
3
72
8
73
4
40
0
40
0
40
0
40
0
40
1
40
1
40
1
40
1
41
1
10
62.5683869545393
20
8.0883528974924
30
0
41
1
10
64.1455913030262
20
5.40828703298439
30
0
41
1
10
65.7227956515131
20
2.71213916008921
30
0
41
1
10
67.3
20
5.68E-14
30
0
0
SPLINE
5
139
100
AcDbEntity
8
1
62
256
6
ByLayer
370
13
48
1
60
0
100
AcDbSpline
70
4
71
3
72
8
73
4
40
0
40
0
40
0
40
0
40
1
40
1
40
1
40
1
41
1
10
62.5683869545392
20
-3.62541772322632
30
0
41
1
10
64.1455913030262
20
-2.43663535262061
30
0
41
1
10
65.7227956515132
20
-1.22814917702598
30
0
41
1
10
67.3000000000002
20
1.421E-13
30
0
0
SPLINE
5
13A
100
AcDbEntity
8
1
62
256
6
ByLayer
370
13
48
1
60
0
100
AcDbSpline
70
4
71
3
72
8
73
4
40
0
40
0
40
0
40
0
40
1
40
1
40
1
40
1
41
1
10
62.5683869545394
20
-7.91140406549201
30
0
41
1
10
64.1455913030262
20
-5.29053903957188
30
0
41
1
10
65.7227956515131
20
-2.65337477012238
30
0
41
1
10
67.3
20
-5.68E-14
30
0
0
SPLINE
5
13B
100
AcDbEntity
8
1
62
256
6
ByLayer
370
13
48
1
60
0
100
AcDbSpline
70
4
71
3
72
8
73
4
40
0
40
0
40
0
40
0
40
1
40
1
40
1
40
1
41
1
10
62.5683869545392
20
12.5150816250525
30
0
41
1
10
64.1455913030264
20
8.33783995040338
30
0
41
1
10
65.7227956515135
20
4.16609939789407
30
0
41
1
10
67.3000000000007
20
-1.7053E-12
30
0
0
SPLINE
5
13C
100
AcDbEntity
8
1
62
256
6
ByLayer
370
13
48
1
60
0
100
AcDbSpline
70
4
71
3
72
8
73
4
40
0
40
0
40
0
40
0
40
1
40
1
40
1
40
1
41
1
10
62.5683869545394
20
2.67165858409422
30
0
41
1
10
64.1455913030262
20
1.80117171956749
30
0
41
1
10
65.7227956515131
20
0.910608814427093
30
0
41
1
10
67.3
20
2.84E-14
30
0
0
SPLINE
5
13D
100
AcDbEntity
8
1
62
256
6
ByLayer
370
13
48
1
60
0
100
AcDbSpline
70
4
71
3
72
8
73
4
40
0
40
0
40
0
40
0
40
1
40
1
40
1
40
1
41
1
10
62.5683869545392
20
-6.9202718633714
30
0
41
1
10
64.1455913030262
20
-4.63087169598828
30
0
41
1
10
65.7227956515132
20
-2.32408852145235
30
0
41
1
10
67.3000000000002
20
2.842E-13
30
0
0
SPLINE
5
13E
100
AcDbEntity
8
1
62
256
6
ByLayer
370
13
48
1
60
0
100
AcDbSpline
70
4
71
3
72
8
73
4
40
0
40
0
40
0
40
0
40
1
40
1
40
1
40
1
41
1
10
62.5683869545392
20
11.0643331920261
30
0
41
1
10
64.145591303026
20
7.3654577191987
30
0
41
1
10
65.7227956515129
20
3.67730541041905
30
0
41
1
10
67.2999999999998
20
5.969E-13
30
0
0
SPLINE
5
13F
100
AcDbEntity
8
1
62
256
6
ByLayer
370
13
48
1
60
0
100
AcDbSpline
70
4
71
3
72
8
73
4
40
0
40
0
40
0
40
0
40
1
40
1
40
1
40
1
41
1
10
62.5683869545394
20
6.06887414058815
30
0
41
1
10
64.1455913030262
20
4.06404837237443
30
0
41
1
10
65.7227956515131
20
2.04106761273974
30
0
41
1
10
67.3
20
5.68E-14
30
0
0
SPLINE
5
140
100
AcDbEntity
8
1
62
256
6
ByLayer
370
13
48
1
60
0
100
AcDbSpline
70
4
71
3
72
8
73
4
40
0
40
0
40
0
40
0
40
1
40
1
40
1
40
1
41
1
10
62.5683869545394
20
-9.68098536788236
30
0
41
1
10
64.1455913030262
20
-6.46767457430286
30
0
41
1
10
65.7227956515131
20
-3.2406432774369
30
0
41
1
10
67.3
20
-5.68E-14
30
0
0
SPLINE
5
141
100
AcDbEntity
8
1
62
256
6
ByLayer
370
13
48
1
60
0
100
AcDbSpline
70
4
71
3
72
8
73
4
40
0
40
0
40
0
40
0
40
1
40
1
40
1
40
1
41
1
10
62.5683869545394
20
-11.5484397178404
30
0
41
1
10
64.1455913030262
20
-7.68954487418537
30
0
41
1
10
65.7227956515131
20
-3.8400219120596
30
0
41
1
10
67.3
20
-8.53E-14
30
0
0
SPLINE
5
142
100
AcDbEntity
8
1
62
256
6
ByLayer
370
13
48
1
60
0
100
AcDbSpline
70
4
71
3
72
8
73
4
40
0
40
0
40
0
40
0
40
1
40
1
40
1
40
1
41
1
10
62.5683869545392
20
8.75958507795653
30
0
41
1
10
64.1455913030262
20
5.82457321733952
30
0
41
1
10
65.7227956515132
20
2.90467889611057
30
0
41
1
10
67.3000000000002
20
-3.695E-13
30
0
0
SPLINE
5
143
100
AcDbEntity
8
1
62
256
6
ByLayer
370
13
48
1
60
0
100
AcDbSpline
70
4
71
3
72
8
73
4
40
0
40
0
40
0
40
0
40
1
40
1
40
1
40
1
41
1
10
62.5683869545393
20
8.99766412724409
30
0
41
1
10
64.1455913030262
20
6.01324177346464
30
0
41
1
10
65.7227956515132
20
3.01398676903176
30
0
41
1
10
67.3000000000001
20
-1.421E-13
30
0
0
SPLINE
5
144
100
AcDbEntity
8
1
62
256
6
ByLayer
370
13
48
1
60
0
100
AcDbSpline
70
4
71
3
72
8
73
4
40
0
40
0
40
0
40
0
40
1
40
1
40
1
40
1
41
1
10
62.5683869545394
20
-11.6944727835848
30
0
41
1
10
64.1455913030262
20
-7.80527050289135
30
0
41
1
10
65.7227956515131
20
-3.90706923873717
30
0
41
1
10
67.3
20
-8.53E-14
30
0
0
SPLINE
5
145
100
AcDbEntity
8
1
62
256
6
ByLayer
370
13
48
1
60
0
100
AcDbSpline
70
4
71
3
72
8
73
4
40
0
40
0
40
0
40
0
40
1
40
1
40
1
40
1
41
1
10
62.5683869545394
20
-9.46041108403958
30
0
41
1
10
64.1455913030262
20
-6.29287787641846
30
0
41
1
10
65.7227956515131
20
-3.13937226740862
30
0
41
1
10
67.3
20
-5.68E-14
30
0
0
SPLINE
5
146
100
AcDbEntity
8
1
62
256
6
ByLayer
370
13
48
1
60
0
100
AcDbSpline
70
4
71
3
72
8
73
4
40
0
40
0
40
0
40
0
40
1
40
1
40
1
40
1
41
1
10
62.5683869545392
20
5.77872908347379
30
0
41
1
10
64.1455913030264
20
3.83411949305278
30
0
41
1
10
65.7227956515135
20
1.90785497127985
30
0
41
1
10
67.3000000000007
20
-7.958E-13
30
0
0
SPLINE
5
147
100
AcDbEntity
8
1
62
256
6
ByLayer
370
13
48
1
60
0
100
AcDbSpline
70
4
71
3
72
8
73
4
40
0
40
0
40
0
40
0
40
1
40
1
40
1
40
1
41
1
10
62.5683869545393
20
11.2319701209253
30
0
41
1
10
64.1455913030262
20
7.49830358456671
30
0
41
1
10
65.7227956515131
20
3.754271595288
30
0
41
1
10
67.3
20
-5.68E-14
30
0
0
SPLINE
5
148
100
AcDbEntity
8
1
62
256
6
ByLayer
370
13
48
1
60
0
100
AcDbSpline
70
4
71
3
72
8
73
4
40
0
40
0
40
0
40
0
40
1
40
1
40
1
40
1
41
1
10
62.5683869545394
20
-12.9580364142247
30
0
41
1
10
64.1455913030262
20
-8.64033705784598
30
0
41
1
10
65.7227956515131
20
-4.32094322928268
30
0
41
1
10
67.3
20
-8.53E-14
30
0
0
SPLINE
5
149
100
AcDbEntity
8
1
62
256
6
ByLayer
370
13
48
1
60
0
100
AcDbSpline
70
4
71
3
72
8
73
4
40
0
40
0
40
0
40
0
40
1
40
1
40
1
40
1
41
1
10
62.5683869545394
20
-12.8053232437818
30
0
41
1
10
64.1455913030262
20
-8.54041724595379
30
0
41
1
10
65.7227956515131
20
-4.27192837031649
30
0
41
1
10
67.3
20
-8.53E-14
30
0
0
SPLINE
5
14A
100
AcDbEntity
8
1
62
256
6
ByLayer
370
13
48
1
60
0
100
AcDbSpline
70
4
71
3
72
8
73
4
40
0
40
0
40
0
40
0
40
1
40
1
40
1
40
1
41
1
10
62.5683869545394
20
-5.57678108868475
30
0
41
1
10
64.1455913030262
20
-3.69933285016501
30
0
41
1
10
65.7227956515131
20
-1.84038508077174
30
0
41
1
10
67.3
20
-2.84E-14
30
0
0
LINE
5
7D
100
AcDbEntity
8
80
62
256
6
ByLayer
370
18
48
1
60
0
100
AcDbLine
10
0
20
0
30
0
11
-5
21
0
31
0
39
0
210
0
220
0
230
1
0
LINE
5
7E
100
AcDbEntity
8
4
62
256
6
ByLayer
370
18
48
0.05
60
0
100
AcDbLine
10
-5
20
0
30
0
11
72.3
21
0
31
0
39
0
210
0
220
0
230
1
0
LINE
5
80
100
AcDbEntity
8
81
62
256
6
ByLayer
370
18
48
1
60
0
100
AcDbLine
10
67.3
20
0
30
0
11
72.3
21
0
31
0
39
0
210
0
220
0
230
1
0
LINE
5
81
100
AcDbEntity
8
SK4
62
256
6
ByLayer
370
18
48
0.05
60
0
100
AcDbLine
10
-65
20
0
30
0
11
72.3
21
0
31
0
39
0
210
0
220
0
230
1
0
LINE
5
83
100
AcDbEntity
8
1
62
256
6
ByLayer
370
18
48
1
60
0
100
AcDbLine
10
67.3
20
0
30
0
11
62.568387
21
13
31
0
39
0
210
0
220
0
230
1
0
LINE
5
84
100
AcDbEntity
8
1
62
256
6
ByLayer
370
18
48
1
60
0
100
AcDbLine
10
62.568387
20
-13
30
0
11
67.3
21
0
31
0
39
0
210
0
220
0
230
1
0
LINE
5
85
100
AcDbEntity
8
1
62
256
6
ByLayer
370
18
48
1
60
0
100
AcDbLine
10
7.99917
20
16.125394
30
0
11
3
21
18.5
31
0
39
0
210
0
220
0
230
1
0
LINE
5
86
100
AcDbEntity
8
1
62
256
6
ByLayer
370
18
48
1
60
0
100
AcDbLine
10
3
20
-18.5
30
0
11
7.99917
21
-16.125394
31
0
39
0
210
0
220
0
230
1
0
LINE
5
87
100
AcDbEntity
8
1
62
256
6
ByLayer
370
18
48
1
60
0
100
AcDbLine
10
0
20
-18.5
30
0
11
3
21
-18.5
31
0
39
0
210
0
220
0
230
1
0
LINE
5
88
100
AcDbEntity
8
1
62
256
6
ByLayer
370
18
48
1
60
0
100
AcDbLine
10
3
20
18.5
30
0
11
0
21
18.5
31
0
39
0
210
0
220
0
230
1
0
LINE
5
89
100
AcDbEntity
8
1
62
256
6
ByLayer
370
18
48
1
60
0
100
AcDbLine
10
62.568387
20
13
30
0
11
50.9
21
13
31
0
39
0
210
0
220
0
230
1
0
LINE
5
8A
100
AcDbEntity
8
1
62
256
6
ByLayer
370
18
48
1
60
0
100
AcDbLine
10
50.9
20
-13
30
0
11
62.568387
21
-13
31
0
39
0
210
0
220
0
230
1
0
LINE
5
8B
100
AcDbEntity
8
1
62
256
6
ByLayer
370
18
48
1
60
0
100
AcDbLine
10
67.3
20
0
30
0
11
62.568387
21
13
31
0
39
0
210
0
220
0
230
1
0
LINE
5
8C
100
AcDbEntity
8
1
62
256
6
ByLayer
370
18
48
1
60
0
100
AcDbLine
10
62.568387
20
-13
30
0
11
67.3
21
0
31
0
39
0
210
0
220
0
230
1
0
LINE
5
8D
100
AcDbEntity
8
SK1
62
256
6
ByLayer
370
18
48
1
60
0
100
AcDbLine
10
-60
20
-15
30
0
11
-59
21
-16
31
0
39
0
210
0
220
0
230
1
0
LINE
5
8F
100
AcDbEntity
8
SK1
62
256
6
ByLayer
370
18
48
1
60
0
100
AcDbLine
10
-59
20
16
30
0
11
-60
21
15
31
0
39
0
210
0
220
0
230
1
0
LINE
5
90
100
AcDbEntity
8
SK1
62
256
6
ByLayer
370
18
48
1
60
0
100
AcDbLine
10
-59
20
-16
30
0
11
0
21
-16
31
0
39
0
210
0
220
0
230
1
0
LINE
5
91
100
AcDbEntity
8
SK1
62
256
6
ByLayer
370
18
48
1
60
0
100
AcDbLine
10
0
20
16
30
0
11
-59
21
16
31
0
39
0
210
0
220
0
230
1
0
LINE
5
92
100
AcDbEntity
8
1
62
256
6
ByLayer
370
18
48
1
60
0
100
AcDbLine
10
62.568387
20
13
30
0
11
62.568387
21
12.587182
31
0
39
0
210
0
220
0
230
1
0
LINE
5
93
100
AcDbEntity
8
1
62
256
6
ByLayer
370
18
48
1
60
0
100
AcDbLine
10
62.568387
20
-13
30
0
11
62.568387
21
-1.854885
31
0
39
0
210
0
220
0
230
1
0
LINE
5
94
100
AcDbEntity
8
1
62
256
6
ByLayer
370
18
48
1
60
0
100
AcDbLine
10
15
20
-7.660414
30
0
11
15
21
11.910112
31
0
39
0
210
0
220
0
230
1
0
LINE
5
95
100
AcDbEntity
8
1
62
256
6
ByLayer
370
18
48
1
60
0
100
AcDbLine
10
0
20
-18.5
30
0
11
0
21
18.5
31
0
39
0
210
0
220
0
230
1
0
LINE
5
96
100
AcDbEntity
8
1
62
256
6
ByLayer
370
18
48
1
60
0
100
AcDbLine
10
3
20
-18.5
30
0
11
3
21
18.5
31
0
39
0
210
0
220
0
230
1
0
LINE
5
97
100
AcDbEntity
8
SK1
62
256
6
ByLayer
370
13
48
1
60
0
100
AcDbLine
10
-15.198909
20
-8.334638
30
0
11
-15.198909
21
8.334638
31
0
39
0
210
0
220
0
230
1
0
LINE
5
98
100
AcDbEntity
8
SK1
62
256
6
ByLayer
370
13
48
1
60
0
100
AcDbLine
10
-55.486983
20
5.39045
30
0
11
-55.486983
21
-5.39045
31
0
39
0
210
0
220
0
230
1
0
LINE
5
99
100
AcDbEntity
8
SK1
62
256
6
ByLayer
370
18
48
1
60
0
100
AcDbLine
10
-60
20
-15
30
0
11
-60
21
15
31
0
39
0
210
0
220
0
230
1
0
LINE
5
9A
100
AcDbEntity
8
SK1
62
256
6
ByLayer
370
18
48
1
60
0
100
AcDbLine
10
-59
20
-16
30
0
11
-59
21
16
31
0
39
0
210
0
220
0
230
1
0
LINE
5
9B
100
AcDbEntity
8
SK1
62
256
6
ByLayer
370
13
48
1
60
0
100
AcDbLine
10
-14.051873
20
7.587342
30
0
11
-14.051873
21
-7.587342
31
0
39
0
210
0
220
0
230
1
0
LINE
5
9C
100
AcDbEntity
8
SK1
62
256
6
ByLayer
370
13
48
1
60
0
100
AcDbLine
10
-56.60131
20
-3.674042
30
0
11
-56.60131
21
3.674042
31
0
39
0
210
0
220
0
230
1
0
LINE
5
9D
100
AcDbEntity
8
1
62
256
6
ByLayer
370
18
48
1
60
0
100
AcDbLine
10
62.568387
20
13
30
0
11
62.568387
21
-13
31
0
39
0
210
0
220
0
230
1
0
LINE
5
9E
100
AcDbEntity
8
1
62
256
6
ByLayer
370
18
48
1
60
0
100
AcDbLine
10
62.568387
20
13
30
0
11
62.568387
21
-13
31
0
39
0
210
0
220
0
230
1
0
LINE
5
9F
100
AcDbEntity
8
1
62
256
6
ByLayer
370
18
48
1
60
0
100
AcDbLine
10
62.568387
20
13
30
0
11
62.568387
21
-13
31
0
39
0
210
0
220
0
230
1
0
LINE
5
A0
100
AcDbEntity
8
1
62
256
6
ByLayer
370
18
48
1
60
0
100
AcDbLine
10
50.9
20
13
30
0
11
50.9
21
-13
31
0
39
0
210
0
220
0
230
1
0
LINE
5
A1
100
AcDbEntity
8
1
62
256
6
ByLayer
370
18
48
1
60
0
100
AcDbLine
10
50.9
20
13
30
0
11
50.9
21
-13
31
0
39
0
210
0
220
0
230
1
0
LINE
5
A2
100
AcDbEntity
8
1
62
256
6
ByLayer
370
18
48
1
60
0
100
AcDbLine
10
62.568387
20
13
30
0
11
62.568387
21
-13
31
0
39
0
210
0
220
0
230
1
0
LINE
5
A3
100
AcDbEntity
8
1
62
256
6
ByLayer
370
18
48
1
60
0
100
AcDbLine
10
50.9
20
13
30
0
11
50.9
21
-13
31
0
39
0
210
0
220
0
230
1
0
LINE
5
A4
100
AcDbEntity
8
1
62
256
6
ByLayer
370
18
48
1
60
0
100
AcDbLine
10
62.568387
20
13
30
0
11
62.568387
21
-13
31
0
39
0
210
0
220
0
230
1
0
LINE
5
A5
100
AcDbEntity
8
SK2
62
256
6
ByLayer
370
13
48
1
60
0
100
AcDbLine
10
-66.5
20
-16
30
0
11
-66.5
21
45.024569
31
0
39
0
210
0
220
0
230
1
0
LINE
5
A7
100
AcDbEntity
8
SK2
62
256
6
ByLayer
370
13
48
1
60
0
100
AcDbLine
10
-61.5875
20
16
30
0
11
-68.5
21
16
31
0
39
0
210
0
220
0
230
1
0
LINE
5
A8
100
AcDbEntity
8
SK2
62
256
6
ByLayer
370
13
48
1
60
0
100
AcDbLine
10
-61.5875
20
-16
30
0
11
-68.5
21
-16
31
0
39
0
210
0
220
0
230
1
0
LINE
5
A9
100
AcDbEntity
8
1
62
256
6
ByLayer
370
18
48
1
60
1
100
AcDbLine
10
-66.5
20
16
30
0
11
-66.039216
21
12.500002
31
0
39
0
210
0
220
0
230
1
0
LINE
5
AA
100
AcDbEntity
8
1
62
256
6
ByLayer
370
18
48
1
60
1
100
AcDbLine
10
-66.039216
20
12.500002
30
0
11
-66.960784
21
12.499998
31
0
39
0
210
0
220
0
230
1
0
LINE
5
AB
100
AcDbEntity
8
1
62
256
6
ByLayer
370
18
48
1
60
1
100
AcDbLine
10
-66.960784
20
12.499998
30
0
11
-66.5
21
16
31
0
39
0
210
0
220
0
230
1
0
LINE
5
AC
100
AcDbEntity
8
1
62
256
6
ByLayer
370
18
48
1
60
1
100
AcDbLine
10
-66.5
20
-16
30
0
11
-66.960784
21
-12.500002
31
0
39
0
210
0
220
0
230
1
0
LINE
5
AD
100
AcDbEntity
8
1
62
256
6
ByLayer
370
18
48
1
60
1
100
AcDbLine
10
-66.960784
20
-12.500002
30
0
11
-66.039216
21
-12.499998
31
0
39
0
210
0
220
0
230
1
0
LINE
5
AE
100
AcDbEntity
8
1
62
256
6
ByLayer
370
18
48
1
60
1
100
AcDbLine
10
-66.039216
20
-12.499998
30
0
11
-66.5
21
-16
31
0
39
0
210
0
220
0
230
1
0
LINE
5
AF
100
AcDbEntity
8
2
62
256
6
ByLayer
370
13
48
1
60
0
100
AcDbLine
10
74.8
20
-13
30
0
11
74.8
21
42.024569
31
0
39
0
210
0
220
0
230
1
0
LINE
5
B1
100
AcDbEntity
8
2
62
256
6
ByLayer
370
13
48
1
60
0
100
AcDbLine
10
64.155887
20
13
30
0
11
76.8
21
13
31
0
39
0
210
0
220
0
230
1
0
LINE
5
B2
100
AcDbEntity
8
2
62
256
6
ByLayer
370
13
48
1
60
0
100
AcDbLine
10
64.155887
20
-13
30
0
11
76.8
21
-13
31
0
39
0
210
0
220
0
230
1
0
LINE
5
B3
100
AcDbEntity
8
1
62
256
6
ByLayer
370
18
48
1
60
1
100
AcDbLine
10
74.8
20
13
30
0
11
75.260784
21
9.500002
31
0
39
0
210
0
220
0
230
1
0
LINE
5
B4
100
AcDbEntity
8
1
62
256
6
ByLayer
370
18
48
1
60
1
100
AcDbLine
10
75.260784
20
9.500002
30
0
11
74.339216
21
9.499998
31
0
39
0
210
0
220
0
230
1
0
LINE
5
B5
100
AcDbEntity
8
1
62
256
6
ByLayer
370
18
48
1
60
1
100
AcDbLine
10
74.339216
20
9.499998
30
0
11
74.8
21
13
31
0
39
0
210
0
220
0
230
1
0
LINE
5
B6
100
AcDbEntity
8
1
62
256
6
ByLayer
370
18
48
1
60
1
100
AcDbLine
10
74.8
20
-13
30
0
11
74.339216
21
-9.500002
31
0
39
0
210
0
220
0
230
1
0
LINE
5
B7
100
AcDbEntity
8
1
62
256
6
ByLayer
370
18
48
1
60
1
100
AcDbLine
10
74.339216
20
-9.500002
30
0
11
75.260784
21
-9.499998
31
0
39
0
210
0
220
0
230
1
0
LINE
5
B8
100
AcDbEntity
8
1
62
256
6
ByLayer
370
18
48
1
60
1
100
AcDbLine
10
75.260784
20
-9.499998
30
0
11
74.8
21
-13
31
0
39
0
210
0
220
0
230
1
0
LINE
5
B9
100
AcDbEntity
8
SK2
62
256
6
ByLayer
370
13
48
1
60
0
100
AcDbLine
10
67.842957
20
-1.491762
30
0
11
74.482423
21
-19.733545
31
0
39
0
210
0
220
0
230
1
0
LINE
5
BA
100
AcDbEntity
8
SK2
62
256
6
ByLayer
370
13
48
1
60
0
100
AcDbLine
10
67.842957
20
1.491762
30
0
11
74.482423
21
19.733545
31
0
39
0
210
0
220
0
230
1
0
LINE
5
BB
100
AcDbEntity
8
1
62
256
6
ByLayer
370
18
48
1
60
1
100
AcDbLine
10
73.798383
20
-17.85416
30
0
11
76.851575
21
-16.082064
31
0
39
0
210
0
220
0
230
1
0
LINE
5
BC
100
AcDbEntity
8
1
62
256
6
ByLayer
370
18
48
1
60
1
100
AcDbLine
10
76.851575
20
-16.082064
30
0
11
77.206196
21
-16.93267
31
0
39
0
210
0
220
0
230
1
0
LINE
5
BD
100
AcDbEntity
8
1
62
256
6
ByLayer
370
18
48
1
60
1
100
AcDbLine
10
77.206196
20
-16.93267
30
0
11
73.798383
21
-17.85416
31
0
39
0
210
0
220
0
230
1
0
LINE
5
BE
100
AcDbEntity
8
1
62
256
6
ByLayer
370
18
48
1
60
1
100
AcDbLine
10
73.798383
20
17.85416
30
0
11
77.206193
21
16.932671
31
0
39
0
210
0
220
0
230
1
0
LINE
5
BF
100
AcDbEntity
8
1
62
256
6
ByLayer
370
18
48
1
60
1
100
AcDbLine
10
77.206193
20
16.932671
30
0
11
76.851579
21
16.082063
31
0
39
0
210
0
220
0
230
1
0
LINE
5
C0
100
AcDbEntity
8
1
62
256
6
ByLayer
370
18
48
1
60
1
100
AcDbLine
10
76.851579
20
16.082063
30
0
11
73.798383
21
17.85416
31
0
39
0
210
0
220
0
230
1
0
LINE
5
14F
100
AcDbEntity
8
1
62
256
6
ByLayer
370
18
48
1
60
1
100
AcDbLine
10
-66.5
20
16
30
0
11
-66.039216
21
12.500002
31
0
39
0
210
0
220
0
230
1
0
LINE
5
150
100
AcDbEntity
8
1
62
256
6
ByLayer
370
18
48
1
60
1
100
AcDbLine
10
-66.039216
20
12.500002
30
0
11
-66.960784
21
12.499998
31
0
39
0
210
0
220
0
230
1
0
LINE
5
151
100
AcDbEntity
8
1
62
256
6
ByLayer
370
18
48
1
60
1
100
AcDbLine
10
-66.960784
20
12.499998
30
0
11
-66.5
21
16
31
0
39
0
210
0
220
0
230
1
0
LINE
5
153
100
AcDbEntity
8
1
62
256
6
ByLayer
370
18
48
1
60
1
100
AcDbLine
10
-66.5
20
-16
30
0
11
-66.960784
21
-12.500002
31
0
39
0
210
0
220
0
230
1
0
LINE
5
154
100
AcDbEntity
8
1
62
256
6
ByLayer
370
18
48
1
60
1
100
AcDbLine
10
-66.960784
20
-12.500002
30
0
11
-66.039216
21
-12.499998
31
0
39
0
210
0
220
0
230
1
0
LINE
5
155
100
AcDbEntity
8
1
62
256
6
ByLayer
370
18
48
1
60
1
100
AcDbLine
10
-66.039216
20
-12.499998
30
0
11
-66.5
21
-16
31
0
39
0
210
0
220
0
230
1
0
LINE
5
159
100
AcDbEntity
8
1
62
256
6
ByLayer
370
18
48
1
60
1
100
AcDbLine
10
74.8
20
13
30
0
11
75.260784
21
9.500002
31
0
39
0
210
0
220
0
230
1
0
LINE
5
15A
100
AcDbEntity
8
1
62
256
6
ByLayer
370
18
48
1
60
1
100
AcDbLine
10
75.260784
20
9.500002
30
0
11
74.339216
21
9.499998
31
0
39
0
210
0
220
0
230
1
0
LINE
5
15B
100
AcDbEntity
8
1
62
256
6
ByLayer
370
18
48
1
60
1
100
AcDbLine
10
74.339216
20
9.499998
30
0
11
74.8
21
13
31
0
39
0
210
0
220
0
230
1
0
LINE
5
15D
100
AcDbEntity
8
1
62
256
6
ByLayer
370
18
48
1
60
1
100
AcDbLine
10
74.8
20
-13
30
0
11
74.339216
21
-9.500002
31
0
39
0
210
0
220
0
230
1
0
LINE
5
15E
100
AcDbEntity
8
1
62
256
6
ByLayer
370
18
48
1
60
1
100
AcDbLine
10
74.339216
20
-9.500002
30
0
11
75.260784
21
-9.499998
31
0
39
0
210
0
220
0
230
1
0
LINE
5
15F
100
AcDbEntity
8
1
62
256
6
ByLayer
370
18
48
1
60
1
100
AcDbLine
10
75.260784
20
-9.499998
30
0
11
74.8
21
-13
31
0
39
0
210
0
220
0
230
1
0
LINE
5
162
100
AcDbEntity
8
1
62
256
6
ByLayer
370
18
48
1
60
1
100
AcDbLine
10
73.798383
20
-17.85416
30
0
11
76.851575
21
-16.082064
31
0
39
0
210
0
220
0
230
1
0
LINE
5
163
100
AcDbEntity
8
1
62
256
6
ByLayer
370
18
48
1
60
1
100
AcDbLine
10
76.851575
20
-16.082064
30
0
11
77.206196
21
-16.93267
31
0
39
0
210
0
220
0
230
1
0
LINE
5
164
100
AcDbEntity
8
1
62
256
6
ByLayer
370
18
48
1
60
1
100
AcDbLine
10
77.206196
20
-16.93267
30
0
11
73.798383
21
-17.85416
31
0
39
0
210
0
220
0
230
1
0
LINE
5
166
100
AcDbEntity
8
1
62
256
6
ByLayer
370
18
48
1
60
1
100
AcDbLine
10
73.798383
20
17.85416
30
0
11
77.206193
21
16.932671
31
0
39
0
210
0
220
0
230
1
0
LINE
5
167
100
AcDbEntity
8
1
62
256
6
ByLayer
370
18
48
1
60
1
100
AcDbLine
10
77.206193
20
16.932671
30
0
11
76.851579
21
16.082063
31
0
39
0
210
0
220
0
230
1
0
LINE
5
168
100
AcDbEntity
8
1
62
256
6
ByLayer
370
18
48
1
60
1
100
AcDbLine
10
76.851579
20
16.082063
30
0
11
73.798383
21
17.85416
31
0
39
0
210
0
220
0
230
1
0
MTEXT
5
14B
100
AcDbEntity
8
SK2
62
256
6
ByLayer
370
18
48
1
60
0
100
AcDbMText
10
-67.841114
20
27.658438
30
0
210
0
220
0
230
1
1
%%c
40
3
41
0
44
1.084337
50
90
71
7
72
5
7
iso_b_vert
0
MTEXT
5
14E
100
AcDbEntity
8
SK2
62
256
6
ByLayer
370
18
48
1
60
0
100
AcDbMText
10
-67.841114
20
33.635
30
0
210
0
220
0
230
1
1
\W0.7513;32.000
40
3
41
0
44
1.084337
50
90
71
7
72
5
7
iso_b_vert
0
MTEXT
5
157
100
AcDbEntity
8
2
62
256
6
ByLayer
370
18
48
1
60
0
100
AcDbMText
10
73.458886
20
24.658438
30
0
210
0
220
0
230
1
1
%%c
40
3
41
0
44
1.084337
50
90
71
7
72
5
7
iso_b_vert
0
MTEXT
5
158
100
AcDbEntity
8
2
62
256
6
ByLayer
370
18
48
1
60
0
100
AcDbMText
10
73.458886
20
30.635
30
0
210
0
220
0
230
1
1
\W0.7513;26.000
40
3
41
0
44
1.084337
50
90
71
7
72
5
7
iso_b_vert
0
MTEXT
5
161
100
AcDbEntity
8
SK2
62
256
6
ByLayer
370
18
48
1
60
0
100
AcDbMText
10
87.209114
20
3.734657
30
0
210
0
220
0
230
1
1
\W0.7071;140%%d
40
3
41
0
44
1.084337
50
270
71
7
72
5
7
iso_b_vert
0
MTEXT
5
16A
100
AcDbEntity
8
SK6
62
256
6
ByLayer
370
18
48
1
60
0
100
AcDbMText
10
-20.262197
20
-67.114886
30
0
210
0
220
0
230
1
1
\W0.7519;H85126.0
40
3
41
0
44
1.084337
50
0
71
7
72
5
7
iso_b_vert
0
HATCH
5
152
100
AcDbEntity
8
SK2
62
256
6
ByLayer
370
13
48
1
60
0
100
AcDbHatch
10
0
20
0
30
0
210
0
220
0
230
1
2
ANSI31
70
0
71
0
91
1
92
5
93
3
72
1
10
-66.5
20
16
11
-66.0392162584472
21
12.5000016925532
72
1
10
-66.0392162584472
20
12.5000016925532
11
-66.9607837415528
21
12.4999983074468
72
1
10
-66.9607837415528
20
12.4999983074468
11
-66.5
21
16
97
0
75
0
76
1
52
0
41
0.0062
77
0
78
1
53
45
43
0
44
0
45
-0.0139193969876572
46
0.0139193969876572
79
0
47
0
98
1
10
0
20
0
0
HATCH
5
156
100
AcDbEntity
8
SK2
62
256
6
ByLayer
370
13
48
1
60
0
100
AcDbHatch
10
0
20
0
30
0
210
0
220
0
230
1
2
ANSI31
70
0
71
0
91
1
92
5
93
3
72
1
10
-66.5
20
-16
11
-66.9607837415528
21
-12.5000016925532
72
1
10
-66.9607837415528
20
-12.5000016925532
11
-66.0392162584472
21
-12.4999983074468
72
1
10
-66.0392162584472
20
-12.4999983074468
11
-66.5
21
-16
97
0
75
0
76
1
52
0
41
0.0062
77
0
78
1
53
45
43
0
44
0
45
-0.0139193969876572
46
0.0139193969876572
79
0
47
0
98
1
10
0
20
0
0
HATCH
5
15C
100
AcDbEntity
8
2
62
256
6
ByLayer
370
13
48
1
60
0
100
AcDbHatch
10
0
20
0
30
0
210
0
220
0
230
1
2
ANSI31
70
0
71
0
91
1
92
5
93
3
72
1
10
74.8
20
13
11
75.2607837415528
21
9.50000169255321
72
1
10
75.2607837415528
20
9.50000169255321
11
74.3392162584472
21
9.49999830744684
72
1
10
74.3392162584472
20
9.49999830744684
11
74.8
21
13
97
0
75
0
76
1
52
0
41
0.0062
77
0
78
1
53
45
43
0
44
0
45
-0.0139193969876572
46
0.0139193969876572
79
0
47
0
98
1
10
0
20
0
0
HATCH
5
160
100
AcDbEntity
8
2
62
256
6
ByLayer
370
13
48
1
60
0
100
AcDbHatch
10
0
20
0
30
0
210
0
220
0
230
1
2
ANSI31
70
0
71
0
91
1
92
5
93
3
72
1
10
74.8
20
-13
11
74.3392162584472
21
-9.50000169255316
72
1
10
74.3392162584472
20
-9.50000169255316
11
75.2607837415528
21
-9.49999830744679
72
1
10
75.2607837415528
20
-9.49999830744679
11
74.8
21
-13
97
0
75
0
76
1
52
0
41
0.0062
77
0
78
1
53
45
43
0
44
0
45
-0.0139193969876572
46
0.0139193969876572
79
0
47
0
98
1
10
0
20
0
0
HATCH
5
165
100
AcDbEntity
8
SK2
62
256
6
ByLayer
370
13
48
1
60
0
100
AcDbHatch
10
0
20
0
30
0
210
0
220
0
230
1
2
ANSI31
70
0
71
0
91
1
92
5
93
3
72
1
10
73.7983827231877
20
-17.8541597949322
11
76.8515754256929
21
-16.0820638240607
72
1
10
76.8515754256929
20
-16.0820638240607
11
77.206195833975
21
-16.9326700737195
72
1
10
77.206195833975
20
-16.9326700737195
11
73.7983827231877
21
-17.8541597949322
97
0
75
0
76
1
52
0
41
0.0062
77
0
78
1
53
45
43
0
44
0
45
-0.0139193969876572
46
0.0139193969876572
79
0
47
0
98
1
10
0
20
0
0
HATCH
5
169
100
AcDbEntity
8
SK2
62
256
6
ByLayer
370
13
48
1
60
0
100
AcDbHatch
10
0
20
0
30
0
210
0
220
0
230
1
2
ANSI31
70
0
71
0
91
1
92
5
93
3
72
1
10
73.7983827231877
20
17.8541597949322
11
77.2061927095191
21
16.9326713763016
72
1
10
77.2061927095191
20
16.9326713763016
11
76.8515785501489
21
16.0820625214788
72
1
10
76.8515785501489
20
16.0820625214788
11
73.7983827231877
21
17.8541597949322
97
0
75
0
76
1
52
0
41
0.0062
77
0
78
1
53
45
43
0
44
0
45
-0.0139193969876572
46
0.0139193969876572
79
0
47
0
98
1
10
0
20
0
0
DIMENSION
5
16D
100
AcDbEntity
8
SK2
62
256
6
ByLayer
370
18
48
1
60
0
100
AcDbDimension
2
_U0
10
67.3
20
-46.442628
30
0
11
3.65
21
-46.442628
31
0
70
32
71
1
72
1
41
1
210
0
220
0
230
1
3
Standard
100
AcDbAlignedDimension
13
-60
23
-16
33
0
14
67.3
24
0
34
0
50
0
100
AcDbRotatedDimension
1001
ACAD
1000
DSTYLE
1002
{
1070
   371
1070
    13
1070
   372
1070
    13
1070
     3
1000

1070
   170
1070
     0
1070
   144
1040
1.0
1070
   277
1070
     2
1070
   284
1070
     8
1070
   278
1070
    46
1070
   146
1040
1.166667
1070
   345
1005
16
1070
   347
1005
16
1070
   346
1005
16
1070
   344
1005
0
1070
   343
1005
0
1070
   172
1070
     1
1070
    76
1070
     0
1070
    75
1070
     0
1070
   282
1070
     0
1070
   281
1070
     0
1070
    71
1070
     0
1070
    74
1070
     0
1070
   279
1070
     0
1070
   173
1070
     1
1070
   340
1005
14C
1070
   271
1070
     2
1070
   272
1070
     3
1070
    77
1070
     1
1070
    73
1070
     1
1070
   171
1070
     3
1070
   274
1070
     4
1070
   177
1070
     2
1070
   176
1070
     2
1070
   178
1070
     2
1070
    78
1070
     8
1070
    48
1040
-0.1
1070
    41
1040
3.5
1070
   147
1040
1.5
1070
    42
1040
1.5875
1070
    44
1040
2.0
1070
   140
1040
3.0
1002
}
1001
ACAD_DSTYLE_DIM_LINETYPE
1070
   380
1005
16
1001
ACAD_DSTYLE_DIM_EXT1_LINETYPE
1070
   381
1005
16
1001
ACAD_DSTYLE_DIM_EXT2_LINETYPE
1070
   382
1005
16
0
DIMENSION
5
186
100
AcDbEntity
8
SK2
62
256
6
ByLayer
370
18
48
1
60
0
100
AcDbDimension
2
_U1
10
6
20
-36.442628
30
0
11
36.65
21
-36.442628
31
0
70
32
71
1
72
1
41
1
210
0
220
0
230
1
3
Standard
100
AcDbAlignedDimension
13
67.3
23
0
33
0
14
6
24
-13
34
0
50
0
100
AcDbRotatedDimension
1001
ACAD
1000
DSTYLE
1002
{
1070
   371
1070
    13
1070
   372
1070
    13
1070
     3
1000

1070
   170
1070
     0
1070
   144
1040
1.0
1070
   277
1070
     2
1070
   284
1070
     8
1070
   278
1070
    46
1070
   146
1040
1.166667
1070
   345
1005
16
1070
   347
1005
16
1070
   346
1005
16
1070
   344
1005
0
1070
   343
1005
0
1070
   172
1070
     1
1070
    76
1070
     0
1070
    75
1070
     0
1070
   282
1070
     0
1070
   281
1070
     0
1070
    71
1070
     0
1070
    74
1070
     0
1070
   279
1070
     0
1070
   173
1070
     1
1070
   340
1005
14C
1070
   271
1070
     2
1070
   272
1070
     3
1070
    77
1070
     1
1070
    73
1070
     1
1070
   171
1070
     3
1070
   274
1070
     4
1070
   177
1070
     2
1070
   176
1070
     2
1070
   178
1070
     2
1070
    78
1070
     8
1070
    48
1040
-0.1
1070
    41
1040
3.5
1070
   147
1040
1.5
1070
    42
1040
1.5875
1070
    44
1040
2.0
1070
   140
1040
3.0
1002
}
1001
ACAD_DSTYLE_DIM_LINETYPE
1070
   380
1005
16
1001
ACAD_DSTYLE_DIM_EXT1_LINETYPE
1070
   381
1005
16
1001
ACAD_DSTYLE_DIM_EXT2_LINETYPE
1070
   382
1005
16
0
DIMENSION
5
19E
100
AcDbEntity
8
SK2
62
256
6
ByLayer
370
18
48
1
60
0
100
AcDbDimension
2
_U2
10
0
20
-36.442628
30
0
11
-30
21
-36.442628
31
0
70
32
71
1
72
1
41
1
210
0
220
0
230
1
3
Standard
100
AcDbAlignedDimension
13
-60
23
-16
33
0
14
0
24
-16
34
0
50
0
100
AcDbRotatedDimension
1001
ACAD
1000
DSTYLE
1002
{
1070
   371
1070
    13
1070
   372
1070
    13
1070
     3
1000

1070
   170
1070
     0
1070
   144
1040
1.0
1070
   277
1070
     2
1070
   284
1070
     8
1070
   278
1070
    46
1070
   146
1040
1.166667
1070
   345
1005
16
1070
   347
1005
16
1070
   346
1005
16
1070
   344
1005
0
1070
   343
1005
0
1070
   172
1070
     1
1070
    76
1070
     0
1070
    75
1070
     0
1070
   282
1070
     0
1070
   281
1070
     0
1070
    71
1070
     0
1070
    74
1070
     0
1070
   279
1070
     0
1070
   173
1070
     1
1070
   340
1005
14C
1070
   271
1070
     2
1070
   272
1070
     3
1070
    77
1070
     1
1070
    73
1070
     1
1070
   171
1070
     3
1070
   274
1070
     4
1070
   177
1070
     2
1070
   176
1070
     2
1070
   178
1070
     2
1070
    78
1070
     8
1070
    48
1040
-0.1
1070
    41
1040
3.5
1070
   147
1040
1.5
1070
    42
1040
1.5875
1070
    44
1040
2.0
1070
   140
1040
3.0
1002
}
1001
ACAD_DSTYLE_DIM_LINETYPE
1070
   380
1005
16
1001
ACAD_DSTYLE_DIM_EXT1_LINETYPE
1070
   381
1005
16
1001
ACAD_DSTYLE_DIM_EXT2_LINETYPE
1070
   382
1005
16
0
DIMENSION
5
1B6
100
AcDbEntity
8
SK2
62
256
6
ByLayer
370
18
48
1
60
0
100
AcDbDimension
2
_U3
10
15
20
33.442628
30
0
11
41.15
21
33.442628
31
0
70
32
71
1
72
1
41
1
210
0
220
0
230
1
3
Standard
100
AcDbAlignedDimension
13
67.3
23
0
33
0
14
15
24
13
34
0
50
0
100
AcDbRotatedDimension
1001
ACAD
1000
DSTYLE
1002
{
1070
   371
1070
    13
1070
   372
1070
    13
1070
     3
1000

1070
   170
1070
     0
1070
   144
1040
1.0
1070
   277
1070
     2
1070
   284
1070
     8
1070
   278
1070
    46
1070
   146
1040
1.166667
1070
   345
1005
16
1070
   347
1005
16
1070
   346
1005
16
1070
   344
1005
0
1070
   343
1005
0
1070
   172
1070
     1
1070
    76
1070
     0
1070
    75
1070
     0
1070
   282
1070
     0
1070
   281
1070
     0
1070
    71
1070
     0
1070
    74
1070
     0
1070
   279
1070
     0
1070
   173
1070
     1
1070
   340
1005
14C
1070
   271
1070
     2
1070
   272
1070
     3
1070
    77
1070
     1
1070
    73
1070
     1
1070
   171
1070
     3
1070
   274
1070
     4
1070
   177
1070
     2
1070
   176
1070
     2
1070
   178
1070
     2
1070
    78
1070
     8
1070
    48
1040
-0.1
1070
    41
1040
3.5
1070
   147
1040
1.5
1070
    42
1040
1.5875
1070
    44
1040
2.0
1070
   140
1040
3.0
1002
}
1001
ACAD_DSTYLE_DIM_LINETYPE
1070
   380
1005
16
1001
ACAD_DSTYLE_DIM_EXT1_LINETYPE
1070
   381
1005
16
1001
ACAD_DSTYLE_DIM_EXT2_LINETYPE
1070
   382
1005
16
0
ENDSEC
0
SECTION
2
OBJECTS
0
DICTIONARY
5
23e
330
0
100
AcDbDictionary
280
0
281
1
3
ACAD_GROUP
350
23f
3
ACAD_MLINESTYLE
350
240
0
DICTIONARY
5
23f
330
0
100
AcDbDictionary
280
0
281
1
0
DICTIONARY
5
240
330
0
100
AcDbDictionary
280
0
281
1
3
Standard
350
18
0
MLINESTYLE
5
18
330
240
100
AcDbMlineStyle
2
Standard
70
0
3

62
256
51
90
52
90
71
2
49
-0.5
62
256
6
ByLayer
49
0.5
62
256
6
ByLayer
0
RASTERVARIABLES
5
22c
330

100
AcDbRasterVariables
90
0
70
1
71
1
72
1
0
ENDSEC
0
EOF
