0
SECTION
2
HEADER
9
$ACADVER
1
AC1015
9
$DWGCODEPAGE
3
ANSI_1252
9
$HANDSEED
5
240
9
$ANGBASE
50
0
9
$ANGDIR
70
0
9
$ATTMODE
70
1
9
$AUNITS
70
0
9
$AUPREC
70
0
9
$CECOLOR
62
256
9
$CELTSCALE
40
1
9
$CELTYPE
6
ByLayer
9
$CELWEIGHT
370
18
9
$CLAYER
8
0
9
$CMLJUST
70
0
9
$CMLSCALE
40
1
9
$CMLSTYLE
2
Standard
9
$DIMSTYLE
2
Standard
9
$TEXTSIZE
40
0.2
9
$TEXTSTYLE
7
Standard
9
$LUNITS
70
2
9
$LUPREC
70
4
9
$EXTNAMES
290
1
9
$INSUNITS
70
4
9
$LTSCALE
40
1
9
$LWDISPLAY
290
1
9
$PDMODE
70
0
9
$PDSIZE
40
0
9
$PLINEGEN
70
0
0
ENDSEC
0
SECTION
2
CLASSES
0
CLASS
1
RASTERVARIABLES
2
AcDbRasterVariables
3
ISM
90
0
280
0
281
0
0
ENDSEC
0
SECTION
2
TABLES
0
TABLE
2
VPORT
5
236
100
AcDbSymbolTable
0
VPORT
5
1
100
AcDbSymbolTableRecord
100
AcDbViewportTableRecord
2
*Active
70
0
10
0
20
0
11
1
21
1
12
-1
22
1
13
0
23
0
14
0.5
24
0.5
15
10
25
10
16
0
26
0
36
1
17
0
27
0
37
0
0
ENDTAB
0
TABLE
2
LTYPE
5
237
100
AcDbSymbolTable
0
LTYPE
5
14
100
AcDbSymbolTableRecord
100
AcDbLinetypeTableRecord
70
0
2
ByBlock
3

72
65
73
0
40
0
0
LTYPE
5
15
100
AcDbSymbolTableRecord
100
AcDbLinetypeTableRecord
70
0
2
ByLayer
3

72
65
73
0
40
0
0
LTYPE
5
16
100
AcDbSymbolTableRecord
100
AcDbLinetypeTableRecord
70
0
2
Continuous
3
Solid line
72
65
73
0
40
0
0
LTYPE
5
6E
100
AcDbSymbolTableRecord
100
AcDbLinetypeTableRecord
70
0
2
CENTER
3
____ _ ____ _ ____ _ ____
72
65
73
4
40
47.5
49
22
74
0
49
-8.5
74
0
49
8.5
74
0
49
-8.5
74
0
0
LTYPE
5
6F
100
AcDbSymbolTableRecord
100
AcDbLinetypeTableRecord
70
0
2
DASHED
3
__ __ __ __ __ __ __ __ __
72
65
73
2
40
25.72
49
12.86
74
0
49
-12.86
74
0
0
ENDTAB
0
TABLE
2
LAYER
5
238
100
AcDbSymbolTable
0
LAYER
5
10
100
AcDbSymbolTableRecord
100
AcDbLayerTableRecord
2
0
70
0
62
7
6
Continuous
290
1
370
-3
390
0
0
LAYER
5
71
100
AcDbSymbolTableRecord
100
AcDbLayerTableRecord
2
81
70
0
62
-3
6
Continuous
290
1
370
-3
390
0
0
LAYER
5
73
100
AcDbSymbolTableRecord
100
AcDbLayerTableRecord
2
80
70
0
62
-6
6
Continuous
290
1
370
-3
390
0
0
LAYER
5
75
100
AcDbSymbolTableRecord
100
AcDbLayerTableRecord
2
1
70
0
62
4
6
Continuous
290
1
370
-3
390
0
0
LAYER
5
7F
100
AcDbSymbolTableRecord
100
AcDbLayerTableRecord
2
4
70
0
62
-2
6
CENTER
290
1
370
-3
390
0
0
LAYER
5
B0
100
AcDbSymbolTableRecord
100
AcDbLayerTableRecord
2
2
70
0
62
7
6
Continuous
290
1
370
-3
390
0
0
LAYER
5
165
100
AcDbSymbolTableRecord
100
AcDbLayerTableRecord
2
Defpoints
70
0
62
7
6
Continuous
290
0
370
-3
390
0
0
LAYER
5
222
100
AcDbSymbolTableRecord
100
AcDbLayerTableRecord
2
SK4
70
0
62
2
6
CENTER
290
1
370
-3
390
0
0
LAYER
5
223
100
AcDbSymbolTableRecord
100
AcDbLayerTableRecord
2
SK1
70
0
62
4
6
Continuous
290
1
370
-3
390
0
0
LAYER
5
224
100
AcDbSymbolTableRecord
100
AcDbLayerTableRecord
2
SK2
70
0
62
7
6
Continuous
290
1
370
-3
390
0
0
LAYER
5
225
100
AcDbSymbolTableRecord
100
AcDbLayerTableRecord
2
SK6
70
0
62
5
6
Continuous
290
1
370
-3
390
0
0
ENDTAB
0
TABLE
2
STYLE
5
239
100
AcDbSymbolTable
0
STYLE
5
11
100
AcDbSymbolTableRecord
100
AcDbTextStyleTableRecord
2
Standard
3
txt
70
0
71
0
40
0
41
1
42
0
50
0
0
STYLE
5
141
100
AcDbSymbolTableRecord
100
AcDbTextStyleTableRecord
2
iso_b_vert
3
simplex.shx
70
0
71
0
40
0
41
1
42
0
50
0
0
STYLE
5
142
100
AcDbSymbolTableRecord
100
AcDbTextStyleTableRecord
2
DWGDirectTextStyle
3
simplex
70
0
71
0
40
0
41
1
42
0
50
0
0
ENDTAB
0
TABLE
2
DIMSTYLE
5
23a
100
AcDbSymbolTable
100
AcDbDimStyleTable
0
DIMSTYLE
105
27
100
AcDbSymbolTableRecord
100
AcDbDimStyleTableRecord
2
Standard
70
0
3
<>
41
0.18
42
0.0625
44
0.18
140
0.18
147
0.09
73
0
74
0
77
1
271
2
275
0
278
52
280
0
340
11
0
ENDTAB
0
TABLE
2
VIEW
5
23b
100
AcDbSymbolTable
0
ENDTAB
0
TABLE
2
UCS
5
23c
100
AcDbSymbolTable
0
ENDTAB
0
TABLE
2
APPID
5
23d
100
AcDbSymbolTable
0
APPID
5
12
100
AcDbSymbolTableRecord
100
AcDbRegAppTableRecord
2
ACAD
70
0
0
APPID
5
161
100
AcDbSymbolTableRecord
100
AcDbRegAppTableRecord
2
ACAD_DSTYLE_DIMBREAK
70
0
0
APPID
5
1E1
100
AcDbSymbolTableRecord
100
AcDbRegAppTableRecord
2
ACAD_DSTYLE_DIM_LINETYPE
70
0
0
APPID
5
1E2
100
AcDbSymbolTableRecord
100
AcDbRegAppTableRecord
2
ACAD_DSTYLE_DIM_EXT1_LINETYPE
70
0
0
APPID
5
1E3
100
AcDbSymbolTableRecord
100
AcDbRegAppTableRecord
2
ACAD_DSTYLE_DIM_EXT2_LINETYPE
70
0
0
APPID
5
21E
100
AcDbSymbolTableRecord
100
AcDbRegAppTableRecord
2
ACAD_MLEADERVER
70
0
0
ENDTAB
0
TABLE
2
BLOCK_RECORD
5
23e
100
AcDbSymbolTable
0
BLOCK_RECORD
5
1F
100
AcDbSymbolTableRecord
100
AcDbBlockTableRecord
2
*Model_Space
340
0
70
0
0
BLOCK_RECORD
5
1B
100
AcDbSymbolTableRecord
100
AcDbBlockTableRecord
2
*Paper_Space
340
0
70
0
0
BLOCK_RECORD
5
23
100
AcDbSymbolTableRecord
100
AcDbBlockTableRecord
2
*Paper_Space0
340
0
70
0
0
BLOCK_RECORD
5
166
100
AcDbSymbolTableRecord
100
AcDbBlockTableRecord
2
*D1
340
0
70
0
0
BLOCK_RECORD
5
172
100
AcDbSymbolTableRecord
100
AcDbBlockTableRecord
2
_U0
340
0
70
0
0
BLOCK_RECORD
5
17E
100
AcDbSymbolTableRecord
100
AcDbBlockTableRecord
2
*D3
340
0
70
0
0
BLOCK_RECORD
5
18A
100
AcDbSymbolTableRecord
100
AcDbBlockTableRecord
2
_U1
340
0
70
0
0
BLOCK_RECORD
5
196
100
AcDbSymbolTableRecord
100
AcDbBlockTableRecord
2
*D5
340
0
70
0
0
BLOCK_RECORD
5
1A2
100
AcDbSymbolTableRecord
100
AcDbBlockTableRecord
2
_U2
340
0
70
0
0
BLOCK_RECORD
5
1AE
100
AcDbSymbolTableRecord
100
AcDbBlockTableRecord
2
*D7
340
0
70
0
0
BLOCK_RECORD
5
1BA
100
AcDbSymbolTableRecord
100
AcDbBlockTableRecord
2
_U3
340
0
70
0
0
ENDTAB
0
ENDSEC
0
SECTION
2
BLOCKS
0
BLOCK
5
20
100
AcDbEntity
8
0
100
AcDbBlockBegin
2
*Model_Space
70
0
10
0
20
0
30
0
3
*Model_Space
0
ENDBLK
5
21
100
AcDbEntity
8
0
100
AcDbBlockEnd
0
BLOCK
5
1C
100
AcDbEntity
8
0
100
AcDbBlockBegin
2
*Paper_Space
70
0
10
0
20
0
30
0
3
*Paper_Space
0
ENDBLK
5
1D
100
AcDbEntity
8
0
100
AcDbBlockEnd
0
BLOCK
5
24
100
AcDbEntity
8
0
100
AcDbBlockBegin
2
*Paper_Space0
70
0
10
0
20
0
30
0
3
*Paper_Space0
0
ENDBLK
5
25
100
AcDbEntity
8
0
100
AcDbBlockEnd
0
BLOCK
5
167
100
AcDbEntity
8
0
100
AcDbBlockBegin
2
*D1
70
1
10
0
20
0
30
0
3
*D1
0
LINE
5
169
100
AcDbEntity
8
0
62
256
6
ByLayer
370
-2
48
1
60
0
100
AcDbLine
10
-56
20
-14.0875
30
0
11
-56
21
-47.952229
31
0
39
0
210
0
220
0
230
1
0
LINE
5
16A
100
AcDbEntity
8
0
62
256
6
ByLayer
370
-2
48
1
60
0
100
AcDbLine
10
62
20
-1.5875
30
0
11
62
21
-47.952229
31
0
39
0
210
0
220
0
230
1
0
LINE
5
16B
100
AcDbEntity
8
0
62
256
6
ByLayer
370
-2
48
1
60
0
100
AcDbLine
10
-52.5
20
-45.952229
30
0
11
58.5
21
-45.952229
31
0
39
0
210
0
220
0
230
1
0
SOLID
5
16C
100
AcDbEntity
8
0
62
256
6
ByLayer
370
-1
48
1
60
0
100
AcDbTrace
10
-52.5
20
-45.368896
30
0
11
-52.5
21
-46.535563
31
0
12
-56
22
-45.952229
32
0
13
-56
23
-45.952229
33
0
39
0
210
0
220
0
230
1
0
SOLID
5
16D
100
AcDbEntity
8
0
62
256
6
ByLayer
370
-1
48
1
60
0
100
AcDbTrace
10
58.5
20
-46.535563
30
0
11
58.5
21
-45.368896
31
0
12
62
22
-45.952229
32
0
13
62
23
-45.952229
33
0
39
0
210
0
220
0
230
1
0
MTEXT
5
16E
100
AcDbEntity
8
0
62
256
6
ByLayer
370
18
48
1
60
0
100
AcDbMText
10
3
20
-39.952229
30
0
210
0
220
0
230
1
1
\A1;118
40
3
41
0
44
1
50
0
71
5
72
5
7
iso_b_vert
0
POINT
5
16F
100
AcDbEntity
8
Defpoints
62
0
6
ByLayer
370
-1
48
1
60
0
100
AcDbPoint
10
-56
20
-12.5
30
0
39
0
210
0
220
0
230
1
50
360
0
POINT
5
170
100
AcDbEntity
8
Defpoints
62
0
6
ByLayer
370
-1
48
1
60
0
100
AcDbPoint
10
62
20
0
30
0
39
0
210
0
220
0
230
1
50
360
0
POINT
5
171
100
AcDbEntity
8
Defpoints
62
0
6
ByLayer
370
-1
48
1
60
0
100
AcDbPoint
10
62
20
-45.952229
30
0
39
0
210
0
220
0
230
1
50
360
0
ENDBLK
5
168
100
AcDbEntity
8
0
100
AcDbBlockEnd
0
BLOCK
5
179
100
AcDbEntity
8
0
100
AcDbBlockBegin
2
_U0
70
0
10
0
20
0
30
0
3
_U0
0
MTEXT
5
173
100
AcDbEntity
8
SK2
62
256
6
ByLayer
370
18
48
1
60
0
100
AcDbMText
10
-1.853399
20
-45.067115
30
0
210
0
220
0
230
1
1
\W0.6532;118.00
40
3
41
0
44
1.084337
50
0
71
7
72
5
7
iso_b_vert
0
LINE
5
174
100
AcDbEntity
8
SK2
62
256
6
ByLayer
370
13
48
1
60
0
100
AcDbLine
10
-56
20
-14.0875
30
0
11
-56
21
-47.952229
31
0
39
0
210
0
220
0
230
1
0
LINE
5
175
100
AcDbEntity
8
SK2
62
256
6
ByLayer
370
13
48
1
60
0
100
AcDbLine
10
62
20
-1.5875
30
0
11
62
21
-47.952229
31
0
39
0
210
0
220
0
230
1
0
LINE
5
176
100
AcDbEntity
8
SK2
62
256
6
ByLayer
370
13
48
1
60
0
100
AcDbLine
10
-56
20
-45.952229
30
0
11
62
21
-45.952229
31
0
39
0
210
0
220
0
230
1
0
SOLID
5
177
100
AcDbEntity
8
SK2
62
256
6
ByLayer
370
18
48
1
60
0
100
AcDbTrace
10
-56
20
-45.952229
30
0
11
-52.500002
21
-45.491446
31
0
12
-52.499998
22
-46.413013
32
0
13
-52.499998
23
-46.413013
33
0
39
0
210
0
220
0
230
1
0
SOLID
5
178
100
AcDbEntity
8
SK2
62
256
6
ByLayer
370
18
48
1
60
0
100
AcDbTrace
10
62
20
-45.952229
30
0
11
58.500002
21
-46.413013
31
0
12
58.499998
22
-45.491446
32
0
13
58.499998
23
-45.491446
33
0
39
0
210
0
220
0
230
1
0
ENDBLK
5
17A
100
AcDbEntity
8
0
100
AcDbBlockEnd
0
BLOCK
5
17F
100
AcDbEntity
8
0
100
AcDbBlockBegin
2
*D3
70
1
10
0
20
0
30
0
3
*D3
0
LINE
5
181
100
AcDbEntity
8
0
62
256
6
ByLayer
370
-2
48
1
60
0
100
AcDbLine
10
62
20
-1.5875
30
0
11
62
21
-37.952229
31
0
39
0
210
0
220
0
230
1
0
LINE
5
182
100
AcDbEntity
8
0
62
256
6
ByLayer
370
-2
48
1
60
0
100
AcDbLine
10
6
20
-13.0875
30
0
11
6
21
-37.952229
31
0
39
0
210
0
220
0
230
1
0
LINE
5
183
100
AcDbEntity
8
0
62
256
6
ByLayer
370
-2
48
1
60
0
100
AcDbLine
10
58.5
20
-35.952229
30
0
11
9.5
21
-35.952229
31
0
39
0
210
0
220
0
230
1
0
SOLID
5
184
100
AcDbEntity
8
0
62
256
6
ByLayer
370
-1
48
1
60
0
100
AcDbTrace
10
58.5
20
-36.535563
30
0
11
58.5
21
-35.368896
31
0
12
62
22
-35.952229
32
0
13
62
23
-35.952229
33
0
39
0
210
0
220
0
230
1
0
SOLID
5
185
100
AcDbEntity
8
0
62
256
6
ByLayer
370
-1
48
1
60
0
100
AcDbTrace
10
9.5
20
-35.368896
30
0
11
9.5
21
-36.535563
31
0
12
6
22
-35.952229
32
0
13
6
23
-35.952229
33
0
39
0
210
0
220
0
230
1
0
MTEXT
5
186
100
AcDbEntity
8
0
62
256
6
ByLayer
370
18
48
1
60
0
100
AcDbMText
10
34
20
-29.952229
30
0
210
0
220
0
230
1
1
\A1;56
40
3
41
0
44
1
50
0
71
5
72
5
7
iso_b_vert
0
POINT
5
187
100
AcDbEntity
8
Defpoints
62
0
6
ByLayer
370
-1
48
1
60
0
100
AcDbPoint
10
62
20
0
30
0
39
0
210
0
220
0
230
1
50
360
0
POINT
5
188
100
AcDbEntity
8
Defpoints
62
0
6
ByLayer
370
-1
48
1
60
0
100
AcDbPoint
10
6
20
-11.5
30
0
39
0
210
0
220
0
230
1
50
360
0
POINT
5
189
100
AcDbEntity
8
Defpoints
62
0
6
ByLayer
370
-1
48
1
60
0
100
AcDbPoint
10
6
20
-35.952229
30
0
39
0
210
0
220
0
230
1
50
360
0
ENDBLK
5
180
100
AcDbEntity
8
0
100
AcDbBlockEnd
0
BLOCK
5
191
100
AcDbEntity
8
0
100
AcDbBlockBegin
2
_U1
70
0
10
0
20
0
30
0
3
_U1
0
MTEXT
5
18B
100
AcDbEntity
8
SK2
62
256
6
ByLayer
370
18
48
1
60
0
100
AcDbMText
10
29.51763
20
-35.067115
30
0
210
0
220
0
230
1
1
\W0.7468;56.00
40
3
41
0
44
1.084337
50
0
71
7
72
5
7
iso_b_vert
0
LINE
5
18C
100
AcDbEntity
8
SK2
62
256
6
ByLayer
370
13
48
1
60
0
100
AcDbLine
10
62
20
-1.5875
30
0
11
62
21
-37.952229
31
0
39
0
210
0
220
0
230
1
0
LINE
5
18D
100
AcDbEntity
8
SK2
62
256
6
ByLayer
370
13
48
1
60
0
100
AcDbLine
10
6
20
-13.0875
30
0
11
6
21
-37.952229
31
0
39
0
210
0
220
0
230
1
0
LINE
5
18E
100
AcDbEntity
8
SK2
62
256
6
ByLayer
370
13
48
1
60
0
100
AcDbLine
10
62
20
-35.952229
30
0
11
6
21
-35.952229
31
0
39
0
210
0
220
0
230
1
0
SOLID
5
18F
100
AcDbEntity
8
SK2
62
256
6
ByLayer
370
18
48
1
60
0
100
AcDbTrace
10
62
20
-35.952229
30
0
11
58.500002
21
-36.413013
31
0
12
58.499998
22
-35.491446
32
0
13
58.499998
23
-35.491446
33
0
39
0
210
0
220
0
230
1
0
SOLID
5
190
100
AcDbEntity
8
SK2
62
256
6
ByLayer
370
18
48
1
60
0
100
AcDbTrace
10
6
20
-35.952229
30
0
11
9.499998
21
-35.491446
31
0
12
9.500002
22
-36.413013
32
0
13
9.500002
23
-36.413013
33
0
39
0
210
0
220
0
230
1
0
ENDBLK
5
192
100
AcDbEntity
8
0
100
AcDbBlockEnd
0
BLOCK
5
197
100
AcDbEntity
8
0
100
AcDbBlockBegin
2
*D5
70
1
10
0
20
0
30
0
3
*D5
0
LINE
5
199
100
AcDbEntity
8
0
62
256
6
ByLayer
370
-2
48
1
60
0
100
AcDbLine
10
-56
20
-14.0875
30
0
11
-56
21
-37.952229
31
0
39
0
210
0
220
0
230
1
0
LINE
5
19A
100
AcDbEntity
8
0
62
256
6
ByLayer
370
-2
48
1
60
0
100
AcDbLine
10
0
20
-14.0875
30
0
11
0
21
-37.952229
31
0
39
0
210
0
220
0
230
1
0
LINE
5
19B
100
AcDbEntity
8
0
62
256
6
ByLayer
370
-2
48
1
60
0
100
AcDbLine
10
-52.5
20
-35.952229
30
0
11
-3.5
21
-35.952229
31
0
39
0
210
0
220
0
230
1
0
SOLID
5
19C
100
AcDbEntity
8
0
62
256
6
ByLayer
370
-1
48
1
60
0
100
AcDbTrace
10
-52.5
20
-35.368896
30
0
11
-52.5
21
-36.535563
31
0
12
-56
22
-35.952229
32
0
13
-56
23
-35.952229
33
0
39
0
210
0
220
0
230
1
0
SOLID
5
19D
100
AcDbEntity
8
0
62
256
6
ByLayer
370
-1
48
1
60
0
100
AcDbTrace
10
-3.5
20
-36.535563
30
0
11
-3.5
21
-35.368896
31
0
12
0
22
-35.952229
32
0
13
0
23
-35.952229
33
0
39
0
210
0
220
0
230
1
0
MTEXT
5
19E
100
AcDbEntity
8
0
62
256
6
ByLayer
370
18
48
1
60
0
100
AcDbMText
10
-28
20
-29.952229
30
0
210
0
220
0
230
1
1
\A1;56
40
3
41
0
44
1
50
0
71
5
72
5
7
iso_b_vert
0
POINT
5
19F
100
AcDbEntity
8
Defpoints
62
0
6
ByLayer
370
-1
48
1
60
0
100
AcDbPoint
10
-56
20
-12.5
30
0
39
0
210
0
220
0
230
1
50
360
0
POINT
5
1A0
100
AcDbEntity
8
Defpoints
62
0
6
ByLayer
370
-1
48
1
60
0
100
AcDbPoint
10
0
20
-12.5
30
0
39
0
210
0
220
0
230
1
50
360
0
POINT
5
1A1
100
AcDbEntity
8
Defpoints
62
0
6
ByLayer
370
-1
48
1
60
0
100
AcDbPoint
10
0
20
-35.952229
30
0
39
0
210
0
220
0
230
1
50
360
0
ENDBLK
5
198
100
AcDbEntity
8
0
100
AcDbBlockEnd
0
BLOCK
5
1A9
100
AcDbEntity
8
0
100
AcDbBlockBegin
2
_U2
70
0
10
0
20
0
30
0
3
_U2
0
MTEXT
5
1A3
100
AcDbEntity
8
SK2
62
256
6
ByLayer
370
18
48
1
60
0
100
AcDbMText
10
-32.48237
20
-35.067115
30
0
210
0
220
0
230
1
1
\W0.7468;56.00
40
3
41
0
44
1.084337
50
0
71
7
72
5
7
iso_b_vert
0
LINE
5
1A4
100
AcDbEntity
8
SK2
62
256
6
ByLayer
370
13
48
1
60
0
100
AcDbLine
10
-56
20
-14.0875
30
0
11
-56
21
-37.952229
31
0
39
0
210
0
220
0
230
1
0
LINE
5
1A5
100
AcDbEntity
8
SK2
62
256
6
ByLayer
370
13
48
1
60
0
100
AcDbLine
10
0
20
-14.0875
30
0
11
0
21
-37.952229
31
0
39
0
210
0
220
0
230
1
0
LINE
5
1A6
100
AcDbEntity
8
SK2
62
256
6
ByLayer
370
13
48
1
60
0
100
AcDbLine
10
-56
20
-35.952229
30
0
11
0
21
-35.952229
31
0
39
0
210
0
220
0
230
1
0
SOLID
5
1A7
100
AcDbEntity
8
SK2
62
256
6
ByLayer
370
18
48
1
60
0
100
AcDbTrace
10
-56
20
-35.952229
30
0
11
-52.500002
21
-35.491446
31
0
12
-52.499998
22
-36.413013
32
0
13
-52.499998
23
-36.413013
33
0
39
0
210
0
220
0
230
1
0
SOLID
5
1A8
100
AcDbEntity
8
SK2
62
256
6
ByLayer
370
18
48
1
60
0
100
AcDbTrace
10
0
20
-35.952229
30
0
11
-3.499998
21
-36.413013
31
0
12
-3.500002
22
-35.491446
32
0
13
-3.500002
23
-35.491446
33
0
39
0
210
0
220
0
230
1
0
ENDBLK
5
1AA
100
AcDbEntity
8
0
100
AcDbBlockEnd
0
BLOCK
5
1AF
100
AcDbEntity
8
0
100
AcDbBlockBegin
2
*D7
70
1
10
0
20
0
30
0
3
*D7
0
LINE
5
1B1
100
AcDbEntity
8
0
62
256
6
ByLayer
370
-2
48
1
60
0
100
AcDbLine
10
62
20
1.5875
30
0
11
62
21
34.952229
31
0
39
0
210
0
220
0
230
1
0
LINE
5
1B2
100
AcDbEntity
8
0
62
256
6
ByLayer
370
-2
48
1
60
0
100
AcDbLine
10
15
20
13.0875
30
0
11
15
21
34.952229
31
0
39
0
210
0
220
0
230
1
0
LINE
5
1B3
100
AcDbEntity
8
0
62
256
6
ByLayer
370
-2
48
1
60
0
100
AcDbLine
10
58.5
20
32.952229
30
0
11
18.5
21
32.952229
31
0
39
0
210
0
220
0
230
1
0
SOLID
5
1B4
100
AcDbEntity
8
0
62
256
6
ByLayer
370
-1
48
1
60
0
100
AcDbTrace
10
58.5
20
32.368896
30
0
11
58.5
21
33.535563
31
0
12
62
22
32.952229
32
0
13
62
23
32.952229
33
0
39
0
210
0
220
0
230
1
0
SOLID
5
1B5
100
AcDbEntity
8
0
62
256
6
ByLayer
370
-1
48
1
60
0
100
AcDbTrace
10
18.5
20
33.535563
30
0
11
18.5
21
32.368896
31
0
12
15
22
32.952229
32
0
13
15
23
32.952229
33
0
39
0
210
0
220
0
230
1
0
MTEXT
5
1B6
100
AcDbEntity
8
0
62
256
6
ByLayer
370
18
48
1
60
0
100
AcDbMText
10
38.5
20
38.952229
30
0
210
0
220
0
230
1
1
\A1;47
40
3
41
0
44
1
50
0
71
5
72
5
7
iso_b_vert
0
POINT
5
1B7
100
AcDbEntity
8
Defpoints
62
0
6
ByLayer
370
-1
48
1
60
0
100
AcDbPoint
10
62
20
0
30
0
39
0
210
0
220
0
230
1
50
360
0
POINT
5
1B8
100
AcDbEntity
8
Defpoints
62
0
6
ByLayer
370
-1
48
1
60
0
100
AcDbPoint
10
15
20
11.5
30
0
39
0
210
0
220
0
230
1
50
360
0
POINT
5
1B9
100
AcDbEntity
8
Defpoints
62
0
6
ByLayer
370
-1
48
1
60
0
100
AcDbPoint
10
15
20
32.952229
30
0
39
0
210
0
220
0
230
1
50
360
0
ENDBLK
5
1B0
100
AcDbEntity
8
0
100
AcDbBlockEnd
0
BLOCK
5
1C1
100
AcDbEntity
8
0
100
AcDbBlockBegin
2
_U3
70
0
10
0
20
0
30
0
3
_U3
0
MTEXT
5
1BB
100
AcDbEntity
8
SK2
62
256
6
ByLayer
370
18
48
1
60
0
100
AcDbMText
10
33.859687
20
33.837344
30
0
210
0
220
0
230
1
1
\W0.7694;47.00
40
3
41
0
44
1.084337
50
0
71
7
72
5
7
iso_b_vert
0
LINE
5
1BC
100
AcDbEntity
8
SK2
62
256
6
ByLayer
370
13
48
1
60
0
100
AcDbLine
10
62
20
1.5875
30
0
11
62
21
34.952229
31
0
39
0
210
0
220
0
230
1
0
LINE
5
1BD
100
AcDbEntity
8
SK2
62
256
6
ByLayer
370
13
48
1
60
0
100
AcDbLine
10
15
20
13.0875
30
0
11
15
21
34.952229
31
0
39
0
210
0
220
0
230
1
0
LINE
5
1BE
100
AcDbEntity
8
SK2
62
256
6
ByLayer
370
13
48
1
60
0
100
AcDbLine
10
62
20
32.952229
30
0
11
15
21
32.952229
31
0
39
0
210
0
220
0
230
1
0
SOLID
5
1BF
100
AcDbEntity
8
SK2
62
256
6
ByLayer
370
18
48
1
60
0
100
AcDbTrace
10
62
20
32.952229
30
0
11
58.500002
21
32.491446
31
0
12
58.499998
22
33.413013
32
0
13
58.499998
23
33.413013
33
0
39
0
210
0
220
0
230
1
0
SOLID
5
1C0
100
AcDbEntity
8
SK2
62
256
6
ByLayer
370
18
48
1
60
0
100
AcDbTrace
10
15
20
32.952229
30
0
11
18.499998
21
33.413013
31
0
12
18.500002
22
32.491446
32
0
13
18.500002
23
32.491446
33
0
39
0
210
0
220
0
230
1
0
ENDBLK
5
1C2
100
AcDbEntity
8
0
100
AcDbBlockEnd
0
ENDSEC
0
SECTION
2
ENTITIES
0
ARC
5
C1
100
AcDbEntity
8
SK2
62
256
6
ByLayer
370
13
48
1
60
0
100
AcDbCircle
39
0
10
62
20
0
30
0
40
19
210
0
220
0
230
1
100
AcDbArc
50
290
51
70
0
ELLIPSE
5
C2
100
AcDbEntity
8
SK1
62
256
6
ByLayer
370
18
48
1
60
0
100
AcDbEllipse
10
-41.343561
20
0
30
0
11
-2.29613691341699E-15
21
-12.5000000000002
31
0
210
0
220
0
230
1
40
0.932515
41
-1.86465462472194
42
-1.27693802886786
0
ELLIPSE
5
C3
100
AcDbEntity
8
SK1
62
256
6
ByLayer
370
18
48
1
60
0
100
AcDbEllipse
10
276.680659
20
0
30
0
11
357.953166043254
21
-4.05596621644435E-13
31
0
210
0
220
0
230
1
40
0.034921
41
2.52406396812455
42
2.73005601344533
0
ELLIPSE
5
C4
100
AcDbEntity
8
SK1
62
256
6
ByLayer
370
18
48
1
60
0
100
AcDbEllipse
10
-25.404609
20
0
30
0
11
13.4046088753088
21
-1.51887581674114E-14
31
0
210
0
220
0
230
1
40
0.932515
41
-0.555530755442636
42
0.555530755442635
0
ELLIPSE
5
C5
100
AcDbEntity
8
SK1
62
256
6
ByLayer
370
18
48
1
60
0
100
AcDbEllipse
10
276.680659
20
0
30
0
11
357.953166032003
21
-4.05596621631686E-13
31
0
210
0
220
0
230
1
40
0.034921
41
-2.73005601344242
42
-2.52406396811705
0
POINT
5
70
100
AcDbEntity
8
81
62
256
6
ByLayer
370
18
48
1
60
0
100
AcDbPoint
10
62
20
0
30
0
39
0
210
0
220
0
230
1
50
360
0
POINT
5
72
100
AcDbEntity
8
80
62
256
6
ByLayer
370
18
48
1
60
0
100
AcDbPoint
10
0
20
0
30
0
39
0
210
0
220
0
230
1
50
360
0
POINT
5
74
100
AcDbEntity
8
1
62
256
6
ByLayer
370
18
48
1
60
1
100
AcDbPoint
10
-56
20
-12.5
30
0
39
0
210
0
220
0
230
1
50
360
0
POINT
5
76
100
AcDbEntity
8
1
62
256
6
ByLayer
370
18
48
1
60
1
100
AcDbPoint
10
62
20
0
30
0
39
0
210
0
220
0
230
1
50
360
0
POINT
5
77
100
AcDbEntity
8
1
62
256
6
ByLayer
370
18
48
1
60
1
100
AcDbPoint
10
62
20
0
30
0
39
0
210
0
220
0
230
1
50
360
0
POINT
5
78
100
AcDbEntity
8
1
62
256
6
ByLayer
370
18
48
1
60
1
100
AcDbPoint
10
6
20
-11.5
30
0
39
0
210
0
220
0
230
1
50
360
0
POINT
5
79
100
AcDbEntity
8
1
62
256
6
ByLayer
370
18
48
1
60
1
100
AcDbPoint
10
-56
20
-12.5
30
0
39
0
210
0
220
0
230
1
50
360
0
POINT
5
7A
100
AcDbEntity
8
1
62
256
6
ByLayer
370
18
48
1
60
1
100
AcDbPoint
10
0
20
-12.5
30
0
39
0
210
0
220
0
230
1
50
360
0
POINT
5
7B
100
AcDbEntity
8
1
62
256
6
ByLayer
370
18
48
1
60
1
100
AcDbPoint
10
62
20
0
30
0
39
0
210
0
220
0
230
1
50
360
0
POINT
5
7C
100
AcDbEntity
8
1
62
256
6
ByLayer
370
18
48
1
60
1
100
AcDbPoint
10
15
20
11.5
30
0
39
0
210
0
220
0
230
1
50
360
0
SPLINE
5
C6
100
AcDbEntity
8
1
62
256
6
ByLayer
370
18
48
1
60
0
100
AcDbSpline
70
4
71
3
72
20
73
16
40
0
40
0
40
0
40
0
40
0.0155057518336169
40
0.0155057518336169
40
0.212404601466892
40
0.212404601466892
40
0.409303451100167
40
0.409303451100167
40
0.507752875916805
40
0.507752875916805
40
0.606202300733442
40
0.606202300733442
40
0.803101150366721
40
0.803101150366721
40
1
40
1
40
1
40
1
41
1
10
26.7327570609756
20
-8.36753677099961
30
0
41
1
10
26.6843351790227
20
-8.37917473730846
30
0
41
1
10
26.6359146595992
20
-8.39078427005671
30
0
41
1
10
25.9726481279504
20
-8.54942792439417
30
0
41
1
10
25.3580144275706
20
-8.69187793264598
30
0
41
1
10
24.1285225084391
20
-8.96636700068311
30
0
41
1
10
23.5136396614216
20
-9.09837990892001
30
0
41
1
10
22.5912260200462
20
-9.28876141308228
30
0
41
1
10
22.2837378664988
20
-9.35094409303659
30
0
41
1
10
21.668738234329
20
-9.47275923385553
30
0
41
1
10
21.3612378827125
20
-9.53240689519905
30
0
41
1
10
20.438438393805
20
-9.70710791001318
30
0
41
1
10
19.8228497542512
20
-9.8179460067193
30
0
41
1
10
18.5909636003018
20
-10.0284870867147
30
0
41
1
10
17.974669209347
20
-10.128195857062
30
0
41
1
10
17.3580841568443
20
-10.2223604313246
30
0
0
SPLINE
5
C7
100
AcDbEntity
8
1
62
256
6
ByLayer
370
18
48
1
60
0
100
AcDbSpline
70
4
71
3
72
11
73
7
40
0
40
0
40
0
40
0
40
0.5
40
0.5
40
0.75
40
1
40
1
40
1
40
1
41
1
10
17.3580841568443
20
10.2223604313248
30
0
41
1
10
16.9591926593355
20
10.2852571195686
30
0
41
1
10
16.5637219334582
20
10.3490151452646
30
0
41
1
10
15.9744569500646
20
10.4435207393877
30
0
41
1
10
15.5829425368785
20
10.5061697078463
30
0
41
1
10
15.1939042755055
20
10.5675620227064
30
0
41
1
10
15
20
10.5978448045908
30
0
0
SPLINE
5
C8
100
AcDbEntity
8
1
62
256
6
ByLayer
370
18
48
1
60
0
100
AcDbSpline
70
4
71
3
72
44
73
40
40
0
40
0
40
0
40
0
40
0.125000000000003
40
0.125000000000003
40
0.156250000000003
40
0.156250000000003
40
0.187500000000004
40
0.187500000000004
40
0.250000000000004
40
0.250000000000004
40
0.312500000000005
40
0.312500000000005
40
0.375000000000006
40
0.375000000000006
40
0.437500000000007
40
0.437500000000007
40
0.500000000000007
40
0.500000000000007
40
0.531250000000007
40
0.531250000000007
40
0.562500000000007
40
0.562500000000007
40
0.625000000000006
40
0.625000000000006
40
0.687500000000005
40
0.687500000000005
40
0.718750000000004
40
0.718750000000004
40
0.750000000000003
40
0.750000000000003
40
0.812500000000002
40
0.812500000000002
40
0.843750000000002
40
0.843750000000002
40
0.875000000000001
40
0.875000000000001
40
0.937500000000001
40
0.937500000000001
40
1
40
1
40
1
40
1
41
1
10
22.3870368470305
20
-7.24065135555
30
0
41
1
10
23.4096667654182
20
-7.52225120211216
30
0
41
1
10
24.4317374590116
20
-7.79052524903398
30
0
41
1
10
25.7079772131376
20
-8.11084567730069
30
0
41
1
10
25.963157933809
20
-8.17415390560814
30
0
41
1
10
26.4733719155527
20
-8.29927647766095
30
0
41
1
10
26.7284043412515
20
-8.3610907349431
30
0
41
1
10
27.4935376097039
20
-8.54379833613748
30
0
41
1
10
28.0036758086027
20
-8.66196542879879
30
0
41
1
10
29.0238569990499
20
-8.89144088972586
30
0
41
1
10
29.5338878935372
20
-9.00276887462223
30
0
41
1
10
30.5537378745831
20
-9.2187219579325
30
0
41
1
10
31.0635955082262
20
-9.32327166482094
30
0
41
1
10
32.0836918268094
20
-9.52468706539048
30
0
41
1
10
32.5939774888654
20
-9.62149362016808
30
0
41
1
10
33.6147649044028
20
-9.80771970385749
30
0
41
1
10
34.1252706831263
20
-9.89712989305778
30
0
41
1
10
34.891151575833
20
-10.0256984042782
30
0
41
1
10
35.1464690060675
20
-10.0676232098806
30
0
41
1
10
35.6573234268806
20
-10.1493847735177
30
0
41
1
10
35.9128540362469
20
-10.1892315651101
30
0
41
1
10
36.679717914119
20
-10.3057285192154
30
0
41
1
10
37.1914368794115
20
-10.3793536754889
30
0
41
1
10
38.2140366810272
20
-10.5184974352634
30
0
41
1
10
38.7250251216954
20
-10.5840756894732
30
0
41
1
10
39.4913277605599
20
-10.676135164775
30
0
41
1
10
39.7467361115911
20
-10.7057673083057
30
0
41
1
10
40.2575710029643
20
-10.7628670899311
30
0
41
1
10
40.5130045066669
20
-10.7903297138909
30
0
41
1
10
41.2793074888456
20
-10.869510590418
30
0
41
1
10
41.7901554051995
20
-10.918044785435
30
0
41
1
10
42.5562980036
20
-10.9845186998759
30
0
41
1
10
42.8116564482842
20
-11.0056214300195
30
0
41
1
10
43.3223366119181
20
-11.0456991586965
30
0
41
1
10
43.5776653984728
20
-11.0646680433047
30
0
41
1
10
44.3438699561358
20
-11.1182246119068
30
0
41
1
10
44.8549125051972
20
-11.1495040531605
30
0
41
1
10
45.8772809611748
20
-11.2033517738888
30
0
41
1
10
46.3885857940357
20
-11.2259251275909
30
0
41
1
10
46.9
20
-11.2441130802121
30
0
0
SPLINE
5
C9
100
AcDbEntity
8
1
62
256
6
ByLayer
370
18
48
1
60
0
100
AcDbSpline
70
4
71
3
72
12
73
8
40
0
40
0
40
0
40
0
40
0.465386816938987
40
0.465386816938987
40
0.930773633877975
40
0.930773633877975
40
1
40
1
40
1
40
1
41
1
10
46.9
20
-11.4485013863908
30
0
41
1
10
47.3552447290915
20
-11.4639631447312
30
0
41
1
10
47.810232386836
20
-11.4758539047743
30
0
41
1
10
48.7200700693297
20
-11.4924425524033
30
0
41
1
10
49.1749639028512
20
-11.4971454539342
30
0
41
1
10
49.6973966601657
20
-11.4984595607589
30
0
41
1
10
49.7650432068366
20
-11.4985509263584
30
0
41
1
10
49.8326870673632
20
-11.498563435336
30
0
0
SPLINE
5
CA
100
AcDbEntity
8
1
62
256
6
ByLayer
370
18
48
1
60
0
100
AcDbSpline
70
4
71
3
72
21
73
17
40
0
40
0
40
0
40
0
40
0.125000000000002
40
0.125000000000002
40
0.250000000000003
40
0.250000000000003
40
0.312500000000004
40
0.312500000000004
40
0.375000000000005
40
0.500000000000003
40
0.500000000000003
40
0.625000000000002
40
0.625000000000002
40
0.75
40
0.75
40
1
40
1
40
1
40
1
41
1
10
57.8143423059361
20
-1.64085362986967
30
0
41
1
10
57.3590406691682
20
-1.47692270842865
30
0
41
1
10
56.9038849484659
20
-1.31269558481978
30
0
41
1
10
55.9939310775056
20
-0.983465888586665
30
0
41
1
10
55.5391369758627
20
-0.818452142283491
30
0
41
1
10
54.857211321977
20
-0.570358080096327
30
0
41
1
10
54.6299398636684
20
-0.487584332962626
30
0
41
1
10
54.175376480506
20
-0.322147200633225
30
0
41
1
10
53.4935241504107
20
-0.0740921293543408
30
0
41
1
10
52.8116765604835
20
0.173735475106241
30
0
41
1
10
51.9026070801029
20
0.504126247213947
30
0
41
1
10
51.4481227908749
20
0.669354087581468
30
0
41
1
10
50.5391228413715
20
0.999508730143248
30
0
41
1
10
50.084597112202
20
1.16440766585978
30
0
41
1
10
48.7204901673526
20
1.65732295144335
30
0
41
1
10
47.810461203455
20
1.98378542223259
30
0
41
1
10
46.9
20
2.30862542818619
30
0
0
SPLINE
5
CB
100
AcDbEntity
8
1
62
256
6
ByLayer
370
18
48
1
60
0
100
AcDbSpline
70
4
71
3
72
93
73
89
40
0
40
0
40
0
40
0
40
0.0312500000000013
40
0.0312500000000013
40
0.0625000000000025
40
0.0625000000000025
40
0.0937500000000038
40
0.0937500000000038
40
0.125000000000005
40
0.125000000000005
40
0.140625000000006
40
0.140625000000006
40
0.148437500000007
40
0.148437500000007
40
0.156250000000008
40
0.18750000000001
40
0.18750000000001
40
0.218750000000012
40
0.218750000000012
40
0.250000000000014
40
0.250000000000014
40
0.281250000000016
40
0.281250000000016
40
0.296875000000016
40
0.296875000000016
40
0.304687500000016
40
0.304687500000016
40
0.312500000000016
40
0.312500000000016
40
0.343750000000017
40
0.343750000000017
40
0.375000000000019
40
0.375000000000019
40
0.40625000000002
40
0.40625000000002
40
0.437500000000021
40
0.437500000000021
40
0.445312500000021
40
0.445312500000021
40
0.453125000000021
40
0.468750000000021
40
0.468750000000021
40
0.500000000000021
40
0.500000000000021
40
0.531250000000021
40
0.531250000000021
40
0.539062500000021
40
0.539062500000021
40
0.546875000000021
40
0.562500000000021
40
0.562500000000021
40
0.59375000000002
40
0.59375000000002
40
0.62500000000002
40
0.62500000000002
40
0.63281250000002
40
0.63281250000002
40
0.64062500000002
40
0.656250000000019
40
0.656250000000019
40
0.687500000000017
40
0.687500000000017
40
0.718750000000015
40
0.718750000000015
40
0.726562500000014
40
0.726562500000014
40
0.734375000000013
40
0.734375000000013
40
0.750000000000012
40
0.750000000000012
40
0.78125000000001
40
0.78125000000001
40
0.812500000000009
40
0.812500000000009
40
0.843750000000007
40
0.843750000000007
40
0.851562500000006
40
0.851562500000006
40
0.859375000000006
40
0.875000000000005
40
0.875000000000005
40
0.906250000000004
40
0.937500000000002
40
0.968750000000001
40
0.968750000000001
40
0.984375000000001
40
0.984375000000001
40
1
40
1
40
1
40
1
41
1
10
57.8143423059387
20
11.1348490142197
30
0
41
1
10
57.8861695516943
20
10.9567527870326
30
0
41
1
10
57.958109346806
20
10.7759821358918
30
0
41
1
10
58.1023364754041
20
10.4095127718709
30
0
41
1
10
58.1746236767691
20
10.2238131968359
30
0
41
1
10
58.3196313889337
20
9.84779011590248
30
0
41
1
10
58.3923519540547
20
9.65746608121555
30
0
41
1
10
58.5382772436646
20
9.2724050855889
30
0
41
1
10
58.6114822209186
20
9.07766790625126
30
0
41
1
10
58.7216613787164
20
8.78234914030421
30
0
41
1
10
58.7584493819152
20
8.68337342942814
30
0
41
1
10
58.8137214093233
20
8.53411218401143
30
0
41
1
10
58.8321731504815
20
8.48419085417862
30
0
41
1
10
58.8690406142991
20
8.38425973750898
30
0
41
1
10
58.9610734826526
20
8.13433281511971
30
0
41
1
10
59.0524361990343
20
7.88391788415751
30
0
41
1
10
59.1976988309244
20
7.48262526439874
30
0
41
1
10
59.269872377785
20
7.28166503613241
30
0
41
1
10
59.4131408358643
20
6.8790719890961
30
0
41
1
10
59.4842374282389
20
6.67743978648227
30
0
41
1
10
59.6250500582836
20
6.2734041531719
30
0
41
1
10
59.6947687150942
20
6.07100157885347
30
0
41
1
10
59.7979270194771
20
5.76668467458416
30
0
41
1
10
59.832074640809
20
5.66512616710068
30
0
41
1
10
59.8828688581132
20
5.51258430732378
30
0
41
1
10
59.8997381690667
20
5.46167474265286
30
0
41
1
10
59.933273124784
20
5.35992556663012
30
0
41
1
10
59.9499317884611
20
5.30910747151964
30
0
41
1
10
60.0326467565977
20
5.05528795695079
30
0
41
1
10
60.0969882231497
20
4.85310201214665
30
0
41
1
10
60.2208335009593
20
4.45013827018269
30
0
41
1
10
60.2803454517126
20
4.24936178394495
30
0
41
1
10
60.3927235228599
20
3.8487998980809
30
0
41
1
10
60.4455992081989
20
3.64901531669085
30
0
41
1
10
60.5419808926039
20
3.24989644945023
30
0
41
1
10
60.5854912015917
20
3.05056056633092
30
0
41
1
10
60.6315969572998
20
2.80125761056502
30
0
41
1
10
60.6404085728352
20
2.7513451670157
30
0
41
1
10
60.6570915666672
20
2.65170420033149
30
0
41
1
10
60.6806675337644
20
2.50276482560267
30
0
41
1
10
60.6996441867196
20
2.35541147436291
30
0
41
1
10
60.7308467568674
20
2.06290035180311
30
0
41
1
10
60.7425810819578
20
1.87081027063533
30
0
41
1
10
60.7457156287944
20
1.4931430512429
30
0
41
1
10
60.737097459486
20
1.30756890089316
30
0
41
1
10
60.7136911099304
20
1.08027600627884
30
0
41
1
10
60.7083761111147
20
1.03499158789242
30
0
41
1
10
60.6965580563201
20
0.945190956979445
30
0
41
1
10
60.6770916249695
20
0.811919682608647
30
0
41
1
10
60.6527081046349
20
0.682885004948361
30
0
41
1
10
60.5982019877509
20
0.430328690246768
30
0
41
1
10
60.5542438381921
20
0.269298324976859
30
0
41
1
10
60.4550437635336
20
-0.0386490837320252
30
0
41
1
10
60.399810231757
20
-0.185570293934632
30
0
41
1
10
60.3255482718891
20
-0.360531823755622
30
0
41
1
10
60.3104168220556
20
-0.395122362612483
30
0
41
1
10
60.2797358495292
20
-0.463266924444326
30
0
41
1
10
60.2331395709311
20
-0.563817031070926
30
0
41
1
10
60.1849970229029
20
-0.659464646077993
30
0
41
1
10
60.0870237064712
20
-0.844418447564607
30
0
41
1
10
60.019479481397
20
-0.959283351056342
30
0
41
1
10
59.881242683136
20
-1.1726965060198
30
0
41
1
10
59.8105407922424
20
-1.27124172736666
30
0
41
1
10
59.7206204628537
20
-1.38423826532096
30
0
41
1
10
59.7025581057
20
-1.40632712857567
30
0
41
1
10
59.6662835118285
20
-1.44947966561614
30
0
41
1
10
59.6480635579098
20
-1.47055059662264
30
0
41
1
10
59.5934279600249
20
-1.53195384462535
30
0
41
1
10
59.5569599896351
20
-1.5705720418126
30
0
41
1
10
59.4474804082449
20
-1.6796297966325
30
0
41
1
10
59.3743985632706
20
-1.7432865170648
30
0
41
1
10
59.2281767059408
20
-1.85295534591765
30
0
41
1
10
59.155034419489
20
-1.89896565376199
30
0
41
1
10
59.0086689911441
20
-1.97335978171208
30
0
41
1
10
58.9354448104748
20
-2.00174363300675
30
0
41
1
10
58.8437873181439
20
-2.02596753466236
30
0
41
1
10
58.8254437725337
20
-2.03024810330626
30
0
41
1
10
58.7889096953446
20
-2.03764347350224
30
0
41
1
10
58.7342752962569
20
-2.04700577872492
30
0
41
1
10
58.6801232015832
20
-2.05123322165591
30
0
41
1
10
58.5724147377092
20
-2.05295707395635
30
0
41
1
10
58.4303916384854
20
-2.03732965797303
30
0
41
1
10
58.2213744790204
20
-1.96106843105363
30
0
41
1
10
58.0842173967355
20
-1.87494154867858
30
0
41
1
10
57.9819847651002
20
-1.79682021537855
30
0
41
1
10
57.9481242165701
20
-1.76860527901326
30
0
41
1
10
57.8808960832642
20
-1.70792962562661
30
0
41
1
10
57.8475128202758
20
-1.67545696893273
30
0
41
1
10
57.8143423059387
20
-1.64085362987058
30
0
0
SPLINE
5
CC
100
AcDbEntity
8
1
62
256
6
ByLayer
370
18
48
1
60
0
100
AcDbSpline
70
4
71
3
72
18
73
14
40
0
40
0
40
0
40
0
40
0.145481721846661
40
0.145481721846661
40
0.316385377477329
40
0.316385377477329
40
0.487289033107997
40
0.487289033107997
40
0.658192688738665
40
0.658192688738665
40
0.829096344369332
40
0.829096344369332
40
1
40
1
40
1
40
1
41
1
10
49.8326869611532
20
11.4985634353164
30
0
41
1
10
50.2197912717554
20
11.4986350206911
30
0
41
1
10
50.6068076135758
20
11.4961241234158
30
0
41
1
10
51.4482390516449
20
11.4850227793116
30
0
41
1
10
51.9025580142105
20
11.4754255433085
30
0
41
1
10
52.8115127491218
20
11.4491505305609
30
0
41
1
10
53.2661010546558
20
11.4324793002135
30
0
41
1
10
54.1753604858766
20
11.3920648534297
30
0
41
1
10
54.6300241105703
20
11.3683178114644
30
0
41
1
10
55.5393465011048
20
11.3136664977395
30
0
41
1
10
55.9940327188855
20
11.2827660750288
30
0
41
1
10
56.9038193360557
20
11.2139874564516
30
0
41
1
10
57.3589713786111
20
11.1761480569411
30
0
41
1
10
57.8143423059361
20
11.13484901422
30
0
0
SPLINE
5
CD
100
AcDbEntity
8
1
62
256
6
ByLayer
370
18
48
1
60
0
100
AcDbSpline
70
4
71
3
72
40
73
36
40
0
40
0
40
0
40
0
40
0.0124394546380146
40
0.0124394546380146
40
0.088405650435089
40
0.088405650435089
40
0.164371846232163
40
0.164371846232163
40
0.240338042029238
40
0.240338042029238
40
0.316304237826312
40
0.316304237826312
40
0.392270433623387
40
0.392270433623387
40
0.430253531521925
40
0.430253531521925
40
0.468236629420463
40
0.468236629420463
40
0.544202825217541
40
0.544202825217541
40
0.620169021014619
40
0.620169021014619
40
0.658152118913157
40
0.658152118913157
40
0.696135216811695
40
0.696135216811695
40
0.772101412608771
40
0.772101412608771
40
0.810084510507309
40
0.810084510507309
40
0.848067608405848
40
0.848067608405848
40
0.924033804202924
40
0.924033804202924
40
1
40
1
40
1
40
1
41
1
10
26.7328686382307
20
8.36186899846518
30
0
41
1
10
26.8163960871571
20
8.3820043530111
30
0
41
1
10
26.8999217822311
20
8.40204770478934
30
0
41
1
10
27.4935376097039
20
8.54379833613746
30
0
41
1
10
28.0036758086027
20
8.66196542879879
30
0
41
1
10
29.0238569990498
20
8.89144088972583
30
0
41
1
10
29.5338878935372
20
9.00276887462221
30
0
41
1
10
30.5537378745832
20
9.21872195793247
30
0
41
1
10
31.0635955082262
20
9.32327166482094
30
0
41
1
10
32.0836918268094
20
9.52468706539045
30
0
41
1
10
32.5939774888654
20
9.62149362016805
30
0
41
1
10
33.6147649044028
20
9.80771970385749
30
0
41
1
10
34.1252706831264
20
9.89712989305775
30
0
41
1
10
34.891151575833
20
10.0256984042782
30
0
41
1
10
35.1464690060675
20
10.0676232098806
30
0
41
1
10
35.6573234268806
20
10.1493847735177
30
0
41
1
10
35.9128540362469
20
10.1892315651101
30
0
41
1
10
36.679717914119
20
10.3057285192154
30
0
41
1
10
37.1914368794115
20
10.3793536754889
30
0
41
1
10
38.214036681027
20
10.5184974352634
30
0
41
1
10
38.7250251216954
20
10.5840756894732
30
0
41
1
10
39.4913277605599
20
10.676135164775
30
0
41
1
10
39.746736111591
20
10.7057673083056
30
0
41
1
10
40.2575710029641
20
10.7628670899311
30
0
41
1
10
40.5130045066668
20
10.7903297138909
30
0
41
1
10
41.2793074888455
20
10.869510590418
30
0
41
1
10
41.7901554051995
20
10.918044785435
30
0
41
1
10
42.5562980036
20
10.9845186998759
30
0
41
1
10
42.8116564482841
20
11.0056214300195
30
0
41
1
10
43.322336611918
20
11.0456991586965
30
0
41
1
10
43.5776653984728
20
11.0646680433047
30
0
41
1
10
44.3438699561358
20
11.1182246119068
30
0
41
1
10
44.8549125051971
20
11.1495040531605
30
0
41
1
10
45.8772809611747
20
11.2033517738888
30
0
41
1
10
46.3885857940357
20
11.2259251275909
30
0
41
1
10
46.9
20
11.2441130802121
30
0
0
SPLINE
5
CE
100
AcDbEntity
8
1
62
256
6
ByLayer
370
18
48
1
60
0
100
AcDbSpline
70
4
71
3
72
50
73
46
40
0
40
0
40
0
40
0
40
0.0312499999999999
40
0.0312499999999999
40
0.0624999999999998
40
0.0624999999999998
40
0.124999999999998
40
0.124999999999998
40
0.187499999999997
40
0.187499999999997
40
0.249999999999996
40
0.249999999999996
40
0.281249999999995
40
0.281249999999995
40
0.312499999999995
40
0.312499999999995
40
0.374999999999995
40
0.374999999999995
40
0.406249999999996
40
0.406249999999996
40
0.437499999999996
40
0.437499999999996
40
0.468749999999997
40
0.468749999999997
40
0.499999999999997
40
0.499999999999997
40
0.562499999999998
40
0.562499999999998
40
0.593749999999998
40
0.593749999999998
40
0.624999999999998
40
0.624999999999998
40
0.687499999999998
40
0.687499999999998
40
0.749999999999997
40
0.749999999999997
40
0.812499999999997
40
0.812499999999997
40
0.843749999999998
40
0.843749999999998
40
0.874999999999998
40
0.874999999999998
40
0.937499999999999
40
0.937499999999999
40
1
40
1
40
1
40
1
41
1
10
46.9
20
2.1953101032725
30
0
41
1
10
46.5916793430829
20
2.30359711981151
30
0
41
1
10
46.283507251083
20
2.41162045005925
30
0
41
1
10
45.6672656156575
20
2.62659511143841
30
0
41
1
10
45.3592121523077
20
2.73359278810551
30
0
41
1
10
44.4352732979769
20
3.05318214265256
30
0
41
1
10
43.8196171689874
20
3.26439387315301
30
0
41
1
10
42.5889918594776
20
3.68334188120775
30
0
41
1
10
41.9740035047848
20
3.89101779810886
30
0
41
1
10
40.7440060479172
20
4.30100181396659
30
0
41
1
10
40.1290006429365
20
4.5033289310056
30
0
41
1
10
39.2065941433076
20
4.80312025064427
30
0
41
1
10
38.8991404725111
20
4.90242879537442
30
0
41
1
10
38.2842725740232
20
5.09981957271694
30
0
41
1
10
37.9768602218428
20
5.19790534278204
30
0
41
1
10
37.0543821479471
20
5.48956566686243
30
0
41
1
10
36.4391269405011
20
5.68067960750219
30
0
41
1
10
35.5159313632402
20
5.9625968470371
30
0
41
1
10
35.2081491101664
20
6.05578043701587
30
0
41
1
10
34.5924864992613
20
6.24057074873161
30
0
41
1
10
34.2846008552013
20
6.33216440748049
30
0
41
1
10
33.6686529518727
20
6.51358257282644
30
0
41
1
10
33.3605894974682
20
6.6034041074729
30
0
41
1
10
32.7441907176843
20
6.78105516848859
30
0
41
1
10
32.4357765048671
20
6.86890446001081
30
0
41
1
10
31.5108157292706
20
7.12935912230233
30
0
41
1
10
30.8946212190442
20
7.29886881391931
30
0
41
1
10
29.9710612082206
20
7.54707433813013
30
0
41
1
10
29.663336787877
20
7.62881110857492
30
0
41
1
10
29.0479404883994
20
7.78985756515794
30
0
41
1
10
28.7402776144238
20
7.86918841908661
30
0
41
1
10
27.8174142014356
20
8.10366336113316
30
0
41
1
10
27.2023429290985
20
8.25530291180081
30
0
41
1
10
25.9726481279504
20
8.54942792439419
30
0
41
1
10
25.3580144275706
20
8.69187793264601
30
0
41
1
10
24.1285225084391
20
8.96636700068314
30
0
41
1
10
23.5136396614216
20
9.09837990892001
30
0
41
1
10
22.5912260200462
20
9.28876141308231
30
0
41
1
10
22.2837378664988
20
9.35094409303662
30
0
41
1
10
21.6687382343289
20
9.47275923385556
30
0
41
1
10
21.3612378827124
20
9.53240689519907
30
0
41
1
10
20.4384383938049
20
9.70710791001321
30
0
41
1
10
19.8228497542512
20
9.81794600671932
30
0
41
1
10
18.5909636003018
20
10.0284870867147
30
0
41
1
10
17.974669209347
20
10.128195857062
30
0
41
1
10
17.3580841568443
20
10.2223604313247
30
0
0
SPLINE
5
CF
100
AcDbEntity
8
1
62
256
6
ByLayer
370
18
48
1
60
0
100
AcDbSpline
70
4
71
3
72
11
73
7
40
0
40
0
40
0
40
0
40
0.5
40
0.5
40
0.75
40
1
40
1
40
1
40
1
41
1
10
17.3580841568443
20
-10.2223604313248
30
0
41
1
10
16.9591926593355
20
-10.2852571195686
30
0
41
1
10
16.5637219334582
20
-10.3490151452646
30
0
41
1
10
15.9744569500646
20
-10.4435207393877
30
0
41
1
10
15.5829425368784
20
-10.5061697078462
30
0
41
1
10
15.1939042755055
20
-10.5675620227064
30
0
41
1
10
15
20
-10.5978448045908
30
0
0
SPLINE
5
D0
100
AcDbEntity
8
1
62
256
6
ByLayer
370
18
48
1
60
0
100
AcDbSpline
70
4
71
4
72
10
73
5
40
0
40
0
40
0
40
0
40
0
40
1
40
1
40
1
40
1
40
1
41
0.998051361689643
10
18.110742520013
20
-6.35484619584636
30
0
41
0.996278857619561
10
17.8495880665299
20
-7.18605498882772
30
0
41
0.99447001864037
10
17.623874815439
20
-8.14816085047678
30
0
41
0.995458808830821
10
17.4591064797783
20
-9.18735084261034
30
0
41
0.99709786085766
10
17.3580841568452
20
-10.2223604313164
30
0
0
SPLINE
5
D1
100
AcDbEntity
8
1
62
256
6
ByLayer
370
18
48
1
60
0
100
AcDbSpline
70
4
71
3
72
24
73
20
40
0
40
0
40
0
40
0
40
0.124999999999992
40
0.124999999999992
40
0.249999999999984
40
0.249999999999984
40
0.374999999999975
40
0.374999999999975
40
0.499999999999967
40
0.499999999999967
40
0.531249999999969
40
0.531249999999969
40
0.562499999999971
40
0.624999999999975
40
0.749999999999984
40
0.749999999999984
40
0.874999999999992
40
0.874999999999992
40
1
40
1
40
1
40
1
41
1
10
15.0000000000004
20
-6.34097826723198
30
0
41
1
10
15.3143470710627
20
-6.30992437521698
30
0
41
1
10
15.6282440048213
20
-6.28937852049791
30
0
41
1
10
16.2551970996309
20
-6.26817753121586
30
0
41
1
10
16.56825297534
20
-6.26752720887353
30
0
41
1
10
17.19357306201
20
-6.28496217235573
30
0
41
1
10
17.5058370282807
20
-6.30305170535937
30
0
41
1
10
18.1296205530782
20
-6.35663513127614
30
0
41
1
10
18.4411398966556
20
-6.39213247382944
30
0
41
1
10
18.8301065066864
20
-6.44636657005347
30
0
41
1
10
18.9079177588649
20
-6.45771205677787
30
0
41
1
10
19.0631538919713
20
-6.48130474575819
30
0
41
1
10
19.2955219841151
20
-6.51805772820788
30
0
41
1
10
19.8344221015388
20
-6.61295608455146
30
0
41
1
10
20.2910738618048
20
-6.70855606503864
30
0
41
1
10
20.8959585287893
20
-6.84613276174954
30
0
41
1
10
21.1964099120654
20
-6.91997088912214
30
0
41
1
10
21.7940253921797
20
-7.07521801260552
30
0
41
1
10
22.0911920221816
20
-7.15661911726988
30
0
41
1
10
22.3870368470305
20
-7.24065135554997
30
0
0
SPLINE
5
D2
100
AcDbEntity
8
1
62
256
6
ByLayer
370
18
48
1
60
0
100
AcDbSpline
70
4
71
3
72
31
73
27
40
0
40
0
40
0
40
0
40
0.0054438357854257
40
0.0577888970598723
40
0.0577888970598723
40
0.162479019608766
40
0.162479019608766
40
0.26716914215766
40
0.26716914215766
40
0.371859264706554
40
0.371859264706554
40
0.424204325981001
40
0.424204325981001
40
0.450376856618226
40
0.450376856618226
40
0.476549387255452
40
0.476549387255452
40
0.581239509804361
40
0.581239509804361
40
0.685929632353271
40
0.685929632353271
40
0.790619754902181
40
0.790619754902181
40
0.895309877451091
40
0.895309877451091
40
1
40
1
40
1
40
1
41
1
10
8.41690587720541
20
13.329785572658
30
0
41
1
10
8.42735747583893
20
13.3265579994037
30
0
41
1
10
8.53846394231633
20
13.2921242210484
30
0
41
1
10
8.65122897685947
20
13.2558938212404
30
0
41
1
10
8.96138836841837
20
13.1535110589503
30
0
41
1
10
9.17313113118712
20
13.0800353525224
30
0
41
1
10
9.6049272268971
20
12.9246617030713
30
0
41
1
10
9.82498426966052
20
12.8427570561119
30
0
41
1
10
10.2719650949621
20
12.671954743791
30
0
41
1
10
10.4988893334665
20
12.5830533538169
30
0
41
1
10
10.843425722604
20
12.44521470748
30
0
41
1
10
10.9589637061948
20
12.3985177672316
30
0
41
1
10
11.133193724115
20
12.3274175411522
30
0
41
1
10
11.1914400655051
20
12.303534964439
30
0
41
1
10
11.3080737942604
20
12.2554894043646
30
0
41
1
10
11.3664757754337
20
12.2313205239777
30
0
41
1
10
11.6588791474383
20
12.1097666661492
30
0
41
1
10
11.8940520038275
20
12.0102618240655
30
0
41
1
10
12.3662080018304
20
11.8071163237744
30
0
41
1
10
12.6031880653397
20
11.7034717036865
30
0
41
1
10
13.0785428741306
20
11.4922753349111
30
0
41
1
10
13.316915161271
20
11.3847194418573
30
0
41
1
10
13.7950061476835
20
11.1658997788477
30
0
41
1
10
14.0347241019008
20
11.0546321525252
30
0
41
1
10
14.5158773029785
20
10.8286810940358
30
0
41
1
10
14.7573138674295
20
10.7139947927164
30
0
41
1
10
15
20
10.5978448045908
30
0
0
SPLINE
5
D3
100
AcDbEntity
8
1
62
256
6
ByLayer
370
18
48
1
60
0
100
AcDbSpline
70
4
71
3
72
107
73
103
40
0
40
0
40
0
40
0
40
0.0312499999999972
40
0.0312499999999972
40
0.0624999999999944
40
0.0624999999999944
40
0.0937499999999916
40
0.0937499999999916
40
0.124999999999989
40
0.124999999999989
40
0.140624999999988
40
0.140624999999988
40
0.148437499999988
40
0.148437499999988
40
0.156249999999988
40
0.156249999999988
40
0.187499999999985
40
0.187499999999985
40
0.218749999999982
40
0.218749999999982
40
0.24999999999998
40
0.24999999999998
40
0.25781249999998
40
0.25781249999998
40
0.26562499999998
40
0.26562499999998
40
0.281249999999978
40
0.281249999999978
40
0.312499999999976
40
0.312499999999976
40
0.343749999999973
40
0.343749999999973
40
0.347656249999973
40
0.347656249999973
40
0.351562499999972
40
0.351562499999972
40
0.359374999999972
40
0.37499999999997
40
0.37499999999997
40
0.406249999999968
40
0.406249999999968
40
0.414062499999968
40
0.414062499999968
40
0.421874999999967
40
0.421874999999967
40
0.437499999999967
40
0.437499999999967
40
0.468749999999966
40
0.468749999999966
40
0.484374999999966
40
0.484374999999966
40
0.492187499999966
40
0.492187499999966
40
0.499999999999966
40
0.499999999999966
40
0.531249999999965
40
0.531249999999965
40
0.546874999999965
40
0.546874999999965
40
0.550781249999965
40
0.550781249999965
40
0.554687499999965
40
0.562499999999964
40
0.562499999999964
40
0.593749999999963
40
0.593749999999963
40
0.601562499999963
40
0.601562499999963
40
0.609374999999964
40
0.609374999999964
40
0.624999999999964
40
0.624999999999964
40
0.656249999999965
40
0.656249999999965
40
0.687499999999966
40
0.687499999999966
40
0.695312499999967
40
0.695312499999967
40
0.703124999999968
40
0.718749999999971
40
0.718749999999971
40
0.749999999999977
40
0.749999999999977
40
0.781249999999983
40
0.781249999999983
40
0.81249999999999
40
0.81249999999999
40
0.828124999999993
40
0.828124999999993
40
0.835937499999994
40
0.835937499999994
40
0.843749999999995
40
0.843749999999995
40
0.874999999999996
40
0.874999999999996
40
0.906249999999997
40
0.906249999999997
40
0.937499999999998
40
0.937499999999998
40
0.968749999999999
40
0.968749999999999
40
1
40
1
40
1
40
1
41
1
10
15.0000000000004
20
-6.34097826723198
30
0
41
1
10
14.7293118474183
20
-6.42607373683322
30
0
41
1
10
14.4607800410952
20
-6.51698005905433
30
0
41
1
10
13.9279947490757
20
-6.71044709571112
30
0
41
1
10
13.663741012336
20
-6.81300699032155
30
0
41
1
10
13.1394793823153
20
-7.02985458981505
30
0
41
1
10
12.8794711860745
20
-7.14414120042372
30
0
41
1
10
12.3636787179932
20
-7.38458595399388
30
0
41
1
10
12.1078940523303
20
-7.51074254493452
30
0
41
1
10
11.727384174702
20
-7.70907072301745
30
0
41
1
10
11.6010756008032
20
-7.77669665784705
30
0
41
1
10
11.4124070771361
20
-7.88044539758067
30
0
41
1
10
11.3497345774379
20
-7.91536742468804
30
0
41
1
10
11.2250540725298
20
-7.98575605578478
30
0
41
1
10
11.1630105795149
20
-8.02124212960004
30
0
41
1
10
10.8542769837207
20
-8.20011487368225
30
0
41
1
10
10.6120321159074
20
-8.34782491424716
30
0
41
1
10
10.1371247115915
20
-8.65210615947214
30
0
41
1
10
9.90446004212134
20
-8.80867645025648
30
0
41
1
10
9.44900289875534
20
-9.13042392088821
30
0
41
1
10
9.22620656858567
20
-9.29559940795693
30
0
41
1
10
8.95423738182996
20
-9.50738072960445
30
0
41
1
10
8.90017072733397
20
-9.55000303292528
30
0
41
1
10
8.79270467263797
20
-9.63578002003806
30
0
41
1
10
8.73931905308626
20
-9.67892545325137
30
0
41
1
10
8.58099605742999
20
-9.80848648881062
30
0
41
1
10
8.47761841119393
20
-9.89524317123261
30
0
41
1
10
8.17409603670495
20
-10.1564758478379
30
0
41
1
10
7.98053705540769
20
-10.3319152763772
30
0
41
1
10
7.6120271213556
20
-10.6843736917596
30
0
41
1
10
7.43706028866205
20
-10.8613953455112
30
0
41
1
10
7.25180641372214
20
-11.0608472360411
30
0
41
1
10
7.23138438337782
20
-11.0830126876692
30
0
41
1
10
7.19086931205416
20
-11.1273496655801
30
0
41
1
10
7.1707780012473
20
-11.1495197328772
30
0
41
1
10
7.11121912306933
20
-11.2157962822472
30
0
41
1
10
6.99474397224205
20
-11.3476525693632
30
0
41
1
10
6.88624920007817
20
-11.477307547312
30
0
41
1
10
6.68017319290911
20
-11.7333570724507
30
0
41
1
10
6.55727060065988
20
-11.8997299108305
30
0
41
1
10
6.42353487755486
20
-12.1009688638873
30
0
41
1
10
6.3977878508652
20
-12.14087870502
30
0
41
1
10
6.34836349767997
20
-12.2199820991364
30
0
41
1
10
6.32464430715063
20
-12.2592526699401
30
0
41
1
10
6.25732848179911
20
-12.3748378496877
30
0
41
1
10
6.21737598116721
20
-12.4492151316152
30
0
41
1
10
6.11228187341965
20
-12.6641397761106
30
0
41
1
10
6.06181869212071
20
-12.7965130871968
30
0
41
1
10
6.01690870772632
20
-12.9775072876198
30
0
41
1
10
6.00708964089699
20
-13.0349034005758
30
0
41
1
10
6.00047160982092
20
-13.1163602038214
30
0
41
1
10
5.9996269776571
20
-13.1427833797721
30
0
41
1
10
6.0006901627452
20
-13.1934721484741
30
0
41
1
10
6.00258716017618
20
-13.2178087429389
30
0
41
1
10
6.01877805805492
20
-13.3345504983048
30
0
41
1
10
6.05308533081063
20
-13.412188512489
30
0
41
1
10
6.13558666002902
20
-13.5061599747571
30
0
41
1
10
6.16828124230398
20
-13.5337249539316
30
0
41
1
10
6.21568309187239
20
-13.5635257960189
30
0
41
1
10
6.22548099736841
20
-13.5692460351564
30
0
41
1
10
6.24563556166586
20
-13.5801752951601
30
0
41
1
10
6.2767344286847
20
-13.595820677268
30
0
41
1
10
6.31039092805747
20
-13.6092682119898
30
0
41
1
10
6.42809574401826
20
-13.6493996062233
30
0
41
1
10
6.53983593556026
20
-13.6665481395373
30
0
41
1
10
6.69967860214143
20
-13.6716114061885
30
0
41
1
10
6.73265993895996
20
-13.6718017672326
30
0
41
1
10
6.80061900680255
20
-13.6705828328802
30
0
41
1
10
6.83564840586212
20
-13.6691682987882
30
0
41
1
10
6.94291584904306
20
-13.6626463481306
30
0
41
1
10
7.0175221361286
20
-13.6552699737084
30
0
41
1
10
7.24990429971521
20
-13.6250155632702
30
0
41
1
10
7.41621473864222
20
-13.5940508462094
30
0
41
1
10
7.76878235445372
20
-13.514379752934
30
0
41
1
10
7.95505820248752
20
-13.4656547146733
30
0
41
1
10
8.19908050733477
20
-13.3953843358486
30
0
41
1
10
8.2484755829999
20
-13.3808502609431
30
0
41
1
10
8.34786379568396
20
-13.3510294150128
30
0
41
1
10
8.49801548058892
20
-13.3051199510275
30
0
41
1
10
8.65122897685944
20
-13.2558938212404
30
0
41
1
10
8.9613883684184
20
-13.1535110589503
30
0
41
1
10
9.17313113118709
20
-13.0800353525223
30
0
41
1
10
9.60492722689708
20
-12.9246617030713
30
0
41
1
10
9.82498426966049
20
-12.8427570561119
30
0
41
1
10
10.271965094962
20
-12.671954743791
30
0
41
1
10
10.4988893334665
20
-12.5830533538169
30
0
41
1
10
10.843425722604
20
-12.44521470748
30
0
41
1
10
10.9589637061948
20
-12.3985177672316
30
0
41
1
10
11.1331937241149
20
-12.3274175411522
30
0
41
1
10
11.1914400655051
20
-12.303534964439
30
0
41
1
10
11.3080737942604
20
-12.2554894043646
30
0
41
1
10
11.3664757754336
20
-12.2313205239777
30
0
41
1
10
11.6588791474382
20
-12.1097666661492
30
0
41
1
10
11.8940520038275
20
-12.0102618240655
30
0
41
1
10
12.3662080018303
20
-11.8071163237744
30
0
41
1
10
12.6031880653397
20
-11.7034717036865
30
0
41
1
10
13.0785428741306
20
-11.4922753349111
30
0
41
1
10
13.316915161271
20
-11.3847194418573
30
0
41
1
10
13.7950061476835
20
-11.1658997788477
30
0
41
1
10
14.0347241019008
20
-11.0546321525252
30
0
41
1
10
14.5158773029785
20
-10.8286810940358
30
0
41
1
10
14.7573138674295
20
-10.7139947927164
30
0
41
1
10
15
20
-10.5978448045908
30
0
0
SPLINE
5
D4
100
AcDbEntity
8
SK1
62
256
6
ByLayer
370
18
48
1
60
0
100
AcDbSpline
70
4
71
3
72
34
73
30
40
0
40
0
40
0
40
0
40
0.125000000000001
40
0.125000000000001
40
0.250000000000002
40
0.250000000000002
40
0.375000000000003
40
0.375000000000003
40
0.437500000000004
40
0.437500000000004
40
0.500000000000005
40
0.500000000000005
40
0.625000000000005
40
0.625000000000005
40
0.656250000000005
40
0.656250000000005
40
0.687500000000005
40
0.687500000000005
40
0.750000000000005
40
0.750000000000005
40
0.812500000000005
40
0.812500000000005
40
0.843750000000004
40
0.843750000000004
40
0.875000000000004
40
0.875000000000004
40
0.937500000000002
40
0.937500000000002
40
1
40
1
40
1
40
1
41
1
10
-52.5003287739481
20
-3.62059097355461
30
0
41
1
10
-52.4791023107682
20
-3.69580949914169
30
0
41
1
10
-52.456173666836
20
-3.7701328086529
30
0
41
1
10
-52.4062202513365
20
-3.91675156331095
30
0
41
1
10
-52.3792000011184
20
-3.98904864238443
30
0
41
1
10
-52.3201140822394
20
-4.13128549106548
30
0
41
1
10
-52.2880578558644
20
-4.20122868864783
30
0
41
1
10
-52.2351342019209
20
-4.30400502578081
30
0
41
1
10
-52.2166821098451
20
-4.33790583931534
30
0
41
1
10
-52.1779019271959
20
-4.40490146665846
30
0
41
1
10
-52.1575385793023
20
-4.43805147836142
30
0
41
1
10
-52.093380094742
20
-4.53574061166557
30
0
41
1
10
-52.0468993353633
20
-4.59806703723407
30
0
41
1
10
-51.9825062567773
20
-4.67139689881651
30
0
41
1
10
-51.9693089720826
20
-4.68583123022111
30
0
41
1
10
-51.9422155209833
20
-4.71419608571787
30
0
41
1
10
-51.9282893124732
20
-4.72815494045494
30
0
41
1
10
-51.8855899983215
20
-4.7689776324583
30
0
41
1
10
-51.8559681934236
20
-4.79473829352929
30
0
41
1
10
-51.7940523105194
20
-4.84293492664423
30
0
41
1
10
-51.7617609635258
20
-4.86537421079322
30
0
41
1
10
-51.710934585781
20
-4.89608972183805
30
0
41
1
10
-51.6935927882519
20
-4.9058359097269
30
0
41
1
10
-51.6580214478988
20
-4.92423937407065
30
0
41
1
10
-51.6397301965266
20
-4.93292309713041
30
0
41
1
10
-51.583780125377
20
-4.9569645106269
30
0
41
1
10
-51.5455987975117
20
-4.97010157811332
30
0
41
1
10
-51.4673083175319
20
-4.99008231274206
30
0
41
1
10
-51.4272005227822
20
-4.99693051090844
30
0
41
1
10
-51.3860020460814
20
-5.00022676868039
30
0
0
SPLINE
5
D5
100
AcDbEntity
8
SK1
62
256
6
ByLayer
370
18
48
1
60
0
100
AcDbSpline
70
4
71
3
72
34
73
30
40
0
40
0
40
0
40
0
40
0.0625000000000001
40
0.0625000000000001
40
0.125
40
0.125
40
0.1875
40
0.1875
40
0.25
40
0.25
40
0.28125
40
0.28125
40
0.312499999999999
40
0.312499999999999
40
0.374999999999998
40
0.374999999999998
40
0.499999999999995
40
0.499999999999995
40
0.531249999999995
40
0.531249999999995
40
0.562499999999995
40
0.562499999999995
40
0.624999999999996
40
0.624999999999996
40
0.749999999999997
40
0.749999999999997
40
0.874999999999999
40
0.874999999999999
40
1
40
1
40
1
40
1
41
1
10
-51.3860020460814
20
5.00022676868039
30
0
41
1
10
-51.4271597094618
20
4.99693377635015
30
0
41
1
10
-51.4672462826171
20
4.9900941818546
30
0
41
1
10
-51.5455242136708
20
4.97012456894885
30
0
41
1
10
-51.5837142752675
20
4.95699014998107
30
0
41
1
10
-51.658355568598
20
4.92492253812571
30
0
41
1
10
-51.6938849422845
20
4.90639169663621
30
0
41
1
10
-51.7618166387264
20
4.86534206803361
30
0
41
1
10
-51.7942559781117
20
4.84279931421437
30
0
41
1
10
-51.8409760500773
20
4.80639681369991
30
0
41
1
10
-51.8562248159031
20
4.79382938651
30
0
41
1
10
-51.8861176712827
20
4.76788296468004
30
0
41
1
10
-51.9007110618413
20
4.75454548912128
30
0
41
1
10
-51.9432559764382
20
4.71379512925466
30
0
41
1
10
-51.9701014783725
20
4.68554212638855
30
0
41
1
10
-52.0468805903312
20
4.59805033156974
30
0
41
1
10
-52.0930959781036
20
4.5361050376323
30
0
41
1
10
-52.146279276313
20
4.45521167958731
30
0
41
1
10
-52.1566830990007
20
4.43885754119347
30
0
41
1
10
-52.1770537162702
20
4.4058167491863
30
0
41
1
10
-52.1870311208955
20
4.38911114781021
30
0
41
1
10
-52.2162315231511
20
4.33872068618709
30
0
41
1
10
-52.2347469485042
20
4.30473232112985
30
0
41
1
10
-52.2878314108395
20
4.20171722667834
30
0
41
1
10
-52.3199565384223
20
4.13164670884206
30
0
41
1
10
-52.3791390929746
20
3.98921323503123
30
0
41
1
10
-52.4061866509714
20
3.91684682729945
30
0
41
1
10
-52.4561716481468
20
3.77014208810513
30
0
41
1
10
-52.4791043925606
20
3.69580212206003
30
0
41
1
10
-52.5003287739482
20
3.62059097355464
30
0
0
SPLINE
5
D6
100
AcDbEntity
8
SK1
62
256
6
ByLayer
370
18
48
1
60
0
100
AcDbSpline
70
4
71
3
72
32
73
28
40
0
40
0
40
0
40
0
40
0.124999999999982
40
0.124999999999982
40
0.249999999999963
40
0.249999999999963
40
0.374999999999945
40
0.374999999999945
40
0.406249999999941
40
0.406249999999941
40
0.437499999999938
40
0.499999999999932
40
0.499999999999932
40
0.624999999999931
40
0.624999999999931
40
0.656249999999931
40
0.656249999999931
40
0.68749999999993
40
0.68749999999993
40
0.749999999999941
40
0.749999999999941
40
0.874999999999977
40
0.874999999999977
40
0.906249999999979
40
0.906249999999979
40
0.937499999999981
40
1
40
1
40
1
40
1
41
1
10
-14.0157764695459
20
6.59242894057729
30
0
41
1
10
-14.0458287908144
20
6.6375753796253
30
0
41
1
10
-14.0777095790597
20
6.68135165141678
30
0
41
1
10
-14.1456160664485
20
6.76590887596987
30
0
41
1
10
-14.1816386907667
20
6.80669170869109
30
0
41
1
10
-14.2584995514322
20
6.88489663469755
30
0
41
1
10
-14.2993317458756
20
6.92232243783545
30
0
41
1
10
-14.35399779722
20
6.96665617585003
30
0
41
1
10
-14.3651284778382
20
6.97541075031074
30
0
41
1
10
-14.3876400333972
20
6.9925614515505
30
0
41
1
10
-14.4218166346372
20
7.01777898878851
30
0
41
1
10
-14.4572545898122
20
7.04143848131534
30
0
41
1
10
-14.529923003083
20
7.08656817107874
30
0
41
1
10
-14.5807455844469
20
7.11375097789289
30
0
41
1
10
-14.6477689594914
20
7.14354340177493
30
0
41
1
10
-14.6613494138678
20
7.1492913738704
30
0
41
1
10
-14.6888796972728
20
7.1603468035685
30
0
41
1
10
-14.7028224503024
20
7.16564964334611
30
0
41
1
10
-14.7448319317882
20
7.18073146134719
30
0
41
1
10
-14.7732044950192
20
7.1897362156873
30
0
41
1
10
-14.8594560991353
20
7.21351895535656
30
0
41
1
10
-14.9184624466539
20
7.22508541231923
30
0
41
1
10
-14.9943023139084
20
7.23365556703433
30
0
41
1
10
-15.009604540326
20
7.23507501753883
30
0
41
1
10
-15.0401948935638
20
7.23728819114979
30
0
41
1
10
-15.0861089470591
20
7.23967813447453
30
0
41
1
10
-15.1321084232236
20
7.23928527151031
30
0
41
1
10
-15.1628130403699
20
7.23777548279986
30
0
0
SPLINE
5
D7
100
AcDbEntity
8
SK1
62
256
6
ByLayer
370
18
48
1
60
0
100
AcDbSpline
70
4
71
3
72
24
73
20
40
0
40
0
40
0
40
0
40
0.124999999999998
40
0.124999999999998
40
0.249999999999995
40
0.249999999999995
40
0.374999999999993
40
0.374999999999993
40
0.49999999999999
40
0.49999999999999
40
0.624999999999988
40
0.624999999999988
40
0.749999999999985
40
0.749999999999985
40
0.812499999999989
40
0.812499999999989
40
0.874999999999992
40
0.874999999999992
40
1
40
1
40
1
40
1
41
1
10
-15.1628130403699
20
-7.23777548279986
30
0
41
1
10
-15.1013368482927
20
-7.2407983526281
30
0
41
1
10
-15.0406973758297
20
-7.23880609117487
30
0
41
1
10
-14.920978556398
20
-7.22545942224767
30
0
41
1
10
-14.8618998887329
20
-7.21410077871741
30
0
41
1
10
-14.7452745335612
20
-7.18212437688828
30
0
41
1
10
-14.6895699451789
20
-7.16201960319464
30
0
41
1
10
-14.5827589175342
20
-7.11474711952985
30
0
41
1
10
-14.5316211412475
20
-7.08755690757022
30
0
41
1
10
-14.4334554488588
20
-7.02672282100497
30
0
41
1
10
-14.38751619038
20
-6.99376703919228
30
0
41
1
10
-14.3007925764322
20
-6.92357765523022
30
0
41
1
10
-14.2600161652162
20
-6.88633798514746
30
0
41
1
10
-14.2021759714483
20
-6.82763631844753
30
0
41
1
10
-14.1834523029509
20
-6.80759363972547
30
0
41
1
10
-14.1470479748901
20
-6.76660288333122
30
0
41
1
10
-14.1293429656042
20
-6.74562348347595
30
0
41
1
10
-14.0779142754528
20
-6.68164973874727
30
0
41
1
10
-14.0458764161971
20
-6.63764692539442
30
0
41
1
10
-14.0157764695459
20
-6.59242894057729
30
0
0
SPLINE
5
D8
100
AcDbEntity
8
1
62
256
6
ByLayer
370
13
48
1
60
0
100
AcDbSpline
70
4
71
3
72
78
73
74
40
0
40
0
40
0
40
0
40
0.0312499999999999
40
0.0312499999999999
40
0.0624999999999999
40
0.0624999999999999
40
0.0937499999999999
40
0.0937499999999999
40
0.125
40
0.125
40
0.15625
40
0.15625
40
0.1875
40
0.1875
40
0.21875
40
0.21875
40
0.25
40
0.25
40
0.28125
40
0.28125
40
0.3125
40
0.3125
40
0.34375
40
0.34375
40
0.375
40
0.375
40
0.40625
40
0.40625
40
0.4375
40
0.4375
40
0.4453125
40
0.4453125
40
0.453125
40
0.453125
40
0.46875
40
0.46875
40
0.5
40
0.5
40
0.53125
40
0.53125
40
0.5625
40
0.5625
40
0.59375
40
0.59375
40
0.625
40
0.625
40
0.65625
40
0.65625
40
0.6875
40
0.6875
40
0.71875
40
0.71875
40
0.75
40
0.75
40
0.78125
40
0.78125
40
0.8125
40
0.8125
40
0.84375
40
0.84375
40
0.875
40
0.875
40
0.890625
40
0.890625
40
0.8984375
40
0.8984375
40
0.90625
40
0.90625
40
0.9375
40
0.9375
40
0.96875
40
0.96875
40
1
40
1
40
1
40
1
41
1
10
51.7834908341435
20
11.5
30
0
41
1
10
51.8463122036415
20
11.5
30
0
41
1
10
51.9091335731393
20
11.4816851446091
30
0
41
1
10
52.0347763121351
20
11.4042940589401
30
0
41
1
10
52.0975976816329
20
11.3452053555842
30
0
41
1
10
52.2232404206286
20
11.1829850715689
30
0
41
1
10
52.2860617901265
20
11.079841657242
30
0
41
1
10
52.4117045291222
20
10.8274746603246
30
0
41
1
10
52.4745258986201
20
10.6782416725179
30
0
41
1
10
52.6001686376159
20
10.3332282062149
30
0
41
1
10
52.6629900071138
20
10.1374425427853
30
0
41
1
10
52.7886327461094
20
9.70065201370446
30
0
41
1
10
52.8514541156073
20
9.45964754840941
30
0
41
1
10
52.977096854603
20
8.93561976684677
30
0
41
1
10
53.0399182241009
20
8.65260296456074
30
0
41
1
10
53.1655609630966
20
8.04952028758882
30
0
41
1
10
53.2283823325945
20
7.72946649540296
30
0
41
1
10
53.3540250715902
20
7.05876689317245
30
0
41
1
10
53.4168464410881
20
6.70813716418755
30
0
41
1
10
53.5424891800838
20
5.98380057125675
30
0
41
1
10
53.6053105495817
20
5.61011153406471
30
0
41
1
10
53.7309532885774
20
4.84771121208524
30
0
41
1
10
53.7937746580753
20
4.45901708862814
30
0
41
1
10
53.919417397071
20
3.6746673778467
30
0
41
1
10
53.9822387665689
20
3.27902624426781
30
0
41
1
10
54.1078815055646
20
2.48836756236648
30
0
41
1
10
54.1707028750624
20
2.09336045139344
30
0
41
1
10
54.2963456140582
20
1.31070144596438
30
0
41
1
10
54.3591669835561
20
0.923055516662174
30
0
41
1
10
54.4376936954284
20
0.446614600655522
30
0
41
1
10
54.4533990378029
20
0.351729364195052
30
0
41
1
10
54.4848097225517
20
0.162840905463582
30
0
41
1
10
54.5005150649262
20
0.0689822698124658
30
0
41
1
10
54.5476310920496
20
-0.212097038456648
30
0
41
1
10
54.5790417767986
20
-0.401367942453334
30
0
41
1
10
54.6732738310454
20
-0.973939879273274
30
0
41
1
10
54.7360952005432
20
-1.36203645583967
30
0
41
1
10
54.861737939539
20
-2.1453229260801
30
0
41
1
10
54.9245593090369
20
-2.54050665933403
30
0
41
1
10
55.0502020480326
20
-3.33120103086588
30
0
41
1
10
55.1130234175304
20
-3.72670103944486
30
0
41
1
10
55.2386661565262
20
-4.51042111118497
30
0
41
1
10
55.3014875260241
20
-4.89862656785144
30
0
41
1
10
55.4271302650197
20
-5.65969154847701
30
0
41
1
10
55.4899516345176
20
-6.0325338345813
30
0
41
1
10
55.6155943735134
20
-6.75483109057083
30
0
41
1
10
55.6784157430112
20
-7.10426825892517
30
0
41
1
10
55.8040584820069
20
-7.77227272237258
30
0
41
1
10
55.8668798515048
20
-8.09082406815611
30
0
41
1
10
55.9925225905006
20
-8.69064893674408
30
0
41
1
10
56.0553439599984
20
-8.97191059558665
30
0
41
1
10
56.1809866989942
20
-9.49224820702017
30
0
41
1
10
56.2438080684921
20
-9.73131791116774
30
0
41
1
10
56.3694508074878
20
-10.1641405666845
30
0
41
1
10
56.4322721769856
20
-10.3578933817515
30
0
41
1
10
56.5579149159814
20
-10.6988246973551
30
0
41
1
10
56.6207362854793
20
-10.846008601841
30
0
41
1
10
56.746379024475
20
-11.09433583576
30
0
41
1
10
56.8092003939728
20
-11.1954887163057
30
0
41
1
10
56.9348431329686
20
-11.3538485890305
30
0
41
1
10
56.9976645024664
20
-11.4110674791506
30
0
41
1
10
57.0918965567132
20
-11.4664314258177
30
0
41
1
10
57.1233072414621
20
-11.4798171420002
30
0
41
1
10
57.1704232685855
20
-11.4926662763686
30
0
41
1
10
57.18612861096
20
-11.4957447967764
30
0
41
1
10
57.217539295709
20
-11.4995592161432
30
0
41
1
10
57.2332446380834
20
-11.5002968956435
30
0
41
1
10
57.3117713499557
20
-11.4982809672508
30
0
41
1
10
57.3745927194536
20
-11.4782553295087
30
0
41
1
10
57.5002354584494
20
-11.3972772483333
30
0
41
1
10
57.5630568279472
20
-11.3363123259926
30
0
41
1
10
57.6886995669429
20
-11.1702212325121
30
0
41
1
10
57.7515209364408
20
-11.0650832954916
30
0
41
1
10
57.8143423059387
20
-10.9368774528418
30
0
0
SPLINE
5
D9
100
AcDbEntity
8
1
62
256
6
ByLayer
370
13
48
1
60
0
100
AcDbSpline
70
4
71
3
72
68
73
64
40
0
40
0
40
0
40
0
40
0.0312499999999999
40
0.0312499999999999
40
0.0624999999999997
40
0.0624999999999997
40
0.0937499999999996
40
0.0937499999999996
40
0.124999999999999
40
0.124999999999999
40
0.156249999999999
40
0.156249999999999
40
0.187499999999999
40
0.187499999999999
40
0.218749999999999
40
0.218749999999999
40
0.249999999999999
40
0.249999999999999
40
0.281249999999999
40
0.281249999999999
40
0.312499999999999
40
0.312499999999999
40
0.343749999999999
40
0.343749999999999
40
0.374999999999998
40
0.374999999999998
40
0.437499999999998
40
0.437499999999998
40
0.453124999999999
40
0.453124999999999
40
0.460937499999998
40
0.460937499999998
40
0.468749999999998
40
0.468749999999998
40
0.499999999999998
40
0.499999999999998
40
0.562499999999998
40
0.562499999999998
40
0.593749999999998
40
0.593749999999998
40
0.624999999999998
40
0.624999999999998
40
0.656249999999998
40
0.656249999999998
40
0.687499999999998
40
0.687499999999998
40
0.718749999999999
40
0.718749999999999
40
0.749999999999999
40
0.749999999999999
40
0.781249999999999
40
0.781249999999999
40
0.812499999999999
40
0.812499999999999
40
0.843749999999999
40
0.843749999999999
40
0.874999999999999
40
0.874999999999999
40
0.90625
40
0.90625
40
0.9375
40
0.9375
40
1
40
1
40
1
40
1
41
1
10
46.9
20
-11.2291450374353
30
0
41
1
10
46.9526474427661
20
-11.1560508586062
30
0
41
1
10
47.0052948855322
20
-11.0673672064861
30
0
41
1
10
47.1105897710643
20
-10.8576825542473
30
0
41
1
10
47.1632372138305
20
-10.736677622981
30
0
41
1
10
47.2685320993626
20
-10.4619738602049
30
0
41
1
10
47.3211795421287
20
-10.308272502456
30
0
41
1
10
47.4264744276608
20
-9.96866967649839
30
0
41
1
10
47.479121870427
20
-9.78276752102613
30
0
41
1
10
47.5844167559591
20
-9.3801769939611
30
0
41
1
10
47.6370641987252
20
-9.16349002684996
30
0
41
1
10
47.7423590842574
20
-8.70165388903288
30
0
41
1
10
47.7950065270235
20
-8.45650822025146
30
0
41
1
10
47.9003014125556
20
-7.94091497489992
30
0
41
1
10
47.9529488553217
20
-7.67047273387882
30
0
41
1
10
48.0582437408538
20
-7.10814907378028
30
0
41
1
10
48.1108911836199
20
-6.81627432161702
30
0
41
1
10
48.2161860691521
20
-6.21546860391427
30
0
41
1
10
48.2688335119182
20
-5.90654497578652
30
0
41
1
10
48.3741283974502
20
-5.27633195530737
30
0
41
1
10
48.4267758402164
20
-4.95504986096421
30
0
41
1
10
48.5320707257486
20
-4.30489554456778
30
0
41
1
10
48.5847181685147
20
-3.97602993450752
30
0
41
1
10
48.6900130540468
20
-3.31535834162292
30
0
41
1
10
48.742660496813
20
-2.98355779069567
30
0
41
1
10
48.9006028251112
20
-1.99025776732188
30
0
41
1
10
49.0058977106434
20
-1.3311446542958
30
0
41
1
10
49.1375163175585
20
-0.529190582050774
30
0
41
1
10
49.1638400389416
20
-0.369875049995301
30
0
41
1
10
49.2033256210162
20
-0.132786473833676
30
0
41
1
10
49.2164874817077
20
-0.054186914427504
30
0
41
1
10
49.2428112030907
20
0.102849949371176
30
0
41
1
10
49.2559730637822
20
0.181698872314513
30
0
41
1
10
49.3217823672398
20
0.577490305803337
30
0
41
1
10
49.374429810006
20
0.899096517292065
30
0
41
1
10
49.5323721383041
20
1.87421612724145
30
0
41
1
10
49.6376670238363
20
2.53827471544864
30
0
41
1
10
49.7956093521346
20
3.53191925712161
30
0
41
1
10
49.8482567949007
20
3.86266093535761
30
0
41
1
10
49.9535516804328
20
4.51867834222824
30
0
41
1
10
50.0061991231989
20
4.84394793826374
30
0
41
1
10
50.1114940087311
20
5.48427910163903
30
0
41
1
10
50.1641414514971
20
5.79933360600825
30
0
41
1
10
50.2694363370293
20
6.4144793548291
30
0
41
1
10
50.3220837797954
20
6.71456319307416
30
0
41
1
10
50.4273786653276
20
7.29521870739489
30
0
41
1
10
50.4800261080937
20
7.57578332859197
30
0
41
1
10
50.5853209936258
20
8.11327752443222
30
0
41
1
10
50.6379684363919
20
8.37020109274778
30
0
41
1
10
50.7432633219241
20
8.85691490577153
30
0
41
1
10
50.7959107646902
20
9.0867007782916
30
0
41
1
10
50.9012056502224
20
9.51642333637497
30
0
41
1
10
50.9538530929885
20
9.71635766165227
30
0
41
1
10
51.0591479785206
20
10.0845459041591
30
0
41
1
10
51.1117954212867
20
10.2527995884807
30
0
41
1
10
51.2170903068188
20
10.5567190584445
30
0
41
1
10
51.2697377495849
20
10.6923865906203
30
0
41
1
10
51.3750326351171
20
10.9311264783031
30
0
41
1
10
51.4276800778832
20
11.0342021968547
30
0
41
1
10
51.5329749634154
20
11.2085731607331
30
0
41
1
10
51.5856224061814
20
11.2798728890146
30
0
41
1
10
51.7435647344797
20
11.4483768204938
30
0
41
1
10
51.8488596200119
20
11.5
30
0
41
1
10
51.954154505544
20
11.5
30
0
0
SPLINE
5
DA
100
AcDbEntity
8
1
62
256
6
ByLayer
370
13
48
1
60
0
100
AcDbSpline
70
4
71
3
72
78
73
74
40
0
40
0
40
0
40
0
40
0.0312499999999999
40
0.0312499999999999
40
0.0624999999999998
40
0.0624999999999998
40
0.0937499999999998
40
0.0937499999999998
40
0.125
40
0.125
40
0.15625
40
0.15625
40
0.1875
40
0.1875
40
0.21875
40
0.21875
40
0.249999999999999
40
0.249999999999999
40
0.281249999999999
40
0.281249999999999
40
0.312499999999999
40
0.312499999999999
40
0.343749999999999
40
0.343749999999999
40
0.374999999999999
40
0.374999999999999
40
0.406249999999999
40
0.406249999999999
40
0.414062499999999
40
0.414062499999999
40
0.421875
40
0.421875
40
0.4375
40
0.4375
40
0.46875
40
0.46875
40
0.5
40
0.5
40
0.53125
40
0.53125
40
0.5625
40
0.5625
40
0.59375
40
0.59375
40
0.625
40
0.625
40
0.65625
40
0.65625
40
0.6875
40
0.6875
40
0.71875
40
0.71875
40
0.75
40
0.75
40
0.78125
40
0.78125
40
0.8125
40
0.8125
40
0.828125
40
0.828125
40
0.8359375
40
0.8359375
40
0.84375
40
0.84375
40
0.875
40
0.875
40
0.90625
40
0.90625
40
0.9375
40
0.9375
40
0.96875
40
0.96875
40
1
40
1
40
1
40
1
41
1
10
51.2951418053009
20
11.5
30
0
41
1
10
51.3630501438492
20
11.5
30
0
41
1
10
51.4309584823976
20
11.4785929306576
30
0
41
1
10
51.5667751594941
20
11.3877834054021
30
0
41
1
10
51.6346834980425
20
11.3183625449163
30
0
41
1
10
51.7705001751391
20
11.1275435735617
30
0
41
1
10
51.8384085136874
20
11.0061284126301
30
0
41
1
10
51.974225190784
20
10.7091153807725
30
0
41
1
10
52.0421335293323
20
10.5335049317775
30
0
41
1
10
52.1779502064289
20
10.128129092246
30
0
41
1
10
52.2458585449772
20
9.8983585611536
30
0
41
1
10
52.3816752220739
20
9.38720031183928
30
0
41
1
10
52.4495835606222
20
9.10581683100486
30
0
41
1
10
52.5854002377189
20
8.49650009677904
30
0
41
1
10
52.6533085762671
20
8.16858063937005
30
0
41
1
10
52.7891252533638
20
7.4735172698652
30
0
41
1
10
52.8570335919121
20
7.10639487717091
30
0
41
1
10
52.9928502690086
20
6.34197009682262
30
0
41
1
10
53.060758607557
20
5.9446934959216
30
0
41
1
10
53.1965752846536
20
5.12999966489562
30
0
41
1
10
53.2644836232019
20
4.71260833760127
30
0
41
1
10
53.4003003002985
20
3.86792767923353
30
0
41
1
10
53.4682086388468
20
3.44066061088222
30
0
41
1
10
53.6040253159434
20
2.58593808556617
30
0
41
1
10
53.6719336544918
20
2.1584987303371
30
0
41
1
10
53.8077503315884
20
1.31202436091121
30
0
41
1
10
53.8756586701367
20
0.89299833997714
30
0
41
1
10
53.9605440933221
20
0.378904270356657
30
0
41
1
10
53.9775211779591
20
0.276565944363796
30
0
41
1
10
54.0114753472333
20
0.0729449050193409
30
0
41
1
10
54.0284524318704
20
-0.0279976805379363
30
0
41
1
10
54.0793836857816
20
-0.332958479578139
30
0
41
1
10
54.1133378550558
20
-0.538407020665687
30
0
41
1
10
54.2152003628783
20
-1.16001357360975
30
0
41
1
10
54.2831087014266
20
-1.58148104636467
30
0
41
1
10
54.4189253785232
20
-2.43112647726201
30
0
41
1
10
54.4868337170715
20
-2.85929392448997
30
0
41
1
10
54.6226503941681
20
-3.71348360430912
30
0
41
1
10
54.6905587327164
20
-4.13948828931109
30
0
41
1
10
54.826375409813
20
-4.97948553667956
30
0
41
1
10
54.8942837483613
20
-5.39345479874089
30
0
41
1
10
55.0301004254579
20
-6.19912240222098
30
0
41
1
10
55.0980087640063
20
-6.59079452173384
30
0
41
1
10
55.2338254411029
20
-7.34197242341057
30
0
41
1
10
55.3017337796512
20
-7.70145298676238
30
0
41
1
10
55.4375504567478
20
-8.37950332744947
30
0
41
1
10
55.5054587952961
20
-8.69805298475109
30
0
41
1
10
55.6412754723928
20
-9.28734369640387
30
0
41
1
10
55.7091838109411
20
-9.55807290420552
30
0
41
1
10
55.8450004880377
20
-10.047162019618
30
0
41
1
10
55.912908826586
20
-10.2655197706275
30
0
41
1
10
56.0487255036826
20
-10.6478560344663
30
0
41
1
10
56.1166338422309
20
-10.8118414830579
30
0
41
1
10
56.2524505193276
20
-11.0858981172622
30
0
41
1
10
56.3203588578759
20
-11.1959831003161
30
0
41
1
10
56.4561755349725
20
-11.3648577980423
30
0
41
1
10
56.5240838735209
20
-11.4236651027712
30
0
41
1
10
56.6259463813433
20
-11.4766220180677
30
0
41
1
10
56.6599005506174
20
-11.4884099797576
30
0
41
1
10
56.7108318045286
20
-11.4977787448194
30
0
41
1
10
56.7278088891658
20
-11.4995166285975
30
0
41
1
10
56.7617630584399
20
-11.5003080660664
30
0
41
1
10
56.778740143077
20
-11.4993710304306
30
0
41
1
10
56.8636255662624
20
-11.487831402446
30
0
41
1
10
56.9315339048106
20
-11.4565987223355
30
0
41
1
10
57.0673505819072
20
-11.3451672977389
30
0
41
1
10
57.1352589204556
20
-11.2649501952043
30
0
41
1
10
57.2710755975522
20
-11.0519025173975
30
0
41
1
10
57.3389839361005
20
-10.9190555761527
30
0
41
1
10
57.4748006131971
20
-10.5989849699962
30
0
41
1
10
57.5427089517454
20
-10.4117500843111
30
0
41
1
10
57.678525628842
20
-9.98345067833566
30
0
41
1
10
57.7464339673904
20
-9.74238290360634
30
0
41
1
10
57.8143423059387
20
-9.47594270208583
30
0
0
SPLINE
5
DB
100
AcDbEntity
8
1
62
256
6
ByLayer
370
13
48
1
60
0
100
AcDbSpline
70
4
71
3
72
43
73
39
40
0
40
0
40
0
40
0
40
0.0625000000000006
40
0.0625000000000006
40
0.125000000000001
40
0.125000000000001
40
0.187500000000002
40
0.187500000000002
40
0.250000000000002
40
0.250000000000002
40
0.312500000000003
40
0.312500000000003
40
0.375000000000003
40
0.375000000000003
40
0.390625000000003
40
0.398437500000003
40
0.398437500000003
40
0.406250000000003
40
0.406250000000003
40
0.437500000000003
40
0.437500000000003
40
0.500000000000003
40
0.500000000000003
40
0.562500000000002
40
0.562500000000002
40
0.625000000000002
40
0.625000000000002
40
0.687500000000002
40
0.687500000000002
40
0.750000000000001
40
0.750000000000001
40
0.812500000000001
40
0.812500000000001
40
0.875000000000001
40
0.875000000000001
40
0.9375
40
0.9375
40
1
40
1
40
1
40
1
41
1
10
46.9
20
-10.0912268093359
30
0
41
1
10
46.9951209474313
20
-9.77910841242402
30
0
41
1
10
47.0902418948626
20
-9.41430118760977
30
0
41
1
10
47.2804837897252
20
-8.59031975796566
30
0
41
1
10
47.3756047371564
20
-8.1312085357655
30
0
41
1
10
47.565846632019
20
-7.13863509882472
30
0
41
1
10
47.6609675794502
20
-6.60529360707869
30
0
41
1
10
47.8512094743128
20
-5.49045993669316
30
0
41
1
10
47.9463304217441
20
-4.90910887070822
30
0
41
1
10
48.1365723166067
20
-3.72655438571968
30
0
41
1
10
48.2316932640379
20
-3.12547097624784
30
0
41
1
10
48.4219351589005
20
-1.92977745601439
30
0
41
1
10
48.5170561063318
20
-1.33523970423869
30
0
41
1
10
48.6359572906208
20
-0.609478713716811
30
0
41
1
10
48.6716276459076
20
-0.393034636267657
30
0
41
1
10
48.7072980011943
20
-0.178822966816881
30
0
41
1
10
48.7310782380521
20
-0.0365423547922035
30
0
41
1
10
48.7429683564811
20
0.0341956573282971
30
0
41
1
10
48.8024189486256
20
0.3898681152248
30
0
41
1
10
48.8499794223412
20
0.678643831241601
30
0
41
1
10
48.9926608434882
20
1.55441932697738
30
0
41
1
10
49.0877817909194
20
2.15104175553498
30
0
41
1
10
49.278023685782
20
3.3478852383559
30
0
41
1
10
49.3731446332133
20
3.94802736849718
30
0
41
1
10
49.5633865280758
20
5.12524129603273
30
0
41
1
10
49.6585074755071
20
5.70218860431203
30
0
41
1
10
49.8487493703697
20
6.80477382207454
30
0
41
1
10
49.9438703178009
20
7.33027076430565
30
0
41
1
10
50.1341122126635
20
8.30426066017426
30
0
41
1
10
50.2292331600947
20
8.75263832744244
30
0
41
1
10
50.4194750549573
20
9.55325040379833
30
0
41
1
10
50.5145960023885
20
9.90543056206124
30
0
41
1
10
50.7048378972511
20
10.5037263001875
30
0
41
1
10
50.7999588446825
20
10.7498595429738
30
0
41
1
10
50.990200739545
20
11.1359210735314
30
0
41
1
10
51.0853216869763
20
11.2759225642077
30
0
41
1
10
51.2755635818388
20
11.4579132796987
30
0
41
1
10
51.3706845292701
20
11.5
30
0
41
1
10
51.4658054767014
20
11.5
30
0
0
SPLINE
5
DC
100
AcDbEntity
8
1
62
256
6
ByLayer
370
13
48
1
60
0
100
AcDbSpline
70
4
71
3
72
80
73
76
40
0
40
0
40
0
40
0
40
0.0312499999999998
40
0.0312499999999998
40
0.0624999999999996
40
0.0624999999999996
40
0.0937499999999994
40
0.0937499999999994
40
0.124999999999999
40
0.124999999999999
40
0.156249999999999
40
0.156249999999999
40
0.187499999999999
40
0.187499999999999
40
0.218749999999999
40
0.218749999999999
40
0.249999999999999
40
0.249999999999999
40
0.281249999999998
40
0.281249999999998
40
0.312499999999998
40
0.312499999999998
40
0.343749999999998
40
0.343749999999998
40
0.374999999999998
40
0.374999999999998
40
0.382812499999998
40
0.386718749999998
40
0.386718749999998
40
0.390624999999998
40
0.390624999999998
40
0.406249999999998
40
0.406249999999998
40
0.437499999999998
40
0.437499999999998
40
0.468749999999998
40
0.468749999999998
40
0.499999999999998
40
0.499999999999998
40
0.531249999999998
40
0.531249999999998
40
0.562499999999998
40
0.562499999999998
40
0.593749999999998
40
0.593749999999998
40
0.624999999999998
40
0.624999999999998
40
0.656249999999998
40
0.656249999999998
40
0.687499999999998
40
0.687499999999998
40
0.718749999999998
40
0.718749999999998
40
0.749999999999998
40
0.749999999999998
40
0.765624999999998
40
0.765624999999998
40
0.773437499999998
40
0.777343749999998
40
0.777343749999998
40
0.781249999999998
40
0.781249999999998
40
0.812499999999998
40
0.812499999999998
40
0.843749999999999
40
0.843749999999999
40
0.874999999999999
40
0.874999999999999
40
0.906249999999999
40
0.906249999999999
40
0.937499999999999
40
0.937499999999999
40
0.96875
40
0.96875
40
1
40
1
40
1
40
1
41
1
10
50.8067927764583
20
11.5
30
0
41
1
10
50.879788084057
20
11.5
30
0
41
1
10
50.9527833916558
20
11.4752579360249
30
0
41
1
10
51.0987740068533
20
11.3699024702809
30
0
41
1
10
51.1717693144521
20
11.2892626893851
30
0
41
1
10
51.3177599296496
20
11.0673771705692
30
0
41
1
10
51.3907552372484
20
10.926107668052
30
0
41
1
10
51.5367458524458
20
10.5807004197948
30
0
41
1
10
51.6097411600446
20
10.3765467149643
30
0
41
1
10
51.755731775242
20
9.90619741370219
30
0
41
1
10
51.8287270828409
20
9.6399982957181
30
0
41
1
10
51.9747176980384
20
9.04978200195364
30
0
41
1
10
52.0477130056371
20
8.72577616466052
30
0
41
1
10
52.1937036208346
20
8.02745700270364
30
0
41
1
10
52.2666989284334
20
7.65316891680024
30
0
41
1
10
52.4126895436309
20
6.86452660841994
30
0
41
1
10
52.4856848512297
20
6.45020715345359
30
0
41
1
10
52.6316754664272
20
5.59355424381948
30
0
41
1
10
52.7046707740259
20
5.15125856211259
30
0
41
1
10
52.8506613892234
20
4.25140148798849
30
0
41
1
10
52.9236566968222
20
3.79387421360073
30
0
41
1
10
53.0696473120196
20
2.87589497982248
30
0
41
1
10
53.1426426196184
20
2.41546854802371
30
0
41
1
10
53.288633234816
20
1.50271314447454
30
0
41
1
10
53.3616285424147
20
1.05039887875847
30
0
41
1
10
53.4528726769132
20
0.495750534873053
30
0
41
1
10
53.4802459172627
20
0.330154098360168
30
0
41
1
10
53.5076191576122
20
0.165890259431137
30
0
41
1
10
53.5258679845119
20
0.0566912027089472
30
0
41
1
10
53.5349923979617
20
0.0023531427059709
30
0
41
1
10
53.5806144652109
20
-0.270079191373952
30
0
41
1
10
53.6171121190103
20
-0.490552703655453
30
0
41
1
10
53.7266050804084
20
-1.15812904601654
30
0
41
1
10
53.7996003880073
20
-1.61145235989235
30
0
41
1
10
53.9455910032047
20
-2.5254128322004
30
0
41
1
10
54.0185863108035
20
-2.9860344044971
30
0
41
1
10
54.164576926001
20
-3.90345872733062
30
0
41
1
10
54.2375722335997
20
-4.36023514495449
30
0
41
1
10
54.3835628487972
20
-5.25757527882632
30
0
41
1
10
54.456558156396
20
-5.69810437219425
30
0
41
1
10
54.6025487715934
20
-6.5502215089509
30
0
41
1
10
54.6755440791922
20
-6.96177176308134
30
0
41
1
10
54.8215346943898
20
-7.74397683403498
30
0
41
1
10
54.8945300019885
20
-8.11459742083457
30
0
41
1
10
55.040520617186
20
-8.80486992012308
30
0
41
1
10
55.1135159247848
20
-9.12449758286007
30
0
41
1
10
55.2595065399822
20
-9.705492987767
30
0
41
1
10
55.332501847581
20
-9.96685059065493
30
0
41
1
10
55.4784924627785
20
-10.4273255429817
30
0
41
1
10
55.5514877703773
20
-10.6264475344804
30
0
41
1
10
55.6974783855748
20
-10.9618634458059
30
0
41
1
10
55.7704736931735
20
-11.0981741357825
30
0
41
1
10
55.9164643083711
20
-11.3104379425312
30
0
41
1
10
55.9894596159698
20
-11.3864152194761
30
0
41
1
10
56.098952577368
20
-11.4587843893698
30
0
41
1
10
56.1354502311673
20
-11.475991200643
30
0
41
1
10
56.1901967118663
20
-11.492005267961
30
0
41
1
10
56.217569952216
20
-11.4975643497117
30
0
41
1
10
56.2449431925655
20
-11.4995685624411
30
0
41
1
10
56.2631920194651
20
-11.5001282434464
30
0
41
1
10
56.272316432915
20
-11.5000218350709
30
0
41
1
10
56.3544361539635
20
-11.4955632854204
30
0
41
1
10
56.4274314615623
20
-11.4665790628813
30
0
41
1
10
56.5734220767598
20
-11.3522883459971
30
0
41
1
10
56.6464173843586
20
-11.2669555036963
30
0
41
1
10
56.7924079995562
20
-11.0354029857734
30
0
41
1
10
56.8654033071549
20
-10.889159974961
30
0
41
1
10
57.0113939223523
20
-10.5337518360354
30
0
41
1
10
57.0843892299512
20
-10.3245715903207
30
0
41
1
10
57.2303798451487
20
-9.844380152545
30
0
41
1
10
57.3033751527474
20
-9.57336657553986
30
0
41
1
10
57.4493657679449
20
-8.97400468233201
30
0
41
1
10
57.5223610755437
20
-8.64566889773675
30
0
41
1
10
57.6683516907412
20
-7.93941711960437
30
0
41
1
10
57.74134699834
20
-7.56152732528605
30
0
41
1
10
57.8143423059387
20
-7.16405916253129
30
0
0
SPLINE
5
DD
100
AcDbEntity
8
1
62
256
6
ByLayer
370
13
48
1
60
0
100
AcDbSpline
70
4
71
3
72
43
73
39
40
0
40
0
40
0
40
0
40
0.062499999999999
40
0.062499999999999
40
0.124999999999998
40
0.124999999999998
40
0.187499999999997
40
0.187499999999997
40
0.249999999999996
40
0.249999999999996
40
0.312499999999995
40
0.312499999999995
40
0.328124999999995
40
0.328124999999995
40
0.335937499999995
40
0.335937499999995
40
0.343749999999995
40
0.374999999999995
40
0.374999999999995
40
0.437499999999996
40
0.437499999999996
40
0.499999999999996
40
0.499999999999996
40
0.562499999999996
40
0.562499999999996
40
0.624999999999997
40
0.624999999999997
40
0.687499999999997
40
0.687499999999997
40
0.749999999999998
40
0.749999999999998
40
0.812499999999998
40
0.812499999999998
40
0.874999999999999
40
0.874999999999999
40
0.937499999999999
40
0.937499999999999
40
1
40
1
40
1
40
1
41
1
10
46.9
20
-8.0552234560453
30
0
41
1
10
46.9849470093304
20
-7.63187574257867
30
0
41
1
10
47.0698940186608
20
-7.176378662052
30
0
41
1
10
47.2397880373216
20
-6.21840475354276
30
0
41
1
10
47.324735046652
20
-5.71600671165811
30
0
41
1
10
47.4946290653127
20
-4.68407260312497
30
0
41
1
10
47.5795760746431
20
-4.15461354433239
30
0
41
1
10
47.7494700933039
20
-3.08838653990961
30
0
41
1
10
47.8344171026343
20
-2.5516773927086
30
0
41
1
10
48.0043111212951
20
-1.48867205578955
30
0
41
1
10
48.0892581306255
20
-0.962408315803827
30
0
41
1
10
48.1954418922885
20
-0.319976113678933
30
0
41
1
10
48.2166786446211
20
-0.192249999163039
30
0
41
1
10
48.24853377312
20
-0.0019380114556213
30
0
41
1
10
48.2591521492863
20
0.061277611337772
30
0
41
1
10
48.2803889016188
20
0.18841572705017
30
0
41
1
10
48.3334807824504
20
0.507305125025084
30
0
41
1
10
48.3865726632818
20
0.831159745185232
30
0
41
1
10
48.5139931772774
20
1.61553809210238
30
0
41
1
10
48.5989401866078
20
2.14807034868059
30
0
41
1
10
48.7688342052686
20
3.21666147255155
30
0
41
1
10
48.853781214599
20
3.75267660147281
30
0
41
1
10
49.0236752332598
20
4.80947284975937
30
0
41
1
10
49.1086222425901
20
5.33018610546054
30
0
41
1
10
49.2785162612509
20
6.33628487085201
30
0
41
1
10
49.3634632705813
20
6.82159030298081
30
0
41
1
10
49.5333572892421
20
7.73772070073446
30
0
41
1
10
49.6183042985726
20
8.16847194601209
30
0
41
1
10
49.7881983172333
20
8.95966505985251
30
0
41
1
10
49.8731453265637
20
9.32005807958274
30
0
41
1
10
50.0430393452244
20
9.95993592464816
30
0
41
1
10
50.1279863545548
20
10.2394076465257
30
0
41
1
10
50.2978803732156
20
10.713035384752
30
0
41
1
10
50.382827382546
20
10.9072133060238
30
0
41
1
10
50.5527214012068
20
11.2118912092684
30
0
41
1
10
50.6376684105372
20
11.3224374995927
30
0
41
1
10
50.8075624291979
20
11.4664639285356
30
0
41
1
10
50.8925094385283
20
11.5
30
0
41
1
10
50.9774564478587
20
11.5
30
0
0
SPLINE
5
DE
100
AcDbEntity
8
1
62
256
6
ByLayer
370
13
48
1
60
0
100
AcDbSpline
70
4
71
3
72
79
73
75
40
0
40
0
40
0
40
0
40
0.0312500000000003
40
0.0312500000000003
40
0.0625000000000007
40
0.0625000000000007
40
0.093750000000001
40
0.093750000000001
40
0.125000000000001
40
0.125000000000001
40
0.156250000000002
40
0.156250000000002
40
0.187500000000002
40
0.187500000000002
40
0.218750000000002
40
0.218750000000002
40
0.250000000000003
40
0.250000000000003
40
0.281250000000003
40
0.281250000000003
40
0.312500000000003
40
0.312500000000003
40
0.343750000000004
40
0.343750000000004
40
0.359375000000004
40
0.359375000000004
40
0.367187500000004
40
0.367187500000004
40
0.375000000000004
40
0.375000000000004
40
0.406250000000004
40
0.406250000000004
40
0.437500000000004
40
0.437500000000004
40
0.468750000000003
40
0.468750000000003
40
0.500000000000003
40
0.500000000000003
40
0.531250000000003
40
0.531250000000003
40
0.562500000000003
40
0.562500000000003
40
0.593750000000002
40
0.593750000000002
40
0.625000000000002
40
0.625000000000002
40
0.656250000000002
40
0.656250000000002
40
0.687500000000001
40
0.687500000000001
40
0.718750000000001
40
0.718750000000001
40
0.726562500000001
40
0.726562500000001
40
0.730468750000001
40
0.730468750000001
40
0.734375000000001
40
0.750000000000001
40
0.750000000000001
40
0.781250000000001
40
0.781250000000001
40
0.812500000000001
40
0.812500000000001
40
0.843750000000001
40
0.843750000000001
40
0.875
40
0.875
40
0.90625
40
0.90625
40
0.9375
40
0.9375
40
0.96875
40
0.96875
40
1
40
1
40
1
40
1
41
1
10
50.3184437476156
20
11.5
30
0
41
1
10
50.3965260242649
20
11.5
30
0
41
1
10
50.4746083009141
20
11.471679612282
30
0
41
1
10
50.6307728542124
20
11.3506402029747
30
0
41
1
10
50.7088551308617
20
11.2578843163178
30
0
41
1
10
50.8650196841601
20
11.0024468278885
30
0
41
1
10
50.9431019608092
20
10.8397330760841
30
0
41
1
10
51.0992665141076
20
10.4422175624251
30
0
41
1
10
51.1773487907568
20
10.207396667394
30
0
41
1
10
51.3335133440552
20
9.66767092555887
30
0
41
1
10
51.4115956207044
20
9.36276680633426
30
0
41
1
10
51.5677601740028
20
8.68934471554411
30
0
41
1
10
51.645842450652
20
8.32084979995145
30
0
41
1
10
51.8020070039504
20
7.53082960264371
30
0
41
1
10
51.8800892805996
20
7.10934616932028
30
0
41
1
10
52.036253833898
20
6.227052571727
30
0
41
1
10
52.1143361105472
20
5.76629430867513
30
0
41
1
10
52.2705006638456
20
4.8208307957068
30
0
41
1
10
52.3485829404948
20
4.33617658054922
30
0
41
1
10
52.5047474937932
20
3.35839030883196
30
0
41
1
10
52.5828297704425
20
2.86529903726225
30
0
41
1
10
52.7389943237408
20
1.88478643804987
30
0
41
1
10
52.81707660039
20
1.39739039247309
30
0
41
1
10
52.9342000153638
20
0.679413385736041
30
0
41
1
10
52.9732411536883
20
0.442253426113439
30
0
41
1
10
53.0318028611752
20
0.0906700709270751
30
0
41
1
10
53.0513234303376
20
-0.025369204566914
30
0
41
1
10
53.0903645686622
20
-0.259237361548799
30
0
41
1
10
53.1098851378244
20
-0.376875756491103
30
0
41
1
10
53.207487983636
20
-0.968230435969105
30
0
41
1
10
53.2855702602852
20
-1.45154399888023
30
0
41
1
10
53.4417348135836
20
-2.4276639851243
30
0
41
1
10
53.5198170902328
20
-2.92045002712109
30
0
41
1
10
53.6759816435311
20
-3.90200689880456
30
0
41
1
10
53.7540639201804
20
-4.39074121371894
30
0
41
1
10
53.9102284734788
20
-5.34900991810397
30
0
41
1
10
53.988310750128
20
-5.81849548793164
30
0
41
1
10
54.1444753034263
20
-6.72270510512246
30
0
41
1
10
54.2225575800756
20
-7.15737637059732
30
0
41
1
10
54.3787221333739
20
-7.97757918960312
30
0
41
1
10
54.4568044100232
20
-8.36306483030793
30
0
41
1
10
54.6129689633216
20
-9.07322497138441
30
0
41
1
10
54.6910512399708
20
-9.39787019827159
30
0
41
1
10
54.8472157932691
20
-9.97854769558342
30
0
41
1
10
54.9252980699183
20
-10.2345726133871
30
0
41
1
10
55.0814626232167
20
-10.6746416970718
30
0
41
1
10
55.159544899866
20
-10.8586996717597
30
0
41
1
10
55.3157094531644
20
-11.1557956178156
30
0
41
1
10
55.3937917298135
20
-11.2688627368419
30
0
41
1
10
55.5499562831119
20
-11.428595642299
30
0
41
1
10
55.6280385597611
20
-11.4752977299209
30
0
41
1
10
55.7256414055726
20
-11.4967134392277
30
0
41
1
10
55.745161974735
20
-11.4991533804199
30
0
41
1
10
55.7744428284784
20
-11.5001457491205
30
0
41
1
10
55.7842031130595
20
-11.5000344322497
30
0
41
1
10
55.8037236822218
20
-11.4989214337214
30
0
41
1
10
55.8525251051276
20
-11.493906762755
30
0
41
1
10
55.9013265280333
20
-11.4775163715701
30
0
41
1
10
56.0184499430071
20
-11.4148640107522
30
0
41
1
10
56.0965322196563
20
-11.3419259653186
30
0
41
1
10
56.2526967729547
20
-11.1274580555911
30
0
41
1
10
56.3307790496039
20
-10.9858937882854
30
0
41
1
10
56.4869436029023
20
-10.6309124976026
30
0
41
1
10
56.5650258795515
20
-10.4174716400556
30
0
41
1
10
56.7211904328499
20
-9.91944726766292
30
0
41
1
10
56.7992727094991
20
-9.63485808457423
30
0
41
1
10
56.9554372627975
20
-8.99968818532528
30
0
41
1
10
57.0335195394467
20
-8.64912399088746
30
0
41
1
10
57.1896840927451
20
-7.89144414785656
30
0
41
1
10
57.2677663693943
20
-7.48436549228384
30
0
41
1
10
57.4239309226926
20
-6.62657028744599
30
0
41
1
10
57.5020131993419
20
-6.17590377106001
30
0
41
1
10
57.6581777526403
20
-5.24598093352904
30
0
41
1
10
57.7362600292895
20
-4.76677701819867
30
0
41
1
10
57.8143423059387
20
-4.28107981742357
30
0
0
SPLINE
5
DF
100
AcDbEntity
8
1
62
256
6
ByLayer
370
13
48
1
60
0
100
AcDbSpline
70
4
71
3
72
44
73
40
40
0
40
0
40
0
40
0
40
0.0624999999999997
40
0.0624999999999997
40
0.124999999999999
40
0.124999999999999
40
0.187499999999999
40
0.187499999999999
40
0.218749999999999
40
0.218749999999999
40
0.234374999999999
40
0.234374999999999
40
0.242187499999999
40
0.242187499999999
40
0.249999999999999
40
0.249999999999999
40
0.312499999999999
40
0.312499999999999
40
0.374999999999999
40
0.374999999999999
40
0.437499999999999
40
0.437499999999999
40
0.499999999999999
40
0.499999999999999
40
0.562499999999999
40
0.562499999999999
40
0.624999999999999
40
0.624999999999999
40
0.687499999999999
40
0.687499999999999
40
0.749999999999999
40
0.749999999999999
40
0.8125
40
0.8125
40
0.875
40
0.875
40
0.9375
40
0.9375
40
1
40
1
40
1
40
1
41
1
10
46.9
20
-5.32932587369129
30
0
41
1
10
46.9747730712295
20
-4.87721093712179
30
0
41
1
10
47.049546142459
20
-4.41397902240121
30
0
41
1
10
47.199092284918
20
-3.47880415243935
30
0
41
1
10
47.2738653561475
20
-3.00689479473857
30
0
41
1
10
47.4234114986065
20
-2.06692951017294
30
0
41
1
10
47.498184569836
20
-1.59889540601282
30
0
41
1
10
47.6103441766803
20
-0.90774383123474
30
0
41
1
10
47.6477307122951
20
-0.679159860511021
30
0
41
1
10
47.7038105157172
20
-0.339819757405138
30
0
41
1
10
47.7225037835245
20
-0.227294525132606
30
0
41
1
10
47.7505436852356
20
-0.0594826919311799
30
0
41
1
10
47.7598903191392
20
-0.0038192795573764
30
0
41
1
10
47.7785835869466
20
0.10780708365084
30
0
41
1
10
47.7879302208503
20
0.163785682565731
30
0
41
1
10
47.8720499259835
20
0.669013840740575
30
0
41
1
10
47.946822997213
20
1.1283074067162
30
0
41
1
10
48.096369139672
20
2.05819836894182
30
0
41
1
10
48.1711422109016
20
2.52878247654849
30
0
41
1
10
48.3206883533605
20
3.46991249931509
30
0
41
1
10
48.3954614245901
20
3.9404324904765
30
0
41
1
10
48.545007567049
20
4.8684399877481
30
0
41
1
10
48.6197806382786
20
5.32589077055374
30
0
41
1
10
48.7693267807376
20
6.21406351646218
30
0
41
1
10
48.844099851967
20
6.6447431443988
30
0
41
1
10
48.993645994426
20
7.46618439202396
30
0
41
1
10
49.0684190656556
20
7.85690568455553
30
0
41
1
10
49.2179652081146
20
8.58701929624965
30
0
41
1
10
49.2927382793441
20
8.92638120524785
30
0
41
1
10
49.4422844218031
20
9.54523412771724
30
0
41
1
10
49.5170574930326
20
9.82471030706736
30
0
41
1
10
49.6666036354916
20
10.3188163034844
30
0
41
1
10
49.7413767067211
20
10.5334485193685
30
0
41
1
10
49.8909228491801
20
10.8966463440405
30
0
41
1
10
49.9656959204096
20
11.045229072342
30
0
41
1
10
50.1152420628685
20
11.2785568421336
30
0
41
1
10
50.190015134098
20
11.3633283813725
30
0
41
1
10
50.3395612765571
20
11.4740350940114
30
0
41
1
10
50.4143343477866
20
11.5
30
0
41
1
10
50.4891074190161
20
11.5
30
0
0
SPLINE
5
E0
100
AcDbEntity
8
1
62
256
6
ByLayer
370
13
48
1
60
0
100
AcDbSpline
70
4
71
3
72
79
73
75
40
0
40
0
40
0
40
0
40
0.0312499999999998
40
0.0312499999999998
40
0.0624999999999996
40
0.0624999999999996
40
0.0937499999999994
40
0.0937499999999994
40
0.124999999999999
40
0.124999999999999
40
0.156249999999999
40
0.156249999999999
40
0.187499999999999
40
0.187499999999999
40
0.218749999999999
40
0.218749999999999
40
0.249999999999999
40
0.249999999999999
40
0.281249999999998
40
0.281249999999998
40
0.312499999999998
40
0.312499999999998
40
0.328124999999998
40
0.328124999999998
40
0.335937499999998
40
0.339843749999998
40
0.339843749999998
40
0.343749999999998
40
0.343749999999998
40
0.374999999999999
40
0.374999999999999
40
0.406249999999999
40
0.406249999999999
40
0.437499999999999
40
0.437499999999999
40
0.46875
40
0.46875
40
0.5
40
0.5
40
0.53125
40
0.53125
40
0.562500000000001
40
0.562500000000001
40
0.593750000000001
40
0.593750000000001
40
0.625000000000001
40
0.625000000000001
40
0.656250000000002
40
0.656250000000002
40
0.671875000000002
40
0.671875000000002
40
0.679687500000002
40
0.679687500000002
40
0.687500000000002
40
0.687500000000002
40
0.718750000000002
40
0.718750000000002
40
0.750000000000002
40
0.750000000000002
40
0.781250000000002
40
0.781250000000002
40
0.812500000000001
40
0.812500000000001
40
0.843750000000001
40
0.843750000000001
40
0.875000000000001
40
0.875000000000001
40
0.906250000000001
40
0.906250000000001
40
0.937500000000001
40
0.937500000000001
40
0.96875
40
0.96875
40
1
40
1
40
1
40
1
41
1
10
49.8300947187729
20
11.5
30
0
41
1
10
49.9132639644726
20
11.5
30
0
41
1
10
49.9964332101723
20
11.4678573519568
30
0
41
1
10
50.1627717015715
20
11.3299858533118
30
0
41
1
10
50.2459409472712
20
11.2242066162332
30
0
41
1
10
50.4122794386705
20
10.9327184560528
30
0
41
1
10
50.4954486843701
20
10.7469672101586
30
0
41
1
10
50.6617871757694
20
10.2936811104718
30
0
41
1
10
50.7449564214691
20
10.0261248012551
30
0
41
1
10
50.9112949128684
20
9.41287002824035
30
0
41
1
10
50.994464158568
20
9.06718054033416
30
0
41
1
10
51.1608026499673
20
8.30701462625356
30
0
41
1
10
51.243971895667
20
7.89257908988304
30
0
41
1
10
51.4103103870662
20
7.00923818317472
30
0
41
1
10
51.4934796327658
20
6.54039719146849
30
0
41
1
10
51.6598181241651
20
5.56590358605592
30
0
41
1
10
51.7429873698648
20
5.06032333453237
30
0
41
1
10
51.9093258612641
20
4.03123512335492
30
0
41
1
10
51.9924951069637
20
3.50779104270555
30
0
41
1
10
52.158833598363
20
2.46097955409468
30
0
41
1
10
52.2420028440626
20
1.93765602616332
30
0
41
1
10
52.366756712612
20
1.16433102470649
30
0
41
1
10
52.4083413354619
20
0.908475566720313
30
0
41
1
10
52.4707182697367
20
0.528776548394546
30
0
41
1
10
52.501906736874
20
0.339945434256208
30
0
41
1
10
52.5330952040114
20
0.152843417771322
30
0
41
1
10
52.5538875154363
20
0.0285136571500573
30
0
41
1
10
52.5642836711487
20
-0.0333505908276948
30
0
41
1
10
52.6578490725609
20
-0.592929183792677
30
0
41
1
10
52.7410183182605
20
-1.10342886328249
30
0
41
1
10
52.9073568096598
20
-2.13821994008876
30
0
41
1
10
52.9905260553595
20
-2.6624882702352
30
0
41
1
10
53.1568645467587
20
-3.70899934379696
30
0
41
1
10
53.2400337924583
20
-4.23119526275497
30
0
41
1
10
53.4063722838577
20
-5.25537689643627
30
0
41
1
10
53.4895415295572
20
-5.75729685257744
30
0
41
1
10
53.6558800209565
20
-6.72209006421119
30
0
41
1
10
53.7390492666562
20
-7.18489101443564
30
0
41
1
10
53.9053877580555
20
-8.05408349195844
30
0
41
1
10
53.9885570037551
20
-8.46041288260116
30
0
41
1
10
54.1548954951544
20
-9.20285629293386
30
0
41
1
10
54.238064740854
20
-9.53893324488973
30
0
41
1
10
54.4044032322533
20
-10.1321634485782
30
0
41
1
10
54.487572477953
20
-10.3893119161706
30
0
41
1
10
54.6539109693522
20
-10.8217209174256
30
0
41
1
10
54.7370802150519
20
-10.9970062391811
30
0
41
1
10
54.9034187064512
20
-11.2681492481067
30
0
41
1
10
54.9865879521508
20
-11.3640510156839
30
0
41
1
10
55.1113418207003
20
-11.4534381946931
30
0
41
1
10
55.1529264435501
20
-11.4741858307942
30
0
41
1
10
55.2153033778248
20
-11.4925824696375
30
0
41
1
10
55.2360956892497
20
-11.4965951289842
30
0
41
1
10
55.2776803120996
20
-11.5005355627383
30
0
41
1
10
55.2984726235244
20
-11.5004840082568
30
0
41
1
10
55.402434180649
20
-11.4901019011727
30
0
41
1
10
55.4856034263486
20
-11.4489916193316
30
0
41
1
10
55.6519419177479
20
-11.2921684665564
30
0
41
1
10
55.7351111634476
20
-11.1764055455543
30
0
41
1
10
55.9014496548469
20
-10.8644342323625
30
0
41
1
10
55.9846189005466
20
-10.6681854925162
30
0
41
1
10
56.1509573919458
20
-10.1940506350277
30
0
41
1
10
56.2341266376454
20
-9.9161465590808
30
0
41
1
10
56.4004651290447
20
-9.2830827079014
30
0
41
1
10
56.4836343747444
20
-8.92793612751248
30
0
41
1
10
56.6499728661437
20
-8.1504414330438
30
0
41
1
10
56.7331421118433
20
-7.7281378881793
30
0
41
1
10
56.8994806032426
20
-6.83118047229794
30
0
41
1
10
56.9826498489422
20
-6.35659295789307
30
0
41
1
10
57.1489883403416
20
-5.37300612919356
30
0
41
1
10
57.2321575860412
20
-4.86407895459118
30
0
41
1
10
57.3984960774405
20
-3.83069579634494
30
0
41
1
10
57.4816653231401
20
-3.30630161894359
30
0
41
1
10
57.6480038145393
20
-2.25974319531309
30
0
41
1
10
57.731173060239
20
-1.73761982345269
30
0
41
1
10
57.8143423059387
20
-1.22414144107694
30
0
0
SPLINE
5
E1
100
AcDbEntity
8
1
62
256
6
ByLayer
370
13
48
1
60
0
100
AcDbSpline
70
4
71
3
72
42
73
38
40
0
40
0
40
0
40
0
40
0.0625
40
0.0625
40
0.09375
40
0.09375
40
0.109375
40
0.109375
40
0.125
40
0.125
40
0.1875
40
0.1875
40
0.25
40
0.25
40
0.3125
40
0.3125
40
0.375
40
0.375
40
0.4375
40
0.4375
40
0.5
40
0.5
40
0.5625
40
0.5625
40
0.625
40
0.625
40
0.6875
40
0.6875
40
0.75
40
0.75
40
0.8125
40
0.8125
40
0.875
40
0.875
40
0.9375
40
0.9375
40
1
40
1
40
1
40
1
41
1
10
46.9
20
-2.28752007146568
30
0
41
1
10
46.9645991331287
20
-1.8822107378642
30
0
41
1
10
47.0291982662572
20
-1.47909989746907
30
0
41
1
10
47.1260969659501
20
-0.882761330342618
30
0
41
1
10
47.1583965325145
20
-0.685360216594376
30
0
41
1
10
47.2068458823609
20
-0.391864256700075
30
0
41
1
10
47.222995665643
20
-0.294465901054196
30
0
41
1
10
47.2552952322073
20
-0.100618198403481
30
0
41
1
10
47.2714450154895
20
-0.0045018720909695
30
0
41
1
10
47.3521939319003
20
0.478368063755738
30
0
41
1
10
47.4167930650289
20
0.872535988725815
30
0
41
1
10
47.5459913312862
20
1.67099973202573
30
0
41
1
10
47.6105904644148
20
2.07529053535234
30
0
41
1
10
47.739788730672
20
2.88709033764323
30
0
41
1
10
47.8043878638006
20
3.29458907190607
30
0
41
1
10
47.9335861300578
20
4.10482963580875
30
0
41
1
10
47.9981852631865
20
4.5075561728558
30
0
41
1
10
48.1273835294437
20
5.29959704416689
30
0
41
1
10
48.1919826625723
20
5.68889232720542
30
0
41
1
10
48.3211809288295
20
6.44525637271707
30
0
41
1
10
48.3857800619581
20
6.81230458576209
30
0
41
1
10
48.5149783282153
20
7.51580482481458
30
0
41
1
10
48.5795774613439
20
7.8522376713901
30
0
41
1
10
48.7087757276012
20
8.48718959143409
30
0
41
1
10
48.7733748607298
20
8.78569369243223
30
0
41
1
10
48.9025731269871
20
9.3390455729085
30
0
41
1
10
48.9671722601156
20
9.59388469907682
30
0
41
1
10
49.0963705263728
20
10.0561007444446
30
0
41
1
10
49.1609696595015
20
10.2634762174879
30
0
41
1
10
49.2901679257587
20
10.6290493806683
30
0
41
1
10
49.3547670588873
20
10.7872523655963
30
0
41
1
10
49.4839653251445
20
11.0547945148982
30
0
41
1
10
49.5485644582732
20
11.1641441517408
30
0
41
1
10
49.6777627245304
20
11.3360796809896
30
0
41
1
10
49.742361857659
20
11.3986790721358
30
0
41
1
10
49.8715601239162
20
11.480632061288
30
0
41
1
10
49.9361592570448
20
11.5
30
0
41
1
10
50.0007583901734
20
11.5
30
0
0
SPLINE
5
E2
100
AcDbEntity
8
1
62
256
6
ByLayer
370
13
48
1
60
0
100
AcDbSpline
70
4
71
3
72
84
73
80
40
0
40
0
40
0
40
0
40
0.0312500000000001
40
0.0312500000000001
40
0.0625000000000001
40
0.0625000000000001
40
0.0937500000000002
40
0.0937500000000002
40
0.125
40
0.125
40
0.15625
40
0.15625
40
0.1875
40
0.1875
40
0.21875
40
0.21875
40
0.25
40
0.25
40
0.28125
40
0.28125
40
0.3125
40
0.3125
40
0.3203125
40
0.3203125
40
0.32421875
40
0.32421875
40
0.328125
40
0.34375
40
0.34375
40
0.375
40
0.375
40
0.40625
40
0.40625
40
0.4375
40
0.4375
40
0.46875
40
0.46875
40
0.500000000000001
40
0.500000000000001
40
0.531250000000001
40
0.531250000000001
40
0.562500000000001
40
0.562500000000001
40
0.593750000000001
40
0.593750000000001
40
0.625000000000001
40
0.625000000000001
40
0.640625000000001
40
0.640625000000001
40
0.648437500000001
40
0.648437500000001
40
0.656250000000001
40
0.656250000000001
40
0.687500000000001
40
0.687500000000001
40
0.718750000000001
40
0.718750000000001
40
0.750000000000001
40
0.750000000000001
40
0.78125
40
0.78125
40
0.8125
40
0.8125
40
0.84375
40
0.84375
40
0.875
40
0.875
40
0.906249999999999
40
0.906249999999999
40
0.937499999999999
40
0.937499999999999
40
0.953124999999999
40
0.953124999999999
40
0.960937499999999
40
0.964843749999999
40
0.964843749999999
40
0.968749999999999
40
0.968749999999999
40
1
40
1
40
1
40
1
41
1
10
49.3417456899303
20
11.5
30
0
41
1
10
49.4300019046804
20
11.5
30
0
41
1
10
49.5182581194305
20
11.4637904859287
30
0
41
1
10
49.6947705489307
20
11.3079289820191
30
0
41
1
10
49.7830267636808
20
11.1882094705474
30
0
41
1
10
49.9595391931809
20
10.858163106803
30
0
41
1
10
50.047795407931
20
10.6477819402948
30
0
41
1
10
50.2243078374312
20
10.1351325874009
30
0
41
1
10
50.3125640521813
20
9.83284239850536
30
0
41
1
10
50.4890764816815
20
9.14219734753394
30
0
41
1
10
50.5773326964315
20
8.75386539347096
30
0
41
1
10
50.7538451259317
20
7.90408547390936
30
0
41
1
10
50.8421013406818
20
7.44270387592655
30
0
41
1
10
51.018613770182
20
6.46553897604105
30
0
41
1
10
51.1068699849321
20
5.94984879471571
30
0
41
1
10
51.2833824144324
20
4.8860769816645
30
0
41
1
10
51.3716386291824
20
4.33809017985175
30
0
41
1
10
51.5481510586825
20
3.23211225029979
30
0
41
1
10
51.6364072734326
20
2.67419516292895
30
0
41
1
10
51.8129197029327
20
1.56850766051082
30
0
41
1
10
51.9011759176828
20
1.02077862763011
30
0
41
1
10
52.0114961861205
20
0.352552301042124
30
0
41
1
10
52.033560239808
20
0.219717723990556
30
0
41
1
10
52.0666563203393
20
0.0218362444641969
30
0
41
1
10
52.077688347183
20
-0.0438095607015327
30
0
41
1
10
52.0997524008706
20
-0.175831798547847
30
0
41
1
10
52.1549125350894
20
-0.507018933346814
30
0
41
1
10
52.2100726693082
20
-0.843579438238521
30
0
41
1
10
52.3424569914333
20
-1.65893933191083
30
0
41
1
10
52.4307132061833
20
-2.21279283052613
30
0
41
1
10
52.6072256356835
20
-3.32331992388299
30
0
41
1
10
52.6954818504336
20
-3.8799388429982
30
0
41
1
10
52.8719942799338
20
-4.9747708820928
30
0
41
1
10
52.9602504946839
20
-5.5128997738457
30
0
41
1
10
53.136762924184
20
-6.54819439611302
30
0
41
1
10
53.2250191389342
20
-7.04526291025971
30
0
41
1
10
53.4015315684343
20
-7.97734535803008
30
0
41
1
10
53.4897877831844
20
-8.4122738277849
30
0
41
1
10
53.6663002126846
20
-9.20329060158099
30
0
41
1
10
53.7545564274347
20
-9.55932822001819
30
0
41
1
10
53.9310688569348
20
-10.1822077341516
30
0
41
1
10
54.0193250716849
20
-10.4490449034904
30
0
41
1
10
54.1958375011851
20
-10.8904577275876
30
0
41
1
10
54.2840937159352
20
-11.0650700096564
30
0
41
1
10
54.4606061454353
20
-11.3257465099098
30
0
41
1
10
54.5488623601855
20
-11.4118725062905
30
0
41
1
10
54.6812466823106
20
-11.4813605502861
30
0
41
1
10
54.7253747896856
20
-11.4946076862785
30
0
41
1
10
54.7915669507482
20
-11.5006789895704
30
0
41
1
10
54.8136310044357
20
-11.5004305959219
30
0
41
1
10
54.8577591118108
20
-11.4953579693477
30
0
41
1
10
54.8798231654983
20
-11.490512573671
30
0
41
1
10
54.9901434339359
20
-11.4542825013319
30
0
41
1
10
55.078399648686
20
-11.3867465791035
30
0
41
1
10
55.2549120781861
20
-11.1648594691823
30
0
41
1
10
55.3431682929362
20
-11.0104435895348
30
0
41
1
10
55.5196807224364
20
-10.6097191506695
30
0
41
1
10
55.6079369371865
20
-10.3633667270805
30
0
41
1
10
55.7844493666867
20
-9.78016348960915
30
0
41
1
10
55.8727055814367
20
-9.44330729308979
30
0
41
1
10
56.0492180109369
20
-8.68776409171198
30
0
41
1
10
56.137474225687
20
-8.26911797305661
30
0
41
1
10
56.3139866551872
20
-7.36541973776954
30
0
41
1
10
56.4022428699373
20
-6.88044706312419
30
0
41
1
10
56.5787552994375
20
-5.86442726484182
30
0
41
1
10
56.6670115141876
20
-5.33347700347946
30
0
41
1
10
56.8435239436877
20
-4.24800456640028
30
0
41
1
10
56.9317801584378
20
-3.69357133899689
30
0
41
1
10
57.108292587938
20
-2.58292265856008
30
0
41
1
10
57.1965488026881
20
-2.02676924956171
30
0
41
1
10
57.3289331248131
20
-1.20526359981332
30
0
41
1
10
57.3730612321882
20
-0.93351961861427
30
0
41
1
10
57.4392533932509
20
-0.530488926255146
30
0
41
1
10
57.4723494737821
20
-0.330116552863217
30
0
41
1
10
57.5054455543134
20
-0.131699307089747
30
0
41
1
10
57.5275096080009
20
0.0001198197381598
30
0
41
1
10
57.5385416348447
20
0.0658000288417213
30
0
41
1
10
57.6378298764385
20
0.660352980302264
30
0
41
1
10
57.7260860911886
20
1.2034679443905
30
0
41
1
10
57.8143423059387
20
1.75367798989535
30
0
0
SPLINE
5
E3
100
AcDbEntity
8
1
62
256
6
ByLayer
370
13
48
1
60
0
100
AcDbSpline
70
4
71
3
72
38
73
34
40
0
40
0
40
0
40
0
40
0.0625
40
0.0625
40
0.125
40
0.125
40
0.1875
40
0.1875
40
0.25
40
0.25
40
0.3125
40
0.3125
40
0.375
40
0.375
40
0.4375
40
0.4375
40
0.5
40
0.5
40
0.5625
40
0.5625
40
0.625
40
0.625
40
0.6875
40
0.6875
40
0.75
40
0.75
40
0.8125
40
0.8125
40
0.875
40
0.875
40
0.9375
40
0.9375
40
1
40
1
40
1
40
1
41
1
10
46.9
20
0.700549776161381
30
0
41
1
10
46.9544251950277
20
1.03226426323528
30
0
41
1
10
47.0088503900554
20
1.36857752762475
30
0
41
1
10
47.1177007801109
20
2.0466929436669
30
0
41
1
10
47.1721259751387
20
2.38849217551663
30
0
41
1
10
47.2809763651941
20
3.07324936434605
30
0
41
1
10
47.3354015602218
20
3.41620250285314
30
0
41
1
10
47.4442519502772
20
4.09843396093106
30
0
41
1
10
47.498677145305
20
4.43770568974432
30
0
41
1
10
47.6075275353605
20
5.10740929444623
30
0
41
1
10
47.6619527303882
20
5.43783320576642
30
0
41
1
10
47.7708031204436
20
6.08456481138489
30
0
41
1
10
47.8252283154713
20
6.40086382347025
30
0
41
1
10
47.9340787055268
20
7.01421042976028
30
0
41
1
10
47.9885039005545
20
7.31124946276691
30
0
41
1
10
48.09735429061
20
7.88134412518386
30
0
41
1
10
48.1517794856377
20
8.15439220787886
30
0
41
1
10
48.2606298756931
20
8.6724212887859
30
0
41
1
10
48.3150550707209
20
8.91739654975939
30
0
41
1
10
48.4239054607764
20
9.37604680723811
30
0
41
1
10
48.4783306558041
20
9.58971843204816
30
0
41
1
10
48.5871810458595
20
9.98351725939443
30
0
41
1
10
48.6416062408872
20
10.1636436822352
30
0
41
1
10
48.7504566309426
20
10.4891597875275
30
0
41
1
10
48.8048818259704
20
10.6345511602954
30
0
41
1
10
48.9137322160258
20
10.8904422330725
30
0
41
1
10
48.9681574110535
20
11.0009456757899
30
0
41
1
10
49.077007801109
20
11.187859977499
30
0
41
1
10
49.1314329961368
20
11.264276022104
30
0
41
1
10
49.2402833861922
20
11.3846322081683
30
0
41
1
10
49.2947085812199
20
11.4285782997448
30
0
41
1
10
49.4035589712753
20
11.4862591563827
30
0
41
1
10
49.4579841663031
20
11.5
30
0
41
1
10
49.5124093613308
20
11.5
30
0
0
SPLINE
5
E4
100
AcDbEntity
8
1
62
256
6
ByLayer
370
13
48
1
60
0
100
AcDbSpline
70
4
71
3
72
84
73
80
40
0
40
0
40
0
40
0
40
0.03125
40
0.03125
40
0.0624999999999999
40
0.0624999999999999
40
0.0937499999999999
40
0.0937499999999999
40
0.125
40
0.125
40
0.15625
40
0.15625
40
0.1875
40
0.1875
40
0.21875
40
0.21875
40
0.25
40
0.25
40
0.28125
40
0.28125
40
0.296875
40
0.296875
40
0.3046875
40
0.3046875
40
0.3125
40
0.3125
40
0.34375
40
0.34375
40
0.375
40
0.375
40
0.406250000000001
40
0.406250000000001
40
0.437500000000001
40
0.437500000000001
40
0.468750000000002
40
0.468750000000002
40
0.500000000000002
40
0.500000000000002
40
0.531250000000002
40
0.531250000000002
40
0.562500000000003
40
0.562500000000003
40
0.593750000000003
40
0.593750000000003
40
0.601562500000003
40
0.601562500000003
40
0.609375000000003
40
0.609375000000003
40
0.625000000000003
40
0.625000000000003
40
0.656250000000003
40
0.656250000000003
40
0.687500000000003
40
0.687500000000003
40
0.718750000000003
40
0.718750000000003
40
0.750000000000002
40
0.750000000000002
40
0.781250000000002
40
0.781250000000002
40
0.812500000000002
40
0.812500000000002
40
0.843750000000002
40
0.843750000000002
40
0.875000000000001
40
0.875000000000001
40
0.906250000000001
40
0.906250000000001
40
0.910156250000001
40
0.910156250000001
40
0.914062500000001
40
0.914062500000001
40
0.921875000000001
40
0.921875000000001
40
0.937500000000001
40
0.937500000000001
40
0.96875
40
0.96875
40
1
40
1
40
1
40
1
41
1
10
48.8533966610877
20
11.5
30
0
41
1
10
48.9467398448883
20
11.5
30
0
41
1
10
49.0400830286888
20
11.4594782808448
30
0
41
1
10
49.2267693962898
20
11.2844594711603
30
0
41
1
10
49.3201125800903
20
11.1498734805508
30
0
41
1
10
49.5067989476914
20
10.7787571599929
30
0
41
1
10
49.6001421314919
20
10.5421587923662
30
0
41
1
10
49.786828499093
20
9.96664128854991
30
0
41
1
10
49.8801716828935
20
9.62770262550146
30
0
41
1
10
50.0668580504946
20
8.8561363510004
30
0
41
1
10
50.1602012342952
20
8.4235532375742
30
0
41
1
10
50.3468876018962
20
7.48200445171528
30
0
41
1
10
50.4402307856967
20
6.97313966173198
30
0
41
1
10
50.6269171532978
20
5.90277343019031
30
0
41
1
10
50.7202603370983
20
5.34139968898089
30
0
41
1
10
50.9069467046994
20
4.19264194635224
30
0
41
1
10
51.0002898884999
20
3.60537514108597
30
0
41
1
10
51.1869762561009
20
2.43052189549832
30
0
41
1
10
51.2803194399015
20
1.84301439044998
30
0
41
1
10
51.4203342156023
20
0.977804015346493
30
0
41
1
10
51.4670058075026
20
0.692037408865104
30
0
41
1
10
51.537013195353
20
0.268982401231881
30
0
41
1
10
51.5603489913031
20
0.128991676421293
30
0
41
1
10
51.6070205832033
20
-0.149291129683405
30
0
41
1
10
51.6303563791535
20
-0.289475967969423
30
0
41
1
10
51.7470353589041
20
-0.995017862317468
30
0
41
1
10
51.8403785427047
20
-1.57444969030854
30
0
41
1
10
52.0270649103058
20
-2.74433580361543
30
0
41
1
10
52.1204080941063
20
-3.33473427887063
30
0
41
1
10
52.3070944617074
20
-4.50258854511088
30
0
41
1
10
52.4004376455079
20
-5.07994342617894
30
0
41
1
10
52.587124013109
20
-6.19514411840069
30
0
41
1
10
52.6804671969095
20
-6.73286293120745
30
0
41
1
10
52.8671535645106
20
-7.74313556455888
30
0
41
1
10
52.960496748311
20
-8.21557081210892
30
0
41
1
10
53.1471831159121
20
-9.07435771877206
30
0
41
1
10
53.2405262997127
20
-9.46063485371548
30
0
41
1
10
53.4272126673137
20
-10.1339504401637
30
0
41
1
10
53.5205558511142
20
-10.4209778365999
30
0
41
1
10
53.7072422187153
20
-10.8917391342661
30
0
41
1
10
53.8005854025158
20
-11.0755204568316
30
0
41
1
10
53.9872717701169
20
-11.3442477491234
30
0
41
1
10
54.0806149539175
20
-11.4292760679798
30
0
41
1
10
54.1972939336681
20
-11.4806157549289
30
0
41
1
10
54.2206297296182
20
-11.4881484608979
30
0
41
1
10
54.2673013215185
20
-11.4979541945789
30
0
41
1
10
54.2906371174686
20
-11.5002278202148
30
0
41
1
10
54.360644505319
20
-11.4994905919625
30
0
41
1
10
54.4073160972192
20
-11.4888754394283
30
0
41
1
10
54.5473308729201
20
-11.4240697619633
30
0
41
1
10
54.6406740567207
20
-11.3367485981946
30
0
41
1
10
54.8273604243217
20
-11.0632392189096
30
0
41
1
10
54.9207036081223
20
-10.8769691589711
30
0
41
1
10
55.1073899757232
20
-10.4012197100847
30
0
41
1
10
55.2007331595238
20
-10.1116940921625
30
0
41
1
10
55.3874195271248
20
-9.43359230182443
30
0
41
1
10
55.4807627109254
20
-9.04502876655096
30
0
41
1
10
55.6674490785265
20
-8.18209227699973
30
0
41
1
10
55.760792262327
20
-7.7077952420357
30
0
41
1
10
55.947478629928
20
-6.69438025999008
30
0
41
1
10
56.0408218137286
20
-6.15538154634271
30
0
41
1
10
56.2275081813296
20
-5.03827258628075
30
0
41
1
10
56.3208513651302
20
-4.46028907196654
30
0
41
1
10
56.5075377327313
20
-3.29180546410117
30
0
41
1
10
56.6008809165318
20
-2.70140532954463
30
0
41
1
10
56.7875672841328
20
-1.53204583235834
30
0
41
1
10
56.8809104679334
20
-0.953141112419132
30
0
41
1
10
56.9859215497089
20
-0.318966459086511
30
0
41
1
10
56.997589447684
20
-0.248736355401206
30
0
41
1
10
57.0209252436342
20
-0.108774060239199
30
0
41
1
10
57.0325931416092
20
-0.0391610028664502
30
0
41
1
10
57.0675968355345
20
0.169702809861121
30
0
41
1
10
57.0909326314846
20
0.309983225000764
30
0
41
1
10
57.1609400193349
20
0.733576706135864
30
0
41
1
10
57.2076116112352
20
1.01965334332277
30
0
41
1
10
57.347626386936
20
1.88562042148789
30
0
41
1
10
57.4409695707366
20
2.47339983427361
30
0
41
1
10
57.6276559383376
20
3.64821164564955
30
0
41
1
10
57.7209991221382
20
4.23516399183606
30
0
41
1
10
57.8143423059387
20
4.80890353474882
30
0
0
SPLINE
5
E5
100
AcDbEntity
8
1
62
256
6
ByLayer
370
13
48
1
60
0
100
AcDbSpline
70
4
71
3
72
22
73
18
40
0
40
0
40
0
40
0
40
0.125
40
0.125
40
0.25
40
0.25
40
0.375
40
0.375
40
0.5
40
0.5
40
0.625
40
0.625
40
0.75
40
0.75
40
0.875
40
0.875
40
1
40
1
40
1
40
1
41
1
10
46.9
20
3.74805596982984
30
0
41
1
10
46.9885025138537
20
4.30280918475435
30
0
41
1
10
47.0770050277073
20
4.85277516159493
30
0
41
1
10
47.2540100554147
20
5.92077118664537
30
0
41
1
10
47.3425125692684
20
6.43870529960819
30
0
41
1
10
47.5195175969757
20
7.42040616654023
30
0
41
1
10
47.6080201108294
20
7.88407825394009
30
0
41
1
10
47.7850251385368
20
8.73825769123755
30
0
41
1
10
47.8735276523904
20
9.12869722087211
30
0
41
1
10
48.0505326800978
20
9.82318175988976
30
0
41
1
10
48.1390351939514
20
10.127203009301
30
0
41
1
10
48.3160402216588
20
10.642816330806
30
0
41
1
10
48.4045427355125
20
10.8544303666652
30
0
41
1
10
48.5815477632198
20
11.1864073642429
30
0
41
1
10
48.6700502770735
20
11.3068252660284
30
0
41
1
10
48.8470553047808
20
11.4635873570537
30
0
41
1
10
48.9355578186345
20
11.5
30
0
41
1
10
49.0240603324881
20
11.5
30
0
0
SPLINE
5
E6
100
AcDbEntity
8
1
62
256
6
ByLayer
370
13
48
1
60
0
100
AcDbSpline
70
4
71
3
72
86
73
82
40
0
40
0
40
0
40
0
40
0.03125
40
0.03125
40
0.0624999999999999
40
0.0624999999999999
40
0.0937499999999999
40
0.0937499999999999
40
0.125
40
0.125
40
0.15625
40
0.15625
40
0.1875
40
0.1875
40
0.21875
40
0.21875
40
0.25
40
0.25
40
0.28125
40
0.28125
40
0.2890625
40
0.2890625
40
0.296875
40
0.296875
40
0.3125
40
0.3125
40
0.34375
40
0.34375
40
0.375
40
0.375
40
0.40625
40
0.40625
40
0.437500000000001
40
0.437500000000001
40
0.468750000000001
40
0.468750000000001
40
0.500000000000001
40
0.500000000000001
40
0.531250000000001
40
0.531250000000001
40
0.562500000000001
40
0.562500000000001
40
0.570312500000001
40
0.570312500000001
40
0.574218750000001
40
0.574218750000001
40
0.578125000000001
40
0.578125000000001
40
0.593750000000002
40
0.593750000000002
40
0.625000000000002
40
0.625000000000002
40
0.656250000000002
40
0.656250000000002
40
0.687500000000002
40
0.687500000000002
40
0.718750000000002
40
0.718750000000002
40
0.750000000000002
40
0.750000000000002
40
0.781250000000003
40
0.781250000000003
40
0.812500000000003
40
0.812500000000003
40
0.843750000000003
40
0.843750000000003
40
0.859375000000003
40
0.859375000000003
40
0.863281250000003
40
0.863281250000003
40
0.867187500000003
40
0.867187500000003
40
0.875000000000003
40
0.875000000000003
40
0.906250000000002
40
0.906250000000002
40
0.937500000000001
40
0.937500000000001
40
0.968750000000001
40
0.968750000000001
40
1
40
1
40
1
40
1
41
1
10
48.365047632245
20
11.5
30
0
41
1
10
48.463477785096
20
11.5
30
0
41
1
10
48.5619079379471
20
11.4549199365626
30
0
41
1
10
48.758768243649
20
11.2595675345307
30
0
41
1
10
48.8571983964999
20
11.1091799977375
30
0
41
1
10
49.0540587022018
20
10.6944825003522
30
0
41
1
10
49.1524888550529
20
10.4300892882501
30
0
41
1
10
49.3493491607548
20
9.78830466576841
30
0
41
1
10
49.4477793136058
20
9.41090083832736
30
0
41
1
10
49.6446396193077
20
8.55524899396838
30
0
41
1
10
49.7430697721587
20
8.07707692752408
30
0
41
1
10
49.9399300778607
20
7.04235526877085
30
0
41
1
10
50.0383602307117
20
6.48595117688001
30
0
41
1
10
50.2352205364136
20
5.3241138267885
30
0
41
1
10
50.3336506892645
20
4.71884748753001
30
0
41
1
10
50.5305109949664
20
3.49062608427977
30
0
41
1
10
50.6289411478175
20
2.86780768552944
30
0
41
1
10
50.8258014535195
20
1.63307198022804
30
0
41
1
10
50.9242316063704
20
1.02123068544552
30
0
41
1
10
51.0472692974342
20
0.277341226764435
30
0
41
1
10
51.0718768356468
20
0.129761027107065
30
0
41
1
10
51.1210919120724
20
-0.163759571616822
30
0
41
1
10
51.1456994502851
20
-0.311678172411718
30
0
41
1
10
51.2195220649234
20
-0.758485337862709
30
0
41
1
10
51.2687371413488
20
-1.06043924863602
30
0
41
1
10
51.4163823706253
20
-1.97464774755409
30
0
41
1
10
51.5148125234763
20
-2.59543238608399
30
0
41
1
10
51.7116728291783
20
-3.83386451396834
30
0
41
1
10
51.8101029820292
20
-4.45140253574277
30
0
41
1
10
52.0069632877311
20
-5.65289584679195
30
0
41
1
10
52.1053934405822
20
-6.23669319875069
30
0
41
1
10
52.3022537462841
20
-7.33976943329131
30
0
41
1
10
52.4006838991351
20
-7.85888558992406
30
0
41
1
10
52.5975442048371
20
-8.80617415659947
30
0
41
1
10
52.695974357688
20
-9.23423257608289
30
0
41
1
10
52.8928346633899
20
-9.98184416599884
30
0
41
1
10
52.9912648162409
20
-10.3013673606271
30
0
41
1
10
53.1881251219429
20
-10.8254765615481
30
0
41
1
10
53.2865552747938
20
-11.0301158424166
30
0
41
1
10
53.4834155804957
20
-11.3287667552091
30
0
41
1
10
53.5818457333466
20
-11.4228834937346
30
0
41
1
10
53.7048834244105
20
-11.4792210012533
30
0
41
1
10
53.7294909626232
20
-11.4874383335808
30
0
41
1
10
53.7664022699423
20
-11.4953738622338
30
0
41
1
10
53.7787060390487
20
-11.4972874265635
30
0
41
1
10
53.8033135772614
20
-11.4996835833715
30
0
41
1
10
53.8156173463678
20
-11.5001668523162
30
0
41
1
10
53.8771361918996
20
-11.4990811542494
30
0
41
1
10
53.9263512683251
20
-11.486937729441
30
0
41
1
10
54.0739964976016
20
-11.4136625362465
30
0
41
1
10
54.1724266504526
20
-11.3154680366587
30
0
41
1
10
54.3692869561546
20
-11.0083191549902
30
0
41
1
10
54.4677171090055
20
-10.7992608964422
30
0
41
1
10
54.6645774147075
20
-10.2663467152947
30
0
41
1
10
54.7630075675585
20
-9.94244028954046
30
0
41
1
10
54.9598678732604
20
-9.1865331115867
30
0
41
1
10
55.0582980261114
20
-8.75456581108827
30
0
41
1
10
55.2551583318133
20
-7.80033290622222
30
0
41
1
10
55.3535884846643
20
-7.27818402960622
30
0
41
1
10
55.5504487903663
20
-6.17018401587796
30
0
41
1
10
55.6488789432172
20
-5.58449643731819
30
0
41
1
10
55.8457392489192
20
-4.38044097271015
30
0
41
1
10
55.9441694017702
20
-3.76222981764471
30
0
41
1
10
56.1410297074721
20
-2.52356097230222
30
0
41
1
10
56.2394598603231
20
-1.90321035743037
30
0
41
1
10
56.3871050895996
20
-0.990307880277584
30
0
41
1
10
56.436320166025
20
-0.688897729442715
30
0
41
1
10
56.4978390115569
20
-0.317351968599695
30
0
41
1
10
56.5101427806633
20
-0.243302559322757
30
0
41
1
10
56.534750318876
20
-0.0957588660795352
30
0
41
1
10
56.5470540879824
20
-0.0224402895425726
30
0
41
1
10
56.5839653953015
20
0.197967093172053
30
0
41
1
10
56.6085729335143
20
0.346053257835337
30
0
41
1
10
56.731610624578
20
1.09151216463553
30
0
41
1
10
56.830040777429
20
1.70424043547899
30
0
41
1
10
57.026901083131
20
2.93974797923727
30
0
41
1
10
57.1253312359819
20
3.56244869677192
30
0
41
1
10
57.3221915416838
20
4.78925210804499
30
0
41
1
10
57.4206216945348
20
5.39321621650103
30
0
41
1
10
57.6174820002367
20
6.55124597334117
30
0
41
1
10
57.7159121530877
20
7.10514449969062
30
0
41
1
10
57.8143423059387
20
7.61948582738984
30
0
0
SPLINE
5
E7
100
AcDbEntity
8
1
62
256
6
ByLayer
370
13
48
1
60
0
100
AcDbSpline
70
4
71
3
72
22
73
18
40
0
40
0
40
0
40
0
40
0.125
40
0.125
40
0.25
40
0.25
40
0.375
40
0.375
40
0.5
40
0.5
40
0.625
40
0.625
40
0.75
40
0.75
40
0.875
40
0.875
40
1
40
1
40
1
40
1
41
1
10
46.9
20
6.69087440355599
30
0
41
1
10
46.9681546376519
20
7.07534471252563
30
0
41
1
10
47.0363092753038
20
7.44475648805692
30
0
41
1
10
47.1726185506075
20
8.14432608453774
30
0
41
1
10
47.2407731882595
20
8.47446183510633
30
0
41
1
10
47.3770824635633
20
9.08801017215325
30
0
41
1
10
47.4452371012152
20
9.37140851309255
30
0
41
1
10
47.581546376519
20
9.88629060389943
30
0
41
1
10
47.6497010141709
20
10.1177698578523
30
0
41
1
10
47.7860102894746
20
10.5261868430242
30
0
41
1
10
47.8541649271266
20
10.7031296799923
30
0
41
1
10
47.9904742024304
20
11.002399707176
30
0
41
1
10
48.0586288400822
20
11.1247396369189
30
0
41
1
10
48.194938115386
20
11.3170057684614
30
0
41
1
10
48.2630927530379
20
11.3869493093612
30
0
41
1
10
48.3994020283417
20
11.478437055097
30
0
41
1
10
48.4675566659936
20
11.5
30
0
41
1
10
48.5357113036455
20
11.5
30
0
0
SPLINE
5
E8
100
AcDbEntity
8
1
62
256
6
ByLayer
370
13
48
1
60
0
100
AcDbSpline
70
4
71
3
72
123
73
119
40
0
40
0
40
0
40
0
40
0.0312500000000003
40
0.0312500000000003
40
0.0625000000000005
40
0.0625000000000005
40
0.0781250000000006
40
0.0781250000000006
40
0.0937500000000007
40
0.0937500000000007
40
0.109375000000001
40
0.109375000000001
40
0.125000000000001
40
0.125000000000001
40
0.140625000000001
40
0.140625000000001
40
0.156250000000001
40
0.156250000000001
40
0.171875000000001
40
0.171875000000001
40
0.187500000000001
40
0.187500000000001
40
0.203125000000001
40
0.203125000000001
40
0.218750000000001
40
0.218750000000001
40
0.250000000000001
40
0.250000000000001
40
0.265625000000001
40
0.265625000000001
40
0.273437500000001
40
0.273437500000001
40
0.277343750000001
40
0.277343750000001
40
0.281250000000001
40
0.281250000000001
40
0.3125
40
0.3125
40
0.343749999999999
40
0.343749999999999
40
0.359374999999999
40
0.359374999999999
40
0.374999999999999
40
0.374999999999999
40
0.390624999999998
40
0.390624999999998
40
0.406249999999998
40
0.406249999999998
40
0.421874999999998
40
0.421874999999998
40
0.437499999999997
40
0.437499999999997
40
0.453124999999997
40
0.453124999999997
40
0.468749999999996
40
0.468749999999996
40
0.484374999999996
40
0.484374999999996
40
0.499999999999996
40
0.499999999999996
40
0.531249999999995
40
0.531249999999995
40
0.546874999999995
40
0.546874999999995
40
0.550781249999995
40
0.550781249999995
40
0.554687499999994
40
0.562499999999995
40
0.562499999999995
40
0.593749999999995
40
0.593749999999995
40
0.624999999999995
40
0.624999999999995
40
0.640624999999995
40
0.640624999999995
40
0.656249999999994
40
0.656249999999994
40
0.671874999999994
40
0.671874999999994
40
0.687499999999994
40
0.687499999999994
40
0.703124999999994
40
0.703124999999994
40
0.718749999999994
40
0.718749999999994
40
0.734374999999994
40
0.734374999999994
40
0.749999999999994
40
0.749999999999994
40
0.781249999999994
40
0.781249999999994
40
0.812499999999994
40
0.812499999999994
40
0.820312499999994
40
0.820312499999994
40
0.824218749999994
40
0.824218749999994
40
0.828124999999994
40
0.828124999999994
40
0.843749999999994
40
0.843749999999994
40
0.874999999999995
40
0.874999999999995
40
0.890624999999996
40
0.890624999999996
40
0.906249999999997
40
0.906249999999997
40
0.921874999999997
40
0.921874999999997
40
0.937499999999998
40
0.937499999999998
40
0.953124999999998
40
0.953124999999998
40
0.968749999999999
40
0.968749999999999
40
0.984375
40
0.984375
40
1
40
1
40
1
40
1
41
1
10
47.8766986034024
20
11.5
30
0
41
1
10
47.9802157253038
20
11.5
30
0
41
1
10
48.0837328472052
20
11.4501145836231
30
0
41
1
10
48.290767091008
20
11.2332437279994
30
0
41
1
10
48.3942842129095
20
11.0661111555631
30
0
41
1
10
48.5495598957616
20
10.7205228011727
30
0
41
1
10
48.6013184567123
20
10.5895905832581
30
0
41
1
10
48.7048355786137
20
10.2962018463571
30
0
41
1
10
48.7565941395645
20
10.1337435823401
30
0
41
1
10
48.8601112614659
20
9.7780802188685
30
0
41
1
10
48.9118698224166
20
9.58487513892857
30
0
41
1
10
49.015386944318
20
9.16935857216876
30
0
41
1
10
49.0671455052687
20
8.94704902285773
30
0
41
1
10
49.1706626271702
20
8.47579794679024
30
0
41
1
10
49.2224211881208
20
8.22686020157767
30
0
41
1
10
49.3259383100223
20
7.70557485737129
30
0
41
1
10
49.377696870973
20
7.43323257807333
30
0
41
1
10
49.4812139928744
20
6.86897005660035
30
0
41
1
10
49.5329725538251
20
6.57705617536635
30
0
41
1
10
49.6364896757265
20
5.97791480456098
30
0
41
1
10
49.6882482366772
20
5.67069410758637
30
0
41
1
10
49.7917653585786
20
5.04543617474945
30
0
41
1
10
49.8435239195293
20
4.72740553814739
30
0
41
1
10
49.9470410414308
20
4.08505422183964
30
0
41
1
10
49.9987996023816
20
3.76073940090299
30
0
41
1
10
50.1540752852337
20
2.78491041086025
30
0
41
1
10
50.2575924071351
20
2.13074654668685
30
0
41
1
10
50.4128680899872
20
1.16702662828899
30
0
41
1
10
50.4646266509379
20
0.848653923462649
30
0
41
1
10
50.5422644923639
20
0.377706620040726
30
0
41
1
10
50.5681437728393
20
0.221821900420025
30
0
41
1
10
50.6069626935524
20
-0.0101087661231531
30
0
41
1
10
50.61990233379
20
-0.0871625073782525
30
0
41
1
10
50.6457816142654
20
-0.242306089129016
30
0
41
1
10
50.658721254503
20
-0.320185298390498
30
0
41
1
10
50.7751780166421
20
-1.02367835752196
30
0
41
1
10
50.8786951385435
20
-1.6677046461113
30
0
41
1
10
51.0857293823464
20
-2.96701435344363
30
0
41
1
10
51.1892465042478
20
-3.62219693064043
30
0
41
1
10
51.3445221871
20
-4.588323586863
30
0
41
1
10
51.3962807480506
20
-4.90754452012305
30
0
41
1
10
51.4997978699521
20
-5.53584232941182
30
0
41
1
10
51.5515564309028
20
-5.84491268253245
30
0
41
1
10
51.6550735528042
20
-6.448396103498
30
0
41
1
10
51.7068321137549
20
-6.7428023689308
30
0
41
1
10
51.8103492356564
20
-7.3126461478287
30
0
41
1
10
51.8621077966071
20
-7.58807719848022
30
0
41
1
10
51.9656249185084
20
-8.1160622876705
30
0
41
1
10
52.0173834794591
20
-8.36861082100847
30
0
41
1
10
52.1209006013606
20
-8.8475077086178
30
0
41
1
10
52.1726591623113
20
-9.07385203409865
30
0
41
1
10
52.2761762842127
20
-9.49774732955893
30
0
41
1
10
52.3279348451635
20
-9.69529608431725
30
0
41
1
10
52.4314519670649
20
-10.0598318256667
30
0
41
1
10
52.4832105280155
20
-10.2268185190069
30
0
41
1
10
52.586727649917
20
-10.5293243114532
30
0
41
1
10
52.6384862108677
20
-10.6648449168464
30
0
41
1
10
52.7420033327691
20
-10.9043564125966
30
0
41
1
10
52.7937618937199
20
-11.008350295625
30
0
41
1
10
52.949037576572
20
-11.2741064585643
30
0
41
1
10
53.0525546984734
20
-11.3893875202807
30
0
41
1
10
53.2078303813256
20
-11.4793527576735
30
0
41
1
10
53.2595889422763
20
-11.4955855187348
30
0
41
1
10
53.3242871434646
20
-11.5001195096498
30
0
41
1
10
53.3372267837022
20
-11.5002431912787
30
0
41
1
10
53.3631060641776
20
-11.498933498906
30
0
41
1
10
53.4019249848907
20
-11.4946172348527
30
0
41
1
10
53.4407439056036
20
-11.48307304996
30
0
41
1
10
53.5701403079805
20
-11.427806408301
30
0
41
1
10
53.6736574298819
20
-11.3295807886961
30
0
41
1
10
53.8806916736847
20
-11.0107408225028
30
0
41
1
10
53.9842087955861
20
-10.7899923629537
30
0
41
1
10
54.1394844784382
20
-10.363607351472
30
0
41
1
10
54.191243039389
20
-10.2056938627842
30
0
41
1
10
54.2947601612905
20
-9.85895382232712
30
0
41
1
10
54.3465187222411
20
-9.67012701964617
30
0
41
1
10
54.4500358441425
20
-9.26307603275697
30
0
41
1
10
54.5017944050932
20
-9.04485350679812
30
0
41
1
10
54.6053115269947
20
-8.58136855720633
30
0
41
1
10
54.6570700879454
20
-8.33610966136317
30
0
41
1
10
54.7605872098467
20
-7.82167308196014
30
0
41
1
10
54.8123457707975
20
-7.55250052199818
30
0
41
1
10
54.9158628926989
20
-6.99399029132434
30
0
41
1
10
54.9676214536497
20
-6.70465886668356
30
0
41
1
10
55.0711385755511
20
-6.11004459265891
30
0
41
1
10
55.1228971365017
20
-5.80476851274264
30
0
41
1
10
55.2264142584031
20
-5.18274097174191
30
0
41
1
10
55.2781728193539
20
-4.86599617463705
30
0
41
1
10
55.433448502206
20
-3.9053504018479
30
0
41
1
10
55.5369656241075
20
-3.25120529016252
30
0
41
1
10
55.7439998679102
20
-1.94947056811807
30
0
41
1
10
55.8475169898117
20
-1.30199464553334
30
0
41
1
10
55.9769133921885
20
-0.513976811690867
30
0
41
1
10
56.0027926726638
20
-0.357419353810087
30
0
41
1
10
56.0416115933768
20
-0.124409817846953
30
0
41
1
10
56.0545512336146
20
-0.0471784459074627
30
0
41
1
10
56.0804305140899
20
0.107238464466519
30
0
41
1
10
56.0933701543275
20
0.184765861449819
30
0
41
1
10
56.158068355516
20
0.573897091312318
30
0
41
1
10
56.2098269164667
20
0.890005379245309
30
0
41
1
10
56.3651025993188
20
1.84835747998818
30
0
41
1
10
56.4686197212202
20
2.50085825546699
30
0
41
1
10
56.6238954040724
20
3.47785121295445
30
0
41
1
10
56.6756539650231
20
3.80316063727366
30
0
41
1
10
56.7791710869245
20
4.44879156919279
30
0
41
1
10
56.8309296478752
20
4.76910751540569
30
0
41
1
10
56.9344467697766
20
5.40025459726053
30
0
41
1
10
56.9862053307273
20
5.71107929759648
30
0
41
1
10
57.0897224526287
20
6.31871839637387
30
0
41
1
10
57.1414810135794
20
6.61552599577328
30
0
41
1
10
57.2449981354808
20
7.19077744844589
30
0
41
1
10
57.2967566964315
20
7.46921475020909
30
0
41
1
10
57.4002738183329
20
8.00374691793326
30
0
41
1
10
57.4520323792837
20
8.25983610424956
30
0
41
1
10
57.5555495011851
20
8.74625397859646
30
0
41
1
10
57.6073080621358
20
8.97657839776653
30
0
41
1
10
57.7108251840373
20
9.40876050824662
30
0
41
1
10
57.762583744988
20
9.61061570890664
30
0
41
1
10
57.8143423059387
20
9.79729166282945
30
0
0
SPLINE
5
E9
100
AcDbEntity
8
1
62
256
6
ByLayer
370
13
48
1
60
0
100
AcDbSpline
70
4
71
3
72
14
73
10
40
0
40
0
40
0
40
0
40
0.25
40
0.25
40
0.5
40
0.5
40
0.75
40
0.75
40
1
40
1
40
1
40
1
41
1
10
46.9
20
9.12800760787212
30
0
41
1
10
46.9956135229002
20
9.53237069487255
30
0
41
1
10
47.0912270458005
20
9.88825841940809
30
0
41
1
10
47.2824540916009
20
10.4929382603285
30
0
41
1
10
47.3780676145012
20
10.7417474130893
30
0
41
1
10
47.5692946603016
20
11.1320041514936
30
0
41
1
10
47.664908183202
20
11.2735264017013
30
0
41
1
10
47.8561352290023
20
11.4574743322868
30
0
41
1
10
47.9517487519026
20
11.5
30
0
41
1
10
48.0473622748028
20
11.5
30
0
0
SPLINE
5
EA
100
AcDbEntity
8
1
62
256
6
ByLayer
370
13
48
1
60
0
100
AcDbSpline
70
4
71
3
72
140
73
136
40
0
40
0
40
0
40
0
40
0.0156249999999999
40
0.0156249999999999
40
0.0312499999999998
40
0.0312499999999998
40
0.0468749999999998
40
0.0468749999999998
40
0.0624999999999997
40
0.0624999999999997
40
0.0781249999999996
40
0.0781249999999996
40
0.0937499999999995
40
0.0937499999999995
40
0.109374999999999
40
0.109374999999999
40
0.124999999999999
40
0.124999999999999
40
0.140624999999999
40
0.140624999999999
40
0.156249999999999
40
0.156249999999999
40
0.171874999999999
40
0.171874999999999
40
0.187499999999999
40
0.187499999999999
40
0.203124999999999
40
0.203124999999999
40
0.218749999999999
40
0.218749999999999
40
0.234374999999999
40
0.234374999999999
40
0.249999999999999
40
0.249999999999999
40
0.257812499999999
40
0.257812499999999
40
0.265624999999999
40
0.265624999999999
40
0.281249999999999
40
0.281249999999999
40
0.296874999999999
40
0.296874999999999
40
0.312499999999999
40
0.312499999999999
40
0.328124999999999
40
0.328124999999999
40
0.343749999999999
40
0.343749999999999
40
0.359374999999999
40
0.359374999999999
40
0.374999999999999
40
0.374999999999999
40
0.390624999999999
40
0.390624999999999
40
0.406249999999999
40
0.406249999999999
40
0.421874999999999
40
0.421874999999999
40
0.437499999999999
40
0.437499999999999
40
0.453124999999999
40
0.453124999999999
40
0.468749999999999
40
0.468749999999999
40
0.484374999999999
40
0.484374999999999
40
0.499999999999999
40
0.499999999999999
40
0.515624999999999
40
0.515624999999999
40
0.523437499999999
40
0.523437499999999
40
0.531249999999999
40
0.531249999999999
40
0.546874999999999
40
0.546874999999999
40
0.562499999999999
40
0.562499999999999
40
0.578124999999999
40
0.578124999999999
40
0.593749999999999
40
0.593749999999999
40
0.609375
40
0.609375
40
0.625
40
0.625
40
0.640625
40
0.640625
40
0.65625
40
0.65625
40
0.671875
40
0.671875
40
0.6875
40
0.6875
40
0.703125
40
0.703125
40
0.71875
40
0.71875
40
0.734375
40
0.734375
40
0.75
40
0.75
40
0.765625
40
0.765625
40
0.78125
40
0.78125
40
0.7890625
40
0.7890625
40
0.796875
40
0.796875
40
0.8125
40
0.8125
40
0.828125
40
0.828125
40
0.84375
40
0.84375
40
0.859375
40
0.859375
40
0.875
40
0.875
40
0.890625
40
0.890625
40
0.90625
40
0.90625
40
0.921875
40
0.921875
40
0.9375
40
0.9375
40
0.953125
40
0.953125
40
0.96875
40
0.96875
40
0.984375
40
0.984375
40
1
40
1
40
1
40
1
41
1
10
47.3883495745597
20
11.5
30
0
41
1
10
47.4426516200357
20
11.5
30
0
41
1
10
47.4969536655116
20
11.4863213431627
30
0
41
1
10
47.6055577564635
20
11.4289071983514
30
0
41
1
10
47.6598598019394
20
11.3851657005167
30
0
41
1
10
47.7684638928912
20
11.2653745400286
30
0
41
1
10
47.8227659383672
20
11.1893189922105
30
0
41
1
10
47.931370029319
20
11.0032883889544
30
0
41
1
10
47.985672074795
20
10.8933081987584
30
0
41
1
10
48.0942761657469
20
10.6386247908948
30
0
41
1
10
48.1485782112228
20
10.4939178567293
30
0
41
1
10
48.2571823021747
20
10.1699206354757
30
0
41
1
10
48.3114843476506
20
9.99062865128192
30
0
41
1
10
48.4200884386025
20
9.59862762651974
30
0
41
1
10
48.4743904840784
20
9.38591932212475
30
0
41
1
10
48.5829945750303
20
8.92929436641182
30
0
41
1
10
48.6372966205062
20
8.68538100909007
30
0
41
1
10
48.7459007114581
20
8.1695367841121
30
0
41
1
10
48.800202756934
20
7.89761155085728
30
0
41
1
10
48.9088068478858
20
7.32978142484581
30
0
41
1
10
48.9631088933618
20
7.03388396479613
30
0
41
1
10
49.0717129843136
20
6.42279584274837
30
0
41
1
10
49.1260150297895
20
6.10761363271325
30
0
41
1
10
49.2346191207414
20
5.46304959331357
30
0
41
1
10
49.2889211662174
20
5.13367635616217
30
0
41
1
10
49.3975252571693
20
4.46597185064462
30
0
41
1
10
49.4518273026452
20
4.12764848615956
30
0
41
1
10
49.5604313935971
20
3.44718275569403
30
0
41
1
10
49.614733439073
20
3.10504695324943
30
0
41
1
10
49.7233375300248
20
2.42177347200433
30
0
41
1
10
49.7776395755008
20
2.08064061623159
30
0
41
1
10
49.8862436664526
20
1.40369614109915
30
0
41
1
10
49.9405457119286
20
1.06788747173843
30
0
41
1
10
50.0219987801425
20
0.57094956646003
30
0
41
1
10
50.0491498028804
20
0.406427745328244
30
0
41
1
10
50.1034518483564
20
0.0800334203814543
30
0
41
1
10
50.1306028710943
20
-0.0811359323147087
30
0
41
1
10
50.2120559393082
20
-0.570745387664459
30
0
41
1
10
50.2663579847841
20
-0.902469614835695
30
0
41
1
10
50.374962075736
20
-1.57317674809457
30
0
41
1
10
50.4292641212119
20
-1.91215761330935
30
0
41
1
10
50.5378682121638
20
-2.59335229158307
30
0
41
1
10
50.5921702576397
20
-2.93556221526836
30
0
41
1
10
50.7007743485916
20
-3.61862985429332
30
0
41
1
10
50.7550763940675
20
-3.95948184137842
30
0
41
1
10
50.8636804850194
20
-4.63483356123581
30
0
41
1
10
50.9179825304953
20
-4.96932599194696
30
0
41
1
10
51.0265866214472
20
-5.62674042226334
30
0
41
1
10
51.0808886669231
20
-5.94965407804699
30
0
41
1
10
51.189492757875
20
-6.57871167022782
30
0
41
1
10
51.2437948033509
20
-6.88484697456053
30
0
41
1
10
51.3523988943028
20
-7.47542522301973
30
0
41
1
10
51.4067009397787
20
-7.75986011877956
30
0
41
1
10
51.5153050307305
20
-8.3026452206841
30
0
41
1
10
51.5696070762065
20
-8.56098880996575
30
0
41
1
10
51.6782111671584
20
-9.0479524738563
30
0
41
1
10
51.7325132126343
20
-9.27656803817814
30
0
41
1
10
51.8411173035862
20
-9.70135964441144
30
0
41
1
10
51.8954193490621
20
-9.89753366881789
30
0
41
1
10
52.004023440014
20
-10.2557481146739
30
0
41
1
10
52.0583254854899
20
-10.4177890549612
30
0
41
1
10
52.1669295764418
20
-10.7070874988753
30
0
41
1
10
52.2212316219177
20
-10.8343477778073
30
0
41
1
10
52.3298357128696
20
-11.0544285289057
30
0
41
1
10
52.3841377583455
20
-11.1472535104376
30
0
41
1
10
52.4927418492973
20
-11.2996892709834
30
0
41
1
10
52.5470438947733
20
-11.3593056438976
30
0
41
1
10
52.6556479857251
20
-11.4472776165302
30
0
41
1
10
52.7099500312011
20
-11.4756392360167
30
0
41
1
10
52.791403099415
20
-11.4966144725578
30
0
41
1
10
52.8185541221529
20
-11.5000154166162
30
0
41
1
10
52.8728561676289
20
-11.4999844783151
30
0
41
1
10
52.9000071903669
20
-11.4965517871407
30
0
41
1
10
52.9814602585807
20
-11.4754790049373
30
0
41
1
10
53.0357623040567
20
-11.4470492770322
30
0
41
1
10
53.1443663950085
20
-11.358935973115
30
0
41
1
10
53.1986684404844
20
-11.2992463776053
30
0
41
1
10
53.3072725314363
20
-11.146660507591
30
0
41
1
10
53.3615745769123
20
-11.0537586408807
30
0
41
1
10
53.4701786678642
20
-10.8335222871985
30
0
41
1
10
53.5244807133401
20
-10.7061832940781
30
0
41
1
10
53.633084804292
20
-10.4167277299811
30
0
41
1
10
53.6873868497678
20
-10.2546083882891
30
0
41
1
10
53.7959909407197
20
-9.89623977864485
30
0
41
1
10
53.8502929861956
20
-9.69998999739187
30
0
41
1
10
53.9588970771475
20
-9.27505188388952
30
0
41
1
10
54.0131991226235
20
-9.0463655749694
30
0
41
1
10
54.1218032135753
20
-8.5592676591057
30
0
41
1
10
54.1761052590513
20
-8.30086056777955
30
0
41
1
10
54.2847093500031
20
-7.7579576227952
30
0
41
1
10
54.339011395479
20
-7.47346839009458
30
0
41
1
10
54.4476154864309
20
-6.88279210138973
30
0
41
1
10
54.5019175319068
20
-6.57661309606942
30
0
41
1
10
54.6105216228586
20
-5.94747965899023
30
0
41
1
10
54.6648236683346
20
-5.62453385960833
30
0
41
1
10
54.7734277592865
20
-4.96706703342394
30
0
41
1
10
54.8277298047624
20
-4.63255434886736
30
0
41
1
10
54.9363338957144
20
-3.95717377742747
30
0
41
1
10
54.9906359411902
20
-3.61631318954622
30
0
41
1
10
55.099240032142
20
-2.93323927167094
30
0
41
1
10
55.153542077618
20
-2.59103166596498
30
0
41
1
10
55.2621461685699
20
-1.90985142260738
30
0
41
1
10
55.3164482140458
20
-1.57088267006631
30
0
41
1
10
55.4250523049977
20
-0.900208172707835
30
0
41
1
10
55.4793543504736
20
-0.568504464733309
30
0
41
1
10
55.5608074186876
20
-0.0789309510824978
30
0
41
1
10
55.5879584414255
20
0.0822384868695281
30
0
41
1
10
55.6422604869014
20
0.40865676516151
30
0
41
1
10
55.6694115096394
20
0.573189702853284
30
0
41
1
10
55.7508645778532
20
1.07015808928796
30
0
41
1
10
55.8051666233292
20
1.40598325005732
30
0
41
1
10
55.913770714281
20
2.08295158507448
30
0
41
1
10
55.968072759757
20
2.42409180511888
30
0
41
1
10
56.0766768507089
20
3.10736962001002
30
0
41
1
10
56.1309788961847
20
3.44950238764099
30
0
41
1
10
56.2395829871367
20
4.12995070921858
30
0
41
1
10
56.2938850326126
20
4.46825969604024
30
0
41
1
10
56.4024891235645
20
5.13592360922041
30
0
41
1
10
56.4567911690404
20
5.46527062931767
30
0
41
1
10
56.5653952599923
20
6.10977043834842
30
0
41
1
10
56.6196973054682
20
6.42491463440453
30
0
41
1
10
56.72830139642
20
7.03591555895801
30
0
41
1
10
56.782603441896
20
7.33176383681615
30
0
41
1
10
56.8912075328478
20
7.89948563248959
30
0
41
1
10
56.9455095783238
20
8.17135172085563
30
0
41
1
10
57.0541136692756
20
8.6870694012658
30
0
41
1
10
57.1084157147516
20
8.93091536370602
30
0
41
1
10
57.2170198057034
20
9.38739937093996
30
0
41
1
10
57.2713218511794
20
9.60003412741455
30
0
41
1
10
57.3799259421313
20
9.99188421871531
30
0
41
1
10
57.4342279876071
20
10.1710988231419
30
0
41
1
10
57.5428320785591
20
10.4949398185041
30
0
41
1
10
57.5971341240349
20
10.6395679116777
30
0
41
1
10
57.7057382149868
20
10.8940944262825
30
0
41
1
10
57.7600402604627
20
11.0039965681498
30
0
41
1
10
57.8143423059387
20
11.0969352162707
30
0
0
SPLINE
5
EB
100
AcDbEntity
8
1
62
256
6
ByLayer
370
13
48
1
60
0
100
AcDbSpline
70
4
71
3
72
8
73
4
40
0
40
0
40
0
40
0
40
1
40
1
40
1
40
1
41
1
10
57.6436791802553
20
11.5
30
0
41
1
10
57.7005668888164
20
11.5
30
0
41
1
10
57.7574545973776
20
11.4849859325512
30
0
41
1
10
57.8143423059387
20
11.4534112492933
30
0
0
SPLINE
5
EC
100
AcDbEntity
8
1
62
256
6
ByLayer
370
13
48
1
60
0
100
AcDbSpline
70
4
71
3
72
14
73
10
40
0
40
0
40
0
40
0
40
0.25
40
0.25
40
0.5
40
0.5
40
0.75
40
0.75
40
1
40
1
40
1
40
1
41
1
10
46.9
20
10.7485325991178
30
0
41
1
10
46.9549177704967
20
10.8789078781442
30
0
41
1
10
47.0098355409934
20
10.9915172056751
30
0
41
1
10
47.1196710819867
20
11.1819881665899
30
0
41
1
10
47.1745888524835
20
11.2598551922593
30
0
41
1
10
47.2844243934768
20
11.382485458162
30
0
41
1
10
47.3393421639735
20
11.4272549138225
30
0
41
1
10
47.4491777049669
20
11.4860090049348
30
0
41
1
10
47.5040954754635
20
11.5
30
0
41
1
10
47.5590132459602
20
11.5
30
0
0
SPLINE
5
ED
100
AcDbEntity
8
1
62
256
6
ByLayer
370
13
48
1
60
0
100
AcDbSpline
70
4
71
3
72
134
73
130
40
0
40
0
40
0
40
0
40
0.015625
40
0.015625
40
0.03125
40
0.03125
40
0.046875
40
0.046875
40
0.0625
40
0.0625
40
0.078125
40
0.078125
40
0.09375
40
0.09375
40
0.109375
40
0.109375
40
0.125
40
0.125
40
0.140625
40
0.140625
40
0.15625
40
0.15625
40
0.171875
40
0.171875
40
0.1875
40
0.1875
40
0.203125
40
0.203125
40
0.21875
40
0.21875
40
0.234375
40
0.234375
40
0.25
40
0.25
40
0.265625
40
0.265625
40
0.28125
40
0.28125
40
0.296875
40
0.296875
40
0.3125
40
0.3125
40
0.328125
40
0.328125
40
0.34375
40
0.34375
40
0.359375
40
0.359375
40
0.375
40
0.375
40
0.390625
40
0.390625
40
0.40625
40
0.40625
40
0.421875
40
0.421875
40
0.4375
40
0.4375
40
0.453125
40
0.453125
40
0.46875
40
0.46875
40
0.484375
40
0.484375
40
0.5
40
0.5
40
0.515625
40
0.515625
40
0.53125
40
0.53125
40
0.546875
40
0.546875
40
0.5625
40
0.5625
40
0.578125
40
0.578125
40
0.59375
40
0.59375
40
0.609375
40
0.609375
40
0.625
40
0.625
40
0.640625
40
0.640625
40
0.65625
40
0.65625
40
0.671875
40
0.671875
40
0.6875
40
0.6875
40
0.703125
40
0.703125
40
0.71875
40
0.71875
40
0.734375
40
0.734375
40
0.75
40
0.75
40
0.765625
40
0.765625
40
0.78125
40
0.78125
40
0.796875
40
0.796875
40
0.8125
40
0.8125
40
0.828125
40
0.828125
40
0.84375
40
0.84375
40
0.859375
40
0.859375
40
0.875
40
0.875
40
0.890625
40
0.890625
40
0.90625
40
0.90625
40
0.921875
40
0.921875
40
0.9375
40
0.9375
40
0.953125
40
0.953125
40
0.96875
40
0.96875
40
0.984375
40
0.984375
40
1
40
1
40
1
40
1
41
1
10
46.9000005457171
20
11.5
30
0
41
1
10
46.9568460757182
20
11.5
30
0
41
1
10
47.0136916057195
20
11.4850082174351
30
0
41
1
10
47.1273826657217
20
11.4219546901192
30
0
41
1
10
47.1842281957229
20
11.3738853845031
30
0
41
1
10
47.2979192557252
20
11.2421381286023
30
0
41
1
10
47.3547647857263
20
11.1584528365304
30
0
41
1
10
47.4684558457287
20
10.9537232938996
30
0
41
1
10
47.5253013757298
20
10.8326727920293
30
0
41
1
10
47.6389924357321
20
10.5524583005353
30
0
41
1
10
47.6958379657333
20
10.3932900651047
30
0
41
1
10
47.8095290257356
20
10.0372423590153
30
0
41
1
10
47.8663745557367
20
9.84036143828666
30
0
41
1
10
47.980065615739
20
9.41053570658551
30
0
41
1
10
48.0369111457402
20
9.17759272722552
30
0
41
1
10
48.1506022057425
20
8.67853111101059
30
0
41
1
10
48.2074477357436
20
8.4124176295077
30
0
41
1
10
48.321138795746
20
7.85103901143725
30
0
41
1
10
48.3779843257471
20
7.55578190084151
30
0
41
1
10
48.4916753857494
20
6.94107583619402
30
0
41
1
10
48.5485209157506
20
6.62163689277051
30
0
41
1
10
48.6622119757529
20
5.9641884212605
30
0
41
1
10
48.7190575057541
20
5.62618973438271
30
0
41
1
10
48.8327485657564
20
4.93758704209984
30
0
41
1
10
48.8895940957575
20
4.58699350766631
30
0
41
1
10
49.0032851557598
20
3.87918608631014
30
0
41
1
10
49.060130685761
20
3.52198126782997
30
0
41
1
10
49.1738217457633
20
2.80665906849182
30
0
41
1
10
49.2306672757644
20
2.44854864352584
30
0
41
1
10
49.3443583357667
20
1.73660305703922
30
0
41
1
10
49.4012038657679
20
1.38277241412564
30
0
41
1
10
49.5148949257702
20
0.683881230026742
30
0
41
1
10
49.5717404557714
20
0.338822805474109
30
0
41
1
10
49.6854315157737
20
-0.33882117912853
30
0
41
1
10
49.7422770457748
20
-0.683879566618799
30
0
41
1
10
49.8559681057772
20
-1.38277072285589
30
0
41
1
10
49.9128136357783
20
-1.73660135512606
30
0
41
1
10
50.0265046957806
20
-2.4485469281002
30
0
41
1
10
50.0833502257817
20
-2.80665735020111
30
0
41
1
10
50.197041285784
20
-3.52197955257407
30
0
41
1
10
50.2538868157852
20
-3.87918437695791
30
0
41
1
10
50.3675778757875
20
-4.58699181954282
30
0
41
1
10
50.4244234057886
20
-4.9375853693044
30
0
41
1
10
50.5381144657909
20
-5.62618810188508
30
0
41
1
10
50.5949599957921
20
-5.9641868137341
30
0
41
1
10
50.7086510557944
20
-6.62163534454405
30
0
41
1
10
50.7654965857956
20
-6.94107432229589
30
0
41
1
10
50.8791876457979
20
-7.5557804641503
30
0
41
1
10
50.936033175799
20
-7.85103761762232
30
0
41
1
10
51.0497242358014
20
-8.41241632870501
30
0
41
1
10
51.1065697658025
20
-8.67852986033989
30
0
41
1
10
51.2202608258048
20
-9.17759158240017
30
0
41
1
10
51.277106355806
20
-9.41053461746841
30
0
41
1
10
51.3907974158083
20
-9.84036046423992
30
0
41
1
10
51.4476429458094
20
-10.0372414443253
30
0
41
1
10
51.5613340058117
20
-10.3932892707655
30
0
41
1
10
51.6181795358128
20
-10.5524575671854
30
0
41
1
10
51.7318705958151
20
-10.8326721803493
30
0
41
1
10
51.7887161258163
20
-10.9537227428965
30
0
41
1
10
51.9024071858186
20
-11.1584524048314
30
0
41
1
10
51.9592527158198
20
-11.2421377555281
30
0
41
1
10
52.0729437758222
20
-11.3738851251901
30
0
41
1
10
52.1297893058233
20
-11.4219544859416
30
0
41
1
10
52.2434803658256
20
-11.4850081189555
30
0
41
1
10
52.3003258958268
20
-11.4999999520832
30
0
41
1
10
52.4140169558291
20
-11.5000000479166
30
0
41
1
10
52.4708624858303
20
-11.4850083159145
30
0
41
1
10
52.5845535458325
20
-11.4219548942965
30
0
41
1
10
52.6413990758337
20
-11.3738856438158
30
0
41
1
10
52.755090135836
20
-11.2421385016762
30
0
41
1
10
52.8119356658371
20
-11.1584532682291
30
0
41
1
10
52.9256267258394
20
-10.9537238449024
30
0
41
1
10
52.9824722558406
20
-10.8326734037089
30
0
41
1
10
53.0961633158429
20
-10.552459033885
30
0
41
1
10
53.1530088458441
20
-10.3932908594437
30
0
41
1
10
53.2666999058463
20
-10.0372432737052
30
0
41
1
10
53.3235454358475
20
-9.84036241233312
30
0
41
1
10
53.4372364958498
20
-9.41053679570231
30
0
41
1
10
53.494082025851
20
-9.17759387205061
30
0
41
1
10
53.6077730858533
20
-8.67853236168105
30
0
41
1
10
53.6646186158545
20
-8.41241893031017
30
0
41
1
10
53.7783096758567
20
-7.85104040525198
30
0
41
1
10
53.8351552058579
20
-7.55578333753252
30
0
41
1
10
53.9488462658602
20
-6.94107735009197
30
0
41
1
10
54.0056917958614
20
-6.62163844099683
30
0
41
1
10
54.1193828558636
20
-5.96419002878676
30
0
41
1
10
54.1762283858648
20
-5.62619136688022
30
0
41
1
10
54.2899194458672
20
-4.93758871489518
30
0
41
1
10
54.3467649758683
20
-4.58699519578971
30
0
41
1
10
54.4604560358706
20
-3.87918779566238
30
0
41
1
10
54.5173015658718
20
-3.52198298308585
30
0
41
1
10
54.6309926258741
20
-2.80666078678257
30
0
41
1
10
54.6878381558752
20
-2.44855035895154
30
0
41
1
10
54.8015292158775
20
-1.73660475895247
30
0
41
1
10
54.8583747458787
20
-1.38277410539541
30
0
41
1
10
54.972065805881
20
-0.68388289343477
30
0
41
1
10
55.0289113358822
20
-0.338824451667449
30
0
41
1
10
55.1426023958845
20
0.338819572630627
30
0
41
1
10
55.1994479258856
20
0.683877903210941
30
0
41
1
10
55.3131389858879
20
1.38276903158624
30
0
41
1
10
55.3699845158891
20
1.73659965321292
30
0
41
1
10
55.4836755758914
20
2.44854521267456
30
0
41
1
10
55.5405211058925
20
2.80665563191039
30
0
41
1
10
55.6542121658948
20
3.52197783731816
30
0
41
1
10
55.7110576958961
20
3.87918266760562
30
0
41
1
10
55.8247487558983
20
4.5869901314193
30
0
41
1
10
55.8815942858994
20
4.93758369650891
30
0
41
1
10
55.9952853459017
20
5.62618646938731
30
0
41
1
10
56.0521308759029
20
5.96418520620759
30
0
41
1
10
56.1658219359052
20
6.62163379631744
30
0
41
1
10
56.2226674659063
20
6.94107280839759
30
0
41
1
10
56.3363585259087
20
7.55577902745887
30
0
41
1
10
56.3932040559098
20
7.85103622380717
30
0
41
1
10
56.5068951159121
20
8.41241502790209
30
0
41
1
10
56.5637406459133
20
8.67852860966894
30
0
41
1
10
56.6774317059156
20
9.17759043757454
30
0
41
1
10
56.7342772359168
20
9.41053352835107
30
0
41
1
10
56.8479682959191
20
9.8403594901929
30
0
41
1
10
56.9048138259202
20
10.0372405296349
30
0
41
1
10
57.0185048859225
20
10.3932884764261
30
0
41
1
10
57.0753504159237
20
10.5524568338351
30
0
41
1
10
57.189041475926
20
10.8326715686691
30
0
41
1
10
57.2458870059271
20
10.9537221918931
30
0
41
1
10
57.3595780659294
20
11.1584519731321
30
0
41
1
10
57.4164235959306
20
11.2421373824537
30
0
41
1
10
57.5301146559329
20
11.3738848658769
30
0
41
1
10
57.586960185934
20
11.4219542817638
30
0
41
1
10
57.7006512459363
20
11.4850080204756
30
0
41
1
10
57.7574967759375
20
11.4999999041662
30
0
41
1
10
57.8143423059387
20
11.4999999999996
30
0
0
SPLINE
5
EE
100
AcDbEntity
8
1
62
256
6
ByLayer
370
13
48
1
60
0
100
AcDbSpline
70
4
71
3
72
14
73
10
40
0
40
0
40
0
40
0
40
0.25
40
0.25
40
0.5
40
0.5
40
0.75
40
0.75
40
1
40
1
40
1
40
1
41
1
10
57.1553301514127
20
11.5
30
0
41
1
10
57.2102478309565
20
11.5
30
0
41
1
10
57.2651655105004
20
11.4860090513338
30
0
41
1
10
57.375000869588
20
11.4272551593426
30
0
41
1
10
57.4299185491319
20
11.3824858564571
30
0
41
1
10
57.5397539082195
20
11.2598560125384
30
0
41
1
10
57.5946715877633
20
11.1819892561278
30
0
41
1
10
57.704506946851
20
10.9915189551954
30
0
41
1
10
57.7594246263949
20
10.8789100184266
30
0
41
1
10
57.8143423059387
20
10.74853519019
30
0
0
SPLINE
5
EF
100
AcDbEntity
8
1
62
256
6
ByLayer
370
13
48
1
60
0
100
AcDbSpline
70
4
71
3
72
8
73
4
40
0
40
0
40
0
40
0
40
1
40
1
40
1
40
1
41
1
10
46.9
20
11.4534106435068
30
0
41
1
10
46.9568880723725
20
11.4849857402605
30
0
41
1
10
47.013776144745
20
11.5
30
0
41
1
10
47.0706642171176
20
11.5
30
0
0
SPLINE
5
F0
100
AcDbEntity
8
1
62
256
6
ByLayer
370
13
48
1
60
0
100
AcDbSpline
70
4
71
3
72
140
73
136
40
0
40
0
40
0
40
0
40
0.015625
40
0.015625
40
0.03125
40
0.03125
40
0.046875
40
0.046875
40
0.0625000000000001
40
0.0625000000000001
40
0.0781250000000001
40
0.0781250000000001
40
0.0937500000000001
40
0.0937500000000001
40
0.109375
40
0.109375
40
0.125
40
0.125
40
0.140625
40
0.140625
40
0.15625
40
0.15625
40
0.171875
40
0.171875
40
0.1875
40
0.1875
40
0.203125
40
0.203125
40
0.2109375
40
0.2109375
40
0.21875
40
0.21875
40
0.234375
40
0.234375
40
0.25
40
0.25
40
0.265625
40
0.265625
40
0.28125
40
0.28125
40
0.296875
40
0.296875
40
0.3125
40
0.3125
40
0.328125
40
0.328125
40
0.34375
40
0.34375
40
0.359375
40
0.359375
40
0.375
40
0.375
40
0.390625
40
0.390625
40
0.40625
40
0.40625
40
0.421875
40
0.421875
40
0.4375
40
0.4375
40
0.453125
40
0.453125
40
0.46875
40
0.46875
40
0.4765625
40
0.4765625
40
0.484375
40
0.484375
40
0.5
40
0.5
40
0.515625
40
0.515625
40
0.53125
40
0.53125
40
0.546875
40
0.546875
40
0.5625
40
0.5625
40
0.578125
40
0.578125
40
0.59375
40
0.59375
40
0.609375
40
0.609375
40
0.625
40
0.625
40
0.640625
40
0.640625
40
0.65625
40
0.65625
40
0.671875
40
0.671875
40
0.6875
40
0.6875
40
0.703125
40
0.703125
40
0.71875
40
0.71875
40
0.734375
40
0.734375
40
0.7421875
40
0.7421875
40
0.75
40
0.75
40
0.765625
40
0.765625
40
0.78125
40
0.78125
40
0.796875
40
0.796875
40
0.8125
40
0.8125
40
0.828125
40
0.828125
40
0.84375
40
0.84375
40
0.859375
40
0.859375
40
0.875
40
0.875
40
0.890625
40
0.890625
40
0.90625
40
0.90625
40
0.921875
40
0.921875
40
0.9375
40
0.9375
40
0.953125
40
0.953125
40
0.96875
40
0.96875
40
0.984375
40
0.984375
40
1
40
1
40
1
40
1
41
1
10
46.9
20
11.096937084272
30
0
41
1
10
46.9543020511605
20
11.0039986532413
30
0
41
1
10
47.008604102321
20
10.8940967290353
30
0
41
1
10
47.1172082046419
20
10.6395706447958
30
0
41
1
10
47.1715102558025
20
10.4949427643128
30
0
41
1
10
47.2801143581234
20
10.1711021829071
30
0
41
1
10
47.3344164092839
20
9.9918877797308
30
0
41
1
10
47.4430205116049
20
9.60003807313171
30
0
41
1
10
47.4973225627653
20
9.38740350009255
30
0
41
1
10
47.6059266650863
20
8.93091983612936
30
0
41
1
10
47.6602287162468
20
8.68707403351038
30
0
41
1
10
47.7688328185677
20
8.17135664437214
30
0
41
1
10
47.8231348697283
20
7.89949068744662
30
0
41
1
10
47.9317389720492
20
7.3317691229141
30
0
41
1
10
47.9860410232097
20
7.0359209447515
30
0
41
1
10
48.0946451255307
20
6.42492018611031
30
0
41
1
10
48.1489471766912
20
6.10977605627187
30
0
41
1
10
48.2575512790121
20
5.46527634614981
30
0
41
1
10
48.3118533301726
20
5.13592935874979
30
0
41
1
10
48.4204574324935
20
4.46826547897081
30
0
41
1
10
48.474759483654
20
4.1299564928633
30
0
41
1
10
48.5833635859751
20
3.44950814358387
30
0
41
1
10
48.6376656371356
20
3.10737534754927
30
0
41
1
10
48.7462697394565
20
2.42409745056784
30
0
41
1
10
48.800571790617
20
2.0829571768495
30
0
41
1
10
48.9091758929379
20
1.40598871364796
30
0
41
1
10
48.9634779440984
20
1.07016347837975
30
0
41
1
10
49.0449310208392
20
0.573194968074574
30
0
41
1
10
49.0720820464194
20
0.408661987072946
30
0
41
1
10
49.1263840975799
20
0.0822436186986124
30
0
41
1
10
49.1535351231601
20
-0.078925836656083
30
0
41
1
10
49.2349881999008
20
-0.568499318439279
30
0
41
1
10
49.2892902510613
20
-0.900203014243743
30
0
41
1
10
49.3978943533822
20
-1.57087750782827
30
0
41
1
10
49.4521964045428
20
-1.90984626877344
30
0
41
1
10
49.5608005068638
20
-2.59102655135428
30
0
41
1
10
49.6151025580243
20
-2.93323418788674
30
0
41
1
10
49.7237066603452
20
-3.61630819085991
30
0
41
1
10
49.7780087115057
20
-3.95716883301816
30
0
41
1
10
49.8866128138266
20
-4.63254953646751
30
0
41
1
10
49.9409148649872
20
-4.9670622987592
30
0
41
1
10
50.0495189673081
20
-5.62452930273119
30
0
41
1
10
50.1038210184686
20
-5.94747520216453
30
0
41
1
10
50.2124251207896
20
-6.57660885935042
30
0
41
1
10
50.2667271719501
20
-6.88278798472081
30
0
41
1
10
50.375331274271
20
-7.47346453013327
30
0
41
1
10
50.4296333254316
20
-7.75795389948254
30
0
41
1
10
50.5382374277525
20
-8.30085713010374
30
0
41
1
10
50.592539478913
20
-8.55926437040665
30
0
41
1
10
50.7011435812339
20
-9.04636259173216
30
0
41
1
10
50.7554456323944
20
-9.27504905712485
30
0
41
1
10
50.8640497347155
20
-9.6999874860503
30
0
41
1
10
50.9183517858759
20
-9.89623742624201
30
0
41
1
10
51.0269558881969
20
-10.2546063513832
30
0
41
1
10
51.0812579393573
20
-10.4167258496238
30
0
41
1
10
51.1898620416783
20
-10.7061817200795
30
0
41
1
10
51.2441640928388
20
-10.8335208630034
30
0
41
1
10
51.3527681951598
20
-11.0537575059456
30
0
41
1
10
51.4070702463203
20
-11.1466595121091
30
0
41
1
10
51.5156743486413
20
-11.2992456479702
30
0
41
1
10
51.5699763998017
20
-11.3589353698736
30
0
41
1
10
51.6785805021227
20
-11.4470489117472
30
0
41
1
10
51.7328825532832
20
-11.4754787512177
30
0
41
1
10
51.8143356300239
20
-11.4965516889895
30
0
41
1
10
51.8414866556041
20
-11.4999844300635
30
0
41
1
10
51.8957887067646
20
-11.5000154642158
30
0
41
1
10
51.9229397323449
20
-11.4966145686034
30
0
41
1
10
52.0043928090856
20
-11.4756394786865
30
0
41
1
10
52.0586948602461
20
-11.4472779586322
30
0
41
1
10
52.167298962567
20
-11.359306185883
30
0
41
1
10
52.2216010137275
20
-11.2996899134164
30
0
41
1
10
52.3302051160485
20
-11.1472543520584
30
0
41
1
10
52.384507167209
20
-11.0544294692611
30
0
41
1
10
52.4931112695299
20
-10.8343489109541
30
0
41
1
10
52.5474133206905
20
-10.707088726072
30
0
41
1
10
52.6560174230114
20
-10.4177904625504
30
0
41
1
10
52.7103194741719
20
-10.255749608598
30
0
41
1
10
52.8189235764929
20
-9.89753532483468
30
0
41
1
10
52.8732256276534
20
-9.70136137617857
30
0
41
1
10
52.9818297299743
20
-9.27656990838847
30
0
41
1
10
53.0361317811348
20
-9.04795440675329
30
0
41
1
10
53.1447358834558
20
-8.56099085329629
30
0
41
1
10
53.1990379346163
20
-8.30264731175754
30
0
41
1
10
53.3076420369372
20
-7.75986228927258
30
0
41
1
10
53.3619440880977
20
-7.47542742518817
30
0
41
1
10
53.4705481904187
20
-6.88484922372467
30
0
41
1
10
53.5248502415792
20
-6.57871393471387
30
0
41
1
10
53.6334543439001
20
-5.94965635736514
30
0
41
1
10
53.6877563950606
20
-5.62674270109588
30
0
41
1
10
53.7963604973816
20
-4.96932825528341
30
0
41
1
10
53.8506625485421
20
-4.63483580956773
30
0
41
1
10
53.9592666508631
20
-3.95948404705138
30
0
41
1
10
54.0135687020235
20
-3.61863203231863
30
0
41
1
10
54.1221728043445
20
-2.93556432761653
30
0
41
1
10
54.176474855505
20
-2.5933543659084
30
0
41
1
10
54.285078957826
20
-1.91215960366299
30
0
41
1
10
54.3393810089865
20
-1.57317869250511
30
0
41
1
10
54.4479851113075
20
-0.902471461888268
30
0
41
1
10
54.502287162468
20
-0.570747183306594
30
0
41
1
10
54.5837402392086
20
-0.0811376484608104
30
0
41
1
10
54.6108912647889
20
0.0800317211090089
30
0
41
1
10
54.6651933159494
20
0.406426061944018
30
0
41
1
10
54.6923443415296
20
0.570947891953608
30
0
41
1
10
54.7737974182704
20
1.06788582669432
30
0
41
1
10
54.8280994694309
20
1.4036945194801
30
0
41
1
10
54.9367035717518
20
2.08063904891543
30
0
41
1
10
54.9910056229123
20
2.42177193556742
30
0
41
1
10
55.0996097252332
20
3.10504548551987
30
0
41
1
10
55.1539117763938
20
3.44718132579274
30
0
41
1
10
55.2625158787147
20
4.12764713794078
30
0
41
1
10
55.3168179298752
20
4.46597054627878
30
0
41
1
10
55.4254220321962
20
5.1336751442017
30
0
41
1
10
55.4797240833566
20
5.46304842990267
30
0
41
1
10
55.5883281856776
20
6.10761256943206
30
0
41
1
10
55.642630236838
20
6.42279483104315
30
0
41
1
10
55.751234339159
20
7.03388305736755
30
0
41
1
10
55.8055363903196
20
7.32978057011286
30
0
41
1
10
55.9141404926405
20
7.8976108006371
30
0
41
1
10
55.968442543801
20
8.16953608570387
30
0
41
1
10
56.077046646122
20
8.68538041148346
30
0
41
1
10
56.1313486972824
20
8.92929381779024
30
0
41
1
10
56.2399527996034
20
9.38591886691881
30
0
41
1
10
56.2942548507639
20
9.59862721574092
30
0
41
1
10
56.4028589530849
20
9.99062832340877
30
0
41
1
10
56.4571610042453
20
10.1699203460792
30
0
41
1
10
56.5657651065664
20
10.4939176373661
30
0
41
1
10
56.6200671577268
20
10.638624603088
30
0
41
1
10
56.7286712600478
20
10.89330806663
30
0
41
1
10
56.7829733112083
20
11.0032882809492
30
0
41
1
10
56.8915774135293
20
11.1893189249459
30
0
41
1
10
56.9458794646897
20
11.2653744893835
30
0
41
1
10
57.0544835670107
20
11.3851656759205
30
0
41
1
10
57.1087856181712
20
11.4289071831876
30
0
41
1
10
57.2173897204921
20
11.4863213402954
30
0
41
1
10
57.2716917716526
20
11.5
30
0
41
1
10
57.3259938228131
20
11.5
30
0
0
SPLINE
5
F1
100
AcDbEntity
8
1
62
256
6
ByLayer
370
13
48
1
60
0
100
AcDbSpline
70
4
71
3
72
14
73
10
40
0
40
0
40
0
40
0
40
0.25
40
0.25
40
0.5
40
0.5
40
0.75
40
0.75
40
1
40
1
40
1
40
1
41
1
10
56.66698112257
20
11.5
30
0
41
1
10
56.7625945545174
20
11.5
30
0
41
1
10
56.8582079864648
20
11.4574744135506
30
0
41
1
10
57.0494348503596
20
11.2735268453813
30
0
41
1
10
57.145048282307
20
11.1320048767905
30
0
41
1
10
57.3362751462017
20
10.7417489151934
30
0
41
1
10
57.4318885781491
20
10.492940257894
30
0
41
1
10
57.623115442044
20
9.88826159868302
30
0
41
1
10
57.7187288739913
20
9.53237456027517
30
0
41
1
10
57.8143423059387
20
9.12801222369939
30
0
0
SPLINE
5
F2
100
AcDbEntity
8
1
62
256
6
ByLayer
370
13
48
1
60
0
100
AcDbSpline
70
4
71
3
72
124
73
120
40
0
40
0
40
0
40
0
40
0.0156250000000001
40
0.0156250000000001
40
0.0312500000000003
40
0.0312500000000003
40
0.0468750000000004
40
0.0468750000000004
40
0.0625000000000006
40
0.0625000000000006
40
0.0781250000000007
40
0.0781250000000007
40
0.0937500000000009
40
0.0937500000000009
40
0.109375000000001
40
0.109375000000001
40
0.125000000000001
40
0.125000000000001
40
0.156250000000001
40
0.156250000000001
40
0.171875000000001
40
0.171875000000001
40
0.175781250000001
40
0.175781250000001
40
0.179687500000001
40
0.179687500000001
40
0.187500000000001
40
0.187500000000001
40
0.218750000000001
40
0.218750000000001
40
0.250000000000001
40
0.250000000000001
40
0.265625000000001
40
0.265625000000001
40
0.281250000000001
40
0.281250000000001
40
0.296875000000001
40
0.296875000000001
40
0.3125
40
0.3125
40
0.328125
40
0.328125
40
0.34375
40
0.34375
40
0.359375
40
0.359375
40
0.375
40
0.375
40
0.40625
40
0.40625
40
0.437499999999999
40
0.437499999999999
40
0.445312499999999
40
0.445312499999999
40
0.449218749999999
40
0.449218749999999
40
0.453124999999999
40
0.453124999999999
40
0.468749999999999
40
0.468749999999999
40
0.499999999999999
40
0.499999999999999
40
0.515624999999999
40
0.515624999999999
40
0.53125
40
0.53125
40
0.546875
40
0.546875
40
0.5625
40
0.5625
40
0.578125
40
0.578125
40
0.59375
40
0.59375
40
0.609375
40
0.609375
40
0.625
40
0.625
40
0.640625000000001
40
0.640625000000001
40
0.656250000000001
40
0.656250000000001
40
0.687500000000001
40
0.687500000000001
40
0.718750000000001
40
0.718750000000001
40
0.722656250000001
40
0.722656250000001
40
0.726562500000001
40
0.726562500000001
40
0.734375000000001
40
0.734375000000001
40
0.750000000000001
40
0.750000000000001
40
0.781250000000001
40
0.781250000000001
40
0.796875000000001
40
0.796875000000001
40
0.812500000000001
40
0.812500000000001
40
0.828125000000001
40
0.828125000000001
40
0.843750000000001
40
0.843750000000001
40
0.859375
40
0.859375
40
0.875
40
0.875
40
0.890625
40
0.890625
40
0.90625
40
0.90625
40
0.921875
40
0.921875
40
0.9375
40
0.9375
40
0.96875
40
0.96875
40
1
40
1
40
1
40
1
41
1
10
46.9
20
9.79729559926821
30
0
41
1
10
46.9517585666353
20
9.61061983773649
30
0
41
1
10
47.0035171332705
20
9.40876482097954
30
0
41
1
10
47.107034266541
20
8.97658305606819
30
0
41
1
10
47.1587928331763
20
8.74625879855208
30
0
41
1
10
47.2623099664469
20
8.25984122086291
30
0
41
1
10
47.3140685330822
20
8.00375216954163
30
0
41
1
10
47.4175856663526
20
7.46922024193165
30
0
41
1
10
47.4693442329879
20
7.19078304528298
30
0
41
1
10
47.5728613662584
20
6.61553177113063
30
0
41
1
10
47.6246199328936
20
6.31872424513682
30
0
41
1
10
47.7281370661642
20
5.71108526109498
30
0
41
1
10
47.7798956327995
20
5.40026060209306
30
0
41
1
10
47.88341276607
20
4.76911357186768
30
0
41
1
10
47.9351713327053
20
4.44879763595779
30
0
41
1
10
48.0386884659758
20
3.80316669586631
30
0
41
1
10
48.090447032611
20
3.47785725308151
30
0
41
1
10
48.2457227325169
20
2.50086420185553
30
0
41
1
10
48.3492398657874
20
1.84836331262909
30
0
41
1
10
48.5045155656932
20
0.890010988511705
30
0
41
1
10
48.5562741323284
20
0.573902617375865
30
0
41
1
10
48.6209723406225
20
0.184771275214416
30
0
41
1
10
48.6339119822813
20
0.107243855356302
30
0
41
1
10
48.6597912655989
20
-0.0471731015327919
30
0
41
1
10
48.6727309072577
20
-0.124404449226347
30
0
41
1
10
48.7115498322342
20
-0.357413968701365
30
0
41
1
10
48.7374291155518
20
-0.513971417736258
30
0
41
1
10
48.86682553214
20
-1.30198921880395
30
0
41
1
10
48.9703426654105
20
-1.94946515217362
30
0
41
1
10
49.1773769319516
20
-3.25119998356178
30
0
41
1
10
49.2808940652221
20
-3.90534519398548
30
0
41
1
10
49.4361697651279
20
-4.86599118213135
30
0
41
1
10
49.4879283317631
20
-5.18273606211542
30
0
41
1
10
49.5914454650336
20
-5.80476378978287
30
0
41
1
10
49.6432040316689
20
-6.11003997348504
30
0
41
1
10
49.7467211649395
20
-6.70465447370322
30
0
41
1
10
49.7984797315747
20
-6.99398602074683
30
0
41
1
10
49.9019968648453
20
-7.55249651164561
30
0
41
1
10
49.9537554314805
20
-7.82166920942214
30
0
41
1
10
50.0572725647511
20
-8.33610607594187
30
0
41
1
10
50.1090311313863
20
-8.58136512107771
30
0
41
1
10
50.2125482646569
20
-9.04485037634126
30
0
41
1
10
50.2643068312921
20
-9.26307305866891
30
0
41
1
10
50.3678239645627
20
-9.6701243608135
30
0
41
1
10
50.4195825311979
20
-9.85895132237118
30
0
41
1
10
50.5230996644684
20
-10.2056916786696
30
0
41
1
10
50.5748582311037
20
-10.3636053243139
30
0
41
1
10
50.7301339310094
20
-10.7899907977718
30
0
41
1
10
50.83365106428
20
-11.0107395530497
30
0
41
1
10
51.040685330821
20
-11.3295800621421
30
0
41
1
10
51.1442024640916
20
-11.4278059289003
30
0
41
1
10
51.2735988806797
20
-11.483072842038
30
0
41
1
10
51.2994781639974
20
-11.490769017753
30
0
41
1
10
51.3382970889738
20
-11.4974945592492
30
0
41
1
10
51.3512367306326
20
-11.4989334441303
30
0
41
1
10
51.3771160139503
20
-11.5002431852084
30
0
41
1
10
51.3900556556091
20
-11.5001195273744
30
0
41
1
10
51.4547538639031
20
-11.495585656977
30
0
41
1
10
51.5065124305384
20
-11.4793529942843
30
0
41
1
10
51.6617881304442
20
-11.3893880548914
30
0
41
1
10
51.7653052637147
20
-11.2741071958282
30
0
41
1
10
51.9205809636205
20
-11.0083513279941
30
0
41
1
10
51.9723395302557
20
-10.9043575418177
30
0
41
1
10
52.0758566635263
20
-10.6648462340016
30
0
41
1
10
52.1276152301616
20
-10.5293257196847
30
0
41
1
10
52.2311323634321
20
-10.2268201009062
30
0
41
1
10
52.2828909300674
20
-10.0598334901513
30
0
41
1
10
52.3864080633379
20
-9.69529790299231
30
0
41
1
10
52.4381666299731
20
-9.49774921983322
30
0
41
1
10
52.5416837632436
20
-9.0738540545012
30
0
41
1
10
52.5934423298789
20
-8.84750978754474
30
0
41
1
10
52.6969594631494
20
-8.36861300239056
30
0
41
1
10
52.7487180297847
20
-8.11606451298053
30
0
41
1
10
52.8522351630552
20
-7.58807949620933
30
0
41
1
10
52.9039937296906
20
-7.31264847404836
30
0
41
1
10
53.0075108629611
20
-6.7428047365824
30
0
41
1
10
53.0592694295963
20
-6.44839848409271
30
0
41
1
10
53.1627865628668
20
-5.84491507406429
30
0
41
1
10
53.214545129502
20
-5.53584471894135
30
0
41
1
10
53.3180622627726
20
-4.90754689192872
30
0
41
1
10
53.3698208294078
20
-4.58832594295211
30
0
41
1
10
53.5250965293137
20
-3.62219922159127
30
0
41
1
10
53.6286136625841
20
-2.9670165769183
30
0
41
1
10
53.8356479291252
20
-1.66770670366475
30
0
41
1
10
53.9391650623958
20
-1.02368031678336
30
0
41
1
10
54.0556218373251
20
-0.320187139595362
30
0
41
1
10
54.068561478984
20
-0.242307917111191
30
0
41
1
10
54.0944407623016
20
-0.0871643087353675
30
0
41
1
10
54.1073804039604
20
-0.0101105528378014
30
0
41
1
10
54.1461993289368
20
0.221820124615277
30
0
41
1
10
54.1720786122545
20
0.377704852393691
30
0
41
1
10
54.2497164622074
20
0.848652182977503
30
0
41
1
10
54.3014750288426
20
1.16702490950666
30
0
41
1
10
54.4567507287484
20
2.1307449037545
30
0
41
1
10
54.5602678620189
20
2.78490883300054
30
0
41
1
10
54.7155435619247
20
3.76073793918704
30
0
41
1
10
54.7673021285599
20
4.08505280188191
30
0
41
1
10
54.8708192618305
20
4.72740420672008
30
0
41
1
10
54.9225778284658
20
5.04543489009248
30
0
41
1
10
55.0260949617363
20
5.67069292008742
30
0
41
1
10
55.0778535283715
20
5.97791366744673
30
0
41
1
10
55.1813706616421
20
6.57705514099277
30
0
41
1
10
55.2331292282773
20
6.86896907457887
30
0
41
1
10
55.3366463615479
20
7.43323170093547
30
0
41
1
10
55.3884049281831
20
7.70557403276067
30
0
41
1
10
55.4919220614537
20
8.22685948038782
30
0
41
1
10
55.543680628089
20
8.47579727648971
30
0
41
1
10
55.6471977613595
20
8.94704845099764
30
0
41
1
10
55.6989563279947
20
9.16935804785621
30
0
41
1
10
55.8024734612652
20
9.58487470489627
30
0
41
1
10
55.8542320279004
20
9.77807982756636
30
0
41
1
10
55.957749161171
20
10.1337432705282
30
0
41
1
10
56.0095077278062
20
10.2962015713039
30
0
41
1
10
56.1130248610768
20
10.5895903749757
30
0
41
1
10
56.1647834277121
20
10.7205226229023
30
0
41
1
10
56.3200591276179
20
11.0661110566392
30
0
41
1
10
56.4235762608884
20
11.2332436675602
30
0
41
1
10
56.6306105274294
20
11.4501145726067
30
0
41
1
10
56.7341276607
20
11.5
30
0
41
1
10
56.8376447939705
20
11.5
30
0
0
SPLINE
5
F3
100
AcDbEntity
8
1
62
256
6
ByLayer
370
13
48
1
60
0
100
AcDbSpline
70
4
71
3
72
22
73
18
40
0
40
0
40
0
40
0
40
0.125
40
0.125
40
0.25
40
0.25
40
0.375
40
0.375
40
0.5
40
0.5
40
0.625
40
0.625
40
0.75
40
0.75
40
0.875
40
0.875
40
1
40
1
40
1
40
1
41
1
10
56.1786320937274
20
11.5
30
0
41
1
10
56.2467866859029
20
11.5
30
0
41
1
10
56.3149412780783
20
11.4784370839303
30
0
41
1
10
56.4512504624292
20
11.3869494636645
30
0
41
1
10
56.5194050546048
20
11.3170060194638
30
0
41
1
10
56.6557142389557
20
11.1247401556578
30
0
41
1
10
56.7238688311311
20
11.0024003970058
30
0
41
1
10
56.8601780154821
20
10.7031307873628
30
0
41
1
10
56.9283326076575
20
10.5261881968741
30
0
41
1
10
57.0646417920085
20
10.1177717742136
30
0
41
1
10
57.132796384184
20
9.88629283628583
30
0
41
1
10
57.2691055685349
20
9.3714114340581
30
0
41
1
10
57.3372601607103
20
9.08801346562433
30
0
41
1
10
57.4735693450614
20
8.47446591069473
30
0
41
1
10
57.5417239372368
20
8.14433056965396
30
0
41
1
10
57.6780331215878
20
7.44476180553465
30
0
41
1
10
57.7461877137632
20
7.07535045273443
30
0
41
1
10
57.8143423059387
20
6.69088056049517
30
0
0
SPLINE
5
F4
100
AcDbEntity
8
1
62
256
6
ByLayer
370
13
48
1
60
0
100
AcDbSpline
70
4
71
3
72
85
73
81
40
0
40
0
40
0
40
0
40
0.0312500000000003
40
0.0312500000000003
40
0.0625000000000006
40
0.0625000000000006
40
0.0937500000000009
40
0.0937500000000009
40
0.125000000000001
40
0.125000000000001
40
0.132812500000001
40
0.132812500000001
40
0.136718750000001
40
0.136718750000001
40
0.140625000000001
40
0.140625000000001
40
0.156250000000001
40
0.156250000000001
40
0.187500000000002
40
0.187500000000002
40
0.218750000000002
40
0.218750000000002
40
0.250000000000002
40
0.250000000000002
40
0.281250000000003
40
0.281250000000003
40
0.312500000000003
40
0.312500000000003
40
0.343750000000003
40
0.343750000000003
40
0.375000000000003
40
0.375000000000003
40
0.406250000000004
40
0.406250000000004
40
0.421875000000004
40
0.421875000000004
40
0.425781250000004
40
0.425781250000004
40
0.429687500000004
40
0.437500000000004
40
0.437500000000004
40
0.468750000000004
40
0.468750000000004
40
0.500000000000004
40
0.500000000000004
40
0.531250000000003
40
0.531250000000003
40
0.562500000000003
40
0.562500000000003
40
0.593750000000003
40
0.593750000000003
40
0.625000000000003
40
0.625000000000003
40
0.656250000000003
40
0.656250000000003
40
0.687500000000002
40
0.687500000000002
40
0.703125000000002
40
0.703125000000002
40
0.710937500000002
40
0.710937500000002
40
0.718750000000002
40
0.718750000000002
40
0.750000000000002
40
0.750000000000002
40
0.781250000000002
40
0.781250000000002
40
0.812500000000002
40
0.812500000000002
40
0.843750000000001
40
0.843750000000001
40
0.875000000000001
40
0.875000000000001
40
0.906250000000001
40
0.906250000000001
40
0.937500000000001
40
0.937500000000001
40
0.96875
40
0.96875
40
1
40
1
40
1
40
1
41
1
10
46.9
20
7.61949153061738
30
0
41
1
10
46.9984301642201
20
7.10515043434577
30
0
41
1
10
47.0968603284402
20
6.55125208131258
30
0
41
1
10
47.2937206568803
20
5.39322254796781
30
0
41
1
10
47.3921508211005
20
4.78925848980188
30
0
41
1
10
47.5890111495406
20
3.56245506811104
30
0
41
1
10
47.6874413137606
20
2.93975429011829
30
0
41
1
10
47.8843016422008
20
1.70424654005848
30
0
41
1
10
47.9827318064209
20
1.09151812363746
30
0
41
1
10
48.105769511696
20
0.346059000797311
30
0
41
1
10
48.130377052751
20
0.197972791224743
30
0
41
1
10
48.1672883643335
20
-0.0224346610536372
30
0
41
1
10
48.1795921348611
20
-0.095753222325385
30
0
41
1
10
48.2041996759161
20
-0.243296904277372
30
0
41
1
10
48.2165034464437
20
-0.317346308416234
30
0
41
1
10
48.2780222990812
20
-0.688892046190261
30
0
41
1
10
48.3272373811913
20
-0.990302186971974
30
0
41
1
10
48.4748826275213
20
-1.9032046620878
30
0
41
1
10
48.5733127917414
20
-2.52355531341675
30
0
41
1
10
48.7701731201816
20
-3.76222431694666
30
0
41
1
10
48.8686032844016
20
-4.3804355938677
30
0
41
1
10
49.0654636128418
20
-5.58449138564069
30
0
41
1
10
49.1638937770619
20
-6.17017916951244
30
0
41
1
10
49.360754105502
20
-7.27817966149883
30
0
41
1
10
49.4591842697221
20
-7.80032881091046
30
0
41
1
10
49.6560445981622
20
-8.75456230135561
30
0
41
1
10
49.7544747623824
20
-9.18652991438415
30
0
41
1
10
49.9513350908225
20
-9.94243772424579
30
0
41
1
10
50.0497652550426
20
-10.2663444691298
30
0
41
1
10
50.2466255834828
20
-10.7992592647106
30
0
41
1
10
50.3450557477029
20
-11.0083178184155
30
0
41
1
10
50.541916076143
20
-11.3154672446105
30
0
41
1
10
50.6403462403631
20
-11.4136619935518
30
0
41
1
10
50.7879914866932
20
-11.4869375183621
30
0
41
1
10
50.8372065688033
20
-11.4990810467275
30
0
41
1
10
50.8987254214408
20
-11.5001668652762
30
0
41
1
10
50.9110291919683
20
-11.4996836202409
30
0
41
1
10
50.9356367330233
20
-11.4972875117469
30
0
41
1
10
50.9725480446058
20
-11.4915471577356
30
0
41
1
10
51.0094593561884
20
-11.4792212329457
30
0
41
1
10
51.1324970614635
20
-11.4228839725222
30
0
41
1
10
51.2309272256836
20
-11.3287674363953
30
0
41
1
10
51.4277875541237
20
-11.0301169204979
30
0
41
1
10
51.5262177183438
20
-10.825477834005
30
0
41
1
10
51.723078046784
20
-10.3013689939387
30
0
41
1
10
51.8215082110041
20
-9.9818459656278
30
0
41
1
10
52.0183685394442
20
-9.23423466230901
30
0
41
1
10
52.1167987036643
20
-8.8061763629668
30
0
41
1
10
52.3136590321045
20
-7.85888797902408
30
0
41
1
10
52.4120891963246
20
-7.33977188493242
30
0
41
1
10
52.6089495247647
20
-6.2366957161012
30
0
41
1
10
52.7073796889848
20
-5.65289836737011
30
0
41
1
10
52.904240017425
20
-4.45140501115975
30
0
41
1
10
53.002670181645
20
-3.83386694112923
30
0
41
1
10
53.1995305100853
20
-2.595434679383
30
0
41
1
10
53.2979606743053
20
-1.97464995538863
30
0
41
1
10
53.4456059206354
20
-1.06044131256931
30
0
41
1
10
53.4948210027455
20
-0.758487351214086
30
0
41
1
10
53.5686436259106
20
-0.31168010740069
30
0
41
1
10
53.5932511669656
20
-0.163761480068956
30
0
41
1
10
53.6424662490755
20
0.129759172338027
30
0
41
1
10
53.6670737901306
20
0.277339362199086
30
0
41
1
10
53.7901114954057
20
1.02122886408424
30
0
41
1
10
53.8885416596258
20
1.63307020720518
30
0
41
1
10
54.085401988066
20
2.86780603573737
30
0
41
1
10
54.1838321522861
20
3.49062450939709
30
0
41
1
10
54.3806924807262
20
4.71884608325058
30
0
41
1
10
54.4791226449463
20
5.32411251816507
30
0
41
1
10
54.6759829733865
20
6.4859500699535
30
0
41
1
10
54.7744131376065
20
7.04235426779385
30
0
41
1
10
54.9712734660467
20
8.07707613577892
30
0
41
1
10
55.0697036302668
20
8.55524830539406
30
0
41
1
10
55.2665639587069
20
9.41090034092397
30
0
41
1
10
55.364994122927
20
9.78830425628206
30
0
41
1
10
55.5618544513671
20
10.4300890305765
30
0
41
1
10
55.6602846155872
20
10.6944823065518
30
0
41
1
10
55.8571449440275
20
11.1091799041419
30
0
41
1
10
55.9555751082476
20
11.2595674773019
30
0
41
1
10
56.1524354366876
20
11.4549199260992
30
0
41
1
10
56.2508656009077
20
11.5
30
0
41
1
10
56.3492957651279
20
11.5
30
0
0
SPLINE
5
F5
100
AcDbEntity
8
1
62
256
6
ByLayer
370
13
48
1
60
0
100
AcDbSpline
70
4
71
3
72
22
73
18
40
0
40
0
40
0
40
0
40
0.125
40
0.125
40
0.25
40
0.25
40
0.375
40
0.375
40
0.5
40
0.5
40
0.625
40
0.625
40
0.75
40
0.75
40
0.875
40
0.875
40
1
40
1
40
1
40
1
41
1
10
55.6902830648847
20
11.5
30
0
41
1
10
55.778785533262
20
11.5
30
0
41
1
10
55.8672880016392
20
11.4635873946123
30
0
41
1
10
56.0442929383937
20
11.3068254701232
30
0
41
1
10
56.132795406771
20
11.1864076974882
30
0
41
1
10
56.3098003435255
20
10.8544310569245
30
0
41
1
10
56.3983028119027
20
10.6428172490446
30
0
41
1
10
56.5753077486572
20
10.1272044755619
30
0
41
1
10
56.6638102170344
20
9.82318354618587
30
0
41
1
10
56.840815153789
20
9.12869971684978
30
0
41
1
10
56.9293176221662
20
8.7382605767026
30
0
41
1
10
57.1063225589207
20
7.88408195218955
30
0
41
1
10
57.194825027298
20
7.42041028781651
30
0
41
1
10
57.3718299640525
20
6.43871025825808
30
0
41
1
10
57.4603324324297
20
5.92077655935532
30
0
41
1
10
57.6373373691842
20
4.85278131331879
30
0
41
1
10
57.7258398375615
20
4.30281570122801
30
0
41
1
10
57.8143423059387
20
3.74806281117915
30
0
0
SPLINE
5
F6
100
AcDbEntity
8
1
62
256
6
ByLayer
370
13
48
1
60
0
100
AcDbSpline
70
4
71
3
72
84
73
80
40
0
40
0
40
0
40
0
40
0.0312499999999998
40
0.0312499999999998
40
0.0624999999999995
40
0.0624999999999995
40
0.0781249999999994
40
0.0781249999999994
40
0.0859374999999993
40
0.0859374999999993
40
0.0898437499999993
40
0.0898437499999993
40
0.0937499999999993
40
0.0937499999999993
40
0.124999999999999
40
0.124999999999999
40
0.156249999999999
40
0.156249999999999
40
0.187499999999999
40
0.187499999999999
40
0.218749999999999
40
0.218749999999999
40
0.249999999999999
40
0.249999999999999
40
0.281249999999999
40
0.281249999999999
40
0.312499999999998
40
0.312499999999998
40
0.343749999999998
40
0.343749999999998
40
0.374999999999998
40
0.374999999999998
40
0.390624999999998
40
0.390624999999998
40
0.398437499999998
40
0.398437499999998
40
0.406249999999998
40
0.406249999999998
40
0.437499999999998
40
0.437499999999998
40
0.468749999999998
40
0.468749999999998
40
0.499999999999997
40
0.499999999999997
40
0.531249999999997
40
0.531249999999997
40
0.562499999999997
40
0.562499999999997
40
0.593749999999997
40
0.593749999999997
40
0.624999999999996
40
0.624999999999996
40
0.656249999999996
40
0.656249999999996
40
0.687499999999996
40
0.687499999999996
40
0.695312499999996
40
0.695312499999996
40
0.703124999999996
40
0.703124999999996
40
0.718749999999996
40
0.718749999999996
40
0.749999999999997
40
0.749999999999997
40
0.781249999999997
40
0.781249999999997
40
0.812499999999997
40
0.812499999999997
40
0.843749999999998
40
0.843749999999998
40
0.874999999999998
40
0.874999999999998
40
0.906249999999999
40
0.906249999999999
40
0.937499999999999
40
0.937499999999999
40
0.96875
40
0.96875
40
1
40
1
40
1
40
1
41
1
10
46.9
20
4.80891024331476
30
0
41
1
10
46.9933431951697
20
4.23517073423696
30
0
41
1
10
47.0866863903393
20
3.64821836660661
30
0
41
1
10
47.2733727806786
20
2.47340642077035
30
0
41
1
10
47.3667159758482
20
1.88562689518983
30
0
41
1
10
47.5067307686027
20
1.01965959912545
30
0
41
1
10
47.5534023661875
20
0.733582881222191
30
0
41
1
10
47.6234097625647
20
0.309989269465774
30
0
41
1
10
47.6467455613571
20
0.169708809194361
30
0
41
1
10
47.6817492595456
20
-0.0391550733016288
30
0
41
1
10
47.6934171589419
20
-0.108768107823153
30
0
41
1
10
47.7167529577343
20
-0.248730391778594
30
0
41
1
10
47.7284208571305
20
-0.31896049034259
30
0
41
1
10
47.8334319516963
20
-0.953135102056592
30
0
41
1
10
47.926775146866
20
-1.5320398170382
30
0
41
1
10
48.1134615372053
20
-2.70139938101269
30
0
41
1
10
48.2068047323749
20
-3.29179958744538
30
0
41
1
10
48.3934911227143
20
-4.46028342069116
30
0
41
1
10
48.4868343178838
20
-5.03826708857832
30
0
41
1
10
48.6735207082231
20
-6.15537643114934
30
0
41
1
10
48.7668639033928
20
-6.69437537369208
30
0
41
1
10
48.953550293732
20
-7.7077908708622
30
0
41
1
10
49.0468934889017
20
-8.18208819190181
30
0
41
1
10
49.2335798792409
20
-9.04502528410109
30
0
41
1
10
49.3269230744106
20
-9.43358913573408
30
0
41
1
10
49.5136094647498
20
-10.1116915593944
30
0
41
1
10
49.6069526599195
20
-10.401217494089
30
0
41
1
10
49.7936390502588
20
-10.8769675505413
30
0
41
1
10
49.8869822454284
20
-11.0632379011689
30
0
41
1
10
50.0736686357677
20
-11.3367478172038
30
0
41
1
10
50.1670118309373
20
-11.4240692270288
30
0
41
1
10
50.3070266236918
20
-11.4888752332984
30
0
41
1
10
50.3536982212766
20
-11.4994904887948
30
0
41
1
10
50.4237056176538
20
-11.5002278612918
30
0
41
1
10
50.4470414164462
20
-11.4979542838025
30
0
41
1
10
50.493713014031
20
-11.4881486475627
30
0
41
1
10
50.5170488128234
20
-11.4806159906932
30
0
41
1
10
50.6337278067855
20
-11.4292765506311
30
0
41
1
10
50.7270710019551
20
-11.3442484338775
30
0
41
1
10
50.9137573922944
20
-11.0755215395347
30
0
41
1
10
51.0071005874641
20
-10.8917404127208
30
0
41
1
10
51.1937869778034
20
-10.4209794823949
30
0
41
1
10
51.287130172973
20
-10.1339522574179
30
0
41
1
10
51.4738165633122
20
-9.46063697289995
30
0
41
1
10
51.5671597584819
20
-9.07435996830762
30
0
41
1
10
51.7538461488211
20
-8.21557326954485
30
0
41
1
10
51.8471893439907
20
-7.74313809948393
30
0
41
1
10
52.03387573433
20
-6.73286556438998
30
0
41
1
10
52.1272189294997
20
-6.19514677237623
30
0
41
1
10
52.313905319839
20
-5.07994606958584
30
0
41
1
10
52.4072485150085
20
-4.50259115724973
30
0
41
1
10
52.5939349053479
20
-3.33473678749695
30
0
41
1
10
52.6872781005175
20
-2.7443382401153
30
0
41
1
10
52.8739644908568
20
-1.57445195601031
30
0
41
1
10
52.9673076860264
20
-0.995020029445868
30
0
41
1
10
53.0839866799885
20
-0.289478004216278
30
0
41
1
10
53.1073224787809
20
-0.149293139366648
30
0
41
1
10
53.1539940763657
20
0.128989720440075
30
0
41
1
10
53.1773298751581
20
0.26898043460082
30
0
41
1
10
53.2473372715353
20
0.692035467972346
30
0
41
1
10
53.2940088691201
20
0.97780209484344
30
0
41
1
10
53.4340236618747
20
1.8430125408413
30
0
41
1
10
53.5273668570443
20
2.43052010625206
30
0
41
1
10
53.7140532473835
20
3.60537349602944
30
0
41
1
10
53.8073964425531
20
4.19264038511997
30
0
41
1
10
53.9940828328925
20
5.34139831194472
30
0
41
1
10
54.087426028062
20
5.90277215347814
30
0
41
1
10
54.2741124184013
20
6.97313859179243
30
0
41
1
10
54.367455613571
20
7.48200348814129
30
0
41
1
10
54.5541420039103
20
8.42355248095259
30
0
41
1
10
54.6474851990799
20
8.85613569487751
30
0
41
1
10
54.8341715894192
20
9.62770215391228
30
0
41
1
10
54.9275147845888
20
9.96664090093728
30
0
41
1
10
55.1142011749281
20
10.5421585491017
30
0
41
1
10
55.2075443700977
20
10.7787569770899
30
0
41
1
10
55.394230760437
20
11.1498733922442
30
0
41
1
10
55.4875739556066
20
11.2844594171212
30
0
41
1
10
55.6742603459459
20
11.4594782709325
30
0
41
1
10
55.7676035411155
20
11.5
30
0
41
1
10
55.8609467362852
20
11.5
30
0
0
SPLINE
5
F7
100
AcDbEntity
8
1
62
256
6
ByLayer
370
13
48
1
60
0
100
AcDbSpline
70
4
71
3
72
38
73
34
40
0
40
0
40
0
40
0
40
0.0625
40
0.0625
40
0.125
40
0.125
40
0.1875
40
0.1875
40
0.25
40
0.25
40
0.3125
40
0.3125
40
0.375
40
0.375
40
0.4375
40
0.4375
40
0.5
40
0.5
40
0.5625
40
0.5625
40
0.625
40
0.625
40
0.6875
40
0.6875
40
0.75
40
0.75
40
0.8125
40
0.8125
40
0.875
40
0.875
40
0.9375
40
0.9375
40
1
40
1
40
1
40
1
41
1
10
55.2019340360421
20
11.5
30
0
41
1
10
55.2563592083316
20
11.5
30
0
41
1
10
55.3107843806211
20
11.4862591678778
30
0
41
1
10
55.4196347252001
20
11.4285783605448
30
0
41
1
10
55.4740598974897
20
11.3846323067907
30
0
41
1
10
55.5829102420687
20
11.264276225182
30
0
41
1
10
55.6373354143582
20
11.1878602472225
30
0
41
1
10
55.7461857589372
20
11.0009461088819
30
0
41
1
10
55.8006109312267
20
10.890442762897
30
0
41
1
10
55.9094612758058
20
10.6345519133703
30
0
41
1
10
55.9638864480953
20
10.489160667125
30
0
41
1
10
56.0727367926743
20
10.1636448425898
30
0
41
1
10
56.1271619649638
20
9.98351857398228
30
0
41
1
10
56.2360123095428
20
9.58972007890185
30
0
41
1
10
56.2904374818324
20
9.37604863211629
30
0
41
1
10
56.3992878264114
20
8.91739874887386
30
0
41
1
10
56.4537129987009
20
8.67242368409771
30
0
41
1
10
56.5625633432799
20
8.15439500680253
30
0
41
1
10
56.6169885155695
20
7.88134713150299
30
0
41
1
10
56.7258388601484
20
7.31125288727733
30
0
41
1
10
56.7802640324379
20
7.01421406504545
30
0
41
1
10
56.8891143770169
20
6.40086787565616
30
0
41
1
10
56.9435395493065
20
6.08456906967669
30
0
41
1
10
57.0523898938856
20
5.43783786397253
30
0
41
1
10
57.1068150661751
20
5.10741414644417
30
0
41
1
10
57.215665410754
20
4.4377109103429
30
0
41
1
10
57.2700905830435
20
4.09843935632728
30
0
41
1
10
57.3789409276226
20
3.41620822356256
30
0
41
1
10
57.4333660999121
20
3.07325523556605
30
0
41
1
10
57.5422164444912
20
2.38849831980707
30
0
41
1
10
57.5966416167806
20
2.04669921051811
30
0
41
1
10
57.7054919613597
20
1.36858400966673
30
0
41
1
10
57.7599171336492
20
1.03227083791296
30
0
41
1
10
57.8143423059387
20
0.700556428311558
30
0
0
SPLINE
5
F8
100
AcDbEntity
8
1
62
256
6
ByLayer
370
13
48
1
60
0
100
AcDbSpline
70
4
71
3
72
85
73
81
40
0
40
0
40
0
40
0
40
0.03125
40
0.03125
40
0.03515625
40
0.03515625
40
0.0390625
40
0.0468750000000001
40
0.0468750000000001
40
0.0625000000000001
40
0.0625000000000001
40
0.0937500000000001
40
0.0937500000000001
40
0.125
40
0.125
40
0.15625
40
0.15625
40
0.1875
40
0.1875
40
0.21875
40
0.21875
40
0.25
40
0.25
40
0.28125
40
0.28125
40
0.312500000000001
40
0.312500000000001
40
0.343750000000001
40
0.343750000000001
40
0.351562500000001
40
0.351562500000001
40
0.359375000000001
40
0.359375000000001
40
0.375000000000001
40
0.375000000000001
40
0.406250000000001
40
0.406250000000001
40
0.437500000000001
40
0.437500000000001
40
0.468750000000001
40
0.468750000000001
40
0.500000000000001
40
0.500000000000001
40
0.531250000000001
40
0.531250000000001
40
0.562500000000001
40
0.562500000000001
40
0.593750000000001
40
0.593750000000001
40
0.625000000000002
40
0.625000000000002
40
0.656250000000002
40
0.656250000000002
40
0.671875000000002
40
0.671875000000002
40
0.675781250000002
40
0.675781250000002
40
0.679687500000002
40
0.679687500000002
40
0.687500000000002
40
0.687500000000002
40
0.718750000000002
40
0.718750000000002
40
0.750000000000002
40
0.750000000000002
40
0.781250000000001
40
0.781250000000001
40
0.812500000000001
40
0.812500000000001
40
0.843750000000001
40
0.843750000000001
40
0.875000000000001
40
0.875000000000001
40
0.906250000000001
40
0.906250000000001
40
0.9375
40
0.9375
40
0.96875
40
0.96875
40
1
40
1
40
1
40
1
41
1
10
46.9
20
1.7536847941538
30
0
41
1
10
46.9882562261192
20
1.20347462084234
30
0
41
1
10
47.0765124522384
20
0.660359495058827
30
0
41
1
10
47.1758007066225
20
0.0658063373597315
30
0
41
1
10
47.1868327348874
20
0.0001261050244352
30
0
41
1
10
47.2088967914172
20
-0.131693009566561
30
0
41
1
10
47.2419928762118
20
-0.330110238328046
30
0
41
1
10
47.2750889610066
20
-0.530482598862562
30
0
41
1
10
47.341281130596
20
-0.933513271360766
30
0
41
1
10
47.3854092436556
20
-1.20525724713386
30
0
41
1
10
47.5177935828344
20
-2.0267629062767
30
0
41
1
10
47.6060498089535
20
-2.58291635600131
30
0
41
1
10
47.7825622611919
20
-3.69356519420313
30
0
41
1
10
47.8708184873112
20
-4.24799853872682
30
0
41
1
10
48.0473309395495
20
-5.33347128544631
30
0
41
1
10
48.1355871656687
20
-5.8644217393408
30
0
41
1
10
48.3120996179071
20
-6.88044198710156
30
0
41
1
10
48.4003558440263
20
-7.36541491861541
30
0
41
1
10
48.5768682962646
20
-8.26911371193216
30
0
41
1
10
48.6651245223838
20
-8.68776013159857
30
0
41
1
10
48.8416369746222
20
-9.44330395355809
30
0
41
1
10
48.9298932007415
20
-9.78016046947661
30
0
41
1
10
49.1064056529798
20
-10.3633643380053
30
0
41
1
10
49.194661879099
20
-10.6097170731177
30
0
41
1
10
49.3711743313374
20
-11.0104421052315
30
0
41
1
10
49.4594305574566
20
-11.1648582665415
30
0
41
1
10
49.635943009695
20
-11.3867458952413
30
0
41
1
10
49.7241992358141
20
-11.4542820545963
30
0
41
1
10
49.8345195184631
20
-11.4905123913244
30
0
41
1
10
49.856583574993
20
-11.4953578382964
30
0
41
1
10
49.9007116880526
20
-11.500430564262
30
0
41
1
10
49.9227757445823
20
-11.5006790054098
30
0
41
1
10
49.9889679141717
20
-11.4946078469944
30
0
41
1
10
50.0330960272314
20
-11.4813608092151
30
0
41
1
10
50.1654803664102
20
-11.4118730625985
30
0
41
1
10
50.2537365925294
20
-11.3257472682118
30
0
41
1
10
50.4302490447677
20
-11.0650711654225
30
0
41
1
10
50.5185052708869
20
-10.8904590787466
30
0
41
1
10
50.6950177231254
20
-10.449046622905
30
0
41
1
10
50.7832739492445
20
-10.1822096263253
30
0
41
1
10
50.9597864014828
20
-9.55933042002809
30
0
41
1
10
51.0480426276021
20
-9.20329293656994
30
0
41
1
10
51.2245550798405
20
-8.41227638391089
30
0
41
1
10
51.3128113059597
20
-7.9773480002581
30
0
41
1
10
51.489323758198
20
-7.04526567119157
30
0
41
1
10
51.5775799843172
20
-6.5481971896541
30
0
41
1
10
51.7540924365556
20
-5.51290258167444
30
0
41
1
10
51.8423486626747
20
-4.97477367166459
30
0
41
1
10
52.0188611149131
20
-3.87994155381185
30
0
41
1
10
52.1071173410324
20
-3.32332257428837
30
0
41
1
10
52.2836297932708
20
-2.21279533018554
30
0
41
1
10
52.37188601939
20
-1.65894174131984
30
0
41
1
10
52.5042703585689
20
-0.843581699659865
30
0
41
1
10
52.5483984716284
20
-0.57433324431301
30
0
41
1
10
52.6035586129528
20
-0.242071943831093
30
0
41
1
10
52.6145906412178
20
-0.175833929275541
30
0
41
1
10
52.6366546977476
20
-0.0438116647209768
30
0
41
1
10
52.6476867260125
20
0.0218341505297417
30
0
41
1
10
52.6807828108072
20
0.219715641083724
30
0
41
1
10
52.702846867337
20
0.352550226241505
30
0
41
1
10
52.8131671499859
20
1.02077659717693
30
0
41
1
10
52.9014233761051
20
1.56850567787072
30
0
41
1
10
53.0779358283435
20
2.67419329985319
30
0
41
1
10
53.1661920544628
20
3.23211045898844
30
0
41
1
10
53.3427045067011
20
4.33808855185106
30
0
41
1
10
53.4309607328203
20
4.88607544519226
30
0
41
1
10
53.6074731850587
20
5.94984745346608
30
0
41
1
10
53.6957294111779
20
6.46553773843453
30
0
41
1
10
53.8722418634163
20
7.44270284773393
30
0
41
1
10
53.9604980895355
20
7.90408455141645
30
0
41
1
10
54.1370105417739
20
8.75386467394262
30
0
41
1
10
54.225266767893
20
9.14219672520386
30
0
41
1
10
54.4017792201314
20
9.8328419532142
30
0
41
1
10
54.4900354462505
20
10.1351322219115
30
0
41
1
10
54.6665478984889
20
10.6477817114319
30
0
41
1
10
54.7548041246082
20
10.8581629347631
30
0
41
1
10
54.9313165768466
20
11.1882093874892
30
0
41
1
10
55.0195728029658
20
11.3079289311483
30
0
41
1
10
55.1960852552041
20
11.4637904765655
30
0
41
1
10
55.2843414813233
20
11.5
30
0
41
1
10
55.3725977074425
20
11.5
30
0
0
SPLINE
5
F9
100
AcDbEntity
8
1
62
256
6
ByLayer
370
13
48
1
60
0
100
AcDbSpline
70
4
71
3
72
41
73
37
40
0
40
0
40
0
40
0
40
0.0625
40
0.0625
40
0.125
40
0.125
40
0.1875
40
0.1875
40
0.25
40
0.25
40
0.3125
40
0.3125
40
0.375
40
0.375
40
0.4375
40
0.4375
40
0.5
40
0.5
40
0.5625
40
0.5625
40
0.625
40
0.625
40
0.6875
40
0.6875
40
0.75
40
0.75
40
0.8125
40
0.8125
40
0.875
40
0.875
40
0.890625000000001
40
0.890625000000001
40
0.906250000000001
40
0.937500000000001
40
0.937500000000001
40
1
40
1
40
1
40
1
41
1
10
54.7135850071995
20
11.5
30
0
41
1
10
54.7781841175898
20
11.5
30
0
41
1
10
54.8427832279802
20
11.4806320749466
30
0
41
1
10
54.971981448761
20
11.3986791450169
30
0
41
1
10
55.0365805591515
20
11.3360797994599
30
0
41
1
10
55.1657787799322
20
11.1641443963875
30
0
41
1
10
55.2303778903226
20
11.0547948401545
30
0
41
1
10
55.3595761111034
20
10.787252887888
30
0
41
1
10
55.4241752214938
20
10.6290500193997
30
0
41
1
10
55.5533734422747
20
10.263477122891
30
0
41
1
10
55.617972552665
20
10.0561018000804
30
0
41
1
10
55.7471707734459
20
9.59388608386803
30
0
41
1
10
55.8117698838363
20
9.33904713660712
30
0
41
1
10
55.9409681046171
20
8.78569563466539
30
0
41
1
10
56.0055672150075
20
8.48719173326438
30
0
41
1
10
56.1347654357883
20
7.85224022298286
30
0
41
1
10
56.1993645461787
20
7.51580758653304
30
0
41
1
10
56.3285627669595
20
6.81230776703464
30
0
41
1
10
56.3931618773499
20
6.44525976337636
30
0
41
1
10
56.5223600981307
20
5.68889612481371
30
0
41
1
10
56.5869592085211
20
5.29960103930171
30
0
41
1
10
56.7161574293019
20
4.50756054142113
30
0
41
1
10
56.7807565396922
20
4.10483418025441
30
0
41
1
10
56.9099547604731
20
3.29459393893222
30
0
41
1
10
56.9745538708635
20
2.88709535136044
30
0
41
1
10
57.1037520916442
20
2.07529580845375
30
0
41
1
10
57.1683512020346
20
1.67100511782462
30
0
41
1
10
57.2975494228155
20
0.872541563908953
30
0
41
1
10
57.3621485332059
20
0.478373715639918
30
0
41
1
10
57.4428974211939
20
-0.0044961465263498
30
0
41
1
10
57.4590471987915
20
-0.100612417686222
30
0
41
1
10
57.4913467539866
20
-0.294460014041732
30
0
41
1
10
57.5397960867795
20
-0.586653614643666
30
0
41
1
10
57.5882454195722
20
-0.882755132202647
30
0
41
1
10
57.6851440851579
20
-1.47909340231141
30
0
41
1
10
57.7497431955483
20
-1.8822040568235
30
0
41
1
10
57.8143423059387
20
-2.28751322356484
30
0
0
SPLINE
5
FA
100
AcDbEntity
8
1
62
256
6
ByLayer
370
13
48
1
60
0
100
AcDbSpline
70
4
71
3
72
79
73
75
40
0
40
0
40
0
40
0
40
0.03125
40
0.03125
40
0.0625000000000001
40
0.0625000000000001
40
0.0937500000000001
40
0.0937500000000001
40
0.125
40
0.125
40
0.15625
40
0.15625
40
0.1875
40
0.1875
40
0.21875
40
0.21875
40
0.25
40
0.25
40
0.28125
40
0.28125
40
0.3125
40
0.3125
40
0.3203125
40
0.3203125
40
0.328125
40
0.328125
40
0.34375
40
0.34375
40
0.375
40
0.375
40
0.40625
40
0.40625
40
0.4375
40
0.4375
40
0.46875
40
0.46875
40
0.5
40
0.5
40
0.53125
40
0.53125
40
0.5625
40
0.5625
40
0.59375
40
0.59375
40
0.625000000000001
40
0.625000000000001
40
0.656250000000001
40
0.656250000000001
40
0.660156250000001
40
0.660156250000001
40
0.664062500000001
40
0.671875000000001
40
0.671875000000001
40
0.687500000000001
40
0.687500000000001
40
0.718750000000001
40
0.718750000000001
40
0.75
40
0.75
40
0.78125
40
0.78125
40
0.8125
40
0.8125
40
0.84375
40
0.84375
40
0.875
40
0.875
40
0.90625
40
0.90625
40
0.9375
40
0.9375
40
0.96875
40
0.96875
40
1
40
1
40
1
40
1
41
1
10
46.9
20
-1.22413470267472
30
0
41
1
10
46.9831692570688
20
-1.73761308081137
30
0
41
1
10
47.0663385141375
20
-2.25973648004975
30
0
41
1
10
47.232677028275
20
-3.30629502935682
30
0
41
1
10
47.3158462853438
20
-3.83068930512894
30
0
41
1
10
47.4821847994813
20
-4.86407273223835
30
0
41
1
10
47.56535405655
20
-5.37300007736022
30
0
41
1
10
47.7316925706875
20
-6.35658731215835
30
0
41
1
10
47.8148618277563
20
-6.83117506210436
30
0
41
1
10
47.9812003418937
20
-7.72813299890541
30
0
41
1
10
48.0643695989625
20
-8.15043682904832
30
0
41
1
10
48.2307081131
20
-8.92793212263788
30
0
41
1
10
48.3138773701688
20
-9.28307901673534
30
0
41
1
10
48.4802158843062
20
-9.9161435002143
30
0
41
1
10
48.563385141375
20
-10.194047894626
30
0
41
1
10
48.7297236555125
20
-10.6681833719028
30
0
41
1
10
48.8128929125812
20
-10.8644324129894
30
0
41
1
10
48.9792314267187
20
-11.1764042944134
30
0
41
1
10
49.0624006837875
20
-11.2921674823815
30
0
41
1
10
49.228739197925
20
-11.4489911243181
30
0
41
1
10
49.3119084549938
20
-11.490101628378
30
0
41
1
10
49.4158700263297
20
-11.500483982786
30
0
41
1
10
49.4366623405968
20
-11.5005355847275
30
0
41
1
10
49.4782469691312
20
-11.4965952475813
30
0
41
1
10
49.4990392833984
20
-11.4925826369193
30
0
41
1
10
49.5614162262
20
-11.4741861450443
30
0
41
1
10
49.6030008547344
20
-11.4534386081473
30
0
41
1
10
49.7277547403375
20
-11.3640517283781
30
0
41
1
10
49.8109239974062
20
-11.2681501625294
30
0
41
1
10
49.9772625115437
20
-10.9970075486462
30
0
41
1
10
50.0604317686125
20
-10.8217224201393
30
0
41
1
10
50.22677028275
20
-10.3893137827046
30
0
41
1
10
50.3099395398187
20
-10.1321654856013
30
0
41
1
10
50.4762780539562
20
-9.53893558692195
30
0
41
1
10
50.5594473110249
20
-9.20285876940932
30
0
41
1
10
50.7257858251624
20
-8.46041558215828
30
0
41
1
10
50.8089550822312
20
-8.05408628010878
30
0
41
1
10
50.9752935963687
20
-7.18489392951284
30
0
41
1
10
51.0584628534374
20
-6.72209301762385
30
0
41
1
10
51.2248013675749
20
-5.75729983402209
30
0
41
1
10
51.3079706246437
20
-5.25537986762345
30
0
41
1
10
51.4743091387812
20
-4.23119817173696
30
0
41
1
10
51.55747839585
20
-3.70900220090257
30
0
41
1
10
51.7238169099874
20
-2.66249099233045
30
0
41
1
10
51.8069861670562
20
-2.13822257912227
30
0
41
1
10
51.9733246811937
20
-1.10343131660488
30
0
41
1
10
52.0564939382624
20
-0.592931534520233
30
0
41
1
10
52.1500593524648
20
-0.0333528212730414
30
0
41
1
10
52.1604555095984
20
0.0285114355319536
30
0
41
1
10
52.1812478238656
20
0.152841203515948
30
0
41
1
10
52.2124362952663
20
0.339943231577848
30
0
41
1
10
52.2436247666671
20
0.528774358903064
30
0
41
1
10
52.3060017094687
20
0.908473405766216
30
0
41
1
10
52.347586338003
20
1.16432888566729
30
0
41
1
10
52.4723402236062
20
1.93765396150246
30
0
41
1
10
52.5555094806749
20
2.46097755062471
30
0
41
1
10
52.7218479948124
20
3.50778918254304
30
0
41
1
10
52.8050172518812
20
4.03123334530761
30
0
41
1
10
52.9713557660188
20
5.0603217363855
30
0
41
1
10
53.0545250230875
20
5.56590208566766
30
0
41
1
10
53.220863537225
20
6.54039589440973
30
0
41
1
10
53.3040327942937
20
7.00923699163823
30
0
41
1
10
53.4703713084312
20
7.89257810789553
30
0
41
1
10
53.5535405654999
20
8.30701374823545
30
0
41
1
10
53.7198790796374
20
9.06717985964974
30
0
41
1
10
53.8030483367062
20
9.41286944087236
30
0
41
1
10
53.9693868508436
20
10.0261243826514
30
0
41
1
10
54.0525561079124
20
10.2936807672918
30
0
41
1
10
54.2188946220499
20
10.7469669956669
30
0
41
1
10
54.3020638791187
20
10.9327182948294
30
0
41
1
10
54.4684023932562
20
11.2242065383807
30
0
41
1
10
54.5515716503249
20
11.3299858055869
30
0
41
1
10
54.7179101644625
20
11.4678573431412
30
0
41
1
10
54.8010794215312
20
11.5
30
0
41
1
10
54.8842486785999
20
11.5
30
0
0
SPLINE
5
FB
100
AcDbEntity
8
1
62
256
6
ByLayer
370
13
48
1
60
0
100
AcDbSpline
70
4
71
3
72
44
73
40
40
0
40
0
40
0
40
0
40
0.0625000000000006
40
0.0625000000000006
40
0.125000000000001
40
0.125000000000001
40
0.187500000000002
40
0.187500000000002
40
0.250000000000002
40
0.250000000000002
40
0.312500000000003
40
0.312500000000003
40
0.375000000000003
40
0.375000000000003
40
0.437500000000004
40
0.437500000000004
40
0.500000000000005
40
0.500000000000005
40
0.562500000000005
40
0.562500000000005
40
0.625000000000006
40
0.625000000000006
40
0.687500000000006
40
0.687500000000006
40
0.750000000000007
40
0.750000000000007
40
0.757812500000007
40
0.757812500000007
40
0.765625000000007
40
0.765625000000007
40
0.781250000000006
40
0.781250000000006
40
0.812500000000005
40
0.812500000000005
40
0.875000000000004
40
0.875000000000004
40
0.937500000000002
40
0.937500000000002
40
1
40
1
40
1
40
1
41
1
10
54.2252359783568
20
11.5
30
0
41
1
10
54.3000090268481
20
11.5
30
0
41
1
10
54.3747820753393
20
11.4740351098421
30
0
41
1
10
54.5243281723219
20
11.3633284665382
30
0
41
1
10
54.5991012208133
20
11.2785569808486
30
0
41
1
10
54.7486473177959
20
11.0452293593515
30
0
41
1
10
54.8234203662871
20
10.8966467258317
30
0
41
1
10
54.9729664632696
20
10.5334491316011
30
0
41
1
10
55.047739511761
20
10.3188170513914
30
0
41
1
10
55.1972856087435
20
9.82471136222961
30
0
41
1
10
55.2720586572348
20
9.54523535444375
30
0
41
1
10
55.4216047542175
20
8.92638280138397
30
0
41
1
10
55.4963778027088
20
8.58702109018247
30
0
41
1
10
55.6459238996913
20
7.85690788706916
30
0
41
1
10
55.7206969481825
20
7.46618680525131
30
0
41
1
10
55.8702430451651
20
6.64474597691265
30
0
41
1
10
55.9450160936564
20
6.21406655747467
30
0
41
1
10
56.094562190639
20
5.32589421170141
30
0
41
1
10
56.1693352391303
20
4.86844362047319
30
0
41
1
10
56.3188813361129
20
3.94043647724902
30
0
41
1
10
56.3936543846041
20
3.46991664852584
30
0
41
1
10
56.5432004815867
20
2.52878691316181
30
0
41
1
10
56.617973530078
20
2.05820293051744
30
0
41
1
10
56.7675196270606
20
1.12831217676151
30
0
41
1
10
56.8422926755519
20
0.669018694314758
30
0
41
1
10
56.9264123551046
20
0.163790606837523
30
0
41
1
10
56.935758986166
20
0.107812015456943
30
0
41
1
10
56.9544522482888
20
-0.0038143333206051
30
0
41
1
10
56.9637988793503
20
-0.059477717598071
30
0
41
1
10
56.9918387725345
20
-0.227289470699731
30
0
41
1
10
57.0105320346573
20
-0.339814650072611
30
0
41
1
10
57.0666118210258
20
-0.679154596367908
30
0
41
1
10
57.1039983452715
20
-0.907738465064767
30
0
41
1
10
57.2161579180084
20
-1.59888974457735
30
0
41
1
10
57.2909309664997
20
-2.06692366629667
30
0
41
1
10
57.4404770634822
20
-3.00688863333741
30
0
41
1
10
57.5152501119735
20
-3.4787978560413
30
0
41
1
10
57.6647962089561
20
-4.41397252155488
30
0
41
1
10
57.7395692574474
20
-4.87720436692194
30
0
41
1
10
57.8143423059387
20
-5.32931927433998
30
0
0
SPLINE
5
FC
100
AcDbEntity
8
1
62
256
6
ByLayer
370
13
48
1
60
0
100
AcDbSpline
70
4
71
3
72
80
73
76
40
0
40
0
40
0
40
0
40
0.0312499999999998
40
0.0312499999999998
40
0.0624999999999996
40
0.0624999999999996
40
0.0937499999999994
40
0.0937499999999994
40
0.124999999999999
40
0.124999999999999
40
0.156249999999999
40
0.156249999999999
40
0.187499999999999
40
0.187499999999999
40
0.218749999999998
40
0.218749999999998
40
0.249999999999998
40
0.249999999999998
40
0.265624999999998
40
0.265624999999998
40
0.269531249999998
40
0.269531249999998
40
0.273437499999998
40
0.273437499999998
40
0.281249999999998
40
0.281249999999998
40
0.312499999999998
40
0.312499999999998
40
0.343749999999998
40
0.343749999999998
40
0.374999999999998
40
0.374999999999998
40
0.406249999999998
40
0.406249999999998
40
0.437499999999998
40
0.437499999999998
40
0.468749999999998
40
0.468749999999998
40
0.499999999999998
40
0.499999999999998
40
0.531249999999998
40
0.531249999999998
40
0.562499999999998
40
0.562499999999998
40
0.593749999999998
40
0.593749999999998
40
0.624999999999998
40
0.624999999999998
40
0.632812499999998
40
0.632812499999998
40
0.640624999999998
40
0.640624999999998
40
0.656249999999998
40
0.656249999999998
40
0.687499999999998
40
0.687499999999998
40
0.718749999999999
40
0.718749999999999
40
0.749999999999999
40
0.749999999999999
40
0.781249999999999
40
0.781249999999999
40
0.812499999999999
40
0.812499999999999
40
0.843749999999999
40
0.843749999999999
40
0.875
40
0.875
40
0.90625
40
0.90625
40
0.9375
40
0.9375
40
0.96875
40
0.96875
40
1
40
1
40
1
40
1
41
1
10
46.9
20
-4.28107302834681
30
0
41
1
10
46.9780822880183
20
-4.76677036049551
30
0
41
1
10
47.0561645760366
20
-5.24597444109554
30
0
41
1
10
47.2123291520732
20
-6.17589767123067
30
0
41
1
10
47.2904114400915
20
-6.62656441492717
30
0
41
1
10
47.4465760161281
20
-7.4843601239287
30
0
41
1
10
47.5246583041465
20
-7.89143905628356
30
0
41
1
10
47.680822880183
20
-8.64911948449947
30
0
41
1
10
47.7589051682014
20
-8.99968398723914
30
0
41
1
10
47.915069744238
20
-9.63485451405188
30
0
41
1
10
47.9931520322563
20
-9.91944401629928
30
0
41
1
10
48.1493166082929
20
-10.4174690177469
30
0
41
1
10
48.2273988963112
20
-10.6309101851116
30
0
41
1
10
48.3835634723478
20
-10.985892069206
30
0
41
1
10
48.4616457603661
20
-11.1274566200672
30
0
41
1
10
48.6178103364027
20
-11.3419250587829
30
0
41
1
10
48.695892624421
20
-11.4148633496509
30
0
41
1
10
48.8130160564484
20
-11.4775160453029
30
0
41
1
10
48.8520572004576
20
-11.4906284643523
30
0
41
1
10
48.900858630469
20
-11.4979182020206
30
0
41
1
10
48.9106189164714
20
-11.498921363861
30
0
41
1
10
48.9301394884759
20
-11.5000344111941
30
0
41
1
10
48.9398997744782
20
-11.5001457519653
30
0
41
1
10
48.9691806324851
20
-11.4991534553546
30
0
41
1
10
48.9887012044897
20
-11.4967135626006
30
0
41
1
10
49.0863040645126
20
-11.4752980970521
30
0
41
1
10
49.1643863525309
20
-11.4285962095481
30
0
41
1
10
49.3205509285675
20
-11.2688637046042
30
0
41
1
10
49.3986332165858
20
-11.1557967859373
30
0
41
1
10
49.5547977926224
20
-10.8587012289161
30
0
41
1
10
49.6328800806406
20
-10.6746434428476
30
0
41
1
10
49.7890446566773
20
-10.2345747121635
30
0
41
1
10
49.8671269446956
20
-9.97854995867593
30
0
41
1
10
50.0232915207322
20
-9.39787275447469
30
0
41
1
10
50.1013738087505
20
-9.07322765632497
30
0
41
1
10
50.2575383847871
20
-8.36306772908969
30
0
41
1
10
50.3356206728054
20
-7.97758217345685
30
0
41
1
10
50.491785248842
20
-7.15737947741582
30
0
41
1
10
50.5698675368603
20
-6.72270824983667
30
0
41
1
10
50.7260321128969
20
-5.81849866273868
30
0
41
1
10
50.8041144009152
20
-5.3490130851433
30
0
41
1
10
50.9602789769518
20
-4.39074432543637
30
0
41
1
10
51.0383612649701
20
-3.90200996302241
30
0
41
1
10
51.1945258410067
20
-2.9204529654923
30
0
41
1
10
51.2726081290251
20
-2.42766684520564
30
0
41
1
10
51.4287727050616
20
-1.45154668175806
30
0
41
1
10
51.50685499308
20
-0.968233019979294
30
0
41
1
10
51.6044578531029
20
-0.376878210222429
30
0
41
1
10
51.6239784251074
20
-0.259239788887157
30
0
41
1
10
51.6630195691166
20
-0.0253715785864586
30
0
41
1
10
51.6825401411211
20
0.0906677082854799
30
0
41
1
10
51.7411018571349
20
0.442251086899802
30
0
41
1
10
51.780143001144
20
0.679411064825899
30
0
41
1
10
51.8972664331715
20
1.39738813462338
30
0
41
1
10
51.9753487211898
20
1.88478423318122
30
0
41
1
10
52.1315132972264
20
2.86529695912881
30
0
41
1
10
52.2095955852447
20
3.35838830445832
30
0
41
1
10
52.3657601612813
20
4.33617474093893
30
0
41
1
10
52.4438424492996
20
4.82082904708832
30
0
41
1
10
52.6000070253362
20
5.76629275337083
30
0
41
1
10
52.6780893133546
20
6.22705111871511
30
0
41
1
10
52.8342538893912
20
7.1093449245536
30
0
41
1
10
52.9123361774095
20
7.53082846378751
30
0
41
1
10
53.0685007534461
20
8.32084886826308
30
0
41
1
10
53.1465830414643
20
8.68934388506955
30
0
41
1
10
53.302747617501
20
9.36276616601259
30
0
41
1
10
53.3808299055192
20
9.66767037414382
30
0
41
1
10
53.5369944815559
20
10.207396275773
30
0
41
1
10
53.6150767695742
20
10.4422172416783
30
0
41
1
10
53.7712413456108
20
10.8397328759116
30
0
41
1
10
53.8493236336291
20
11.0024466774227
30
0
41
1
10
54.0054882096657
20
11.257884243627
30
0
41
1
10
54.083570497684
20
11.3506401583729
30
0
41
1
10
54.2397350737206
20
11.4716796040123
30
0
41
1
10
54.3178173617389
20
11.5
30
0
41
1
10
54.3958996497573
20
11.5
30
0
0
SPLINE
5
FD
100
AcDbEntity
8
1
62
256
6
ByLayer
370
13
48
1
60
0
100
AcDbSpline
70
4
71
3
72
44
73
40
40
0
40
0
40
0
40
0
40
0.0625000000000001
40
0.0625000000000001
40
0.125
40
0.125
40
0.1875
40
0.1875
40
0.25
40
0.25
40
0.3125
40
0.3125
40
0.375
40
0.375
40
0.4375
40
0.4375
40
0.5
40
0.5
40
0.5625
40
0.5625
40
0.625
40
0.625
40
0.65625
40
0.65625
40
0.6640625
40
0.6640625
40
0.671875000000001
40
0.671875000000001
40
0.687500000000001
40
0.687500000000001
40
0.75
40
0.75
40
0.8125
40
0.8125
40
0.875
40
0.875
40
0.9375
40
0.9375
40
1
40
1
40
1
40
1
41
1
10
53.7368869495141
20
11.5
30
0
41
1
10
53.8218339361064
20
11.5
30
0
41
1
10
53.9067809226985
20
11.4664639465492
30
0
41
1
10
54.0766748958828
20
11.3224375972361
30
0
41
1
10
54.1616218824751
20
11.211891368602
30
0
41
1
10
54.3315158556593
20
10.9072136360186
30
0
41
1
10
54.4164628422516
20
10.7130358237703
30
0
41
1
10
54.5863568154359
20
10.2394083485131
30
0
41
1
10
54.6713038020281
20
9.95993678058528
30
0
41
1
10
54.8411977752124
20
9.32005927899894
30
0
41
1
10
54.9261447618046
20
8.95966644874048
30
0
41
1
10
55.096038734989
20
8.16847373386605
30
0
41
1
10
55.1809857215812
20
7.73772269797462
30
0
41
1
10
55.3508796947655
20
6.82159271979816
30
0
41
1
10
55.4358266813578
20
6.33628749773601
30
0
41
1
10
55.6057206545421
20
5.33018913403885
30
0
41
1
10
55.6906676411342
20
4.80947606986541
30
0
41
1
10
55.8605616143186
20
3.75268017044357
30
0
41
1
10
55.9455086009108
20
3.21666519881089
30
0
41
1
10
56.1154025740952
20
2.14807434537724
30
0
41
1
10
56.2003495606873
20
1.61554220195436
30
0
41
1
10
56.3277700405756
20
0.831163989019871
30
0
41
1
10
56.3702435338716
20
0.572080331643178
30
0
41
1
10
56.4233354004918
20
0.252198423388563
30
0
41
1
10
56.4339537738158
20
0.188420058602873
30
0
41
1
10
56.4551905204638
20
0.0612819578763606
30
0
41
1
10
56.4658088937878
20
-0.0019336572335078
30
0
41
1
10
56.4976640137599
20
-0.192245564621231
30
0
41
1
10
56.518900760408
20
-0.319971626137402
30
0
41
1
10
56.6250844936482
20
-0.962403566828414
30
0
41
1
10
56.7100314802403
20
-1.48866710897241
30
0
41
1
10
56.8799254534247
20
-2.55167209607785
30
0
41
1
10
56.9648724400168
20
-3.08838109143815
30
0
41
1
10
57.1347664132012
20
-4.15460786210264
30
0
41
1
10
57.2197133997935
20
-4.68406683913915
30
0
41
1
10
57.3896073729778
20
-5.71600087426719
30
0
41
1
10
57.4745543595699
20
-6.21839892464703
30
0
41
1
10
57.6444483327543
20
-7.1763729517794
30
0
41
1
10
57.7293953193465
20
-7.63187014250653
30
0
41
1
10
57.8143423059387
20
-8.05521801669752
30
0
0
SPLINE
5
FE
100
AcDbEntity
8
1
62
256
6
ByLayer
370
13
48
1
60
0
100
AcDbSpline
70
4
71
3
72
80
73
76
40
0
40
0
40
0
40
0
40
0.0312499999999999
40
0.0312499999999999
40
0.0624999999999998
40
0.0624999999999998
40
0.0937499999999997
40
0.0937499999999997
40
0.125
40
0.125
40
0.15625
40
0.15625
40
0.1875
40
0.1875
40
0.218749999999999
40
0.218749999999999
40
0.22265625
40
0.22265625
40
0.2265625
40
0.234375
40
0.234375
40
0.25
40
0.25
40
0.28125
40
0.28125
40
0.3125
40
0.3125
40
0.343749999999999
40
0.343749999999999
40
0.374999999999999
40
0.374999999999999
40
0.406249999999999
40
0.406249999999999
40
0.437499999999999
40
0.437499999999999
40
0.468749999999999
40
0.468749999999999
40
0.499999999999999
40
0.499999999999999
40
0.531249999999999
40
0.531249999999999
40
0.562499999999999
40
0.562499999999999
40
0.59375
40
0.59375
40
0.609375
40
0.609375
40
0.61328125
40
0.61328125
40
0.6171875
40
0.625
40
0.625
40
0.65625
40
0.65625
40
0.6875
40
0.6875
40
0.71875
40
0.71875
40
0.75
40
0.75
40
0.78125
40
0.78125
40
0.8125
40
0.8125
40
0.84375
40
0.84375
40
0.875
40
0.875
40
0.90625
40
0.90625
40
0.9375
40
0.9375
40
0.96875
40
0.96875
40
1
40
1
40
1
40
1
41
1
10
46.9
20
-7.16405321954034
30
0
41
1
10
46.9729953189679
20
-7.56152163847705
30
0
41
1
10
47.0459906379357
20
-7.9394117114206
30
0
41
1
10
47.1919812758714
20
-8.64566407595822
30
0
41
1
10
47.2649765948393
20
-8.97400016825586
30
0
41
1
10
47.410967232775
20
-9.57336268799256
30
0
41
1
10
47.4839625517429
20
-9.84437658374475
30
0
41
1
10
47.6299531896786
20
-10.3245686523533
30
0
41
1
10
47.7029485086464
20
-10.5337492100908
30
0
41
1
10
47.8489391465821
20
-10.8891579510618
30
0
41
1
10
47.92193446555
20
-11.0354012518617
30
0
41
1
10
48.0679251034857
20
-11.2669543163737
30
0
41
1
10
48.1409204224536
20
-11.3522874152705
30
0
41
1
10
48.2869110603893
20
-11.4665786051337
30
0
41
1
10
48.3599063793572
20
-11.4955630440738
30
0
41
1
10
48.4420261131961
20
-11.5000218131561
30
0
41
1
10
48.451150528067
20
-11.5001282454426
30
0
41
1
10
48.469399357809
20
-11.4995686124838
30
0
41
1
10
48.4967726024219
20
-11.4975644720898
30
0
41
1
10
48.5241458470349
20
-11.4920054634102
30
0
41
1
10
48.5788923362608
20
-11.475991543039
30
0
41
1
10
48.6153899957447
20
-11.4587848308072
30
0
41
1
10
48.7248829741965
20
-11.3864159597061
30
0
41
1
10
48.7978782931644
20
-11.310438884229
30
0
41
1
10
48.9438689311001
20
-11.0981754752459
30
0
41
1
10
49.0168642500679
20
-10.9618649815316
30
0
41
1
10
49.1628548880037
20
-10.6264494466868
30
0
41
1
10
49.2358502069715
20
-10.4273276353595
30
0
41
1
10
49.3818408449072
20
-9.96685301660509
30
0
41
1
10
49.4548361638751
20
-9.70549556706891
30
0
41
1
10
49.6008268018108
20
-9.12450043300018
30
0
41
1
10
49.6738221207787
20
-8.80487288771062
30
0
41
1
10
49.8198127587144
20
-8.11460058135935
30
0
41
1
10
49.8928080776823
20
-7.7439800700312
30
0
41
1
10
50.038798715618
20
-6.96177510587034
30
0
41
1
10
50.1117940345859
20
-6.55022488306818
30
0
41
1
10
50.2577846725216
20
-5.69810776670769
30
0
41
1
10
50.3307799914894
20
-5.25757866243677
30
0
41
1
10
50.4767706294252
20
-4.36023846991
30
0
41
1
10
50.549765948393
20
-3.90346200457628
30
0
41
1
10
50.6957565863287
20
-2.98603755729835
30
0
41
1
10
50.7687519052966
20
-2.52541590831089
30
0
41
1
10
50.9147425432323
20
-1.61145526250024
30
0
41
1
10
50.9877378622002
20
-1.15813185184885
30
0
41
1
10
51.097230840652
20
-0.490555355796118
30
0
41
1
10
51.1337285001359
20
-0.270081790858086
30
0
41
1
10
51.1793505744908
20
0.0023506102022566
30
0
41
1
10
51.1884749893618
20
0.0566886733177228
30
0
41
1
10
51.2067238191037
20
0.165887737481199
30
0
41
1
10
51.2340970637167
20
0.330151588040223
30
0
41
1
10
51.2614703083296
20
0.495748037595803
30
0
41
1
10
51.3527144570395
20
1.0503964281194
30
0
41
1
10
51.4257097760074
20
1.50271074133556
30
0
41
1
10
51.571700413943
20
2.4154662597922
30
0
41
1
10
51.6446957329109
20
2.87589275900578
30
0
41
1
10
51.7906863708466
20
3.79387214512656
30
0
41
1
10
51.8636816898145
20
4.25139950443807
30
0
41
1
10
52.0096723277503
20
5.15125676150996
30
0
41
1
10
52.0826676467181
20
5.59355254122357
30
0
41
1
10
52.2286582846538
20
6.45020565385624
30
0
41
1
10
52.3016536036217
20
6.86452521378573
30
0
41
1
10
52.4476442415574
20
7.65316773196272
30
0
41
1
10
52.5206395605253
20
8.02745592266558
30
0
41
1
10
52.666630198461
20
8.72577528694566
30
0
41
1
10
52.7396255174289
20
9.04978122173151
30
0
41
1
10
52.8856161553645
20
9.63999769703673
30
0
41
1
10
52.9586114743324
20
9.90619689904838
30
0
41
1
10
53.1046021122681
20
10.3765463505284
30
0
41
1
10
53.177597431236
20
10.5807001215432
30
0
41
1
10
53.3235880691717
20
10.9261074821253
30
0
41
1
10
53.3965833881396
20
11.0673770307905
30
0
41
1
10
53.5425740260753
20
11.2892626218102
30
0
41
1
10
53.6155693450432
20
11.3699024287785
30
0
41
1
10
53.7615599829788
20
11.4752579282996
30
0
41
1
10
53.8345553019467
20
11.5
30
0
41
1
10
53.9075506209146
20
11.5
30
0
0
SPLINE
5
FF
100
AcDbEntity
8
1
62
256
6
ByLayer
370
13
48
1
60
0
100
AcDbSpline
70
4
71
3
72
43
73
39
40
0
40
0
40
0
40
0
40
0.0625000000000009
40
0.0625000000000009
40
0.125000000000002
40
0.125000000000002
40
0.187500000000003
40
0.187500000000003
40
0.250000000000004
40
0.250000000000004
40
0.312500000000004
40
0.312500000000004
40
0.375000000000005
40
0.375000000000005
40
0.437500000000006
40
0.437500000000006
40
0.500000000000007
40
0.500000000000007
40
0.562500000000008
40
0.562500000000008
40
0.593750000000008
40
0.593750000000008
40
0.601562500000008
40
0.601562500000008
40
0.609375000000008
40
0.625000000000008
40
0.625000000000008
40
0.687500000000007
40
0.687500000000007
40
0.750000000000005
40
0.750000000000005
40
0.812500000000004
40
0.812500000000004
40
0.875000000000003
40
0.875000000000003
40
0.937500000000001
40
0.937500000000001
40
1
40
1
40
1
40
1
41
1
10
53.2485379206715
20
11.5
30
0
41
1
10
53.3436588453645
20
11.5
30
0
41
1
10
53.4387797700576
20
11.457913299908
30
0
41
1
10
53.6290216194437
20
11.2759226745104
30
0
41
1
10
53.7241425441368
20
11.1359212538322
30
0
41
1
10
53.9143843935229
20
10.74985991639
30
0
41
1
10
54.009505318216
20
10.5037267967884
30
0
41
1
10
54.1997471676021
20
9.90543135263815
30
0
41
1
10
54.2948680922953
20
9.55325136513895
30
0
41
1
10
54.4851099416813
20
8.75263966269193
30
0
41
1
10
54.5802308663744
20
8.30426219843605
30
0
41
1
10
54.7704727157606
20
7.33027271845873
30
0
41
1
10
54.8655936404537
20
6.80477598891432
30
0
41
1
10
55.0558354898398
20
5.702191181692
30
0
41
1
10
55.1509564145329
20
5.12524407109314
30
0
41
1
10
55.3411982639189
20
3.94803050299242
30
0
41
1
10
55.436319188612
20
3.34788853451511
30
0
41
1
10
55.6265610379982
20
2.15104532577041
30
0
41
1
10
55.7216819626912
20
1.55442300963179
30
0
41
1
10
55.8643633497309
20
0.678647642364382
30
0
41
1
10
55.9119238120774
20
0.389871962545755
30
0
41
1
10
55.9713743900105
20
0.0341995417420549
30
0
41
1
10
55.9832645055972
20
-0.036538453174785
30
0
41
1
10
56.0070447367705
20
-0.178819011776625
30
0
41
1
10
56.0427150835304
20
-0.393030601568142
30
0
41
1
10
56.0783854302903
20
-0.609474601014199
30
0
41
1
10
56.1972865861566
20
-1.33523533628238
30
0
41
1
10
56.2924075108497
20
-1.92977289897817
30
0
41
1
10
56.4826493602358
20
-3.12546610106312
30
0
41
1
10
56.5777702849288
20
-3.72654938169316
30
0
41
1
10
56.768012134315
20
-4.9091036981082
30
0
41
1
10
56.8631330590081
20
-5.49045472461319
30
0
41
1
10
57.0533749083942
20
-6.60528842582434
30
0
41
1
10
57.1484958330872
20
-7.13862998804828
30
0
41
1
10
57.3387376824733
20
-8.13120368120002
30
0
41
1
10
57.4338586071664
20
-8.59031508913742
30
0
41
1
10
57.6241004565526
20
-9.41429699283555
30
0
41
1
10
57.7192213812456
20
-9.77910450579128
30
0
41
1
10
57.8143423059387
20
-10.0912232280331
30
0
0
SPLINE
5
100
100
AcDbEntity
8
1
62
256
6
ByLayer
370
13
48
1
60
0
100
AcDbSpline
70
4
71
3
72
77
73
73
40
0
40
0
40
0
40
0
40
0.0312500000000005
40
0.0312500000000005
40
0.0625000000000009
40
0.0625000000000009
40
0.0937500000000014
40
0.0937500000000014
40
0.125000000000002
40
0.125000000000002
40
0.156250000000002
40
0.156250000000002
40
0.164062500000002
40
0.164062500000002
40
0.171875000000002
40
0.187500000000002
40
0.187500000000002
40
0.218750000000002
40
0.218750000000002
40
0.250000000000003
40
0.250000000000003
40
0.281250000000003
40
0.281250000000003
40
0.312500000000003
40
0.312500000000003
40
0.343750000000003
40
0.343750000000003
40
0.375000000000003
40
0.375000000000003
40
0.406250000000003
40
0.406250000000003
40
0.437500000000003
40
0.437500000000003
40
0.468750000000004
40
0.468750000000004
40
0.500000000000004
40
0.500000000000004
40
0.531250000000004
40
0.531250000000004
40
0.562500000000004
40
0.562500000000004
40
0.578125000000004
40
0.578125000000004
40
0.585937500000004
40
0.585937500000004
40
0.593750000000004
40
0.593750000000004
40
0.625000000000004
40
0.625000000000004
40
0.656250000000004
40
0.656250000000004
40
0.687500000000003
40
0.687500000000003
40
0.718750000000003
40
0.718750000000003
40
0.750000000000003
40
0.750000000000003
40
0.781250000000002
40
0.781250000000002
40
0.812500000000002
40
0.812500000000002
40
0.843750000000002
40
0.843750000000002
40
0.875000000000001
40
0.875000000000001
40
0.906250000000001
40
0.906250000000001
40
0.937500000000001
40
0.937500000000001
40
0.96875
40
0.96875
40
1
40
1
40
1
40
1
41
1
10
46.9
20
-9.47593841981208
30
0
41
1
10
46.9679083499174
20
-9.74237893666404
30
0
41
1
10
47.0358166998348
20
-9.98344702988436
30
0
41
1
10
47.1716333996696
20
-10.4117470641738
30
0
41
1
10
47.2395417495871
20
-10.5989822596377
30
0
41
1
10
47.3753584494219
20
-10.9190534637929
30
0
41
1
10
47.4432667993394
20
-11.0519006932333
30
0
41
1
10
47.5790834991742
20
-11.2649489162397
30
0
41
1
10
47.6469918490916
20
-11.3451662757746
30
0
41
1
10
47.7828085489264
20
-11.4565981772201
30
0
41
1
10
47.8507168988438
20
-11.4878310771922
30
0
41
1
10
47.9356023362406
20
-11.4993709552548
30
0
41
1
10
47.95257942372
20
-11.5003080393158
30
0
41
1
10
47.9865335986787
20
-11.4995166978784
30
0
41
1
10
48.0374648611167
20
-11.4943041749253
30
0
41
1
10
48.0883961235548
20
-11.4766223799903
30
0
41
1
10
48.1902586484309
20
-11.4236657620121
30
0
41
1
10
48.2581669983483
20
-11.3648586583635
30
0
41
1
10
48.3939836981831
20
-11.1959843604473
30
0
41
1
10
48.4618920481006
20
-11.0858995760991
30
0
41
1
10
48.5977087479354
20
-10.8118433277316
30
0
41
1
10
48.6656170978528
20
-10.647858066238
30
0
41
1
10
48.8014337976877
20
-10.2655221555524
30
0
41
1
10
48.8693421476051
20
-10.0471645705606
30
0
41
1
10
49.0051588474399
20
-9.55807575750737
30
0
41
1
10
49.0730671973573
20
-9.28734668601328
30
0
41
1
10
49.2088838971922
20
-8.69805621060121
30
0
41
1
10
49.2767922471096
20
-8.37950665320986
30
0
41
1
10
49.4126089469444
20
-7.70145647208733
30
0
41
1
10
49.4805172968618
20
-7.3419759683834
30
0
41
1
10
49.6163339966967
20
-6.59079814513777
30
0
41
1
10
49.684242346614
20
-6.19912604441924
30
0
41
1
10
49.8200590464489
20
-5.39345844025598
30
0
41
1
10
49.8879673963663
20
-4.97948915874224
30
0
41
1
10
50.0237840962011
20
-4.13949183942944
30
0
41
1
10
50.0916924461186
20
-3.71348710196807
30
0
41
1
10
50.2275091459534
20
-2.85929729117086
30
0
41
1
10
50.2954174958708
20
-2.43112976545675
30
0
41
1
10
50.4312341957056
20
-1.58148415925308
30
0
41
1
10
50.499142545623
20
-1.16001658970478
30
0
41
1
10
50.6010050704992
20
-0.538409883490431
30
0
41
1
10
50.6349592454579
20
-0.33296128996227
30
0
41
1
10
50.6858905078959
20
-0.0280004108863636
30
0
41
1
10
50.7028675953753
20
0.0729421871883744
30
0
41
1
10
50.7368217703341
20
0.276563241899083
30
0
41
1
10
50.7537988578134
20
0.378901576157347
30
0
41
1
10
50.8386842952102
20
0.892995690040095
30
0
41
1
10
50.9065926451276
20
1.3120217558322
30
0
41
1
10
51.0424093449624
20
2.15849623366196
30
0
41
1
10
51.1103176948798
20
2.58593565244351
30
0
41
1
10
51.2461343947147
20
3.4406583218273
30
0
41
1
10
51.314042744632
20
3.86792547069308
30
0
41
1
10
51.4498594444669
20
4.71260630368877
30
0
41
1
10
51.5177677943843
20
5.12999772508661
30
0
41
1
10
51.6535844942192
20
5.94469175307225
30
0
41
1
10
51.7214928441365
20
6.34196845681063
30
0
41
1
10
51.8573095439714
20
7.10639344569194
30
0
41
1
10
51.9252178938888
20
7.47351594405737
30
0
41
1
10
52.0610345937237
20
8.1685795214832
30
0
41
1
10
52.1289429436411
20
8.49649908111675
30
0
41
1
10
52.2647596434759
20
9.10581601047187
30
0
41
1
10
52.3326679933933
20
9.38719958419046
30
0
41
1
10
52.4684846932281
20
9.89835800514277
30
0
41
1
10
52.5363930431456
20
10.1281286149772
30
0
41
1
10
52.6722097429804
20
10.5335045946377
30
0
41
1
10
52.7401180928978
20
10.7091151050182
30
0
41
1
10
52.8759347927327
20
11.0061282408553
30
0
41
1
10
52.9438431426501
20
11.1275434443883
30
0
41
1
10
53.0796598424849
20
11.31836248241
30
0
41
1
10
53.1475681924023
20
11.3877833669746
30
0
41
1
10
53.2833848922371
20
11.4785929234755
30
0
41
1
10
53.3512932421545
20
11.5
30
0
41
1
10
53.4192015920719
20
11.5
30
0
0
SPLINE
5
101
100
AcDbEntity
8
1
62
256
6
ByLayer
370
13
48
1
60
0
100
AcDbSpline
70
4
71
3
72
68
73
64
40
0
40
0
40
0
40
0
40
0.0625000000000012
40
0.0625000000000012
40
0.0937500000000018
40
0.0937500000000018
40
0.125000000000002
40
0.125000000000002
40
0.156250000000003
40
0.156250000000003
40
0.187500000000004
40
0.187500000000004
40
0.218750000000004
40
0.218750000000004
40
0.250000000000005
40
0.250000000000005
40
0.281250000000006
40
0.281250000000006
40
0.312500000000006
40
0.312500000000006
40
0.343750000000007
40
0.343750000000007
40
0.375000000000007
40
0.375000000000007
40
0.406250000000008
40
0.406250000000008
40
0.437500000000008
40
0.437500000000008
40
0.50000000000001
40
0.50000000000001
40
0.53125000000001
40
0.53125000000001
40
0.53906250000001
40
0.53906250000001
40
0.54687500000001
40
0.54687500000001
40
0.56250000000001
40
0.56250000000001
40
0.625000000000009
40
0.625000000000009
40
0.656250000000008
40
0.656250000000008
40
0.687500000000007
40
0.687500000000007
40
0.718750000000007
40
0.718750000000007
40
0.750000000000006
40
0.750000000000006
40
0.781250000000005
40
0.781250000000005
40
0.812500000000004
40
0.812500000000004
40
0.843750000000004
40
0.843750000000004
40
0.875000000000003
40
0.875000000000003
40
0.906250000000002
40
0.906250000000002
40
0.937500000000002
40
0.937500000000002
40
0.968750000000001
40
0.968750000000001
40
1
40
1
40
1
40
1
41
1
10
52.7601888918289
20
11.5
30
0
41
1
10
52.8654837546228
20
11.5
30
0
41
1
10
52.9707786174167
20
11.4483768429142
30
0
41
1
10
53.1287209116077
20
11.2798729869687
30
0
41
1
10
53.1813683430047
20
11.2085732908052
30
0
41
1
10
53.2866632057986
20
11.0342024056781
30
0
41
1
10
53.3393106371956
20
10.931126733764
30
0
41
1
10
53.4446054999896
20
10.692386953824
30
0
41
1
10
53.4972529313866
20
10.5567194827559
30
0
41
1
10
53.6025477941805
20
10.2528001486309
30
0
41
1
10
53.6551952255775
20
10.0845465390405
30
0
41
1
10
53.7604900883714
20
9.71635845794148
30
0
41
1
10
53.8131375197684
20
9.51642421933786
30
0
41
1
10
53.9184323825624
20
9.08670184408015
30
0
41
1
10
53.9710798139594
20
8.85691606770635
30
0
41
1
10
54.0763746767533
20
8.37020245332891
30
0
41
1
10
54.1290221081503
20
8.11327898750542
30
0
41
1
10
54.2343169709442
20
7.575784999429
30
0
41
1
10
54.2869644023411
20
7.29522048349449
30
0
41
1
10
54.3922592651351
20
6.71456517871499
30
0
41
1
10
54.4449066965321
20
6.41448144473944
30
0
41
1
10
54.5502015593261
20
5.79933589979956
30
0
41
1
10
54.602848990723
20
5.4842814950338
30
0
41
1
10
54.708143853517
20
4.8439505228836
30
0
41
1
10
54.760791284914
20
4.51868101846381
30
0
41
1
10
54.866086147708
20
3.86266378408041
30
0
41
1
10
54.9187335791049
20
3.53192218671262
30
0
41
1
10
55.0766758732959
20
2.53827786843687
30
0
41
1
10
55.1819707360899
20
1.87421940317506
30
0
41
1
10
55.3399130302807
20
0.899099933126934
30
0
41
1
10
55.3925604616778
20
0.5774937609483
30
0
41
1
10
55.4583697509239
20
0.181702367515925
30
0
41
1
10
55.4715316087731
20
0.102853452131285
30
0
41
1
10
55.4978553244717
20
-0.054183397447531
30
0
41
1
10
55.5110171823209
20
-0.132782916469893
30
0
41
1
10
55.5505027558687
20
-0.369871412978142
30
0
41
1
10
55.5768264715671
20
-0.529186892686567
30
0
41
1
10
55.7084450500596
20
-1.33114070827884
30
0
41
1
10
55.8137399128536
20
-1.99025363211692
30
0
41
1
10
55.9716822070445
20
-2.98355342326568
30
0
41
1
10
56.0243296384415
20
-3.31535390540756
30
0
41
1
10
56.1296245012354
20
-3.97602538247097
30
0
41
1
10
56.1822719326324
20
-4.30489094550742
30
0
41
1
10
56.2875667954263
20
-4.95504519365844
30
0
41
1
10
56.3402142268233
20
-5.27632726679167
30
0
41
1
10
56.4455090896173
20
-5.90654027387069
30
0
41
1
10
56.4981565210143
20
-6.21546390981803
30
0
41
1
10
56.6034513838082
20
-6.81626967423381
30
0
41
1
10
56.6560988152052
20
-7.10814446529685
30
0
41
1
10
56.7613936779991
20
-7.6704682349131
30
0
41
1
10
56.814041109396
20
-7.94091054655388
30
0
41
1
10
56.91933597219
20
-8.45650396397417
30
0
41
1
10
56.9719834035871
20
-8.7016497342014
30
0
41
1
10
57.077278266381
20
-9.16348610334134
30
0
41
1
10
57.1299256977779
20
-9.38017320032171
30
0
41
1
10
57.2352205605719
20
-9.78276401182049
30
0
41
1
10
57.2878679919689
20
-9.96866632184594
30
0
41
1
10
57.3931628547629
20
-10.3082694768267
30
0
41
1
10
57.4458102861598
20
-10.4619710090326
30
0
41
1
10
57.5511051489538
20
-10.7366751351954
30
0
41
1
10
57.6037525803508
20
-10.8576802553783
30
0
41
1
10
57.7090474431446
20
-11.0673652942208
30
0
41
1
10
57.7616948745417
20
-11.1560491440161
30
0
41
1
10
57.8143423059387
20
-11.2291435221175
30
0
0
SPLINE
5
102
100
AcDbEntity
8
1
62
256
6
ByLayer
370
13
48
1
60
0
100
AcDbSpline
70
4
71
3
72
77
73
73
40
0
40
0
40
0
40
0
40
0.0312499999999994
40
0.0312499999999994
40
0.0624999999999988
40
0.0624999999999988
40
0.0937499999999983
40
0.0937499999999983
40
0.101562499999998
40
0.101562499999998
40
0.109374999999998
40
0.124999999999998
40
0.124999999999998
40
0.156249999999998
40
0.156249999999998
40
0.187499999999998
40
0.187499999999998
40
0.218749999999998
40
0.218749999999998
40
0.249999999999998
40
0.249999999999998
40
0.281249999999998
40
0.281249999999998
40
0.312499999999998
40
0.312499999999998
40
0.343749999999998
40
0.343749999999998
40
0.374999999999998
40
0.374999999999998
40
0.406249999999998
40
0.406249999999998
40
0.437499999999998
40
0.437499999999998
40
0.468749999999998
40
0.468749999999998
40
0.499999999999998
40
0.499999999999998
40
0.531249999999998
40
0.531249999999998
40
0.546874999999998
40
0.546874999999998
40
0.554687499999998
40
0.554687499999998
40
0.562499999999998
40
0.562499999999998
40
0.593749999999998
40
0.593749999999998
40
0.624999999999999
40
0.624999999999999
40
0.656249999999999
40
0.656249999999999
40
0.687499999999999
40
0.687499999999999
40
0.718749999999999
40
0.718749999999999
40
0.749999999999999
40
0.749999999999999
40
0.781249999999999
40
0.781249999999999
40
0.812499999999999
40
0.812499999999999
40
0.84375
40
0.84375
40
0.875
40
0.875
40
0.90625
40
0.90625
40
0.9375
40
0.9375
40
0.96875
40
0.96875
40
1
40
1
40
1
40
1
41
1
10
46.9
20
-10.9368752254407
30
0
41
1
10
46.962821380867
20
-11.0650813577685
30
0
41
1
10
47.0256427617339
20
-11.1702195725339
30
0
41
1
10
47.1512855234679
20
-11.3363111905392
30
0
41
1
10
47.2141069043349
20
-11.3972763596616
30
0
41
1
10
47.3397496660688
20
-11.478254899225
30
0
41
1
10
47.4025710469358
20
-11.4982807485851
30
0
41
1
10
47.4810977730195
20
-11.5002969185676
30
0
41
1
10
47.4968031182362
20
-11.4995592868154
30
0
41
1
10
47.5282138086697
20
-11.4957449642598
30
0
41
1
10
47.5753298443199
20
-11.4865103136303
30
0
41
1
10
47.6224458799702
20
-11.4664318875459
30
0
41
1
10
47.7166779512706
20
-11.4110682389652
30
0
41
1
10
47.7794993321376
20
-11.3538495498794
30
0
41
1
10
47.9051420938716
20
-11.1954900768489
30
0
41
1
10
47.9679634747386
20
-11.0943373949455
30
0
41
1
10
48.0936062364725
20
-10.8460105480548
30
0
41
1
10
48.1564276173395
20
-10.6988268319311
30
0
41
1
10
48.2820703790734
20
-10.3578958746796
30
0
41
1
10
48.3448917599404
20
-10.1641432295753
30
0
41
1
10
48.4705345216743
20
-9.73132088804456
30
0
41
1
10
48.5333559025413
20
-9.49225132789439
30
0
41
1
10
48.6589986642753
20
-8.97191397231418
30
0
41
1
10
48.7218200451422
20
-8.69065242530792
30
0
41
1
10
48.8474628068761
20
-8.09082774411434
30
0
41
1
10
48.9102841877431
20
-7.77227647387966
30
0
41
1
10
49.0359269494771
20
-7.10427212362558
30
0
41
1
10
49.098748330344
20
-6.75483499291852
30
0
41
1
10
49.224391092078
20
-6.03253777530364
30
0
41
1
10
49.287212472945
20
-5.6596954899405
30
0
41
1
10
49.4128552346789
20
-4.89863047721647
30
0
41
1
10
49.4756766155459
20
-4.51042498773179
30
0
41
1
10
49.6013193772798
20
-3.72670482192578
30
0
41
1
10
49.6641407581467
20
-3.33120475212354
30
0
41
1
10
49.7897835198807
20
-2.54051023597373
30
0
41
1
10
49.8526049007477
20
-2.14532641934821
30
0
41
1
10
49.9782476624816
20
-1.36203976683001
30
0
41
1
10
50.0410690433486
20
-0.973943091375929
30
0
41
1
10
50.1353011146491
20
-0.401370999360154
30
0
41
1
10
50.1667118050826
20
-0.212100042483769
30
0
41
1
10
50.2138278407328
20
0.0689793462777857
30
0
41
1
10
50.2295331859495
20
0.162837974724141
30
0
41
1
10
50.260943876383
20
0.351726449450979
30
0
41
1
10
50.2766492215997
20
0.446611694449103
30
0
41
1
10
50.3551759476834
20
0.923052655862733
30
0
41
1
10
50.4179973285504
20
1.31069863023333
30
0
41
1
10
50.5436400902844
20
2.09335774309346
30
0
41
1
10
50.6064614711514
20
2.48836491643419
30
0
41
1
10
50.7321042328853
20
3.27902373897567
30
0
41
1
10
50.7949256137523
20
3.67466495082704
30
0
41
1
10
50.9205683754862
20
4.45901483137033
30
0
41
1
10
50.9833897563531
20
4.84770904631071
30
0
41
1
10
51.1090325180871
20
5.6101095605739
30
0
41
1
10
51.171853898954
20
5.98379869855412
30
0
41
1
10
51.2974966606881
20
6.70813549754322
30
0
41
1
10
51.360318041555
20
7.05876533178133
30
0
41
1
10
51.485960803289
20
7.72946514367496
30
0
41
1
10
51.5487821841559
20
8.04951904025191
30
0
41
1
10
51.6744249458898
20
8.65260191989503
30
0
41
1
10
51.7372463267568
20
8.93561882044398
30
0
41
1
10
51.8628890884908
20
9.459646787764
30
0
41
1
10
51.9257104693577
20
9.70065134054104
30
0
41
1
10
52.0513532310916
20
10.1374420302252
30
0
41
1
10
52.1141746119587
20
10.3332277667703
30
0
41
1
10
52.2398173736926
20
10.6782413626961
30
0
41
1
10
52.3026387545596
20
10.8274744070113
30
0
41
1
10
52.4282815162935
20
11.0798414995059
30
0
41
1
10
52.4911028971605
20
11.1829849529083
30
0
41
1
10
52.6167456588944
20
11.3452052980977
30
0
41
1
10
52.6795670397614
20
11.4042940235625
30
0
41
1
10
52.8052098014953
20
11.4816851379691
30
0
41
1
10
52.8680311823623
20
11.5
30
0
41
1
10
52.9308525632293
20
11.5
30
0
0
SPLINE
5
103
100
AcDbEntity
8
1
62
256
6
ByLayer
370
13
48
1
60
0
100
AcDbSpline
70
4
71
3
72
74
73
70
40
0
40
0
40
0
40
0
40
0.03125
40
0.03125
40
0.0625000000000001
40
0.0625000000000001
40
0.0937500000000001
40
0.0937500000000001
40
0.125
40
0.125
40
0.15625
40
0.15625
40
0.1875
40
0.1875
40
0.21875
40
0.21875
40
0.25
40
0.25
40
0.28125
40
0.28125
40
0.3125
40
0.3125
40
0.34375
40
0.34375
40
0.375
40
0.375
40
0.406250000000001
40
0.406250000000001
40
0.437500000000001
40
0.437500000000001
40
0.468750000000001
40
0.468750000000001
40
0.484375000000001
40
0.484375000000001
40
0.500000000000001
40
0.500000000000001
40
0.531250000000001
40
0.531250000000001
40
0.562500000000001
40
0.562500000000001
40
0.593750000000001
40
0.593750000000001
40
0.625000000000001
40
0.625000000000001
40
0.656250000000001
40
0.656250000000001
40
0.687500000000001
40
0.687500000000001
40
0.718750000000001
40
0.718750000000001
40
0.75
40
0.75
40
0.78125
40
0.78125
40
0.8125
40
0.8125
40
0.84375
40
0.84375
40
0.875
40
0.875
40
0.90625
40
0.90625
40
0.9375
40
0.9375
40
0.96875
40
0.96875
40
0.984375
40
0.984375
40
1
40
1
40
1
40
1
41
1
10
52.2718398629862
20
11.5
30
0
41
1
10
52.3295742634336
20
11.5
30
0
41
1
10
52.3873086638811
20
11.4845350698873
30
0
41
1
10
52.5027774647759
20
11.4194457714383
30
0
41
1
10
52.5605118652234
20
11.3698132307306
30
0
41
1
10
52.6759806661182
20
11.2337454405728
30
0
41
1
10
52.7337150665656
20
11.1473022804777
30
0
41
1
10
52.8491838674604
20
10.935816142852
30
0
41
1
10
52.9069182679078
20
10.8107664911088
30
0
41
1
10
53.0223870688027
20
10.5213391291677
30
0
41
1
10
53.0801214692501
20
10.3569569983555
30
0
41
1
10
53.195590270145
20
9.98937565229872
30
0
41
1
10
53.2533246705923
20
9.78617513457846
30
0
41
1
10
53.3687934714873
20
9.34279617109567
30
0
41
1
10
53.4265278719347
20
9.10262004799642
30
0
41
1
10
53.5419966728294
20
8.58844344784518
30
0
41
1
10
53.5997310732769
20
8.31444891405326
30
0
41
1
10
53.7151998741717
20
7.73697893227722
30
0
41
1
10
53.7729342746191
20
7.43351248487554
30
0
41
1
10
53.888403075514
20
6.80240510019442
30
0
41
1
10
53.9461374759615
20
6.47477518469015
30
0
41
1
10
54.0616062768563
20
5.80130551650439
30
0
41
1
10
54.1193406773037
20
5.45547749850718
30
0
41
1
10
54.2348094781985
20
4.75188791074501
30
0
41
1
10
54.292543878646
20
4.39413746565236
30
0
41
1
10
54.4080126795408
20
3.67294299581798
30
0
41
1
10
54.4657470799883
20
3.30950838785034
30
0
41
1
10
54.5812158808831
20
2.58283714878365
30
0
41
1
10
54.6389502813305
20
2.21960751372552
30
0
41
1
10
54.7544190822253
20
1.49864079128994
30
0
41
1
10
54.8121534826727
20
1.14090800368265
30
0
41
1
10
54.8987550833439
20
0.61182383838144
30
0
41
1
10
54.9276222835676
20
0.436708575314015
30
0
41
1
10
54.985356684015
20
0.0894559482260036
30
0
41
1
10
55.0142238842387
20
-0.0818600893955193
30
0
41
1
10
55.1008254849099
20
-0.602608037655017
30
0
41
1
10
55.1585598853574
20
-0.955769361019549
30
0
41
1
10
55.2740286862521
20
-1.66999073005766
30
0
41
1
10
55.3317630866995
20
-2.03104782040106
30
0
41
1
10
55.4472318875944
20
-2.75614457766562
30
0
41
1
10
55.5049662880418
20
-3.12017860861428
30
0
41
1
10
55.6204350889367
20
-3.84561946004337
30
0
41
1
10
55.6781694893841
20
-4.20701803030411
30
0
41
1
10
55.7936382902789
20
-4.92109347687969
30
0
41
1
10
55.8513726907264
20
-5.27375997944628
30
0
41
1
10
55.9668414916212
20
-5.96407382628752
30
0
41
1
10
56.0245758920686
20
-6.30170958924555
30
0
41
1
10
56.1400446929634
20
-6.95579480165091
30
0
41
1
10
56.1977790934109
20
-7.27223269703291
30
0
41
1
10
56.3132478943057
20
-7.87823740763068
30
0
41
1
10
56.3709822947532
20
-8.16779404454007
30
0
41
1
10
56.486451095648
20
-8.71516509961447
30
0
41
1
10
56.5441854960954
20
-8.97297191978484
30
0
41
1
10
56.6596542969902
20
-9.4530569130317
30
0
41
1
10
56.7173886974377
20
-9.67533089050875
30
0
41
1
10
56.8328574983325
20
-10.081828132833
30
0
41
1
10
56.8905918987799
20
-10.2660508948176
30
0
41
1
10
57.0060606996748
20
-10.5952590717705
30
0
41
1
10
57.0637951001223
20
-10.7402474155239
30
0
41
1
10
57.1792639010171
20
-10.9910976512349
30
0
41
1
10
57.2369983014644
20
-11.0969651965726
30
0
41
1
10
57.3524671023592
20
-11.2708504247885
30
0
41
1
10
57.4102015028067
20
-11.3388755196012
30
0
41
1
10
57.5256703037016
20
-11.4393182335967
30
0
41
1
10
57.583404704149
20
-11.4717440052524
30
0
41
1
10
57.6700063048201
20
-11.4959051436939
30
0
41
1
10
57.6988735050439
20
-11.4998841767823
30
0
41
1
10
57.7566079054913
20
-11.5001108367733
30
0
41
1
10
57.7854751057149
20
-11.4963646071657
30
0
41
1
10
57.8143423059386
20
-11.4885497308377
30
0
0
SPLINE
5
104
100
AcDbEntity
8
1
62
256
6
ByLayer
370
13
48
1
60
0
100
AcDbSpline
70
4
71
3
72
74
73
70
40
0
40
0
40
0
40
0
40
0.015625
40
0.015625
40
0.0312499999999999
40
0.0312499999999999
40
0.0624999999999998
40
0.0624999999999998
40
0.0937499999999998
40
0.0937499999999998
40
0.125
40
0.125
40
0.15625
40
0.15625
40
0.1875
40
0.1875
40
0.218749999999999
40
0.218749999999999
40
0.249999999999999
40
0.249999999999999
40
0.281249999999999
40
0.281249999999999
40
0.312499999999999
40
0.312499999999999
40
0.343749999999999
40
0.343749999999999
40
0.374999999999999
40
0.374999999999999
40
0.406249999999999
40
0.406249999999999
40
0.437499999999999
40
0.437499999999999
40
0.468749999999999
40
0.468749999999999
40
0.499999999999999
40
0.499999999999999
40
0.515624999999999
40
0.515624999999999
40
0.531249999999999
40
0.531249999999999
40
0.562499999999999
40
0.562499999999999
40
0.593749999999999
40
0.593749999999999
40
0.624999999999999
40
0.624999999999999
40
0.656249999999999
40
0.656249999999999
40
0.687499999999999
40
0.687499999999999
40
0.71875
40
0.71875
40
0.75
40
0.75
40
0.78125
40
0.78125
40
0.8125
40
0.8125
40
0.84375
40
0.84375
40
0.875
40
0.875
40
0.90625
40
0.90625
40
0.9375
40
0.9375
40
0.96875
40
0.96875
40
1
40
1
40
1
40
1
41
1
10
46.9
20
-11.4885494353646
30
0
41
1
10
46.9288672059083
20
-11.4963644157594
30
0
41
1
10
46.9577344118166
20
-11.5001107451224
30
0
41
1
10
47.015468823633
20
-11.4998842768655
30
0
41
1
10
47.0443360295413
20
-11.4959053407949
30
0
41
1
10
47.1309376472661
20
-11.4717444960015
30
0
41
1
10
47.1886720590826
20
-11.4393189236017
30
0
41
1
10
47.3041408827158
20
-11.3388766097262
30
0
41
1
10
47.3618752945322
20
-11.2708517157684
30
0
41
1
10
47.4773441181653
20
-11.0969668846103
30
0
41
1
10
47.5350785299818
20
-10.9910995354611
30
0
41
1
10
47.6505473536148
20
-10.7402496806956
30
0
41
1
10
47.7082817654314
20
-10.5952615216812
30
0
41
1
10
47.8237505890645
20
-10.2660536959675
30
0
41
1
10
47.881485000881
20
-10.0818311004636
30
0
41
1
10
47.996953824514
20
-9.67533416660163
30
0
41
1
10
48.0546882363305
20
-9.45306033108784
30
0
41
1
10
48.1701570599636
20
-8.97297559213143
30
0
41
1
10
48.2278914717802
20
-8.71516888427439
30
0
41
1
10
48.3433602954132
20
-8.1677980206691
30
0
41
1
10
48.4010947072297
20
-7.87824146290836
30
0
41
1
10
48.5165635308628
20
-7.2722368758653
30
0
41
1
10
48.5742979426793
20
-6.95579902489015
30
0
41
1
10
48.6897667663124
20
-6.30171386700346
30
0
41
1
10
48.7475011781289
20
-5.96407811416557
30
0
41
1
10
48.8629700017619
20
-5.27376425560973
30
0
41
1
10
48.9207044135785
20
-4.9210977312224
30
0
41
1
10
49.0361732372115
20
-4.20702221294096
30
0
41
1
10
49.0939076490281
20
-3.84562359281208
30
0
41
1
10
49.2093764726611
20
-3.12018261854726
30
0
41
1
10
49.2671108844777
20
-2.75614851464823
30
0
41
1
10
49.3825797081108
20
-2.0310515938981
30
0
41
1
10
49.4403141199272
20
-1.66999441303469
30
0
41
1
10
49.5557829435603
20
-0.955772850941258
30
0
41
1
10
49.6135173553768
20
-0.602611425053084
30
0
41
1
10
49.7001189731016
20
-0.0818633179105461
30
0
41
1
10
49.7289861790099
20
0.0894527524572766
30
0
41
1
10
49.7867205908264
20
0.436705411624302
30
0
41
1
10
49.8155877967346
20
0.611820692718169
30
0
41
1
10
49.9021894144594
20
1.140904918117
30
0
41
1
10
49.959923826276
20
1.49863775384242
30
0
41
1
10
50.075392649909
20
2.21960458829167
30
0
41
1
10
50.1331270617256
20
2.58283428724852
30
0
41
1
10
50.2485958853587
20
3.30950566861392
30
0
41
1
10
50.3063302971752
20
3.67294035498148
30
0
41
1
10
50.4217991208082
20
4.39413499383298
30
0
41
1
10
50.4795335326248
20
4.7518855295387
30
0
41
1
10
50.5950023562578
20
5.45547530751554
30
0
41
1
10
50.6527367680743
20
5.80130342510608
30
0
41
1
10
50.7682055917074
20
6.47477329748196
30
0
41
1
10
50.8259400035239
20
6.80240331757139
30
0
41
1
10
50.9414088271569
20
7.4335109119871
30
0
41
1
10
50.9991432389735
20
7.73697746452493
30
0
41
1
10
51.1146120626065
20
8.31444765262444
30
0
41
1
10
51.1723464744231
20
8.58844228759077
30
0
41
1
10
51.2878152980561
20
9.10261908195687
30
0
41
1
10
51.3455497098726
20
9.34279529808603
30
0
41
1
10
51.4610185335057
20
9.78617443599794
30
0
41
1
10
51.5187529453222
20
9.9893750351107
30
0
41
1
10
51.6342217689553
20
10.356956529777
30
0
41
1
10
51.6919561807718
20
10.5213387278042
30
0
41
1
10
51.8074250044049
20
10.8107662085409
30
0
41
1
10
51.8651594162214
20
10.935815911867
30
0
41
1
10
51.9806282398545
20
11.1473021366484
30
0
41
1
10
52.038362651671
20
11.2337453323219
30
0
41
1
10
52.153831475304
20
11.369813178214
30
0
41
1
10
52.2115658871206
20
11.419445739085
30
0
41
1
10
52.3270347107537
20
11.4845350637883
30
0
41
1
10
52.3847691225701
20
11.5
30
0
41
1
10
52.4425035343867
20
11.5
30
0
0
SPLINE
5
105
100
AcDbEntity
8
1
62
256
6
ByLayer
370
13
48
1
60
0
100
AcDbSpline
70
4
71
3
72
8
73
4
40
0
40
0
40
0
40
0
40
1
40
1
40
1
40
1
41
1
10
57.8143423059387
20
-2.32771420400246
30
0
41
1
10
59.2095615372925
20
-1.53609656594077
30
0
41
1
10
60.6047807686463
20
-0.760185080343291
30
0
41
1
10
62
20
0
30
0
0
SPLINE
5
106
100
AcDbEntity
8
1
62
256
6
ByLayer
370
13
48
1
60
0
100
AcDbSpline
70
4
71
3
72
8
73
4
40
0
40
0
40
0
40
0
40
1
40
1
40
1
40
1
41
1
10
57.8143423059387
20
-11.2539310092381
30
0
41
1
10
59.2095615372925
20
-7.50592208019435
30
0
41
1
10
60.6047807686463
20
-3.75457887321696
30
0
41
1
10
62
20
0
30
0
0
SPLINE
5
107
100
AcDbEntity
8
1
62
256
6
ByLayer
370
13
48
1
60
0
100
AcDbSpline
70
4
71
3
72
8
73
4
40
0
40
0
40
0
40
0
40
1
40
1
40
1
40
1
41
1
10
57.8143423059387
20
-10.5139149324546
30
0
41
1
10
59.2095615372925
20
-7.01577714445182
30
0
41
1
10
60.6047807686464
20
-3.51110811453799
30
0
41
1
10
62.0000000000002
20
5.684E-13
30
0
0
SPLINE
5
108
100
AcDbEntity
8
1
62
256
6
ByLayer
370
13
48
1
60
0
100
AcDbSpline
70
4
71
3
72
8
73
4
40
0
40
0
40
0
40
0
40
1
40
1
40
1
40
1
41
1
10
57.8143423059385
20
4.69508222496165
30
0
41
1
10
59.2095615372924
20
3.11540792483677
30
0
41
1
10
60.6047807686463
20
1.55036684987533
30
0
41
1
10
62.0000000000002
20
-2.558E-13
30
0
0
SPLINE
5
109
100
AcDbEntity
8
1
62
256
6
ByLayer
370
13
48
1
60
0
100
AcDbSpline
70
4
71
3
72
8
73
4
40
0
40
0
40
0
40
0
40
1
40
1
40
1
40
1
41
1
10
57.8143423059385
20
6.77936043265547
30
0
41
1
10
59.2095615372924
20
4.50661307352271
30
0
41
1
10
60.6047807686463
20
2.24680650508276
30
0
41
1
10
62.0000000000002
20
-3.695E-13
30
0
0
SPLINE
5
10A
100
AcDbEntity
8
1
62
256
6
ByLayer
370
13
48
1
60
0
100
AcDbSpline
70
4
71
3
72
8
73
4
40
0
40
0
40
0
40
0
40
1
40
1
40
1
40
1
41
1
10
57.8143423059387
20
3.62756734650739
30
0
41
1
10
59.2095615372925
20
2.43360407860106
30
0
41
1
10
60.6047807686463
20
1.22440432632169
30
0
41
1
10
62
20
0
30
0
0
SPLINE
5
10B
100
AcDbEntity
8
1
62
256
6
ByLayer
370
13
48
1
60
0
100
AcDbSpline
70
4
71
3
72
8
73
4
40
0
40
0
40
0
40
0
40
1
40
1
40
1
40
1
41
1
10
57.8143423059387
20
1.27416961690838
30
0
41
1
10
59.2095615372925
20
0.865392643534705
30
0
41
1
10
60.6047807686463
20
0.440665670823762
30
0
41
1
10
62
20
0
30
0
0
SPLINE
5
10C
100
AcDbEntity
8
1
62
256
6
ByLayer
370
13
48
1
60
0
100
AcDbSpline
70
4
71
3
72
8
73
4
40
0
40
0
40
0
40
0
40
1
40
1
40
1
40
1
41
1
10
57.8143423059387
20
-11.4334868391715
30
0
41
1
10
59.2095615372925
20
-7.6206013768801
30
0
41
1
10
60.6047807686463
20
-3.80940571696891
30
0
41
1
10
62
20
0
30
0
0
SPLINE
5
10D
100
AcDbEntity
8
1
62
256
6
ByLayer
370
13
48
1
60
0
100
AcDbSpline
70
4
71
3
72
8
73
4
40
0
40
0
40
0
40
0
40
1
40
1
40
1
40
1
41
1
10
57.8143423059387
20
-11.4398871374462
30
0
41
1
10
59.2095615372925
20
-7.62822983197239
30
0
41
1
10
60.6047807686463
20
-3.81490071079872
30
0
41
1
10
62
20
0
30
0
0
SPLINE
5
10E
100
AcDbEntity
8
1
62
256
6
ByLayer
370
13
48
1
60
0
100
AcDbSpline
70
4
71
3
72
8
73
4
40
0
40
0
40
0
40
0
40
1
40
1
40
1
40
1
41
1
10
57.8143423059385
20
1.21343040693989
30
0
41
1
10
59.2095615372924
20
0.792998152575052
30
0
41
1
10
60.6047807686463
20
0.388517853693827
30
0
41
1
10
62.0000000000002
20
-5.68E-14
30
0
0
SPLINE
5
10F
100
AcDbEntity
8
1
62
256
6
ByLayer
370
13
48
1
60
0
100
AcDbSpline
70
4
71
3
72
8
73
4
40
0
40
0
40
0
40
0
40
1
40
1
40
1
40
1
41
1
10
57.8143423059387
20
-1.13515737586442
30
0
41
1
10
59.2095615372925
20
-0.74080492168784
30
0
41
1
10
60.6047807686463
20
-0.362415861751231
30
0
41
1
10
62
20
0
30
0
0
SPLINE
5
110
100
AcDbEntity
8
1
62
256
6
ByLayer
370
13
48
1
60
0
100
AcDbSpline
70
4
71
3
72
8
73
4
40
0
40
0
40
0
40
0
40
1
40
1
40
1
40
1
41
1
10
57.8143423059387
20
6.82861687664422
30
0
41
1
10
59.2095615372925
20
4.56532136411315
30
0
41
1
10
60.6047807686463
20
2.2890957616429
30
0
41
1
10
62
20
0
30
0
0
SPLINE
5
111
100
AcDbEntity
8
1
62
256
6
ByLayer
370
13
48
1
60
0
100
AcDbSpline
70
4
71
3
72
8
73
4
40
0
40
0
40
0
40
0
40
1
40
1
40
1
40
1
41
1
10
57.8143423059385
20
3.56953805609419
30
0
41
1
10
59.2095615372924
20
2.36443951517654
30
0
41
1
10
60.6047807686463
20
1.17458311813959
30
0
41
1
10
62.0000000000002
20
-1.99E-13
30
0
0
SPLINE
5
112
100
AcDbEntity
8
1
62
256
6
ByLayer
370
13
48
1
60
0
100
AcDbSpline
70
4
71
3
72
8
73
4
40
0
40
0
40
0
40
0
40
1
40
1
40
1
40
1
41
1
10
57.8143423059385
20
-1.19594037741419
30
0
41
1
10
59.2095615372924
20
-0.813251607419659
30
0
41
1
10
60.6047807686463
20
-0.414601276264534
30
0
41
1
10
62.0000000000002
20
5.68E-14
30
0
0
SPLINE
5
113
100
AcDbEntity
8
1
62
256
6
ByLayer
370
13
48
1
60
0
100
AcDbSpline
70
4
71
3
72
8
73
4
40
0
40
0
40
0
40
0
40
1
40
1
40
1
40
1
41
1
10
57.8143423059387
20
4.75078946672684
30
0
41
1
10
59.2095615372925
20
3.18180486039887
30
0
41
1
10
60.6047807686463
20
1.59819445675245
30
0
41
1
10
62
20
0
30
0
0
SPLINE
5
114
100
AcDbEntity
8
1
62
256
6
ByLayer
370
13
48
1
60
0
100
AcDbSpline
70
4
71
3
72
8
73
4
40
0
40
0
40
0
40
0
40
1
40
1
40
1
40
1
41
1
10
57.8143423059387
20
-10.9441372903254
30
0
41
1
10
59.2095615372925
20
-7.30101960612205
30
0
41
1
10
60.6047807686463
20
-3.65294187194814
30
0
41
1
10
62
20
0
30
0
0
SPLINE
5
115
100
AcDbEntity
8
1
62
256
6
ByLayer
370
13
48
1
60
0
100
AcDbSpline
70
4
71
3
72
8
73
4
40
0
40
0
40
0
40
0
40
1
40
1
40
1
40
1
41
1
10
57.8143423059387
20
-11.241200841192
30
0
41
1
10
59.2095615372925
20
-7.49074911307807
30
0
41
1
10
60.6047807686463
20
-3.74364935214413
30
0
41
1
10
62
20
0
30
0
0
SPLINE
5
116
100
AcDbEntity
8
1
62
256
6
ByLayer
370
13
48
1
60
0
100
AcDbSpline
70
4
71
3
72
8
73
4
40
0
40
0
40
0
40
0
40
1
40
1
40
1
40
1
41
1
10
57.8143423059385
20
5.76896198692793
30
0
41
1
10
59.2095615372924
20
3.8320945700934
30
0
41
1
10
60.6047807686463
20
1.90909043656137
30
0
41
1
10
62.0000000000002
20
-3.126E-13
30
0
0
SPLINE
5
117
100
AcDbEntity
8
1
62
256
6
ByLayer
370
13
48
1
60
0
100
AcDbSpline
70
4
71
3
72
8
73
4
40
0
40
0
40
0
40
0
40
1
40
1
40
1
40
1
41
1
10
57.8143423059385
20
0.0087933957661335
30
0
41
1
10
59.2095615372924
20
-0.0101827526258944
30
0
41
1
10
60.6047807686463
20
-0.0131138633735191
30
0
41
1
10
62.0000000000002
20
0
30
0
0
SPLINE
5
118
100
AcDbEntity
8
1
62
256
6
ByLayer
370
13
48
1
60
0
100
AcDbSpline
70
4
71
3
72
8
73
4
40
0
40
0
40
0
40
0
40
1
40
1
40
1
40
1
41
1
10
57.8143423059387
20
2.46442768992299
30
0
41
1
10
59.2095615372925
20
1.65862406156756
30
0
41
1
10
60.6047807686463
20
0.83714092315671
30
0
41
1
10
62
20
0
30
0
0
SPLINE
5
119
100
AcDbEntity
8
1
62
256
6
ByLayer
370
13
48
1
60
0
100
AcDbSpline
70
4
71
3
72
8
73
4
40
0
40
0
40
0
40
0
40
1
40
1
40
1
40
1
41
1
10
57.8143423059387
20
7.7603578765102
30
0
41
1
10
59.2095615372925
20
5.18541295231324
30
0
41
1
10
60.6047807686463
20
2.59860429903813
30
0
41
1
10
62
20
0
30
0
0
SPLINE
5
11A
100
AcDbEntity
8
1
62
256
6
ByLayer
370
13
48
1
60
0
100
AcDbSpline
70
4
71
3
72
8
73
4
40
0
40
0
40
0
40
0
40
1
40
1
40
1
40
1
41
1
10
57.8143423059387
20
-11.4999594247219
30
0
41
1
10
59.2095615372925
20
-7.66659699419503
30
0
41
1
10
60.6047807686463
20
-3.83324360676321
30
0
41
1
10
62
20
0
30
0
0
SPLINE
5
11B
100
AcDbEntity
8
1
62
256
6
ByLayer
370
13
48
1
60
0
100
AcDbSpline
70
4
71
3
72
8
73
4
40
0
40
0
40
0
40
0
40
1
40
1
40
1
40
1
41
1
10
57.8143423059387
20
-9.93738894899769
30
0
41
1
10
59.2095615372925
20
-6.61685075566115
30
0
41
1
10
60.6047807686463
20
-3.30435877955441
30
0
41
1
10
62
20
0
30
0
0
SPLINE
5
11C
100
AcDbEntity
8
1
62
256
6
ByLayer
370
13
48
1
60
0
100
AcDbSpline
70
4
71
3
72
8
73
4
40
0
40
0
40
0
40
0
40
1
40
1
40
1
40
1
41
1
10
57.8143423059385
20
2.40471490173877
30
0
41
1
10
59.2095615372924
20
1.58745295304271
30
0
41
1
10
60.6047807686463
20
0.785874343295518
30
0
41
1
10
62.0000000000002
20
-1.137E-13
30
0
0
SPLINE
5
11D
100
AcDbEntity
8
1
62
256
6
ByLayer
370
13
48
1
60
0
100
AcDbSpline
70
4
71
3
72
8
73
4
40
0
40
0
40
0
40
0
40
1
40
1
40
1
40
1
41
1
10
57.8143423059385
20
-3.55281574575693
30
0
41
1
10
59.2095615372923
20
-2.38380395117235
30
0
41
1
10
60.604780768646
20
-1.19952161731413
30
0
41
1
10
61.9999999999998
20
-1.99E-13
30
0
0
SPLINE
5
11E
100
AcDbEntity
8
1
62
256
6
ByLayer
370
13
48
1
60
0
100
AcDbSpline
70
4
71
3
72
8
73
4
40
0
40
0
40
0
40
0
40
1
40
1
40
1
40
1
41
1
10
57.8143423059387
20
11.4476540155185
30
0
41
1
10
59.2095615372925
20
7.63329850493739
30
0
41
1
10
60.6047807686463
20
3.81738040204641
30
0
41
1
10
62
20
0
30
0
0
SPLINE
5
11F
100
AcDbEntity
8
1
62
256
6
ByLayer
370
13
48
1
60
0
100
AcDbSpline
70
4
71
3
72
8
73
4
40
0
40
0
40
0
40
0
40
1
40
1
40
1
40
1
41
1
10
57.8143423059387
20
10.0070033348984
30
0
41
1
10
59.2095615372925
20
6.67924164787328
30
0
41
1
10
60.6047807686463
20
3.34354462653113
30
0
41
1
10
62
20
8.53E-14
30
0
0
SPLINE
5
120
100
AcDbEntity
8
1
62
256
6
ByLayer
370
13
48
1
60
0
100
AcDbSpline
70
4
71
3
72
8
73
4
40
0
40
0
40
0
40
0
40
1
40
1
40
1
40
1
41
1
10
57.8143423059387
20
5.82173418085409
30
0
41
1
10
59.2095615372925
20
3.89499324984416
30
0
41
1
10
60.6047807686463
20
1.95439814997835
30
0
41
1
10
62
20
0
30
0
0
SPLINE
5
121
100
AcDbEntity
8
1
62
256
6
ByLayer
370
13
48
1
60
0
100
AcDbSpline
70
4
71
3
72
8
73
4
40
0
40
0
40
0
40
0
40
1
40
1
40
1
40
1
41
1
10
57.8143423059385
20
11.4416696015719
30
0
41
1
10
59.2095615372924
20
7.62616573844915
30
0
41
1
10
60.6047807686463
20
3.81224246685889
30
0
41
1
10
62.0000000000002
20
-5.969E-13
30
0
0
SPLINE
5
122
100
AcDbEntity
8
1
62
256
6
ByLayer
370
13
48
1
60
0
100
AcDbSpline
70
4
71
3
72
8
73
4
40
0
40
0
40
0
40
0
40
1
40
1
40
1
40
1
41
1
10
57.8143423059387
20
-10.9252173345238
30
0
41
1
10
59.2095615372925
20
-7.27846908941385
30
0
41
1
10
60.6047807686463
20
-3.63669809143533
30
0
41
1
10
62
20
0
30
0
0
SPLINE
5
123
100
AcDbEntity
8
1
62
256
6
ByLayer
370
13
48
1
60
0
100
AcDbSpline
70
4
71
3
72
8
73
4
40
0
40
0
40
0
40
0
40
1
40
1
40
1
40
1
41
1
10
57.8143423059387
20
-7.65662957232217
30
0
41
1
10
59.2095615372925
20
-5.09244795144156
30
0
41
1
10
60.6047807686463
20
-2.54021577197625
30
0
41
1
10
62
20
0
30
0
0
SPLINE
5
124
100
AcDbEntity
8
1
62
256
6
ByLayer
370
13
48
1
60
0
100
AcDbSpline
70
4
71
3
72
8
73
4
40
0
40
0
40
0
40
0
40
1
40
1
40
1
40
1
41
1
10
57.8143423059387
20
8.60670435763933
30
0
41
1
10
59.2095615372925
20
5.74844456331115
30
0
41
1
10
60.6047807686463
20
2.87951794853836
30
0
41
1
10
62
20
0
30
0
0
SPLINE
5
125
100
AcDbEntity
8
1
62
256
6
ByLayer
370
13
48
1
60
0
100
AcDbSpline
70
4
71
3
72
8
73
4
40
0
40
0
40
0
40
0
40
1
40
1
40
1
40
1
41
1
10
57.8143423059387
20
-6.76514657851499
30
0
41
1
10
59.2095615372925
20
-4.52307271714821
30
0
41
1
10
60.6047807686463
20
-2.2680040658617
30
0
41
1
10
62
20
0
30
0
0
SPLINE
5
126
100
AcDbEntity
8
1
62
256
6
ByLayer
370
13
48
1
60
0
100
AcDbSpline
70
4
71
3
72
8
73
4
40
0
40
0
40
0
40
0
40
1
40
1
40
1
40
1
41
1
10
57.8143423059387
20
-9.27641407522455
30
0
41
1
10
59.2095615372925
20
-6.17479285455605
30
0
41
1
10
60.6047807686463
20
-3.08262777049905
30
0
41
1
10
62
20
0
30
0
0
SPLINE
5
127
100
AcDbEntity
8
1
62
256
6
ByLayer
370
13
48
1
60
0
100
AcDbSpline
70
4
71
3
72
8
73
4
40
0
40
0
40
0
40
0
40
1
40
1
40
1
40
1
41
1
10
57.8143423059387
20
11.2698574990745
30
0
41
1
10
59.2095615372925
20
7.51643223058275
30
0
41
1
10
60.6047807686463
20
3.7597801474692
30
0
41
1
10
62
20
0
30
0
0
SPLINE
5
128
100
AcDbEntity
8
1
62
256
6
ByLayer
370
13
48
1
60
0
100
AcDbSpline
70
4
71
3
72
8
73
4
40
0
40
0
40
0
40
0
40
1
40
1
40
1
40
1
41
1
10
57.8143423059385
20
-4.67902242386981
30
0
41
1
10
59.2095615372924
20
-3.13400517510146
30
0
41
1
10
60.6047807686463
20
-1.57431732849878
30
0
41
1
10
62.0000000000002
20
2.558E-13
30
0
0
SPLINE
5
129
100
AcDbEntity
8
1
62
256
6
ByLayer
370
13
48
1
60
0
100
AcDbSpline
70
4
71
3
72
8
73
4
40
0
40
0
40
0
40
0
40
1
40
1
40
1
40
1
41
1
10
57.8143423059385
20
10.5210277956302
30
0
41
1
10
59.2095615372925
20
7.00754044862919
30
0
41
1
10
60.6047807686466
20
3.50050048145079
30
0
41
1
10
62.0000000000007
20
-1.7053E-12
30
0
0
SPLINE
5
12A
100
AcDbEntity
8
1
62
256
6
ByLayer
370
13
48
1
60
0
100
AcDbSpline
70
4
71
3
72
8
73
4
40
0
40
0
40
0
40
0
40
1
40
1
40
1
40
1
41
1
10
57.8143423059387
20
10.5455470239665
30
0
41
1
10
59.2095615372925
20
7.03676468541295
30
0
41
1
10
60.6047807686463
20
3.52155153292469
30
0
41
1
10
62
20
0
30
0
0
SPLINE
5
12B
100
AcDbEntity
8
1
62
256
6
ByLayer
370
13
48
1
60
0
100
AcDbSpline
70
4
71
3
72
8
73
4
40
0
40
0
40
0
40
0
40
1
40
1
40
1
40
1
41
1
10
57.8143423059387
20
-4.62314480282211
30
0
41
1
10
59.2095615372925
20
-3.06740516608147
30
0
41
1
10
60.6047807686463
20
-1.52634344201687
30
0
41
1
10
62
20
0
30
0
0
SPLINE
5
12C
100
AcDbEntity
8
1
62
256
6
ByLayer
370
13
48
1
60
0
100
AcDbSpline
70
4
71
3
72
8
73
4
40
0
40
0
40
0
40
0
40
1
40
1
40
1
40
1
41
1
10
57.8143423059387
20
-10.489013382971
30
0
41
1
10
59.2095615372925
20
-6.98609722270294
30
0
41
1
10
60.6047807686463
20
-3.48972882018484
30
0
41
1
10
62
20
0
30
0
0
SPLINE
5
12D
100
AcDbEntity
8
1
62
256
6
ByLayer
370
13
48
1
60
0
100
AcDbSpline
70
4
71
3
72
8
73
4
40
0
40
0
40
0
40
0
40
1
40
1
40
1
40
1
41
1
10
57.8143423059385
20
11.25753648879
30
0
41
1
10
59.2095615372923
20
7.50174693473971
30
0
41
1
10
60.604780768646
20
3.74920190992714
30
0
41
1
10
61.9999999999998
20
6.253E-13
30
0
0
SPLINE
5
12E
100
AcDbEntity
8
1
62
256
6
ByLayer
370
13
48
1
60
0
100
AcDbSpline
70
4
71
3
72
8
73
4
40
0
40
0
40
0
40
0
40
1
40
1
40
1
40
1
41
1
10
57.8143423059385
20
-2.38751409346923
30
0
41
1
10
59.2095615372924
20
-1.60737148966183
30
0
41
1
10
60.6047807686463
20
-0.8115264412518
30
0
41
1
10
62.0000000000002
20
1.421E-13
30
0
0
SPLINE
5
12F
100
AcDbEntity
8
1
62
256
6
ByLayer
370
13
48
1
60
0
100
AcDbSpline
70
4
71
3
72
8
73
4
40
0
40
0
40
0
40
0
40
1
40
1
40
1
40
1
41
1
10
57.8143423059387
20
-9.31239396068602
30
0
41
1
10
59.2095615372925
20
-6.21767694037339
30
0
41
1
10
60.6047807686463
20
-3.11351840092331
30
0
41
1
10
62
20
0
30
0
0
SPLINE
5
130
100
AcDbEntity
8
1
62
256
6
ByLayer
370
13
48
1
60
0
100
AcDbSpline
70
4
71
3
72
8
73
4
40
0
40
0
40
0
40
0
40
1
40
1
40
1
40
1
41
1
10
57.8143423059387
20
9.35834317344859
30
0
41
1
10
59.2095615372925
20
6.24822063058531
30
0
41
1
10
60.6047807686463
20
3.12874555297179
30
0
41
1
10
62
20
0
30
0
0
SPLINE
5
131
100
AcDbEntity
8
1
62
256
6
ByLayer
370
13
48
1
60
0
100
AcDbSpline
70
4
71
3
72
8
73
4
40
0
40
0
40
0
40
0
40
1
40
1
40
1
40
1
41
1
10
57.8143423059387
20
-6.71564395598767
30
0
41
1
10
59.2095615372925
20
-4.46407100868197
30
0
41
1
10
60.6047807686463
20
-2.22550345203513
30
0
41
1
10
62
20
0
30
0
0
SPLINE
5
132
100
AcDbEntity
8
1
62
256
6
ByLayer
370
13
48
1
60
0
100
AcDbSpline
70
4
71
3
72
8
73
4
40
0
40
0
40
0
40
0
40
1
40
1
40
1
40
1
41
1
10
57.8143423059387
20
-8.51336209003941
30
0
41
1
10
59.2095615372925
20
-5.66478789836597
30
0
41
1
10
60.6047807686463
20
-2.82697570791814
30
0
41
1
10
62
20
0
30
0
0
SPLINE
5
133
100
AcDbEntity
8
1
62
256
6
ByLayer
370
13
48
1
60
0
100
AcDbSpline
70
4
71
3
72
8
73
4
40
0
40
0
40
0
40
0
40
1
40
1
40
1
40
1
41
1
10
57.8143423059385
20
8.56606080710276
30
0
41
1
10
59.2095615372924
20
5.70000189911721
30
0
41
1
10
60.6047807686463
20
2.8446233155324
30
0
41
1
10
62.0000000000002
20
-4.547E-13
30
0
0
SPLINE
5
134
100
AcDbEntity
8
1
62
256
6
ByLayer
370
13
48
1
60
0
100
AcDbSpline
70
4
71
3
72
8
73
4
40
0
40
0
40
0
40
0
40
1
40
1
40
1
40
1
41
1
10
57.8143423059385
20
-5.75374141618218
30
0
41
1
10
59.2095615372924
20
-3.84971999158597
30
0
41
1
10
60.6047807686463
20
-1.93178934498491
30
0
41
1
10
62.0000000000002
20
3.126E-13
30
0
0
SPLINE
5
135
100
AcDbEntity
8
1
62
256
6
ByLayer
370
13
48
1
60
0
100
AcDbSpline
70
4
71
3
72
8
73
4
40
0
40
0
40
0
40
0
40
1
40
1
40
1
40
1
41
1
10
57.8143423059387
20
-7.70210846832777
30
0
41
1
10
59.2095615372925
20
-5.14665381825213
30
0
41
1
10
60.6047807686463
20
-2.57926180424104
30
0
41
1
10
62
20
0
30
0
0
SPLINE
5
136
100
AcDbEntity
8
1
62
256
6
ByLayer
370
13
48
1
60
0
100
AcDbSpline
70
4
71
3
72
8
73
4
40
0
40
0
40
0
40
0
40
1
40
1
40
1
40
1
41
1
10
57.8143423059387
20
10.9680481377746
30
0
41
1
10
59.2095615372925
20
7.31685558086104
30
0
41
1
10
60.6047807686463
20
3.66080749469094
30
0
41
1
10
62.0000000000001
20
-5.68E-14
30
0
0
SPLINE
5
137
100
AcDbEntity
8
1
62
256
6
ByLayer
370
13
48
1
60
0
100
AcDbSpline
70
4
71
3
72
8
73
4
40
0
40
0
40
0
40
0
40
1
40
1
40
1
40
1
41
1
10
57.8143423059385
20
9.97675671331774
30
0
41
1
10
59.2095615372923
20
6.64319098515108
30
0
41
1
10
60.604780768646
20
3.31757630570834
30
0
41
1
10
61.9999999999998
20
5.4E-13
30
0
0
SPLINE
5
138
100
AcDbEntity
8
1
62
256
6
ByLayer
370
13
48
1
60
0
100
AcDbSpline
70
4
71
3
72
8
73
4
40
0
40
0
40
0
40
0
40
1
40
1
40
1
40
1
41
1
10
57.8143423059385
20
10.9495261108201
30
0
41
1
10
59.2095615372924
20
7.29477935178863
30
0
41
1
10
60.6047807686463
20
3.64490535709251
30
0
41
1
10
62.0000000000002
20
-5.684E-13
30
0
0
SPLINE
5
139
100
AcDbEntity
8
1
62
256
6
ByLayer
370
13
48
1
60
0
100
AcDbSpline
70
4
71
3
72
8
73
4
40
0
40
0
40
0
40
0
40
1
40
1
40
1
40
1
41
1
10
57.8143423059387
20
-3.49465700281724
30
0
41
1
10
59.2095615372925
20
-2.31448509450379
30
0
41
1
10
60.6047807686463
20
-1.14958926730665
30
0
41
1
10
62
20
0
30
0
0
SPLINE
5
13A
100
AcDbEntity
8
1
62
256
6
ByLayer
370
13
48
1
60
0
100
AcDbSpline
70
4
71
3
72
8
73
4
40
0
40
0
40
0
40
0
40
1
40
1
40
1
40
1
41
1
10
57.8143423059387
20
-5.70075979106105
30
0
41
1
10
59.2095615372925
20
-3.78657169277159
30
0
41
1
10
60.6047807686463
20
-1.88630182383557
30
0
41
1
10
62
20
0
30
0
0
SPLINE
5
13B
100
AcDbEntity
8
1
62
256
6
ByLayer
370
13
48
1
60
0
100
AcDbSpline
70
4
71
3
72
8
73
4
40
0
40
0
40
0
40
0
40
1
40
1
40
1
40
1
41
1
10
57.8143423059387
20
-9.9679980769865
30
0
41
1
10
59.2095615372925
20
-6.65333348634888
30
0
41
1
10
60.6047807686463
20
-3.33063833125902
30
0
41
1
10
62
20
0
30
0
0
SPLINE
5
13C
100
AcDbEntity
8
1
62
256
6
ByLayer
370
13
48
1
60
0
100
AcDbSpline
70
4
71
3
72
8
73
4
40
0
40
0
40
0
40
0
40
1
40
1
40
1
40
1
41
1
10
57.8143423059387
20
-8.55431681244357
30
0
41
1
10
59.2095615372925
20
-5.7136014453709
30
0
41
1
10
60.6047807686463
20
-2.86213749839325
30
0
41
1
10
62
20
0
30
0
0
SPLINE
5
13D
100
AcDbEntity
8
1
62
256
6
ByLayer
370
13
48
1
60
0
100
AcDbSpline
70
4
71
3
72
8
73
4
40
0
40
0
40
0
40
0
40
1
40
1
40
1
40
1
41
1
10
57.8143423059385
20
7.71515919745303
30
0
41
1
10
59.2095615372924
20
5.13154107343783
30
0
41
1
10
60.6047807686463
20
2.55979884781087
30
0
41
1
10
62.0000000000002
20
-3.979E-13
30
0
0
SPLINE
5
13E
100
AcDbEntity
8
1
62
256
6
ByLayer
370
13
48
1
60
0
100
AcDbSpline
70
4
71
3
72
8
73
4
40
0
40
0
40
0
40
0
40
1
40
1
40
1
40
1
41
1
10
57.8143423059385
20
9.32270199065707
30
0
41
1
10
59.2095615372924
20
6.20574024128234
30
0
41
1
10
60.6047807686463
20
3.09814571666334
30
0
41
1
10
62.0000000000002
20
-4.832E-13
30
0
0
SPLINE
5
13F
100
AcDbEntity
8
1
62
256
6
ByLayer
370
13
48
1
60
0
100
AcDbSpline
70
4
71
3
72
8
73
4
40
0
40
0
40
0
40
0
40
1
40
1
40
1
40
1
41
1
10
57.8143423059387
20
0.0698906568475479
30
0
41
1
10
59.2095615372925
20
0.062638496075067
30
0
41
1
10
60.6047807686463
20
0.0393413595321022
30
0
41
1
10
62
20
0
30
0
0
LINE
5
7D
100
AcDbEntity
8
81
62
256
6
ByLayer
370
18
48
1
60
0
100
AcDbLine
10
62
20
0
30
0
11
67
21
0
31
0
39
0
210
0
220
0
230
1
0
LINE
5
7E
100
AcDbEntity
8
4
62
256
6
ByLayer
370
18
48
0.05
60
0
100
AcDbLine
10
-5
20
0
30
0
11
67
21
0
31
0
39
0
210
0
220
0
230
1
0
LINE
5
80
100
AcDbEntity
8
SK4
62
256
6
ByLayer
370
18
48
0.05
60
0
100
AcDbLine
10
-61
20
0
30
0
11
67
21
0
31
0
39
0
210
0
220
0
230
1
0
LINE
5
82
100
AcDbEntity
8
80
62
256
6
ByLayer
370
18
48
1
60
0
100
AcDbLine
10
0
20
0
30
0
11
-5
21
0
31
0
39
0
210
0
220
0
230
1
0
LINE
5
83
100
AcDbEntity
8
1
62
256
6
ByLayer
370
18
48
1
60
0
100
AcDbLine
10
57.814342
20
11.5
30
0
11
57.814342
21
11.134849
31
0
39
0
210
0
220
0
230
1
0
LINE
5
84
100
AcDbEntity
8
1
62
256
6
ByLayer
370
18
48
1
60
0
100
AcDbLine
10
57.814342
20
-11.5
30
0
11
57.814342
21
-1.640854
31
0
39
0
210
0
220
0
230
1
0
LINE
5
85
100
AcDbEntity
8
1
62
256
6
ByLayer
370
18
48
1
60
0
100
AcDbLine
10
15
20
-6.340978
30
0
11
15
21
10.597845
31
0
39
0
210
0
220
0
230
1
0
LINE
5
86
100
AcDbEntity
8
1
62
256
6
ByLayer
370
18
48
1
60
0
100
AcDbLine
10
0
20
-15
30
0
11
0
21
15
31
0
39
0
210
0
220
0
230
1
0
LINE
5
87
100
AcDbEntity
8
1
62
256
6
ByLayer
370
18
48
1
60
0
100
AcDbLine
10
3
20
-15
30
0
11
3
21
15
31
0
39
0
210
0
220
0
230
1
0
LINE
5
88
100
AcDbEntity
8
SK1
62
256
6
ByLayer
370
13
48
1
60
0
100
AcDbLine
10
-15.162813
20
-7.237775
30
0
11
-15.162813
21
7.237775
31
0
39
0
210
0
220
0
230
1
0
LINE
5
8A
100
AcDbEntity
8
SK1
62
256
6
ByLayer
370
13
48
1
60
0
100
AcDbLine
10
-51.386002
20
5.000227
30
0
11
-51.386002
21
-5.000227
31
0
39
0
210
0
220
0
230
1
0
LINE
5
8B
100
AcDbEntity
8
SK1
62
256
6
ByLayer
370
18
48
1
60
0
100
AcDbLine
10
-56
20
-11.5
30
0
11
-56
21
11.5
31
0
39
0
210
0
220
0
230
1
0
LINE
5
8C
100
AcDbEntity
8
SK1
62
256
6
ByLayer
370
13
48
1
60
0
100
AcDbLine
10
-52.500329
20
-3.620591
30
0
11
-52.500329
21
3.620591
31
0
39
0
210
0
220
0
230
1
0
LINE
5
8D
100
AcDbEntity
8
SK1
62
256
6
ByLayer
370
13
48
1
60
0
100
AcDbLine
10
-14.015776
20
6.592429
30
0
11
-14.015776
21
-6.592429
31
0
39
0
210
0
220
0
230
1
0
LINE
5
8E
100
AcDbEntity
8
SK1
62
256
6
ByLayer
370
18
48
1
60
0
100
AcDbLine
10
-55
20
-12.5
30
0
11
-55
21
12.5
31
0
39
0
210
0
220
0
230
1
0
LINE
5
8F
100
AcDbEntity
8
1
62
256
6
ByLayer
370
18
48
1
60
0
100
AcDbLine
10
62
20
0
30
0
11
57.814342
21
11.5
31
0
39
0
210
0
220
0
230
1
0
LINE
5
90
100
AcDbEntity
8
1
62
256
6
ByLayer
370
18
48
1
60
0
100
AcDbLine
10
57.814342
20
-11.5
30
0
11
62
21
0
31
0
39
0
210
0
220
0
230
1
0
LINE
5
91
100
AcDbEntity
8
1
62
256
6
ByLayer
370
18
48
1
60
0
100
AcDbLine
10
8.423286
20
13.32782
30
0
11
3
21
15
31
0
39
0
210
0
220
0
230
1
0
LINE
5
92
100
AcDbEntity
8
1
62
256
6
ByLayer
370
18
48
1
60
0
100
AcDbLine
10
3
20
-15
30
0
11
8.423286
21
-13.32782
31
0
39
0
210
0
220
0
230
1
0
LINE
5
93
100
AcDbEntity
8
1
62
256
6
ByLayer
370
18
48
1
60
0
100
AcDbLine
10
0
20
-15
30
0
11
3
21
-15
31
0
39
0
210
0
220
0
230
1
0
LINE
5
94
100
AcDbEntity
8
1
62
256
6
ByLayer
370
18
48
1
60
0
100
AcDbLine
10
3
20
15
30
0
11
0
21
15
31
0
39
0
210
0
220
0
230
1
0
LINE
5
95
100
AcDbEntity
8
1
62
256
6
ByLayer
370
18
48
1
60
0
100
AcDbLine
10
57.814342
20
11.5
30
0
11
46.9
21
11.5
31
0
39
0
210
0
220
0
230
1
0
LINE
5
96
100
AcDbEntity
8
1
62
256
6
ByLayer
370
18
48
1
60
0
100
AcDbLine
10
46.9
20
-11.5
30
0
11
57.814342
21
-11.5
31
0
39
0
210
0
220
0
230
1
0
LINE
5
97
100
AcDbEntity
8
1
62
256
6
ByLayer
370
18
48
1
60
0
100
AcDbLine
10
62
20
0
30
0
11
57.814342
21
11.5
31
0
39
0
210
0
220
0
230
1
0
LINE
5
98
100
AcDbEntity
8
1
62
256
6
ByLayer
370
18
48
1
60
0
100
AcDbLine
10
57.814342
20
-11.5
30
0
11
62
21
0
31
0
39
0
210
0
220
0
230
1
0
LINE
5
99
100
AcDbEntity
8
SK1
62
256
6
ByLayer
370
18
48
1
60
0
100
AcDbLine
10
-56
20
-11.5
30
0
11
-55
21
-12.5
31
0
39
0
210
0
220
0
230
1
0
LINE
5
9A
100
AcDbEntity
8
SK1
62
256
6
ByLayer
370
18
48
1
60
0
100
AcDbLine
10
-55
20
12.5
30
0
11
-56
21
11.5
31
0
39
0
210
0
220
0
230
1
0
LINE
5
9B
100
AcDbEntity
8
SK1
62
256
6
ByLayer
370
18
48
1
60
0
100
AcDbLine
10
-55
20
-12.5
30
0
11
0
21
-12.5
31
0
39
0
210
0
220
0
230
1
0
LINE
5
9C
100
AcDbEntity
8
SK1
62
256
6
ByLayer
370
18
48
1
60
0
100
AcDbLine
10
0
20
12.5
30
0
11
-55
21
12.5
31
0
39
0
210
0
220
0
230
1
0
LINE
5
9D
100
AcDbEntity
8
1
62
256
6
ByLayer
370
18
48
1
60
0
100
AcDbLine
10
57.814342
20
11.5
30
0
11
57.814342
21
-11.5
31
0
39
0
210
0
220
0
230
1
0
LINE
5
9E
100
AcDbEntity
8
1
62
256
6
ByLayer
370
18
48
1
60
0
100
AcDbLine
10
57.814342
20
11.5
30
0
11
57.814342
21
-11.5
31
0
39
0
210
0
220
0
230
1
0
LINE
5
9F
100
AcDbEntity
8
1
62
256
6
ByLayer
370
18
48
1
60
0
100
AcDbLine
10
57.814342
20
11.5
30
0
11
57.814342
21
-11.5
31
0
39
0
210
0
220
0
230
1
0
LINE
5
A0
100
AcDbEntity
8
1
62
256
6
ByLayer
370
18
48
1
60
0
100
AcDbLine
10
46.9
20
11.5
30
0
11
46.9
21
-11.5
31
0
39
0
210
0
220
0
230
1
0
LINE
5
A1
100
AcDbEntity
8
1
62
256
6
ByLayer
370
18
48
1
60
0
100
AcDbLine
10
46.9
20
11.5
30
0
11
46.9
21
-11.5
31
0
39
0
210
0
220
0
230
1
0
LINE
5
A2
100
AcDbEntity
8
1
62
256
6
ByLayer
370
18
48
1
60
0
100
AcDbLine
10
57.814342
20
11.5
30
0
11
57.814342
21
-11.5
31
0
39
0
210
0
220
0
230
1
0
LINE
5
A3
100
AcDbEntity
8
1
62
256
6
ByLayer
370
18
48
1
60
0
100
AcDbLine
10
46.9
20
11.5
30
0
11
46.9
21
-11.5
31
0
39
0
210
0
220
0
230
1
0
LINE
5
A4
100
AcDbEntity
8
1
62
256
6
ByLayer
370
18
48
1
60
0
100
AcDbLine
10
57.814342
20
11.5
30
0
11
57.814342
21
-11.5
31
0
39
0
210
0
220
0
230
1
0
LINE
5
A5
100
AcDbEntity
8
SK2
62
256
6
ByLayer
370
13
48
1
60
0
100
AcDbLine
10
-62.5
20
-12.5
30
0
11
-62.5
21
41.524569
31
0
39
0
210
0
220
0
230
1
0
LINE
5
A7
100
AcDbEntity
8
SK2
62
256
6
ByLayer
370
13
48
1
60
0
100
AcDbLine
10
-57.5875
20
12.5
30
0
11
-64.5
21
12.5
31
0
39
0
210
0
220
0
230
1
0
LINE
5
A8
100
AcDbEntity
8
SK2
62
256
6
ByLayer
370
13
48
1
60
0
100
AcDbLine
10
-57.5875
20
-12.5
30
0
11
-64.5
21
-12.5
31
0
39
0
210
0
220
0
230
1
0
LINE
5
A9
100
AcDbEntity
8
1
62
256
6
ByLayer
370
18
48
1
60
1
100
AcDbLine
10
-62.5
20
12.5
30
0
11
-62.039216
21
9.000002
31
0
39
0
210
0
220
0
230
1
0
LINE
5
AA
100
AcDbEntity
8
1
62
256
6
ByLayer
370
18
48
1
60
1
100
AcDbLine
10
-62.039216
20
9.000002
30
0
11
-62.960784
21
8.999998
31
0
39
0
210
0
220
0
230
1
0
LINE
5
AB
100
AcDbEntity
8
1
62
256
6
ByLayer
370
18
48
1
60
1
100
AcDbLine
10
-62.960784
20
8.999998
30
0
11
-62.5
21
12.5
31
0
39
0
210
0
220
0
230
1
0
LINE
5
AC
100
AcDbEntity
8
1
62
256
6
ByLayer
370
18
48
1
60
1
100
AcDbLine
10
-62.5
20
-12.5
30
0
11
-62.960784
21
-9.000002
31
0
39
0
210
0
220
0
230
1
0
LINE
5
AD
100
AcDbEntity
8
1
62
256
6
ByLayer
370
18
48
1
60
1
100
AcDbLine
10
-62.960784
20
-9.000002
30
0
11
-62.039216
21
-8.999998
31
0
39
0
210
0
220
0
230
1
0
LINE
5
AE
100
AcDbEntity
8
1
62
256
6
ByLayer
370
18
48
1
60
1
100
AcDbLine
10
-62.039216
20
-8.999998
30
0
11
-62.5
21
-12.5
31
0
39
0
210
0
220
0
230
1
0
LINE
5
AF
100
AcDbEntity
8
2
62
256
6
ByLayer
370
13
48
1
60
0
100
AcDbLine
10
69.5
20
-11.5
30
0
11
69.5
21
40.524569
31
0
39
0
210
0
220
0
230
1
0
LINE
5
B1
100
AcDbEntity
8
2
62
256
6
ByLayer
370
13
48
1
60
0
100
AcDbLine
10
59.401842
20
11.5
30
0
11
71.5
21
11.5
31
0
39
0
210
0
220
0
230
1
0
LINE
5
B2
100
AcDbEntity
8
2
62
256
6
ByLayer
370
13
48
1
60
0
100
AcDbLine
10
59.401842
20
-11.5
30
0
11
71.5
21
-11.5
31
0
39
0
210
0
220
0
230
1
0
LINE
5
B3
100
AcDbEntity
8
1
62
256
6
ByLayer
370
18
48
1
60
1
100
AcDbLine
10
69.5
20
11.5
30
0
11
69.960784
21
8.000002
31
0
39
0
210
0
220
0
230
1
0
LINE
5
B4
100
AcDbEntity
8
1
62
256
6
ByLayer
370
18
48
1
60
1
100
AcDbLine
10
69.960784
20
8.000002
30
0
11
69.039216
21
7.999998
31
0
39
0
210
0
220
0
230
1
0
LINE
5
B5
100
AcDbEntity
8
1
62
256
6
ByLayer
370
18
48
1
60
1
100
AcDbLine
10
69.039216
20
7.999998
30
0
11
69.5
21
11.5
31
0
39
0
210
0
220
0
230
1
0
LINE
5
B6
100
AcDbEntity
8
1
62
256
6
ByLayer
370
18
48
1
60
1
100
AcDbLine
10
69.5
20
-11.5
30
0
11
69.039216
21
-8.000002
31
0
39
0
210
0
220
0
230
1
0
LINE
5
B7
100
AcDbEntity
8
1
62
256
6
ByLayer
370
18
48
1
60
1
100
AcDbLine
10
69.039216
20
-8.000002
30
0
11
69.960784
21
-7.999998
31
0
39
0
210
0
220
0
230
1
0
LINE
5
B8
100
AcDbEntity
8
1
62
256
6
ByLayer
370
18
48
1
60
1
100
AcDbLine
10
69.960784
20
-7.999998
30
0
11
69.5
21
-11.5
31
0
39
0
210
0
220
0
230
1
0
LINE
5
B9
100
AcDbEntity
8
SK2
62
256
6
ByLayer
370
13
48
1
60
0
100
AcDbLine
10
62.542957
20
-1.491762
30
0
11
69.182423
21
-19.733545
31
0
39
0
210
0
220
0
230
1
0
LINE
5
BA
100
AcDbEntity
8
SK2
62
256
6
ByLayer
370
13
48
1
60
0
100
AcDbLine
10
62.542957
20
1.491762
30
0
11
69.182423
21
19.733545
31
0
39
0
210
0
220
0
230
1
0
LINE
5
BB
100
AcDbEntity
8
1
62
256
6
ByLayer
370
18
48
1
60
1
100
AcDbLine
10
68.498383
20
-17.85416
30
0
11
71.551575
21
-16.082064
31
0
39
0
210
0
220
0
230
1
0
LINE
5
BC
100
AcDbEntity
8
1
62
256
6
ByLayer
370
18
48
1
60
1
100
AcDbLine
10
71.551575
20
-16.082064
30
0
11
71.906196
21
-16.93267
31
0
39
0
210
0
220
0
230
1
0
LINE
5
BD
100
AcDbEntity
8
1
62
256
6
ByLayer
370
18
48
1
60
1
100
AcDbLine
10
71.906196
20
-16.93267
30
0
11
68.498383
21
-17.85416
31
0
39
0
210
0
220
0
230
1
0
LINE
5
BE
100
AcDbEntity
8
1
62
256
6
ByLayer
370
18
48
1
60
1
100
AcDbLine
10
68.498383
20
17.85416
30
0
11
71.906193
21
16.932671
31
0
39
0
210
0
220
0
230
1
0
LINE
5
BF
100
AcDbEntity
8
1
62
256
6
ByLayer
370
18
48
1
60
1
100
AcDbLine
10
71.906193
20
16.932671
30
0
11
71.551579
21
16.082063
31
0
39
0
210
0
220
0
230
1
0
LINE
5
C0
100
AcDbEntity
8
1
62
256
6
ByLayer
370
18
48
1
60
1
100
AcDbLine
10
71.551579
20
16.082063
30
0
11
68.498383
21
17.85416
31
0
39
0
210
0
220
0
230
1
0
LINE
5
144
100
AcDbEntity
8
1
62
256
6
ByLayer
370
18
48
1
60
1
100
AcDbLine
10
-62.5
20
12.5
30
0
11
-62.039216
21
9.000002
31
0
39
0
210
0
220
0
230
1
0
LINE
5
145
100
AcDbEntity
8
1
62
256
6
ByLayer
370
18
48
1
60
1
100
AcDbLine
10
-62.039216
20
9.000002
30
0
11
-62.960784
21
8.999998
31
0
39
0
210
0
220
0
230
1
0
LINE
5
146
100
AcDbEntity
8
1
62
256
6
ByLayer
370
18
48
1
60
1
100
AcDbLine
10
-62.960784
20
8.999998
30
0
11
-62.5
21
12.5
31
0
39
0
210
0
220
0
230
1
0
LINE
5
148
100
AcDbEntity
8
1
62
256
6
ByLayer
370
18
48
1
60
1
100
AcDbLine
10
-62.5
20
-12.5
30
0
11
-62.960784
21
-9.000002
31
0
39
0
210
0
220
0
230
1
0
LINE
5
149
100
AcDbEntity
8
1
62
256
6
ByLayer
370
18
48
1
60
1
100
AcDbLine
10
-62.960784
20
-9.000002
30
0
11
-62.039216
21
-8.999998
31
0
39
0
210
0
220
0
230
1
0
LINE
5
14A
100
AcDbEntity
8
1
62
256
6
ByLayer
370
18
48
1
60
1
100
AcDbLine
10
-62.039216
20
-8.999998
30
0
11
-62.5
21
-12.5
31
0
39
0
210
0
220
0
230
1
0
LINE
5
14E
100
AcDbEntity
8
1
62
256
6
ByLayer
370
18
48
1
60
1
100
AcDbLine
10
69.5
20
11.5
30
0
11
69.960784
21
8.000002
31
0
39
0
210
0
220
0
230
1
0
LINE
5
14F
100
AcDbEntity
8
1
62
256
6
ByLayer
370
18
48
1
60
1
100
AcDbLine
10
69.960784
20
8.000002
30
0
11
69.039216
21
7.999998
31
0
39
0
210
0
220
0
230
1
0
LINE
5
150
100
AcDbEntity
8
1
62
256
6
ByLayer
370
18
48
1
60
1
100
AcDbLine
10
69.039216
20
7.999998
30
0
11
69.5
21
11.5
31
0
39
0
210
0
220
0
230
1
0
LINE
5
152
100
AcDbEntity
8
1
62
256
6
ByLayer
370
18
48
1
60
1
100
AcDbLine
10
69.5
20
-11.5
30
0
11
69.039216
21
-8.000002
31
0
39
0
210
0
220
0
230
1
0
LINE
5
153
100
AcDbEntity
8
1
62
256
6
ByLayer
370
18
48
1
60
1
100
AcDbLine
10
69.039216
20
-8.000002
30
0
11
69.960784
21
-7.999998
31
0
39
0
210
0
220
0
230
1
0
LINE
5
154
100
AcDbEntity
8
1
62
256
6
ByLayer
370
18
48
1
60
1
100
AcDbLine
10
69.960784
20
-7.999998
30
0
11
69.5
21
-11.5
31
0
39
0
210
0
220
0
230
1
0
LINE
5
157
100
AcDbEntity
8
1
62
256
6
ByLayer
370
18
48
1
60
1
100
AcDbLine
10
68.498383
20
-17.85416
30
0
11
71.551575
21
-16.082064
31
0
39
0
210
0
220
0
230
1
0
LINE
5
158
100
AcDbEntity
8
1
62
256
6
ByLayer
370
18
48
1
60
1
100
AcDbLine
10
71.551575
20
-16.082064
30
0
11
71.906196
21
-16.93267
31
0
39
0
210
0
220
0
230
1
0
LINE
5
159
100
AcDbEntity
8
1
62
256
6
ByLayer
370
18
48
1
60
1
100
AcDbLine
10
71.906196
20
-16.93267
30
0
11
68.498383
21
-17.85416
31
0
39
0
210
0
220
0
230
1
0
LINE
5
15B
100
AcDbEntity
8
1
62
256
6
ByLayer
370
18
48
1
60
1
100
AcDbLine
10
68.498383
20
17.85416
30
0
11
71.906193
21
16.932671
31
0
39
0
210
0
220
0
230
1
0
LINE
5
15C
100
AcDbEntity
8
1
62
256
6
ByLayer
370
18
48
1
60
1
100
AcDbLine
10
71.906193
20
16.932671
30
0
11
71.551579
21
16.082063
31
0
39
0
210
0
220
0
230
1
0
LINE
5
15D
100
AcDbEntity
8
1
62
256
6
ByLayer
370
18
48
1
60
1
100
AcDbLine
10
71.551579
20
16.082063
30
0
11
68.498383
21
17.85416
31
0
39
0
210
0
220
0
230
1
0
MTEXT
5
140
100
AcDbEntity
8
SK2
62
256
6
ByLayer
370
18
48
1
60
0
100
AcDbMText
10
-63.841114
20
24.158438
30
0
210
0
220
0
230
1
1
%%c
40
3
41
0
44
1.084337
50
90
71
7
72
5
7
iso_b_vert
0
MTEXT
5
143
100
AcDbEntity
8
SK2
62
256
6
ByLayer
370
18
48
1
60
0
100
AcDbMText
10
-63.841114
20
30.135
30
0
210
0
220
0
230
1
1
\W0.7513;25.000
40
3
41
0
44
1.084337
50
90
71
7
72
5
7
iso_b_vert
0
MTEXT
5
14C
100
AcDbEntity
8
2
62
256
6
ByLayer
370
18
48
1
60
0
100
AcDbMText
10
68.158886
20
23.158438
30
0
210
0
220
0
230
1
1
%%c
40
3
41
0
44
1.084337
50
90
71
7
72
5
7
iso_b_vert
0
MTEXT
5
14D
100
AcDbEntity
8
2
62
256
6
ByLayer
370
18
48
1
60
0
100
AcDbMText
10
68.158886
20
29.135
30
0
210
0
220
0
230
1
1
\W0.7513;23.000
40
3
41
0
44
1.084337
50
90
71
7
72
5
7
iso_b_vert
0
MTEXT
5
156
100
AcDbEntity
8
SK2
62
256
6
ByLayer
370
18
48
1
60
0
100
AcDbMText
10
81.909114
20
3.734657
30
0
210
0
220
0
230
1
1
\W0.7071;140%%d
40
3
41
0
44
1.084337
50
270
71
7
72
5
7
iso_b_vert
0
MTEXT
5
15F
100
AcDbEntity
8
SK6
62
256
6
ByLayer
370
18
48
1
60
0
100
AcDbMText
10
-20.912197
20
-67.114886
30
0
210
0
220
0
230
1
1
\W0.7519;H85123.0
40
3
41
0
44
1.084337
50
0
71
7
72
5
7
iso_b_vert
0
HATCH
5
147
100
AcDbEntity
8
SK2
62
256
6
ByLayer
370
13
48
1
60
0
100
AcDbHatch
10
0
20
0
30
0
210
0
220
0
230
1
2
ANSI31
70
0
71
0
91
1
92
5
93
3
72
1
10
-62.5
20
12.5
11
-62.0392162584472
21
9.00000169255318
72
1
10
-62.0392162584472
20
9.00000169255318
11
-62.9607837415528
21
8.99999830744682
72
1
10
-62.9607837415528
20
8.99999830744682
11
-62.5
21
12.5
97
0
75
0
76
1
52
0
41
0.0062
77
0
78
1
53
45
43
0
44
0
45
-0.0139193969876572
46
0.0139193969876572
79
0
47
0
98
1
10
0
20
0
0
HATCH
5
14B
100
AcDbEntity
8
SK2
62
256
6
ByLayer
370
13
48
1
60
0
100
AcDbHatch
10
0
20
0
30
0
210
0
220
0
230
1
2
ANSI31
70
0
71
0
91
1
92
5
93
3
72
1
10
-62.5
20
-12.5
11
-62.9607837415528
21
-9.00000169255318
72
1
10
-62.9607837415528
20
-9.00000169255318
11
-62.0392162584472
21
-8.99999830744682
72
1
10
-62.0392162584472
20
-8.99999830744682
11
-62.5
21
-12.5
97
0
75
0
76
1
52
0
41
0.0062
77
0
78
1
53
45
43
0
44
0
45
-0.0139193969876572
46
0.0139193969876572
79
0
47
0
98
1
10
0
20
0
0
HATCH
5
151
100
AcDbEntity
8
2
62
256
6
ByLayer
370
13
48
1
60
0
100
AcDbHatch
10
0
20
0
30
0
210
0
220
0
230
1
2
ANSI31
70
0
71
0
91
1
92
5
93
3
72
1
10
69.5
20
11.5
11
69.9607837415528
21
8.00000169255318
72
1
10
69.9607837415528
20
8.00000169255318
11
69.0392162584472
21
7.99999830744682
72
1
10
69.0392162584472
20
7.99999830744682
11
69.5
21
11.5
97
0
75
0
76
1
52
0
41
0.0062
77
0
78
1
53
45
43
0
44
0
45
-0.0139193969876572
46
0.0139193969876572
79
0
47
0
98
1
10
0
20
0
0
HATCH
5
155
100
AcDbEntity
8
2
62
256
6
ByLayer
370
13
48
1
60
0
100
AcDbHatch
10
0
20
0
30
0
210
0
220
0
230
1
2
ANSI31
70
0
71
0
91
1
92
5
93
3
72
1
10
69.5
20
-11.5
11
69.0392162584472
21
-8.00000169255318
72
1
10
69.0392162584472
20
-8.00000169255318
11
69.9607837415528
21
-7.99999830744682
72
1
10
69.9607837415528
20
-7.99999830744682
11
69.5
21
-11.5
97
0
75
0
76
1
52
0
41
0.0062
77
0
78
1
53
45
43
0
44
0
45
-0.0139193969876572
46
0.0139193969876572
79
0
47
0
98
1
10
0
20
0
0
HATCH
5
15A
100
AcDbEntity
8
SK2
62
256
6
ByLayer
370
13
48
1
60
0
100
AcDbHatch
10
0
20
0
30
0
210
0
220
0
230
1
2
ANSI31
70
0
71
0
91
1
92
5
93
3
72
1
10
68.4983827231877
20
-17.8541597949323
11
71.5515754256929
21
-16.0820638240608
72
1
10
71.5515754256929
20
-16.0820638240608
11
71.9061958339751
21
-16.9326700737196
72
1
10
71.9061958339751
20
-16.9326700737196
11
68.4983827231877
21
-17.8541597949323
97
0
75
0
76
1
52
0
41
0.0062
77
0
78
1
53
45
43
0
44
0
45
-0.0139193969876572
46
0.0139193969876572
79
0
47
0
98
1
10
0
20
0
0
HATCH
5
15E
100
AcDbEntity
8
SK2
62
256
6
ByLayer
370
13
48
1
60
0
100
AcDbHatch
10
0
20
0
30
0
210
0
220
0
230
1
2
ANSI31
70
0
71
0
91
1
92
5
93
3
72
1
10
68.4983827231877
20
17.8541597949323
11
71.9061927095191
21
16.9326713763016
72
1
10
71.9061927095191
20
16.9326713763016
11
71.5515785501489
21
16.0820625214788
72
1
10
71.5515785501489
20
16.0820625214788
11
68.4983827231877
21
17.8541597949323
97
0
75
0
76
1
52
0
41
0.0062
77
0
78
1
53
45
43
0
44
0
45
-0.0139193969876572
46
0.0139193969876572
79
0
47
0
98
1
10
0
20
0
0
DIMENSION
5
162
100
AcDbEntity
8
SK2
62
256
6
ByLayer
370
18
48
1
60
0
100
AcDbDimension
2
_U0
10
62
20
-45.952229
30
0
11
3
21
-45.952229
31
0
70
32
71
1
72
1
41
1
210
0
220
0
230
1
3
Standard
100
AcDbAlignedDimension
13
-56
23
-12.5
33
0
14
62
24
0
34
0
50
0
100
AcDbRotatedDimension
1001
ACAD
1000
DSTYLE
1002
{
1070
   371
1070
    13
1070
   372
1070
    13
1070
     3
1000

1070
   170
1070
     0
1070
   144
1040
1.0
1070
   277
1070
     2
1070
   284
1070
     8
1070
   278
1070
    46
1070
   146
1040
1.166667
1070
   345
1005
16
1070
   347
1005
16
1070
   346
1005
16
1070
   344
1005
0
1070
   343
1005
0
1070
   172
1070
     1
1070
    76
1070
     0
1070
    75
1070
     0
1070
   282
1070
     0
1070
   281
1070
     0
1070
    71
1070
     0
1070
    74
1070
     0
1070
   279
1070
     0
1070
   173
1070
     1
1070
   340
1005
141
1070
   271
1070
     2
1070
   272
1070
     3
1070
    77
1070
     1
1070
    73
1070
     1
1070
   171
1070
     3
1070
   274
1070
     4
1070
   177
1070
     2
1070
   176
1070
     2
1070
   178
1070
     2
1070
    78
1070
     8
1070
    48
1040
-0.1
1070
    41
1040
3.5
1070
   147
1040
1.5
1070
    42
1040
1.5875
1070
    44
1040
2.0
1070
   140
1040
3.0
1002
}
1001
ACAD_DSTYLE_DIM_LINETYPE
1070
   380
1005
16
1001
ACAD_DSTYLE_DIM_EXT1_LINETYPE
1070
   381
1005
16
1001
ACAD_DSTYLE_DIM_EXT2_LINETYPE
1070
   382
1005
16
0
DIMENSION
5
17B
100
AcDbEntity
8
SK2
62
256
6
ByLayer
370
18
48
1
60
0
100
AcDbDimension
2
_U1
10
6
20
-35.952229
30
0
11
34
21
-35.952229
31
0
70
32
71
1
72
1
41
1
210
0
220
0
230
1
3
Standard
100
AcDbAlignedDimension
13
62
23
0
33
0
14
6
24
-11.5
34
0
50
0
100
AcDbRotatedDimension
1001
ACAD
1000
DSTYLE
1002
{
1070
   371
1070
    13
1070
   372
1070
    13
1070
     3
1000

1070
   170
1070
     0
1070
   144
1040
1.0
1070
   277
1070
     2
1070
   284
1070
     8
1070
   278
1070
    46
1070
   146
1040
1.166667
1070
   345
1005
16
1070
   347
1005
16
1070
   346
1005
16
1070
   344
1005
0
1070
   343
1005
0
1070
   172
1070
     1
1070
    76
1070
     0
1070
    75
1070
     0
1070
   282
1070
     0
1070
   281
1070
     0
1070
    71
1070
     0
1070
    74
1070
     0
1070
   279
1070
     0
1070
   173
1070
     1
1070
   340
1005
141
1070
   271
1070
     2
1070
   272
1070
     3
1070
    77
1070
     1
1070
    73
1070
     1
1070
   171
1070
     3
1070
   274
1070
     4
1070
   177
1070
     2
1070
   176
1070
     2
1070
   178
1070
     2
1070
    78
1070
     8
1070
    48
1040
-0.1
1070
    41
1040
3.5
1070
   147
1040
1.5
1070
    42
1040
1.5875
1070
    44
1040
2.0
1070
   140
1040
3.0
1002
}
1001
ACAD_DSTYLE_DIM_LINETYPE
1070
   380
1005
16
1001
ACAD_DSTYLE_DIM_EXT1_LINETYPE
1070
   381
1005
16
1001
ACAD_DSTYLE_DIM_EXT2_LINETYPE
1070
   382
1005
16
0
DIMENSION
5
193
100
AcDbEntity
8
SK2
62
256
6
ByLayer
370
18
48
1
60
0
100
AcDbDimension
2
_U2
10
0
20
-35.952229
30
0
11
-28
21
-35.952229
31
0
70
32
71
1
72
1
41
1
210
0
220
0
230
1
3
Standard
100
AcDbAlignedDimension
13
-56
23
-12.5
33
0
14
0
24
-12.5
34
0
50
0
100
AcDbRotatedDimension
1001
ACAD
1000
DSTYLE
1002
{
1070
   371
1070
    13
1070
   372
1070
    13
1070
     3
1000

1070
   170
1070
     0
1070
   144
1040
1.0
1070
   277
1070
     2
1070
   284
1070
     8
1070
   278
1070
    46
1070
   146
1040
1.166667
1070
   345
1005
16
1070
   347
1005
16
1070
   346
1005
16
1070
   344
1005
0
1070
   343
1005
0
1070
   172
1070
     1
1070
    76
1070
     0
1070
    75
1070
     0
1070
   282
1070
     0
1070
   281
1070
     0
1070
    71
1070
     0
1070
    74
1070
     0
1070
   279
1070
     0
1070
   173
1070
     1
1070
   340
1005
141
1070
   271
1070
     2
1070
   272
1070
     3
1070
    77
1070
     1
1070
    73
1070
     1
1070
   171
1070
     3
1070
   274
1070
     4
1070
   177
1070
     2
1070
   176
1070
     2
1070
   178
1070
     2
1070
    78
1070
     8
1070
    48
1040
-0.1
1070
    41
1040
3.5
1070
   147
1040
1.5
1070
    42
1040
1.5875
1070
    44
1040
2.0
1070
   140
1040
3.0
1002
}
1001
ACAD_DSTYLE_DIM_LINETYPE
1070
   380
1005
16
1001
ACAD_DSTYLE_DIM_EXT1_LINETYPE
1070
   381
1005
16
1001
ACAD_DSTYLE_DIM_EXT2_LINETYPE
1070
   382
1005
16
0
DIMENSION
5
1AB
100
AcDbEntity
8
SK2
62
256
6
ByLayer
370
18
48
1
60
0
100
AcDbDimension
2
_U3
10
15
20
32.952229
30
0
11
38.5
21
32.952229
31
0
70
32
71
1
72
1
41
1
210
0
220
0
230
1
3
Standard
100
AcDbAlignedDimension
13
62
23
0
33
0
14
15
24
11.5
34
0
50
0
100
AcDbRotatedDimension
1001
ACAD
1000
DSTYLE
1002
{
1070
   371
1070
    13
1070
   372
1070
    13
1070
     3
1000

1070
   170
1070
     0
1070
   144
1040
1.0
1070
   277
1070
     2
1070
   284
1070
     8
1070
   278
1070
    46
1070
   146
1040
1.166667
1070
   345
1005
16
1070
   347
1005
16
1070
   346
1005
16
1070
   344
1005
0
1070
   343
1005
0
1070
   172
1070
     1
1070
    76
1070
     0
1070
    75
1070
     0
1070
   282
1070
     0
1070
   281
1070
     0
1070
    71
1070
     0
1070
    74
1070
     0
1070
   279
1070
     0
1070
   173
1070
     1
1070
   340
1005
141
1070
   271
1070
     2
1070
   272
1070
     3
1070
    77
1070
     1
1070
    73
1070
     1
1070
   171
1070
     3
1070
   274
1070
     4
1070
   177
1070
     2
1070
   176
1070
     2
1070
   178
1070
     2
1070
    78
1070
     8
1070
    48
1040
-0.1
1070
    41
1040
3.5
1070
   147
1040
1.5
1070
    42
1040
1.5875
1070
    44
1040
2.0
1070
   140
1040
3.0
1002
}
1001
ACAD_DSTYLE_DIM_LINETYPE
1070
   380
1005
16
1001
ACAD_DSTYLE_DIM_EXT1_LINETYPE
1070
   381
1005
16
1001
ACAD_DSTYLE_DIM_EXT2_LINETYPE
1070
   382
1005
16
0
ENDSEC
0
SECTION
2
OBJECTS
0
DICTIONARY
5
233
330
0
100
AcDbDictionary
280
0
281
1
3
ACAD_GROUP
350
234
3
ACAD_MLINESTYLE
350
235
0
DICTIONARY
5
234
330
0
100
AcDbDictionary
280
0
281
1
0
DICTIONARY
5
235
330
0
100
AcDbDictionary
280
0
281
1
3
Standard
350
18
0
MLINESTYLE
5
18
330
235
100
AcDbMlineStyle
2
Standard
70
0
3

62
256
51
90
52
90
71
2
49
-0.5
62
256
6
ByLayer
49
0.5
62
256
6
ByLayer
0
RASTERVARIABLES
5
221
330

100
AcDbRasterVariables
90
0
70
1
71
1
72
1
0
ENDSEC
0
EOF
