0
SECTION
2
HEADER
9
$ACADVER
1
AC1015
9
$DWGCODEPAGE
3
ANSI_1252
9
$HANDSEED
5
23e
9
$ANGBASE
50
0
9
$ANGDIR
70
0
9
$ATTMODE
70
1
9
$AUNITS
70
0
9
$AUPREC
70
0
9
$CECOLOR
62
256
9
$CELTSCALE
40
1
9
$CELTYPE
6
ByLayer
9
$CELWEIGHT
370
18
9
$CLAYER
8
0
9
$CMLJUST
70
0
9
$CMLSCALE
40
1
9
$CMLSTYLE
2
Standard
9
$DIMSTYLE
2
Standard
9
$TEXTSIZE
40
0.2
9
$TEXTSTYLE
7
Standard
9
$LUNITS
70
2
9
$LUPREC
70
4
9
$EXTNAMES
290
1
9
$INSUNITS
70
4
9
$LTSCALE
40
1
9
$LWDISPLAY
290
1
9
$PDMODE
70
0
9
$PDSIZE
40
0
9
$PLINEGEN
70
0
0
ENDSEC
0
SECTION
2
CLASSES
0
CLASS
1
RASTERVARIABLES
2
AcDbRasterVariables
3
ISM
90
0
280
0
281
0
0
ENDSEC
0
SECTION
2
TABLES
0
TABLE
2
VPORT
5
234
100
AcDbSymbolTable
0
VPORT
5
1
100
AcDbSymbolTableRecord
100
AcDbViewportTableRecord
2
*Active
70
0
10
0
20
0
11
1
21
1
12
-1
22
1
13
0
23
0
14
0.5
24
0.5
15
10
25
10
16
0
26
0
36
1
17
0
27
0
37
0
0
ENDTAB
0
TABLE
2
LTYPE
5
235
100
AcDbSymbolTable
0
LTYPE
5
14
100
AcDbSymbolTableRecord
100
AcDbLinetypeTableRecord
70
0
2
ByBlock
3

72
65
73
0
40
0
0
LTYPE
5
15
100
AcDbSymbolTableRecord
100
AcDbLinetypeTableRecord
70
0
2
ByLayer
3

72
65
73
0
40
0
0
LTYPE
5
16
100
AcDbSymbolTableRecord
100
AcDbLinetypeTableRecord
70
0
2
Continuous
3
Solid line
72
65
73
0
40
0
0
LTYPE
5
6E
100
AcDbSymbolTableRecord
100
AcDbLinetypeTableRecord
70
0
2
CENTER
3
____ _ ____ _ ____ _ ____
72
65
73
4
40
47.5
49
22
74
0
49
-8.5
74
0
49
8.5
74
0
49
-8.5
74
0
0
LTYPE
5
6F
100
AcDbSymbolTableRecord
100
AcDbLinetypeTableRecord
70
0
2
DASHED
3
__ __ __ __ __ __ __ __ __
72
65
73
2
40
25.72
49
12.86
74
0
49
-12.86
74
0
0
ENDTAB
0
TABLE
2
LAYER
5
236
100
AcDbSymbolTable
0
LAYER
5
10
100
AcDbSymbolTableRecord
100
AcDbLayerTableRecord
2
0
70
0
62
7
6
Continuous
290
1
370
-3
390
0
0
LAYER
5
71
100
AcDbSymbolTableRecord
100
AcDbLayerTableRecord
2
80
70
0
62
-6
6
Continuous
290
1
370
-3
390
0
0
LAYER
5
73
100
AcDbSymbolTableRecord
100
AcDbLayerTableRecord
2
81
70
0
62
-3
6
Continuous
290
1
370
-3
390
0
0
LAYER
5
75
100
AcDbSymbolTableRecord
100
AcDbLayerTableRecord
2
1
70
0
62
4
6
Continuous
290
1
370
-3
390
0
0
LAYER
5
7F
100
AcDbSymbolTableRecord
100
AcDbLayerTableRecord
2
4
70
0
62
-2
6
CENTER
290
1
370
-3
390
0
0
LAYER
5
B0
100
AcDbSymbolTableRecord
100
AcDbLayerTableRecord
2
2
70
0
62
7
6
Continuous
290
1
370
-3
390
0
0
LAYER
5
163
100
AcDbSymbolTableRecord
100
AcDbLayerTableRecord
2
Defpoints
70
0
62
7
6
Continuous
290
0
370
-3
390
0
0
LAYER
5
220
100
AcDbSymbolTableRecord
100
AcDbLayerTableRecord
2
SK4
70
0
62
2
6
CENTER
290
1
370
-3
390
0
0
LAYER
5
221
100
AcDbSymbolTableRecord
100
AcDbLayerTableRecord
2
SK1
70
0
62
4
6
Continuous
290
1
370
-3
390
0
0
LAYER
5
222
100
AcDbSymbolTableRecord
100
AcDbLayerTableRecord
2
SK2
70
0
62
7
6
Continuous
290
1
370
-3
390
0
0
LAYER
5
223
100
AcDbSymbolTableRecord
100
AcDbLayerTableRecord
2
SK6
70
0
62
5
6
Continuous
290
1
370
-3
390
0
0
ENDTAB
0
TABLE
2
STYLE
5
237
100
AcDbSymbolTable
0
STYLE
5
11
100
AcDbSymbolTableRecord
100
AcDbTextStyleTableRecord
2
Standard
3
txt
70
0
71
0
40
0
41
1
42
0
50
0
0
STYLE
5
13F
100
AcDbSymbolTableRecord
100
AcDbTextStyleTableRecord
2
iso_b_vert
3
simplex.shx
70
0
71
0
40
0
41
1
42
0
50
0
0
STYLE
5
140
100
AcDbSymbolTableRecord
100
AcDbTextStyleTableRecord
2
DWGDirectTextStyle
3
simplex
70
0
71
0
40
0
41
1
42
0
50
0
0
ENDTAB
0
TABLE
2
DIMSTYLE
5
238
100
AcDbSymbolTable
100
AcDbDimStyleTable
0
DIMSTYLE
105
27
100
AcDbSymbolTableRecord
100
AcDbDimStyleTableRecord
2
Standard
70
0
3
<>
41
0.18
42
0.0625
44
0.18
140
0.18
147
0.09
73
0
74
0
77
1
271
2
275
0
278
52
280
0
340
11
0
ENDTAB
0
TABLE
2
VIEW
5
239
100
AcDbSymbolTable
0
ENDTAB
0
TABLE
2
UCS
5
23a
100
AcDbSymbolTable
0
ENDTAB
0
TABLE
2
APPID
5
23b
100
AcDbSymbolTable
0
APPID
5
12
100
AcDbSymbolTableRecord
100
AcDbRegAppTableRecord
2
ACAD
70
0
0
APPID
5
15F
100
AcDbSymbolTableRecord
100
AcDbRegAppTableRecord
2
ACAD_DSTYLE_DIMBREAK
70
0
0
APPID
5
1DF
100
AcDbSymbolTableRecord
100
AcDbRegAppTableRecord
2
ACAD_DSTYLE_DIM_LINETYPE
70
0
0
APPID
5
1E0
100
AcDbSymbolTableRecord
100
AcDbRegAppTableRecord
2
ACAD_DSTYLE_DIM_EXT1_LINETYPE
70
0
0
APPID
5
1E1
100
AcDbSymbolTableRecord
100
AcDbRegAppTableRecord
2
ACAD_DSTYLE_DIM_EXT2_LINETYPE
70
0
0
APPID
5
21C
100
AcDbSymbolTableRecord
100
AcDbRegAppTableRecord
2
ACAD_MLEADERVER
70
0
0
ENDTAB
0
TABLE
2
BLOCK_RECORD
5
23c
100
AcDbSymbolTable
0
BLOCK_RECORD
5
1F
100
AcDbSymbolTableRecord
100
AcDbBlockTableRecord
2
*Model_Space
340
0
70
0
0
BLOCK_RECORD
5
1B
100
AcDbSymbolTableRecord
100
AcDbBlockTableRecord
2
*Paper_Space
340
0
70
0
0
BLOCK_RECORD
5
23
100
AcDbSymbolTableRecord
100
AcDbBlockTableRecord
2
*Paper_Space0
340
0
70
0
0
BLOCK_RECORD
5
164
100
AcDbSymbolTableRecord
100
AcDbBlockTableRecord
2
*D1
340
0
70
0
0
BLOCK_RECORD
5
170
100
AcDbSymbolTableRecord
100
AcDbBlockTableRecord
2
_U0
340
0
70
0
0
BLOCK_RECORD
5
17C
100
AcDbSymbolTableRecord
100
AcDbBlockTableRecord
2
*D3
340
0
70
0
0
BLOCK_RECORD
5
188
100
AcDbSymbolTableRecord
100
AcDbBlockTableRecord
2
_U1
340
0
70
0
0
BLOCK_RECORD
5
194
100
AcDbSymbolTableRecord
100
AcDbBlockTableRecord
2
*D5
340
0
70
0
0
BLOCK_RECORD
5
1A0
100
AcDbSymbolTableRecord
100
AcDbBlockTableRecord
2
_U2
340
0
70
0
0
BLOCK_RECORD
5
1AC
100
AcDbSymbolTableRecord
100
AcDbBlockTableRecord
2
*D7
340
0
70
0
0
BLOCK_RECORD
5
1B8
100
AcDbSymbolTableRecord
100
AcDbBlockTableRecord
2
_U3
340
0
70
0
0
ENDTAB
0
ENDSEC
0
SECTION
2
BLOCKS
0
BLOCK
5
20
100
AcDbEntity
8
0
100
AcDbBlockBegin
2
*Model_Space
70
0
10
0
20
0
30
0
3
*Model_Space
0
ENDBLK
5
21
100
AcDbEntity
8
0
100
AcDbBlockEnd
0
BLOCK
5
1C
100
AcDbEntity
8
0
100
AcDbBlockBegin
2
*Paper_Space
70
0
10
0
20
0
30
0
3
*Paper_Space
0
ENDBLK
5
1D
100
AcDbEntity
8
0
100
AcDbBlockEnd
0
BLOCK
5
24
100
AcDbEntity
8
0
100
AcDbBlockBegin
2
*Paper_Space0
70
0
10
0
20
0
30
0
3
*Paper_Space0
0
ENDBLK
5
25
100
AcDbEntity
8
0
100
AcDbBlockEnd
0
BLOCK
5
165
100
AcDbEntity
8
0
100
AcDbBlockBegin
2
*D1
70
1
10
0
20
0
30
0
3
*D1
0
LINE
5
167
100
AcDbEntity
8
0
62
256
6
ByLayer
370
-2
48
1
60
0
100
AcDbLine
10
-56
20
-14.0875
30
0
11
-56
21
-47.952229
31
0
39
0
210
0
220
0
230
1
0
LINE
5
168
100
AcDbEntity
8
0
62
256
6
ByLayer
370
-2
48
1
60
0
100
AcDbLine
10
61.1
20
-1.5875
30
0
11
61.1
21
-47.952229
31
0
39
0
210
0
220
0
230
1
0
LINE
5
169
100
AcDbEntity
8
0
62
256
6
ByLayer
370
-2
48
1
60
0
100
AcDbLine
10
-52.5
20
-45.952229
30
0
11
57.6
21
-45.952229
31
0
39
0
210
0
220
0
230
1
0
SOLID
5
16A
100
AcDbEntity
8
0
62
256
6
ByLayer
370
-1
48
1
60
0
100
AcDbTrace
10
-52.5
20
-45.368896
30
0
11
-52.5
21
-46.535563
31
0
12
-56
22
-45.952229
32
0
13
-56
23
-45.952229
33
0
39
0
210
0
220
0
230
1
0
SOLID
5
16B
100
AcDbEntity
8
0
62
256
6
ByLayer
370
-1
48
1
60
0
100
AcDbTrace
10
57.6
20
-46.535563
30
0
11
57.6
21
-45.368896
31
0
12
61.1
22
-45.952229
32
0
13
61.1
23
-45.952229
33
0
39
0
210
0
220
0
230
1
0
MTEXT
5
16C
100
AcDbEntity
8
0
62
256
6
ByLayer
370
18
48
1
60
0
100
AcDbMText
10
2.55
20
-39.952229
30
0
210
0
220
0
230
1
1
\A1;117.1
40
3
41
0
44
1
50
0
71
5
72
5
7
iso_b_vert
0
POINT
5
16D
100
AcDbEntity
8
Defpoints
62
0
6
ByLayer
370
-1
48
1
60
0
100
AcDbPoint
10
-56
20
-12.5
30
0
39
0
210
0
220
0
230
1
50
360
0
POINT
5
16E
100
AcDbEntity
8
Defpoints
62
0
6
ByLayer
370
-1
48
1
60
0
100
AcDbPoint
10
61.1
20
0
30
0
39
0
210
0
220
0
230
1
50
360
0
POINT
5
16F
100
AcDbEntity
8
Defpoints
62
0
6
ByLayer
370
-1
48
1
60
0
100
AcDbPoint
10
61.1
20
-45.952229
30
0
39
0
210
0
220
0
230
1
50
360
0
ENDBLK
5
166
100
AcDbEntity
8
0
100
AcDbBlockEnd
0
BLOCK
5
177
100
AcDbEntity
8
0
100
AcDbBlockBegin
2
_U0
70
0
10
0
20
0
30
0
3
_U0
0
MTEXT
5
171
100
AcDbEntity
8
SK2
62
256
6
ByLayer
370
18
48
1
60
0
100
AcDbMText
10
-1.928456
20
-45.067115
30
0
210
0
220
0
230
1
1
\W0.6041;117.10
40
3
41
0
44
1.084337
50
0
71
7
72
5
7
iso_b_vert
0
LINE
5
172
100
AcDbEntity
8
SK2
62
256
6
ByLayer
370
13
48
1
60
0
100
AcDbLine
10
-56
20
-14.0875
30
0
11
-56
21
-47.952229
31
0
39
0
210
0
220
0
230
1
0
LINE
5
173
100
AcDbEntity
8
SK2
62
256
6
ByLayer
370
13
48
1
60
0
100
AcDbLine
10
61.1
20
-1.5875
30
0
11
61.1
21
-47.952229
31
0
39
0
210
0
220
0
230
1
0
LINE
5
174
100
AcDbEntity
8
SK2
62
256
6
ByLayer
370
13
48
1
60
0
100
AcDbLine
10
-56
20
-45.952229
30
0
11
61.1
21
-45.952229
31
0
39
0
210
0
220
0
230
1
0
SOLID
5
175
100
AcDbEntity
8
SK2
62
256
6
ByLayer
370
18
48
1
60
0
100
AcDbTrace
10
-56
20
-45.952229
30
0
11
-52.500002
21
-45.491446
31
0
12
-52.499998
22
-46.413013
32
0
13
-52.499998
23
-46.413013
33
0
39
0
210
0
220
0
230
1
0
SOLID
5
176
100
AcDbEntity
8
SK2
62
256
6
ByLayer
370
18
48
1
60
0
100
AcDbTrace
10
61.1
20
-45.952229
30
0
11
57.600002
21
-46.413013
31
0
12
57.599998
22
-45.491446
32
0
13
57.599998
23
-45.491446
33
0
39
0
210
0
220
0
230
1
0
ENDBLK
5
178
100
AcDbEntity
8
0
100
AcDbBlockEnd
0
BLOCK
5
17D
100
AcDbEntity
8
0
100
AcDbBlockBegin
2
*D3
70
1
10
0
20
0
30
0
3
*D3
0
LINE
5
17F
100
AcDbEntity
8
0
62
256
6
ByLayer
370
-2
48
1
60
0
100
AcDbLine
10
61.1
20
-1.5875
30
0
11
61.1
21
-37.952229
31
0
39
0
210
0
220
0
230
1
0
LINE
5
180
100
AcDbEntity
8
0
62
256
6
ByLayer
370
-2
48
1
60
0
100
AcDbLine
10
6
20
-12.5875
30
0
11
6
21
-37.952229
31
0
39
0
210
0
220
0
230
1
0
LINE
5
181
100
AcDbEntity
8
0
62
256
6
ByLayer
370
-2
48
1
60
0
100
AcDbLine
10
57.6
20
-35.952229
30
0
11
9.5
21
-35.952229
31
0
39
0
210
0
220
0
230
1
0
SOLID
5
182
100
AcDbEntity
8
0
62
256
6
ByLayer
370
-1
48
1
60
0
100
AcDbTrace
10
57.6
20
-36.535563
30
0
11
57.6
21
-35.368896
31
0
12
61.1
22
-35.952229
32
0
13
61.1
23
-35.952229
33
0
39
0
210
0
220
0
230
1
0
SOLID
5
183
100
AcDbEntity
8
0
62
256
6
ByLayer
370
-1
48
1
60
0
100
AcDbTrace
10
9.5
20
-35.368896
30
0
11
9.5
21
-36.535563
31
0
12
6
22
-35.952229
32
0
13
6
23
-35.952229
33
0
39
0
210
0
220
0
230
1
0
MTEXT
5
184
100
AcDbEntity
8
0
62
256
6
ByLayer
370
18
48
1
60
0
100
AcDbMText
10
33.55
20
-29.952229
30
0
210
0
220
0
230
1
1
\A1;55.1
40
3
41
0
44
1
50
0
71
5
72
5
7
iso_b_vert
0
POINT
5
185
100
AcDbEntity
8
Defpoints
62
0
6
ByLayer
370
-1
48
1
60
0
100
AcDbPoint
10
61.1
20
0
30
0
39
0
210
0
220
0
230
1
50
360
0
POINT
5
186
100
AcDbEntity
8
Defpoints
62
0
6
ByLayer
370
-1
48
1
60
0
100
AcDbPoint
10
6
20
-11
30
0
39
0
210
0
220
0
230
1
50
360
0
POINT
5
187
100
AcDbEntity
8
Defpoints
62
0
6
ByLayer
370
-1
48
1
60
0
100
AcDbPoint
10
6
20
-35.952229
30
0
39
0
210
0
220
0
230
1
50
360
0
ENDBLK
5
17E
100
AcDbEntity
8
0
100
AcDbBlockEnd
0
BLOCK
5
18F
100
AcDbEntity
8
0
100
AcDbBlockBegin
2
_U1
70
0
10
0
20
0
30
0
3
_U1
0
MTEXT
5
189
100
AcDbEntity
8
SK2
62
256
6
ByLayer
370
18
48
1
60
0
100
AcDbMText
10
29.442572
20
-35.067115
30
0
210
0
220
0
230
1
1
\W0.6864;55.10
40
3
41
0
44
1.084337
50
0
71
7
72
5
7
iso_b_vert
0
LINE
5
18A
100
AcDbEntity
8
SK2
62
256
6
ByLayer
370
13
48
1
60
0
100
AcDbLine
10
61.1
20
-1.5875
30
0
11
61.1
21
-37.952229
31
0
39
0
210
0
220
0
230
1
0
LINE
5
18B
100
AcDbEntity
8
SK2
62
256
6
ByLayer
370
13
48
1
60
0
100
AcDbLine
10
6
20
-12.5875
30
0
11
6
21
-37.952229
31
0
39
0
210
0
220
0
230
1
0
LINE
5
18C
100
AcDbEntity
8
SK2
62
256
6
ByLayer
370
13
48
1
60
0
100
AcDbLine
10
61.1
20
-35.952229
30
0
11
6
21
-35.952229
31
0
39
0
210
0
220
0
230
1
0
SOLID
5
18D
100
AcDbEntity
8
SK2
62
256
6
ByLayer
370
18
48
1
60
0
100
AcDbTrace
10
61.1
20
-35.952229
30
0
11
57.600002
21
-36.413013
31
0
12
57.599998
22
-35.491446
32
0
13
57.599998
23
-35.491446
33
0
39
0
210
0
220
0
230
1
0
SOLID
5
18E
100
AcDbEntity
8
SK2
62
256
6
ByLayer
370
18
48
1
60
0
100
AcDbTrace
10
6
20
-35.952229
30
0
11
9.499998
21
-35.491446
31
0
12
9.500002
22
-36.413013
32
0
13
9.500002
23
-36.413013
33
0
39
0
210
0
220
0
230
1
0
ENDBLK
5
190
100
AcDbEntity
8
0
100
AcDbBlockEnd
0
BLOCK
5
195
100
AcDbEntity
8
0
100
AcDbBlockBegin
2
*D5
70
1
10
0
20
0
30
0
3
*D5
0
LINE
5
197
100
AcDbEntity
8
0
62
256
6
ByLayer
370
-2
48
1
60
0
100
AcDbLine
10
-56
20
-14.0875
30
0
11
-56
21
-37.952229
31
0
39
0
210
0
220
0
230
1
0
LINE
5
198
100
AcDbEntity
8
0
62
256
6
ByLayer
370
-2
48
1
60
0
100
AcDbLine
10
0
20
-14.0875
30
0
11
0
21
-37.952229
31
0
39
0
210
0
220
0
230
1
0
LINE
5
199
100
AcDbEntity
8
0
62
256
6
ByLayer
370
-2
48
1
60
0
100
AcDbLine
10
-52.5
20
-35.952229
30
0
11
-3.5
21
-35.952229
31
0
39
0
210
0
220
0
230
1
0
SOLID
5
19A
100
AcDbEntity
8
0
62
256
6
ByLayer
370
-1
48
1
60
0
100
AcDbTrace
10
-52.5
20
-35.368896
30
0
11
-52.5
21
-36.535563
31
0
12
-56
22
-35.952229
32
0
13
-56
23
-35.952229
33
0
39
0
210
0
220
0
230
1
0
SOLID
5
19B
100
AcDbEntity
8
0
62
256
6
ByLayer
370
-1
48
1
60
0
100
AcDbTrace
10
-3.5
20
-36.535563
30
0
11
-3.5
21
-35.368896
31
0
12
0
22
-35.952229
32
0
13
0
23
-35.952229
33
0
39
0
210
0
220
0
230
1
0
MTEXT
5
19C
100
AcDbEntity
8
0
62
256
6
ByLayer
370
18
48
1
60
0
100
AcDbMText
10
-28
20
-29.952229
30
0
210
0
220
0
230
1
1
\A1;56
40
3
41
0
44
1
50
0
71
5
72
5
7
iso_b_vert
0
POINT
5
19D
100
AcDbEntity
8
Defpoints
62
0
6
ByLayer
370
-1
48
1
60
0
100
AcDbPoint
10
-56
20
-12.5
30
0
39
0
210
0
220
0
230
1
50
360
0
POINT
5
19E
100
AcDbEntity
8
Defpoints
62
0
6
ByLayer
370
-1
48
1
60
0
100
AcDbPoint
10
0
20
-12.5
30
0
39
0
210
0
220
0
230
1
50
360
0
POINT
5
19F
100
AcDbEntity
8
Defpoints
62
0
6
ByLayer
370
-1
48
1
60
0
100
AcDbPoint
10
0
20
-35.952229
30
0
39
0
210
0
220
0
230
1
50
360
0
ENDBLK
5
196
100
AcDbEntity
8
0
100
AcDbBlockEnd
0
BLOCK
5
1A7
100
AcDbEntity
8
0
100
AcDbBlockBegin
2
_U2
70
0
10
0
20
0
30
0
3
_U2
0
MTEXT
5
1A1
100
AcDbEntity
8
SK2
62
256
6
ByLayer
370
18
48
1
60
0
100
AcDbMText
10
-32.48237
20
-35.067115
30
0
210
0
220
0
230
1
1
\W0.7468;56.00
40
3
41
0
44
1.084337
50
0
71
7
72
5
7
iso_b_vert
0
LINE
5
1A2
100
AcDbEntity
8
SK2
62
256
6
ByLayer
370
13
48
1
60
0
100
AcDbLine
10
-56
20
-14.0875
30
0
11
-56
21
-37.952229
31
0
39
0
210
0
220
0
230
1
0
LINE
5
1A3
100
AcDbEntity
8
SK2
62
256
6
ByLayer
370
13
48
1
60
0
100
AcDbLine
10
0
20
-14.0875
30
0
11
0
21
-37.952229
31
0
39
0
210
0
220
0
230
1
0
LINE
5
1A4
100
AcDbEntity
8
SK2
62
256
6
ByLayer
370
13
48
1
60
0
100
AcDbLine
10
-56
20
-35.952229
30
0
11
0
21
-35.952229
31
0
39
0
210
0
220
0
230
1
0
SOLID
5
1A5
100
AcDbEntity
8
SK2
62
256
6
ByLayer
370
18
48
1
60
0
100
AcDbTrace
10
-56
20
-35.952229
30
0
11
-52.500002
21
-35.491446
31
0
12
-52.499998
22
-36.413013
32
0
13
-52.499998
23
-36.413013
33
0
39
0
210
0
220
0
230
1
0
SOLID
5
1A6
100
AcDbEntity
8
SK2
62
256
6
ByLayer
370
18
48
1
60
0
100
AcDbTrace
10
0
20
-35.952229
30
0
11
-3.499998
21
-36.413013
31
0
12
-3.500002
22
-35.491446
32
0
13
-3.500002
23
-35.491446
33
0
39
0
210
0
220
0
230
1
0
ENDBLK
5
1A8
100
AcDbEntity
8
0
100
AcDbBlockEnd
0
BLOCK
5
1AD
100
AcDbEntity
8
0
100
AcDbBlockBegin
2
*D7
70
1
10
0
20
0
30
0
3
*D7
0
LINE
5
1AF
100
AcDbEntity
8
0
62
256
6
ByLayer
370
-2
48
1
60
0
100
AcDbLine
10
61.1
20
1.5875
30
0
11
61.1
21
34.952229
31
0
39
0
210
0
220
0
230
1
0
LINE
5
1B0
100
AcDbEntity
8
0
62
256
6
ByLayer
370
-2
48
1
60
0
100
AcDbLine
10
15
20
12.5875
30
0
11
15
21
34.952229
31
0
39
0
210
0
220
0
230
1
0
LINE
5
1B1
100
AcDbEntity
8
0
62
256
6
ByLayer
370
-2
48
1
60
0
100
AcDbLine
10
57.6
20
32.952229
30
0
11
18.5
21
32.952229
31
0
39
0
210
0
220
0
230
1
0
SOLID
5
1B2
100
AcDbEntity
8
0
62
256
6
ByLayer
370
-1
48
1
60
0
100
AcDbTrace
10
57.6
20
32.368896
30
0
11
57.6
21
33.535563
31
0
12
61.1
22
32.952229
32
0
13
61.1
23
32.952229
33
0
39
0
210
0
220
0
230
1
0
SOLID
5
1B3
100
AcDbEntity
8
0
62
256
6
ByLayer
370
-1
48
1
60
0
100
AcDbTrace
10
18.5
20
33.535563
30
0
11
18.5
21
32.368896
31
0
12
15
22
32.952229
32
0
13
15
23
32.952229
33
0
39
0
210
0
220
0
230
1
0
MTEXT
5
1B4
100
AcDbEntity
8
0
62
256
6
ByLayer
370
18
48
1
60
0
100
AcDbMText
10
38.05
20
38.952229
30
0
210
0
220
0
230
1
1
\A1;46.1
40
3
41
0
44
1
50
0
71
5
72
5
7
iso_b_vert
0
POINT
5
1B5
100
AcDbEntity
8
Defpoints
62
0
6
ByLayer
370
-1
48
1
60
0
100
AcDbPoint
10
61.1
20
0
30
0
39
0
210
0
220
0
230
1
50
360
0
POINT
5
1B6
100
AcDbEntity
8
Defpoints
62
0
6
ByLayer
370
-1
48
1
60
0
100
AcDbPoint
10
15
20
11
30
0
39
0
210
0
220
0
230
1
50
360
0
POINT
5
1B7
100
AcDbEntity
8
Defpoints
62
0
6
ByLayer
370
-1
48
1
60
0
100
AcDbPoint
10
15
20
32.952229
30
0
39
0
210
0
220
0
230
1
50
360
0
ENDBLK
5
1AE
100
AcDbEntity
8
0
100
AcDbBlockEnd
0
BLOCK
5
1BF
100
AcDbEntity
8
0
100
AcDbBlockBegin
2
_U3
70
0
10
0
20
0
30
0
3
_U3
0
MTEXT
5
1B9
100
AcDbEntity
8
SK2
62
256
6
ByLayer
370
18
48
1
60
0
100
AcDbMText
10
33.784629
20
33.837344
30
0
210
0
220
0
230
1
1
\W0.7091;46.10
40
3
41
0
44
1.084337
50
0
71
7
72
5
7
iso_b_vert
0
LINE
5
1BA
100
AcDbEntity
8
SK2
62
256
6
ByLayer
370
13
48
1
60
0
100
AcDbLine
10
61.1
20
1.5875
30
0
11
61.1
21
34.952229
31
0
39
0
210
0
220
0
230
1
0
LINE
5
1BB
100
AcDbEntity
8
SK2
62
256
6
ByLayer
370
13
48
1
60
0
100
AcDbLine
10
15
20
12.5875
30
0
11
15
21
34.952229
31
0
39
0
210
0
220
0
230
1
0
LINE
5
1BC
100
AcDbEntity
8
SK2
62
256
6
ByLayer
370
13
48
1
60
0
100
AcDbLine
10
61.1
20
32.952229
30
0
11
15
21
32.952229
31
0
39
0
210
0
220
0
230
1
0
SOLID
5
1BD
100
AcDbEntity
8
SK2
62
256
6
ByLayer
370
18
48
1
60
0
100
AcDbTrace
10
61.1
20
32.952229
30
0
11
57.600002
21
32.491446
31
0
12
57.599998
22
33.413013
32
0
13
57.599998
23
33.413013
33
0
39
0
210
0
220
0
230
1
0
SOLID
5
1BE
100
AcDbEntity
8
SK2
62
256
6
ByLayer
370
18
48
1
60
0
100
AcDbTrace
10
15
20
32.952229
30
0
11
18.499998
21
33.413013
31
0
12
18.500002
22
32.491446
32
0
13
18.500002
23
32.491446
33
0
39
0
210
0
220
0
230
1
0
ENDBLK
5
1C0
100
AcDbEntity
8
0
100
AcDbBlockEnd
0
ENDSEC
0
SECTION
2
ENTITIES
0
ARC
5
C1
100
AcDbEntity
8
SK2
62
256
6
ByLayer
370
13
48
1
60
0
100
AcDbCircle
39
0
10
61.1
20
0
30
0
40
19
210
0
220
0
230
1
100
AcDbArc
50
290
51
70
0
ELLIPSE
5
C2
100
AcDbEntity
8
SK1
62
256
6
ByLayer
370
18
48
1
60
0
100
AcDbEllipse
10
-41.343561
20
0
30
0
11
-2.29613691341699E-15
21
-12.5000000000002
31
0
210
0
220
0
230
1
40
0.932515
41
-1.86465462472194
42
-1.27693802886786
0
ELLIPSE
5
C3
100
AcDbEntity
8
SK1
62
256
6
ByLayer
370
18
48
1
60
0
100
AcDbEllipse
10
276.680659
20
0
30
0
11
357.953166043254
21
-4.05596621644435E-13
31
0
210
0
220
0
230
1
40
0.034921
41
2.52406396812455
42
2.73005601344533
0
ELLIPSE
5
C4
100
AcDbEntity
8
SK1
62
256
6
ByLayer
370
18
48
1
60
0
100
AcDbEllipse
10
-25.404609
20
0
30
0
11
13.4046088753088
21
-1.51887581674114E-14
31
0
210
0
220
0
230
1
40
0.932515
41
-0.555530755442636
42
0.555530755442635
0
ELLIPSE
5
C5
100
AcDbEntity
8
SK1
62
256
6
ByLayer
370
18
48
1
60
0
100
AcDbEllipse
10
276.680659
20
0
30
0
11
357.953166032003
21
-4.05596621631686E-13
31
0
210
0
220
0
230
1
40
0.034921
41
-2.73005601344242
42
-2.52406396811705
0
POINT
5
70
100
AcDbEntity
8
80
62
256
6
ByLayer
370
18
48
1
60
0
100
AcDbPoint
10
0
20
0
30
0
39
0
210
0
220
0
230
1
50
360
0
POINT
5
72
100
AcDbEntity
8
81
62
256
6
ByLayer
370
18
48
1
60
0
100
AcDbPoint
10
61.1
20
0
30
0
39
0
210
0
220
0
230
1
50
360
0
POINT
5
74
100
AcDbEntity
8
1
62
256
6
ByLayer
370
18
48
1
60
1
100
AcDbPoint
10
-56
20
-12.5
30
0
39
0
210
0
220
0
230
1
50
360
0
POINT
5
76
100
AcDbEntity
8
1
62
256
6
ByLayer
370
18
48
1
60
1
100
AcDbPoint
10
61.1
20
0
30
0
39
0
210
0
220
0
230
1
50
360
0
POINT
5
77
100
AcDbEntity
8
1
62
256
6
ByLayer
370
18
48
1
60
1
100
AcDbPoint
10
61.1
20
0
30
0
39
0
210
0
220
0
230
1
50
360
0
POINT
5
78
100
AcDbEntity
8
1
62
256
6
ByLayer
370
18
48
1
60
1
100
AcDbPoint
10
6
20
-11
30
0
39
0
210
0
220
0
230
1
50
360
0
POINT
5
79
100
AcDbEntity
8
1
62
256
6
ByLayer
370
18
48
1
60
1
100
AcDbPoint
10
-56
20
-12.5
30
0
39
0
210
0
220
0
230
1
50
360
0
POINT
5
7A
100
AcDbEntity
8
1
62
256
6
ByLayer
370
18
48
1
60
1
100
AcDbPoint
10
0
20
-12.5
30
0
39
0
210
0
220
0
230
1
50
360
0
POINT
5
7B
100
AcDbEntity
8
1
62
256
6
ByLayer
370
18
48
1
60
1
100
AcDbPoint
10
61.1
20
0
30
0
39
0
210
0
220
0
230
1
50
360
0
POINT
5
7C
100
AcDbEntity
8
1
62
256
6
ByLayer
370
18
48
1
60
1
100
AcDbPoint
10
15
20
11
30
0
39
0
210
0
220
0
230
1
50
360
0
SPLINE
5
C6
100
AcDbEntity
8
1
62
256
6
ByLayer
370
18
48
1
60
0
100
AcDbSpline
70
4
71
3
72
20
73
16
40
0
40
0
40
0
40
0
40
0.0982461241483913
40
0.0982461241483913
40
0.278596899318714
40
0.278596899318714
40
0.458947674489036
40
0.458947674489036
40
0.549123062074196
40
0.549123062074196
40
0.639298449659355
40
0.639298449659355
40
0.819649224829678
40
0.819649224829678
40
1
40
1
40
1
40
1
41
1
10
27.3775678771731
20
-7.89403580138151
30
0
41
1
10
27.0527039290051
20
-7.97161210316528
30
0
41
1
10
26.7278957605453
20
-8.04782418661225
30
0
41
1
10
25.8070131824817
20
-8.26010492626648
30
0
41
1
10
25.2110743391539
20
-8.39293023580873
30
0
41
1
10
24.0189615232331
20
-8.64826526390505
30
0
41
1
10
23.4227725856754
20
-8.77076623430091
30
0
41
1
10
22.5283921926645
20
-8.94694751407377
30
0
41
1
10
22.2302473072102
20
-9.00440839108356
30
0
41
1
10
21.63393058657
20
-9.11680050783932
30
0
41
1
10
21.3357687052322
20
-9.17174467157429
30
0
41
1
10
20.4409870978713
20
-9.33239011760278
30
0
41
1
10
19.8440857564675
20
-9.43393828332984
30
0
41
1
10
18.6495740012173
20
-9.62603157367224
30
0
41
1
10
18.0519672252215
20
-9.7165832720782
30
0
41
1
10
17.4540659904839
20
-9.8016491064796
30
0
0
SPLINE
5
C7
100
AcDbEntity
8
1
62
256
6
ByLayer
370
18
48
1
60
0
100
AcDbSpline
70
4
71
3
72
11
73
7
40
0
40
0
40
0
40
0
40
0.500000000000007
40
0.500000000000007
40
0.750000000000004
40
1
40
1
40
1
40
1
41
1
10
17.4540659904837
20
9.8016491064798
30
0
41
1
10
17.0386144980419
20
9.86267781272866
30
0
41
1
10
16.6269322455779
20
9.92434269007447
30
0
41
1
10
16.0137062687997
20
10.0150209820168
30
0
41
1
10
15.6063389369497
20
10.0748913782223
30
0
41
1
10
15.2016660988147
20
10.1329654250011
30
0
41
1
10
15
20
10.1614332986432
30
0
0
SPLINE
5
C8
100
AcDbEntity
8
1
62
256
6
ByLayer
370
18
48
1
60
0
100
AcDbSpline
70
4
71
3
72
46
73
42
40
0
40
0
40
0
40
0
40
0.124999999999993
40
0.124999999999993
40
0.156249999999992
40
0.156249999999992
40
0.187499999999992
40
0.187499999999992
40
0.249999999999991
40
0.249999999999991
40
0.312499999999989
40
0.312499999999989
40
0.374999999999988
40
0.374999999999988
40
0.437499999999987
40
0.437499999999987
40
0.499999999999986
40
0.499999999999986
40
0.531249999999986
40
0.531249999999986
40
0.562499999999986
40
0.562499999999986
40
0.593749999999986
40
0.593749999999986
40
0.624999999999987
40
0.624999999999987
40
0.687499999999987
40
0.687499999999987
40
0.718749999999988
40
0.718749999999988
40
0.749999999999989
40
0.749999999999989
40
0.812499999999991
40
0.812499999999991
40
0.843749999999992
40
0.843749999999992
40
0.874999999999993
40
0.874999999999993
40
0.937499999999996
40
0.937499999999996
40
1
40
1
40
1
40
1
41
1
10
22.2409182415569
20
-6.55879880054584
30
0
41
1
10
23.2362605807405
20
-6.83806488289056
30
0
41
1
10
24.2310704429789
20
-7.10466647043555
30
0
41
1
10
25.4732753497371
20
-7.42375717484063
30
0
41
1
10
25.7216512195663
20
-7.48686241748956
30
0
41
1
10
26.2182595790835
20
-7.61166643552133
30
0
41
1
10
26.4664908086341
20
-7.67336608496646
30
0
41
1
10
27.211221276095
20
-7.85584859264924
30
0
41
1
10
27.7077628245742
20
-7.97401540065226
30
0
41
1
10
28.700763997173
20
-8.20380084896289
30
0
41
1
10
29.1972124385861
20
-8.3154386011673
30
0
41
1
10
30.1899083531108
20
-8.53233703095097
30
0
41
1
10
30.6861939257603
20
-8.63751976026873
30
0
41
1
10
31.6791482097664
20
-8.84048836029427
30
0
41
1
10
32.1758652037704
20
-8.93820848082609
30
0
41
1
10
33.1695293249037
20
-9.12654402342164
30
0
41
1
10
33.6664795543769
20
-9.2171514140166
30
0
41
1
10
34.4120334212465
20
-9.34773861765967
30
0
41
1
10
34.6605745758211
20
-9.39037552228493
30
0
41
1
10
35.157873168984
20
-9.47362686213015
30
0
41
1
10
35.4066265869131
20
-9.51424863966832
30
0
41
1
10
35.9043165467091
20
-9.59352538219031
30
0
41
1
10
36.1532967580266
20
-9.63218681070592
30
0
41
1
10
36.6511291271786
20
-9.70752903696649
30
0
41
1
10
36.8999922608817
20
-9.74421188445319
30
0
41
1
10
37.6463889955023
20
-9.8513332549955
30
0
41
1
10
38.1436851037157
20
-9.91888917474773
30
0
41
1
10
38.8894526790395
20
-10.0141052180664
30
0
41
1
10
39.1380167442329
20
-10.0448206834896
30
0
41
1
10
39.6351633634947
20
-10.1041445881417
30
0
41
1
10
39.8837533047048
20
-10.1327470159822
30
0
41
1
10
40.6295343270482
20
-10.215427973512
30
0
41
1
10
41.126710557537
20
-10.2664071054404
30
0
41
1
10
41.8723572651213
20
-10.336726709367
30
0
41
1
10
42.1208866699043
20
-10.359140395681
30
0
41
1
10
42.617908870466
20
-10.4019015214317
30
0
41
1
10
42.8664063572722
20
-10.4222438398152
30
0
41
1
10
43.6121133513372
20
-10.4799937554043
30
0
41
1
10
44.1094970606865
20
-10.514163267138
30
0
41
1
10
45.1045627348039
20
-10.573995788005
30
0
41
1
10
45.6022265589497
20
-10.5996643516228
30
0
41
1
10
46.1
20
-10.6210554302394
30
0
0
SPLINE
5
C9
100
AcDbEntity
8
1
62
256
6
ByLayer
370
18
48
1
60
0
100
AcDbSpline
70
4
71
3
72
12
73
8
40
0
40
0
40
0
40
0
40
0.409165274141513
40
0.409165274141513
40
0.818330548283026
40
0.818330548283026
40
1
40
1
40
1
40
1
41
1
10
46.0999999999999
20
-10.9300320079654
30
0
41
1
10
46.5587229619127
20
-10.9486689250433
30
0
41
1
10
47.0171570447442
20
-10.9635252598285
30
0
41
1
10
47.9338619704108
20
-10.9856000516086
30
0
41
1
10
48.3921806935059
20
-10.992822597554
30
0
41
1
10
49.0538094619824
20
-10.9978007016382
30
0
41
1
10
49.2572204988844
20
-10.9985866778701
30
0
41
1
10
49.4606027361375
20
-10.9986261509953
30
0
0
SPLINE
5
CA
100
AcDbEntity
8
1
62
256
6
ByLayer
370
18
48
1
60
0
100
AcDbSpline
70
4
71
3
72
21
73
17
40
0
40
0
40
0
40
0
40
0.249999999999998
40
0.249999999999998
40
0.312499999999998
40
0.312499999999998
40
0.374999999999998
40
0.499999999999998
40
0.499999999999998
40
0.624999999999999
40
0.624999999999999
40
0.749999999999999
40
0.749999999999999
40
0.875
40
0.875
40
1
40
1
40
1
40
1
41
1
10
57.0963274230652
20
-1.56976749628765
30
0
41
1
10
56.1788075609328
20
-1.23929236756518
30
0
41
1
10
55.2619139452781
20
-0.907678586457962
30
0
41
1
10
54.1168246478643
20
-0.491057193150766
30
0
41
1
10
53.8878562932497
20
-0.407633078431786
30
0
41
1
10
53.4299093209325
20
-0.24088781937894
30
0
41
1
10
52.7429802161545
20
0.0090943944584581
30
0
41
1
10
52.0560508111408
20
0.258742278350354
30
0
41
1
10
51.1402040493088
20
0.591473575498839
30
0
41
1
10
50.6823320227871
20
0.757832987992884
30
0
41
1
10
49.766550948307
20
1.09015239143324
30
0
41
1
10
49.3086288535396
20
1.2560762619475
30
0
41
1
10
48.3923961348813
20
1.58655663548376
30
0
41
1
10
47.9341063345434
20
1.75117077182415
30
0
41
1
10
47.0172549216539
20
2.07935331442548
30
0
41
1
10
46.5586951848608
20
2.24292681174615
30
0
41
1
10
46.1
20
2.4059773867948
30
0
0
SPLINE
5
CB
100
AcDbEntity
8
1
62
256
6
ByLayer
370
18
48
1
60
0
100
AcDbSpline
70
4
71
3
72
93
73
89
40
0
40
0
40
0
40
0
40
0.0312500000000012
40
0.0312500000000012
40
0.0625000000000024
40
0.0625000000000024
40
0.0937500000000037
40
0.0937500000000037
40
0.125000000000005
40
0.125000000000005
40
0.140625000000005
40
0.140625000000005
40
0.148437500000006
40
0.148437500000006
40
0.156250000000006
40
0.187500000000007
40
0.187500000000007
40
0.218750000000008
40
0.218750000000008
40
0.250000000000009
40
0.250000000000009
40
0.28125000000001
40
0.28125000000001
40
0.29687500000001
40
0.29687500000001
40
0.30468750000001
40
0.30468750000001
40
0.31250000000001
40
0.31250000000001
40
0.34375000000001
40
0.34375000000001
40
0.37500000000001
40
0.37500000000001
40
0.406250000000009
40
0.406250000000009
40
0.437500000000009
40
0.437500000000009
40
0.445312500000009
40
0.445312500000009
40
0.453125000000009
40
0.468750000000009
40
0.468750000000009
40
0.500000000000008
40
0.500000000000008
40
0.531250000000007
40
0.531250000000007
40
0.539062500000007
40
0.539062500000007
40
0.546875000000007
40
0.562500000000006
40
0.562500000000006
40
0.593750000000005
40
0.593750000000005
40
0.625000000000003
40
0.625000000000003
40
0.632812500000003
40
0.632812500000003
40
0.640625000000002
40
0.656250000000002
40
0.656250000000002
40
0.6875
40
0.6875
40
0.718749999999998
40
0.718749999999998
40
0.726562499999997
40
0.726562499999997
40
0.734374999999997
40
0.734374999999997
40
0.749999999999996
40
0.749999999999996
40
0.781249999999996
40
0.781249999999996
40
0.812499999999995
40
0.812499999999995
40
0.843749999999995
40
0.843749999999995
40
0.851562499999995
40
0.851562499999995
40
0.859374999999995
40
0.874999999999996
40
0.874999999999996
40
0.906249999999997
40
0.937499999999998
40
0.968749999999999
40
0.968749999999999
40
0.984375
40
0.984375
40
1
40
1
40
1
40
1
41
1
10
57.0963274230718
20
10.6506932908255
30
0
41
1
10
57.1650308628583
20
10.4803435046478
30
0
41
1
10
57.23384185732
20
10.3074351209477
30
0
41
1
10
57.3717961023429
20
9.95690402998571
30
0
41
1
10
57.4409392327057
20
9.77928042424605
30
0
41
1
10
57.5796398569239
20
9.41960942501092
30
0
41
1
10
57.6491974032022
20
9.23756152582919
30
0
41
1
10
57.7887755181811
20
8.86924351176353
30
0
41
1
10
57.8587963294623
20
8.68297318822331
30
0
41
1
10
57.9641829885538
20
8.40049331129347
30
0
41
1
10
57.9993707978182
20
8.30582035772181
30
0
41
1
10
58.0522385885726
20
8.1630476256116
30
0
41
1
10
58.0698876912871
20
8.11529640908694
30
0
41
1
10
58.1051515666974
20
8.01970889643556
30
0
41
1
10
58.1931813050829
20
7.7806449997417
30
0
41
1
10
58.2805701146775
20
7.54111319287549
30
0
41
1
10
58.419516960576
20
7.15726135965861
30
0
41
1
10
58.4885536020856
20
6.96503525387567
30
0
41
1
10
58.6255978451811
20
6.57994014644601
30
0
41
1
10
58.6936072161263
20
6.38707182512863
30
0
41
1
10
58.828304994593
20
6.00059566077491
30
0
41
1
10
58.8949960802927
20
5.806988768796
30
0
41
1
10
58.9936746940771
20
5.51589524071852
30
0
41
1
10
59.0263394434025
20
5.4187495307084
30
0
41
1
10
59.074927905548
20
5.2728354514343
30
0
41
1
10
59.0910648132378
20
5.22413734065151
30
0
41
1
10
59.1231424469331
20
5.12681207798579
30
0
41
1
10
59.1390771745286
20
5.0782034551338
30
0
41
1
10
59.2181975818193
20
4.83541936542886
30
0
41
1
10
59.2797429066676
20
4.6420234554474
30
0
41
1
10
59.3982061403301
20
4.25657713971233
30
0
41
1
10
59.4551318589105
20
4.06452797183692
30
0
41
1
10
59.5626261774978
20
3.68137573451537
30
0
41
1
10
59.6132038308597
20
3.49027353466045
30
0
41
1
10
59.7053957880709
20
3.10849748607791
30
0
41
1
10
59.7470142427628
20
2.91782209047008
30
0
41
1
10
59.7911141945884
20
2.67934832217279
30
0
41
1
10
59.7995428248979
20
2.63160122339107
30
0
41
1
10
59.8154980157316
20
2.53629856719311
30
0
41
1
10
59.838045425616
20
2.39384328559311
30
0
41
1
10
59.8561939499249
20
2.25290298124594
30
0
41
1
10
59.8860343976625
20
1.97311928771757
30
0
41
1
10
59.8972559571791
20
1.78938275299046
30
0
41
1
10
59.9002499510216
20
1.42812932432807
30
0
41
1
10
59.892004608808
20
1.25061546347771
30
0
41
1
10
59.8696120834515
20
1.03318928785825
30
0
41
1
10
59.8645269228616
20
0.98986753497806
30
0
41
1
10
59.8532225139766
20
0.903976349886506
30
0
41
1
10
59.8346023993158
20
0.776506072252459
30
0
41
1
10
59.811279417664
20
0.653085398498035
30
0
41
1
10
59.7591439781284
20
0.411514246102541
30
0
41
1
10
59.7170976798057
20
0.257483996018181
30
0
41
1
10
59.6222103440547
20
-0.0370827011847155
30
0
41
1
10
59.5693773554136
20
-0.177623143923
30
0
41
1
10
59.4983415778385
20
-0.344989093783624
30
0
41
1
10
59.4838669429146
20
-0.378079154538
30
0
41
1
10
59.4545211088692
20
-0.44326045012167
30
0
41
1
10
59.4099524230098
20
-0.539438674497973
30
0
41
1
10
59.3639043236559
20
-0.630929057625821
30
0
41
1
10
59.2701927142331
20
-0.807845758217184
30
0
41
1
10
59.2055857333457
20
-0.917721638164835
30
0
41
1
10
59.0733584462587
20
-1.12186900059291
30
0
41
1
10
59.0057292332269
20
-1.21613759345266
30
0
41
1
10
58.9197155666113
20
-1.32423208719575
30
0
41
1
10
58.9024378825006
20
-1.34536278067333
30
0
41
1
10
58.8677390212904
20
-1.38664362132431
30
0
41
1
10
58.8503118424916
20
-1.40679909279365
30
0
41
1
10
58.7980542906041
20
-1.465533996586
30
0
41
1
10
58.7631733562966
20
-1.50247454995301
30
0
41
1
10
58.6584574257786
20
-1.6067960344451
30
0
41
1
10
58.5885545027598
20
-1.66769017674144
30
0
41
1
10
58.4486910651351
20
-1.77260235452738
30
0
41
1
10
58.378728376622
20
-1.81661867454702
30
0
41
1
10
58.2387237058048
20
-1.88779091140731
30
0
41
1
10
58.1686807308513
20
-1.91494686471938
30
0
41
1
10
58.0810040108582
20
-1.93812399335013
30
0
41
1
10
58.0634587858892
20
-1.94221925287448
30
0
41
1
10
58.0285150198309
20
-1.94929473020954
30
0
41
1
10
57.9762586486619
20
-1.95825255460815
30
0
41
1
10
57.9244630606652
20
-1.96229896690804
30
0
41
1
10
57.8214410164578
20
-1.963953341582
30
0
41
1
10
57.6855955834312
20
-1.94901248629461
30
0
41
1
10
57.4856652089677
20
-1.87607197659057
30
0
41
1
10
57.354467656508
20
-1.79368585332074
30
0
41
1
10
57.2566757874339
20
-1.71895481415004
30
0
41
1
10
57.224290164282
20
-1.69196754319972
30
0
41
1
10
57.1599864291173
20
-1.6339287183776
30
0
41
1
10
57.1280552279294
20
-1.60286718930249
30
0
41
1
10
57.0963274230717
20
-1.56976749629001
30
0
0
SPLINE
5
CC
100
AcDbEntity
8
1
62
256
6
ByLayer
370
18
48
1
60
0
100
AcDbSpline
70
4
71
3
72
18
73
14
40
0
40
0
40
0
40
0
40
0.100071955876973
40
0.100071955876973
40
0.280057564701579
40
0.280057564701579
40
0.460043173526184
40
0.460043173526184
40
0.640028782350789
40
0.640028782350789
40
0.820014391175395
40
0.820014391175395
40
1
40
1
40
1
40
1
41
1
10
49.4606028265245
20
10.9986261510129
30
0
41
1
10
49.7152884845572
20
10.9986755810058
30
0
41
1
10
49.9699289809047
20
10.9975543947237
30
0
41
1
10
50.6824150513849
20
10.9911306670751
30
0
41
1
10
51.1401132073258
20
10.9831844240927
30
0
41
1
10
52.0558747846512
20
10.9597749812576
30
0
41
1
10
52.5138615789634
20
10.9443158237563
30
0
41
1
10
53.4298970128698
20
10.9058779122096
30
0
41
1
10
53.8879247457929
20
10.8828890280008
30
0
41
1
10
54.8040161833525
20
10.8293174878294
30
0
41
1
10
55.2621129647134
20
10.7987409936552
30
0
41
1
10
56.1788304346072
20
10.7302219787552
30
0
41
1
10
56.6374855349432
20
10.6923128212346
30
0
41
1
10
57.0963274230652
20
10.6506932908261
30
0
0
SPLINE
5
CD
100
AcDbEntity
8
1
62
256
6
ByLayer
370
18
48
1
60
0
100
AcDbSpline
70
4
71
3
72
40
73
36
40
0
40
0
40
0
40
0
40
0.0442245113242548
40
0.0442245113242548
40
0.123872468713899
40
0.123872468713899
40
0.203520426103543
40
0.203520426103543
40
0.283168383493188
40
0.283168383493188
40
0.362816340882832
40
0.362816340882832
40
0.402640319577654
40
0.402640319577654
40
0.442464298272476
40
0.442464298272476
40
0.482288276967298
40
0.482288276967298
40
0.52211225566212
40
0.52211225566212
40
0.601760213051765
40
0.601760213051765
40
0.641584191746588
40
0.641584191746588
40
0.681408170441411
40
0.681408170441411
40
0.761056127831057
40
0.761056127831057
40
0.80088010652588
40
0.80088010652588
40
0.840704085220704
40
0.840704085220704
40
0.920352042610352
40
0.920352042610352
40
1
40
1
40
1
40
1
41
1
10
27.3771963449499
20
7.89446076725699
30
0
41
1
10
27.652887093202
20
7.9603103960622
30
0
41
1
10
27.9285815664054
20
8.02511396426655
30
0
41
1
10
28.7007639971729
20
8.20380084896289
30
0
41
1
10
29.1972124385861
20
8.3154386011673
30
0
41
1
10
30.1899083531108
20
8.53233703095097
30
0
41
1
10
30.6861939257603
20
8.63751976026873
30
0
41
1
10
31.6791482097664
20
8.84048836029424
30
0
41
1
10
32.1758652037704
20
8.93820848082606
30
0
41
1
10
33.1695293249037
20
9.12654402342162
30
0
41
1
10
33.6664795543768
20
9.21715141401654
30
0
41
1
10
34.4120334212464
20
9.34773861765964
30
0
41
1
10
34.660574575821
20
9.3903755222849
30
0
41
1
10
35.157873168984
20
9.47362686213012
30
0
41
1
10
35.4066265869131
20
9.51424863966832
30
0
41
1
10
35.9043165467091
20
9.59352538219028
30
0
41
1
10
36.1532967580266
20
9.63218681070589
30
0
41
1
10
36.6511291271786
20
9.70752903696646
30
0
41
1
10
36.8999922608817
20
9.74421188445316
30
0
41
1
10
37.6463889955022
20
9.8513332549955
30
0
41
1
10
38.1436851037156
20
9.91888917474773
30
0
41
1
10
38.8894526790394
20
10.0141052180664
30
0
41
1
10
39.1380167442329
20
10.0448206834895
30
0
41
1
10
39.6351633634946
20
10.1041445881417
30
0
41
1
10
39.8837533047048
20
10.1327470159822
30
0
41
1
10
40.6295343270482
20
10.215427973512
30
0
41
1
10
41.1267105575369
20
10.2664071054404
30
0
41
1
10
41.8723572651211
20
10.3367267093669
30
0
41
1
10
42.1208866699042
20
10.359140395681
30
0
41
1
10
42.617908870466
20
10.4019015214316
30
0
41
1
10
42.8664063572721
20
10.4222438398152
30
0
41
1
10
43.6121133513371
20
10.4799937554042
30
0
41
1
10
44.1094970606865
20
10.514163267138
30
0
41
1
10
45.1045627348038
20
10.573995788005
30
0
41
1
10
45.6022265589497
20
10.5996643516228
30
0
41
1
10
46.1
20
10.6210554302394
30
0
0
SPLINE
5
CE
100
AcDbEntity
8
1
62
256
6
ByLayer
370
18
48
1
60
0
100
AcDbSpline
70
4
71
3
72
48
73
44
40
0
40
0
40
0
40
0
40
0.0312499999999995
40
0.0312499999999995
40
0.0624999999999991
40
0.0624999999999991
40
0.124999999999998
40
0.124999999999998
40
0.187499999999997
40
0.187499999999997
40
0.249999999999996
40
0.249999999999996
40
0.281249999999997
40
0.281249999999997
40
0.312499999999997
40
0.312499999999997
40
0.374999999999997
40
0.374999999999997
40
0.437499999999998
40
0.437499999999998
40
0.468749999999998
40
0.468749999999998
40
0.499999999999999
40
0.499999999999999
40
0.562500000000001
40
0.562500000000001
40
0.593750000000001
40
0.593750000000001
40
0.625000000000001
40
0.625000000000001
40
0.687500000000002
40
0.687500000000002
40
0.750000000000002
40
0.750000000000002
40
0.812500000000003
40
0.812500000000003
40
0.843750000000002
40
0.843750000000002
40
0.875000000000002
40
0.875000000000002
40
0.937500000000001
40
0.937500000000001
40
1
40
1
40
1
40
1
41
1
10
46.1
20
2.2331431237042
30
0
41
1
10
45.8010312133585
20
2.33680003576867
30
0
41
1
10
45.5021882658587
20
2.44012753558769
30
0
41
1
10
44.90460290184
20
2.64570073823668
30
0
41
1
10
44.6058787336576
20
2.74799899262635
30
0
41
1
10
43.7099294200611
20
3.05348820224535
30
0
41
1
10
43.1129408262141
20
3.25531262346959
30
0
41
1
10
41.9196127227609
20
3.65536180928814
30
0
41
1
10
41.3232461751874
20
3.85350509649058
30
0
41
1
10
40.1304627889346
20
4.24431997012999
30
0
41
1
10
39.5340767538
20
4.43708209284696
30
0
41
1
10
38.6395965191466
20
4.72249681418501
30
0
41
1
10
38.341453085349
20
4.81701328569341
30
0
41
1
10
37.7451974504855
20
5.00479134918535
30
0
41
1
10
37.4470781426451
20
5.09803386526087
30
0
41
1
10
36.5524749552322
20
5.37514342841081
30
0
41
1
10
35.9558160589889
20
5.55657530366332
30
0
41
1
10
34.7620930993049
20
5.91309840104916
30
0
41
1
10
34.1650745308342
20
6.08829435457568
30
0
41
1
10
33.269044155804
20
6.34582128020941
30
0
41
1
10
32.9702755038618
20
6.43076678172707
30
0
41
1
10
32.3724665972503
20
6.59866019775436
30
0
41
1
10
32.0733713344297
20
6.68163212650276
30
0
41
1
10
31.1765827312
20
6.92741762116631
30
0
41
1
10
30.5791609053908
20
7.08717583113037
30
0
41
1
10
29.6837338859536
20
7.32076363761377
30
0
41
1
10
29.3853773652112
20
7.39761782351997
30
0
41
1
10
28.7887083222933
20
7.54890800362494
30
0
41
1
10
28.4904091271667
20
7.62337382724627
30
0
41
1
10
27.5956343461814
20
7.84328635449592
30
0
41
1
10
26.9992869457631
20
7.98526341838189
30
0
41
1
10
25.8070131824817
20
8.26010492626648
30
0
41
1
10
25.2110743391539
20
8.39293023580876
30
0
41
1
10
24.0189615232331
20
8.64826526390505
30
0
41
1
10
23.4227725856754
20
8.77076623430094
30
0
41
1
10
22.5283921926645
20
8.9469475140738
30
0
41
1
10
22.2302473072102
20
9.00440839108359
30
0
41
1
10
21.63393058657
20
9.11680050783932
30
0
41
1
10
21.3357687052322
20
9.17174467157429
30
0
41
1
10
20.4409870978712
20
9.33239011760278
30
0
41
1
10
19.8440857564675
20
9.43393828332984
30
0
41
1
10
18.6495740012173
20
9.62603157367224
30
0
41
1
10
18.0519672252215
20
9.7165832720782
30
0
41
1
10
17.4540659904839
20
9.80164910647963
30
0
0
SPLINE
5
CF
100
AcDbEntity
8
1
62
256
6
ByLayer
370
18
48
1
60
0
100
AcDbSpline
70
4
71
3
72
11
73
7
40
0
40
0
40
0
40
0
40
0.499999999999993
40
0.499999999999993
40
0.749999999999996
40
1
40
1
40
1
40
1
41
1
10
17.4540659904838
20
-9.80164910647977
30
0
41
1
10
17.0386144980419
20
-9.86267781272866
30
0
41
1
10
16.626932245578
20
-9.92434269007447
30
0
41
1
10
16.0137062687997
20
-10.0150209820168
30
0
41
1
10
15.6063389369497
20
-10.0748913782222
30
0
41
1
10
15.2016660988147
20
-10.1329654250011
30
0
41
1
10
15
20
-10.1614332986432
30
0
0
SPLINE
5
D0
100
AcDbEntity
8
1
62
256
6
ByLayer
370
18
48
1
60
0
100
AcDbSpline
70
4
71
4
72
10
73
5
40
0
40
0
40
0
40
0
40
0
40
1
40
1
40
1
40
1
40
1
41
0.999088112989674
10
18.319329456998
20
-5.70481058851303
30
0
41
0.9973593003036
10
18.0231887209519
20
-6.55018440773773
30
0
41
0.994342186663067
10
17.7601653476811
20
-7.56631385864413
30
0
41
0.995137174963636
10
17.568732750821
20
-8.68692901903201
30
0
41
0.996907709499566
10
17.4540659904839
20
-9.80164910647979
30
0
0
SPLINE
5
D1
100
AcDbEntity
8
1
62
256
6
ByLayer
370
18
48
1
60
0
100
AcDbSpline
70
4
71
3
72
23
73
19
40
0
40
0
40
0
40
0
40
0.124999999999995
40
0.124999999999995
40
0.24999999999999
40
0.24999999999999
40
0.374999999999986
40
0.374999999999986
40
0.499999999999981
40
0.499999999999981
40
0.562499999999981
40
0.562499999999981
40
0.624999999999982
40
0.749999999999988
40
0.749999999999988
40
0.874999999999994
40
0.874999999999994
40
1
40
1
40
1
40
1
41
1
10
15.0000000000009
20
-5.65770219593907
30
0
41
1
10
15.3080117130913
20
-5.62733372811343
30
0
41
1
10
15.6156197061444
20
-5.60738922476267
30
0
41
1
10
16.2300820638467
20
-5.58719894919909
30
0
41
1
10
16.5369361705418
20
-5.58695810584663
30
0
41
1
10
17.1499351084815
20
-5.60501740746921
30
0
41
1
10
17.4560797225864
20
-5.62332178854371
30
0
41
1
10
18.0677022394349
20
-5.67715688781161
30
0
41
1
10
18.3731799555872
20
-5.71269096789513
30
0
41
1
10
18.8309316149824
20
-5.77772162387399
30
0
41
1
10
18.9830086258764
20
-5.80129082527151
30
0
41
1
10
19.2858585264251
20
-5.85186358868972
30
0
41
1
10
19.7383558974937
20
-5.93289901371324
30
0
41
1
10
20.1858742391852
20
-6.02810110796008
30
0
41
1
10
20.778782027725
20
-6.16515850439319
30
0
41
1
10
21.0733453096259
20
-6.23874307993702
30
0
41
1
10
21.6593336106598
20
-6.39358427755653
30
0
41
1
10
21.9507608064837
20
-6.47483374262904
30
0
41
1
10
22.2409182415568
20
-6.55879880054582
30
0
0
SPLINE
5
D2
100
AcDbEntity
8
1
62
256
6
ByLayer
370
18
48
1
60
0
100
AcDbSpline
70
4
71
3
72
26
73
22
40
0
40
0
40
0
40
0
40
0.0636704288628513
40
0.0636704288628513
40
0.180711625254989
40
0.180711625254989
40
0.297752821647126
40
0.297752821647126
40
0.356273419843197
40
0.356273419843197
40
0.414794018039268
40
0.414794018039268
40
0.531835214431414
40
0.531835214431414
40
0.648876410823561
40
0.648876410823561
40
0.765917607215707
40
0.765917607215707
40
0.882958803607854
40
0.882958803607854
40
1
40
1
40
1
40
1
41
1
10
9.10663623098412
20
12.8117920380252
30
0
41
1
10
9.22183728084681
20
12.7704651696683
30
0
41
1
10
9.33826999474738
20
12.7276523570967
30
0
41
1
10
9.67185646082089
20
12.6024049265732
30
0
41
1
10
9.89163108010567
20
12.516832728277
30
0
41
1
10
10.337173344798
20
12.3382868800003
30
0
41
1
10
10.5629407000159
20
12.2453094062127
30
0
41
1
10
10.9051063542517
20
12.1010784766618
30
0
41
1
10
11.019796876368
20
12.0521833342718
30
0
41
1
10
11.2499877742276
20
11.9529897808135
30
0
41
1
10
11.3653674150154
20
11.9027438411994
30
0
41
1
10
11.7122155360819
20
11.7501684296646
30
0
41
1
10
11.9443845986125
20
11.6460079558898
30
0
41
1
10
12.4100101752432
20
11.4331888550327
30
0
41
1
10
12.6434637714378
20
11.3245262665012
30
0
41
1
10
13.1113782669543
20
11.1029202788375
30
0
41
1
10
13.34583718942
20
10.9899727236261
30
0
41
1
10
13.8158718451703
20
10.7599722737121
30
0
41
1
10
14.0514473913342
20
10.642915480894
30
0
41
1
10
14.5242496020231
20
10.404953122563
30
0
41
1
10
14.7614779215369
20
10.2840445806805
30
0
41
1
10
15.0000000000001
20
10.1614332986432
30
0
0
SPLINE
5
D3
100
AcDbEntity
8
1
62
256
6
ByLayer
370
18
48
1
60
0
100
AcDbSpline
70
4
71
3
72
109
73
105
40
0
40
0
40
0
40
0
40
0.0312499999999914
40
0.0312499999999914
40
0.0624999999999829
40
0.0624999999999829
40
0.0937499999999743
40
0.0937499999999743
40
0.124999999999966
40
0.124999999999966
40
0.156249999999957
40
0.156249999999957
40
0.171874999999953
40
0.171874999999953
40
0.179687499999951
40
0.179687499999951
40
0.18749999999995
40
0.18749999999995
40
0.218749999999947
40
0.218749999999947
40
0.249999999999945
40
0.249999999999945
40
0.281249999999942
40
0.281249999999942
40
0.289062499999943
40
0.289062499999943
40
0.296874999999943
40
0.312499999999942
40
0.312499999999942
40
0.343749999999942
40
0.343749999999942
40
0.359374999999942
40
0.359374999999942
40
0.367187499999942
40
0.367187499999942
40
0.374999999999942
40
0.374999999999942
40
0.406249999999943
40
0.406249999999943
40
0.421874999999944
40
0.421874999999944
40
0.429687499999945
40
0.429687499999945
40
0.433593749999945
40
0.433593749999945
40
0.437499999999945
40
0.453124999999946
40
0.468749999999947
40
0.468749999999947
40
0.484374999999948
40
0.484374999999948
40
0.492187499999948
40
0.492187499999948
40
0.496093749999948
40
0.496093749999948
40
0.499999999999949
40
0.515624999999949
40
0.515624999999949
40
0.53124999999995
40
0.546874999999951
40
0.546874999999951
40
0.550781249999951
40
0.550781249999951
40
0.554687499999952
40
0.562499999999952
40
0.562499999999952
40
0.593749999999954
40
0.593749999999954
40
0.601562499999955
40
0.601562499999955
40
0.605468749999955
40
0.605468749999955
40
0.609374999999955
40
0.624999999999957
40
0.624999999999957
40
0.656249999999961
40
0.656249999999961
40
0.671874999999964
40
0.671874999999964
40
0.679687499999965
40
0.679687499999965
40
0.687499999999965
40
0.687499999999965
40
0.718749999999968
40
0.718749999999968
40
0.74999999999997
40
0.74999999999997
40
0.781249999999972
40
0.781249999999972
40
0.812499999999974
40
0.812499999999974
40
0.828124999999976
40
0.828124999999976
40
0.843749999999977
40
0.843749999999977
40
0.874999999999982
40
0.874999999999982
40
0.906249999999986
40
0.906249999999986
40
0.937499999999991
40
0.937499999999991
40
0.968749999999995
40
0.968749999999995
40
1
40
1
40
1
40
1
41
1
10
15.0000000000008
20
-5.65770219593907
30
0
41
1
10
14.7341750252689
20
-5.74638200875631
30
0
41
1
10
14.4705657816691
20
-5.84067359182674
30
0
41
1
10
13.9477185887012
20
-6.04049054680848
30
0
41
1
10
13.6884804788864
20
-6.14601535372495
30
0
41
1
10
13.1743224361185
20
-6.3683686014252
30
0
41
1
10
12.9194022850924
20
-6.48519617441124
30
0
41
1
10
12.4138399408806
20
-6.73030621210188
30
0
41
1
10
12.1631974419459
20
-6.85858734890263
30
0
41
1
10
11.6661707947043
20
-7.12686938170359
30
0
41
1
10
11.41978618762
20
-7.26686816553644
30
0
41
1
10
11.0534121638129
20
-7.48597758279283
30
0
41
1
10
10.931821593153
20
-7.56053406400039
30
0
41
1
10
10.7502413720942
20
-7.67470565788153
30
0
41
1
10
10.6898025479105
20
-7.71318244321338
30
0
41
1
10
10.5694104235151
20
-7.79078699536174
30
0
41
1
10
10.5095366119318
20
-7.82986272403718
30
0
41
1
10
10.2117815292592
20
-8.02659448544884
30
0
41
1
10
9.97873363902087
20
-8.18830517389375
30
0
41
1
10
9.52314847026764
20
-8.5200869605857
30
0
41
1
10
9.30060789072223
20
-8.6901566945244
30
0
41
1
10
8.86649780479092
20
-9.03850445574767
30
0
41
1
10
8.65492197911905
20
-9.21677975922162
30
0
41
1
10
8.39784858763954
20
-9.44478235152778
30
0
41
1
10
8.34676967604116
20
-9.49067516264938
30
0
41
1
10
8.2459098365581
20
-9.58248698503905
30
0
41
1
10
8.09637771021289
20
-9.72040991856687
30
0
41
1
10
7.95216005434764
20
-9.85888054322459
30
0
41
1
10
7.67099098788563
20
-10.1363705105268
30
0
41
1
10
7.49319548855459
20
-10.3220978665156
30
0
41
1
10
7.24226343341755
20
-10.6010398970985
30
0
41
1
10
7.16125467542247
20
-10.6940786240008
30
0
41
1
10
7.04395576248669
20
-10.8336224359896
30
0
41
1
10
7.00553798186473
20
-10.8801609738197
30
0
41
1
10
6.93025314510376
20
-10.97310515031
30
0
41
1
10
6.89356310099507
20
-11.0192913623753
30
0
41
1
10
6.71491864197756
20
-11.248728084005
30
0
41
1
10
6.58729780026596
20
-11.4275186045332
30
0
41
1
10
6.42057995090707
20
-11.6870768908285
30
0
41
1
10
6.36914215914337
20
-11.7721540936032
30
0
41
1
10
6.29859432101637
20
-11.8973648649979
30
0
41
1
10
6.27618136387781
20
-11.938700473387
30
0
41
1
10
6.24428306907964
20
-12.0000665872437
30
0
41
1
10
6.23396173962971
20
-12.0203694899132
30
0
41
1
10
6.21399823301158
20
-12.0605580435129
30
0
41
1
10
6.16574417214594
20
-12.1600718222477
30
0
41
1
10
6.09371776196463
20
-12.3305679521289
30
0
41
1
10
6.05086925914162
20
-12.4696192410045
30
0
41
1
10
6.01884040852622
20
-12.6022274282338
30
0
41
1
10
6.00823503370339
20
-12.6653103560608
30
0
41
1
10
6.0007757676517
20
-12.7548891103554
30
0
41
1
10
5.9996992333441
20
-12.7839069917574
30
0
41
1
10
6.00025847427492
20
-12.8261368901965
30
0
41
1
10
6.00080931688939
20
-12.8400144321082
30
0
41
1
10
6.00263376767515
20
-12.8671754629948
30
0
41
1
10
6.00900018944714
20
-12.9336687784007
30
0
41
1
10
6.02426721283373
20
-12.9932176786083
30
0
41
1
10
6.0597078496406
20
-13.0799644953828
30
0
41
1
10
6.10616411384092
20
-13.1581783397199
30
0
41
1
10
6.17429514721999
20
-13.2197951501327
30
0
41
1
10
6.22364856403132
20
-13.2532002831976
30
0
41
1
10
6.23387139110713
20
-13.2596330688374
30
0
41
1
10
6.25491108055905
20
-13.2719407196475
30
0
41
1
10
6.28736738046285
20
-13.2895731539569
30
0
41
1
10
6.32246264906121
20
-13.304777147559
30
0
41
1
10
6.44511412531361
20
-13.3502929586261
30
0
41
1
10
6.56128249504607
20
-13.3702614634404
30
0
41
1
10
6.72691627991944
20
-13.3774474090719
30
0
41
1
10
6.76106926512281
20
-13.377991183743
30
0
41
1
10
6.81381145710628
20
-13.3775063916734
30
0
41
1
10
6.83165628969533
20
-13.3771272813986
30
0
41
1
10
6.8677093997739
20
-13.3759474578902
30
0
41
1
10
6.95882296341557
20
-13.3719430669985
30
0
41
1
10
7.05471153276756
20
-13.3628431117976
30
0
41
1
10
7.29324555848712
20
-13.3322951415127
30
0
41
1
10
7.46344059221491
20
-13.3003632244138
30
0
41
1
10
7.73323017915078
20
-13.2383028787482
30
0
41
1
10
7.82558505021763
20
-13.2152429809572
30
0
41
1
10
7.96753064740668
20
-13.1774011568136
30
0
41
1
10
8.01541502480757
20
-13.1642447111064
30
0
41
1
10
8.11228771595808
20
-13.1368926390097
30
0
41
1
10
8.16133174536748
20
-13.1226803488068
30
0
41
1
10
8.40853653522458
20
-13.0493345454261
30
0
41
1
10
8.61181191449973
20
-12.9836539115949
30
0
41
1
10
9.02741453805606
20
-12.841314998927
30
0
41
1
10
9.23974968258366
20
-12.7646425146955
30
0
41
1
10
9.67185646082086
20
-12.6024049265732
30
0
41
1
10
9.89163108010564
20
-12.516832728277
30
0
41
1
10
10.337173344798
20
-12.3382868800003
30
0
41
1
10
10.5629407000159
20
-12.2453094062127
30
0
41
1
10
10.9051063542517
20
-12.1010784766619
30
0
41
1
10
11.019796876368
20
-12.0521833342718
30
0
41
1
10
11.2499877742276
20
-11.9529897808135
30
0
41
1
10
11.3653674150154
20
-11.9027438411994
30
0
41
1
10
11.7122155360819
20
-11.7501684296645
30
0
41
1
10
11.9443845986125
20
-11.6460079558898
30
0
41
1
10
12.4100101752432
20
-11.4331888550327
30
0
41
1
10
12.6434637714378
20
-11.3245262665012
30
0
41
1
10
13.1113782669543
20
-11.1029202788375
30
0
41
1
10
13.34583718942
20
-10.9899727236261
30
0
41
1
10
13.8158718451704
20
-10.7599722737121
30
0
41
1
10
14.0514473913342
20
-10.642915480894
30
0
41
1
10
14.5242496020231
20
-10.4049531225629
30
0
41
1
10
14.7614779215369
20
-10.2840445806804
30
0
41
1
10
15
20
-10.1614332986431
30
0
0
SPLINE
5
D4
100
AcDbEntity
8
SK1
62
256
6
ByLayer
370
18
48
1
60
0
100
AcDbSpline
70
4
71
3
72
34
73
30
40
0
40
0
40
0
40
0
40
0.125000000000001
40
0.125000000000001
40
0.250000000000002
40
0.250000000000002
40
0.375000000000003
40
0.375000000000003
40
0.437500000000004
40
0.437500000000004
40
0.500000000000005
40
0.500000000000005
40
0.625000000000005
40
0.625000000000005
40
0.656250000000005
40
0.656250000000005
40
0.687500000000005
40
0.687500000000005
40
0.750000000000005
40
0.750000000000005
40
0.812500000000005
40
0.812500000000005
40
0.843750000000004
40
0.843750000000004
40
0.875000000000004
40
0.875000000000004
40
0.937500000000002
40
0.937500000000002
40
1
40
1
40
1
40
1
41
1
10
-52.5003287739481
20
-3.62059097355461
30
0
41
1
10
-52.4791023107682
20
-3.69580949914169
30
0
41
1
10
-52.456173666836
20
-3.7701328086529
30
0
41
1
10
-52.4062202513365
20
-3.91675156331095
30
0
41
1
10
-52.3792000011184
20
-3.98904864238443
30
0
41
1
10
-52.3201140822394
20
-4.13128549106548
30
0
41
1
10
-52.2880578558644
20
-4.20122868864783
30
0
41
1
10
-52.2351342019209
20
-4.30400502578081
30
0
41
1
10
-52.2166821098451
20
-4.33790583931534
30
0
41
1
10
-52.1779019271959
20
-4.40490146665846
30
0
41
1
10
-52.1575385793023
20
-4.43805147836142
30
0
41
1
10
-52.093380094742
20
-4.53574061166557
30
0
41
1
10
-52.0468993353633
20
-4.59806703723407
30
0
41
1
10
-51.9825062567773
20
-4.67139689881651
30
0
41
1
10
-51.9693089720826
20
-4.68583123022111
30
0
41
1
10
-51.9422155209833
20
-4.71419608571787
30
0
41
1
10
-51.9282893124732
20
-4.72815494045494
30
0
41
1
10
-51.8855899983215
20
-4.7689776324583
30
0
41
1
10
-51.8559681934236
20
-4.79473829352929
30
0
41
1
10
-51.7940523105194
20
-4.84293492664423
30
0
41
1
10
-51.7617609635258
20
-4.86537421079322
30
0
41
1
10
-51.710934585781
20
-4.89608972183805
30
0
41
1
10
-51.6935927882519
20
-4.9058359097269
30
0
41
1
10
-51.6580214478988
20
-4.92423937407065
30
0
41
1
10
-51.6397301965266
20
-4.93292309713041
30
0
41
1
10
-51.583780125377
20
-4.9569645106269
30
0
41
1
10
-51.5455987975117
20
-4.97010157811332
30
0
41
1
10
-51.4673083175319
20
-4.99008231274206
30
0
41
1
10
-51.4272005227822
20
-4.99693051090844
30
0
41
1
10
-51.3860020460814
20
-5.00022676868039
30
0
0
SPLINE
5
D5
100
AcDbEntity
8
SK1
62
256
6
ByLayer
370
18
48
1
60
0
100
AcDbSpline
70
4
71
3
72
34
73
30
40
0
40
0
40
0
40
0
40
0.0625000000000001
40
0.0625000000000001
40
0.125
40
0.125
40
0.1875
40
0.1875
40
0.25
40
0.25
40
0.28125
40
0.28125
40
0.312499999999999
40
0.312499999999999
40
0.374999999999998
40
0.374999999999998
40
0.499999999999995
40
0.499999999999995
40
0.531249999999995
40
0.531249999999995
40
0.562499999999995
40
0.562499999999995
40
0.624999999999996
40
0.624999999999996
40
0.749999999999997
40
0.749999999999997
40
0.874999999999999
40
0.874999999999999
40
1
40
1
40
1
40
1
41
1
10
-51.3860020460814
20
5.00022676868039
30
0
41
1
10
-51.4271597094618
20
4.99693377635015
30
0
41
1
10
-51.4672462826171
20
4.9900941818546
30
0
41
1
10
-51.5455242136708
20
4.97012456894885
30
0
41
1
10
-51.5837142752675
20
4.95699014998107
30
0
41
1
10
-51.658355568598
20
4.92492253812571
30
0
41
1
10
-51.6938849422845
20
4.90639169663621
30
0
41
1
10
-51.7618166387264
20
4.86534206803361
30
0
41
1
10
-51.7942559781117
20
4.84279931421437
30
0
41
1
10
-51.8409760500773
20
4.80639681369991
30
0
41
1
10
-51.8562248159031
20
4.79382938651
30
0
41
1
10
-51.8861176712827
20
4.76788296468004
30
0
41
1
10
-51.9007110618413
20
4.75454548912128
30
0
41
1
10
-51.9432559764382
20
4.71379512925466
30
0
41
1
10
-51.9701014783725
20
4.68554212638855
30
0
41
1
10
-52.0468805903312
20
4.59805033156974
30
0
41
1
10
-52.0930959781036
20
4.5361050376323
30
0
41
1
10
-52.146279276313
20
4.45521167958731
30
0
41
1
10
-52.1566830990007
20
4.43885754119347
30
0
41
1
10
-52.1770537162702
20
4.4058167491863
30
0
41
1
10
-52.1870311208955
20
4.38911114781021
30
0
41
1
10
-52.2162315231511
20
4.33872068618709
30
0
41
1
10
-52.2347469485042
20
4.30473232112985
30
0
41
1
10
-52.2878314108395
20
4.20171722667834
30
0
41
1
10
-52.3199565384223
20
4.13164670884206
30
0
41
1
10
-52.3791390929746
20
3.98921323503123
30
0
41
1
10
-52.4061866509714
20
3.91684682729945
30
0
41
1
10
-52.4561716481468
20
3.77014208810513
30
0
41
1
10
-52.4791043925606
20
3.69580212206003
30
0
41
1
10
-52.5003287739482
20
3.62059097355464
30
0
0
SPLINE
5
D6
100
AcDbEntity
8
SK1
62
256
6
ByLayer
370
18
48
1
60
0
100
AcDbSpline
70
4
71
3
72
32
73
28
40
0
40
0
40
0
40
0
40
0.124999999999982
40
0.124999999999982
40
0.249999999999963
40
0.249999999999963
40
0.374999999999945
40
0.374999999999945
40
0.406249999999941
40
0.406249999999941
40
0.437499999999938
40
0.499999999999932
40
0.499999999999932
40
0.624999999999931
40
0.624999999999931
40
0.656249999999931
40
0.656249999999931
40
0.68749999999993
40
0.68749999999993
40
0.749999999999941
40
0.749999999999941
40
0.874999999999977
40
0.874999999999977
40
0.906249999999979
40
0.906249999999979
40
0.937499999999981
40
1
40
1
40
1
40
1
41
1
10
-14.0157764695459
20
6.59242894057729
30
0
41
1
10
-14.0458287908144
20
6.6375753796253
30
0
41
1
10
-14.0777095790597
20
6.68135165141678
30
0
41
1
10
-14.1456160664485
20
6.76590887596987
30
0
41
1
10
-14.1816386907667
20
6.80669170869109
30
0
41
1
10
-14.2584995514322
20
6.88489663469755
30
0
41
1
10
-14.2993317458756
20
6.92232243783545
30
0
41
1
10
-14.35399779722
20
6.96665617585003
30
0
41
1
10
-14.3651284778382
20
6.97541075031074
30
0
41
1
10
-14.3876400333972
20
6.9925614515505
30
0
41
1
10
-14.4218166346372
20
7.01777898878851
30
0
41
1
10
-14.4572545898122
20
7.04143848131534
30
0
41
1
10
-14.529923003083
20
7.08656817107874
30
0
41
1
10
-14.5807455844469
20
7.11375097789289
30
0
41
1
10
-14.6477689594914
20
7.14354340177493
30
0
41
1
10
-14.6613494138678
20
7.1492913738704
30
0
41
1
10
-14.6888796972728
20
7.1603468035685
30
0
41
1
10
-14.7028224503024
20
7.16564964334611
30
0
41
1
10
-14.7448319317882
20
7.18073146134719
30
0
41
1
10
-14.7732044950192
20
7.1897362156873
30
0
41
1
10
-14.8594560991353
20
7.21351895535656
30
0
41
1
10
-14.9184624466539
20
7.22508541231923
30
0
41
1
10
-14.9943023139084
20
7.23365556703433
30
0
41
1
10
-15.009604540326
20
7.23507501753883
30
0
41
1
10
-15.0401948935638
20
7.23728819114979
30
0
41
1
10
-15.0861089470591
20
7.23967813447453
30
0
41
1
10
-15.1321084232236
20
7.23928527151031
30
0
41
1
10
-15.1628130403699
20
7.23777548279986
30
0
0
SPLINE
5
D7
100
AcDbEntity
8
SK1
62
256
6
ByLayer
370
18
48
1
60
0
100
AcDbSpline
70
4
71
3
72
24
73
20
40
0
40
0
40
0
40
0
40
0.124999999999998
40
0.124999999999998
40
0.249999999999995
40
0.249999999999995
40
0.374999999999993
40
0.374999999999993
40
0.49999999999999
40
0.49999999999999
40
0.624999999999988
40
0.624999999999988
40
0.749999999999985
40
0.749999999999985
40
0.812499999999989
40
0.812499999999989
40
0.874999999999992
40
0.874999999999992
40
1
40
1
40
1
40
1
41
1
10
-15.1628130403699
20
-7.23777548279986
30
0
41
1
10
-15.1013368482927
20
-7.2407983526281
30
0
41
1
10
-15.0406973758297
20
-7.23880609117487
30
0
41
1
10
-14.920978556398
20
-7.22545942224767
30
0
41
1
10
-14.8618998887329
20
-7.21410077871741
30
0
41
1
10
-14.7452745335612
20
-7.18212437688828
30
0
41
1
10
-14.6895699451789
20
-7.16201960319464
30
0
41
1
10
-14.5827589175342
20
-7.11474711952985
30
0
41
1
10
-14.5316211412475
20
-7.08755690757022
30
0
41
1
10
-14.4334554488588
20
-7.02672282100497
30
0
41
1
10
-14.38751619038
20
-6.99376703919228
30
0
41
1
10
-14.3007925764322
20
-6.92357765523022
30
0
41
1
10
-14.2600161652162
20
-6.88633798514746
30
0
41
1
10
-14.2021759714483
20
-6.82763631844753
30
0
41
1
10
-14.1834523029509
20
-6.80759363972547
30
0
41
1
10
-14.1470479748901
20
-6.76660288333122
30
0
41
1
10
-14.1293429656042
20
-6.74562348347595
30
0
41
1
10
-14.0779142754528
20
-6.68164973874727
30
0
41
1
10
-14.0458764161971
20
-6.63764692539442
30
0
41
1
10
-14.0157764695459
20
-6.59242894057729
30
0
0
SPLINE
5
D8
100
AcDbEntity
8
1
62
256
6
ByLayer
370
13
48
1
60
0
100
AcDbSpline
70
4
71
3
72
41
73
37
40
0
40
0
40
0
40
0
40
0.0625000000000002
40
0.0625000000000002
40
0.125000000000001
40
0.125000000000001
40
0.187500000000001
40
0.187500000000001
40
0.250000000000001
40
0.250000000000001
40
0.312500000000001
40
0.312500000000001
40
0.375000000000001
40
0.375000000000001
40
0.437500000000002
40
0.437500000000002
40
0.500000000000002
40
0.500000000000002
40
0.562500000000002
40
0.562500000000002
40
0.625000000000002
40
0.625000000000002
40
0.687500000000003
40
0.687500000000003
40
0.750000000000003
40
0.750000000000003
40
0.812500000000003
40
0.812500000000003
40
0.875000000000004
40
0.875000000000004
40
0.890625000000003
40
0.890625000000003
40
0.906250000000003
40
0.937500000000002
40
0.937500000000002
40
1
40
1
40
1
40
1
41
1
10
53.9682445320503
20
11
30
0
41
1
10
54.0334129256133
20
11
30
0
41
1
10
54.0985813191763
20
10.9814262032608
30
0
41
1
10
54.2289181063021
20
10.90282850524
30
0
41
1
10
54.2940864998651
20
10.8427907980373
30
0
41
1
10
54.424423286991
20
10.6778878145973
30
0
41
1
10
54.4895916805539
20
10.5730095479592
30
0
41
1
10
54.6199284676799
20
10.316408029813
30
0
41
1
10
54.6850968612428
20
10.1646747120971
30
0
41
1
10
54.8154336483686
20
9.81406000644267
30
0
41
1
10
54.8806020419316
20
9.61517355170619
30
0
41
1
10
55.0109388290575
20
9.17189861469294
30
0
41
1
10
55.0761072226205
20
8.92751156938729
30
0
41
1
10
55.2064440097463
20
8.39689010164051
30
0
41
1
10
55.2716124033092
20
8.11066406183576
30
0
41
1
10
55.4019491904352
20
7.50188106901231
30
0
41
1
10
55.4671175839981
20
7.17933857710131
30
0
41
1
10
55.597454371124
20
6.50495363802901
30
0
41
1
10
55.6626227646869
20
6.15312968299995
30
0
41
1
10
55.7929595518128
20
5.4282240324292
30
0
41
1
10
55.8581279453758
20
5.0551621181948
30
0
41
1
10
55.9884647325016
20
4.29624887591129
30
0
41
1
10
56.0536331260647
20
3.91041585378301
30
0
41
1
10
56.1839699131905
20
3.13427305023194
30
0
41
1
10
56.2491383067534
20
2.74397792836498
30
0
41
1
10
56.3794750938793
20
1.96656574830718
30
0
41
1
10
56.4446434874422
20
1.57945849293839
30
0
41
1
10
56.5749802745682
20
0.815048357732337
30
0
41
1
10
56.6401486681311
20
0.437750224399963
30
0
41
1
10
56.7216091600848
20
-0.0243824199289406
30
0
41
1
10
56.7379012584756
20
-0.116528331592917
30
0
41
1
10
56.7704854552571
20
-0.302320492774413
30
0
41
1
10
56.8193617504292
20
-0.582364228197292
30
0
41
1
10
56.8682380456015
20
-0.866128296458839
30
0
41
1
10
56.9659906359458
20
-1.43757972286778
30
0
41
1
10
57.0311590295088
20
-1.82381495259855
30
0
41
1
10
57.0963274230718
20
-2.21208606285867
30
0
0
SPLINE
5
D9
100
AcDbEntity
8
1
62
256
6
ByLayer
370
13
48
1
60
0
100
AcDbSpline
70
4
71
3
72
79
73
75
40
0
40
0
40
0
40
0
40
0.0312500000000001
40
0.0312500000000001
40
0.0625000000000002
40
0.0625000000000002
40
0.0937500000000004
40
0.0937500000000004
40
0.125000000000001
40
0.125000000000001
40
0.156250000000001
40
0.156250000000001
40
0.187500000000001
40
0.187500000000001
40
0.218750000000001
40
0.218750000000001
40
0.250000000000001
40
0.250000000000001
40
0.281250000000001
40
0.281250000000001
40
0.312500000000001
40
0.312500000000001
40
0.320312500000001
40
0.320312500000001
40
0.328125000000001
40
0.328125000000001
40
0.343750000000001
40
0.343750000000001
40
0.375000000000001
40
0.375000000000001
40
0.406250000000001
40
0.406250000000001
40
0.437500000000001
40
0.437500000000001
40
0.468750000000001
40
0.468750000000001
40
0.5
40
0.5
40
0.53125
40
0.53125
40
0.5625
40
0.5625
40
0.59375
40
0.59375
40
0.625
40
0.625
40
0.65625
40
0.65625
40
0.66015625
40
0.66015625
40
0.6640625
40
0.671875
40
0.671875
40
0.6875
40
0.6875
40
0.71875
40
0.71875
40
0.75
40
0.75
40
0.78125
40
0.78125
40
0.8125
40
0.8125
40
0.84375
40
0.84375
40
0.875
40
0.875
40
0.90625
40
0.90625
40
0.9375
40
0.9375
40
0.96875
40
0.96875
40
1
40
1
40
1
40
1
41
1
10
46.1
20
-1.16204616422766
30
0
41
1
10
46.1838097549954
20
-1.65319356908395
30
0
41
1
10
46.2676195099906
20
-2.15265170876231
30
0
41
1
10
46.4352390199813
20
-3.153872533048
30
0
41
1
10
46.5190487749766
20
-3.65559621570446
30
0
41
1
10
46.6866682849672
20
-4.64440315932953
30
0
41
1
10
46.7704780399625
20
-5.13142733719272
30
0
41
1
10
46.9380975499531
20
-6.07278377904441
30
0
41
1
10
47.0219073049485
20
-6.52704699010033
30
0
41
1
10
47.1895268149391
20
-7.38569182373499
30
0
41
1
10
47.2733365699344
20
-7.79000984304295
30
0
41
1
10
47.4409560799251
20
-8.53448910875869
30
0
41
1
10
47.5247658349204
20
-8.87460754731271
30
0
41
1
10
47.692385344911
20
-9.48097941602171
30
0
41
1
10
47.7761950999064
20
-9.74722005880182
30
0
41
1
10
47.943814609897
20
-10.2015565518558
30
0
41
1
10
48.0276243648923
20
-10.3896694699988
30
0
41
1
10
48.1952438748829
20
-10.6888252189114
30
0
41
1
10
48.2790536298782
20
-10.7999066088187
30
0
41
1
10
48.4466731398688
20
-10.9505557063281
30
0
41
1
10
48.5304828948642
20
-10.9901713186712
30
0
41
1
10
48.6352450886083
20
-11.0004278514987
30
0
41
1
10
48.6561975273572
20
-11.0005396701336
30
0
41
1
10
48.6981024048549
20
-10.996897749231
30
0
41
1
10
48.7190548436037
20
-10.9931236503063
30
0
41
1
10
48.7819121598502
20
-10.975720362823
30
0
41
1
10
48.8238170373478
20
-10.9560054127817
30
0
41
1
10
48.9495316698408
20
-10.8708986328059
30
0
41
1
10
49.0333414248361
20
-10.7794321328737
30
0
41
1
10
49.2009609348268
20
-10.5205981549077
30
0
41
1
10
49.284770689822
20
-10.3531884273173
30
0
41
1
10
49.4523901998127
20
-9.94005897525295
30
0
41
1
10
49.536199954808
20
-9.69431543171515
30
0
41
1
10
49.7038194647986
20
-9.12727961798149
30
0
41
1
10
49.7876292197939
20
-8.80599182282239
30
0
41
1
10
49.9552487297846
20
-8.09612248902295
30
0
41
1
10
50.0390584847799
20
-7.70757634686893
30
0
41
1
10
50.2066779947705
20
-6.87634217151006
30
0
41
1
10
50.2904877497658
20
-6.43371357569183
30
0
41
1
10
50.4581072597565
20
-5.51090498427388
30
0
41
1
10
50.5419170147518
20
-5.03079421079164
30
0
41
1
10
50.7095365247424
20
-4.05106044957236
30
0
41
1
10
50.7933462797377
20
-3.5515004552577
30
0
41
1
10
50.9609657897284
20
-2.55031219172003
30
0
41
1
10
51.0447755447237
20
-2.04872880627889
30
0
41
1
10
51.2123950547143
20
-1.05868417362373
30
0
41
1
10
51.2962048097096
20
-0.570245062554193
30
0
41
1
10
51.3904907840793
20
-0.0348376085368614
30
0
41
1
10
51.4009670034538
20
0.024348832568478
30
0
41
1
10
51.4219194422026
20
0.143282638444703
30
0
41
1
10
51.4533481003258
20
0.322265016928384
30
0
41
1
10
51.484776758449
20
0.502903434771468
30
0
41
1
10
51.5476340746955
20
0.866131353550827
30
0
41
1
10
51.5895389521932
20
1.11089150237413
30
0
41
1
10
51.7152535846862
20
1.85069157085016
30
0
41
1
10
51.7990633396815
20
2.35134244700677
30
0
41
1
10
51.9666828496721
20
3.3528290430406
30
0
41
1
10
52.0504926046675
20
3.85362278892777
30
0
41
1
10
52.2181121146581
20
4.83820488322215
30
0
41
1
10
52.3019218696534
20
5.32193209491442
30
0
41
1
10
52.4695413796441
20
6.25432412889299
30
0
41
1
10
52.5533511346393
20
6.70291967115915
30
0
41
1
10
52.72097064463
20
7.54813037211326
30
0
41
1
10
52.8047803996253
20
7.94468387576825
30
0
41
1
10
52.9723999096159
20
8.67205894507691
30
0
41
1
10
53.0562096646113
20
9.00284133571478
30
0
41
1
10
53.2238291746019
20
9.58965509135228
30
0
41
1
10
53.3076389295972
20
9.84567783895554
30
0
41
1
10
53.4752584395878
20
10.2794253107428
30
0
41
1
10
53.5590681945831
20
10.4571705622486
30
0
41
1
10
53.7266877045737
20
10.7360951121834
30
0
41
1
10
53.8104974595691
20
10.8373149259144
30
0
41
1
10
53.9781169695597
20
10.9692432495285
30
0
41
1
10
54.0619267245551
20
11
30
0
41
1
10
54.1457364795504
20
11
30
0
0
SPLINE
5
DA
100
AcDbEntity
8
1
62
256
6
ByLayer
370
13
48
1
60
0
100
AcDbSpline
70
4
71
3
72
42
73
38
40
0
40
0
40
0
40
0
40
0.0625000000000002
40
0.0625000000000002
40
0.125000000000001
40
0.125000000000001
40
0.187500000000001
40
0.187500000000001
40
0.250000000000001
40
0.250000000000001
40
0.312500000000001
40
0.312500000000001
40
0.375000000000001
40
0.375000000000001
40
0.437500000000002
40
0.437500000000002
40
0.500000000000002
40
0.500000000000002
40
0.562500000000002
40
0.562500000000002
40
0.625000000000002
40
0.625000000000002
40
0.687500000000003
40
0.687500000000003
40
0.750000000000003
40
0.750000000000003
40
0.765625000000003
40
0.765625000000003
40
0.781250000000003
40
0.781250000000003
40
0.812500000000002
40
0.812500000000002
40
0.875000000000002
40
0.875000000000002
40
0.937500000000001
40
0.937500000000001
40
1
40
1
40
1
40
1
41
1
10
53.4764792831607
20
11
30
0
41
1
10
53.5518927860756
20
11
30
0
41
1
10
53.6273062889904
20
10.975111916673
30
0
41
1
10
53.77813329482
20
10.8689904046159
30
0
41
1
10
53.8535467977347
20
10.7877283879264
30
0
41
1
10
54.0043738035644
20
10.5640573609369
30
0
41
1
10
54.0797873064792
20
10.4216228854217
30
0
41
1
10
54.2306143123088
20
10.0734580542311
30
0
41
1
10
54.3060278152237
20
9.86771127541488
30
0
41
1
10
54.4568548210533
20
9.39407726203916
30
0
41
1
10
54.5322683239681
20
9.12618778796252
30
0
41
1
10
54.6830953297978
20
8.53302627848879
30
0
41
1
10
54.7585088327126
20
8.20776859256199
30
0
41
1
10
54.9093358385422
20
7.50805518466959
30
0
41
1
10
54.984749341457
20
7.13362878268143
30
0
41
1
10
55.1355763472866
20
6.34652361659772
30
0
41
1
10
55.2109898502014
20
5.93388367052535
30
0
41
1
10
55.361816856031
20
5.0830117616897
30
0
41
1
10
55.4372303589458
20
4.64482048797248
30
0
41
1
10
55.5880573647755
20
3.75599776345842
30
0
41
1
10
55.6634708676903
20
3.30540154354787
30
0
41
1
10
55.8142978735199
20
2.40424638153624
30
0
41
1
10
55.8897113764347
20
1.9537122424733
30
0
41
1
10
56.0405383822645
20
1.06356733204279
30
0
41
1
10
56.1159518851792
20
0.623969200326485
30
0
41
1
10
56.2102187638227
20
0.0867544784603922
30
0
41
1
10
56.2290721395514
20
-0.0196663567340067
30
0
41
1
10
56.2667788910088
20
-0.234038282888776
30
0
41
1
10
56.2856322667375
20
-0.341844976033514
30
0
41
1
10
56.3421923939237
20
-0.66694650160801
30
0
41
1
10
56.379899145381
20
-0.885927283367721
30
0
41
1
10
56.4930193997532
20
-1.54799878854581
30
0
41
1
10
56.5684329026681
20
-1.99628265857837
30
0
41
1
10
56.7192599084976
20
-2.89642177020002
30
0
41
1
10
56.7946734114125
20
-3.3482558501199
30
0
41
1
10
56.9455004172422
20
-4.2434398876668
30
0
41
1
10
57.0209139201569
20
-4.6867573860473
30
0
41
1
10
57.0963274230718
20
-5.11930881284204
30
0
0
SPLINE
5
DB
100
AcDbEntity
8
1
62
256
6
ByLayer
370
13
48
1
60
0
100
AcDbSpline
70
4
71
3
72
80
73
76
40
0
40
0
40
0
40
0
40
0.031249999999999
40
0.031249999999999
40
0.062499999999998
40
0.062499999999998
40
0.093749999999997
40
0.093749999999997
40
0.124999999999996
40
0.124999999999996
40
0.156249999999995
40
0.156249999999995
40
0.187499999999994
40
0.187499999999994
40
0.218749999999993
40
0.218749999999993
40
0.249999999999992
40
0.249999999999992
40
0.265624999999992
40
0.265624999999992
40
0.269531249999992
40
0.269531249999992
40
0.273437499999992
40
0.273437499999992
40
0.281249999999992
40
0.281249999999992
40
0.312499999999992
40
0.312499999999992
40
0.343749999999992
40
0.343749999999992
40
0.374999999999993
40
0.374999999999993
40
0.406249999999993
40
0.406249999999993
40
0.437499999999993
40
0.437499999999993
40
0.468749999999993
40
0.468749999999993
40
0.499999999999994
40
0.499999999999994
40
0.531249999999994
40
0.531249999999994
40
0.562499999999994
40
0.562499999999994
40
0.593749999999994
40
0.593749999999994
40
0.624999999999995
40
0.624999999999995
40
0.632812499999995
40
0.632812499999995
40
0.640624999999995
40
0.640624999999995
40
0.656249999999995
40
0.656249999999995
40
0.687499999999995
40
0.687499999999995
40
0.718749999999996
40
0.718749999999996
40
0.749999999999996
40
0.749999999999996
40
0.781249999999997
40
0.781249999999997
40
0.812499999999997
40
0.812499999999997
40
0.843749999999998
40
0.843749999999998
40
0.874999999999998
40
0.874999999999998
40
0.906249999999999
40
0.906249999999999
40
0.937499999999999
40
0.937499999999999
40
0.96875
40
0.96875
40
1
40
1
40
1
40
1
41
1
10
46.1
20
-4.08451671529701
30
0
41
1
10
46.1786872003194
20
-4.54929805286957
30
0
41
1
10
46.2573744006387
20
-5.00792049936203
30
0
41
1
10
46.4147488012775
20
-5.89801427254366
30
0
41
1
10
46.4934360015969
20
-6.32943543536428
30
0
41
1
10
46.6508104022357
20
-7.15070907342306
30
0
41
1
10
46.7294976025551
20
-7.5405135822657
30
0
41
1
10
46.8868720031939
20
-8.26614935284999
30
0
41
1
10
46.9655592035132
20
-8.6019450748075
30
0
41
1
10
47.122933604152
20
-9.21046273185229
30
0
41
1
10
47.2016208044714
20
-9.48316870486809
30
0
41
1
10
47.3589952051101
20
-9.96050617193771
30
0
41
1
10
47.4376824054295
20
-10.1651429669459
30
0
41
1
10
47.5950568060682
20
-10.5056020213641
30
0
41
1
10
47.6737440063876
20
-10.6414470193775
30
0
41
1
10
47.8311184070264
20
-10.8474031113726
30
0
41
1
10
47.9098056073459
20
-10.9175471152633
30
0
41
1
10
48.0278364078249
20
-10.9779900561623
30
0
41
1
10
48.0671800079846
20
-10.9906953382386
30
0
41
1
10
48.1163595081843
20
-10.997860975077
30
0
41
1
10
48.1261954082241
20
-10.9988585478563
30
0
41
1
10
48.145867208304
20
-10.9999981677644
30
0
41
1
10
48.1557031083439
20
-11.0001413776133
30
0
41
1
10
48.1852108084636
20
-10.9993028678915
30
0
41
1
10
48.2048826085435
20
-10.9970434017212
30
0
41
1
10
48.3032416089428
20
-10.9769331760085
30
0
41
1
10
48.3819288092621
20
-10.9325689764313
30
0
41
1
10
48.5393032099009
20
-10.7803961753133
30
0
41
1
10
48.6179904102202
20
-10.6725527956067
30
0
41
1
10
48.775364810859
20
-10.3889717181846
30
0
41
1
10
48.8540520111784
20
-10.2132060542573
30
0
41
1
10
49.0114264118172
20
-9.79281279837252
30
0
41
1
10
49.0901136121366
20
-9.54817189808873
30
0
41
1
10
49.2474880127753
20
-8.99319171285032
30
0
41
1
10
49.3261752130947
20
-8.68285937316966
30
0
41
1
10
49.4835496137334
20
-8.00390450391228
30
0
41
1
10
49.5622368140528
20
-7.63530992606485
30
0
41
1
10
49.7196112146916
20
-6.85095726079601
30
0
41
1
10
49.798298415011
20
-6.43524309442023
30
0
41
1
10
49.9556728156498
20
-5.57039342217075
30
0
41
1
10
50.0343600159692
20
-5.12130845738176
30
0
41
1
10
50.1917344166079
20
-4.20461884681262
30
0
41
1
10
50.2704216169273
20
-3.73706098197999
30
0
41
1
10
50.427796017566
20
-2.7979873473584
30
0
41
1
10
50.5064832178854
20
-2.32650659261907
30
0
41
1
10
50.6638576185242
20
-1.39255451387078
30
0
41
1
10
50.7425448188436
20
-0.930102755796327
30
0
41
1
10
50.8409038192428
20
-0.36425906756989
30
0
41
1
10
50.8605756193227
20
-0.251694850465924
30
0
41
1
10
50.8999192194823
20
-0.0279129844426222
30
0
41
1
10
50.9195910195622
20
0.083099070430535
30
0
41
1
10
50.9786064198017
20
0.419432145410497
30
0
41
1
10
51.0179500199614
20
0.646308895074753
30
0
41
1
10
51.1359808204405
20
1.33316630805413
30
0
41
1
10
51.2146680207599
20
1.79945256026207
30
0
41
1
10
51.3720424213987
20
2.73752877080437
30
0
41
1
10
51.450729621718
20
3.20929455499524
30
0
41
1
10
51.6081040223568
20
4.14482140478938
30
0
41
1
10
51.6867912226762
20
4.60854344072857
30
0
41
1
10
51.844165623315
20
5.51319674672456
30
0
41
1
10
51.9228528236343
20
5.95407915496307
30
0
41
1
10
52.0802272242731
20
6.79833202114398
30
0
41
1
10
52.1589144245925
20
7.20165276936456
30
0
41
1
10
52.3162888252312
20
7.95764248626205
30
0
41
1
10
52.3949760255506
20
8.31027135914712
30
0
41
1
10
52.5523504261894
20
8.95470632896891
30
0
41
1
10
52.6310376265088
20
9.24649032248738
30
0
41
1
10
52.7884120271476
20
9.76299520019003
30
0
41
1
10
52.8670992274669
20
9.98771536782772
30
0
41
1
10
53.0244736281057
20
10.3681328254144
30
0
41
1
10
53.103160828425
20
10.5238484265349
30
0
41
1
10
53.2605352290638
20
10.768299416493
30
0
41
1
10
53.3392224293833
20
10.8570655893549
30
0
41
1
10
53.496596830022
20
10.9728982295337
30
0
41
1
10
53.5752840303413
20
11
30
0
41
1
10
53.6539712306607
20
11
30
0
0
SPLINE
5
DC
100
AcDbEntity
8
1
62
256
6
ByLayer
370
13
48
1
60
0
100
AcDbSpline
70
4
71
3
72
44
73
40
40
0
40
0
40
0
40
0
40
0.0624999999999991
40
0.0624999999999991
40
0.124999999999998
40
0.124999999999998
40
0.187499999999997
40
0.187499999999997
40
0.249999999999997
40
0.249999999999997
40
0.312499999999996
40
0.312499999999996
40
0.374999999999995
40
0.374999999999995
40
0.437499999999994
40
0.437499999999994
40
0.499999999999993
40
0.499999999999993
40
0.562499999999992
40
0.562499999999992
40
0.624999999999991
40
0.624999999999991
40
0.656249999999991
40
0.656249999999991
40
0.664062499999991
40
0.664062499999991
40
0.671874999999991
40
0.671874999999991
40
0.687499999999992
40
0.687499999999992
40
0.749999999999993
40
0.749999999999993
40
0.812499999999995
40
0.812499999999995
40
0.874999999999997
40
0.874999999999997
40
0.937499999999998
40
0.937499999999998
40
1
40
1
40
1
40
1
41
1
10
52.9847140342711
20
11
30
0
41
1
10
53.0703726465378
20
11
30
0
41
1
10
53.1560312588044
20
10.9678667078883
30
0
41
1
10
53.3273484833378
20
10.8298577858331
30
0
41
1
10
53.4130070956044
20
10.7239284278093
30
0
41
1
10
53.5843243201378
20
10.4319733545397
30
0
41
1
10
53.6699829324045
20
10.2459031833508
30
0
41
1
10
53.8413001569379
20
9.79206050793286
30
0
41
1
10
53.9269587692045
20
9.5242670385496
30
0
41
1
10
54.098275993738
20
8.91115540458893
30
0
41
1
10
54.1839346060046
20
8.56584995102219
30
0
41
1
10
54.355251830538
20
7.80783178507832
30
0
41
1
10
54.4409104428046
20
7.39516613009368
30
0
41
1
10
54.612227667338
20
6.51757972494013
30
0
41
1
10
54.6978862796047
20
6.052729872192
30
0
41
1
10
54.8692035041381
20
5.08914200096186
30
0
41
1
10
54.9548621164047
20
4.59048088537037
30
0
41
1
10
55.1261793409381
20
3.57856228801671
30
0
41
1
10
55.2118379532048
20
3.06536986760952
30
0
41
1
10
55.3831551777382
20
2.04241024474328
30
0
41
1
10
55.4688137900048
20
1.53268485828059
30
0
41
1
10
55.5973017084049
20
0.781999635025983
30
0
41
1
10
55.6401310145382
20
0.534061832377176
30
0
41
1
10
55.6936676472049
20
0.227962024357652
30
0
41
1
10
55.7043749737382
20
0.166932593110516
30
0
41
1
10
55.7257896268049
20
0.0452763902122513
30
0
41
1
10
55.7364969533382
20
-0.0152209545221922
30
0
41
1
10
55.7686189329382
20
-0.197504929278011
30
0
41
1
10
55.7900335860049
20
-0.319840327374891
30
0
41
1
10
55.8971068513383
20
-0.93514266433732
30
0
41
1
10
55.9827654636049
20
-1.43913207531088
30
0
41
1
10
56.1540826881383
20
-2.45699196666055
30
0
41
1
10
56.2397413004049
20
-2.97083100424831
30
0
41
1
10
56.4110585249383
20
-3.99141536264366
30
0
41
1
10
56.496717137205
20
-4.4981039447207
30
0
41
1
10
56.6680343617384
20
-5.48539333780874
30
0
41
1
10
56.753692974005
20
-5.96592004670353
30
0
41
1
10
56.9250101985384
20
-6.88187485649041
30
0
41
1
10
57.010668810805
20
-7.31722737596272
30
0
41
1
10
57.0963274230717
20
-7.72167326843612
30
0
0
SPLINE
5
DD
100
AcDbEntity
8
1
62
256
6
ByLayer
370
13
48
1
60
0
100
AcDbSpline
70
4
71
3
72
79
73
75
40
0
40
0
40
0
40
0
40
0.0312500000000001
40
0.0312500000000001
40
0.0625000000000002
40
0.0625000000000002
40
0.0937500000000003
40
0.0937500000000003
40
0.125
40
0.125
40
0.156250000000001
40
0.156250000000001
40
0.187500000000001
40
0.187500000000001
40
0.218750000000001
40
0.218750000000001
40
0.226562500000001
40
0.226562500000001
40
0.234375000000001
40
0.234375000000001
40
0.250000000000001
40
0.250000000000001
40
0.281250000000001
40
0.281250000000001
40
0.312500000000001
40
0.312500000000001
40
0.343750000000001
40
0.343750000000001
40
0.375000000000001
40
0.375000000000001
40
0.406250000000001
40
0.406250000000001
40
0.437500000000001
40
0.437500000000001
40
0.46875
40
0.46875
40
0.5
40
0.5
40
0.53125
40
0.53125
40
0.5625
40
0.5625
40
0.59375
40
0.59375
40
0.609375
40
0.609375
40
0.61328125
40
0.61328125
40
0.6171875
40
0.625
40
0.625
40
0.65625
40
0.65625
40
0.6875
40
0.6875
40
0.71875
40
0.71875
40
0.75
40
0.75
40
0.78125
40
0.78125
40
0.8125
40
0.8125
40
0.84375
40
0.84375
40
0.875
40
0.875
40
0.90625
40
0.90625
40
0.9375
40
0.9375
40
0.96875
40
0.96875
40
1
40
1
40
1
40
1
41
1
10
46.1
20
-6.84214184029787
30
0
41
1
10
46.1735646456434
20
-7.22277810029809
30
0
41
1
10
46.2471292912869
20
-7.58472668241979
30
0
41
1
10
46.3942585825738
20
-8.26130073696149
30
0
41
1
10
46.4678232282173
20
-8.57590101315972
30
0
41
1
10
46.6149525195041
20
-9.15030328147191
30
0
41
1
10
46.6885171651476
20
-9.41009314735712
30
0
41
1
10
46.8356464564345
20
-9.87051410058641
30
0
41
1
10
46.909211102078
20
-10.0711473584846
30
0
41
1
10
47.0563403933648
20
-10.4121600529695
30
0
41
1
10
47.1299050390083
20
-10.5525538880167
30
0
41
1
10
47.2770343302951
20
-10.7749987874533
30
0
41
1
10
47.3505989759387
20
-10.8570721627407
30
0
41
1
10
47.4977282672255
20
-10.9672244640374
30
0
41
1
10
47.571292912869
20
-10.9953286241842
30
0
41
1
10
47.6632487199233
20
-11.0004954798974
30
0
41
1
10
47.6816398813341
20
-11.0000491894357
30
0
41
1
10
47.7184222041558
20
-10.9961517102759
30
0
41
1
10
47.7368133655667
20
-10.9926922822778
30
0
41
1
10
47.7919868497993
20
-10.9776323769289
30
0
41
1
10
47.8287691726211
20
-10.9613475165601
30
0
41
1
10
47.9391161410862
20
-10.8926492673888
30
0
41
1
10
48.0126807867297
20
-10.8203289903306
30
0
41
1
10
48.1598100780166
20
-10.6179923093805
30
0
41
1
10
48.2333747236601
20
-10.4879527330798
30
0
41
1
10
48.3805040149469
20
-10.1677811414173
30
0
41
1
10
48.4540686605904
20
-9.97763300228024
30
0
41
1
10
48.6011979518773
20
-9.53776450507735
30
0
41
1
10
48.6747625975207
20
-9.28803962044634
30
0
41
1
10
48.8218918888076
20
-8.73278064894043
30
0
41
1
10
48.8954565344511
20
-8.4272561919075
30
0
41
1
10
49.042585825738
20
-7.76733460271606
30
0
41
1
10
49.1161504713815
20
-7.41296063361057
30
0
41
1
10
49.2632797626683
20
-6.66495232909824
30
0
41
1
10
49.3368444083117
20
-6.2713507475213
30
0
41
1
10
49.4839736995987
20
-5.45631834117944
30
0
41
1
10
49.5575383452421
20
-5.03492371376365
30
0
41
1
10
49.704667636529
20
-4.17649570424408
30
0
41
1
10
49.7782322821725
20
-3.73949551365428
30
0
41
1
10
49.9253615734594
20
-2.86174098315809
30
0
41
1
10
49.9989262191028
20
-2.42101190823689
30
0
41
1
10
50.1460555103897
20
-1.5464844373434
30
0
41
1
10
50.2196201560331
20
-1.11270101349564
30
0
41
1
10
50.3299671244983
20
-0.473880008334334
30
0
41
1
10
50.3667494473201
20
-0.262899887072962
30
0
41
1
10
50.4127273508472
20
-0.0021948799732172
30
0
41
1
10
50.4219229315526
20
0.0497868552030525
30
0
41
1
10
50.4403140929635
20
0.154251173120997
30
0
41
1
10
50.4679008350798
20
0.311393497151045
30
0
41
1
10
50.4954875771961
20
0.469812959641331
30
0
41
1
10
50.5874433842504
20
1.00042794669724
30
0
41
1
10
50.6610080298939
20
1.43315969343689
30
0
41
1
10
50.8081373211808
20
2.30643166921706
30
0
41
1
10
50.8817019668242
20
2.74695784465052
30
0
41
1
10
51.0288312581111
20
3.62529225987308
30
0
41
1
10
51.1023959037546
20
4.06307607499446
30
0
41
1
10
51.2495251950415
20
4.9241300009655
30
0
41
1
10
51.3230898406849
20
5.34736744674748
30
0
41
1
10
51.4702191319718
20
6.16713087640866
30
0
41
1
10
51.5437837776153
20
6.56362067920711
30
0
41
1
10
51.6909130689021
20
7.3183424512101
30
0
41
1
10
51.7644777145456
20
7.67654110477301
30
0
41
1
10
51.9116070058325
20
8.34485372659657
30
0
41
1
10
51.985171651476
20
8.65494349896935
30
0
41
1
10
52.1323009427629
20
9.21981690925546
30
0
41
1
10
52.2058655884062
20
9.47458966565443
30
0
41
1
10
52.3529948796931
20
9.92475271241892
30
0
41
1
10
52.4265595253366
20
10.1201463604853
30
0
41
1
10
52.5736888166234
20
10.4507330975592
30
0
41
1
10
52.647253462267
20
10.5859414649803
30
0
41
1
10
52.7943827535538
20
10.7983065475561
30
0
41
1
10
52.8679473991973
20
10.8754860235988
30
0
41
1
10
53.0150766904843
20
10.9763201157634
30
0
41
1
10
53.0886413361277
20
11
30
0
41
1
10
53.1622059817711
20
11
30
0
0
SPLINE
5
DE
100
AcDbEntity
8
1
62
256
6
ByLayer
370
13
48
1
60
0
100
AcDbSpline
70
4
71
3
72
43
73
39
40
0
40
0
40
0
40
0
40
0.0625
40
0.0625
40
0.125
40
0.125
40
0.1875
40
0.1875
40
0.25
40
0.25
40
0.3125
40
0.3125
40
0.375
40
0.375
40
0.4375
40
0.4375
40
0.5
40
0.5
40
0.5625
40
0.5625
40
0.59375
40
0.59375
40
0.6015625
40
0.6015625
40
0.609375
40
0.625
40
0.625
40
0.6875
40
0.6875
40
0.75
40
0.75
40
0.8125
40
0.8125
40
0.875
40
0.875
40
0.9375
40
0.9375
40
1
40
1
40
1
40
1
41
1
10
52.4929487853815
20
11
30
0
41
1
10
52.588852507
20
11
30
0
41
1
10
52.6847562286186
20
10.9596855222101
30
0
41
1
10
52.8765636718556
20
10.7853505914125
30
0
41
1
10
52.9724673934742
20
10.6512365567958
30
0
41
1
10
53.1642748367113
20
10.2814097422724
30
0
41
1
10
53.2601785583299
20
10.0456267506323
30
0
41
1
10
53.451986001567
20
9.47250579064522
30
0
41
1
10
53.5478897231855
20
9.13515100692084
30
0
41
1
10
53.7396971664226
20
8.36828230074866
30
0
41
1
10
53.8356008880411
20
7.9388206499265
30
0
41
1
10
54.0274083312783
20
7.00599280645412
30
0
41
1
10
54.1233120528968
20
6.50273743663269
30
0
41
1
10
54.315119496134
20
5.44692089804286
30
0
41
1
10
54.4110232177525
20
4.89449506103281
30
0
41
1
10
54.6028306609896
20
3.7674405068056
30
0
41
1
10
54.6987343826081
20
3.19293112363277
30
0
41
1
10
54.8905418258452
20
2.04734401930256
30
0
41
1
10
54.9864455474637
20
1.47634177092522
30
0
41
1
10
55.1303011298916
20
0.638278076245371
30
0
41
1
10
55.1782529907007
20
0.361954914249537
30
0
41
1
10
55.2381928167124
20
0.0216410800439633
30
0
41
1
10
55.2501807819147
20
-0.0460749769053166
30
0
41
1
10
55.2741567123193
20
-0.18232167416275
30
0
41
1
10
55.3101206079264
20
-0.38744673072523
30
0
41
1
10
55.3460845035333
20
-0.594702393770802
30
0
41
1
10
55.4659641555565
20
-1.28963561233471
30
0
41
1
10
55.561867877175
20
-1.85886228007058
30
0
41
1
10
55.7536753204121
20
-3.00347446401713
30
0
41
1
10
55.8495790420306
20
-3.57879011925485
30
0
41
1
10
56.0413864852678
20
-4.71040744331103
30
0
41
1
10
56.1372902068863
20
-5.26659360225878
30
0
41
1
10
56.3290976501234
20
-6.33286552372437
30
0
41
1
10
56.4250013717419
20
-6.84281581872759
30
0
41
1
10
56.616808814979
20
-7.79150048539171
30
0
41
1
10
56.7127125365976
20
-8.23011937369461
30
0
41
1
10
56.9045199798347
20
-9.01692145068063
30
0
41
1
10
57.0004237014532
20
-9.36504489775174
30
0
41
1
10
57.0963274230718
20
-9.66266458933373
30
0
0
SPLINE
5
DF
100
AcDbEntity
8
1
62
256
6
ByLayer
370
13
48
1
60
0
100
AcDbSpline
70
4
71
3
72
77
73
73
40
0
40
0
40
0
40
0
40
0.03125
40
0.03125
40
0.0624999999999999
40
0.0624999999999999
40
0.0937499999999999
40
0.0937499999999999
40
0.125
40
0.125
40
0.15625
40
0.15625
40
0.1640625
40
0.1640625
40
0.171875
40
0.1875
40
0.1875
40
0.21875
40
0.21875
40
0.25
40
0.25
40
0.28125
40
0.28125
40
0.3125
40
0.3125
40
0.34375
40
0.34375
40
0.375
40
0.375
40
0.40625
40
0.40625
40
0.4375
40
0.4375
40
0.46875
40
0.46875
40
0.5
40
0.5
40
0.53125
40
0.53125
40
0.5625
40
0.5625
40
0.578125
40
0.578125
40
0.5859375
40
0.5859375
40
0.59375
40
0.59375
40
0.625
40
0.625
40
0.65625
40
0.65625
40
0.6875
40
0.6875
40
0.71875
40
0.71875
40
0.75
40
0.75
40
0.78125
40
0.78125
40
0.8125
40
0.8125
40
0.84375
40
0.84375
40
0.875
40
0.875
40
0.90625
40
0.90625
40
0.9375
40
0.9375
40
0.96875
40
0.96875
40
1
40
1
40
1
40
1
41
1
10
46.1
20
-9.05548051550031
30
0
41
1
10
46.1684420909675
20
-9.31095894604235
30
0
41
1
10
46.2368841819351
20
-9.54217442431104
30
0
41
1
10
46.3737683638701
20
-9.95309297090355
30
0
41
1
10
46.4422104548376
20
-10.1327990645712
30
0
41
1
10
46.5790946367726
20
-10.4401348064372
30
0
41
1
10
46.6475367277402
20
-10.5677751394561
30
0
41
1
10
46.7844209096752
20
-10.7726370413455
30
0
41
1
10
46.8528630006427
20
-10.849874257321
30
0
41
1
10
46.9897471825777
20
-10.9574031311035
30
0
41
1
10
47.0581892735452
20
-10.98771237423
30
0
41
1
10
47.1437418872546
20
-10.9992445382296
30
0
41
1
10
47.1608524099965
20
-11.0002366122552
30
0
41
1
10
47.1950734554803
20
-10.9996691612742
30
0
41
1
10
47.2464050237059
20
-10.9949694647332
30
0
41
1
10
47.2977365919315
20
-10.9783477042869
30
0
41
1
10
47.4003997283828
20
-10.9282802759171
30
0
41
1
10
47.4688418193503
20
-10.8724268492715
30
0
41
1
10
47.6057260012853
20
-10.7116840395736
30
0
41
1
10
47.6741680922528
20
-10.6067777841411
30
0
41
1
10
47.8110522741879
20
-10.3453987227012
30
0
41
1
10
47.8794943651554
20
-10.1889126536709
30
0
41
1
10
48.0163785470905
20
-9.82389737419098
30
0
41
1
10
48.084820638058
20
-9.6153614558159
30
0
41
1
10
48.221704819993
20
-9.14813456905011
30
0
41
1
10
48.2901469109605
20
-8.88944559632816
30
0
41
1
10
48.4270310928956
20
-8.32624322088645
30
0
41
1
10
48.4954731838631
20
-8.02174110435797
30
0
41
1
10
48.6323573657981
20
-7.37348683640909
30
0
41
1
10
48.7007994567656
20
-7.02975391747725
30
0
41
1
10
48.8376836387006
20
-6.31139132141138
30
0
41
1
10
48.9061257296682
20
-5.93678578851646
30
0
41
1
10
49.0430099116032
20
-5.16614632928676
30
0
41
1
10
49.1114520025707
20
-4.77013753436594
30
0
41
1
10
49.2483361845058
20
-3.96652022578562
30
0
41
1
10
49.3167782754733
20
-3.55893406353579
30
0
41
1
10
49.4536624574083
20
-2.74162471849334
30
0
41
1
10
49.5221045483758
20
-2.33191838461951
30
0
41
1
10
49.6589887303109
20
-1.51886808553723
30
0
41
1
10
49.7274308212783
20
-1.11553422719945
30
0
41
1
10
49.8300939577296
20
-0.520651474845323
30
0
41
1
10
49.8643150032134
20
-0.324031950463109
30
0
41
1
10
49.915646571439
20
-0.0321723027720111
30
0
41
1
10
49.9327570941809
20
0.0644072627204366
30
0
41
1
10
49.9669781396646
20
0.259205513698134
30
0
41
1
10
49.9840886624065
20
0.357110647159914
30
0
41
1
10
50.0696412761159
20
0.848940097362259
30
0
41
1
10
50.1380833670834
20
1.24983609161399
30
0
41
1
10
50.2749675490184
20
2.05972113082868
30
0
41
1
10
50.343409639986
20
2.46870158677587
30
0
41
1
10
50.480293821921
20
3.28654661432816
30
0
41
1
10
50.5487359128886
20
3.69539578280191
30
0
41
1
10
50.6856200948236
20
4.5036959251747
30
0
41
1
10
50.7540621857911
20
4.90312558463185
30
0
41
1
10
50.8909463677261
20
5.68278680988115
30
0
41
1
10
50.9593884586936
20
6.06299356204516
30
0
41
1
10
51.0962726406286
20
6.7945942382207
30
0
41
1
10
51.1647147315962
20
7.14596344827146
30
0
41
1
10
51.3015989135312
20
7.81121725017479
30
0
41
1
10
51.3700410044987
20
8.12508120840405
30
0
41
1
10
51.5069251864337
20
8.70829125262713
30
0
41
1
10
51.5753672774012
20
8.97762410189239
30
0
41
1
10
51.7122514593362
20
9.46689704514841
30
0
41
1
10
51.7806935503038
20
9.68683306273766
30
0
41
1
10
51.9175777322389
20
10.0748606127837
30
0
41
1
10
51.9860198232063
20
10.242957059273
30
0
41
1
10
52.1229040051414
20
10.5272618380855
30
0
41
1
10
52.1913460961089
20
10.6434822163007
30
0
41
1
10
52.3282302780439
20
10.8261363770299
30
0
41
1
10
52.3966723690115
20
10.8925864944993
30
0
41
1
10
52.5335565509465
20
10.9795094886065
30
0
41
1
10
52.601998641914
20
11
30
0
41
1
10
52.6704407328815
20
11
30
0
0
SPLINE
5
E0
100
AcDbEntity
8
1
62
256
6
ByLayer
370
13
48
1
60
0
100
AcDbSpline
70
4
71
3
72
64
73
60
40
0
40
0
40
0
40
0
40
0.0625000000000003
40
0.0625000000000003
40
0.125000000000001
40
0.125000000000001
40
0.156250000000001
40
0.156250000000001
40
0.187500000000001
40
0.187500000000001
40
0.218750000000001
40
0.218750000000001
40
0.250000000000001
40
0.250000000000001
40
0.281250000000001
40
0.281250000000001
40
0.312500000000001
40
0.312500000000001
40
0.343750000000001
40
0.343750000000001
40
0.375000000000001
40
0.375000000000001
40
0.406250000000001
40
0.406250000000001
40
0.437500000000001
40
0.437500000000001
40
0.500000000000002
40
0.500000000000002
40
0.531250000000002
40
0.531250000000002
40
0.546875000000002
40
0.546875000000002
40
0.562500000000002
40
0.562500000000002
40
0.625000000000002
40
0.625000000000002
40
0.656250000000002
40
0.656250000000002
40
0.687500000000001
40
0.687500000000001
40
0.718750000000001
40
0.718750000000001
40
0.750000000000001
40
0.750000000000001
40
0.781250000000001
40
0.781250000000001
40
0.812500000000001
40
0.812500000000001
40
0.843750000000001
40
0.843750000000001
40
0.875
40
0.875
40
0.90625
40
0.90625
40
0.9375
40
0.9375
40
0.96875
40
0.96875
40
1
40
1
40
1
40
1
41
1
10
52.0011835364919
20
11
30
0
41
1
10
52.1073323674623
20
11
30
0
41
1
10
52.2134811984327
20
10.9505623098751
30
0
41
1
10
52.4257788603734
20
10.735393729141
30
0
41
1
10
52.5319276913439
20
10.5695095852368
30
0
41
1
10
52.6911509377995
20
10.2265444722934
30
0
41
1
10
52.7442253532848
20
10.0966147297952
30
0
41
1
10
52.8503741842551
20
9.80555170872094
30
0
41
1
10
52.9034485997404
20
9.6444167598095
30
0
41
1
10
53.0095974307108
20
9.29181199425886
30
0
41
1
10
53.062671846196
20
9.1003424082335
30
0
41
1
10
53.1688206771664
20
8.68882239904269
30
0
41
1
10
53.2218950926517
20
8.46877424868316
30
0
41
1
10
53.328043923622
20
8.00269927196629
30
0
41
1
10
53.3811183391072
20
7.75667664860586
30
0
41
1
10
53.4872671700776
20
7.24200518760617
30
0
41
1
10
53.5403415855629
20
6.97336211920972
30
0
41
1
10
53.6464904165333
20
6.41740129732847
30
0
41
1
10
53.6995648320185
20
6.13009031604057
30
0
41
1
10
53.8057136629889
20
5.5411537891988
30
0
41
1
10
53.8587880784741
20
5.23953534881417
30
0
41
1
10
53.9649369094446
20
4.62654178699154
30
0
41
1
10
54.0180113249297
20
4.31517343694995
30
0
41
1
10
54.1241601559001
20
3.68722500181792
30
0
41
1
10
54.1772345713854
20
3.37065079144739
30
0
41
1
10
54.3364578178411
20
2.41962094034613
30
0
41
1
10
54.4426066488114
20
1.78411138347954
30
0
41
1
10
54.601829895267
20
0.851020804259065
30
0
41
1
10
54.6549043107522
20
0.543294252588822
30
0
41
1
10
54.73451593398
20
0.0888683627584044
30
0
41
1
10
54.7610531417226
20
-0.0607093720926457
30
0
41
1
10
54.8141275572078
20
-0.363362504968052
30
0
41
1
10
54.8406647649505
20
-0.515888928847659
30
0
41
1
10
54.9733508036635
20
-1.28365029155992
30
0
41
1
10
55.0794996346339
20
-1.91460362184509
30
0
41
1
10
55.2387228810895
20
-2.86532676588709
30
0
41
1
10
55.2917972965747
20
-3.18288183882851
30
0
41
1
10
55.3979461275451
20
-3.81513254329687
30
0
41
1
10
55.4510205430303
20
-4.12982294739487
30
0
41
1
10
55.5571693740007
20
-4.75188832416134
30
0
41
1
10
55.6102437894859
20
-5.05925694149568
30
0
41
1
10
55.7163926204563
20
-5.66210360551807
30
0
41
1
10
55.7694670359416
20
-5.95757464583969
30
0
41
1
10
55.875615866912
20
-6.53213433175875
30
0
41
1
10
55.9286902823972
20
-6.81121594249945
30
0
41
1
10
56.0348391133675
20
-7.34880141826429
30
0
41
1
10
56.0879135288528
20
-7.60729890190018
30
0
41
1
10
56.1940623598232
20
-8.10002116175758
30
0
41
1
10
56.2471367753084
20
-8.33424084327666
30
0
41
1
10
56.3532856062788
20
-8.77538744151238
30
0
41
1
10
56.4063600217641
20
-8.9823110295664
30
0
41
1
10
56.5125088527345
20
-9.36664831946428
30
0
41
1
10
56.5655832682197
20
-9.54406070802474
30
0
41
1
10
56.6717320991901
20
-9.86803177337737
30
0
41
1
10
56.7248065146753
20
-10.0145911425378
30
0
41
1
10
56.8309553456457
20
-10.2763946699435
30
0
41
1
10
56.8840297611309
20
-10.3916412798036
30
0
41
1
10
56.9901785921014
20
-10.5911917928649
30
0
41
1
10
57.0432530075865
20
-10.6754994876562
30
0
41
1
10
57.0963274230717
20
-10.7448913770933
30
0
0
SPLINE
5
E1
100
AcDbEntity
8
1
62
256
6
ByLayer
370
13
48
1
60
0
100
AcDbSpline
70
4
71
3
72
77
73
73
40
0
40
0
40
0
40
0
40
0.0312500000000003
40
0.0312500000000003
40
0.0625000000000007
40
0.0625000000000007
40
0.093750000000001
40
0.093750000000001
40
0.101562500000001
40
0.101562500000001
40
0.109375000000001
40
0.125000000000001
40
0.125000000000001
40
0.156250000000001
40
0.156250000000001
40
0.187500000000001
40
0.187500000000001
40
0.218750000000001
40
0.218750000000001
40
0.250000000000001
40
0.250000000000001
40
0.281250000000001
40
0.281250000000001
40
0.312500000000001
40
0.312500000000001
40
0.343750000000001
40
0.343750000000001
40
0.375000000000001
40
0.375000000000001
40
0.40625
40
0.40625
40
0.4375
40
0.4375
40
0.46875
40
0.46875
40
0.5
40
0.5
40
0.53125
40
0.53125
40
0.546875
40
0.546875
40
0.5546875
40
0.5546875
40
0.5625
40
0.5625
40
0.59375
40
0.59375
40
0.625
40
0.625
40
0.65625
40
0.65625
40
0.6875
40
0.6875
40
0.71875
40
0.71875
40
0.75
40
0.75
40
0.78125
40
0.78125
40
0.8125
40
0.8125
40
0.84375
40
0.84375
40
0.875
40
0.875
40
0.90625
40
0.90625
40
0.9375
40
0.9375
40
0.96875
40
0.96875
40
1
40
1
40
1
40
1
41
1
10
46.1
20
-10.4564626936645
30
0
41
1
10
46.1633195362916
20
-10.5797302386537
30
0
41
1
10
46.2266390725831
20
-10.6809067067535
30
0
41
1
10
46.3532781451663
20
-10.8409280715796
30
0
41
1
10
46.4165976814579
20
-10.8997842262834
30
0
41
1
10
46.5432367540411
20
-10.9782481342773
30
0
41
1
10
46.6065562903327
20
-10.997867849731
30
0
41
1
10
46.6857057106971
20
-11.0003267556523
30
0
41
1
10
46.70153559477
20
-10.9997258066322
30
0
41
1
10
46.7331953629158
20
-10.9962895674501
30
0
41
1
10
46.7806850151345
20
-10.9877766339299
30
0
41
1
10
46.8281746673532
20
-10.968896095335
30
0
41
1
10
46.9231539717906
20
-10.9165931625189
30
0
41
1
10
46.9864735080822
20
-10.8623030843738
30
0
41
1
10
47.1131125806654
20
-10.7117053741803
30
0
41
1
10
47.1764321169569
20
-10.6153863227576
30
0
41
1
10
47.30307118954
20
-10.3787052712827
30
0
41
1
10
47.3663907258316
20
-10.2383340826779
30
0
41
1
10
47.4930297984148
20
-9.91301247479717
30
0
41
1
10
47.5563493347064
20
-9.72805682669105
30
0
41
1
10
47.6829884072895
20
-9.31474196687591
30
0
41
1
10
47.7463079435812
20
-9.08638282865149
30
0
41
1
10
47.8729470161643
20
-8.58923057850365
30
0
41
1
10
47.9362665524558
20
-8.32044340036785
30
0
41
1
10
48.062905625039
20
-7.7471097215053
30
0
41
1
10
48.1262251613306
20
-7.44257454856654
30
0
41
1
10
48.2528642339138
20
-6.80386281310882
30
0
41
1
10
48.3161837702054
20
-6.46970151251955
30
0
41
1
10
48.4428228427885
20
-5.77889334381922
30
0
41
1
10
48.5061423790801
20
-5.4222635334593
30
0
41
1
10
48.6327814516633
20
-4.69421849172792
30
0
41
1
10
48.6961009879549
20
-4.32281979565283
30
0
41
1
10
48.822740060538
20
-3.57296860224378
30
0
41
1
10
48.8860595968296
20
-3.19453012993631
30
0
41
1
10
49.0126986694128
20
-2.43789683920849
30
0
41
1
10
49.0760182057044
20
-2.05971223892991
30
0
41
1
10
49.2026572782875
20
-1.3100820287915
30
0
41
1
10
49.2659768145791
20
-0.938642352070985
30
0
41
1
10
49.3609561190165
20
-0.390624456928805
30
0
41
1
10
49.3926158871623
20
-0.209466735449951
30
0
41
1
10
49.440105539381
20
0.0595682949602292
30
0
41
1
10
49.4559354234539
20
0.149331842032012
30
0
41
1
10
49.4875951915996
20
0.330042795258265
30
0
41
1
10
49.5034250756726
20
0.420821289617493
30
0
41
1
10
49.582574496037
20
0.876646863173875
30
0
41
1
10
49.6458940323286
20
1.24753738935283
30
0
41
1
10
49.7725331049118
20
1.9964032322747
30
0
41
1
10
49.8358526412033
20
2.37437285428158
30
0
41
1
10
49.9624917137865
20
3.13096345003257
30
0
41
1
10
50.0258112500781
20
3.50957444044045
30
0
41
1
10
50.1524503226613
20
4.26019429971811
30
0
41
1
10
50.2157698589528
20
4.63218932994127
30
0
41
1
10
50.342408931536
20
5.36186357976371
30
0
41
1
10
50.4057284678275
20
5.7195263572815
30
0
41
1
10
50.5323675404107
20
6.41282209068567
30
0
41
1
10
50.5956870767023
20
6.74843795772469
30
0
41
1
10
50.7223261492855
20
7.39043669454742
30
0
41
1
10
50.7856456855771
20
7.69680414122109
30
0
41
1
10
50.9122847581603
20
8.27411051205027
30
0
41
1
10
50.9756042944518
20
8.5450378413498
30
0
41
1
10
51.102243367035
20
9.04668939848895
30
0
41
1
10
51.1655629033266
20
9.27740736825737
30
0
41
1
10
51.2922019759097
20
9.69555941782497
30
0
41
1
10
51.3555215122013
20
9.88299310188793
30
0
41
1
10
51.4821605847845
20
10.2132904228546
30
0
41
1
10
51.545480121076
20
10.3561590215312
30
0
41
1
10
51.6721191936592
20
10.5977632749205
30
0
41
1
10
51.7354387299508
20
10.6965079405351
30
0
41
1
10
51.862077802534
20
10.851809409736
30
0
41
1
10
51.9253973388255
20
10.9083775547303
30
0
41
1
10
52.0520364114087
20
10.9824668720813
30
0
41
1
10
52.1153559477003
20
11
30
0
41
1
10
52.1786754839919
20
11
30
0
0
SPLINE
5
E2
100
AcDbEntity
8
1
62
256
6
ByLayer
370
13
48
1
60
0
100
AcDbSpline
70
4
71
3
72
74
73
70
40
0
40
0
40
0
40
0
40
0.03125
40
0.03125
40
0.0625000000000001
40
0.0625000000000001
40
0.0937500000000001
40
0.0937500000000001
40
0.125
40
0.125
40
0.15625
40
0.15625
40
0.1875
40
0.1875
40
0.21875
40
0.21875
40
0.25
40
0.25
40
0.28125
40
0.28125
40
0.3125
40
0.3125
40
0.34375
40
0.34375
40
0.375
40
0.375
40
0.40625
40
0.40625
40
0.4375
40
0.4375
40
0.46875
40
0.46875
40
0.484375000000001
40
0.484375000000001
40
0.500000000000001
40
0.500000000000001
40
0.531250000000001
40
0.531250000000001
40
0.562500000000001
40
0.562500000000001
40
0.593750000000001
40
0.593750000000001
40
0.625000000000001
40
0.625000000000001
40
0.656250000000001
40
0.656250000000001
40
0.687500000000001
40
0.687500000000001
40
0.718750000000001
40
0.718750000000001
40
0.750000000000001
40
0.750000000000001
40
0.781250000000001
40
0.781250000000001
40
0.812500000000001
40
0.812500000000001
40
0.843750000000001
40
0.843750000000001
40
0.875000000000001
40
0.875000000000001
40
0.906250000000001
40
0.906250000000001
40
0.937500000000001
40
0.937500000000001
40
0.968750000000001
40
0.968750000000001
40
0.984375
40
0.984375
40
1
40
1
40
1
40
1
41
1
10
51.5094182876022
20
11
30
0
41
1
10
51.5676152577634
20
11
30
0
41
1
10
51.6258122279245
20
10.9851927421736
30
0
41
1
10
51.7422061682468
20
10.9228700647421
30
0
41
1
10
51.8004031384079
20
10.8753468086106
30
0
41
1
10
51.9167970787302
20
10.7450605280864
30
0
41
1
10
51.9749940488913
20
10.6622899189211
30
0
41
1
10
52.0913879892136
20
10.4597885327957
30
0
41
1
10
52.1495849593747
20
10.3400513584909
30
0
41
1
10
52.265978899697
20
10.0629211566356
30
0
41
1
10
52.3241758698583
20
9.90552389540153
30
0
41
1
10
52.4405698101805
20
9.55356578042358
30
0
41
1
10
52.4987667803416
20
9.35900368596882
30
0
41
1
10
52.6151607206639
20
8.93448122049784
30
0
41
1
10
52.6733576908251
20
8.70452308729986
30
0
41
1
10
52.7897516311473
20
8.21223343044673
30
0
41
1
10
52.8479486013085
20
7.94990761718117
30
0
41
1
10
52.9643425416307
20
7.39704728614893
30
0
41
1
10
53.0225395117919
20
7.10652140889951
30
0
41
1
10
53.1389334521142
20
6.50234755107556
30
0
41
1
10
53.1971304222753
20
6.18871014516335
30
0
41
1
10
53.3135243625976
20
5.54402927035613
30
0
41
1
10
53.3717213327587
20
5.2129970539165
30
0
41
1
10
53.488115273081
20
4.53953959148277
30
0
41
1
10
53.5463122432422
20
4.19712500650675
30
0
41
1
10
53.6627061835645
20
3.50687928218181
30
0
41
1
10
53.7209031537256
20
3.15905716031636
30
0
41
1
10
53.8372970940479
20
2.46363728845566
30
0
41
1
10
53.895494064209
20
2.11604623065739
30
0
41
1
10
54.0118880045313
20
1.42615594668919
30
0
41
1
10
54.0700849746925
20
1.08386082560085
30
0
41
1
10
54.1573804299342
20
0.577635565613946
30
0
41
1
10
54.1864789150147
20
0.410090598563755
30
0
41
1
10
54.2446758851758
20
0.0778586768122977
30
0
41
1
10
54.2737743702564
20
-0.0860900259417576
30
0
41
1
10
54.3610698254981
20
-0.584579924949651
30
0
41
1
10
54.4192667956593
20
-0.922633628688004
30
0
41
1
10
54.5356607359816
20
-1.60626734553864
30
0
41
1
10
54.5938577061427
20
-1.95184450379307
30
0
41
1
10
54.710251646465
20
-2.64580930289665
30
0
41
1
10
54.7684486166261
20
-2.99419151616394
30
0
41
1
10
54.8848425569484
20
-3.68838724603867
30
0
41
1
10
54.9430395271095
20
-4.03419282945623
30
0
41
1
10
55.0594334674318
20
-4.7173938194517
30
0
41
1
10
55.1176304375929
20
-5.05477926224805
30
0
41
1
10
55.2340243779153
20
-5.71510692174016
30
0
41
1
10
55.2922213480763
20
-6.03803802695305
30
0
41
1
10
55.4086152883987
20
-6.66355234036274
30
0
41
1
10
55.4668122585598
20
-6.96612447688497
30
0
41
1
10
55.5832061988821
20
-7.54548216054985
30
0
41
1
10
55.6414031690433
20
-7.82225797002098
30
0
41
1
10
55.7577971093655
20
-8.34536746553482
30
0
41
1
10
55.8159940795267
20
-8.59169390106442
30
0
41
1
10
55.9323880198489
20
-9.05029134060493
30
0
41
1
10
55.9905849900101
20
-9.26255836485623
30
0
41
1
10
56.1069789303323
20
-9.65063696883612
30
0
41
1
10
56.1651759004935
20
-9.82644811151468
30
0
41
1
10
56.2815698408158
20
-10.1404950275514
30
0
41
1
10
56.3397668109769
20
-10.278733649578
30
0
41
1
10
56.4561607512993
20
-10.5177580376768
30
0
41
1
10
56.5143577214603
20
-10.6185492548636
30
0
41
1
10
56.6307516617826
20
-10.78391629389
30
0
41
1
10
56.6889486319438
20
-10.8484992400294
30
0
41
1
10
56.8053425722661
20
-10.9436097487417
30
0
41
1
10
56.8635395424272
20
-10.9741451322964
30
0
41
1
10
56.9508349976689
20
-10.9965476288409
30
0
41
1
10
56.9799334827496
20
-11.0001198179172
30
0
41
1
10
57.0381304529107
20
-10.9998740600068
30
0
41
1
10
57.0672289379912
20
-10.9960494751343
30
0
41
1
10
57.0963274230718
20
-10.9883230236012
30
0
0
SPLINE
5
E3
100
AcDbEntity
8
1
62
256
6
ByLayer
370
13
48
1
60
0
100
AcDbSpline
70
4
71
3
72
74
73
70
40
0
40
0
40
0
40
0
40
0.0156250000000001
40
0.0156250000000001
40
0.0312500000000002
40
0.0312500000000002
40
0.0625000000000002
40
0.0625000000000002
40
0.0937500000000002
40
0.0937500000000002
40
0.125
40
0.125
40
0.15625
40
0.15625
40
0.1875
40
0.1875
40
0.21875
40
0.21875
40
0.25
40
0.25
40
0.28125
40
0.28125
40
0.3125
40
0.3125
40
0.34375
40
0.34375
40
0.375
40
0.375
40
0.40625
40
0.40625
40
0.4375
40
0.4375
40
0.46875
40
0.46875
40
0.5
40
0.5
40
0.515625
40
0.515625
40
0.53125
40
0.53125
40
0.5625
40
0.5625
40
0.59375
40
0.59375
40
0.625
40
0.625
40
0.65625
40
0.65625
40
0.6875
40
0.6875
40
0.71875
40
0.71875
40
0.75
40
0.75
40
0.78125
40
0.78125
40
0.8125
40
0.8125
40
0.84375
40
0.84375
40
0.875
40
0.875
40
0.90625
40
0.90625
40
0.9375
40
0.9375
40
0.96875
40
0.96875
40
1
40
1
40
1
40
1
41
1
10
46.1
20
-10.9883227316165
30
0
41
1
10
46.1290984908078
20
-10.9960492829442
30
0
41
1
10
46.1581969816157
20
-10.999873963634
30
0
41
1
10
46.2163939632313
20
-11.0001199051445
30
0
41
1
10
46.2454924540391
20
-10.9965478086417
30
0
41
1
10
46.3327879264626
20
-10.9741455928248
30
0
41
1
10
46.3909849080782
20
-10.943610399798
30
0
41
1
10
46.5073788713095
20
-10.8485002737646
30
0
41
1
10
46.5655758529252
20
-10.783917519767
30
0
41
1
10
46.6819698161565
20
-10.6185508606635
30
0
41
1
10
46.7401667977721
20
-10.5177598312439
30
0
41
1
10
46.8565607610034
20
-10.278735807831
30
0
41
1
10
46.9147577426191
20
-10.140497362706
30
0
41
1
10
47.0311517058504
20
-9.8264507831033
30
0
41
1
10
47.089348687466
20
-9.65063979993843
30
0
41
1
10
47.2057426506973
20
-9.26256149161176
30
0
41
1
10
47.2639396323129
20
-9.05029460348248
30
0
41
1
10
47.3803335955442
20
-8.59169740787672
30
0
41
1
10
47.43853057716
20
-8.34537108014649
30
0
41
1
10
47.5549245403912
20
-7.82226176852922
30
0
41
1
10
47.6131215220069
20
-7.54548603514837
30
0
41
1
10
47.7295154852382
20
-6.96612847042169
30
0
41
1
10
47.7877124668538
20
-6.66355637674801
30
0
41
1
10
47.9041064300851
20
-6.03804211620016
30
0
41
1
10
47.9623034117008
20
-5.7151110210084
30
0
41
1
10
48.0786973749321
20
-5.05478335094602
30
0
41
1
10
48.1368943565477
20
-4.71739788757165
30
0
41
1
10
48.253288319779
20
-4.0341968295196
30
0
41
1
10
48.3114853013947
20
-3.68839119863981
30
0
41
1
10
48.427879264626
20
-2.9941953516863
30
0
41
1
10
48.4860762462416
20
-2.64581306881902
30
0
41
1
10
48.6024702094729
20
-1.95184811363873
30
0
41
1
10
48.6606671910885
20
-1.60627086892217
30
0
41
1
10
48.7770611543198
20
-0.922636967604632
30
0
41
1
10
48.8352581359355
20
-0.584583165872715
30
0
41
1
10
48.9225536083589
20
-0.0860931149679232
30
0
41
1
10
48.9516520991667
20
0.0778556208512953
30
0
41
1
10
49.0098490807825
20
0.410087573170131
30
0
41
1
10
49.0389475715903
20
0.577632557405025
30
0
41
1
10
49.1262430440137
20
1.0838578747053
30
0
41
1
10
49.1844400256294
20
1.42615304170889
30
0
41
1
10
49.3008339888607
20
2.11604343261169
30
0
41
1
10
49.3590309704763
20
2.46363455143242
30
0
41
1
10
49.4754249337076
20
3.15905455922683
30
0
41
1
10
49.5336219153232
20
3.50687675600338
30
0
41
1
10
49.6500158785546
20
4.19712264185847
30
0
41
1
10
49.7082128601702
20
4.53953731344944
30
0
41
1
10
49.8246068234015
20
5.21299495773437
30
0
41
1
10
49.8828038050171
20
5.54402726940228
30
0
41
1
10
49.9991977682485
20
6.1887083394746
30
0
41
1
10
50.0573947498641
20
6.50234584541255
30
0
41
1
10
50.1737887130954
20
7.10651990384747
30
0
41
1
10
50.2319856947111
20
7.39704588166933
30
0
41
1
10
50.3483796579424
20
7.94990641008428
30
0
41
1
10
50.406576639558
20
8.21223232014771
30
0
41
1
10
50.5229706027893
20
8.70452216282533
30
0
41
1
10
50.581167584405
20
8.93448038503982
30
0
41
1
10
50.6975615476362
20
9.35900301742188
30
0
41
1
10
50.7557585292519
20
9.55356518976481
30
0
41
1
10
50.8721524924832
20
9.90552344695794
30
0
41
1
10
50.9303494740988
20
10.062920772517
30
0
41
1
10
51.0467434373302
20
10.340051088062
30
0
41
1
10
51.1049404189457
20
10.4597883117336
30
0
41
1
10
51.221334382177
20
10.6622897812707
30
0
41
1
10
51.2795313637927
20
10.7450604244863
30
0
41
1
10
51.395925327024
20
10.8753467583507
30
0
41
1
10
51.4541223086396
20
10.9228700337792
30
0
41
1
10
51.5705162718709
20
10.9851927363369
30
0
41
1
10
51.6287132534866
20
11
30
0
41
1
10
51.6869102351022
20
11
30
0
0
SPLINE
5
E4
100
AcDbEntity
8
1
62
256
6
ByLayer
370
13
48
1
60
0
100
AcDbSpline
70
4
71
3
72
78
73
74
40
0
40
0
40
0
40
0
40
0.0312499999999995
40
0.0312499999999995
40
0.062499999999999
40
0.062499999999999
40
0.0937499999999985
40
0.0937499999999985
40
0.124999999999998
40
0.124999999999998
40
0.156249999999998
40
0.156249999999998
40
0.187499999999997
40
0.187499999999997
40
0.218749999999996
40
0.218749999999996
40
0.249999999999996
40
0.249999999999996
40
0.281249999999996
40
0.281249999999996
40
0.312499999999995
40
0.312499999999995
40
0.343749999999995
40
0.343749999999995
40
0.374999999999994
40
0.374999999999994
40
0.406249999999994
40
0.406249999999994
40
0.437499999999993
40
0.437499999999993
40
0.445312499999993
40
0.445312499999993
40
0.453124999999993
40
0.453124999999993
40
0.468749999999993
40
0.468749999999993
40
0.499999999999994
40
0.499999999999994
40
0.531249999999994
40
0.531249999999994
40
0.562499999999994
40
0.562499999999994
40
0.593749999999995
40
0.593749999999995
40
0.624999999999995
40
0.624999999999995
40
0.656249999999995
40
0.656249999999995
40
0.687499999999995
40
0.687499999999995
40
0.718749999999996
40
0.718749999999996
40
0.749999999999996
40
0.749999999999996
40
0.781249999999997
40
0.781249999999997
40
0.812499999999997
40
0.812499999999997
40
0.843749999999997
40
0.843749999999997
40
0.874999999999998
40
0.874999999999998
40
0.890624999999998
40
0.890624999999998
40
0.898437499999998
40
0.898437499999998
40
0.906249999999998
40
0.906249999999998
40
0.937499999999999
40
0.937499999999999
40
0.968749999999999
40
0.968749999999999
40
1
40
1
40
1
40
1
41
1
10
51.0176530387126
20
11
30
0
41
1
10
51.0809725635497
20
11
30
0
41
1
10
51.1442920883867
20
10.9824668784353
30
0
41
1
10
51.2709311380609
20
10.9083775885846
30
0
41
1
10
51.3342506628979
20
10.8518094647475
30
0
41
1
10
51.4608897125721
20
10.6965080540878
30
0
41
1
10
51.5242092374092
20
10.597763425867
30
0
41
1
10
51.6508482870834
20
10.3561592639407
30
0
41
1
10
51.7141678119204
20
10.2132907193396
30
0
41
1
10
51.8408068615946
20
9.88299352241242
30
0
41
1
10
51.9041263864316
20
9.69555990831432
30
0
41
1
10
52.0307654361058
20
9.27740801242382
30
0
41
1
10
52.0940849609429
20
9.04669012636208
30
0
41
1
10
52.220724010617
20
8.54503874695479
30
0
41
1
10
52.284043535454
20
8.27411151166851
30
0
41
1
10
52.4106825851282
20
7.69680533473249
30
0
41
1
10
52.4740021099653
20
7.39043798792224
30
0
41
1
10
52.6006411596395
20
6.74843945165222
30
0
41
1
10
52.6639606844765
20
6.41282368528448
30
0
41
1
10
52.7905997341507
20
5.71952814894786
30
0
41
1
10
52.8539192589878
20
5.36186546781016
30
0
41
1
10
52.9805583086619
20
4.63219140183796
30
0
41
1
10
53.043877833499
20
4.26019645907323
30
0
41
1
10
53.1705168831731
20
3.50957676206193
30
0
41
1
10
53.2338364080102
20
3.13096584645618
30
0
41
1
10
53.3604754576844
20
2.37437538507999
30
0
41
1
10
53.4237949825214
20
1.9964058226459
30
0
41
1
10
53.5504340321956
20
1.2475400823067
30
0
41
1
10
53.6137535570327
20
0.876649599142468
30
0
41
1
10
53.692902963079
20
0.420824068898043
30
0
41
1
10
53.7087328442882
20
0.330045582680981
30
0
41
1
10
53.7403926067068
20
0.149334644705732
30
0
41
1
10
53.7562224879161
20
0.0595710920750321
30
0
41
1
10
53.8037121315439
20
-0.2094638613695
30
0
41
1
10
53.8353718939624
20
-0.390621532290254
30
0
41
1
10
53.9303511812181
20
-0.938639279066592
30
0
41
1
10
53.9936707060551
20
-1.31007886127364
30
0
41
1
10
54.1203097557292
20
-2.059708897257
30
0
41
1
10
54.1836292805663
20
-2.43789341791168
30
0
41
1
10
54.3102683302405
20
-3.19452657060802
30
0
41
1
10
54.3735878550776
20
-3.57296498453005
30
0
41
1
10
54.5002269047517
20
-4.32281608836786
30
0
41
1
10
54.5635464295888
20
-4.69421475328056
30
0
41
1
10
54.690185479263
20
-5.42225976481316
30
0
41
1
10
54.7535050041
20
-5.77888957615718
30
0
41
1
10
54.8801440537741
20
-6.46969778214665
30
0
41
1
10
54.9434635786112
20
-6.8038591190541
30
0
41
1
10
55.0701026282853
20
-7.44257096341184
30
0
41
1
10
55.1334221531225
20
-7.74710620893509
30
0
41
1
10
55.2600612027966
20
-8.32044006767424
30
0
41
1
10
55.3233807276337
20
-8.58922735309326
30
0
41
1
10
55.4500197773078
20
-9.08637984855392
30
0
41
1
10
55.5133393021449
20
-9.3147391247891
30
0
41
1
10
55.639978351819
20
-9.72805428543046
30
0
41
1
10
55.7032978766561
20
-9.91301009632727
30
0
41
1
10
55.8299369263303
20
-10.2383320473429
30
0
41
1
10
55.8932564511674
20
-10.3787034162659
30
0
41
1
10
56.0198955008415
20
-10.6153848381535
30
0
41
1
10
56.0832150256786
20
-10.7117040796478
30
0
41
1
10
56.2098540753528
20
-10.8623021722095
30
0
41
1
10
56.2731736001898
20
-10.9165924426343
30
0
41
1
10
56.3681528874454
20
-10.9688956605004
30
0
41
1
10
56.3998126498639
20
-10.9814827806934
30
0
41
1
10
56.4473022934918
20
-10.9934514800875
30
0
41
1
10
56.463132174701
20
-10.9962894139445
30
0
41
1
10
56.4947919371195
20
-10.9997257456774
30
0
41
1
10
56.5106218183288
20
-11.0003267402879
30
0
41
1
10
56.5897712243752
20
-10.9978680659773
30
0
41
1
10
56.6530907492122
20
-10.9782485533664
30
0
41
1
10
56.7797297988864
20
-10.8997850846621
30
0
41
1
10
56.8430493237234
20
-10.8409291664165
30
0
41
1
10
56.9696883733976
20
-10.6809083040648
30
0
41
1
10
57.0330078982348
20
-10.5797321019828
30
0
41
1
10
57.0963274230718
20
-10.4564648343764
30
0
0
SPLINE
5
E5
100
AcDbEntity
8
1
62
256
6
ByLayer
370
13
48
1
60
0
100
AcDbSpline
70
4
71
3
72
64
73
60
40
0
40
0
40
0
40
0
40
0.03125
40
0.03125
40
0.0625
40
0.0625
40
0.09375
40
0.09375
40
0.125
40
0.125
40
0.15625
40
0.15625
40
0.1875
40
0.1875
40
0.21875
40
0.21875
40
0.25
40
0.25
40
0.28125
40
0.28125
40
0.3125
40
0.3125
40
0.34375
40
0.34375
40
0.375
40
0.375
40
0.4375
40
0.4375
40
0.453125
40
0.453125
40
0.46875
40
0.46875
40
0.5
40
0.5
40
0.5625
40
0.5625
40
0.59375
40
0.59375
40
0.625
40
0.625
40
0.65625
40
0.65625
40
0.6875
40
0.6875
40
0.71875
40
0.71875
40
0.75
40
0.75
40
0.78125
40
0.78125
40
0.8125
40
0.8125
40
0.84375
40
0.84375
40
0.875
40
0.875
40
0.9375
40
0.9375
40
1
40
1
40
1
40
1
41
1
10
46.1
20
-10.7448928148007
30
0
41
1
10
46.1530744269397
20
-10.6755011160296
30
0
41
1
10
46.2061488538794
20
-10.5911936104247
30
0
41
1
10
46.3122977077588
20
-10.3916434674653
30
0
41
1
10
46.3653721346986
20
-10.2763970385093
30
0
41
1
10
46.471520988578
20
-10.0145938591817
30
0
41
1
10
46.5245954155177
20
-9.86803465718225
30
0
41
1
10
46.6307442693971
20
-9.54406390720027
30
0
41
1
10
46.6838186963369
20
-9.36665166683667
30
0
41
1
10
46.7899675502164
20
-8.98231464978753
30
0
41
1
10
46.843041977156
20
-8.77539118637438
30
0
41
1
10
46.9491908310355
20
-8.33424481027214
30
0
41
1
10
47.0022652579752
20
-8.10002522623796
30
0
41
1
10
47.1084141118546
20
-7.60730313187494
30
0
41
1
10
47.1614885387943
20
-7.34880571624527
30
0
41
1
10
47.2676373926737
20
-6.81122034613415
30
0
41
1
10
47.3207118196135
20
-6.53213877304256
30
0
41
1
10
47.4268606734929
20
-5.95757913265041
30
0
41
1
10
47.4799351004326
20
-5.66210810021255
30
0
41
1
10
47.5860839543121
20
-5.05926142412949
30
0
41
1
10
47.6391583812517
20
-4.75189278685997
30
0
41
1
10
47.7453072351311
20
-4.1298273454596
30
0
41
1
10
47.7983816620709
20
-3.81513689667403
30
0
41
1
10
47.9045305159503
20
-3.1828860819393
30
0
41
1
10
47.95760494289
20
-2.86533094343059
30
0
41
1
10
48.1168282237092
20
-1.91460757784847
30
0
41
1
10
48.2229770775886
20
-1.28365406686655
30
0
41
1
10
48.3556631449379
20
-0.515892458869132
30
0
41
1
10
48.3822003584077
20
-0.363365984954129
30
0
41
1
10
48.4352747853475
20
-0.0607127505521419
30
0
41
1
10
48.4618119988173
20
0.0888650129837174
30
0
41
1
10
48.5414236392269
20
0.543290948582154
30
0
41
1
10
48.5944980661666
20
0.851017537715592
30
0
41
1
10
48.7537213469857
20
1.78410825035653
30
0
41
1
10
48.8598702008652
20
2.41961792457835
30
0
41
1
10
49.0190934816843
20
3.37064798905962
30
0
41
1
10
49.072167908624
20
3.68722227669127
30
0
41
1
10
49.1783167625034
20
4.31517087665301
30
0
41
1
10
49.2313911894432
20
4.62653931426004
30
0
41
1
10
49.3375400433226
20
5.23953305888514
30
0
41
1
10
49.3906144702624
20
5.54115159450117
30
0
41
1
10
49.4967633241417
20
6.1300883163014
30
0
41
1
10
49.5498377510814
20
6.41739939730871
30
0
41
1
10
49.6559866049609
20
6.97336041960938
30
0
41
1
10
49.7090610319006
20
7.24200358869706
30
0
41
1
10
49.81520988578
20
7.75667524845545
30
0
41
1
10
49.8682843127198
20
8.0026979698745
30
0
41
1
10
49.9744331665992
20
8.4687731366582
30
0
41
1
10
50.0275075935389
20
8.68882137901824
30
0
41
1
10
50.1336564474183
20
9.10034156316064
30
0
41
1
10
50.1867308743581
20
9.29181123213161
30
0
41
1
10
50.2928797282375
20
9.64441615215327
30
0
41
1
10
50.3459541551772
20
9.80555117258731
30
0
41
1
10
50.4521030090567
20
10.0966143236715
30
0
41
1
10
50.5051774359964
20
10.2265441246569
30
0
41
1
10
50.6644007168155
20
10.569509392286
30
0
41
1
10
50.7705495706949
20
10.7353936112868
30
0
41
1
10
50.9828472784537
20
10.9505622884164
30
0
41
1
10
51.0889961323332
20
11
30
0
41
1
10
51.1951449862126
20
11
30
0
0
SPLINE
5
E6
100
AcDbEntity
8
1
62
256
6
ByLayer
370
13
48
1
60
0
100
AcDbSpline
70
4
71
3
72
78
73
74
40
0
40
0
40
0
40
0
40
0.03125
40
0.03125
40
0.0625000000000001
40
0.0625000000000001
40
0.0937500000000001
40
0.0937500000000001
40
0.125
40
0.125
40
0.15625
40
0.15625
40
0.1875
40
0.1875
40
0.21875
40
0.21875
40
0.25
40
0.25
40
0.28125
40
0.28125
40
0.3125
40
0.3125
40
0.34375
40
0.34375
40
0.375
40
0.375
40
0.40625
40
0.40625
40
0.4140625
40
0.4140625
40
0.421875
40
0.421875
40
0.4375
40
0.4375
40
0.46875
40
0.46875
40
0.5
40
0.5
40
0.53125
40
0.53125
40
0.5625
40
0.5625
40
0.59375
40
0.59375
40
0.625
40
0.625
40
0.65625
40
0.65625
40
0.6875
40
0.6875
40
0.71875
40
0.71875
40
0.75
40
0.75
40
0.78125
40
0.78125
40
0.8125
40
0.8125
40
0.828125
40
0.828125
40
0.8359375
40
0.8359375
40
0.84375
40
0.84375
40
0.875
40
0.875
40
0.90625
40
0.90625
40
0.9375
40
0.9375
40
0.96875
40
0.96875
40
1
40
1
40
1
40
1
41
1
10
50.525887789823
20
11
30
0
41
1
10
50.594329869336
20
11
30
0
41
1
10
50.662771948849
20
10.9795094954787
30
0
41
1
10
50.799656107875
20
10.8925865312696
30
0
41
1
10
50.8680981873881
20
10.8261364368408
30
0
41
1
10
51.004982346414
20
10.6434823399044
30
0
41
1
10
51.073424425927
20
10.527262002454
30
0
41
1
10
51.2103085849531
20
10.2429573231371
30
0
41
1
10
51.2787506644661
20
10.0748609353858
30
0
41
1
10
51.4156348234921
20
9.68683351942167
30
0
41
1
10
51.4840769030051
20
9.46689757717499
30
0
41
1
10
51.6209610620311
20
8.97762479814068
30
0
41
1
10
51.6894031415441
20
8.70829203774332
30
0
41
1
10
51.8262873005702
20
8.12508218020233
30
0
41
1
10
51.8947293800831
20
7.81121831976759
30
0
41
1
10
52.0316135391092
20
7.14596471676091
30
0
41
1
10
52.1000556186222
20
6.79459560778815
30
0
41
1
10
52.2369397776482
20
6.0629951310641
30
0
41
1
10
52.3053818571612
20
5.68278847725014
30
0
41
1
10
52.4422660161872
20
4.90312744034554
30
0
41
1
10
52.5107080957002
20
4.5036978708651
30
0
41
1
10
52.6475922547262
20
3.69539789543865
30
0
41
1
10
52.7160343342393
20
3.28654880392509
30
0
41
1
10
52.8529184932653
20
2.46870391405432
30
0
41
1
10
52.9213605727783
20
2.05972351882784
30
0
41
1
10
53.0582447318043
20
1.24983858315653
30
0
41
1
10
53.1266868113173
20
0.848942631733934
30
0
41
1
10
53.2122394107085
20
0.357113223768579
30
0
41
1
10
53.2293499305868
20
0.259208098192488
30
0
41
1
10
53.2635709703433
20
0.0644098618722069
30
0
41
1
10
53.2806814902216
20
-0.0321696906094644
30
0
41
1
10
53.3320130498564
20
-0.32402926176934
30
0
41
1
10
53.3662340896128
20
-0.520648736011452
30
0
41
1
10
53.4688972088822
20
-1.11553134183447
30
0
41
1
10
53.5373392883953
20
-1.5188651076559
30
0
41
1
10
53.6742234474214
20
-2.33191523923566
30
0
41
1
10
53.7426655269344
20
-2.74162149814902
30
0
41
1
10
53.8795496859604
20
-3.55893071818284
30
0
41
1
10
53.9479917654734
20
-3.96651683041569
30
0
41
1
10
54.0848759244994
20
-4.77013407054915
30
0
41
1
10
54.1533180040124
20
-5.16614284707114
30
0
41
1
10
54.2902021630384
20
-5.93678230609987
30
0
41
1
10
54.3586442425515
20
-6.31138785721669
30
0
41
1
10
54.4955284015774
20
-7.02975052881328
30
0
41
1
10
54.5639704810905
20
-7.37348350506457
30
0
41
1
10
54.7008546401165
20
-8.0217379261689
30
0
41
1
10
54.7692967196294
20
-8.32624013852717
30
0
41
1
10
54.9061808786555
20
-8.88944274043988
30
0
41
1
10
54.9746229581685
20
-9.14813184378104
30
0
41
1
10
55.1115071171945
20
-9.61535902018926
30
0
41
1
10
55.1799491967075
20
-9.8238950975549
30
0
41
1
10
55.3168333557336
20
-10.1889107151522
30
0
41
1
10
55.3852754352465
20
-10.3453969632736
30
0
41
1
10
55.5221595942726
20
-10.6067763939587
30
0
41
1
10
55.5906016737856
20
-10.7116828395135
30
0
41
1
10
55.7274858328116
20
-10.8724260316784
30
0
41
1
10
55.7959279123246
20
-10.9282796506458
30
0
41
1
10
55.8985910315941
20
-10.9783473633342
30
0
41
1
10
55.9328120713506
20
-10.9894286310544
30
0
41
1
10
55.9841436309854
20
-10.9981021759758
30
0
41
1
10
56.0012541508636
20
-10.9996691001259
30
0
41
1
10
56.0354751906201
20
-11.000236642916
30
0
41
1
10
56.0525857104984
20
-10.9992446153655
30
0
41
1
10
56.1381383098896
20
-10.9877126910095
30
0
41
1
10
56.2065803894028
20
-10.9574036585389
30
0
41
1
10
56.3434645484287
20
-10.8498752415543
30
0
41
1
10
56.4119066279417
20
-10.7726382717329
30
0
41
1
10
56.5487907869677
20
-10.5677768919301
30
0
41
1
10
56.6172328664807
20
-10.44013683484
30
0
41
1
10
56.7541170255067
20
-10.1328016653941
30
0
41
1
10
56.8225591050197
20
-9.95309586819451
30
0
41
1
10
56.9594432640457
20
-9.54217792277126
30
0
41
1
10
57.0278853435587
20
-9.31096274916126
30
0
41
1
10
57.0963274230717
20
-9.05548462017174
30
0
0
SPLINE
5
E7
100
AcDbEntity
8
1
62
256
6
ByLayer
370
13
48
1
60
0
100
AcDbSpline
70
4
71
3
72
43
73
39
40
0
40
0
40
0
40
0
40
0.0624999999999998
40
0.0624999999999998
40
0.125
40
0.125
40
0.187499999999999
40
0.187499999999999
40
0.249999999999999
40
0.249999999999999
40
0.312499999999999
40
0.312499999999999
40
0.374999999999999
40
0.374999999999999
40
0.390624999999999
40
0.398437499999999
40
0.398437499999999
40
0.406249999999999
40
0.406249999999999
40
0.437499999999999
40
0.437499999999999
40
0.499999999999999
40
0.499999999999999
40
0.562499999999999
40
0.562499999999999
40
0.624999999999999
40
0.624999999999999
40
0.687499999999999
40
0.687499999999999
40
0.749999999999999
40
0.749999999999999
40
0.8125
40
0.8125
40
0.875
40
0.875
40
0.9375
40
0.9375
40
1
40
1
40
1
40
1
41
1
10
46.1
20
-9.6626680018409
30
0
41
1
10
46.1959037445275
20
-9.3650486222426
30
0
41
1
10
46.2918074890552
20
-9.01692545174231
30
0
41
1
10
46.4836149781103
20
-8.23012383026497
30
0
41
1
10
46.5795187226378
20
-7.79150512073019
30
0
41
1
10
46.771326211693
20
-6.84282070130834
30
0
41
1
10
46.8672299562205
20
-6.33287047478149
30
0
41
1
10
47.0590374452756
20
-5.26659858472863
30
0
41
1
10
47.1549411898032
20
-4.71041238888142
30
0
41
1
10
47.3467486788583
20
-3.57879490503285
30
0
41
1
10
47.4426524233859
20
-3.00347912714346
30
0
41
1
10
47.634459912441
20
-1.85886663978439
30
0
41
1
10
47.7303636569686
20
-1.28963979150566
30
0
41
1
10
47.8502433376281
20
-0.594706329046431
30
0
41
1
10
47.8862072418258
20
-0.387450591457338
30
0
41
1
10
47.9221711460237
20
-0.182325458753468
30
0
41
1
10
47.9461470821556
20
-0.0460787104292706
30
0
41
1
10
47.9581350502215
20
0.0216373660516354
30
0
41
1
10
48.0180748905512
20
0.36195123552676
30
0
41
1
10
48.066026762815
20
0.638274431980221
30
0
41
1
10
48.2098823796063
20
1.47633824905662
30
0
41
1
10
48.3057861241339
20
2.04734060465989
30
0
41
1
10
48.4975936131891
20
3.19292797062076
30
0
41
1
10
48.5934973577167
20
3.76743750820512
30
0
41
1
10
48.7853048467718
20
4.8944924059015
30
0
41
1
10
48.8812085912993
20
5.44691843188284
30
0
41
1
10
49.0730160803544
20
6.50273536304258
30
0
41
1
10
49.168919824882
20
7.00599093629683
30
0
41
1
10
49.3607273139372
20
7.93881917764276
30
0
41
1
10
49.4566310584647
20
8.36828102272111
30
0
41
1
10
49.6484385475198
20
9.13515008671772
30
0
41
1
10
49.7443422920473
20
9.47250503388267
30
0
41
1
10
49.9361497811025
20
10.0456262752555
30
0
41
1
10
50.0320535256301
20
10.281409384814
30
0
41
1
10
50.2238610146852
20
10.6512363841995
30
0
41
1
10
50.3197647592128
20
10.7853504858243
30
0
41
1
10
50.511572248268
20
10.9596855028654
30
0
41
1
10
50.6074759927955
20
11
30
0
41
1
10
50.703379737323
20
11
30
0
0
SPLINE
5
E8
100
AcDbEntity
8
1
62
256
6
ByLayer
370
13
48
1
60
0
100
AcDbSpline
70
4
71
3
72
79
73
75
40
0
40
0
40
0
40
0
40
0.0312499999999998
40
0.0312499999999998
40
0.0624999999999996
40
0.0624999999999996
40
0.0937499999999994
40
0.0937499999999994
40
0.124999999999999
40
0.124999999999999
40
0.156249999999999
40
0.156249999999999
40
0.187499999999999
40
0.187499999999999
40
0.218749999999999
40
0.218749999999999
40
0.249999999999998
40
0.249999999999998
40
0.281249999999998
40
0.281249999999998
40
0.312499999999998
40
0.312499999999998
40
0.343749999999998
40
0.343749999999998
40
0.374999999999998
40
0.374999999999998
40
0.382812499999998
40
0.386718749999997
40
0.386718749999997
40
0.390624999999997
40
0.390624999999997
40
0.406249999999997
40
0.406249999999997
40
0.437499999999997
40
0.437499999999997
40
0.468749999999997
40
0.468749999999997
40
0.499999999999997
40
0.499999999999997
40
0.531249999999997
40
0.531249999999997
40
0.562499999999997
40
0.562499999999997
40
0.593749999999997
40
0.593749999999997
40
0.624999999999997
40
0.624999999999997
40
0.656249999999997
40
0.656249999999997
40
0.687499999999997
40
0.687499999999997
40
0.718749999999997
40
0.718749999999997
40
0.749999999999997
40
0.749999999999997
40
0.765624999999997
40
0.765624999999997
40
0.773437499999997
40
0.773437499999997
40
0.781249999999997
40
0.781249999999997
40
0.812499999999997
40
0.812499999999997
40
0.843749999999998
40
0.843749999999998
40
0.874999999999998
40
0.874999999999998
40
0.906249999999999
40
0.906249999999999
40
0.937499999999999
40
0.937499999999999
40
0.96875
40
0.96875
40
1
40
1
40
1
40
1
41
1
10
50.0341225409334
20
11
30
0
41
1
10
50.1076871751223
20
11
30
0
41
1
10
50.1812518093112
20
10.9763201231549
30
0
41
1
10
50.3283810776891
20
10.8754860633089
30
0
41
1
10
50.4019457118781
20
10.7983066122129
30
0
41
1
10
50.549074980256
20
10.5859415987234
30
0
41
1
10
50.6226396144449
20
10.4507332754579
30
0
41
1
10
50.7697688828228
20
10.1201466458576
30
0
41
1
10
50.8433335170118
20
9.92475306111658
30
0
41
1
10
50.9904627853896
20
9.47459015807743
30
0
41
1
10
51.0640274195785
20
9.21981748207264
30
0
41
1
10
51.2111566879564
20
8.6549442454706
30
0
41
1
10
51.2847213221454
20
8.3448545663681
30
0
41
1
10
51.4318505905232
20
7.67654213809476
30
0
41
1
10
51.5054152247122
20
7.3183435847821
30
0
41
1
10
51.65254449309
20
6.56362201345476
30
0
41
1
10
51.726109127279
20
6.16713231104916
30
0
41
1
10
51.8732383956569
20
5.34736907553042
30
0
41
1
10
51.9468030298459
20
4.92413172347059
30
0
41
1
10
52.0939322982237
20
4.06307797242937
30
0
41
1
10
52.1674969324126
20
3.62529423849918
30
0
41
1
10
52.3146262007905
20
2.74695996890074
30
0
41
1
10
52.3881908349795
20
2.30643385789648
30
0
41
1
10
52.5353201033574
20
1.43316199190903
30
0
41
1
10
52.6088847375462
20
1.00043029054004
30
0
41
1
10
52.7008405302825
20
0.469815348011622
30
0
41
1
10
52.7284272681033
20
0.311395897971892
30
0
41
1
10
52.7560140059243
20
0.154253585040948
30
0
41
1
10
52.7744051644715
20
0.0497892742238548
30
0
41
1
10
52.7836007437451
20
-0.0021924571729812
30
0
41
1
10
52.8295786401131
20
-0.262897400220425
30
0
41
1
10
52.8663609572076
20
-0.473877471130948
30
0
41
1
10
52.9767079084911
20
-1.11269832934386
30
0
41
1
10
53.0502725426799
20
-1.54648166068071
30
0
41
1
10
53.1974018110578
20
-2.42100896576909
30
0
41
1
10
53.2709664452468
20
-2.86173796743083
30
0
41
1
10
53.4180957136246
20
-3.73949237913018
30
0
41
1
10
53.4916603478136
20
-4.17649252422461
30
0
41
1
10
53.6387896161915
20
-5.03492047795967
30
0
41
1
10
53.7123542503804
20
-5.45631509512668
30
0
41
1
10
53.8594835187584
20
-6.27134752136763
30
0
41
1
10
53.9330481529473
20
-6.6649491331203
30
0
41
1
10
54.0801774213251
20
-7.41295754021317
30
0
41
1
10
54.153742055514
20
-7.76733158173002
30
0
41
1
10
54.3008713238919
20
-8.42725335590256
30
0
41
1
10
54.3744359580809
20
-8.73277792548748
30
0
41
1
10
54.5215652264588
20
-9.28803715644551
30
0
41
1
10
54.5951298606477
20
-9.53776218793917
30
0
41
1
10
54.7422591290257
20
-9.97763100451709
30
0
41
1
10
54.8158237632146
20
-10.1677793161195
30
0
41
1
10
54.9629530315925
20
-10.4879512680868
30
0
41
1
10
55.0365176657814
20
-10.6179910321821
30
0
41
1
10
55.1836469341593
20
-10.8203280936697
30
0
41
1
10
55.2572115683482
20
-10.8926485634371
30
0
41
1
10
55.3675585196316
20
-10.9613470983664
30
0
41
1
10
55.4043408367261
20
-10.9776320534484
30
0
41
1
10
55.4595143123678
20
-10.992692099312
30
0
41
1
10
55.4779054709151
20
-10.99615157389
30
0
41
1
10
55.5146877880095
20
-11.000049145581
30
0
41
1
10
55.5330789465568
20
-11.0004954814523
30
0
41
1
10
55.625034739293
20
-10.9953288593134
30
0
41
1
10
55.6985993734818
20
-10.9672249064524
30
0
41
1
10
55.8457286418597
20
-10.8570730581362
30
0
41
1
10
55.9192932760487
20
-10.7749999285607
30
0
41
1
10
56.0664225444266
20
-10.5525555524351
30
0
41
1
10
56.1399871786155
20
-10.4121619949815
30
0
41
1
10
56.2871164469934
20
-10.0711498766976
30
0
41
1
10
56.3606810811823
20
-9.87051691737287
30
0
41
1
10
56.5078103495602
20
-9.41009656765115
30
0
41
1
10
56.5813749837492
20
-9.15030700663962
30
0
41
1
10
56.728504252127
20
-8.5759053374332
30
0
41
1
10
56.802068886316
20
-8.26130535539104
30
0
41
1
10
56.9491981546939
20
-7.58473186126778
30
0
41
1
10
57.0227627888829
20
-7.22278354533429
30
0
41
1
10
57.0963274230718
20
-6.84214752998719
30
0
0
SPLINE
5
E9
100
AcDbEntity
8
1
62
256
6
ByLayer
370
13
48
1
60
0
100
AcDbSpline
70
4
71
3
72
43
73
39
40
0
40
0
40
0
40
0
40
0.0625
40
0.0625
40
0.125
40
0.125
40
0.1875
40
0.1875
40
0.25
40
0.25
40
0.3125
40
0.3125
40
0.328125
40
0.328125
40
0.3359375
40
0.3359375
40
0.34375
40
0.375
40
0.375
40
0.4375
40
0.4375
40
0.5
40
0.5
40
0.5625
40
0.5625
40
0.625
40
0.625
40
0.6875
40
0.6875
40
0.75
40
0.75
40
0.8125
40
0.8125
40
0.875
40
0.875
40
0.9375
40
0.9375
40
1
40
1
40
1
40
1
41
1
10
46.1
20
-7.72167846046267
30
0
41
1
10
46.1856586351757
20
-7.3172327230395
30
0
41
1
10
46.2713172703514
20
-6.88188031029543
30
0
41
1
10
46.4426345407028
20
-5.96592561645812
30
0
41
1
10
46.5282931758785
20
-5.485398916853
30
0
41
1
10
46.6996104462299
20
-4.49810945561387
30
0
41
1
10
46.7852690814055
20
-3.99142079623397
30
0
41
1
10
46.956586351757
20
-2.97083621573688
30
0
41
1
10
47.0422449869327
20
-2.45699703350539
30
0
41
1
10
47.2135622572841
20
-1.43913680846194
30
0
41
1
10
47.2992208924597
20
-0.935147208564672
30
0
41
1
10
47.4062941864293
20
-0.319844621794232
30
0
41
1
10
47.4277088452233
20
-0.197509173047052
30
0
41
1
10
47.4598308334142
20
-0.0152251215220929
30
0
41
1
10
47.4705381628111
20
0.0452722347038446
30
0
41
1
10
47.491952821605
20
0.166928451834934
30
0
41
1
10
47.5454894685898
20
0.472073277757232
30
0
41
1
10
47.5990261155747
20
0.781995577152401
30
0
41
1
10
47.7275140683382
20
1.53268092798291
30
0
41
1
10
47.8131727035139
20
2.04240642231545
30
0
41
1
10
47.9844899738653
20
3.06536630321537
30
0
41
1
10
48.070148609041
20
3.57855887379304
30
0
41
1
10
48.2414658793924
20
4.59047780439877
30
0
41
1
10
48.3271245145681
20
5.08913910302579
30
0
41
1
10
48.4984417849195
20
6.05272735827464
30
0
41
1
10
48.5841004200952
20
6.51757741191028
30
0
41
1
10
48.7554176904465
20
7.39516421840474
30
0
41
1
10
48.8410763256222
20
7.80783007372344
30
0
41
1
10
49.0123935959736
20
8.56584862144791
30
0
41
1
10
49.0980522311494
20
8.91115425635726
30
0
41
1
10
49.2693695015007
20
9.52426621909322
30
0
41
1
10
49.3550281366764
20
9.79205983585371
30
0
41
1
10
49.5263454070278
20
10.2459027630259
30
0
41
1
10
49.6120040422035
20
10.4319730385958
30
0
41
1
10
49.7833213125548
20
10.7239282752606
30
0
41
1
10
49.8689799477306
20
10.8298576923488
30
0
41
1
10
50.040297218082
20
10.9678666906429
30
0
41
1
10
50.1259558532577
20
11
30
0
41
1
10
50.2116144884334
20
11
30
0
0
SPLINE
5
EA
100
AcDbEntity
8
1
62
256
6
ByLayer
370
13
48
1
60
0
100
AcDbSpline
70
4
71
3
72
79
73
75
40
0
40
0
40
0
40
0
40
0.0312500000000003
40
0.0312500000000003
40
0.0625000000000006
40
0.0625000000000006
40
0.093750000000001
40
0.093750000000001
40
0.125000000000001
40
0.125000000000001
40
0.156250000000002
40
0.156250000000002
40
0.187500000000002
40
0.187500000000002
40
0.218750000000002
40
0.218750000000002
40
0.250000000000003
40
0.250000000000003
40
0.281250000000003
40
0.281250000000003
40
0.312500000000003
40
0.312500000000003
40
0.343750000000004
40
0.343750000000004
40
0.359375000000004
40
0.359375000000004
40
0.367187500000004
40
0.367187500000004
40
0.375000000000004
40
0.375000000000004
40
0.406250000000004
40
0.406250000000004
40
0.437500000000004
40
0.437500000000004
40
0.468750000000004
40
0.468750000000004
40
0.500000000000004
40
0.500000000000004
40
0.531250000000004
40
0.531250000000004
40
0.562500000000004
40
0.562500000000004
40
0.593750000000004
40
0.593750000000004
40
0.625000000000004
40
0.625000000000004
40
0.656250000000004
40
0.656250000000004
40
0.687500000000003
40
0.687500000000003
40
0.718750000000003
40
0.718750000000003
40
0.726562500000003
40
0.726562500000003
40
0.730468750000003
40
0.730468750000003
40
0.734375000000003
40
0.750000000000003
40
0.750000000000003
40
0.781250000000003
40
0.781250000000003
40
0.812500000000002
40
0.812500000000002
40
0.843750000000002
40
0.843750000000002
40
0.875000000000001
40
0.875000000000001
40
0.906250000000001
40
0.906250000000001
40
0.937500000000001
40
0.937500000000001
40
0.96875
40
0.96875
40
1
40
1
40
1
40
1
41
1
10
49.5423572920437
20
11
30
0
41
1
10
49.6210444809086
20
11
30
0
41
1
10
49.6997316697735
20
10.9728982374458
30
0
41
1
10
49.8571060475032
20
10.8570656320282
30
0
41
1
10
49.9357932363681
20
10.768299486041
30
0
41
1
10
50.0931676140979
20
10.5238485704955
30
0
41
1
10
50.1718548029627
20
10.3681330169327
30
0
41
1
10
50.3292291806925
20
9.98771567470615
30
0
41
1
10
50.4079163695573
20
9.76299557487695
30
0
41
1
10
50.5652907472871
20
9.24649085005268
30
0
41
1
10
50.643977936152
20
8.9547069415913
30
0
41
1
10
50.8013523138817
20
8.31027215368204
30
0
41
1
10
50.8800395027466
20
7.95764337762134
30
0
41
1
10
51.0374138804763
20
7.2016538588968
30
0
41
1
10
51.1161010693412
20
6.79833321198311
30
0
41
1
10
51.273475447071
20
5.95408054498211
30
0
41
1
10
51.3521626359359
20
5.51319823457607
30
0
41
1
10
51.5095370136656
20
4.60854511344934
30
0
41
1
10
51.5882242025304
20
4.14482316451836
30
0
41
1
10
51.7455985802602
20
3.20929647225535
30
0
41
1
10
51.8242857691251
20
2.73753075857627
30
0
41
1
10
51.9816601468548
20
1.79945466916698
30
0
41
1
10
52.0603473357197
20
1.33316846758566
30
0
41
1
10
52.178378119017
20
0.646311114844963
30
0
41
1
10
52.2177217134495
20
0.419434382661137
30
0
41
1
10
52.2767371050982
20
0.0831013300492032
30
0
41
1
10
52.2964089023143
20
-0.0279107133322896
30
0
41
1
10
52.3357524967468
20
-0.251692528366164
30
0
41
1
10
52.355424293963
20
-0.364256720231083
30
0
41
1
10
52.4537832800441
20
-0.930100283879227
30
0
41
1
10
52.532470468909
20
-1.39255194742736
30
0
41
1
10
52.6898448466388
20
-2.32650385679645
30
0
41
1
10
52.7685320355036
20
-2.79798453672697
30
0
41
1
10
52.9259064132333
20
-3.73705805116566
30
0
41
1
10
53.0045936020982
20
-4.20461587067891
30
0
41
1
10
53.1619679798279
20
-5.12130542859626
30
0
41
1
10
53.2406551686928
20
-5.57039038610515
30
0
41
1
10
53.3980295464226
20
-6.43524008746311
30
0
41
1
10
53.4767167352875
20
-6.85095429026114
30
0
41
1
10
53.6340911130173
20
-7.63530707350384
30
0
41
1
10
53.7127783018821
20
-8.00390173290552
30
0
41
1
10
53.8701526796119
20
-8.68285680705492
30
0
41
1
10
53.9488398684767
20
-8.99318927004273
30
0
41
1
10
54.1062142462065
20
-9.54816973594757
30
0
41
1
10
54.1849014350714
20
-9.79281079353601
30
0
41
1
10
54.3422758128011
20
-10.2132043872896
30
0
41
1
10
54.420963001666
20
-10.3889702317188
30
0
41
1
10
54.5783373793957
20
-10.6725516813714
30
0
41
1
10
54.6570245682606
20
-10.780395252753
30
0
41
1
10
54.8143989459904
20
-10.9325684369696
30
0
41
1
10
54.8930861348553
20
-10.9769328279359
30
0
41
1
10
54.9914451209363
20
-10.9970432867442
30
0
41
1
10
55.0111169181525
20
-10.9993027992324
30
0
41
1
10
55.0406246139769
20
-11.0001413778861
30
0
41
1
10
55.050460512585
20
-10.9999981909259
30
0
41
1
10
55.0701323098012
20
-10.9988586177598
30
0
41
1
10
55.1193118028418
20
-10.9938718472075
30
0
41
1
10
55.1684912958823
20
-10.9779903716217
30
0
41
1
10
55.2865220791796
20
-10.9175477513524
30
0
41
1
10
55.3652092680445
20
-10.8474039824563
30
0
41
1
10
55.5225836457742
20
-10.6414483968706
30
0
41
1
10
55.6012708346391
20
-10.5056036702734
30
0
41
1
10
55.7586452123689
20
-10.1651451837663
30
0
41
1
10
55.8373324012338
20
-9.96050868521584
30
0
41
1
10
55.9947067789635
20
-9.48317181995975
30
0
41
1
10
56.0733939678284
20
-9.21046615222431
30
0
41
1
10
56.2307683455581
20
-8.60194909532078
30
0
41
1
10
56.309455534423
20
-8.26615366812521
30
0
41
1
10
56.4668299121528
20
-7.5405184568765
30
0
41
1
10
56.5455171010176
20
-7.15071421251091
30
0
41
1
10
56.7028914787473
20
-6.32944105603733
30
0
41
1
10
56.7815786676122
20
-5.89802011025719
30
0
41
1
10
56.938953045342
20
-5.00792671175753
30
0
41
1
10
57.0176402342069
20
-4.54930442288392
30
0
41
1
10
57.0963274230718
20
-4.08452321049225
30
0
0
SPLINE
5
EB
100
AcDbEntity
8
1
62
256
6
ByLayer
370
13
48
1
60
0
100
AcDbSpline
70
4
71
3
72
42
73
38
40
0
40
0
40
0
40
0
40
0.0624999999999987
40
0.0624999999999987
40
0.124999999999997
40
0.124999999999997
40
0.187499999999996
40
0.187499999999996
40
0.218749999999995
40
0.218749999999995
40
0.234374999999995
40
0.234374999999995
40
0.249999999999995
40
0.249999999999995
40
0.312499999999996
40
0.312499999999996
40
0.374999999999996
40
0.374999999999996
40
0.437499999999996
40
0.437499999999996
40
0.499999999999997
40
0.499999999999997
40
0.562499999999997
40
0.562499999999997
40
0.624999999999997
40
0.624999999999997
40
0.687499999999998
40
0.687499999999998
40
0.749999999999998
40
0.749999999999998
40
0.812499999999999
40
0.812499999999999
40
0.874999999999999
40
0.874999999999999
40
0.9375
40
0.9375
40
1
40
1
40
1
40
1
41
1
10
46.1
20
-5.11931512003667
30
0
41
1
10
46.1754135258238
20
-4.68676366663959
30
0
41
1
10
46.2508270516477
20
-4.24344610306463
30
0
41
1
10
46.4016541032953
20
-3.34826187192397
30
0
41
1
10
46.4770676291191
20
-2.89642766369877
30
0
41
1
10
46.6278946807668
20
-1.99628824968906
30
0
41
1
10
46.7033082065906
20
-1.54800420565772
30
0
41
1
10
46.8164284953264
20
-0.885932418617557
30
0
41
1
10
46.8541352582383
20
-0.666951539422598
30
0
41
1
10
46.9106954026062
20
-0.3418498640454
30
0
41
1
10
46.9295487840621
20
-0.234043120357114
30
0
41
1
10
46.967255546974
20
-0.0196710921449323
30
0
41
1
10
46.98610892843
20
0.0867497635582595
30
0
41
1
10
47.0803758357098
20
0.623964559945733
30
0
41
1
10
47.1557893615336
20
1.06356277107608
30
0
41
1
10
47.3066164131813
20
1.95370788000764
30
0
41
1
10
47.3820299390051
20
2.40424213817846
30
0
41
1
10
47.5328569906528
20
3.30539757435369
30
0
41
1
10
47.6082705164766
20
3.75599394931828
30
0
41
1
10
47.7590975681242
20
4.64481701196655
30
0
41
1
10
47.8345110939481
20
5.08300846873371
30
0
41
1
10
47.9853381455957
20
5.93388076003885
30
0
41
1
10
48.0607516714196
20
6.34652090547416
30
0
41
1
10
48.2115787230672
20
7.13362647258319
30
0
41
1
10
48.286992248891
20
7.50805307616258
30
0
41
1
10
48.4378193005387
20
8.20776687502413
30
0
41
1
10
48.5132328263625
20
8.53302475026121
30
0
41
1
10
48.6640598780102
20
9.12618661334236
30
0
41
1
10
48.739473403834
20
9.3940762516693
30
0
41
1
10
48.8903004554817
20
9.86771055922543
30
0
41
1
10
48.9657139813054
20
10.0734574679556
30
0
41
1
10
49.1165410329531
20
10.4216225198116
30
0
41
1
10
49.191954558777
20
10.564057086092
30
0
41
1
10
49.3427816104245
20
10.7877282550923
30
0
41
1
10
49.4181951362485
20
10.868990323062
30
0
41
1
10
49.5690221878961
20
10.9751119015146
30
0
41
1
10
49.6444357137199
20
11
30
0
41
1
10
49.7198492395437
20
11
30
0
0
SPLINE
5
EC
100
AcDbEntity
8
1
62
256
6
ByLayer
370
13
48
1
60
0
100
AcDbSpline
70
4
71
3
72
79
73
75
40
0
40
0
40
0
40
0
40
0.0312499999999998
40
0.0312499999999998
40
0.0624999999999997
40
0.0624999999999997
40
0.0937499999999995
40
0.0937499999999995
40
0.124999999999999
40
0.124999999999999
40
0.156249999999999
40
0.156249999999999
40
0.187499999999999
40
0.187499999999999
40
0.218749999999999
40
0.218749999999999
40
0.249999999999999
40
0.249999999999999
40
0.281249999999998
40
0.281249999999998
40
0.312499999999998
40
0.312499999999998
40
0.328124999999998
40
0.328124999999998
40
0.335937499999998
40
0.339843749999998
40
0.339843749999998
40
0.343749999999998
40
0.343749999999998
40
0.374999999999998
40
0.374999999999998
40
0.406249999999998
40
0.406249999999998
40
0.437499999999998
40
0.437499999999998
40
0.468749999999997
40
0.468749999999997
40
0.499999999999997
40
0.499999999999997
40
0.531249999999997
40
0.531249999999997
40
0.562499999999997
40
0.562499999999997
40
0.593749999999997
40
0.593749999999997
40
0.624999999999997
40
0.624999999999997
40
0.656249999999996
40
0.656249999999996
40
0.671874999999996
40
0.671874999999996
40
0.679687499999996
40
0.679687499999996
40
0.687499999999996
40
0.687499999999996
40
0.718749999999996
40
0.718749999999996
40
0.749999999999997
40
0.749999999999997
40
0.781249999999997
40
0.781249999999997
40
0.812499999999998
40
0.812499999999998
40
0.843749999999998
40
0.843749999999998
40
0.874999999999998
40
0.874999999999998
40
0.906249999999999
40
0.906249999999999
40
0.937499999999999
40
0.937499999999999
40
0.96875
40
0.96875
40
1
40
1
40
1
40
1
41
1
10
49.0505920431541
20
11
30
0
41
1
10
49.134401786695
20
11
30
0
41
1
10
49.2182115302357
20
10.9692432579624
30
0
41
1
10
49.3858310173173
20
10.8373149715735
30
0
41
1
10
49.4696407608582
20
10.7360951866661
30
0
41
1
10
49.6372602479398
20
10.4571707164941
30
0
41
1
10
49.7210699914806
20
10.2794255159509
30
0
41
1
10
49.8886894785622
20
9.84567816728043
30
0
41
1
10
49.972499222103
20
9.5896554918348
30
0
41
1
10
50.1401187091846
20
9.0028418976494
30
0
41
1
10
50.2239284527255
20
8.67205959628294
30
0
41
1
10
50.3915479398071
20
7.94468471574712
30
0
41
1
10
50.4753576833479
20
7.54813131154771
30
0
41
1
10
50.6429771704294
20
6.70292081103506
30
0
41
1
10
50.7267869139703
20
6.25432536969987
30
0
41
1
10
50.8944064010519
20
5.32193353019116
30
0
41
1
10
50.9782161445927
20
4.83820641199119
30
0
41
1
10
51.1458356316743
20
3.85362448973103
30
0
41
1
10
51.2296453752151
20
3.3528308223604
30
0
41
1
10
51.3972648622968
20
2.35134436333627
30
0
41
1
10
51.4810746058376
20
1.85069354567165
30
0
41
1
10
51.6067892211488
20
1.11089354827814
30
0
41
1
10
51.6486940929192
20
0.866133420395556
30
0
41
1
10
51.7115514005748
20
0.502905528880177
30
0
41
1
10
51.7429800544026
20
0.322267123634134
30
0
41
1
10
51.7744087082304
20
0.143284756207464
30
0
41
1
10
51.7953611441157
20
0.0243509573627421
30
0
41
1
10
51.8058373620582
20
-0.0348354748342672
30
0
41
1
10
51.9001233235416
20
-0.570242813818624
30
0
41
1
10
51.9839330670824
20
-1.05868182678211
30
0
41
1
10
52.151552554164
20
-2.04872628188517
30
0
41
1
10
52.2353622977049
20
-2.55030958793253
30
0
41
1
10
52.4029817847865
20
-3.55149772247526
30
0
41
1
10
52.4867915283273
20
-4.05105766725794
30
0
41
1
10
52.6544110154089
20
-5.03079136918487
30
0
41
1
10
52.7382207589497
20
-5.51090213297493
30
0
41
1
10
52.9058402460313
20
-6.43371075146598
30
0
41
1
10
52.9896499895721
20
-6.8763393840934
30
0
41
1
10
53.1572694766538
20
-7.70757368114698
30
0
41
1
10
53.2410792201945
20
-8.09611990818811
30
0
41
1
10
53.4086987072762
20
-8.80598945564762
30
0
41
1
10
53.492508450817
20
-9.12727737953631
30
0
41
1
10
53.6601279378986
20
-9.69431348524921
30
0
41
1
10
53.7439376814394
20
-9.94005719196323
30
0
41
1
10
53.9115571685211
20
-10.3531869921844
30
0
41
1
10
53.9953669120618
20
-10.5205969046765
30
0
41
1
10
54.1629863991434
20
-10.7794312605706
30
0
41
1
10
54.2467961426843
20
-10.8708979534671
30
0
41
1
10
54.3725107579955
20
-10.956005019648
30
0
41
1
10
54.4144156297659
20
-10.9757200645664
30
0
41
1
10
54.4772729374215
20
-10.9931234925998
30
0
41
1
10
54.4982253733067
20
-10.9968976380817
30
0
41
1
10
54.5401302450771
20
-11.0005396513681
30
0
41
1
10
54.5610826809623
20
-11.0004278781504
30
0
41
1
10
54.6658448603883
20
-10.9901715821321
30
0
41
1
10
54.7496546039292
20
-10.9505561825395
30
0
41
1
10
54.9172740910107
20
-10.7999075532892
30
0
41
1
10
55.0010838345515
20
-10.6888264189129
30
0
41
1
10
55.1687033216332
20
-10.3896712138178
30
0
41
1
10
55.2525130651739
20
-10.2015585839362
30
0
41
1
10
55.4201325522556
20
-9.74722268387407
30
0
41
1
10
55.5039422957964
20
-9.48098234574462
30
0
41
1
10
55.671561782878
20
-8.87461108179758
30
0
41
1
10
55.7553715264188
20
-8.53449294323406
30
0
41
1
10
55.9229910135004
20
-7.79001425031566
30
0
41
1
10
56.0068007570412
20
-7.3856965036864
30
0
41
1
10
56.1744202441229
20
-6.52705216782621
30
0
41
1
10
56.2582299876636
20
-6.07278918177047
30
0
41
1
10
56.4258494747453
20
-5.13143312768921
30
0
41
1
10
56.5096592182861
20
-4.64440911256031
30
0
41
1
10
56.6772787053677
20
-3.65560242533732
30
0
41
1
10
56.7610884489085
20
-3.15387883637487
30
0
41
1
10
56.9287079359902
20
-2.15265813151612
30
0
41
1
10
57.0125176795309
20
-1.65320001764002
30
0
41
1
10
57.0963274230717
20
-1.16205260836765
30
0
0
SPLINE
5
ED
100
AcDbEntity
8
1
62
256
6
ByLayer
370
13
48
1
60
0
100
AcDbSpline
70
4
71
3
72
42
73
38
40
0
40
0
40
0
40
0
40
0.0625000000000007
40
0.0625000000000007
40
0.0937500000000008
40
0.0937500000000008
40
0.109375000000001
40
0.109375000000001
40
0.125000000000001
40
0.125000000000001
40
0.187500000000001
40
0.187500000000001
40
0.250000000000001
40
0.250000000000001
40
0.312500000000001
40
0.312500000000001
40
0.375000000000001
40
0.375000000000001
40
0.437500000000001
40
0.437500000000001
40
0.500000000000001
40
0.500000000000001
40
0.562500000000001
40
0.562500000000001
40
0.625000000000001
40
0.625000000000001
40
0.687500000000001
40
0.687500000000001
40
0.750000000000001
40
0.750000000000001
40
0.812500000000001
40
0.812500000000001
40
0.875000000000001
40
0.875000000000001
40
0.9375
40
0.9375
40
1
40
1
40
1
40
1
41
1
10
46.1
20
-2.2120926144338
30
0
41
1
10
46.1651684164719
20
-1.82382134532384
30
0
41
1
10
46.2303368329439
20
-1.43758593838467
30
0
41
1
10
46.3280894576519
20
-0.866134228551232
30
0
41
1
10
46.3606736658878
20
-0.676958085629593
30
0
41
1
10
46.4095499782418
20
-0.395674508613269
30
0
41
1
10
46.4258420823598
20
-0.302326127771494
30
0
41
1
10
46.4584262905958
20
-0.116533865046705
30
0
41
1
10
46.4747183947138
20
-0.0243878923963621
30
0
41
1
10
46.5561789153037
20
0.437744821646191
30
0
41
1
10
46.6213473317757
20
0.815043027742433
30
0
41
1
10
46.7516841647196
20
1.57945334294919
30
0
41
1
10
46.8168525811916
20
1.96656070556873
30
0
41
1
10
46.9471894141355
20
2.74397313273164
30
0
41
1
10
47.0123578306075
20
3.13426839445728
30
0
41
1
10
47.1426946635514
20
3.91041150577544
30
0
41
1
10
47.2078630800233
20
4.2962446958035
30
0
41
1
10
47.3381999129672
20
5.0551582947499
30
0
41
1
10
47.4033683294392
20
5.4282203977248
30
0
41
1
10
47.5337051623832
20
6.15312643728851
30
0
41
1
10
47.5988735788551
20
6.50495059253581
30
0
41
1
10
47.729210411799
20
7.17933593290516
30
0
41
1
10
47.794378828271
20
7.50187862585497
30
0
41
1
10
47.9247156612149
20
8.11066201080479
30
0
41
1
10
47.9898840776869
20
8.3968882416589
30
0
41
1
10
48.1202209106308
20
8.92751007178566
30
0
41
1
10
48.1853893271028
20
9.17189728839298
30
0
41
1
10
48.3157261600467
20
9.61517254060146
30
0
41
1
10
48.3808945765186
20
9.81405913921679
30
0
41
1
10
48.5112314094625
20
10.1646741002798
30
0
41
1
10
48.5763998259345
20
10.3164075295261
30
0
41
1
10
48.7067366588784
20
10.5730092364047
30
0
41
1
10
48.7719050753504
20
10.6778875802582
30
0
41
1
10
48.9022419082943
20
10.8427906845607
30
0
41
1
10
48.9674103247663
20
10.9028284354321
30
0
41
1
10
49.0977471577102
20
10.981426190179
30
0
41
1
10
49.1629155741822
20
11
30
0
41
1
10
49.2280839906541
20
11
30
0
0
SPLINE
5
EE
100
AcDbEntity
8
1
62
256
6
ByLayer
370
13
48
1
60
0
100
AcDbSpline
70
4
71
3
72
84
73
80
40
0
40
0
40
0
40
0
40
0.0312500000000004
40
0.0312500000000004
40
0.0625000000000008
40
0.0625000000000008
40
0.0937500000000012
40
0.0937500000000012
40
0.125000000000002
40
0.125000000000002
40
0.156250000000002
40
0.156250000000002
40
0.187500000000002
40
0.187500000000002
40
0.218750000000003
40
0.218750000000003
40
0.250000000000003
40
0.250000000000003
40
0.281250000000004
40
0.281250000000004
40
0.312500000000004
40
0.312500000000004
40
0.320312500000004
40
0.320312500000004
40
0.324218750000004
40
0.324218750000004
40
0.328125000000004
40
0.343750000000004
40
0.343750000000004
40
0.375000000000004
40
0.375000000000004
40
0.406250000000004
40
0.406250000000004
40
0.437500000000004
40
0.437500000000004
40
0.468750000000004
40
0.468750000000004
40
0.500000000000003
40
0.500000000000003
40
0.531250000000003
40
0.531250000000003
40
0.562500000000003
40
0.562500000000003
40
0.593750000000003
40
0.593750000000003
40
0.625000000000003
40
0.625000000000003
40
0.640625000000003
40
0.640625000000003
40
0.648437500000003
40
0.648437500000003
40
0.656250000000002
40
0.656250000000002
40
0.687500000000002
40
0.687500000000002
40
0.718750000000002
40
0.718750000000002
40
0.750000000000002
40
0.750000000000002
40
0.781250000000002
40
0.781250000000002
40
0.812500000000002
40
0.812500000000002
40
0.843750000000002
40
0.843750000000002
40
0.875000000000001
40
0.875000000000001
40
0.906250000000001
40
0.906250000000001
40
0.937500000000001
40
0.937500000000001
40
0.953125000000001
40
0.953125000000001
40
0.960937500000001
40
0.964843750000001
40
0.964843750000001
40
0.968750000000001
40
0.968750000000001
40
1
40
1
40
1
40
1
41
1
10
48.5588267942645
20
11
30
0
41
1
10
48.6477590924812
20
11
30
0
41
1
10
48.736691390698
20
10.96535454546
30
0
41
1
10
48.9145559871314
20
10.8162241128987
30
0
41
1
10
49.0034882853482
20
10.7016745020312
30
0
41
1
10
49.1813528817817
20
10.3858804062557
30
0
41
1
10
49.2702851799984
20
10.1845839370236
30
0
41
1
10
49.4481497764319
20
9.69407386813958
30
0
41
1
10
49.5370820746487
20
9.40483922440021
30
0
41
1
10
49.7149466710822
20
8.74402808951555
30
0
41
1
10
49.8038789692989
20
8.3724735530715
30
0
41
1
10
49.9817435657324
20
7.55941803447968
30
0
41
1
10
50.0706758639491
20
7.11798060732085
30
0
41
1
10
50.2485404603826
20
6.18307152302651
30
0
41
1
10
50.3374727585993
20
5.68968901566362
30
0
41
1
10
50.5153373550328
20
4.67195410807778
30
0
41
1
10
50.6042696532496
20
4.1476924706773
30
0
41
1
10
50.7821342496831
20
3.0896214974382
30
0
41
1
10
50.8710665478998
20
2.55588300233296
30
0
41
1
10
51.0489311443333
20
1.498137804908
30
0
41
1
10
51.13786344255
20
0.974170671072045
30
0
41
1
10
51.2490288153209
20
0.334949061914813
30
0
41
1
10
51.2712618898752
20
0.207881017970834
30
0
41
1
10
51.3046115017065
20
0.0185909970551279
30
0
41
1
10
51.3157280389835
20
-0.0442118977110226
30
0
41
1
10
51.3379611135377
20
-0.170523321171515
30
0
41
1
10
51.3935437999232
20
-0.487383817779289
30
0
41
1
10
51.4491264863086
20
-0.809381744155814
30
0
41
1
10
51.5825249336337
20
-1.58945344972466
30
0
41
1
10
51.6714572318504
20
-2.11932529728469
30
0
41
1
10
51.849321828284
20
-3.18173383512396
30
0
41
1
10
51.9382541265007
20
-3.71421813122996
30
0
41
1
10
52.1161187229342
20
-4.76153504552707
30
0
41
1
10
52.2050510211509
20
-5.27628699567506
30
0
41
1
10
52.3829156175844
20
-6.26655302814851
30
0
41
1
10
52.4718479158012
20
-6.74197405008525
30
0
41
1
10
52.6497125122347
20
-7.6334008900358
30
0
41
1
10
52.7386448104514
20
-8.04932495197275
30
0
41
1
10
52.9165094068849
20
-8.80570709603501
30
0
41
1
10
53.0054417051017
20
-9.1461167578089
30
0
41
1
10
53.1833063015351
20
-9.74157691672073
30
0
41
1
10
53.2722385997519
20
-9.9966230005401
30
0
41
1
10
53.4501031961854
20
-10.4184401146033
30
0
41
1
10
53.5390354944021
20
-10.5852462930784
30
0
41
1
10
53.7169000908355
20
-10.8341532028998
30
0
41
1
10
53.8058323890523
20
-10.9163131108417
30
0
41
1
10
53.9392308363774
20
-10.9824538848322
30
0
41
1
10
53.9836969854858
20
-10.9950173787684
30
0
41
1
10
54.0503962091484
20
-11.0006658751341
30
0
41
1
10
54.0726292837025
20
-11.0003761870427
30
0
41
1
10
54.1170954328109
20
-10.9954150865511
30
0
41
1
10
54.1393285073651
20
-10.9907240948046
30
0
41
1
10
54.250493880136
20
-10.9557792398872
30
0
41
1
10
54.3394261783528
20
-10.8909195734667
30
0
41
1
10
54.5172907747862
20
-10.6781107459802
30
0
41
1
10
54.606223073003
20
-10.5300996943358
30
0
41
1
10
54.7840876694365
20
-10.1461474670549
30
0
41
1
10
54.8730199676532
20
-9.91016440294942
30
0
41
1
10
55.0508845640867
20
-9.35162586106335
30
0
41
1
10
55.1398168623034
20
-9.02906538265347
30
0
41
1
10
55.3176814587369
20
-8.30569150850525
30
0
41
1
10
55.4066137569537
20
-7.90491740946942
30
0
41
1
10
55.5844783533871
20
-7.03989872086353
30
0
41
1
10
55.6734106516039
20
-6.57573028381685
30
0
41
1
10
55.8512752480373
20
-5.6033926960707
30
0
41
1
10
55.9402075462541
20
-5.09531628127203
30
0
41
1
10
56.1180721426876
20
-4.05669912342773
30
0
41
1
10
56.2070044409043
20
-3.52624344791289
30
0
41
1
10
56.3848690373378
20
-2.46371121046536
30
0
41
1
10
56.4738013355545
20
-1.93169390541965
30
0
41
1
10
56.6071997828797
20
-1.14589584065237
30
0
41
1
10
56.651665931988
20
-0.885972844937982
30
0
41
1
10
56.7183651556506
20
-0.500487118597192
30
0
41
1
10
56.7517147674819
20
-0.308840741812162
30
0
41
1
10
56.7850643793132
20
-0.119069040387331
30
0
41
1
10
56.8072974538674
20
0.0070053668524963
30
0
41
1
10
56.8184139911444
20
0.0698571616227071
30
0
41
1
10
56.9184628266383
20
0.638785997632283
30
0
41
1
10
57.007395124855
20
1.1584644212962
30
0
41
1
10
57.0963274230718
20
1.68489225196768
30
0
0
SPLINE
5
EF
100
AcDbEntity
8
1
62
256
6
ByLayer
370
13
48
1
60
0
100
AcDbSpline
70
4
71
3
72
36
73
32
40
0
40
0
40
0
40
0
40
0.0625000000000001
40
0.0625000000000001
40
0.125
40
0.125
40
0.1875
40
0.1875
40
0.25
40
0.25
40
0.312500000000001
40
0.312500000000001
40
0.375000000000001
40
0.375000000000001
40
0.437500000000001
40
0.437500000000001
40
0.500000000000001
40
0.500000000000001
40
0.562500000000001
40
0.562500000000001
40
0.625000000000001
40
0.625000000000001
40
0.687500000000001
40
0.687500000000001
40
0.750000000000001
40
0.750000000000001
40
0.812500000000001
40
0.812500000000001
40
0.875
40
0.875
40
1
40
1
40
1
40
1
41
1
10
46.1
20
0.645300739833289
30
0
41
1
10
46.1549233071201
20
0.962880209232424
30
0
41
1
10
46.2098466142402
20
1.28491507554895
30
0
41
1
10
46.3196932284803
20
1.93434673160516
30
0
41
1
10
46.3746165356005
20
2.26174074987117
30
0
41
1
10
46.4844631498407
20
2.91774153052194
30
0
41
1
10
46.5393864569607
20
3.2463436876443
30
0
41
1
10
46.6492330712009
20
3.90012377033034
30
0
41
1
10
46.704156378321
20
4.2252953733948
30
0
41
1
10
46.8140029925612
20
4.8672541985741
30
0
41
1
10
46.8689262996813
20
5.18403376083307
30
0
41
1
10
46.9787729139215
20
5.80413666569251
30
0
41
1
10
47.0336962210416
20
6.10745164151044
30
0
41
1
10
47.1435428352818
20
6.6956849304247
30
0
41
1
10
47.1984661424018
20
6.98059497894397
30
0
41
1
10
47.3083127566421
20
7.52746211992948
30
0
41
1
10
47.3632360637622
20
7.78941191467365
30
0
41
1
10
47.4730826780024
20
8.28642320035431
30
0
41
1
10
47.5280059851224
20
8.52147913195807
30
0
41
1
10
47.6378525993626
20
8.96158399728128
30
0
41
1
10
47.6927759064827
20
9.16662965171201
30
0
41
1
10
47.8026225207229
20
9.54454634250732
30
0
41
1
10
47.857545827843
20
9.71741660258837
30
0
41
1
10
47.9673924420832
20
10.0298273356374
30
0
41
1
10
48.0223157492033
20
10.1693694204773
30
0
41
1
10
48.1321623634435
20
10.4149677939328
30
0
41
1
10
48.1870856705636
20
10.5210276805527
30
0
41
1
10
48.2969322848038
20
10.7004248587967
30
0
41
1
10
48.3518555919239
20
10.7737671457712
30
0
41
1
10
48.5166255132841
20
10.9470367495319
30
0
41
1
10
48.6264721275243
20
11
30
0
41
1
10
48.7363187417645
20
11
30
0
0
SPLINE
5
F0
100
AcDbEntity
8
1
62
256
6
ByLayer
370
13
48
1
60
0
100
AcDbSpline
70
4
71
3
72
84
73
80
40
0
40
0
40
0
40
0
40
0.0312500000000006
40
0.0312500000000006
40
0.0625000000000011
40
0.0625000000000011
40
0.0937500000000017
40
0.0937500000000017
40
0.125000000000002
40
0.125000000000002
40
0.156250000000003
40
0.156250000000003
40
0.187500000000003
40
0.187500000000003
40
0.218750000000004
40
0.218750000000004
40
0.250000000000005
40
0.250000000000005
40
0.281250000000005
40
0.281250000000005
40
0.296875000000005
40
0.296875000000005
40
0.304687500000005
40
0.304687500000005
40
0.312500000000005
40
0.312500000000005
40
0.343750000000005
40
0.343750000000005
40
0.375000000000005
40
0.375000000000005
40
0.406250000000005
40
0.406250000000005
40
0.437500000000005
40
0.437500000000005
40
0.468750000000005
40
0.468750000000005
40
0.500000000000005
40
0.500000000000005
40
0.531250000000005
40
0.531250000000005
40
0.562500000000004
40
0.562500000000004
40
0.593750000000004
40
0.593750000000004
40
0.601562500000004
40
0.601562500000004
40
0.609375000000004
40
0.609375000000004
40
0.625000000000004
40
0.625000000000004
40
0.656250000000004
40
0.656250000000004
40
0.687500000000004
40
0.687500000000004
40
0.718750000000004
40
0.718750000000004
40
0.750000000000004
40
0.750000000000004
40
0.781250000000004
40
0.781250000000004
40
0.812500000000004
40
0.812500000000004
40
0.843750000000003
40
0.843750000000003
40
0.875000000000003
40
0.875000000000003
40
0.906250000000003
40
0.906250000000003
40
0.910156250000003
40
0.910156250000003
40
0.914062500000003
40
0.914062500000003
40
0.921875000000003
40
0.921875000000003
40
0.937500000000002
40
0.937500000000002
40
0.968750000000001
40
0.968750000000001
40
1
40
1
40
1
40
1
41
1
10
48.0670615453748
20
11
30
0
41
1
10
48.1611163982676
20
11
30
0
41
1
10
48.2551712511602
20
10.9612313993721
30
0
41
1
10
48.4432809569456
20
10.7937833937248
30
0
41
1
10
48.5373358098382
20
10.6650189073306
30
0
41
1
10
48.7254455156236
20
10.3099550958711
30
0
41
1
10
48.8195003685163
20
10.0835906628114
30
0
41
1
10
49.0076100743016
20
9.53296903324076
30
0
41
1
10
49.1016649271943
20
9.20869316768093
30
0
41
1
10
49.2897746329797
20
8.47051137751677
30
0
41
1
10
49.3838294858723
20
8.05664806750551
30
0
41
1
10
49.5719391916577
20
7.15585464828854
30
0
41
1
10
49.6659940445503
20
6.66902111265279
30
0
41
1
10
49.8541037503357
20
5.64501117024
30
0
41
1
10
49.9481586032284
20
5.10795698450917
30
0
41
1
10
50.1362683090138
20
4.00898366885318
30
0
41
1
10
50.2303231619064
20
3.44717668160578
30
0
41
1
10
50.4184328676918
20
2.32327754980946
30
0
41
1
10
50.5124877205845
20
1.76126091127284
30
0
41
1
10
50.6535699999234
20
0.933606208595819
30
0
41
1
10
50.7005974263698
20
0.660246357648674
30
0
41
1
10
50.7711385660393
20
0.255562477878158
30
0
41
1
10
50.7946522792624
20
0.121667539391041
30
0
41
1
10
50.8416797057088
20
-0.144563118373242
30
0
41
1
10
50.865193418932
20
-0.278676263422938
30
0
41
1
10
50.9827619850478
20
-0.95365722215729
30
0
41
1
10
51.0768168379405
20
-1.50798281882479
30
0
41
1
10
51.2649265437259
20
-2.62715411053677
30
0
41
1
10
51.3589813966186
20
-3.19194633576606
30
0
41
1
10
51.5470911024039
20
-4.3091150809008
30
0
41
1
10
51.6411459552965
20
-4.86139497471174
30
0
41
1
10
51.829255661082
20
-5.92811788532717
30
0
41
1
10
51.9233105139746
20
-6.44243934338618
30
0
41
1
10
52.11142021976
20
-7.40870081351184
30
0
41
1
10
52.2054750726526
20
-7.8605273863206
30
0
41
1
10
52.3935847784379
20
-8.68179328936137
30
0
41
1
10
52.4876396313306
20
-9.05116138840253
30
0
41
1
10
52.675749337116
20
-9.69493747361841
30
0
41
1
10
52.7698041900087
20
-9.96933499056198
30
0
41
1
10
52.957913895794
20
-10.4193061422748
30
0
41
1
10
53.0519687486867
20
-10.5949252501764
30
0
41
1
10
53.240078454472
20
-10.851619663254
30
0
41
1
10
53.3341333073648
20
-10.9327738200558
30
0
41
1
10
53.4517018734805
20
-10.9816647928905
30
0
41
1
10
53.4752155867038
20
-10.9888269233975
30
0
41
1
10
53.5222430131501
20
-10.9981208531816
30
0
41
1
10
53.5457567263732
20
-11.0002534094671
30
0
41
1
10
53.6162978660428
20
-10.9994216674342
30
0
41
1
10
53.6633252924891
20
-10.9891777008408
30
0
41
1
10
53.8044075718281
20
-10.9269011633609
30
0
41
1
10
53.8984624247208
20
-10.8431606855298
30
0
41
1
10
54.0865721305061
20
-10.5810721025871
30
0
41
1
10
54.1806269833988
20
-10.4026457155411
30
0
41
1
10
54.3687366891841
20
-9.94704802657714
30
0
41
1
10
54.4627915420768
20
-9.66983259727033
30
0
41
1
10
54.6509012478622
20
-9.02065795818646
30
0
41
1
10
54.7449561007548
20
-8.64871100302923
30
0
41
1
10
54.9330658065402
20
-7.82276493173646
30
0
41
1
10
55.0271206594329
20
-7.36883862089474
30
0
41
1
10
55.2152303652182
20
-6.39903344170446
30
0
41
1
10
55.309285218111
20
-5.88326875727586
30
0
41
1
10
55.4973949238963
20
-4.81439441239726
30
0
41
1
10
55.591449776789
20
-4.26140600953272
30
0
41
1
10
55.7795594825744
20
-3.14352855131895
30
0
41
1
10
55.873614335467
20
-2.57873504853725
30
0
41
1
10
56.0617240412523
20
-1.46015889214229
30
0
41
1
10
56.155778894145
20
-0.906428391013151
30
0
41
1
10
56.2615906036493
20
-0.299863157223342
30
0
41
1
10
56.2733474602608
20
-0.232691039747238
30
0
41
1
10
56.296861173484
20
-0.0988239138800679
30
0
41
1
10
56.3086180300956
20
-0.0322565460691919
30
0
41
1
10
56.3438885999304
20
0.167587406979777
30
0
41
1
10
56.3674023131535
20
0.301808245162647
30
0
41
1
10
56.437943452823
20
0.707099141532296
30
0
41
1
10
56.4849708792694
20
0.980808424698893
30
0
41
1
10
56.6260531586084
20
1.80931575449918
30
0
41
1
10
56.7201080115011
20
2.37163836469455
30
0
41
1
10
56.9082177172864
20
3.49548907199673
30
0
41
1
10
57.0022725701791
20
4.05694040275588
30
0
41
1
10
57.0963274230717
20
4.60570489713615
30
0
0
SPLINE
5
F1
100
AcDbEntity
8
1
62
256
6
ByLayer
370
13
48
1
60
0
100
AcDbSpline
70
4
71
3
72
22
73
18
40
0
40
0
40
0
40
0
40
0.125
40
0.125
40
0.25
40
0.25
40
0.375
40
0.375
40
0.5
40
0.5
40
0.625
40
0.625
40
0.75
40
0.75
40
0.875
40
0.875
40
1
40
1
40
1
40
1
41
1
10
46.1
20
3.55808817139709
30
0
41
1
10
46.1893563955365
20
4.09000142516646
30
0
41
1
10
46.2787127910729
20
4.6174935490084
30
0
41
1
10
46.4574255821458
20
5.64212711597293
30
0
41
1
10
46.5467819776822
20
6.13917598958244
30
0
41
1
10
46.7254947687551
20
7.08149912840116
30
0
41
1
10
46.8148511642916
20
7.52668170737897
30
0
41
1
10
46.9935639553646
20
8.34693259211772
30
0
41
1
10
47.082920350901
20
8.7219349537929
30
0
41
1
10
47.2616331419739
20
9.38902812954419
30
0
41
1
10
47.3509895375103
20
9.68109558412135
30
0
41
1
10
47.5297023285832
20
10.1764564254826
30
0
41
1
10
47.6190587241197
20
10.3797707882478
30
0
41
1
10
47.7977715151926
20
10.6987248819364
30
0
41
1
10
47.8871279107291
20
10.8144176229666
30
0
41
1
10
48.065840701802
20
10.9650221003968
30
0
41
1
10
48.1551970973384
20
11
30
0
41
1
10
48.2445534928749
20
11
30
0
0
SPLINE
5
F2
100
AcDbEntity
8
1
62
256
6
ByLayer
370
13
48
1
60
0
100
AcDbSpline
70
4
71
3
72
86
73
82
40
0
40
0
40
0
40
0
40
0.0312500000000002
40
0.0312500000000002
40
0.0625000000000004
40
0.0625000000000004
40
0.0937500000000006
40
0.0937500000000006
40
0.125000000000001
40
0.125000000000001
40
0.156250000000001
40
0.156250000000001
40
0.187500000000001
40
0.187500000000001
40
0.218750000000001
40
0.218750000000001
40
0.250000000000002
40
0.250000000000002
40
0.281250000000002
40
0.281250000000002
40
0.289062500000002
40
0.289062500000002
40
0.296875000000002
40
0.296875000000002
40
0.312500000000002
40
0.312500000000002
40
0.343750000000002
40
0.343750000000002
40
0.375000000000002
40
0.375000000000002
40
0.406250000000001
40
0.406250000000001
40
0.437500000000001
40
0.437500000000001
40
0.468750000000001
40
0.468750000000001
40
0.500000000000001
40
0.500000000000001
40
0.531250000000001
40
0.531250000000001
40
0.562500000000001
40
0.562500000000001
40
0.570312500000001
40
0.570312500000001
40
0.574218750000001
40
0.574218750000001
40
0.578125000000001
40
0.578125000000001
40
0.593750000000001
40
0.593750000000001
40
0.625000000000001
40
0.625000000000001
40
0.656250000000001
40
0.656250000000001
40
0.687500000000002
40
0.687500000000002
40
0.718750000000002
40
0.718750000000002
40
0.750000000000002
40
0.750000000000002
40
0.781250000000002
40
0.781250000000002
40
0.812500000000002
40
0.812500000000002
40
0.843750000000003
40
0.843750000000003
40
0.859375000000003
40
0.859375000000003
40
0.863281250000003
40
0.863281250000003
40
0.867187500000003
40
0.867187500000003
40
0.875000000000002
40
0.875000000000002
40
0.906250000000002
40
0.906250000000002
40
0.937500000000001
40
0.937500000000001
40
0.968750000000001
40
0.968750000000001
40
1
40
1
40
1
40
1
41
1
10
47.5752962964852
20
11
30
0
41
1
10
47.6744737040539
20
11
30
0
41
1
10
47.7736511116225
20
10.9568730553714
30
0
41
1
10
47.9720059267597
20
10.7699834684565
30
0
41
1
10
48.0711833343283
20
10.6261105939514
30
0
41
1
10
48.2695381494655
20
10.2293774966014
30
0
41
1
10
48.3687155570341
20
9.97643761859797
30
0
41
1
10
48.5670703721714
20
9.36245679645853
30
0
41
1
10
48.66624777974
20
9.00140398993423
30
0
41
1
10
48.8646025948772
20
8.18282862823878
30
0
41
1
10
48.9637800024458
20
7.72537877599592
30
0
41
1
10
49.162134817583
20
6.73550736440484
30
0
41
1
10
49.2613122251516
20
6.20322505275314
30
0
41
1
10
49.4596670402888
20
5.09176968000526
30
0
41
1
10
49.5588444478574
20
4.51275634066289
30
0
41
1
10
49.7571992629947
20
3.33782363824858
30
0
41
1
10
49.8563766705632
20
2.74203502337809
30
0
41
1
10
50.0547314857005
20
1.56090241849714
30
0
41
1
10
50.1539088932691
20
0.97563112421156
30
0
41
1
10
50.2778806527299
20
0.264056270191418
30
0
41
1
10
50.302675004622
20
0.122898990867867
30
0
41
1
10
50.3522637084064
20
-0.157895158774807
30
0
41
1
10
50.3770580602985
20
-0.299399973519002
30
0
41
1
10
50.4514411159749
20
-0.726832291387836
30
0
41
1
10
50.5010298197592
20
-1.01569104612923
30
0
41
1
10
50.6497959311121
20
-1.89024601160779
30
0
41
1
10
50.7489733386807
20
-2.48409623155427
30
0
41
1
10
50.9473281538179
20
-3.66877152867318
30
0
41
1
10
51.0465055613866
20
-4.25949180470846
30
0
41
1
10
51.2448603765238
20
-5.40877595507203
30
0
41
1
10
51.3440377840924
20
-5.96718867155471
30
0
41
1
10
51.5423925992296
20
-7.02226180091813
30
0
41
1
10
51.6415700067982
20
-7.51876652386787
30
0
41
1
10
51.8399248219354
20
-8.42474837267645
30
0
41
1
10
51.939102229504
20
-8.834116497254
30
0
41
1
10
52.1374570446413
20
-9.54903465198504
30
0
41
1
10
52.2366344522099
20
-9.85455610083329
30
0
41
1
10
52.4349892673471
20
-10.3556405212921
30
0
41
1
10
52.5341666749157
20
-10.5512545576685
30
0
41
1
10
52.7325214900529
20
-10.8366595298078
30
0
41
1
10
52.8316988976215
20
-10.9265510820115
30
0
41
1
10
52.9556706570823
20
-10.9802765779752
30
0
41
1
10
52.9804650089745
20
-10.988104311603
30
0
41
1
10
53.0176565368127
20
-10.9956467246415
30
0
41
1
10
53.0300537127587
20
-10.997461124946
30
0
41
1
10
53.0548480646509
20
-10.99972131768
30
0
41
1
10
53.067245240597
20
-11.0001678485864
30
0
41
1
10
53.1292311203273
20
-10.9990500743829
30
0
41
1
10
53.1788198241117
20
-10.9873664821139
30
0
41
1
10
53.3275859354646
20
-10.9170589606961
30
0
41
1
10
53.4267633430332
20
-10.8229697144246
30
0
41
1
10
53.6251181581704
20
-10.5288168497963
30
0
41
1
10
53.7242955657391
20
-10.3286538819061
30
0
41
1
10
53.9226503808763
20
-9.81850563102211
30
0
41
1
10
54.0218277884449
20
-9.50847213731774
30
0
41
1
10
54.220182603582
20
-8.78501477448839
30
0
41
1
10
54.3193600111507
20
-8.37162306587615
30
0
41
1
10
54.5177148262879
20
-7.45849335215277
30
0
41
1
10
54.6168922338566
20
-6.95886716633075
30
0
41
1
10
54.8152470489938
20
-5.89872651110758
30
0
41
1
10
54.9144244565624
20
-5.33836858801348
30
0
41
1
10
55.1127792716995
20
-4.18644823178667
30
0
41
1
10
55.2119566792681
20
-3.59503571340127
30
0
41
1
10
55.4103114944054
20
-2.41011808078454
30
0
41
1
10
55.5094889019741
20
-1.8167153040572
30
0
41
1
10
55.6582550133269
20
-0.943505658130505
30
0
41
1
10
55.7078437171112
20
-0.655206935643974
30
0
41
1
10
55.7698295968416
20
-0.299830545142697
30
0
41
1
10
55.7822267727877
20
-0.22900406159232
30
0
41
1
10
55.8070211246798
20
-0.0878827515342095
30
0
41
1
10
55.8194183006259
20
-0.0177614712674767
30
0
41
1
10
55.8566098284642
20
0.193108733905859
30
0
41
1
10
55.8814041803563
20
0.334785905558874
30
0
41
1
10
56.005375939817
20
1.04797563505383
30
0
41
1
10
56.1045533473857
20
1.63415926766658
30
0
41
1
10
56.3029081625229
20
2.81608468644285
30
0
41
1
10
56.4020855700915
20
3.41175115771227
30
0
41
1
10
56.6004403852288
20
4.58522197224258
30
0
41
1
10
56.6996177927973
20
5.16289359135095
30
0
41
1
10
56.8979726079345
20
6.27042699772394
30
0
41
1
10
56.9971500155031
20
6.8001288562524
30
0
41
1
10
57.0963274230717
20
7.29195516933524
30
0
0
SPLINE
5
F3
100
AcDbEntity
8
1
62
256
6
ByLayer
370
13
48
1
60
0
100
AcDbSpline
70
4
71
3
72
22
73
18
40
0
40
0
40
0
40
0
40
0.125
40
0.125
40
0.25
40
0.25
40
0.375
40
0.375
40
0.5
40
0.5
40
0.625
40
0.625
40
0.75
40
0.75
40
0.875
40
0.875
40
1
40
1
40
1
40
1
41
1
10
46.1
20
6.37429009256604
30
0
41
1
10
46.1688661768328
20
6.74378006070424
30
0
41
1
10
46.2377323536654
20
7.09889185969681
30
0
41
1
10
46.3754647073309
20
7.77151459890462
30
0
41
1
10
46.4443308841636
20
8.08900399815761
30
0
41
1
10
46.582063237829
20
8.67913774594214
30
0
41
1
10
46.6509294146617
20
8.9517681155975
30
0
41
1
10
46.7886617683272
20
9.44713644658512
30
0
41
1
10
46.8575279451599
20
9.66986990321547
30
0
41
1
10
46.9952602988253
20
10.0628767271799
30
0
41
1
10
47.0641264756581
20
10.2331549489071
30
0
41
1
10
47.2018588293235
20
10.5211556791675
30
0
41
1
10
47.2707250061562
20
10.6388904978883
30
0
41
1
10
47.4084573598217
20
10.8239145744211
30
0
41
1
10
47.4773235366544
20
10.8912206422771
30
0
41
1
10
47.6150558903198
20
10.9792542617006
30
0
41
1
10
47.6839220671526
20
11
30
0
41
1
10
47.7527882439853
20
11
30
0
0
SPLINE
5
F4
100
AcDbEntity
8
1
62
256
6
ByLayer
370
13
48
1
60
0
100
AcDbSpline
70
4
71
3
72
117
73
113
40
0
40
0
40
0
40
0
40
0.03125
40
0.03125
40
0.0624999999999999
40
0.0624999999999999
40
0.0781249999999999
40
0.0781249999999999
40
0.0937499999999999
40
0.0937499999999999
40
0.109375
40
0.109375
40
0.125
40
0.125
40
0.140625
40
0.140625
40
0.15625
40
0.15625
40
0.171875
40
0.171875
40
0.1875
40
0.1875
40
0.21875
40
0.21875
40
0.250000000000001
40
0.250000000000001
40
0.265625000000001
40
0.265625000000001
40
0.273437500000001
40
0.273437500000001
40
0.277343750000001
40
0.277343750000001
40
0.281250000000001
40
0.281250000000001
40
0.312500000000001
40
0.312500000000001
40
0.343750000000001
40
0.343750000000001
40
0.359375000000001
40
0.359375000000001
40
0.375000000000002
40
0.375000000000002
40
0.390625000000002
40
0.390625000000002
40
0.406250000000002
40
0.406250000000002
40
0.421875000000002
40
0.421875000000002
40
0.437500000000002
40
0.437500000000002
40
0.453125000000002
40
0.453125000000002
40
0.468750000000002
40
0.468750000000002
40
0.500000000000002
40
0.500000000000002
40
0.531250000000003
40
0.531250000000003
40
0.546875000000003
40
0.546875000000003
40
0.550781250000003
40
0.550781250000003
40
0.554687500000003
40
0.562500000000003
40
0.562500000000003
40
0.593750000000003
40
0.593750000000003
40
0.625000000000003
40
0.625000000000003
40
0.640625000000003
40
0.640625000000003
40
0.656250000000003
40
0.656250000000003
40
0.671875000000003
40
0.671875000000003
40
0.687500000000003
40
0.687500000000003
40
0.703125000000003
40
0.703125000000003
40
0.718750000000003
40
0.718750000000003
40
0.734375000000003
40
0.734375000000003
40
0.750000000000003
40
0.750000000000003
40
0.781250000000004
40
0.781250000000004
40
0.812500000000004
40
0.812500000000004
40
0.820312500000004
40
0.820312500000004
40
0.824218750000004
40
0.824218750000004
40
0.828125000000004
40
0.828125000000004
40
0.843750000000004
40
0.843750000000004
40
0.875000000000003
40
0.875000000000003
40
0.906250000000002
40
0.906250000000002
40
0.921875000000002
40
0.921875000000002
40
0.937500000000002
40
0.937500000000002
40
0.953125000000001
40
0.953125000000001
40
0.968750000000001
40
0.968750000000001
40
0.984375
40
0.984375
40
1
40
1
40
1
40
1
41
1
10
47.0835310475956
20
11
30
0
41
1
10
47.1878310098402
20
11
30
0
41
1
10
47.2921309720847
20
10.9522786829587
30
0
41
1
10
47.5007308965738
20
10.7448153180496
30
0
41
1
10
47.6050308588183
20
10.5849324997751
30
0
41
1
10
47.7614808021852
20
10.2543349245477
30
0
41
1
10
47.8136307833074
20
10.1290822484081
30
0
41
1
10
47.9179307455519
20
9.84842025783948
30
0
41
1
10
47.9700807266742
20
9.69300927422287
30
0
41
1
10
48.0743806889188
20
9.35277467092448
30
0
41
1
10
48.1265306700411
20
9.16795107045687
30
0
41
1
10
48.2308306322856
20
8.77046084467631
30
0
41
1
10
48.2829806134079
20
8.55779607374689
30
0
41
1
10
48.3872805756524
20
8.10699099936872
30
0
41
1
10
48.4394305567747
20
7.86885431462426
30
0
41
1
10
48.5437305190192
20
7.37018819101928
30
0
41
1
10
48.5958805001415
20
7.10966384241314
30
0
41
1
10
48.700180462386
20
6.56988847322924
30
0
41
1
10
48.7523304435083
20
6.2906435389192
30
0
41
1
10
48.8566304057528
20
5.71750673243554
30
0
41
1
10
48.9087803868751
20
5.42362135922161
30
0
41
1
10
49.0652303302419
20
4.5264482339376
30
0
41
1
10
49.1695302924865
20
3.90773875640934
30
0
41
1
10
49.3781302169756
20
2.66313531737708
30
0
41
1
10
49.4824301792201
20
2.03738482245055
30
0
41
1
10
49.6388801225869
20
1.11553250683363
30
0
41
1
10
49.6910301037092
20
0.810992576216449
30
0
41
1
10
49.7692550753927
20
0.360509331605556
30
0
41
1
10
49.7953300659537
20
0.211398631286102
30
0
41
1
10
49.8344425517955
20
-0.0104528771726677
30
0
41
1
10
49.847480047076
20
-0.0841629007707354
30
0
41
1
10
49.8735550376372
20
-0.232572786584228
30
0
41
1
10
49.8865925329177
20
-0.307071742450432
30
0
41
1
10
50.0039299904428
20
-0.980029923687823
30
0
41
1
10
50.1082299526873
20
-1.5960981769334
30
0
41
1
10
50.3168298771765
20
-2.83898892236408
30
0
41
1
10
50.421129839421
20
-3.46571489031058
30
0
41
1
10
50.5775797827878
20
-4.38986460000453
30
0
41
1
10
50.6297297639101
20
-4.69521325217042
30
0
41
1
10
50.7340297261546
20
-5.29620153197206
30
0
41
1
10
50.7861797072769
20
-5.59183491810927
30
0
41
1
10
50.8904796695214
20
-6.16907512467873
30
0
41
1
10
50.9426296506438
20
-6.45067543684618
30
0
41
1
10
51.0469296128883
20
-6.99572521912722
30
0
41
1
10
51.0990795940106
20
-7.25916850665729
30
0
41
1
10
51.2033795562551
20
-7.76416595135848
30
0
41
1
10
51.2555295373773
20
-8.00571484291726
30
0
41
1
10
51.3598294996219
20
-8.4637451823271
30
0
41
1
10
51.4119794807442
20
-8.68022277777024
30
0
41
1
10
51.5162794429887
20
-9.08563076206968
30
0
41
1
10
51.568429424111
20
-9.27455903405937
30
0
41
1
10
51.6727293863555
20
-9.62317776206589
30
0
41
1
10
51.7248793674778
20
-9.78286794016134
30
0
41
1
10
51.8813293108446
20
-10.2167837284407
30
0
41
1
10
51.9856292730892
20
-10.4454883380272
30
0
41
1
10
52.1942291975782
20
-10.7842511565418
30
0
41
1
10
52.2985291598227
20
-10.8944311163881
30
0
41
1
10
52.4549791031896
20
-10.9803541242366
30
0
41
1
10
52.5071290843119
20
-10.9958379707729
30
0
41
1
10
52.5723165607147
20
-11.0001219757609
30
0
41
1
10
52.5853540559953
20
-11.0002298436776
30
0
41
1
10
52.6114290465565
20
-10.9989557298142
30
0
41
1
10
52.6505415323981
20
-10.9947944648102
30
0
41
1
10
52.6896540182398
20
-10.983717688505
30
0
41
1
10
52.8200289710455
20
-10.9307348619873
30
0
41
1
10
52.92432893329
20
-10.8366715111418
30
0
41
1
10
53.1329288577791
20
-10.5314560224319
30
0
41
1
10
53.2372288200236
20
-10.3201756101386
30
0
41
1
10
53.3936787633905
20
-9.91212645175872
30
0
41
1
10
53.4458287445128
20
-9.7610099256809
30
0
41
1
10
53.5501287067573
20
-9.42920701274753
30
0
41
1
10
53.6022786878796
20
-9.24852038948782
30
0
41
1
10
53.7065786501241
20
-8.85902900624495
30
0
41
1
10
53.7587286312464
20
-8.65022583671612
30
0
41
1
10
53.8630285934909
20
-8.20675834895462
30
0
41
1
10
53.9151785746132
20
-7.97209740964519
30
0
41
1
10
54.0194785368578
20
-7.47990172277386
30
0
41
1
10
54.0716285179801
20
-7.22237188021666
30
0
41
1
10
54.1759284802246
20
-6.68803058635939
30
0
41
1
10
54.2280784613468
20
-6.41122511287554
30
0
41
1
10
54.3323784235914
20
-5.84236444608658
30
0
41
1
10
54.3845284047137
20
-5.55031573000605
30
0
41
1
10
54.4888283669582
20
-4.95525101622027
30
0
41
1
10
54.5409783480805
20
-4.65224139343968
30
0
41
1
10
54.6974282914472
20
-3.73326841006221
30
0
41
1
10
54.8017282536918
20
-3.10752110926711
30
0
41
1
10
55.0103281781809
20
-1.8623356399402
30
0
41
1
10
55.1146281404253
20
-1.24300613746271
30
0
41
1
10
55.2450030932311
20
-0.489264349487456
30
0
41
1
10
55.2710780837922
20
-0.339517622434215
30
0
41
1
10
55.3101905696339
20
-0.116646174821881
30
0
41
1
10
55.3232280649145
20
-0.0427831179117959
30
0
41
1
10
55.3493030554757
20
0.10494041123485
30
0
41
1
10
55.3623405507562
20
0.179107082613456
30
0
41
1
10
55.4275280271591
20
0.55136880678694
30
0
41
1
10
55.4796780082813
20
0.853769738955094
30
0
41
1
10
55.6361279516481
20
1.77055229552599
30
0
41
1
10
55.7404279138927
20
2.39473333421068
30
0
41
1
10
55.9490278383818
20
3.64080809198617
30
0
41
1
10
56.0533278006264
20
4.26256960851589
30
0
41
1
10
56.2097777439931
20
5.16809443958294
30
0
41
1
10
56.2619277251154
20
5.46538687334538
30
0
41
1
10
56.36622768736
20
6.04655651753339
30
0
41
1
10
56.4183776684822
20
6.33042722270102
30
0
41
1
10
56.5226776307268
20
6.88058940377067
30
0
41
1
10
56.5748276118491
20
7.14687461307406
30
0
41
1
10
56.6791275740936
20
7.65806090019612
30
0
41
1
10
56.7312775552158
20
7.90295654736784
30
0
41
1
10
56.8355775174604
20
8.36809567124712
30
0
41
1
10
56.8877274985827
20
8.5883350685379
30
0
41
1
10
56.9920274608272
20
9.00157505888839
30
0
41
1
10
57.0441774419495
20
9.19457327472367
30
0
41
1
10
57.0963274230718
20
9.37304849018005
30
0
0
SPLINE
5
F5
100
AcDbEntity
8
1
62
256
6
ByLayer
370
13
48
1
60
0
100
AcDbSpline
70
4
71
3
72
14
73
10
40
0
40
0
40
0
40
0
40
0.25
40
0.25
40
0.5
40
0.5
40
0.75
40
0.75
40
1
40
1
40
1
40
1
41
1
10
46.1
20
8.71085122568493
30
0
41
1
10
46.196751916258
20
9.10092938530505
30
0
41
1
10
46.293503832516
20
9.44435869426582
30
0
41
1
10
46.4870076650318
20
10.0279417115816
30
0
41
1
10
46.5837595812899
20
10.2681111700844
30
0
41
1
10
46.7772634138058
20
10.6448152876015
30
0
41
1
10
46.8740153300638
20
10.7814225580192
30
0
41
1
10
47.0675191625797
20
10.9589660668547
30
0
41
1
10
47.1642710788377
20
11
30
0
41
1
10
47.2610229950956
20
11
30
0
0
SPLINE
5
F6
100
AcDbEntity
8
1
62
256
6
ByLayer
370
13
48
1
60
0
100
AcDbSpline
70
4
71
3
72
134
73
130
40
0
40
0
40
0
40
0
40
0.03125
40
0.03125
40
0.0468749999999999
40
0.0468749999999999
40
0.0624999999999999
40
0.0624999999999999
40
0.0781249999999999
40
0.0781249999999999
40
0.0937499999999998
40
0.0937499999999998
40
0.109375
40
0.109375
40
0.125
40
0.125
40
0.140625
40
0.140625
40
0.15625
40
0.15625
40
0.171875
40
0.171875
40
0.1875
40
0.1875
40
0.203125
40
0.203125
40
0.21875
40
0.21875
40
0.234375
40
0.234375
40
0.25
40
0.25
40
0.2578125
40
0.2578125
40
0.265625
40
0.265625
40
0.28125
40
0.28125
40
0.296875
40
0.296875
40
0.3125
40
0.3125
40
0.328125
40
0.328125
40
0.34375
40
0.34375
40
0.359374999999999
40
0.359374999999999
40
0.374999999999999
40
0.374999999999999
40
0.390624999999999
40
0.390624999999999
40
0.406249999999999
40
0.406249999999999
40
0.421875
40
0.421875
40
0.4375
40
0.4375
40
0.453125
40
0.453125
40
0.46875
40
0.46875
40
0.484375
40
0.484375
40
0.5
40
0.5
40
0.515625
40
0.515625
40
0.5234375
40
0.5234375
40
0.53125
40
0.53125
40
0.5625
40
0.5625
40
0.578125
40
0.578125
40
0.59375
40
0.59375
40
0.609375
40
0.609375
40
0.625
40
0.625
40
0.640625
40
0.640625
40
0.65625
40
0.65625
40
0.671875
40
0.671875
40
0.6875
40
0.6875
40
0.703125
40
0.703125
40
0.718749999999999
40
0.718749999999999
40
0.734374999999999
40
0.734374999999999
40
0.749999999999999
40
0.749999999999999
40
0.78125
40
0.78125
40
0.7890625
40
0.7890625
40
0.796874999999999
40
0.796874999999999
40
0.8125
40
0.8125
40
0.828125
40
0.828125
40
0.84375
40
0.84375
40
0.859375
40
0.859375
40
0.875
40
0.875
40
0.890625
40
0.890625
40
0.90625
40
0.90625
40
0.921875
40
0.921875
40
0.9375
40
0.9375
40
0.953125
40
0.953125
40
0.96875
40
0.96875
40
0.984375
40
0.984375
40
1
40
1
40
1
40
1
41
1
10
46.591765798706
20
11
30
0
41
1
10
46.7011883156265
20
11
30
0
41
1
10
46.810610832547
20
10.9474473830871
30
0
41
1
10
46.9747446079277
20
10.7755645406325
30
0
41
1
10
47.0294558663879
20
10.702812111137
30
0
41
1
10
47.1388783833084
20
10.5248608606911
30
0
41
1
10
47.1935896417686
20
10.4196571277201
30
0
41
1
10
47.3030121586891
20
10.1760347013615
30
0
41
1
10
47.3577234171494
20
10.0376124527975
30
0
41
1
10
47.4671459340698
20
9.72768670913536
30
0
41
1
10
47.52185719253
20
9.55618159078497
30
0
41
1
10
47.6312797094505
20
9.18120590786774
30
0
41
1
10
47.6859909679108
20
8.97773604790277
30
0
41
1
10
47.7954134848312
20
8.54094386540729
30
0
41
1
10
47.8501247432915
20
8.30762469443633
30
0
41
1
10
47.959547260212
20
7.81418637385218
30
0
41
1
10
48.0142585186722
20
7.55407261470106
30
0
41
1
10
48.1236810355926
20
7.01090783589331
30
0
41
1
10
48.1783922940529
20
6.72786392693104
30
0
41
1
10
48.2878148109734
20
6.14332198641142
30
0
41
1
10
48.3425260694336
20
5.8418320404426
30
0
41
1
10
48.4519485863541
20
5.22527056675128
30
0
41
1
10
48.5066598448144
20
4.91020725857754
30
0
41
1
10
48.6160823617347
20
4.27151312002354
30
0
41
1
10
48.670793620195
20
3.94788985049334
30
0
41
1
10
48.7802161371155
20
3.29699167443368
30
0
41
1
10
48.8349273955758
20
2.96972304634824
30
0
41
1
10
48.9443499124963
20
2.31614204111551
30
0
41
1
10
48.9990611709565
20
1.98983427725787
30
0
41
1
10
49.108483687877
20
1.34231026284954
30
0
41
1
10
49.1631949463372
20
1.02109683373627
30
0
41
1
10
49.2452618340275
20
0.545758463887239
30
0
41
1
10
49.2726174632577
20
0.388387818712232
30
0
41
1
10
49.3273287217179
20
0.0761810674945025
30
0
41
1
10
49.354684350948
20
-0.077984627461035
30
0
41
1
10
49.4367512386384
20
-0.546324148035438
30
0
41
1
10
49.4914624970986
20
-0.863636856566814
30
0
41
1
10
49.6008850140191
20
-1.50520415968859
30
0
41
1
10
49.6555962724794
20
-1.82945680116936
30
0
41
1
10
49.7650187893999
20
-2.48105273328196
30
0
41
1
10
49.81973004786
20
-2.80839230237558
30
0
41
1
10
49.9291525647805
20
-3.46177574996813
30
0
41
1
10
49.9838638232408
20
-3.78781414780579
30
0
41
1
10
50.0932863401612
20
-4.4338121029065
30
0
41
1
10
50.1479975986215
20
-4.75376467410121
30
0
41
1
10
50.257420115542
20
-5.38259926486202
30
0
41
1
10
50.3121313740022
20
-5.69147330207437
30
0
41
1
10
50.4215538909226
20
-6.29317730965613
30
0
41
1
10
50.4762651493829
20
-6.58599902235286
30
0
41
1
10
50.5856876663034
20
-7.15088964770553
30
0
41
1
10
50.6403989247636
20
-7.42295086156642
30
0
41
1
10
50.7498214416841
20
-7.9421191928221
30
0
41
1
10
50.8045327001444
20
-8.18921998132399
30
0
41
1
10
50.9139552170648
20
-8.65498709247211
30
0
41
1
10
50.968666475525
20
-8.8736491018195
30
0
41
1
10
51.0780889924455
20
-9.27994114607606
30
0
41
1
10
51.1328002509058
20
-9.46756925256094
30
0
41
1
10
51.2422227678263
20
-9.81017360967081
30
0
41
1
10
51.2969340262865
20
-9.96515035820622
30
0
41
1
10
51.4063565432069
20
-10.2418310486236
30
0
41
1
10
51.4610678016672
20
-10.3635376468121
30
0
41
1
10
51.5704903185876
20
-10.5740073907263
30
0
41
1
10
51.625201577048
20
-10.6627748512526
30
0
41
1
10
51.7346240939684
20
-10.8085392889452
30
0
41
1
10
51.7893353524286
20
-10.8655416179717
30
0
41
1
10
51.8987578693491
20
-10.9496448890249
30
0
41
1
10
51.9534691278093
20
-10.9767515898677
30
0
41
1
10
52.0355360154998
20
-10.9967827061086
30
0
41
1
10
52.0628916447298
20
-11.0000251601255
30
0
41
1
10
52.1176029031901
20
-10.9999745459164
30
0
41
1
10
52.1449585324202
20
-10.9966801587714
30
0
41
1
10
52.2817366785708
20
-10.963029005922
30
0
41
1
10
52.3911591954913
20
-10.8808197582083
30
0
41
1
10
52.555292970872
20
-10.6618047536983
30
0
41
1
10
52.6100042293322
20
-10.5729115160934
30
0
41
1
10
52.7194267462527
20
-10.3621872208761
30
0
41
1
10
52.7741380047129
20
-10.240351853727
30
0
41
1
10
52.8835605216334
20
-9.9634141299731
30
0
41
1
10
52.9382717800937
20
-9.80830912457142
30
0
41
1
10
53.0476942970141
20
-9.46545257152891
30
0
41
1
10
53.1024055554744
20
-9.27770053503667
30
0
41
1
10
53.2118280723948
20
-8.87116882158304
30
0
41
1
10
53.2665393308551
20
-8.65239108257458
30
0
41
1
10
53.3759618477756
20
-8.18640435240837
30
0
41
1
10
53.4306731062358
20
-7.93919968326992
30
0
41
1
10
53.5400956231563
20
-7.41983857820358
30
0
41
1
10
53.5948068816165
20
-7.14768847786681
30
0
41
1
10
53.7042293985369
20
-6.58263747603615
30
0
41
1
10
53.7589406569972
20
-6.2897442771278
30
0
41
1
10
53.8683631739177
20
-5.68791620410204
30
0
41
1
10
53.9230744323779
20
-5.3789895881678
30
0
41
1
10
54.0324969492984
20
-4.75006929351798
30
0
41
1
10
54.0872082077586
20
-4.4300835945775
30
0
41
1
10
54.1966307246791
20
-3.78403845246916
30
0
41
1
10
54.2513419831393
20
-3.45798599036419
30
0
41
1
10
54.3607645000598
20
-2.80459228271747
30
0
41
1
10
54.4154757585201
20
-2.47725651134726
30
0
41
1
10
54.5796095339007
20
-1.49989805106051
30
0
41
1
10
54.6890320508212
20
-0.854845488054451
30
0
41
1
10
54.8258101969719
20
-0.0743776268180909
30
0
41
1
10
54.853165826202
20
0.079788306656809
30
0
41
1
10
54.9078770846622
20
0.392034238642253
30
0
41
1
10
54.9352327138923
20
0.549423066976857
30
0
41
1
10
55.0172996015827
20
1.02481129317152
30
0
41
1
10
55.072010860043
20
1.34605169470461
30
0
41
1
10
55.1814333769634
20
1.99361472834479
30
0
41
1
10
55.2361446354237
20
2.3199345321355
30
0
41
1
10
55.3455671523441
20
2.97352261091152
30
0
41
1
10
55.4002784108044
20
3.30078626575565
30
0
41
1
10
55.5097009277249
20
3.95165594435412
30
0
41
1
10
55.5644121861851
20
4.27525568379323
30
0
41
1
10
55.6738347031056
20
4.91388339728769
30
0
41
1
10
55.7285459615658
20
5.22890380660004
30
0
41
1
10
55.8379684784863
20
5.84536018485016
30
0
41
1
10
55.8926797369465
20
6.14678793315409
30
0
41
1
10
56.0021022538671
20
6.73118720646917
30
0
41
1
10
56.0568135123272
20
7.0141506480594
30
0
41
1
10
56.1662360292477
20
7.55713818980581
30
0
41
1
10
56.2209472877079
20
7.81715518459916
30
0
41
1
10
56.3303698046284
20
8.31038647403105
30
0
41
1
10
56.3850810630886
20
8.54359538605772
30
0
41
1
10
56.4945035800091
20
8.98015697768383
30
0
41
1
10
56.5492148384694
20
9.18350651501225
30
0
41
1
10
56.6586373553898
20
9.55823527709268
30
0
41
1
10
56.7133486138501
20
9.7296138066886
30
0
41
1
10
56.8227711307705
20
10.0392839765834
30
0
41
1
10
56.8774823892308
20
10.17757724853
30
0
41
1
10
56.9869049061513
20
10.4209430144513
30
0
41
1
10
57.0416161646115
20
10.5260190700442
30
0
41
1
10
57.0963274230717
20
10.6148693008381
30
0
0
SPLINE
5
F7
100
AcDbEntity
8
1
62
256
6
ByLayer
370
13
48
1
60
0
100
AcDbSpline
70
4
71
3
72
8
73
4
40
0
40
0
40
0
40
0
40
1
40
1
40
1
40
1
41
1
10
56.9188360253881
20
11
30
0
41
1
10
56.977999824616
20
11
30
0
41
1
10
57.0371636238439
20
10.9846959683824
30
0
41
1
10
57.0963274230717
20
10.9524648183306
30
0
0
SPLINE
5
F8
100
AcDbEntity
8
1
62
256
6
ByLayer
370
13
48
1
60
0
100
AcDbSpline
70
4
71
3
72
14
73
10
40
0
40
0
40
0
40
0
40
0.25
40
0.25
40
0.5
40
0.5
40
0.75
40
0.75
40
1
40
1
40
1
40
1
41
1
10
46.1
20
10.269220955228
30
0
41
1
10
46.1557714788505
20
10.3960124877205
30
0
41
1
10
46.211542957701
20
10.5055331365776
30
0
41
1
10
46.323085915402
20
10.6907754255768
30
0
41
1
10
46.3788573942525
20
10.7665024034916
30
0
41
1
10
46.4904003519535
20
10.8857527634152
30
0
41
1
10
46.546171830804
20
10.9292823234134
30
0
41
1
10
46.657714788505
20
10.9864027765364
30
0
41
1
10
46.7134862673555
20
11
30
0
41
1
10
46.769257746206
20
11
30
0
0
SPLINE
5
F9
100
AcDbEntity
8
1
62
256
6
ByLayer
370
13
48
1
60
0
100
AcDbSpline
70
4
71
3
72
134
73
130
40
0
40
0
40
0
40
0
40
0.0156250000000001
40
0.0156250000000001
40
0.0312500000000001
40
0.0312500000000001
40
0.0468750000000002
40
0.0468750000000002
40
0.0625000000000003
40
0.0625000000000003
40
0.0781250000000003
40
0.0781250000000003
40
0.0937500000000004
40
0.0937500000000004
40
0.109375000000001
40
0.109375000000001
40
0.125000000000001
40
0.125000000000001
40
0.140625000000001
40
0.140625000000001
40
0.156250000000001
40
0.156250000000001
40
0.171875000000001
40
0.171875000000001
40
0.187500000000001
40
0.187500000000001
40
0.203125000000001
40
0.203125000000001
40
0.218750000000001
40
0.218750000000001
40
0.234375000000001
40
0.234375000000001
40
0.250000000000001
40
0.250000000000001
40
0.265625000000001
40
0.265625000000001
40
0.281250000000001
40
0.281250000000001
40
0.296875000000001
40
0.296875000000001
40
0.312500000000001
40
0.312500000000001
40
0.328125000000002
40
0.328125000000002
40
0.343750000000002
40
0.343750000000002
40
0.359375000000002
40
0.359375000000002
40
0.375000000000002
40
0.375000000000002
40
0.390625000000002
40
0.390625000000002
40
0.406250000000002
40
0.406250000000002
40
0.421875000000002
40
0.421875000000002
40
0.437500000000002
40
0.437500000000002
40
0.453125000000002
40
0.453125000000002
40
0.468750000000002
40
0.468750000000002
40
0.484375000000002
40
0.484375000000002
40
0.500000000000002
40
0.500000000000002
40
0.515625000000002
40
0.515625000000002
40
0.531250000000002
40
0.531250000000002
40
0.546875000000002
40
0.546875000000002
40
0.562500000000002
40
0.562500000000002
40
0.578125000000002
40
0.578125000000002
40
0.593750000000001
40
0.593750000000001
40
0.609375000000001
40
0.609375000000001
40
0.625000000000001
40
0.625000000000001
40
0.640625000000001
40
0.640625000000001
40
0.656250000000001
40
0.656250000000001
40
0.671875000000001
40
0.671875000000001
40
0.687500000000001
40
0.687500000000001
40
0.703125000000001
40
0.703125000000001
40
0.718750000000001
40
0.718750000000001
40
0.734375000000001
40
0.734375000000001
40
0.750000000000001
40
0.750000000000001
40
0.765625000000001
40
0.765625000000001
40
0.781250000000001
40
0.781250000000001
40
0.796875000000001
40
0.796875000000001
40
0.812500000000001
40
0.812500000000001
40
0.828125000000001
40
0.828125000000001
40
0.843750000000001
40
0.843750000000001
40
0.859375000000001
40
0.859375000000001
40
0.875000000000001
40
0.875000000000001
40
0.890625
40
0.890625
40
0.90625
40
0.90625
40
0.921875
40
0.921875
40
0.9375
40
0.9375
40
0.953125
40
0.953125
40
0.96875
40
0.96875
40
0.984375
40
0.984375
40
1
40
1
40
1
40
1
41
1
10
46.1000005498164
20
11
30
0
41
1
10
46.1572730856146
20
11
30
0
41
1
10
46.2145456214128
20
10.9856600340683
30
0
41
1
10
46.3290906930092
20
10.9253479644618
30
0
41
1
10
46.3863632288074
20
10.8793686286551
30
0
41
1
10
46.5009083004038
20
10.7533495143153
30
0
41
1
10
46.558180836202
20
10.673302713203
30
0
41
1
10
46.6727259077984
20
10.4774744550344
30
0
41
1
10
46.7299984435966
20
10.3616870184628
30
0
41
1
10
46.844543515193
20
10.0936557657294
30
0
41
1
10
46.9018160509913
20
9.94140788836106
30
0
41
1
10
47.0163611225876
20
9.60084051731903
30
0
41
1
10
47.0736336583858
20
9.41251963662202
30
0
41
1
10
47.1881787299823
20
9.00138198021222
30
0
41
1
10
47.2454512657805
20
8.77856695647657
30
0
41
1
10
47.3599963373769
20
8.30120367140145
30
0
41
1
10
47.4172688731751
20
8.04666034126825
30
0
41
1
10
47.5318139447714
20
7.50968948920084
30
0
41
1
10
47.5890864805696
20
7.22726964428318
30
0
41
1
10
47.7036315521661
20
6.63928993027252
30
0
41
1
10
47.7609040879643
20
6.33373963656311
30
0
41
1
10
47.8754491595607
20
5.70487588120568
30
0
41
1
10
47.9327216953589
20
5.38157278940955
30
0
41
1
10
48.0472667669553
20
4.72290934461725
30
0
41
1
10
48.1045393027536
20
4.38755900733298
30
0
41
1
10
48.21908437435
20
3.71052582168798
30
0
41
1
10
48.2763569101481
20
3.36885164748955
30
0
41
1
10
48.3909019817445
20
2.68463041334002
30
0
41
1
10
48.4481745175427
20
2.34209000685081
30
0
41
1
10
48.5627195891391
20
1.6610985762984
30
0
41
1
10
48.6199921249374
20
1.32265187438102
30
0
41
1
10
48.7345371965338
20
0.654147263503859
30
0
41
1
10
48.7918097323321
20
0.324091379149138
30
0
41
1
10
48.9063548039285
20
-0.324089823514271
30
0
41
1
10
48.9636273397266
20
-0.654145672417997
30
0
41
1
10
49.078172411323
20
-1.32265025664478
30
0
41
1
10
49.1354449471212
20
-1.66109694838144
30
0
41
1
10
49.2499900187176
20
-2.34208836600888
30
0
41
1
10
49.3072625545158
20
-2.68462876975758
30
0
41
1
10
49.4218076261123
20
-3.36885000680999
30
0
41
1
10
49.4790801619104
20
-3.71052418665539
30
0
41
1
10
49.5936252335069
20
-4.3875573926062
30
0
41
1
10
49.6508977693051
20
-4.72290774455206
30
0
41
1
10
49.7654428409015
20
-5.38157122789005
30
0
41
1
10
49.8227153766996
20
-5.70487434357176
30
0
41
1
10
49.9372604482961
20
-6.33373815565085
30
0
41
1
10
49.9945329840943
20
-6.63928848219606
30
0
41
1
10
50.1090780556907
20
-7.22726827005681
30
0
41
1
10
50.1663505914889
20
-7.50968815598657
30
0
41
1
10
50.2808956630854
20
-8.0466590970222
30
0
41
1
10
50.3381681988836
20
-8.30120247510771
30
0
41
1
10
50.4527132704799
20
-8.77856586142624
30
0
41
1
10
50.5099858062782
20
-9.00138093844805
30
0
41
1
10
50.6245308778746
20
-9.41251870492513
30
0
41
1
10
50.6818034136728
20
-9.60083964239809
30
0
41
1
10
50.7963484852692
20
-9.94140712855832
30
0
41
1
10
50.8536210210674
20
-10.0936550642643
30
0
41
1
10
50.9681660926638
20
-10.3616864333776
30
0
41
1
10
51.025438628462
20
-10.4774739279879
30
0
41
1
10
51.1399837000585
20
-10.6733023002735
30
0
41
1
10
51.1972562358567
20
-10.7533491574617
30
0
41
1
10
51.311801307453
20
-10.8793683806167
30
0
41
1
10
51.3690738432513
20
-10.9253477691615
30
0
41
1
10
51.4836189148477
20
-10.9856599398704
30
0
41
1
10
51.5408914506459
20
-10.9999999541665
30
0
41
1
10
51.6554365222423
20
-11.0000000458332
30
0
41
1
10
51.7127090580405
20
-10.985660128266
30
0
41
1
10
51.8272541296369
20
-10.9253481597618
30
0
41
1
10
51.8845266654351
20
-10.8793688766933
30
0
41
1
10
51.9990717370316
20
-10.7533498711686
30
0
41
1
10
52.0563442728297
20
-10.6733031261322
30
0
41
1
10
52.1708893444261
20
-10.4774749820806
30
0
41
1
10
52.2281618802244
20
-10.3616876035477
30
0
41
1
10
52.3427069518207
20
-10.0936564671943
30
0
41
1
10
52.3999794876189
20
-9.9414086481635
30
0
41
1
10
52.5145245592153
20
-9.60084139223972
30
0
41
1
10
52.5717970950136
20
-9.41252056831863
30
0
41
1
10
52.68634216661
20
-9.0013830219761
30
0
41
1
10
52.7436147024082
20
-8.77856805152666
30
0
41
1
10
52.8581597740045
20
-8.30120486769491
30
0
41
1
10
52.9154323098027
20
-8.04666158551407
30
0
41
1
10
53.0299773813992
20
-7.50969082241494
30
0
41
1
10
53.0872499171974
20
-7.22727101850936
30
0
41
1
10
53.2017949887938
20
-6.63929137834884
30
0
41
1
10
53.259067524592
20
-6.3337411174752
30
0
41
1
10
53.3736125961884
20
-5.70487741883952
30
0
41
1
10
53.4308851319867
20
-5.3815743509289
30
0
41
1
10
53.545430203583
20
-4.72291094468235
30
0
41
1
10
53.6027027393812
20
-4.38756062205971
30
0
41
1
10
53.7172478109777
20
-3.71052745672051
30
0
41
1
10
53.7745203467758
20
-3.36885328816905
30
0
41
1
10
53.8890654183722
20
-2.68463205692245
30
0
41
1
10
53.9463379541705
20
-2.34209164769274
30
0
41
1
10
54.0608830257669
20
-1.66110020421539
30
0
41
1
10
54.1181555615651
20
-1.32265349211735
30
0
41
1
10
54.2327006331615
20
-0.654148854589778
30
0
41
1
10
54.2899731689598
20
-0.324092953768854
30
0
41
1
10
54.4045182405562
20
0.324088286864082
30
0
41
1
10
54.4617907763543
20
0.65414408133222
30
0
41
1
10
54.5763358479507
20
1.32264863890859
30
0
41
1
10
54.6336083837489
20
1.66109532046454
30
0
41
1
10
54.7481534553454
20
2.34208672516698
30
0
41
1
10
54.8054259911435
20
2.68462712617517
30
0
41
1
10
54.9199710627399
20
3.36884836613044
30
0
41
1
10
54.9772435985382
20
3.71052255162277
30
0
41
1
10
55.0917886701346
20
4.38755577787933
30
0
41
1
10
55.1490612059328
20
4.72290614448679
30
0
41
1
10
55.2636062775292
20
5.38156966637049
30
0
41
1
10
55.3208788133274
20
5.7048728059377
30
0
41
1
10
55.4354238849238
20
6.33373667473842
30
0
41
1
10
55.492696420722
20
6.63928703411943
30
0
41
1
10
55.6072414923185
20
7.22726689583024
30
0
41
1
10
55.6645140281166
20
7.50968682277207
30
0
41
1
10
55.779059099713
20
8.04665785277592
30
0
41
1
10
55.8363316355112
20
8.30120127881378
30
0
41
1
10
55.9508767071077
20
8.77856476637567
30
0
41
1
10
56.0081492429059
20
9.00137989668363
30
0
41
1
10
56.1226943145023
20
9.41251777322799
30
0
41
1
10
56.1799668503005
20
9.60083876747686
30
0
41
1
10
56.2945119218969
20
9.94140636875534
30
0
41
1
10
56.3517844576951
20
10.0936543627988
30
0
41
1
10
56.4663295292915
20
10.3616858482922
30
0
41
1
10
56.5236020650897
20
10.4774734009412
30
0
41
1
10
56.6381471366861
20
10.6733018873438
30
0
41
1
10
56.6954196724843
20
10.7533488006079
30
0
41
1
10
56.8099647440807
20
10.8793681325779
30
0
41
1
10
56.8672372798789
20
10.925347573861
30
0
41
1
10
56.9817823514753
20
10.9856598456723
30
0
41
1
10
57.0390548872735
20
10.9999999083329
30
0
41
1
10
57.0963274230717
20
10.9999999999996
30
0
0
SPLINE
5
FA
100
AcDbEntity
8
1
62
256
6
ByLayer
370
13
48
1
60
0
100
AcDbSpline
70
4
71
3
72
14
73
10
40
0
40
0
40
0
40
0
40
0.25
40
0.25
40
0.5
40
0.5
40
0.75
40
0.75
40
1
40
1
40
1
40
1
41
1
10
56.4270707764984
20
11
30
0
41
1
10
56.4828421637129
20
11
30
0
41
1
10
56.5386135509274
20
10.9864028212738
30
0
41
1
10
56.6501563253562
20
10.9292825602333
30
0
41
1
10
56.7059277125707
20
10.8857531476324
30
0
41
1
10
56.8174704869995
20
10.7665031948885
30
0
41
1
10
56.873241874214
20
10.6907764768049
30
0
41
1
10
56.9847846486429
20
10.50553482463
30
0
41
1
10
57.0405560358573
20
10.3960145528037
30
0
41
1
10
57.0963274230717
20
10.2692234551436
30
0
0
SPLINE
5
FB
100
AcDbEntity
8
1
62
256
6
ByLayer
370
13
48
1
60
0
100
AcDbSpline
70
4
71
3
72
8
73
4
40
0
40
0
40
0
40
0
40
1
40
1
40
1
40
1
41
1
10
46.1
20
10.9524642192726
30
0
41
1
10
46.1591641657721
20
10.9846957784841
30
0
41
1
10
46.2183283315443
20
11
30
0
41
1
10
46.2774924973164
20
11
30
0
0
SPLINE
5
FC
100
AcDbEntity
8
1
62
256
6
ByLayer
370
13
48
1
60
0
100
AcDbSpline
70
4
71
3
72
134
73
130
40
0
40
0
40
0
40
0
40
0.015625
40
0.015625
40
0.0312499999999999
40
0.0312499999999999
40
0.0468749999999999
40
0.0468749999999999
40
0.0624999999999999
40
0.0624999999999999
40
0.0781249999999998
40
0.0781249999999998
40
0.0937499999999998
40
0.0937499999999998
40
0.109375
40
0.109375
40
0.125
40
0.125
40
0.140625
40
0.140625
40
0.15625
40
0.15625
40
0.171875
40
0.171875
40
0.1875
40
0.1875
40
0.203125
40
0.203125
40
0.2109375
40
0.2109375
40
0.21875
40
0.21875
40
0.25
40
0.25
40
0.265625
40
0.265625
40
0.28125
40
0.28125
40
0.296875
40
0.296875
40
0.3125
40
0.3125
40
0.328125
40
0.328125
40
0.34375
40
0.34375
40
0.359375
40
0.359375
40
0.375
40
0.375
40
0.390625
40
0.390625
40
0.40625
40
0.40625
40
0.421875
40
0.421875
40
0.4375
40
0.4375
40
0.468750000000001
40
0.468750000000001
40
0.476562500000001
40
0.476562500000001
40
0.484375000000001
40
0.484375000000001
40
0.5
40
0.5
40
0.515625
40
0.515625
40
0.53125
40
0.53125
40
0.546875
40
0.546875
40
0.5625
40
0.5625
40
0.578125
40
0.578125
40
0.59375
40
0.59375
40
0.609375
40
0.609375
40
0.625
40
0.625
40
0.640625
40
0.640625
40
0.65625
40
0.65625
40
0.671875
40
0.671875
40
0.6875
40
0.6875
40
0.703125
40
0.703125
40
0.71875
40
0.71875
40
0.734375
40
0.734375
40
0.7421875
40
0.7421875
40
0.75
40
0.75
40
0.765625
40
0.765625
40
0.78125
40
0.78125
40
0.796875
40
0.796875
40
0.8125
40
0.8125
40
0.828125
40
0.828125
40
0.84375
40
0.84375
40
0.859375
40
0.859375
40
0.875
40
0.875
40
0.890625
40
0.890625
40
0.90625
40
0.90625
40
0.921875
40
0.921875
40
0.9375
40
0.9375
40
0.953125
40
0.953125
40
0.96875
40
0.96875
40
1
40
1
40
1
40
1
41
1
10
46.1
20
10.6148710866223
30
0
41
1
10
46.1547112641875
20
10.5260210634782
30
0
41
1
10
46.209422528375
20
10.4209452160858
30
0
41
1
10
46.31884505675
20
10.1775798618326
30
0
41
1
10
46.3735563209375
20
10.039286793341
30
0
41
1
10
46.4829788493125
20
9.72961701943709
30
0
41
1
10
46.5376901135
20
9.55823868236223
30
0
41
1
10
46.6471126418749
20
9.18351028830705
30
0
41
1
10
46.7018239060624
20
8.98016092646762
30
0
41
1
10
46.8112464344374
20
8.54359966325222
30
0
41
1
10
46.8659576986249
20
8.31039090413387
30
0
41
1
10
46.9753802269999
20
7.81715989338645
30
0
41
1
10
47.0300914911873
20
7.55714302435956
30
0
41
1
10
47.1395140195623
20
7.01415570378865
30
0
41
1
10
47.1942252837499
20
6.73119235760279
30
0
41
1
10
47.3036478121249
20
6.14679324307366
30
0
41
1
10
47.3583590763123
20
5.8453655581522
30
0
41
1
10
47.4677816046873
20
5.22890927459625
30
0
41
1
10
47.5224928688748
20
4.91388889660152
30
0
41
1
10
47.6319153972498
20
4.27526121513657
30
0
41
1
10
47.6866266614373
20
3.95166147641896
30
0
41
1
10
47.7960491898123
20
3.3007917713951
30
0
41
1
10
47.8507604539997
20
2.97352808941582
30
0
41
1
10
47.9601829823747
20
2.31993993218001
30
0
41
1
10
48.0148942465622
20
1.99362007707688
30
0
41
1
10
48.1243167749372
20
1.34605692087521
30
0
41
1
10
48.1790280391247
20
1.02481644810422
30
0
41
1
10
48.261094935406
20
0.549428103453124
30
0
41
1
10
48.2884505674997
20
0.392039233700416
30
0
41
1
10
48.3431618316871
20
0.0797932155653314
30
0
41
1
10
48.3705174637809
20
-0.0743727349593257
30
0
41
1
10
48.5072956242497
20
-0.85484054534021
30
0
41
1
10
48.6167181526246
20
-1.49989310264976
30
0
41
1
10
48.7808519451872
20
-2.4772516191394
30
0
41
1
10
48.8355632093746
20
-2.80458741997063
30
0
41
1
10
48.9449857377496
20
-3.45798120896492
30
0
41
1
10
48.9996970019371
20
-3.78403372296182
30
0
41
1
10
49.1091195303121
20
-4.43007899129071
30
0
41
1
10
49.1638307944995
20
-4.75006476456238
30
0
41
1
10
49.2732533228745
20
-5.37898522922401
30
0
41
1
10
49.327964587062
20
-5.68791194083784
30
0
41
1
10
49.437387115437
20
-6.2897402243602
30
0
41
1
10
49.4920983796245
20
-6.5826335380807
30
0
41
1
10
49.6015209079995
20
-7.14768478542507
30
0
41
1
10
49.656232172187
20
-7.41983501645507
30
0
41
1
10
49.765654700562
20
-7.93919639471557
30
0
41
1
10
49.8203659647494
20
-8.18640120634404
30
0
41
1
10
49.9297884931244
20
-8.65238822867701
30
0
41
1
10
49.984499757312
20
-8.87116611735033
30
0
41
1
10
50.093922285687
20
-9.27769813250845
30
0
41
1
10
50.1486335498744
20
-9.46545032102904
30
0
41
1
10
50.2580560782494
20
-9.80830717585545
30
0
41
1
10
50.3127673424369
20
-9.96341233100335
30
0
41
1
10
50.4221898708119
20
-10.2403503478076
30
0
41
1
10
50.4769011349994
20
-10.3621858582546
30
0
41
1
10
50.5863236633743
20
-10.5729104301728
30
0
41
1
10
50.6410349275618
20
-10.6618038011777
30
0
41
1
10
50.8051687201244
20
-10.8808191871523
30
0
41
1
10
50.9145912484993
20
-10.9630286637667
30
0
41
1
10
51.051369408968
20
-10.9966800646544
30
0
41
1
10
51.0787250410618
20
-10.9999744995355
30
0
41
1
10
51.1334363052493
20
-11.0000252054405
30
0
41
1
10
51.160791937343
20
-10.9967827977541
30
0
41
1
10
51.2428588336243
20
-10.9767518217587
30
0
41
1
10
51.2975700978118
20
-10.9496452160232
30
0
41
1
10
51.4069926261868
20
-10.8655421361614
30
0
41
1
10
51.4617038903742
20
-10.8085399032155
30
0
41
1
10
51.5711264187492
20
-10.6627756560526
30
0
41
1
10
51.6258376829367
20
-10.5740082899705
30
0
41
1
10
51.7352602113116
20
-10.3635387304719
30
0
41
1
10
51.7899714754992
20
-10.2418322222484
30
0
41
1
10
51.8993940038741
20
-9.96515170439062
30
0
41
1
10
51.9541052680617
20
-9.81017503844245
30
0
41
1
10
52.0635277964367
20
-9.46757083639133
30
0
41
1
10
52.1182390606241
20
-9.27994280237084
30
0
41
1
10
52.2276615889991
20
-8.87365089055436
30
0
41
1
10
52.2823728531866
20
-8.65498894117667
30
0
41
1
10
52.3917953815616
20
-8.18922193567843
30
0
41
1
10
52.4465066457491
20
-7.94212119285282
30
0
41
1
10
52.5559291741241
20
-7.4229529375821
30
0
41
1
10
52.6106404383116
20
-7.15089175402861
30
0
41
1
10
52.7200629666865
20
-6.58600117364628
30
0
41
1
10
52.774774230874
20
-6.29317947561404
30
0
41
1
10
52.884196759249
20
-5.69147548223614
30
0
41
1
10
52.9389080234365
20
-5.3826014445672
30
0
41
1
10
53.0483305518115
20
-4.75376683899864
30
0
41
1
10
53.103041815999
20
-4.43381425345851
30
0
41
1
10
53.2124643443739
20
-3.78781625756574
30
0
41
1
10
53.2671756085614
20
-3.46177783328793
30
0
41
1
10
53.3765981369365
20
-2.80839432288326
30
0
41
1
10
53.4313094011239
20
-2.48105471742403
30
0
41
1
10
53.5407319294989
20
-1.82945870499759
30
0
41
1
10
53.5954431936864
20
-1.50520601957408
30
0
41
1
10
53.7048657220614
20
-0.863638623331838
30
0
41
1
10
53.7595769862489
20
-0.546325865626955
30
0
41
1
10
53.8416438825302
20
-0.0779862690147297
30
0
41
1
10
53.8689995146239
20
0.0761794421256639
30
0
41
1
10
53.9237107788114
20
0.38838620853798
30
0
41
1
10
53.9510664109051
20
0.545756862203405
30
0
41
1
10
54.0331333071863
20
1.02109526022963
30
0
41
1
10
54.0878445713739
20
1.34230871174677
30
0
41
1
10
54.1972670997488
20
1.98983277809191
30
0
41
1
10
54.2519783639364
20
2.3161405714838
30
0
41
1
10
54.3614008923113
20
2.96972164243215
30
0
41
1
10
54.4161121564988
20
3.29699030669914
30
0
41
1
10
54.5255346848738
20
3.94788856088633
30
0
41
1
10
54.5802459490613
20
4.27151187236129
30
0
41
1
10
54.6896684774363
20
4.91020609930041
30
0
41
1
10
54.7443797416237
20
5.22526945391186
30
0
41
1
10
54.8538022699988
20
5.84183102337789
30
0
41
1
10
54.9085135341862
20
6.14332101867976
30
0
41
1
10
55.0179360625611
20
6.72786305894175
30
0
41
1
10
55.0726473267487
20
7.0109070183085
30
0
41
1
10
55.1820698551236
20
7.55407189708538
30
0
41
1
10
55.2367811193112
20
7.81418570579612
30
0
41
1
10
55.3462036476861
20
8.30762412280023
30
0
41
1
10
55.4009149118737
20
8.54094334062708
30
0
41
1
10
55.5103374402486
20
8.97773561247811
30
0
41
1
10
55.5650487044362
20
9.18120551493936
30
0
41
1
10
55.6744712328111
20
9.55618127715937
30
0
41
1
10
55.7291824969986
20
9.7276864323143
30
0
41
1
10
55.8386050253736
20
10.0376122429664
30
0
41
1
10
55.893316289561
20
10.1760345217156
30
0
41
1
10
56.0027388179361
20
10.419657001333
30
0
41
1
10
56.0574500821236
20
10.5248607573791
30
0
41
1
10
56.1668726104986
20
10.7028120467952
30
0
41
1
10
56.2215838746861
20
10.7755644921881
30
0
41
1
10
56.3857176672485
20
10.9474473720182
30
0
41
1
10
56.4951401956234
20
11
30
0
41
1
10
56.6045627239985
20
11
30
0
0
SPLINE
5
FD
100
AcDbEntity
8
1
62
256
6
ByLayer
370
13
48
1
60
0
100
AcDbSpline
70
4
71
3
72
14
73
10
40
0
40
0
40
0
40
0
40
0.25
40
0.25
40
0.5
40
0.5
40
0.75
40
0.75
40
1
40
1
40
1
40
1
41
1
10
55.9353055276088
20
11
30
0
41
1
10
56.0320573522308
20
11
30
0
41
1
10
56.1288091768527
20
10.958966144931
30
0
41
1
10
56.3223128260965
20
10.7814229844098
30
0
41
1
10
56.4190646507184
20
10.6448159846816
30
0
41
1
10
56.6125682999622
20
10.2681126137161
30
0
41
1
10
56.7093201245842
20
10.0279436313365
30
0
41
1
10
56.9028237738279
20
9.44436174903763
30
0
41
1
10
56.9995755984499
20
9.10093309884772
30
0
41
1
10
57.0963274230717
20
8.71085565911147
30
0
0
SPLINE
5
FE
100
AcDbEntity
8
1
62
256
6
ByLayer
370
13
48
1
60
0
100
AcDbSpline
70
4
71
3
72
118
73
114
40
0
40
0
40
0
40
0
40
0.015625
40
0.015625
40
0.0312500000000001
40
0.0312500000000001
40
0.0468750000000001
40
0.0468750000000001
40
0.0625000000000001
40
0.0625000000000001
40
0.0781250000000001
40
0.0781250000000001
40
0.0937500000000002
40
0.0937500000000002
40
0.125
40
0.125
40
0.15625
40
0.15625
40
0.171875
40
0.171875
40
0.17578125
40
0.17578125
40
0.1796875
40
0.1796875
40
0.1875
40
0.1875
40
0.21875
40
0.21875
40
0.25
40
0.25
40
0.265624999999999
40
0.265624999999999
40
0.281249999999999
40
0.281249999999999
40
0.296874999999999
40
0.296874999999999
40
0.312499999999999
40
0.312499999999999
40
0.328124999999999
40
0.328124999999999
40
0.343749999999999
40
0.343749999999999
40
0.359374999999999
40
0.359374999999999
40
0.374999999999999
40
0.374999999999999
40
0.406249999999999
40
0.406249999999999
40
0.437499999999999
40
0.437499999999999
40
0.445312499999999
40
0.445312499999999
40
0.449218749999999
40
0.449218749999999
40
0.453124999999999
40
0.453124999999999
40
0.468749999999999
40
0.468749999999999
40
0.499999999999999
40
0.499999999999999
40
0.531249999999999
40
0.531249999999999
40
0.546874999999999
40
0.546874999999999
40
0.562499999999999
40
0.562499999999999
40
0.578124999999999
40
0.578124999999999
40
0.593749999999999
40
0.593749999999999
40
0.609375
40
0.609375
40
0.625
40
0.625
40
0.640625
40
0.640625
40
0.65625
40
0.65625
40
0.6875
40
0.6875
40
0.71875
40
0.71875
40
0.72265625
40
0.72265625
40
0.7265625
40
0.7265625
40
0.734375
40
0.734375
40
0.75
40
0.75
40
0.78125
40
0.78125
40
0.8125
40
0.8125
40
0.828125
40
0.828125
40
0.84375
40
0.84375
40
0.859375
40
0.859375
40
0.875
40
0.875
40
0.890625
40
0.890625
40
0.90625
40
0.90625
40
0.921875
40
0.921875
40
0.9375
40
0.9375
40
0.96875
40
0.96875
40
1
40
1
40
1
40
1
41
1
10
46.1
20
9.37305225350016
30
0
41
1
10
46.1521499868496
20
9.19457722212221
30
0
41
1
10
46.204299973699
20
9.00157918225457
30
0
41
1
10
46.3085999473981
20
8.58833952258263
30
0
41
1
10
46.3607499342476
20
8.36810027999155
30
0
41
1
10
46.4650499079467
20
7.90296144003045
30
0
41
1
10
46.5171998947962
20
7.6580659220688
30
0
41
1
10
46.6214998684953
20
7.14687986479612
30
0
41
1
10
46.6736498553448
20
6.88059475612749
30
0
41
1
10
46.7779498290438
20
6.33043274599896
30
0
41
1
10
46.8300998158934
20
6.04656211113749
30
0
41
1
10
46.9343997895924
20
5.46539257687812
30
0
41
1
10
46.9865497764419
20
5.16810018274217
30
0
41
1
10
47.1429997369905
20
4.26257542601141
30
0
41
1
10
47.2472997106895
20
3.64081389921216
30
0
41
1
10
47.4558996580877
20
2.39473902216128
30
0
41
1
10
47.5601996317867
20
1.77055787478977
30
0
41
1
10
47.7166495923353
20
0.853775104692886
30
0
41
1
10
47.7687995791848
20
0.551374092978961
30
0
41
1
10
47.8339870627467
20
0.179112261431499
30
0
41
1
10
47.8470245594591
20
0.104945568180796
30
0
41
1
10
47.8730995528839
20
-0.04277800544304
30
0
41
1
10
47.8861370495962
20
-0.116641040056237
30
0
41
1
10
47.9252495397334
20
-0.339512471864765
30
0
41
1
10
47.9513245331582
20
-0.489259190434382
30
0
41
1
10
48.081699500282
20
-1.24300094694513
30
0
41
1
10
48.1859994739811
20
-1.86233045963723
30
0
41
1
10
48.3945994213792
20
-3.10751603334444
30
0
41
1
10
48.4988993950782
20
-3.73326342847705
30
0
41
1
10
48.6553493556268
20
-4.65223661769457
30
0
41
1
10
48.7074993424763
20
-4.95524631970127
30
0
41
1
10
48.8117993161754
20
-5.55031121194352
30
0
41
1
10
48.8639493030248
20
-5.84236002725291
30
0
41
1
10
48.968249276724
20
-6.41122091031869
30
0
41
1
10
49.0203992635734
20
-6.68802650084598
30
0
41
1
10
49.1246992372725
20
-7.22236804354745
30
0
41
1
10
49.176849224122
20
-7.47989801789831
30
0
41
1
10
49.2811491978211
20
-7.9720939793545
30
0
41
1
10
49.3332991846706
20
-8.20675506144607
30
0
41
1
10
49.4375991583697
20
-8.65022284155998
30
0
41
1
10
49.4897491452192
20
-8.85902616064922
30
0
41
1
10
49.5940491189182
20
-9.24851784543048
30
0
41
1
10
49.6461991057677
20
-9.42920462065882
30
0
41
1
10
49.7504990794668
20
-9.7610078357088
30
0
41
1
10
49.8026490663163
20
-9.91212451192675
30
0
41
1
10
49.9590990268649
20
-10.3201741122309
30
0
41
1
10
50.0633990005639
20
-10.5314548074316
30
0
41
1
10
50.271998947962
20
-10.8366708155234
30
0
41
1
10
50.3762989216611
20
-10.9307344028267
30
0
41
1
10
50.5066738887849
20
-10.9837174890836
30
0
41
1
10
50.5327488822096
20
-10.9911020568058
30
0
41
1
10
50.5718613723468
20
-10.9975684639428
30
0
41
1
10
50.5848988690592
20
-10.9989556769189
30
0
41
1
10
50.610973862484
20
-11.0002298373829
30
0
41
1
10
50.6240113591963
20
-11.0001219922269
30
0
41
1
10
50.6891988427582
20
-10.9958381025085
30
0
41
1
10
50.7413488296077
20
-10.9803543500588
30
0
41
1
10
50.8977987901563
20
-10.8944316272444
30
0
41
1
10
51.0020987638554
20
-10.7842518612415
30
0
41
1
10
51.2106987112535
20
-10.4454894191118
30
0
41
1
10
51.3149986849525
20
-10.2167849919132
30
0
41
1
10
51.4714486455011
20
-9.78286945284623
30
0
41
1
10
51.5235986323507
20
-9.62317935375938
30
0
41
1
10
51.6278986060497
20
-9.27456077326991
30
0
41
1
10
51.6800485928991
20
-9.08563256978309
30
0
41
1
10
51.7843485665982
20
-8.68022470998929
30
0
41
1
10
51.8364985534478
20
-8.46374717054448
30
0
41
1
10
51.9407985271469
20
-8.00571692917305
30
0
41
1
10
51.9929485139964
20
-7.76416807965162
30
0
41
1
10
52.0972484876954
20
-7.25917070425933
30
0
41
1
10
52.149398474545
20
-6.99572744400032
30
0
41
1
10
52.2536984482439
20
-6.45067770138712
30
0
41
1
10
52.3058484350935
20
-6.16907740161813
30
0
41
1
10
52.4101484087926
20
-5.59183720554472
30
0
41
1
10
52.4622983956421
20
-5.2962038175086
30
0
41
1
10
52.5665983693411
20
-4.69521552078399
30
0
41
1
10
52.6187483561907
20
-4.38986685359887
30
0
41
1
10
52.7751983167393
20
-3.46571708163677
30
0
41
1
10
52.8794982904383
20
-2.83899104916784
30
0
41
1
10
53.0880982378364
20
-1.59610014505958
30
0
41
1
10
53.1923982115354
20
-0.980031797805225
30
0
41
1
10
53.3097356819469
20
-0.30707350365077
30
0
41
1
10
53.3227731786592
20
-0.232574535137445
30
0
41
1
10
53.348848172084
20
-0.0841646238577596
30
0
41
1
10
53.3618856687964
20
-0.0104545861534575
30
0
41
1
10
53.4009981589335
20
0.211396932736392
30
0
41
1
10
53.4270731523583
20
0.3605076408559
30
0
41
1
10
53.5052981326326
20
0.81099091143895
30
0
41
1
10
53.5574481194821
20
1.11553086280958
30
0
41
1
10
53.7138980800307
20
2.03738325096217
30
0
41
1
10
53.8181980537298
20
2.66313380812213
30
0
41
1
10
54.0267980011279
20
3.90773739526341
30
0
41
1
10
54.1310979748269
20
4.52644695864788
30
0
41
1
10
54.2875479353755
20
5.42362022332628
30
0
41
1
10
54.339697922225
20
5.71750564473271
30
0
41
1
10
54.443997895924
20
6.29064254948798
30
0
41
1
10
54.4961478827736
20
6.56988753387341
30
0
41
1
10
54.6004478564726
20
7.10966300338063
30
0
41
1
10
54.6525978433222
20
7.37018740223056
30
0
41
1
10
54.7568978170212
20
7.86885362476119
30
0
41
1
10
54.8090478038707
20
8.1069903581834
30
0
41
1
10
54.9133477775697
20
8.55779552672459
30
0
41
1
10
54.9654977644193
20
8.77046034313577
30
0
41
1
10
55.0697977381183
20
9.16795065527458
30
0
41
1
10
55.1219477249679
20
9.35277429661625
30
0
41
1
10
55.226247698667
20
9.69300897595213
30
0
41
1
10
55.2783976855165
20
9.84841999473096
30
0
41
1
10
55.3826976592155
20
10.1290820491705
30
0
41
1
10
55.4348476460651
20
10.2543347540189
30
0
41
1
10
55.5912976066136
20
10.584932405147
30
0
41
1
10
55.6955975803127
20
10.744815260235
30
0
41
1
10
55.9041975277108
20
10.9522786724207
30
0
41
1
10
56.0084975014099
20
11
30
0
41
1
10
56.1127974751088
20
11
30
0
0
SPLINE
5
FF
100
AcDbEntity
8
1
62
256
6
ByLayer
370
13
48
1
60
0
100
AcDbSpline
70
4
71
3
72
22
73
18
40
0
40
0
40
0
40
0
40
0.125
40
0.125
40
0.25
40
0.25
40
0.375
40
0.375
40
0.5
40
0.5
40
0.625
40
0.625
40
0.75
40
0.75
40
0.875
40
0.875
40
1
40
1
40
1
40
1
41
1
10
55.4435402787192
20
11
30
0
41
1
10
55.5124064097339
20
11
30
0
41
1
10
55.5812725407487
20
10.9792542893611
30
0
41
1
10
55.719004802778
20
10.8912207903281
30
0
41
1
10
55.7878709337926
20
10.8239148152625
30
0
41
1
10
55.925603195822
20
10.6388909956477
30
0
41
1
10
55.9944693268367
20
10.5211563411064
30
0
41
1
10
56.1322015888661
20
10.2331560114807
30
0
41
1
10
56.2010677198808
20
10.0628780262373
30
0
41
1
10
56.3387999819102
20
9.66987174185959
30
0
41
1
10
56.4076661129249
20
9.44713858832529
30
0
41
1
10
56.5453983749542
20
8.95177091753095
30
0
41
1
10
56.6142645059689
20
8.67914090492545
30
0
41
1
10
56.7519967679983
20
8.08900790647002
30
0
41
1
10
56.820862899013
20
7.77151889941456
30
0
41
1
10
56.9585951610424
20
7.09889695687795
30
0
41
1
10
57.0274612920571
20
6.74378556225957
30
0
41
1
10
57.0963274230717
20
6.37429599246045
30
0
0
SPLINE
5
100
100
AcDbEntity
8
1
62
256
6
ByLayer
370
13
48
1
60
0
100
AcDbSpline
70
4
71
3
72
85
73
81
40
0
40
0
40
0
40
0
40
0.0312499999999996
40
0.0312499999999996
40
0.0624999999999993
40
0.0624999999999993
40
0.0937499999999989
40
0.0937499999999989
40
0.124999999999999
40
0.124999999999999
40
0.132812499999999
40
0.132812499999999
40
0.136718749999999
40
0.136718749999999
40
0.140624999999999
40
0.140624999999999
40
0.156249999999999
40
0.156249999999999
40
0.187499999999999
40
0.187499999999999
40
0.218749999999999
40
0.218749999999999
40
0.249999999999999
40
0.249999999999999
40
0.281249999999999
40
0.281249999999999
40
0.3125
40
0.3125
40
0.34375
40
0.34375
40
0.375
40
0.375
40
0.40625
40
0.40625
40
0.421875
40
0.421875
40
0.42578125
40
0.42578125
40
0.4296875
40
0.4375
40
0.4375
40
0.46875
40
0.46875
40
0.5
40
0.5
40
0.53125
40
0.53125
40
0.5625
40
0.5625
40
0.59375
40
0.59375
40
0.625
40
0.625
40
0.65625
40
0.65625
40
0.6875
40
0.6875
40
0.703125
40
0.703125
40
0.7109375
40
0.7109375
40
0.71875
40
0.71875
40
0.75
40
0.75
40
0.78125
40
0.78125
40
0.8125
40
0.8125
40
0.84375
40
0.84375
40
0.875
40
0.875
40
0.90625
40
0.90625
40
0.9375
40
0.9375
40
0.96875
40
0.96875
40
1
40
1
40
1
40
1
41
1
10
46.1
20
7.29196062247385
30
0
41
1
10
46.1991774190232
20
6.80013453103501
30
0
41
1
10
46.2983548380462
20
6.27043283858191
30
0
41
1
10
46.4967096760925
20
5.1628996465594
30
0
41
1
10
46.5958870951156
20
4.58522807583196
30
0
41
1
10
46.7942419331618
20
3.41175725183683
30
0
41
1
10
46.8934193521849
20
2.81609072296055
30
0
41
1
10
47.0917741902312
20
1.63416510722576
30
0
41
1
10
47.1909516092543
20
1.04798133551583
30
0
41
1
10
47.3149233830332
20
0.334791399518849
30
0
41
1
10
47.339717737789
20
0.193114184936007
30
0
41
1
10
47.3769092699226
20
-0.0177560867394391
30
0
41
1
10
47.3893064473005
20
-0.0878773538918267
30
0
41
1
10
47.4141008020563
20
-0.228998653115582
30
0
41
1
10
47.4264979794342
20
-0.299825131733996
30
0
41
1
10
47.4884838663237
20
-0.65520150008166
30
0
41
1
10
47.5380725758352
20
-0.943500212878263
30
0
41
1
10
47.6868387043698
20
-1.8167098566262
30
0
41
1
10
47.786016123393
20
-2.41011266806012
30
0
41
1
10
47.9843709614392
20
-3.59503045165297
30
0
41
1
10
48.0835483804624
20
-4.18644308642794
30
0
41
1
10
48.2819032185086
20
-5.33836375528227
30
0
41
1
10
48.3810806375317
20
-5.89872187461719
30
0
41
1
10
48.579435475578
20
-6.95886298706193
30
0
41
1
10
48.678612894601
20
-7.4584894337209
30
0
41
1
10
48.8769677326473
20
-8.37161970742591
30
0
41
1
10
48.9761451516704
20
-8.78501171494059
30
0
41
1
10
49.1744999897167
20
-9.5084696821807
30
0
41
1
10
49.2736774087398
20
-9.818503481156
30
0
41
1
10
49.472032246786
20
-10.3286523198331
30
0
41
1
10
49.5712096658091
20
-10.5288155701049
30
0
41
1
10
49.7695645038553
20
-10.822968955721
30
0
41
1
10
49.8687419228785
20
-10.9170584405833
30
0
41
1
10
50.0175080514131
20
-10.9873662793192
30
0
41
1
10
50.0670967609247
20
-10.9990499706834
30
0
41
1
10
50.1290826478141
20
-11.0001678601806
30
0
41
1
10
50.141479825192
20
-10.9997213521347
30
0
41
1
10
50.1662741799478
20
-10.9974612056092
30
0
41
1
10
50.2034657120815
20
-10.9920183287151
30
0
41
1
10
50.2406572442152
20
-10.9802767987647
30
0
41
1
10
50.364629017994
20
-10.9265515391375
30
0
41
1
10
50.4638064370171
20
-10.8366601805307
30
0
41
1
10
50.6621612750634
20
-10.5512555880515
30
0
41
1
10
50.7613386940865
20
-10.3556417376224
30
0
41
1
10
50.9596935321328
20
-9.85455766239676
30
0
41
1
10
51.0588709511559
20
-9.54903637267955
30
0
41
1
10
51.2572257892021
20
-8.83411849218894
30
0
41
1
10
51.3564032082253
20
-8.42475048258808
30
0
41
1
10
51.5547580462714
20
-7.51876880868815
30
0
41
1
10
51.6539354652946
20
-7.02226414562207
30
0
41
1
10
51.8522903033408
20
-5.96719107922681
30
0
41
1
10
51.9514677223639
20
-5.40877836588527
30
0
41
1
10
52.1498225604101
20
-4.25949417241699
30
0
41
1
10
52.2489999794332
20
-3.66877385026285
30
0
41
1
10
52.4473548174795
20
-2.48409842516404
30
0
41
1
10
52.5465322365026
20
-1.89024812349177
30
0
41
1
10
52.6952983650373
20
-1.01569302039243
30
0
41
1
10
52.7448870745488
20
-0.726834217274643
30
0
41
1
10
52.8192701388162
20
-0.299401824457647
30
0
41
1
10
52.844064493572
20
-0.157896984332439
30
0
41
1
10
52.8936532030835
20
0.122897216655843
30
0
41
1
10
52.9184475578393
20
0.264054486768941
30
0
41
1
10
53.0424193316182
20
0.975629382091455
30
0
41
1
10
53.1415967506413
20
1.56090072259585
30
0
41
1
10
53.3399515886875
20
2.74203344531793
30
0
41
1
10
53.4391290077107
20
3.33782213182701
30
0
41
1
10
53.6374838457569
20
4.51275499740535
30
0
41
1
10
53.73666126478
20
5.09176842823695
30
0
41
1
10
53.9350161028263
20
6.20322399390312
30
0
41
1
10
54.0341935218494
20
6.7355064068964
30
0
41
1
10
54.2325483598957
20
7.72537801862441
30
0
41
1
10
54.3317257789187
20
8.18282796955583
30
0
41
1
10
54.5300806169649
20
9.00140351411952
30
0
41
1
10
54.6292580359881
20
9.36245640474397
30
0
41
1
10
54.8276128740343
20
9.97643737210637
30
0
41
1
10
54.9267902930574
20
10.229377311211
30
0
41
1
10
55.1251451311037
20
10.6261105044173
30
0
41
1
10
55.2243225501267
20
10.7699834137112
30
0
41
1
10
55.422677388173
20
10.9568730453622
30
0
41
1
10
55.5218548071961
20
11
30
0
41
1
10
55.6210322262193
20
11
30
0
0
SPLINE
5
101
100
AcDbEntity
8
1
62
256
6
ByLayer
370
13
48
1
60
0
100
AcDbSpline
70
4
71
3
72
22
73
18
40
0
40
0
40
0
40
0
40
0.125
40
0.125
40
0.25
40
0.25
40
0.375
40
0.375
40
0.5
40
0.5
40
0.625
40
0.625
40
0.75
40
0.75
40
0.875
40
0.875
40
1
40
1
40
1
40
1
41
1
10
54.9517750298296
20
11
30
0
41
1
10
55.041131379548
20
11
30
0
41
1
10
55.1304877292665
20
10.9650221363999
30
0
41
1
10
55.3092004287033
20
10.8144178186336
30
0
41
1
10
55.3985567784217
20
10.6987252014311
30
0
41
1
10
55.5772694778585
20
10.3797714500266
30
0
41
1
10
55.666625827577
20
10.1764573058292
30
0
41
1
10
55.8453385270138
20
9.68109698976735
30
0
41
1
10
55.9346948767322
20
9.38902984191327
30
0
41
1
10
56.1134075761691
20
8.72193734609527
30
0
41
1
10
56.2027639258875
20
8.34693535747579
30
0
41
1
10
56.3814766253244
20
7.52668525084817
30
0
41
1
10
56.4708329750428
20
7.08150307666446
30
0
41
1
10
56.6495456744797
20
6.13918073859119
30
0
41
1
10
56.7389020241981
20
5.64213226065695
30
0
41
1
10
56.9176147236349
20
4.61749943745085
30
0
41
1
10
57.0069710733533
20
4.09000766149694
30
0
41
1
10
57.0963274230717
20
3.5580947171982
30
0
0
SPLINE
5
102
100
AcDbEntity
8
1
62
256
6
ByLayer
370
13
48
1
60
0
100
AcDbSpline
70
4
71
3
72
84
73
80
40
0
40
0
40
0
40
0
40
0.0312500000000003
40
0.0312500000000003
40
0.0625000000000006
40
0.0625000000000006
40
0.0781250000000008
40
0.0781250000000008
40
0.0859375000000009
40
0.0859375000000009
40
0.089843750000001
40
0.089843750000001
40
0.093750000000001
40
0.093750000000001
40
0.125000000000001
40
0.125000000000001
40
0.156250000000001
40
0.156250000000001
40
0.1875
40
0.1875
40
0.21875
40
0.21875
40
0.25
40
0.25
40
0.28125
40
0.28125
40
0.3125
40
0.3125
40
0.34375
40
0.34375
40
0.375
40
0.375
40
0.390625
40
0.390625
40
0.398437499999999
40
0.398437499999999
40
0.406249999999999
40
0.406249999999999
40
0.437499999999999
40
0.437499999999999
40
0.468749999999999
40
0.468749999999999
40
0.499999999999999
40
0.499999999999999
40
0.531249999999998
40
0.531249999999998
40
0.562499999999998
40
0.562499999999998
40
0.593749999999998
40
0.593749999999998
40
0.624999999999997
40
0.624999999999997
40
0.656249999999997
40
0.656249999999997
40
0.687499999999997
40
0.687499999999997
40
0.695312499999997
40
0.695312499999997
40
0.703124999999997
40
0.703124999999997
40
0.718749999999997
40
0.718749999999997
40
0.749999999999997
40
0.749999999999997
40
0.781249999999998
40
0.781249999999998
40
0.812499999999998
40
0.812499999999998
40
0.843749999999998
40
0.843749999999998
40
0.874999999999999
40
0.874999999999999
40
0.906249999999999
40
0.906249999999999
40
0.937499999999999
40
0.937499999999999
40
0.96875
40
0.96875
40
1
40
1
40
1
40
1
41
1
10
46.1
20
4.60571131295964
30
0
41
1
10
46.1940548643472
20
4.05694685131812
30
0
41
1
10
46.2881097286944
20
3.49549550039311
30
0
41
1
10
46.4762194573887
20
2.37164466507809
30
0
41
1
10
46.5702743217359
20
1.80932194724792
30
0
41
1
10
46.7113566182567
20
0.980814409333362
30
0
41
1
10
46.7583840504303
20
0.707105049051648
30
0
41
1
10
46.8289251986907
20
0.301814027860331
30
0
41
1
10
46.8524389147775
20
0.1675931465453
30
0
41
1
10
46.8877094889076
20
-0.0322508731868538
30
0
41
1
10
46.899466346951
20
-0.0988182213445725
30
0
41
1
10
46.9229800630378
20
-0.232685336444433
30
0
41
1
10
46.9347369210813
20
-0.299857448997614
30
0
41
1
10
47.0405486434718
20
-0.906422642756638
30
0
41
1
10
47.134603507819
20
-1.4601531389261
30
0
41
1
10
47.3227132365133
20
-2.57872935874977
30
0
41
1
10
47.4167681008606
20
-3.14352293004467
30
0
41
1
10
47.6048778295549
20
-4.26140060337366
30
0
41
1
10
47.6989326939021
20
-4.81438915290616
30
0
41
1
10
47.8870424225965
20
-5.88326386324971
30
0
41
1
10
47.9810972869437
20
-6.39902876643666
30
0
41
1
10
48.1692070156381
20
-7.36883443805283
30
0
41
1
10
48.2632618799852
20
-7.82276102241551
30
0
41
1
10
48.4513716086796
20
-8.64870766999999
30
0
41
1
10
48.5454264730267
20
-9.02065492772425
30
0
41
1
10
48.7335362017211
20
-9.66983017259102
30
0
41
1
10
48.8275910660684
20
-9.9470459049316
30
0
41
1
10
49.0157007947628
20
-10.402644175165
30
0
41
1
10
49.1097556591099
20
-10.5810708403466
30
0
41
1
10
49.2978653878043
20
-10.843159936899
30
0
41
1
10
49.3919202521515
20
-10.9269006501996
30
0
41
1
10
49.5330025486722
20
-10.9891775023579
30
0
41
1
10
49.5800299808458
20
-10.999421567494
30
0
41
1
10
49.6505711291062
20
-11.0002534475848
30
0
41
1
10
49.674084845193
20
-10.9981209373153
30
0
41
1
10
49.7211122773666
20
-10.9888271007233
30
0
41
1
10
49.7446259934534
20
-10.9816650171756
30
0
41
1
10
49.8621945738874
20
-10.9327742804712
30
0
41
1
10
49.9562494382345
20
-10.8516203169814
30
0
41
1
10
50.1443591669289
20
-10.5949262845757
30
0
41
1
10
50.2384140312761
20
-10.4193073639435
30
0
41
1
10
50.4265237599705
20
-9.96933656368759
30
0
41
1
10
50.5205786243176
20
-9.69493921080752
30
0
41
1
10
50.708688353012
20
-9.05116341453353
30
0
41
1
10
50.8027432173592
20
-8.681795440256
30
0
41
1
10
50.9908529460535
20
-7.86052973624379
30
0
41
1
10
51.0849078104007
20
-7.4087032376423
30
0
41
1
10
51.2730175390951
20
-6.44244186166961
30
0
41
1
10
51.3670724034423
20
-5.9281204235798
30
0
41
1
10
51.5551821321367
20
-4.86139750299839
30
0
41
1
10
51.6492369964838
20
-4.30911757934174
30
0
41
1
10
51.8373467251782
20
-3.19194873529912
30
0
41
1
10
51.9314015895254
20
-2.6271564411206
30
0
41
1
10
52.1195113182197
20
-1.50798498609868
30
0
41
1
10
52.2135661825669
20
-0.953659295164641
30
0
41
1
10
52.3311347630009
20
-0.278678211255851
30
0
41
1
10
52.3546484790877
20
-0.144565040800302
30
0
41
1
10
52.4016759112613
20
0.121665668326329
30
0
41
1
10
52.4251896273481
20
0.255560596864086
30
0
41
1
10
52.4957307756084
20
0.660244501234217
30
0
41
1
10
52.5427582077821
20
0.933604371671692
30
0
41
1
10
52.6838405043029
20
1.76125914212344
30
0
41
1
10
52.77789536865
20
2.32327583837491
30
0
41
1
10
52.9660050973444
20
3.44717510805234
30
0
41
1
10
53.0600599616916
20
4.00898217546305
30
0
41
1
10
53.248169690386
20
5.10795566728237
30
0
41
1
10
53.3422245547331
20
5.64500994896738
30
0
41
1
10
53.5303342834275
20
6.66902008915511
30
0
41
1
10
53.6243891477747
20
7.15585372653209
30
0
41
1
10
53.812498876469
20
8.05664734370964
30
0
41
1
10
53.9065537408163
20
8.470510749856
30
0
41
1
10
54.0946634695105
20
9.20869271654453
30
0
41
1
10
54.1887183338578
20
9.53296866243772
30
0
41
1
10
54.3768280625521
20
10.0835904300953
30
0
41
1
10
54.4708829268994
20
10.3099549208991
30
0
41
1
10
54.6589926555938
20
10.6650188228531
30
0
41
1
10
54.7530475199409
20
10.793783342029
30
0
41
1
10
54.9411572486353
20
10.9612313898897
30
0
41
1
10
55.0352121129824
20
11
30
0
41
1
10
55.1292669773296
20
11
30
0
0
SPLINE
5
103
100
AcDbEntity
8
1
62
256
6
ByLayer
370
13
48
1
60
0
100
AcDbSpline
70
4
71
3
72
36
73
32
40
0
40
0
40
0
40
0
40
0.125
40
0.125
40
0.1875
40
0.1875
40
0.25
40
0.25
40
0.3125
40
0.3125
40
0.375
40
0.375
40
0.4375
40
0.4375
40
0.5
40
0.5
40
0.5625
40
0.5625
40
0.625
40
0.625
40
0.6875
40
0.6875
40
0.75
40
0.75
40
0.8125
40
0.8125
40
0.875
40
0.875
40
0.9375
40
0.9375
40
1
40
1
40
1
40
1
41
1
10
54.46000978094
20
11
30
0
41
1
10
54.5698563493622
20
11
30
0
41
1
10
54.6797029177843
20
10.9470367939834
30
0
41
1
10
54.8444727704175
20
10.7737673403624
30
0
41
1
10
54.8993960546286
20
10.7004251172508
30
0
41
1
10
55.0092426230507
20
10.5210280955523
30
0
41
1
10
55.0641659072619
20
10.4149683016241
30
0
41
1
10
55.174012475684
20
10.1693701420817
30
0
41
1
10
55.228935759895
20
10.0298281784678
30
0
41
1
10
55.3387823283172
20
9.71741771439818
30
0
41
1
10
55.3937056125283
20
9.54454760206912
30
0
41
1
10
55.5035521809505
20
9.16663122953494
30
0
41
1
10
55.5584754651616
20
8.96158574560545
30
0
41
1
10
55.6683220335837
20
8.5214812386404
30
0
41
1
10
55.7232453177947
20
8.28642549487961
30
0
41
1
10
55.8330918862169
20
7.7894145955386
30
0
41
1
10
55.888015170428
20
7.5274649992727
30
0
41
1
10
55.9978617388502
20
6.98059825838882
30
0
41
1
10
56.0527850230612
20
6.69568841147256
30
0
41
1
10
56.1626315914834
20
6.10745552118652
30
0
41
1
10
56.2175548756945
20
5.80414074237441
30
0
41
1
10
56.3274014441167
20
5.18403821962031
30
0
41
1
10
56.3823247283277
20
4.86725884244487
30
0
41
1
10
56.4921712967499
20
4.22530036913219
30
0
41
1
10
56.547094580961
20
3.90012893284012
30
0
41
1
10
56.6569411493831
20
3.24634916034322
30
0
41
1
10
56.7118644335942
20
2.91774714663293
30
0
41
1
10
56.8217110020163
20
2.26174662596574
30
0
41
1
10
56.8766342862274
20
1.93435272427223
30
0
41
1
10
56.9864808546496
20
1.2849212726579
30
0
41
1
10
57.0414041388607
20
0.962886494216235
30
0
41
1
10
57.0963274230717
20
0.645307098168672
30
0
0
SPLINE
5
104
100
AcDbEntity
8
1
62
256
6
ByLayer
370
13
48
1
60
0
100
AcDbSpline
70
4
71
3
72
85
73
81
40
0
40
0
40
0
40
0
40
0.0312499999999999
40
0.0312499999999999
40
0.0351562499999999
40
0.0351562499999999
40
0.0390624999999998
40
0.0468749999999998
40
0.0468749999999998
40
0.0624999999999994
40
0.0624999999999994
40
0.0937499999999988
40
0.0937499999999988
40
0.124999999999998
40
0.124999999999998
40
0.156249999999997
40
0.156249999999997
40
0.187499999999997
40
0.187499999999997
40
0.218749999999996
40
0.218749999999996
40
0.249999999999995
40
0.249999999999995
40
0.281249999999995
40
0.281249999999995
40
0.312499999999994
40
0.312499999999994
40
0.343749999999993
40
0.343749999999993
40
0.351562499999993
40
0.351562499999993
40
0.359374999999993
40
0.359374999999993
40
0.374999999999993
40
0.374999999999993
40
0.406249999999993
40
0.406249999999993
40
0.437499999999993
40
0.437499999999993
40
0.468749999999993
40
0.468749999999993
40
0.499999999999993
40
0.499999999999993
40
0.531249999999993
40
0.531249999999993
40
0.562499999999993
40
0.562499999999993
40
0.593749999999993
40
0.593749999999993
40
0.624999999999993
40
0.624999999999993
40
0.656249999999993
40
0.656249999999993
40
0.671874999999993
40
0.671874999999993
40
0.675781249999993
40
0.675781249999993
40
0.679687499999993
40
0.679687499999993
40
0.687499999999994
40
0.687499999999994
40
0.718749999999994
40
0.718749999999994
40
0.749999999999995
40
0.749999999999995
40
0.781249999999996
40
0.781249999999996
40
0.812499999999996
40
0.812499999999996
40
0.843749999999997
40
0.843749999999997
40
0.874999999999998
40
0.874999999999998
40
0.906249999999998
40
0.906249999999998
40
0.937499999999999
40
0.937499999999999
40
0.968749999999999
40
0.968749999999999
40
1
40
1
40
1
40
1
41
1
10
46.1
20
1.68489876115845
30
0
41
1
10
46.1889323096713
20
1.15847080854371
30
0
41
1
10
46.2778646193424
20
0.63879223046095
30
0
41
1
10
46.3779134677226
20
0.0698631973933175
30
0
41
1
10
46.3890300064316
20
0.0070113773036837
30
0
41
1
10
46.4112630838494
20
-0.119063018168816
30
0
41
1
10
46.4446126999761
20
-0.308834703226381
30
0
41
1
10
46.4779623161028
20
-0.500481067614402
30
0
41
1
10
46.5446615483563
20
-0.885966774756213
30
0
41
1
10
46.5891277031919
20
-1.14588976514025
30
0
41
1
10
46.7225261676987
20
-1.93168783845914
30
0
41
1
10
46.81145847737
20
-2.46370518215267
30
0
41
1
10
46.9893230967125
20
-3.52623756988581
30
0
41
1
10
47.0782554063837
20
-4.0566933571167
30
0
41
1
10
47.2561200257263
20
-5.0953108105486
30
0
41
1
10
47.3450523353975
20
-5.60338740923075
30
0
41
1
10
47.52291695474
20
-6.5757254264274
30
0
41
1
10
47.6118492644113
20
-7.03989410896708
30
0
41
1
10
47.7897138837538
20
-7.90491333101923
30
0
41
1
10
47.878646193425
20
-8.30568771786486
30
0
41
1
10
48.0565108127675
20
-9.0290621854831
30
0
41
1
10
48.1454431224388
20
-9.35162296938898
30
0
41
1
10
48.3233077417812
20
-9.9101621149459
30
0
41
1
10
48.4122400514525
20
-10.1461454770971
30
0
41
1
10
48.590104670795
20
-10.5300982720229
30
0
41
1
10
48.6790369804663
20
-10.6781095932066
30
0
41
1
10
48.8569015998088
20
-10.8909189171887
30
0
41
1
10
48.94583390948
20
-10.9557788105754
30
0
41
1
10
49.0569992965691
20
-10.9907239185743
30
0
41
1
10
49.0792323739868
20
-10.9954149594234
30
0
41
1
10
49.1236985288226
20
-11.00037615506
30
0
41
1
10
49.1459316062404
20
-11.0006658886075
30
0
41
1
10
49.2126308384937
20
-10.9950175307912
30
0
41
1
10
49.2570969933294
20
-10.9824541307832
30
0
41
1
10
49.3904954578362
20
-10.9163136412116
30
0
41
1
10
49.4794277675075
20
-10.8341539264792
30
0
41
1
10
49.65729238685
20
-10.5852473968769
30
0
41
1
10
49.7462246965212
20
-10.4184414053378
30
0
41
1
10
49.9240893158637
20
-9.9966246436336
30
0
41
1
10
50.013021625535
20
-9.74157872513825
30
0
41
1
10
50.1908862448775
20
-9.14611886085817
30
0
41
1
10
50.2798185545488
20
-8.80570932829815
30
0
41
1
10
50.4576831738913
20
-8.0493273959768
30
0
41
1
10
50.5466154835625
20
-7.63340341651315
30
0
41
1
10
50.724480102905
20
-6.74197669032955
30
0
41
1
10
50.8134124125762
20
-6.26655569969344
30
0
41
1
10
50.9912770319187
20
-5.2762896810857
30
0
41
1
10
51.08020934159
20
-4.76153771356451
30
0
41
1
10
51.2580739609325
20
-3.71422072408726
30
0
41
1
10
51.3470062706038
20
-3.18173637026322
30
0
41
1
10
51.5248708899463
20
-2.11932768833313
30
0
41
1
10
51.6138031996175
20
-1.58945575448391
30
0
41
1
10
51.7472016641243
20
-0.809383907400985
30
0
41
1
10
51.79166781896
20
-0.551785517112876
30
0
41
1
10
51.8472505125045
20
-0.233898021054927
30
0
41
1
10
51.8583670512134
20
-0.170525359427671
30
0
41
1
10
51.8806001286313
20
-0.0442139104236219
30
0
41
1
10
51.8917166673401
20
0.0185889943332711
30
0
41
1
10
51.9250662834669
20
0.207879025783996
30
0
41
1
10
51.9472993608847
20
0.334947077473089
30
0
41
1
10
52.0584647479737
20
0.974168729006522
30
0
41
1
10
52.147397057645
20
1.49813590854342
30
0
41
1
10
52.3252616769875
20
2.55588122027407
30
0
41
1
10
52.4141939866587
20
3.08961978399671
30
0
41
1
10
52.5920586060013
20
4.14769091340193
30
0
41
1
10
52.6809909156725
20
4.67195263833423
30
0
41
1
10
52.858855535015
20
5.68968773263114
30
0
41
1
10
52.9477878446863
20
6.1830703391245
30
0
41
1
10
53.1256524640288
20
7.11797962372435
30
0
41
1
10
53.2145847737
20
7.5594171519902
30
0
41
1
10
53.3924493930425
20
8.37247286473385
30
0
41
1
10
53.4813817027137
20
8.74402749415898
30
0
41
1
10
53.6592463220563
20
9.4048387984046
30
0
41
1
10
53.7481786317275
20
9.69407351848656
30
0
41
1
10
53.92604325107
20
10.184583718076
30
0
41
1
10
54.0149755607412
20
10.3858802416692
30
0
41
1
10
54.1928401800837
20
10.7016744225714
30
0
41
1
10
54.281772489755
20
10.816224064232
30
0
41
1
10
54.4596371090975
20
10.9653545365026
30
0
41
1
10
54.5485694187688
20
11
30
0
41
1
10
54.63750172844
20
11
30
0
0
SPLINE
5
105
100
AcDbEntity
8
1
62
256
6
ByLayer
370
13
48
1
60
0
100
AcDbSpline
70
4
71
3
72
8
73
4
40
0
40
0
40
0
40
0
40
1
40
1
40
1
40
1
41
1
10
57.0963274230718
20
-10.9696913321612
30
0
41
1
10
58.4308849487145
20
-7.31421656686194
30
0
41
1
10
59.7654424743573
20
-3.65762348035372
30
0
41
1
10
61.1
20
2.84E-14
30
0
0
SPLINE
5
106
100
AcDbEntity
8
1
62
256
6
ByLayer
370
13
48
1
60
0
100
AcDbSpline
70
4
71
3
72
8
73
4
40
0
40
0
40
0
40
0
40
1
40
1
40
1
40
1
41
1
10
57.0963274230718
20
-9.78622318325029
30
0
41
1
10
58.4308849487145
20
-6.51744539846976
30
0
41
1
10
59.7654424743573
20
-3.25534487745841
30
0
41
1
10
61.1
20
0
30
0
0
SPLINE
5
107
100
AcDbEntity
8
1
62
256
6
ByLayer
370
13
48
1
60
0
100
AcDbSpline
70
4
71
3
72
8
73
4
40
0
40
0
40
0
40
0
40
1
40
1
40
1
40
1
41
1
10
57.096327423072
20
3.95930374284492
30
0
41
1
10
58.4308849487146
20
2.62583960635936
30
0
41
1
10
59.7654424743571
20
1.30606115114225
30
0
41
1
10
61.0999999999997
20
2.274E-13
30
0
0
SPLINE
5
108
100
AcDbEntity
8
1
62
256
6
ByLayer
370
13
48
1
60
0
100
AcDbSpline
70
4
71
3
72
8
73
4
40
0
40
0
40
0
40
0
40
1
40
1
40
1
40
1
41
1
10
57.096327423072
20
10.9386233645574
30
0
41
1
10
58.4308849487146
20
7.29086696115064
30
0
41
1
10
59.7654424743571
20
3.6446299538905
30
0
41
1
10
61.0999999999997
20
5.969E-13
30
0
0
SPLINE
5
109
100
AcDbEntity
8
1
62
256
6
ByLayer
370
13
48
1
60
0
100
AcDbSpline
70
4
71
3
72
8
73
4
40
0
40
0
40
0
40
0
40
1
40
1
40
1
40
1
41
1
10
57.0963274230718
20
5.73802927492946
30
0
41
1
10
58.4308849487145
20
3.83787744445459
30
0
41
1
10
59.7654424743573
20
1.92518565651619
30
0
41
1
10
61.1000000000001
20
-8.53E-14
30
0
0
SPLINE
5
10A
100
AcDbEntity
8
1
62
256
6
ByLayer
370
13
48
1
60
0
100
AcDbSpline
70
4
71
3
72
8
73
4
40
0
40
0
40
0
40
0
40
1
40
1
40
1
40
1
41
1
10
57.096327423072
20
-1.97207947190341
30
0
41
1
10
58.4308849487146
20
-1.32916193465388
30
0
41
1
10
59.7654424743571
20
-0.671796803569833
30
0
41
1
10
61.0999999999997
20
-1.137E-13
30
0
0
SPLINE
5
10B
100
AcDbEntity
8
1
62
256
6
ByLayer
370
13
48
1
60
0
100
AcDbSpline
70
4
71
3
72
8
73
4
40
0
40
0
40
0
40
0
40
1
40
1
40
1
40
1
41
1
10
57.0963274230718
20
-10.6447905193453
30
0
41
1
10
58.4308849487144
20
-7.09282654818998
30
0
41
1
10
59.7654424743571
20
-3.5445346134087
30
0
41
1
10
61.0999999999997
20
-5.969E-13
30
0
0
SPLINE
5
10C
100
AcDbEntity
8
1
62
256
6
ByLayer
370
13
48
1
60
0
100
AcDbSpline
70
4
71
3
72
8
73
4
40
0
40
0
40
0
40
0
40
1
40
1
40
1
40
1
41
1
10
57.0963274230718
20
9.78939961346757
30
0
41
1
10
58.4308849487145
20
6.53296153377167
30
0
41
1
10
59.7654424743573
20
3.26980215840689
30
0
41
1
10
61.1
20
0
30
0
0
SPLINE
5
10D
100
AcDbEntity
8
1
62
256
6
ByLayer
370
13
48
1
60
0
100
AcDbSpline
70
4
71
3
72
8
73
4
40
0
40
0
40
0
40
0
40
1
40
1
40
1
40
1
41
1
10
57.0963274230718
20
8.46299491406037
30
0
41
1
10
58.4308849487145
20
5.65137444901501
30
0
41
1
10
59.7654424743573
20
2.83035350985807
30
0
41
1
10
61.1000000000001
20
-1.421E-13
30
0
0
SPLINE
5
10E
100
AcDbEntity
8
1
62
256
6
ByLayer
370
13
48
1
60
0
100
AcDbSpline
70
4
71
3
72
8
73
4
40
0
40
0
40
0
40
0
40
1
40
1
40
1
40
1
41
1
10
57.0963274230718
20
-7.63787930116925
30
0
41
1
10
58.4308849487145
20
-5.08135519833786
30
0
41
1
10
59.7654424743573
20
-2.53537505443575
30
0
41
1
10
61.1
20
0
30
0
0
SPLINE
5
10F
100
AcDbEntity
8
1
62
256
6
ByLayer
370
13
48
1
60
0
100
AcDbSpline
70
4
71
3
72
8
73
4
40
0
40
0
40
0
40
0
40
1
40
1
40
1
40
1
41
1
10
57.0963274230718
20
-9.17754216034891
30
0
41
1
10
58.4308849487145
20
-6.11026861474437
30
0
41
1
10
59.7654424743573
20
-3.05106339787463
30
0
41
1
10
61.1
20
0
30
0
0
SPLINE
5
110
100
AcDbEntity
8
1
62
256
6
ByLayer
370
13
48
1
60
0
100
AcDbSpline
70
4
71
3
72
8
73
4
40
0
40
0
40
0
40
0
40
1
40
1
40
1
40
1
41
1
10
57.096327423072
20
-5.3634897175676
30
0
41
1
10
58.4308849487146
20
-3.5884766355274
30
0
41
1
10
59.7654424743571
20
-1.80063236653473
30
0
41
1
10
61.0999999999997
20
-3.126E-13
30
0
0
SPLINE
5
111
100
AcDbEntity
8
1
62
256
6
ByLayer
370
13
48
1
60
0
100
AcDbSpline
70
4
71
3
72
8
73
4
40
0
40
0
40
0
40
0
40
1
40
1
40
1
40
1
41
1
10
57.096327423072
20
-3.14489900472756
30
0
41
1
10
58.4308849487146
20
-2.11066671297334
30
0
41
1
10
59.7654424743571
20
-1.06235860535594
30
0
41
1
10
61.0999999999997
20
-1.705E-13
30
0
0
SPLINE
5
112
100
AcDbEntity
8
1
62
256
6
ByLayer
370
13
48
1
60
0
100
AcDbSpline
70
4
71
3
72
8
73
4
40
0
40
0
40
0
40
0
40
1
40
1
40
1
40
1
41
1
10
57.096327423072
20
10.7458522451645
30
0
41
1
10
58.4308849487146
20
7.16076410572305
30
0
41
1
10
59.7654424743571
20
3.57878465750505
30
0
41
1
10
61.0999999999997
20
5.969E-13
30
0
0
SPLINE
5
113
100
AcDbEntity
8
1
62
256
6
ByLayer
370
13
48
1
60
0
100
AcDbSpline
70
4
71
3
72
8
73
4
40
0
40
0
40
0
40
0
40
1
40
1
40
1
40
1
41
1
10
57.0963274230718
20
10.2797527819021
30
0
41
1
10
58.4308849487145
20
6.85839322155701
30
0
41
1
10
59.7654424743573
20
3.43178148396674
30
0
41
1
10
61.1
20
0
30
0
0
SPLINE
5
114
100
AcDbEntity
8
1
62
256
6
ByLayer
370
13
48
1
60
0
100
AcDbSpline
70
4
71
3
72
8
73
4
40
0
40
0
40
0
40
0
40
1
40
1
40
1
40
1
41
1
10
57.0963274230718
20
-4.66987507332038
30
0
41
1
10
58.4308849487145
20
-3.09995848122534
30
0
41
1
10
59.7654424743573
20
-1.54332101643314
30
0
41
1
10
61.1
20
0
30
0
0
SPLINE
5
115
100
AcDbEntity
8
1
62
256
6
ByLayer
370
13
48
1
60
0
100
AcDbSpline
70
4
71
3
72
8
73
4
40
0
40
0
40
0
40
0
40
1
40
1
40
1
40
1
41
1
10
57.096327423072
20
-4.27991673799082
30
0
41
1
10
58.4308849487146
20
-2.86680120121233
30
0
41
1
10
59.7654424743571
20
-1.44015081835684
30
0
41
1
10
61.0999999999997
20
-2.274E-13
30
0
0
SPLINE
5
116
100
AcDbEntity
8
1
62
256
6
ByLayer
370
13
48
1
60
0
100
AcDbSpline
70
4
71
3
72
8
73
4
40
0
40
0
40
0
40
0
40
1
40
1
40
1
40
1
41
1
10
57.0963274230718
20
-8.17931613124495
30
0
41
1
10
58.4308849487146
20
-5.46269334206551
30
0
41
1
10
59.7654424743574
20
-2.73623275387541
30
0
41
1
10
61.1000000000003
20
4.832E-13
30
0
0
SPLINE
5
117
100
AcDbEntity
8
1
62
256
6
ByLayer
370
13
48
1
60
0
100
AcDbSpline
70
4
71
3
72
8
73
4
40
0
40
0
40
0
40
0
40
1
40
1
40
1
40
1
41
1
10
57.0963274230718
20
-6.72540426803681
30
0
41
1
10
58.4308849487145
20
-4.47198614206349
30
0
41
1
10
59.7654424743573
20
-2.23016678308403
30
0
41
1
10
61.1
20
0
30
0
0
SPLINE
5
118
100
AcDbEntity
8
1
62
256
6
ByLayer
370
13
48
1
60
0
100
AcDbSpline
70
4
71
3
72
8
73
4
40
0
40
0
40
0
40
0
40
1
40
1
40
1
40
1
41
1
10
57.096327423072
20
9.40953051687035
30
0
41
1
10
58.4308849487146
20
6.26541679335276
30
0
41
1
10
59.7654424743571
20
3.12888150323096
30
0
41
1
10
61.0999999999997
20
5.116E-13
30
0
0
SPLINE
5
119
100
AcDbEntity
8
1
62
256
6
ByLayer
370
13
48
1
60
0
100
AcDbSpline
70
4
71
3
72
8
73
4
40
0
40
0
40
0
40
0
40
1
40
1
40
1
40
1
41
1
10
57.096327423072
20
-6.3825933571288
30
0
41
1
10
58.4308849487148
20
-4.2670184511469
30
0
41
1
10
59.7654424743575
20
-2.13947024866744
30
0
41
1
10
61.1000000000003
20
3.695E-13
30
0
0
SPLINE
5
11A
100
AcDbEntity
8
1
62
256
6
ByLayer
370
13
48
1
60
0
100
AcDbSpline
70
4
71
3
72
8
73
4
40
0
40
0
40
0
40
0
40
1
40
1
40
1
40
1
41
1
10
57.096327423072
20
10.4239155938825
30
0
41
1
10
58.4308849487146
20
6.94458860725646
30
0
41
1
10
59.7654424743571
20
3.46992224034997
30
0
41
1
10
61.0999999999997
20
5.684E-13
30
0
0
SPLINE
5
11B
100
AcDbEntity
8
1
62
256
6
ByLayer
370
13
48
1
60
0
100
AcDbSpline
70
4
71
3
72
8
73
4
40
0
40
0
40
0
40
0
40
1
40
1
40
1
40
1
41
1
10
57.0963274230718
20
-10.814433815444
30
0
41
1
10
58.4308849487146
20
-7.21230763266092
30
0
41
1
10
59.7654424743574
20
-3.60746746224098
30
0
41
1
10
61.1000000000003
20
6.253E-13
30
0
0
SPLINE
5
11C
100
AcDbEntity
8
1
62
256
6
ByLayer
370
13
48
1
60
0
100
AcDbSpline
70
4
71
3
72
8
73
4
40
0
40
0
40
0
40
0
40
1
40
1
40
1
40
1
41
1
10
57.0963274230718
20
-3.55152844685702
30
0
41
1
10
58.4308849487145
20
-2.3537916986721
30
0
41
1
10
59.7654424743573
20
-1.16993943204278
30
0
41
1
10
61.1
20
0
30
0
0
SPLINE
5
11D
100
AcDbEntity
8
1
62
256
6
ByLayer
370
13
48
1
60
0
100
AcDbSpline
70
4
71
3
72
8
73
4
40
0
40
0
40
0
40
0
40
1
40
1
40
1
40
1
41
1
10
57.0963274230718
20
-8.93533859319678
30
0
41
1
10
58.4308849487144
20
-5.96545436201436
30
0
41
1
10
59.7654424743571
20
-2.98698427009637
30
0
41
1
10
61.0999999999997
20
-4.832E-13
30
0
0
SPLINE
5
11E
100
AcDbEntity
8
1
62
256
6
ByLayer
370
13
48
1
60
0
100
AcDbSpline
70
4
71
3
72
8
73
4
40
0
40
0
40
0
40
0
40
1
40
1
40
1
40
1
41
1
10
57.096327423072
20
8.72927503638297
30
0
41
1
10
58.4308849487146
20
5.81058414763544
30
0
41
1
10
59.7654424743571
20
2.90080250523798
30
0
41
1
10
61.0999999999997
20
4.832E-13
30
0
0
SPLINE
5
11F
100
AcDbEntity
8
1
62
256
6
ByLayer
370
13
48
1
60
0
100
AcDbSpline
70
4
71
3
72
8
73
4
40
0
40
0
40
0
40
0
40
1
40
1
40
1
40
1
41
1
10
57.0963274230718
20
0.0034802673641252
30
0
41
1
10
58.4308849487145
20
0.017000310290058
30
0
41
1
10
59.7654424743573
20
0.0158401726520481
30
0
41
1
10
61.1
20
0
30
0
0
SPLINE
5
120
100
AcDbEntity
8
1
62
256
6
ByLayer
370
13
48
1
60
0
100
AcDbSpline
70
4
71
3
72
8
73
4
40
0
40
0
40
0
40
0
40
1
40
1
40
1
40
1
41
1
10
57.0963274230718
20
-5.73208963282997
30
0
41
1
10
58.4308849487145
20
-3.80886365093241
30
0
41
1
10
59.7654424743573
20
-1.89815182649542
30
0
41
1
10
61.1
20
0
30
0
0
SPLINE
5
121
100
AcDbEntity
8
1
62
256
6
ByLayer
370
13
48
1
60
0
100
AcDbSpline
70
4
71
3
72
8
73
4
40
0
40
0
40
0
40
0
40
1
40
1
40
1
40
1
41
1
10
57.0963274230718
20
-10.5291864138874
30
0
41
1
10
58.4308849487145
20
-7.02370650036693
30
0
41
1
10
59.7654424743573
20
-3.51394955501107
30
0
41
1
10
61.1
20
0
30
0
0
SPLINE
5
122
100
AcDbEntity
8
1
62
256
6
ByLayer
370
13
48
1
60
0
100
AcDbSpline
70
4
71
3
72
8
73
4
40
0
40
0
40
0
40
0
40
1
40
1
40
1
40
1
41
1
10
57.0963274230718
20
-7.3249779941398
30
0
41
1
10
58.4308849487144
20
-4.89427055095416
30
0
41
1
10
59.7654424743571
20
-2.452591621182
30
0
41
1
10
61.0999999999997
20
-3.979E-13
30
0
0
SPLINE
5
123
100
AcDbEntity
8
1
62
256
6
ByLayer
370
13
48
1
60
0
100
AcDbSpline
70
4
71
3
72
8
73
4
40
0
40
0
40
0
40
0
40
1
40
1
40
1
40
1
41
1
10
57.096327423072
20
6.09785080994945
30
0
41
1
10
58.4308849487146
20
4.053015839495
30
0
41
1
10
59.7654424743571
20
2.02038264469934
30
0
41
1
10
61.0999999999997
20
3.411E-13
30
0
0
SPLINE
5
124
100
AcDbEntity
8
1
62
256
6
ByLayer
370
13
48
1
60
0
100
AcDbSpline
70
4
71
3
72
8
73
4
40
0
40
0
40
0
40
0
40
1
40
1
40
1
40
1
41
1
10
57.096327423072
20
9.97668310088113
30
0
41
1
10
58.4308849487143
20
6.64493890304669
30
0
41
1
10
59.7654424743566
20
3.31935123261067
30
0
41
1
10
61.0999999999988
20
2.8137E-12
30
0
0
SPLINE
5
125
100
AcDbEntity
8
1
62
256
6
ByLayer
370
13
48
1
60
0
100
AcDbSpline
70
4
71
3
72
8
73
4
40
0
40
0
40
0
40
0
40
1
40
1
40
1
40
1
41
1
10
57.0963274230718
20
3.55811549608771
30
0
41
1
10
58.4308849487145
20
2.38596792799638
30
0
41
1
10
59.7654424743573
20
1.19991988646339
30
0
41
1
10
61.1
20
0
30
0
0
SPLINE
5
126
100
AcDbEntity
8
1
62
256
6
ByLayer
370
13
48
1
60
0
100
AcDbSpline
70
4
71
3
72
8
73
4
40
0
40
0
40
0
40
0
40
1
40
1
40
1
40
1
41
1
10
57.0963274230718
20
-2.39049232025991
30
0
41
1
10
58.4308849487145
20
-1.57933225493403
30
0
41
1
10
59.7654424743571
20
-0.782495133446986
30
0
41
1
10
61.0999999999999
20
-5.68E-14
30
0
0
SPLINE
5
127
100
AcDbEntity
8
1
62
256
6
ByLayer
370
13
48
1
60
0
100
AcDbSpline
70
4
71
3
72
8
73
4
40
0
40
0
40
0
40
0
40
1
40
1
40
1
40
1
41
1
10
57.0963274230718
20
-10.9930927630835
30
0
41
1
10
58.4308849487145
20
-7.32820835390157
30
0
41
1
10
59.7654424743573
20
-3.66381473219985
30
0
41
1
10
61.1
20
2.84E-14
30
0
0
SPLINE
5
128
100
AcDbEntity
8
1
62
256
6
ByLayer
370
13
48
1
60
0
100
AcDbSpline
70
4
71
3
72
8
73
4
40
0
40
0
40
0
40
0
40
1
40
1
40
1
40
1
41
1
10
57.0963274230718
20
-9.58395796271188
30
0
41
1
10
58.4308849487144
20
-6.39651040519144
30
0
41
1
10
59.7654424743571
20
-3.20183212756643
30
0
41
1
10
61.0999999999997
20
-5.4E-13
30
0
0
SPLINE
5
129
100
AcDbEntity
8
1
62
256
6
ByLayer
370
13
48
1
60
0
100
AcDbSpline
70
4
71
3
72
8
73
4
40
0
40
0
40
0
40
0
40
1
40
1
40
1
40
1
41
1
10
57.096327423072
20
0.430290731402124
30
0
41
1
10
58.4308849487146
20
0.272191590640858
30
0
41
1
10
59.7654424743571
20
0.128760236480645
30
0
41
1
10
61.0999999999997
20
2.84E-14
30
0
0
SPLINE
5
12A
100
AcDbEntity
8
1
62
256
6
ByLayer
370
13
48
1
60
0
100
AcDbSpline
70
4
71
3
72
8
73
4
40
0
40
0
40
0
40
0
40
1
40
1
40
1
40
1
41
1
10
57.096327423072
20
7.9440933548502
30
0
41
1
10
58.4308849487146
20
5.28590807071393
30
0
41
1
10
59.7654424743571
20
2.63785575641933
30
0
41
1
10
61.0999999999997
20
4.263E-13
30
0
0
SPLINE
5
12B
100
AcDbEntity
8
1
62
256
6
ByLayer
370
13
48
1
60
0
100
AcDbSpline
70
4
71
3
72
8
73
4
40
0
40
0
40
0
40
0
40
1
40
1
40
1
40
1
41
1
10
57.096327423072
20
2.81203466316197
30
0
41
1
10
58.4308849487146
20
1.86049743154157
30
0
41
1
10
59.7654424743571
20
0.923145069211444
30
0
41
1
10
61.0999999999997
20
1.421E-13
30
0
0
SPLINE
5
12C
100
AcDbEntity
8
1
62
256
6
ByLayer
370
13
48
1
60
0
100
AcDbSpline
70
4
71
3
72
8
73
4
40
0
40
0
40
0
40
0
40
1
40
1
40
1
40
1
41
1
10
57.0963274230718
20
1.20764109147052
30
0
41
1
10
58.4308849487145
20
0.819685456717906
30
0
41
1
10
59.7654424743573
20
0.417135160957684
30
0
41
1
10
61.1
20
0
30
0
0
SPLINE
5
12D
100
AcDbEntity
8
1
62
256
6
ByLayer
370
13
48
1
60
0
100
AcDbSpline
70
4
71
3
72
8
73
4
40
0
40
0
40
0
40
0
40
1
40
1
40
1
40
1
41
1
10
57.0963274230718
20
6.73091094143601
30
0
41
1
10
58.4308849487145
20
4.49888498248509
30
0
41
1
10
59.7654424743572
20
2.25522998894019
30
0
41
1
10
61.1
20
8.53E-14
30
0
0
SPLINE
5
12E
100
AcDbEntity
8
1
62
256
6
ByLayer
370
13
48
1
60
0
100
AcDbSpline
70
4
71
3
72
8
73
4
40
0
40
0
40
0
40
0
40
1
40
1
40
1
40
1
41
1
10
57.096327423072
20
5.05898184861655
30
0
41
1
10
58.4308849487146
20
3.35961909432157
30
0
41
1
10
59.7654424743571
20
1.67327833089033
30
0
41
1
10
61.0999999999997
20
2.842E-13
30
0
0
SPLINE
5
12F
100
AcDbEntity
8
1
62
256
6
ByLayer
370
13
48
1
60
0
100
AcDbSpline
70
4
71
3
72
8
73
4
40
0
40
0
40
0
40
0
40
1
40
1
40
1
40
1
41
1
10
57.0963274230718
20
-10.2772734502274
30
0
41
1
10
58.4308849487144
20
-6.84628225323996
30
0
41
1
10
59.7654424743571
20
-3.42049699410461
30
0
41
1
10
61.0999999999997
20
-5.684E-13
30
0
0
SPLINE
5
130
100
AcDbEntity
8
1
62
256
6
ByLayer
370
13
48
1
60
0
100
AcDbSpline
70
4
71
3
72
8
73
4
40
0
40
0
40
0
40
0
40
1
40
1
40
1
40
1
41
1
10
57.0963274230718
20
4.67617628940792
30
0
41
1
10
58.4308849487145
20
3.13073848100279
30
0
41
1
10
59.7654424743573
20
1.57200052300601
30
0
41
1
10
61.1
20
0
30
0
0
SPLINE
5
131
100
AcDbEntity
8
1
62
256
6
ByLayer
370
13
48
1
60
0
100
AcDbSpline
70
4
71
3
72
8
73
4
40
0
40
0
40
0
40
0
40
1
40
1
40
1
40
1
41
1
10
57.096327423072
20
-0.775555472639155
30
0
41
1
10
58.4308849487144
20
-0.531680581900019
30
0
41
1
10
59.7654424743569
20
-0.273159979954414
30
0
41
1
10
61.0999999999993
20
-1.421E-13
30
0
0
SPLINE
5
132
100
AcDbEntity
8
1
62
256
6
ByLayer
370
13
48
1
60
0
100
AcDbSpline
70
4
71
3
72
8
73
4
40
0
40
0
40
0
40
0
40
1
40
1
40
1
40
1
41
1
10
57.0963274230718
20
10.8853612891541
30
0
41
1
10
58.4308849487145
20
7.25902140355166
30
0
41
1
10
59.7654424743573
20
3.63053855393409
30
0
41
1
10
61.1
20
-2.84E-14
30
0
0
SPLINE
5
133
100
AcDbEntity
8
1
62
256
6
ByLayer
370
13
48
1
60
0
100
AcDbSpline
70
4
71
3
72
8
73
4
40
0
40
0
40
0
40
0
40
1
40
1
40
1
40
1
41
1
10
57.0963274230718
20
9.18137750830289
30
0
41
1
10
58.4308849487145
20
6.12900341252455
30
0
41
1
10
59.7654424743573
20
3.06851969287015
30
0
41
1
10
61.1
20
0
30
0
0
SPLINE
5
134
100
AcDbEntity
8
1
62
256
6
ByLayer
370
13
48
1
60
0
100
AcDbSpline
70
4
71
3
72
8
73
4
40
0
40
0
40
0
40
0
40
1
40
1
40
1
40
1
41
1
10
57.0963274230718
20
-10.8843568221666
30
0
41
1
10
58.4308849487146
20
-7.25411481199453
30
0
41
1
10
59.7654424743574
20
-3.6259667987087
30
0
41
1
10
61.1000000000003
20
6.253E-13
30
0
0
SPLINE
5
135
100
AcDbEntity
8
1
62
256
6
ByLayer
370
13
48
1
60
0
100
AcDbSpline
70
4
71
3
72
8
73
4
40
0
40
0
40
0
40
0
40
1
40
1
40
1
40
1
41
1
10
57.0963274230718
20
-8.45854674939059
30
0
41
1
10
58.4308849487145
20
-5.62964618170221
30
0
41
1
10
59.7654424743573
20
-2.81010802611155
30
0
41
1
10
61.1
20
0
30
0
0
SPLINE
5
136
100
AcDbEntity
8
1
62
256
6
ByLayer
370
13
48
1
60
0
100
AcDbSpline
70
4
71
3
72
8
73
4
40
0
40
0
40
0
40
0
40
1
40
1
40
1
40
1
41
1
10
57.0963274230718
20
-1.20072238968163
30
0
41
1
10
58.4308849487145
20
-0.785889180481121
30
0
41
1
10
59.7654424743574
20
-0.385645215100681
30
0
41
1
10
61.1000000000001
20
2.84E-14
30
0
0
SPLINE
5
137
100
AcDbEntity
8
1
62
256
6
ByLayer
370
13
48
1
60
0
100
AcDbSpline
70
4
71
3
72
8
73
4
40
0
40
0
40
0
40
0
40
1
40
1
40
1
40
1
41
1
10
57.096327423072
20
1.63096482531938
30
0
41
1
10
58.4308849487146
20
1.0727920104367
30
0
41
1
10
59.7654424743571
20
0.529132750225187
30
0
41
1
10
61.0999999999997
20
8.53E-14
30
0
0
SPLINE
5
138
100
AcDbEntity
8
1
62
256
6
ByLayer
370
13
48
1
60
0
100
AcDbSpline
70
4
71
3
72
8
73
4
40
0
40
0
40
0
40
0
40
1
40
1
40
1
40
1
41
1
10
57.0963274230718
20
-10.1173778115549
30
0
41
1
10
58.4308849487146
20
-6.75068016239743
30
0
41
1
10
59.7654424743574
20
-3.37819384728314
30
0
41
1
10
61.1000000000003
20
5.969E-13
30
0
0
SPLINE
5
139
100
AcDbEntity
8
1
62
256
6
ByLayer
370
13
48
1
60
0
100
AcDbSpline
70
4
71
3
72
8
73
4
40
0
40
0
40
0
40
0
40
1
40
1
40
1
40
1
41
1
10
57.0963274230718
20
10.9933371918532
30
0
41
1
10
58.4308849487145
20
7.32940233255158
30
0
41
1
10
59.7654424743573
20
3.66492723118586
30
0
41
1
10
61.1
20
0
30
0
0
SPLINE
5
13A
100
AcDbEntity
8
1
62
256
6
ByLayer
370
13
48
1
60
0
100
AcDbSpline
70
4
71
3
72
8
73
4
40
0
40
0
40
0
40
0
40
1
40
1
40
1
40
1
41
1
10
57.096327423072
20
7.06342338442744
30
0
41
1
10
58.4308849487146
20
4.69769518797253
30
0
41
1
10
59.7654424743571
20
2.34320188618759
30
0
41
1
10
61.0999999999997
20
3.979E-13
30
0
0
SPLINE
5
13B
100
AcDbEntity
8
1
62
256
6
ByLayer
370
13
48
1
60
0
100
AcDbSpline
70
4
71
3
72
8
73
4
40
0
40
0
40
0
40
0
40
1
40
1
40
1
40
1
41
1
10
57.0963274230718
20
7.64288681545497
30
0
41
1
10
58.4308849487145
20
5.10581576062594
30
0
41
1
10
59.7654424743572
20
2.55816637548804
30
0
41
1
10
61.1
20
8.53E-14
30
0
0
SPLINE
5
13C
100
AcDbEntity
8
1
62
256
6
ByLayer
370
13
48
1
60
0
100
AcDbSpline
70
4
71
3
72
8
73
4
40
0
40
0
40
0
40
0
40
1
40
1
40
1
40
1
41
1
10
57.0963274230718
20
2.39728602606419
30
0
41
1
10
58.4308849487145
20
1.61251795436712
30
0
41
1
10
59.7654424743571
20
0.813416169571013
30
0
41
1
10
61.0999999999999
20
5.68E-14
30
0
0
SPLINE
5
13D
100
AcDbEntity
8
1
62
256
6
ByLayer
370
13
48
1
60
0
100
AcDbSpline
70
4
71
3
72
8
73
4
40
0
40
0
40
0
40
0
40
1
40
1
40
1
40
1
41
1
10
57.0963274230718
20
10.6465429508212
30
0
41
1
10
58.4308849487145
20
7.10138677524594
30
0
41
1
10
59.7654424743573
20
3.55251067220939
30
0
41
1
10
61.1
20
0
30
0
0
LINE
5
7D
100
AcDbEntity
8
80
62
256
6
ByLayer
370
18
48
1
60
0
100
AcDbLine
10
0
20
0
30
0
11
-5
21
0
31
0
39
0
210
0
220
0
230
1
0
LINE
5
7E
100
AcDbEntity
8
4
62
256
6
ByLayer
370
18
48
0.05
60
0
100
AcDbLine
10
-5
20
0
30
0
11
66.1
21
0
31
0
39
0
210
0
220
0
230
1
0
LINE
5
80
100
AcDbEntity
8
81
62
256
6
ByLayer
370
18
48
1
60
0
100
AcDbLine
10
61.1
20
0
30
0
11
66.1
21
0
31
0
39
0
210
0
220
0
230
1
0
LINE
5
81
100
AcDbEntity
8
SK4
62
256
6
ByLayer
370
18
48
0.05
60
0
100
AcDbLine
10
-61
20
0
30
0
11
66.1
21
0
31
0
39
0
210
0
220
0
230
1
0
LINE
5
83
100
AcDbEntity
8
1
62
256
6
ByLayer
370
18
48
1
60
0
100
AcDbLine
10
57.096327
20
11
30
0
11
57.096327
21
10.650693
31
0
39
0
210
0
220
0
230
1
0
LINE
5
84
100
AcDbEntity
8
1
62
256
6
ByLayer
370
18
48
1
60
0
100
AcDbLine
10
57.096327
20
-11
30
0
11
57.096327
21
-1.569767
31
0
39
0
210
0
220
0
230
1
0
LINE
5
85
100
AcDbEntity
8
1
62
256
6
ByLayer
370
18
48
1
60
0
100
AcDbLine
10
15
20
-5.657702
30
0
11
15
21
10.161433
31
0
39
0
210
0
220
0
230
1
0
LINE
5
86
100
AcDbEntity
8
1
62
256
6
ByLayer
370
18
48
1
60
0
100
AcDbLine
10
0
20
-15
30
0
11
0
21
15
31
0
39
0
210
0
220
0
230
1
0
LINE
5
87
100
AcDbEntity
8
1
62
256
6
ByLayer
370
18
48
1
60
0
100
AcDbLine
10
3
20
-15
30
0
11
3
21
15
31
0
39
0
210
0
220
0
230
1
0
LINE
5
88
100
AcDbEntity
8
SK1
62
256
6
ByLayer
370
13
48
1
60
0
100
AcDbLine
10
-15.162813
20
-7.237775
30
0
11
-15.162813
21
7.237775
31
0
39
0
210
0
220
0
230
1
0
LINE
5
8A
100
AcDbEntity
8
SK1
62
256
6
ByLayer
370
13
48
1
60
0
100
AcDbLine
10
-51.386002
20
5.000227
30
0
11
-51.386002
21
-5.000227
31
0
39
0
210
0
220
0
230
1
0
LINE
5
8B
100
AcDbEntity
8
SK1
62
256
6
ByLayer
370
18
48
1
60
0
100
AcDbLine
10
-56
20
-11.5
30
0
11
-56
21
11.5
31
0
39
0
210
0
220
0
230
1
0
LINE
5
8C
100
AcDbEntity
8
SK1
62
256
6
ByLayer
370
13
48
1
60
0
100
AcDbLine
10
-52.500329
20
-3.620591
30
0
11
-52.500329
21
3.620591
31
0
39
0
210
0
220
0
230
1
0
LINE
5
8D
100
AcDbEntity
8
SK1
62
256
6
ByLayer
370
13
48
1
60
0
100
AcDbLine
10
-14.015776
20
6.592429
30
0
11
-14.015776
21
-6.592429
31
0
39
0
210
0
220
0
230
1
0
LINE
5
8E
100
AcDbEntity
8
SK1
62
256
6
ByLayer
370
18
48
1
60
0
100
AcDbLine
10
-55
20
-12.5
30
0
11
-55
21
12.5
31
0
39
0
210
0
220
0
230
1
0
LINE
5
8F
100
AcDbEntity
8
1
62
256
6
ByLayer
370
18
48
1
60
0
100
AcDbLine
10
61.1
20
0
30
0
11
57.096327
21
11
31
0
39
0
210
0
220
0
230
1
0
LINE
5
90
100
AcDbEntity
8
1
62
256
6
ByLayer
370
18
48
1
60
0
100
AcDbLine
10
57.096327
20
-11
30
0
11
61.1
21
0
31
0
39
0
210
0
220
0
230
1
0
LINE
5
91
100
AcDbEntity
8
1
62
256
6
ByLayer
370
18
48
1
60
0
100
AcDbLine
10
9.111566
20
12.810022
30
0
11
3
21
15
31
0
39
0
210
0
220
0
230
1
0
LINE
5
92
100
AcDbEntity
8
1
62
256
6
ByLayer
370
18
48
1
60
0
100
AcDbLine
10
3
20
-15
30
0
11
9.111566
21
-12.810022
31
0
39
0
210
0
220
0
230
1
0
LINE
5
93
100
AcDbEntity
8
1
62
256
6
ByLayer
370
18
48
1
60
0
100
AcDbLine
10
0
20
-15
30
0
11
3
21
-15
31
0
39
0
210
0
220
0
230
1
0
LINE
5
94
100
AcDbEntity
8
1
62
256
6
ByLayer
370
18
48
1
60
0
100
AcDbLine
10
3
20
15
30
0
11
0
21
15
31
0
39
0
210
0
220
0
230
1
0
LINE
5
95
100
AcDbEntity
8
1
62
256
6
ByLayer
370
18
48
1
60
0
100
AcDbLine
10
57.096327
20
11
30
0
11
46.1
21
11
31
0
39
0
210
0
220
0
230
1
0
LINE
5
96
100
AcDbEntity
8
1
62
256
6
ByLayer
370
18
48
1
60
0
100
AcDbLine
10
46.1
20
-11
30
0
11
57.096327
21
-11
31
0
39
0
210
0
220
0
230
1
0
LINE
5
97
100
AcDbEntity
8
1
62
256
6
ByLayer
370
18
48
1
60
0
100
AcDbLine
10
61.1
20
0
30
0
11
57.096327
21
11
31
0
39
0
210
0
220
0
230
1
0
LINE
5
98
100
AcDbEntity
8
1
62
256
6
ByLayer
370
18
48
1
60
0
100
AcDbLine
10
57.096327
20
-11
30
0
11
61.1
21
0
31
0
39
0
210
0
220
0
230
1
0
LINE
5
99
100
AcDbEntity
8
SK1
62
256
6
ByLayer
370
18
48
1
60
0
100
AcDbLine
10
-56
20
-11.5
30
0
11
-55
21
-12.5
31
0
39
0
210
0
220
0
230
1
0
LINE
5
9A
100
AcDbEntity
8
SK1
62
256
6
ByLayer
370
18
48
1
60
0
100
AcDbLine
10
-55
20
12.5
30
0
11
-56
21
11.5
31
0
39
0
210
0
220
0
230
1
0
LINE
5
9B
100
AcDbEntity
8
SK1
62
256
6
ByLayer
370
18
48
1
60
0
100
AcDbLine
10
-55
20
-12.5
30
0
11
0
21
-12.5
31
0
39
0
210
0
220
0
230
1
0
LINE
5
9C
100
AcDbEntity
8
SK1
62
256
6
ByLayer
370
18
48
1
60
0
100
AcDbLine
10
0
20
12.5
30
0
11
-55
21
12.5
31
0
39
0
210
0
220
0
230
1
0
LINE
5
9D
100
AcDbEntity
8
1
62
256
6
ByLayer
370
18
48
1
60
0
100
AcDbLine
10
57.096327
20
11
30
0
11
57.096327
21
-11
31
0
39
0
210
0
220
0
230
1
0
LINE
5
9E
100
AcDbEntity
8
1
62
256
6
ByLayer
370
18
48
1
60
0
100
AcDbLine
10
57.096327
20
11
30
0
11
57.096327
21
-11
31
0
39
0
210
0
220
0
230
1
0
LINE
5
9F
100
AcDbEntity
8
1
62
256
6
ByLayer
370
18
48
1
60
0
100
AcDbLine
10
57.096327
20
11
30
0
11
57.096327
21
-11
31
0
39
0
210
0
220
0
230
1
0
LINE
5
A0
100
AcDbEntity
8
1
62
256
6
ByLayer
370
18
48
1
60
0
100
AcDbLine
10
46.1
20
11
30
0
11
46.1
21
-11
31
0
39
0
210
0
220
0
230
1
0
LINE
5
A1
100
AcDbEntity
8
1
62
256
6
ByLayer
370
18
48
1
60
0
100
AcDbLine
10
46.1
20
11
30
0
11
46.1
21
-11
31
0
39
0
210
0
220
0
230
1
0
LINE
5
A2
100
AcDbEntity
8
1
62
256
6
ByLayer
370
18
48
1
60
0
100
AcDbLine
10
57.096327
20
11
30
0
11
57.096327
21
-11
31
0
39
0
210
0
220
0
230
1
0
LINE
5
A3
100
AcDbEntity
8
1
62
256
6
ByLayer
370
18
48
1
60
0
100
AcDbLine
10
46.1
20
11
30
0
11
46.1
21
-11
31
0
39
0
210
0
220
0
230
1
0
LINE
5
A4
100
AcDbEntity
8
1
62
256
6
ByLayer
370
18
48
1
60
0
100
AcDbLine
10
57.096327
20
11
30
0
11
57.096327
21
-11
31
0
39
0
210
0
220
0
230
1
0
LINE
5
A5
100
AcDbEntity
8
SK2
62
256
6
ByLayer
370
13
48
1
60
0
100
AcDbLine
10
-62.5
20
-12.5
30
0
11
-62.5
21
41.524569
31
0
39
0
210
0
220
0
230
1
0
LINE
5
A7
100
AcDbEntity
8
SK2
62
256
6
ByLayer
370
13
48
1
60
0
100
AcDbLine
10
-57.5875
20
12.5
30
0
11
-64.5
21
12.5
31
0
39
0
210
0
220
0
230
1
0
LINE
5
A8
100
AcDbEntity
8
SK2
62
256
6
ByLayer
370
13
48
1
60
0
100
AcDbLine
10
-57.5875
20
-12.5
30
0
11
-64.5
21
-12.5
31
0
39
0
210
0
220
0
230
1
0
LINE
5
A9
100
AcDbEntity
8
1
62
256
6
ByLayer
370
18
48
1
60
1
100
AcDbLine
10
-62.5
20
12.5
30
0
11
-62.039216
21
9.000002
31
0
39
0
210
0
220
0
230
1
0
LINE
5
AA
100
AcDbEntity
8
1
62
256
6
ByLayer
370
18
48
1
60
1
100
AcDbLine
10
-62.039216
20
9.000002
30
0
11
-62.960784
21
8.999998
31
0
39
0
210
0
220
0
230
1
0
LINE
5
AB
100
AcDbEntity
8
1
62
256
6
ByLayer
370
18
48
1
60
1
100
AcDbLine
10
-62.960784
20
8.999998
30
0
11
-62.5
21
12.5
31
0
39
0
210
0
220
0
230
1
0
LINE
5
AC
100
AcDbEntity
8
1
62
256
6
ByLayer
370
18
48
1
60
1
100
AcDbLine
10
-62.5
20
-12.5
30
0
11
-62.960784
21
-9.000002
31
0
39
0
210
0
220
0
230
1
0
LINE
5
AD
100
AcDbEntity
8
1
62
256
6
ByLayer
370
18
48
1
60
1
100
AcDbLine
10
-62.960784
20
-9.000002
30
0
11
-62.039216
21
-8.999998
31
0
39
0
210
0
220
0
230
1
0
LINE
5
AE
100
AcDbEntity
8
1
62
256
6
ByLayer
370
18
48
1
60
1
100
AcDbLine
10
-62.039216
20
-8.999998
30
0
11
-62.5
21
-12.5
31
0
39
0
210
0
220
0
230
1
0
LINE
5
AF
100
AcDbEntity
8
2
62
256
6
ByLayer
370
13
48
1
60
0
100
AcDbLine
10
68.6
20
-11
30
0
11
68.6
21
40.024569
31
0
39
0
210
0
220
0
230
1
0
LINE
5
B1
100
AcDbEntity
8
2
62
256
6
ByLayer
370
13
48
1
60
0
100
AcDbLine
10
58.683827
20
11
30
0
11
70.6
21
11
31
0
39
0
210
0
220
0
230
1
0
LINE
5
B2
100
AcDbEntity
8
2
62
256
6
ByLayer
370
13
48
1
60
0
100
AcDbLine
10
58.683827
20
-11
30
0
11
70.6
21
-11
31
0
39
0
210
0
220
0
230
1
0
LINE
5
B3
100
AcDbEntity
8
1
62
256
6
ByLayer
370
18
48
1
60
1
100
AcDbLine
10
68.6
20
11
30
0
11
69.060784
21
7.500002
31
0
39
0
210
0
220
0
230
1
0
LINE
5
B4
100
AcDbEntity
8
1
62
256
6
ByLayer
370
18
48
1
60
1
100
AcDbLine
10
69.060784
20
7.500002
30
0
11
68.139216
21
7.499998
31
0
39
0
210
0
220
0
230
1
0
LINE
5
B5
100
AcDbEntity
8
1
62
256
6
ByLayer
370
18
48
1
60
1
100
AcDbLine
10
68.139216
20
7.499998
30
0
11
68.6
21
11
31
0
39
0
210
0
220
0
230
1
0
LINE
5
B6
100
AcDbEntity
8
1
62
256
6
ByLayer
370
18
48
1
60
1
100
AcDbLine
10
68.6
20
-11
30
0
11
68.139216
21
-7.500002
31
0
39
0
210
0
220
0
230
1
0
LINE
5
B7
100
AcDbEntity
8
1
62
256
6
ByLayer
370
18
48
1
60
1
100
AcDbLine
10
68.139216
20
-7.500002
30
0
11
69.060784
21
-7.499998
31
0
39
0
210
0
220
0
230
1
0
LINE
5
B8
100
AcDbEntity
8
1
62
256
6
ByLayer
370
18
48
1
60
1
100
AcDbLine
10
69.060784
20
-7.499998
30
0
11
68.6
21
-11
31
0
39
0
210
0
220
0
230
1
0
LINE
5
B9
100
AcDbEntity
8
SK2
62
256
6
ByLayer
370
13
48
1
60
0
100
AcDbLine
10
61.642957
20
-1.491762
30
0
11
68.282423
21
-19.733545
31
0
39
0
210
0
220
0
230
1
0
LINE
5
BA
100
AcDbEntity
8
SK2
62
256
6
ByLayer
370
13
48
1
60
0
100
AcDbLine
10
61.642957
20
1.491762
30
0
11
68.282423
21
19.733545
31
0
39
0
210
0
220
0
230
1
0
LINE
5
BB
100
AcDbEntity
8
1
62
256
6
ByLayer
370
18
48
1
60
1
100
AcDbLine
10
67.598383
20
-17.85416
30
0
11
70.651575
21
-16.082064
31
0
39
0
210
0
220
0
230
1
0
LINE
5
BC
100
AcDbEntity
8
1
62
256
6
ByLayer
370
18
48
1
60
1
100
AcDbLine
10
70.651575
20
-16.082064
30
0
11
71.006196
21
-16.93267
31
0
39
0
210
0
220
0
230
1
0
LINE
5
BD
100
AcDbEntity
8
1
62
256
6
ByLayer
370
18
48
1
60
1
100
AcDbLine
10
71.006196
20
-16.93267
30
0
11
67.598383
21
-17.85416
31
0
39
0
210
0
220
0
230
1
0
LINE
5
BE
100
AcDbEntity
8
1
62
256
6
ByLayer
370
18
48
1
60
1
100
AcDbLine
10
67.598383
20
17.85416
30
0
11
71.006193
21
16.932671
31
0
39
0
210
0
220
0
230
1
0
LINE
5
BF
100
AcDbEntity
8
1
62
256
6
ByLayer
370
18
48
1
60
1
100
AcDbLine
10
71.006193
20
16.932671
30
0
11
70.651579
21
16.082063
31
0
39
0
210
0
220
0
230
1
0
LINE
5
C0
100
AcDbEntity
8
1
62
256
6
ByLayer
370
18
48
1
60
1
100
AcDbLine
10
70.651579
20
16.082063
30
0
11
67.598383
21
17.85416
31
0
39
0
210
0
220
0
230
1
0
LINE
5
142
100
AcDbEntity
8
1
62
256
6
ByLayer
370
18
48
1
60
1
100
AcDbLine
10
-62.5
20
12.5
30
0
11
-62.039216
21
9.000002
31
0
39
0
210
0
220
0
230
1
0
LINE
5
143
100
AcDbEntity
8
1
62
256
6
ByLayer
370
18
48
1
60
1
100
AcDbLine
10
-62.039216
20
9.000002
30
0
11
-62.960784
21
8.999998
31
0
39
0
210
0
220
0
230
1
0
LINE
5
144
100
AcDbEntity
8
1
62
256
6
ByLayer
370
18
48
1
60
1
100
AcDbLine
10
-62.960784
20
8.999998
30
0
11
-62.5
21
12.5
31
0
39
0
210
0
220
0
230
1
0
LINE
5
146
100
AcDbEntity
8
1
62
256
6
ByLayer
370
18
48
1
60
1
100
AcDbLine
10
-62.5
20
-12.5
30
0
11
-62.960784
21
-9.000002
31
0
39
0
210
0
220
0
230
1
0
LINE
5
147
100
AcDbEntity
8
1
62
256
6
ByLayer
370
18
48
1
60
1
100
AcDbLine
10
-62.960784
20
-9.000002
30
0
11
-62.039216
21
-8.999998
31
0
39
0
210
0
220
0
230
1
0
LINE
5
148
100
AcDbEntity
8
1
62
256
6
ByLayer
370
18
48
1
60
1
100
AcDbLine
10
-62.039216
20
-8.999998
30
0
11
-62.5
21
-12.5
31
0
39
0
210
0
220
0
230
1
0
LINE
5
14C
100
AcDbEntity
8
1
62
256
6
ByLayer
370
18
48
1
60
1
100
AcDbLine
10
68.6
20
11
30
0
11
69.060784
21
7.500002
31
0
39
0
210
0
220
0
230
1
0
LINE
5
14D
100
AcDbEntity
8
1
62
256
6
ByLayer
370
18
48
1
60
1
100
AcDbLine
10
69.060784
20
7.500002
30
0
11
68.139216
21
7.499998
31
0
39
0
210
0
220
0
230
1
0
LINE
5
14E
100
AcDbEntity
8
1
62
256
6
ByLayer
370
18
48
1
60
1
100
AcDbLine
10
68.139216
20
7.499998
30
0
11
68.6
21
11
31
0
39
0
210
0
220
0
230
1
0
LINE
5
150
100
AcDbEntity
8
1
62
256
6
ByLayer
370
18
48
1
60
1
100
AcDbLine
10
68.6
20
-11
30
0
11
68.139216
21
-7.500002
31
0
39
0
210
0
220
0
230
1
0
LINE
5
151
100
AcDbEntity
8
1
62
256
6
ByLayer
370
18
48
1
60
1
100
AcDbLine
10
68.139216
20
-7.500002
30
0
11
69.060784
21
-7.499998
31
0
39
0
210
0
220
0
230
1
0
LINE
5
152
100
AcDbEntity
8
1
62
256
6
ByLayer
370
18
48
1
60
1
100
AcDbLine
10
69.060784
20
-7.499998
30
0
11
68.6
21
-11
31
0
39
0
210
0
220
0
230
1
0
LINE
5
155
100
AcDbEntity
8
1
62
256
6
ByLayer
370
18
48
1
60
1
100
AcDbLine
10
67.598383
20
-17.85416
30
0
11
70.651575
21
-16.082064
31
0
39
0
210
0
220
0
230
1
0
LINE
5
156
100
AcDbEntity
8
1
62
256
6
ByLayer
370
18
48
1
60
1
100
AcDbLine
10
70.651575
20
-16.082064
30
0
11
71.006196
21
-16.93267
31
0
39
0
210
0
220
0
230
1
0
LINE
5
157
100
AcDbEntity
8
1
62
256
6
ByLayer
370
18
48
1
60
1
100
AcDbLine
10
71.006196
20
-16.93267
30
0
11
67.598383
21
-17.85416
31
0
39
0
210
0
220
0
230
1
0
LINE
5
159
100
AcDbEntity
8
1
62
256
6
ByLayer
370
18
48
1
60
1
100
AcDbLine
10
67.598383
20
17.85416
30
0
11
71.006193
21
16.932671
31
0
39
0
210
0
220
0
230
1
0
LINE
5
15A
100
AcDbEntity
8
1
62
256
6
ByLayer
370
18
48
1
60
1
100
AcDbLine
10
71.006193
20
16.932671
30
0
11
70.651579
21
16.082063
31
0
39
0
210
0
220
0
230
1
0
LINE
5
15B
100
AcDbEntity
8
1
62
256
6
ByLayer
370
18
48
1
60
1
100
AcDbLine
10
70.651579
20
16.082063
30
0
11
67.598383
21
17.85416
31
0
39
0
210
0
220
0
230
1
0
MTEXT
5
13E
100
AcDbEntity
8
SK2
62
256
6
ByLayer
370
18
48
1
60
0
100
AcDbMText
10
-63.841114
20
24.158438
30
0
210
0
220
0
230
1
1
%%c
40
3
41
0
44
1.084337
50
90
71
7
72
5
7
iso_b_vert
0
MTEXT
5
141
100
AcDbEntity
8
SK2
62
256
6
ByLayer
370
18
48
1
60
0
100
AcDbMText
10
-63.841114
20
30.135
30
0
210
0
220
0
230
1
1
\W0.7513;25.000
40
3
41
0
44
1.084337
50
90
71
7
72
5
7
iso_b_vert
0
MTEXT
5
14A
100
AcDbEntity
8
2
62
256
6
ByLayer
370
18
48
1
60
0
100
AcDbMText
10
67.258886
20
22.658438
30
0
210
0
220
0
230
1
1
%%c
40
3
41
0
44
1.084337
50
90
71
7
72
5
7
iso_b_vert
0
MTEXT
5
14B
100
AcDbEntity
8
2
62
256
6
ByLayer
370
18
48
1
60
0
100
AcDbMText
10
67.258886
20
28.635
30
0
210
0
220
0
230
1
1
\W0.7513;22.000
40
3
41
0
44
1.084337
50
90
71
7
72
5
7
iso_b_vert
0
MTEXT
5
154
100
AcDbEntity
8
SK2
62
256
6
ByLayer
370
18
48
1
60
0
100
AcDbMText
10
81.009114
20
3.734657
30
0
210
0
220
0
230
1
1
\W0.7071;140%%d
40
3
41
0
44
1.084337
50
270
71
7
72
5
7
iso_b_vert
0
MTEXT
5
15D
100
AcDbEntity
8
SK6
62
256
6
ByLayer
370
18
48
1
60
0
100
AcDbMText
10
-21.362197
20
-67.114886
30
0
210
0
220
0
230
1
1
\W0.7519;H85122.0
40
3
41
0
44
1.084337
50
0
71
7
72
5
7
iso_b_vert
0
HATCH
5
145
100
AcDbEntity
8
SK2
62
256
6
ByLayer
370
13
48
1
60
0
100
AcDbHatch
10
0
20
0
30
0
210
0
220
0
230
1
2
ANSI31
70
0
71
0
91
1
92
5
93
3
72
1
10
-62.5
20
12.5
11
-62.0392162584472
21
9.00000169255318
72
1
10
-62.0392162584472
20
9.00000169255318
11
-62.9607837415528
21
8.99999830744682
72
1
10
-62.9607837415528
20
8.99999830744682
11
-62.5
21
12.5
97
0
75
0
76
1
52
0
41
0.0062
77
0
78
1
53
45
43
0
44
0
45
-0.0139193969876572
46
0.0139193969876572
79
0
47
0
98
1
10
0
20
0
0
HATCH
5
149
100
AcDbEntity
8
SK2
62
256
6
ByLayer
370
13
48
1
60
0
100
AcDbHatch
10
0
20
0
30
0
210
0
220
0
230
1
2
ANSI31
70
0
71
0
91
1
92
5
93
3
72
1
10
-62.5
20
-12.5
11
-62.9607837415528
21
-9.00000169255318
72
1
10
-62.9607837415528
20
-9.00000169255318
11
-62.0392162584472
21
-8.99999830744682
72
1
10
-62.0392162584472
20
-8.99999830744682
11
-62.5
21
-12.5
97
0
75
0
76
1
52
0
41
0.0062
77
0
78
1
53
45
43
0
44
0
45
-0.0139193969876572
46
0.0139193969876572
79
0
47
0
98
1
10
0
20
0
0
HATCH
5
14F
100
AcDbEntity
8
2
62
256
6
ByLayer
370
13
48
1
60
0
100
AcDbHatch
10
0
20
0
30
0
210
0
220
0
230
1
2
ANSI31
70
0
71
0
91
1
92
5
93
3
72
1
10
68.6
20
11
11
69.0607837415528
21
7.50000169255318
72
1
10
69.0607837415528
20
7.50000169255318
11
68.1392162584472
21
7.49999830744682
72
1
10
68.1392162584472
20
7.49999830744682
11
68.6
21
11
97
0
75
0
76
1
52
0
41
0.0062
77
0
78
1
53
45
43
0
44
0
45
-0.0139193969876572
46
0.0139193969876572
79
0
47
0
98
1
10
0
20
0
0
HATCH
5
153
100
AcDbEntity
8
2
62
256
6
ByLayer
370
13
48
1
60
0
100
AcDbHatch
10
0
20
0
30
0
210
0
220
0
230
1
2
ANSI31
70
0
71
0
91
1
92
5
93
3
72
1
10
68.6
20
-11
11
68.1392162584472
21
-7.50000169255318
72
1
10
68.1392162584472
20
-7.50000169255318
11
69.0607837415528
21
-7.49999830744682
72
1
10
69.0607837415528
20
-7.49999830744682
11
68.6
21
-11
97
0
75
0
76
1
52
0
41
0.0062
77
0
78
1
53
45
43
0
44
0
45
-0.0139193969876572
46
0.0139193969876572
79
0
47
0
98
1
10
0
20
0
0
HATCH
5
158
100
AcDbEntity
8
SK2
62
256
6
ByLayer
370
13
48
1
60
0
100
AcDbHatch
10
0
20
0
30
0
210
0
220
0
230
1
2
ANSI31
70
0
71
0
91
1
92
5
93
3
72
1
10
67.5983827231877
20
-17.8541597949323
11
70.6515754256929
21
-16.0820638240607
72
1
10
70.6515754256929
20
-16.0820638240607
11
71.006195833975
21
-16.9326700737196
72
1
10
71.006195833975
20
-16.9326700737196
11
67.5983827231877
21
-17.8541597949323
97
0
75
0
76
1
52
0
41
0.0062
77
0
78
1
53
45
43
0
44
0
45
-0.0139193969876572
46
0.0139193969876572
79
0
47
0
98
1
10
0
20
0
0
HATCH
5
15C
100
AcDbEntity
8
SK2
62
256
6
ByLayer
370
13
48
1
60
0
100
AcDbHatch
10
0
20
0
30
0
210
0
220
0
230
1
2
ANSI31
70
0
71
0
91
1
92
5
93
3
72
1
10
67.5983827231877
20
17.8541597949323
11
71.006192709519
21
16.9326713763016
72
1
10
71.006192709519
20
16.9326713763016
11
70.6515785501489
21
16.0820625214787
72
1
10
70.6515785501489
20
16.0820625214787
11
67.5983827231877
21
17.8541597949323
97
0
75
0
76
1
52
0
41
0.0062
77
0
78
1
53
45
43
0
44
0
45
-0.0139193969876572
46
0.0139193969876572
79
0
47
0
98
1
10
0
20
0
0
DIMENSION
5
160
100
AcDbEntity
8
SK2
62
256
6
ByLayer
370
18
48
1
60
0
100
AcDbDimension
2
_U0
10
61.1
20
-45.952229
30
0
11
2.55
21
-45.952229
31
0
70
32
71
1
72
1
41
1
210
0
220
0
230
1
3
Standard
100
AcDbAlignedDimension
13
-56
23
-12.5
33
0
14
61.1
24
0
34
0
50
0
100
AcDbRotatedDimension
1001
ACAD
1000
DSTYLE
1002
{
1070
   371
1070
    13
1070
   372
1070
    13
1070
     3
1000

1070
   170
1070
     0
1070
   144
1040
1.0
1070
   277
1070
     2
1070
   284
1070
     8
1070
   278
1070
    46
1070
   146
1040
1.166667
1070
   345
1005
16
1070
   347
1005
16
1070
   346
1005
16
1070
   344
1005
0
1070
   343
1005
0
1070
   172
1070
     1
1070
    76
1070
     0
1070
    75
1070
     0
1070
   282
1070
     0
1070
   281
1070
     0
1070
    71
1070
     0
1070
    74
1070
     0
1070
   279
1070
     0
1070
   173
1070
     1
1070
   340
1005
13F
1070
   271
1070
     2
1070
   272
1070
     3
1070
    77
1070
     1
1070
    73
1070
     1
1070
   171
1070
     3
1070
   274
1070
     4
1070
   177
1070
     2
1070
   176
1070
     2
1070
   178
1070
     2
1070
    78
1070
     8
1070
    48
1040
-0.1
1070
    41
1040
3.5
1070
   147
1040
1.5
1070
    42
1040
1.5875
1070
    44
1040
2.0
1070
   140
1040
3.0
1002
}
1001
ACAD_DSTYLE_DIM_LINETYPE
1070
   380
1005
16
1001
ACAD_DSTYLE_DIM_EXT1_LINETYPE
1070
   381
1005
16
1001
ACAD_DSTYLE_DIM_EXT2_LINETYPE
1070
   382
1005
16
0
DIMENSION
5
179
100
AcDbEntity
8
SK2
62
256
6
ByLayer
370
18
48
1
60
0
100
AcDbDimension
2
_U1
10
6
20
-35.952229
30
0
11
33.55
21
-35.952229
31
0
70
32
71
1
72
1
41
1
210
0
220
0
230
1
3
Standard
100
AcDbAlignedDimension
13
61.1
23
0
33
0
14
6
24
-11
34
0
50
0
100
AcDbRotatedDimension
1001
ACAD
1000
DSTYLE
1002
{
1070
   371
1070
    13
1070
   372
1070
    13
1070
     3
1000

1070
   170
1070
     0
1070
   144
1040
1.0
1070
   277
1070
     2
1070
   284
1070
     8
1070
   278
1070
    46
1070
   146
1040
1.166667
1070
   345
1005
16
1070
   347
1005
16
1070
   346
1005
16
1070
   344
1005
0
1070
   343
1005
0
1070
   172
1070
     1
1070
    76
1070
     0
1070
    75
1070
     0
1070
   282
1070
     0
1070
   281
1070
     0
1070
    71
1070
     0
1070
    74
1070
     0
1070
   279
1070
     0
1070
   173
1070
     1
1070
   340
1005
13F
1070
   271
1070
     2
1070
   272
1070
     3
1070
    77
1070
     1
1070
    73
1070
     1
1070
   171
1070
     3
1070
   274
1070
     4
1070
   177
1070
     2
1070
   176
1070
     2
1070
   178
1070
     2
1070
    78
1070
     8
1070
    48
1040
-0.1
1070
    41
1040
3.5
1070
   147
1040
1.5
1070
    42
1040
1.5875
1070
    44
1040
2.0
1070
   140
1040
3.0
1002
}
1001
ACAD_DSTYLE_DIM_LINETYPE
1070
   380
1005
16
1001
ACAD_DSTYLE_DIM_EXT1_LINETYPE
1070
   381
1005
16
1001
ACAD_DSTYLE_DIM_EXT2_LINETYPE
1070
   382
1005
16
0
DIMENSION
5
191
100
AcDbEntity
8
SK2
62
256
6
ByLayer
370
18
48
1
60
0
100
AcDbDimension
2
_U2
10
0
20
-35.952229
30
0
11
-28
21
-35.952229
31
0
70
32
71
1
72
1
41
1
210
0
220
0
230
1
3
Standard
100
AcDbAlignedDimension
13
-56
23
-12.5
33
0
14
0
24
-12.5
34
0
50
0
100
AcDbRotatedDimension
1001
ACAD
1000
DSTYLE
1002
{
1070
   371
1070
    13
1070
   372
1070
    13
1070
     3
1000

1070
   170
1070
     0
1070
   144
1040
1.0
1070
   277
1070
     2
1070
   284
1070
     8
1070
   278
1070
    46
1070
   146
1040
1.166667
1070
   345
1005
16
1070
   347
1005
16
1070
   346
1005
16
1070
   344
1005
0
1070
   343
1005
0
1070
   172
1070
     1
1070
    76
1070
     0
1070
    75
1070
     0
1070
   282
1070
     0
1070
   281
1070
     0
1070
    71
1070
     0
1070
    74
1070
     0
1070
   279
1070
     0
1070
   173
1070
     1
1070
   340
1005
13F
1070
   271
1070
     2
1070
   272
1070
     3
1070
    77
1070
     1
1070
    73
1070
     1
1070
   171
1070
     3
1070
   274
1070
     4
1070
   177
1070
     2
1070
   176
1070
     2
1070
   178
1070
     2
1070
    78
1070
     8
1070
    48
1040
-0.1
1070
    41
1040
3.5
1070
   147
1040
1.5
1070
    42
1040
1.5875
1070
    44
1040
2.0
1070
   140
1040
3.0
1002
}
1001
ACAD_DSTYLE_DIM_LINETYPE
1070
   380
1005
16
1001
ACAD_DSTYLE_DIM_EXT1_LINETYPE
1070
   381
1005
16
1001
ACAD_DSTYLE_DIM_EXT2_LINETYPE
1070
   382
1005
16
0
DIMENSION
5
1A9
100
AcDbEntity
8
SK2
62
256
6
ByLayer
370
18
48
1
60
0
100
AcDbDimension
2
_U3
10
15
20
32.952229
30
0
11
38.05
21
32.952229
31
0
70
32
71
1
72
1
41
1
210
0
220
0
230
1
3
Standard
100
AcDbAlignedDimension
13
61.1
23
0
33
0
14
15
24
11
34
0
50
0
100
AcDbRotatedDimension
1001
ACAD
1000
DSTYLE
1002
{
1070
   371
1070
    13
1070
   372
1070
    13
1070
     3
1000

1070
   170
1070
     0
1070
   144
1040
1.0
1070
   277
1070
     2
1070
   284
1070
     8
1070
   278
1070
    46
1070
   146
1040
1.166667
1070
   345
1005
16
1070
   347
1005
16
1070
   346
1005
16
1070
   344
1005
0
1070
   343
1005
0
1070
   172
1070
     1
1070
    76
1070
     0
1070
    75
1070
     0
1070
   282
1070
     0
1070
   281
1070
     0
1070
    71
1070
     0
1070
    74
1070
     0
1070
   279
1070
     0
1070
   173
1070
     1
1070
   340
1005
13F
1070
   271
1070
     2
1070
   272
1070
     3
1070
    77
1070
     1
1070
    73
1070
     1
1070
   171
1070
     3
1070
   274
1070
     4
1070
   177
1070
     2
1070
   176
1070
     2
1070
   178
1070
     2
1070
    78
1070
     8
1070
    48
1040
-0.1
1070
    41
1040
3.5
1070
   147
1040
1.5
1070
    42
1040
1.5875
1070
    44
1040
2.0
1070
   140
1040
3.0
1002
}
1001
ACAD_DSTYLE_DIM_LINETYPE
1070
   380
1005
16
1001
ACAD_DSTYLE_DIM_EXT1_LINETYPE
1070
   381
1005
16
1001
ACAD_DSTYLE_DIM_EXT2_LINETYPE
1070
   382
1005
16
0
ENDSEC
0
SECTION
2
OBJECTS
0
DICTIONARY
5
231
330
0
100
AcDbDictionary
280
0
281
1
3
ACAD_GROUP
350
232
3
ACAD_MLINESTYLE
350
233
0
DICTIONARY
5
232
330
0
100
AcDbDictionary
280
0
281
1
0
DICTIONARY
5
233
330
0
100
AcDbDictionary
280
0
281
1
3
Standard
350
18
0
MLINESTYLE
5
18
330
233
100
AcDbMlineStyle
2
Standard
70
0
3

62
256
51
90
52
90
71
2
49
-0.5
62
256
6
ByLayer
49
0.5
62
256
6
ByLayer
0
RASTERVARIABLES
5
21f
330

100
AcDbRasterVariables
90
0
70
1
71
1
72
1
0
ENDSEC
0
EOF
