0
SECTION
2
HEADER
9
$ACADVER
1
AC1015
9
$DWGCODEPAGE
3
ANSI_1252
9
$HANDSEED
5
239
9
$ANGBASE
50
0
9
$ANGDIR
70
0
9
$ATTMODE
70
1
9
$AUNITS
70
0
9
$AUPREC
70
0
9
$CECOLOR
62
256
9
$CELTSCALE
40
1
9
$CELTYPE
6
ByLayer
9
$CELWEIGHT
370
18
9
$CLAYER
8
0
9
$CMLJUST
70
0
9
$CMLSCALE
40
1
9
$CMLSTYLE
2
Standard
9
$DIMSTYLE
2
Standard
9
$TEXTSIZE
40
0.2
9
$TEXTSTYLE
7
Standard
9
$LUNITS
70
2
9
$LUPREC
70
4
9
$EXTNAMES
290
1
9
$INSUNITS
70
4
9
$LTSCALE
40
1
9
$LWDISPLAY
290
1
9
$PDMODE
70
0
9
$PDSIZE
40
0
9
$PLINEGEN
70
0
0
ENDSEC
0
SECTION
2
CLASSES
0
CLASS
1
RASTERVARIABLES
2
AcDbRasterVariables
3
ISM
90
0
280
0
281
0
0
ENDSEC
0
SECTION
2
TABLES
0
TABLE
2
VPORT
5
22f
100
AcDbSymbolTable
0
VPORT
5
1
100
AcDbSymbolTableRecord
100
AcDbViewportTableRecord
2
*Active
70
0
10
0
20
0
11
1
21
1
12
-1
22
1
13
0
23
0
14
0.5
24
0.5
15
10
25
10
16
0
26
0
36
1
17
0
27
0
37
0
0
ENDTAB
0
TABLE
2
LTYPE
5
230
100
AcDbSymbolTable
0
LTYPE
5
14
100
AcDbSymbolTableRecord
100
AcDbLinetypeTableRecord
70
0
2
ByBlock
3

72
65
73
0
40
0
0
LTYPE
5
15
100
AcDbSymbolTableRecord
100
AcDbLinetypeTableRecord
70
0
2
ByLayer
3

72
65
73
0
40
0
0
LTYPE
5
16
100
AcDbSymbolTableRecord
100
AcDbLinetypeTableRecord
70
0
2
Continuous
3
Solid line
72
65
73
0
40
0
0
LTYPE
5
6E
100
AcDbSymbolTableRecord
100
AcDbLinetypeTableRecord
70
0
2
CENTER
3
____ _ ____ _ ____ _ ____
72
65
73
4
40
47.5
49
22
74
0
49
-8.5
74
0
49
8.5
74
0
49
-8.5
74
0
0
LTYPE
5
6F
100
AcDbSymbolTableRecord
100
AcDbLinetypeTableRecord
70
0
2
DASHED
3
__ __ __ __ __ __ __ __ __
72
65
73
2
40
25.72
49
12.86
74
0
49
-12.86
74
0
0
ENDTAB
0
TABLE
2
LAYER
5
231
100
AcDbSymbolTable
0
LAYER
5
10
100
AcDbSymbolTableRecord
100
AcDbLayerTableRecord
2
0
70
0
62
7
6
Continuous
290
1
370
-3
390
0
0
LAYER
5
71
100
AcDbSymbolTableRecord
100
AcDbLayerTableRecord
2
81
70
0
62
-3
6
Continuous
290
1
370
-3
390
0
0
LAYER
5
73
100
AcDbSymbolTableRecord
100
AcDbLayerTableRecord
2
80
70
0
62
-6
6
Continuous
290
1
370
-3
390
0
0
LAYER
5
75
100
AcDbSymbolTableRecord
100
AcDbLayerTableRecord
2
1
70
0
62
4
6
Continuous
290
1
370
-3
390
0
0
LAYER
5
7E
100
AcDbSymbolTableRecord
100
AcDbLayerTableRecord
2
4
70
0
62
-2
6
CENTER
290
1
370
-3
390
0
0
LAYER
5
AF
100
AcDbSymbolTableRecord
100
AcDbLayerTableRecord
2
2
70
0
62
7
6
Continuous
290
1
370
-3
390
0
0
LAYER
5
15E
100
AcDbSymbolTableRecord
100
AcDbLayerTableRecord
2
Defpoints
70
0
62
7
6
Continuous
290
0
370
-3
390
0
0
LAYER
5
21b
100
AcDbSymbolTableRecord
100
AcDbLayerTableRecord
2
SK4
70
0
62
2
6
CENTER
290
1
370
-3
390
0
0
LAYER
5
21c
100
AcDbSymbolTableRecord
100
AcDbLayerTableRecord
2
SK1
70
0
62
4
6
Continuous
290
1
370
-3
390
0
0
LAYER
5
21d
100
AcDbSymbolTableRecord
100
AcDbLayerTableRecord
2
SK2
70
0
62
7
6
Continuous
290
1
370
-3
390
0
0
LAYER
5
21e
100
AcDbSymbolTableRecord
100
AcDbLayerTableRecord
2
SK6
70
0
62
5
6
Continuous
290
1
370
-3
390
0
0
ENDTAB
0
TABLE
2
STYLE
5
232
100
AcDbSymbolTable
0
STYLE
5
11
100
AcDbSymbolTableRecord
100
AcDbTextStyleTableRecord
2
Standard
3
txt
70
0
71
0
40
0
41
1
42
0
50
0
0
STYLE
5
13A
100
AcDbSymbolTableRecord
100
AcDbTextStyleTableRecord
2
iso_b_vert
3
simplex.shx
70
0
71
0
40
0
41
1
42
0
50
0
0
STYLE
5
13B
100
AcDbSymbolTableRecord
100
AcDbTextStyleTableRecord
2
DWGDirectTextStyle
3
simplex
70
0
71
0
40
0
41
1
42
0
50
0
0
ENDTAB
0
TABLE
2
DIMSTYLE
5
233
100
AcDbSymbolTable
100
AcDbDimStyleTable
0
DIMSTYLE
105
27
100
AcDbSymbolTableRecord
100
AcDbDimStyleTableRecord
2
Standard
70
0
3
<>
41
0.18
42
0.0625
44
0.18
140
0.18
147
0.09
73
0
74
0
77
1
271
2
275
0
278
52
280
0
340
11
0
ENDTAB
0
TABLE
2
VIEW
5
234
100
AcDbSymbolTable
0
ENDTAB
0
TABLE
2
UCS
5
235
100
AcDbSymbolTable
0
ENDTAB
0
TABLE
2
APPID
5
236
100
AcDbSymbolTable
0
APPID
5
12
100
AcDbSymbolTableRecord
100
AcDbRegAppTableRecord
2
ACAD
70
0
0
APPID
5
15A
100
AcDbSymbolTableRecord
100
AcDbRegAppTableRecord
2
ACAD_DSTYLE_DIMBREAK
70
0
0
APPID
5
1DA
100
AcDbSymbolTableRecord
100
AcDbRegAppTableRecord
2
ACAD_DSTYLE_DIM_LINETYPE
70
0
0
APPID
5
1DB
100
AcDbSymbolTableRecord
100
AcDbRegAppTableRecord
2
ACAD_DSTYLE_DIM_EXT1_LINETYPE
70
0
0
APPID
5
1DC
100
AcDbSymbolTableRecord
100
AcDbRegAppTableRecord
2
ACAD_DSTYLE_DIM_EXT2_LINETYPE
70
0
0
APPID
5
217
100
AcDbSymbolTableRecord
100
AcDbRegAppTableRecord
2
ACAD_MLEADERVER
70
0
0
ENDTAB
0
TABLE
2
BLOCK_RECORD
5
237
100
AcDbSymbolTable
0
BLOCK_RECORD
5
1F
100
AcDbSymbolTableRecord
100
AcDbBlockTableRecord
2
*Model_Space
340
0
70
0
0
BLOCK_RECORD
5
1B
100
AcDbSymbolTableRecord
100
AcDbBlockTableRecord
2
*Paper_Space
340
0
70
0
0
BLOCK_RECORD
5
23
100
AcDbSymbolTableRecord
100
AcDbBlockTableRecord
2
*Paper_Space0
340
0
70
0
0
BLOCK_RECORD
5
15F
100
AcDbSymbolTableRecord
100
AcDbBlockTableRecord
2
*D1
340
0
70
0
0
BLOCK_RECORD
5
16B
100
AcDbSymbolTableRecord
100
AcDbBlockTableRecord
2
_U0
340
0
70
0
0
BLOCK_RECORD
5
177
100
AcDbSymbolTableRecord
100
AcDbBlockTableRecord
2
*D3
340
0
70
0
0
BLOCK_RECORD
5
183
100
AcDbSymbolTableRecord
100
AcDbBlockTableRecord
2
_U1
340
0
70
0
0
BLOCK_RECORD
5
18F
100
AcDbSymbolTableRecord
100
AcDbBlockTableRecord
2
*D5
340
0
70
0
0
BLOCK_RECORD
5
19B
100
AcDbSymbolTableRecord
100
AcDbBlockTableRecord
2
_U2
340
0
70
0
0
BLOCK_RECORD
5
1A7
100
AcDbSymbolTableRecord
100
AcDbBlockTableRecord
2
*D7
340
0
70
0
0
BLOCK_RECORD
5
1B3
100
AcDbSymbolTableRecord
100
AcDbBlockTableRecord
2
_U3
340
0
70
0
0
ENDTAB
0
ENDSEC
0
SECTION
2
BLOCKS
0
BLOCK
5
20
100
AcDbEntity
8
0
100
AcDbBlockBegin
2
*Model_Space
70
0
10
0
20
0
30
0
3
*Model_Space
0
ENDBLK
5
21
100
AcDbEntity
8
0
100
AcDbBlockEnd
0
BLOCK
5
1C
100
AcDbEntity
8
0
100
AcDbBlockBegin
2
*Paper_Space
70
0
10
0
20
0
30
0
3
*Paper_Space
0
ENDBLK
5
1D
100
AcDbEntity
8
0
100
AcDbBlockEnd
0
BLOCK
5
24
100
AcDbEntity
8
0
100
AcDbBlockBegin
2
*Paper_Space0
70
0
10
0
20
0
30
0
3
*Paper_Space0
0
ENDBLK
5
25
100
AcDbEntity
8
0
100
AcDbBlockEnd
0
BLOCK
5
160
100
AcDbEntity
8
0
100
AcDbBlockBegin
2
*D1
70
1
10
0
20
0
30
0
3
*D1
0
LINE
5
162
100
AcDbEntity
8
0
62
256
6
ByLayer
370
-2
48
1
60
0
100
AcDbLine
10
-56
20
-14.0875
30
0
11
-56
21
-47.952229
31
0
39
0
210
0
220
0
230
1
0
LINE
5
163
100
AcDbEntity
8
0
62
256
6
ByLayer
370
-2
48
1
60
0
100
AcDbLine
10
59.5
20
-1.5875
30
0
11
59.5
21
-47.952229
31
0
39
0
210
0
220
0
230
1
0
LINE
5
164
100
AcDbEntity
8
0
62
256
6
ByLayer
370
-2
48
1
60
0
100
AcDbLine
10
-52.5
20
-45.952229
30
0
11
56
21
-45.952229
31
0
39
0
210
0
220
0
230
1
0
SOLID
5
165
100
AcDbEntity
8
0
62
256
6
ByLayer
370
-1
48
1
60
0
100
AcDbTrace
10
-52.5
20
-45.368896
30
0
11
-52.5
21
-46.535563
31
0
12
-56
22
-45.952229
32
0
13
-56
23
-45.952229
33
0
39
0
210
0
220
0
230
1
0
SOLID
5
166
100
AcDbEntity
8
0
62
256
6
ByLayer
370
-1
48
1
60
0
100
AcDbTrace
10
56
20
-46.535563
30
0
11
56
21
-45.368896
31
0
12
59.5
22
-45.952229
32
0
13
59.5
23
-45.952229
33
0
39
0
210
0
220
0
230
1
0
MTEXT
5
167
100
AcDbEntity
8
0
62
256
6
ByLayer
370
18
48
1
60
0
100
AcDbMText
10
1.75
20
-39.952229
30
0
210
0
220
0
230
1
1
\A1;115.5
40
3
41
0
44
1
50
0
71
5
72
5
7
iso_b_vert
0
POINT
5
168
100
AcDbEntity
8
Defpoints
62
0
6
ByLayer
370
-1
48
1
60
0
100
AcDbPoint
10
-56
20
-12.5
30
0
39
0
210
0
220
0
230
1
50
360
0
POINT
5
169
100
AcDbEntity
8
Defpoints
62
0
6
ByLayer
370
-1
48
1
60
0
100
AcDbPoint
10
59.5
20
0
30
0
39
0
210
0
220
0
230
1
50
360
0
POINT
5
16A
100
AcDbEntity
8
Defpoints
62
0
6
ByLayer
370
-1
48
1
60
0
100
AcDbPoint
10
59.5
20
-45.952229
30
0
39
0
210
0
220
0
230
1
50
360
0
ENDBLK
5
161
100
AcDbEntity
8
0
100
AcDbBlockEnd
0
BLOCK
5
172
100
AcDbEntity
8
0
100
AcDbBlockBegin
2
_U0
70
0
10
0
20
0
30
0
3
_U0
0
MTEXT
5
16C
100
AcDbEntity
8
SK2
62
256
6
ByLayer
370
18
48
1
60
0
100
AcDbMText
10
-3.103399
20
-45.067115
30
0
210
0
220
0
230
1
1
\W0.6532;115.50
40
3
41
0
44
1.084337
50
0
71
7
72
5
7
iso_b_vert
0
LINE
5
16D
100
AcDbEntity
8
SK2
62
256
6
ByLayer
370
13
48
1
60
0
100
AcDbLine
10
-56
20
-14.0875
30
0
11
-56
21
-47.952229
31
0
39
0
210
0
220
0
230
1
0
LINE
5
16E
100
AcDbEntity
8
SK2
62
256
6
ByLayer
370
13
48
1
60
0
100
AcDbLine
10
59.5
20
-1.5875
30
0
11
59.5
21
-47.952229
31
0
39
0
210
0
220
0
230
1
0
LINE
5
16F
100
AcDbEntity
8
SK2
62
256
6
ByLayer
370
13
48
1
60
0
100
AcDbLine
10
-56
20
-45.952229
30
0
11
59.5
21
-45.952229
31
0
39
0
210
0
220
0
230
1
0
SOLID
5
170
100
AcDbEntity
8
SK2
62
256
6
ByLayer
370
18
48
1
60
0
100
AcDbTrace
10
-56
20
-45.952229
30
0
11
-52.500002
21
-45.491446
31
0
12
-52.499998
22
-46.413013
32
0
13
-52.499998
23
-46.413013
33
0
39
0
210
0
220
0
230
1
0
SOLID
5
171
100
AcDbEntity
8
SK2
62
256
6
ByLayer
370
18
48
1
60
0
100
AcDbTrace
10
59.5
20
-45.952229
30
0
11
56.000002
21
-46.413013
31
0
12
55.999998
22
-45.491446
32
0
13
55.999998
23
-45.491446
33
0
39
0
210
0
220
0
230
1
0
ENDBLK
5
173
100
AcDbEntity
8
0
100
AcDbBlockEnd
0
BLOCK
5
178
100
AcDbEntity
8
0
100
AcDbBlockBegin
2
*D3
70
1
10
0
20
0
30
0
3
*D3
0
LINE
5
17A
100
AcDbEntity
8
0
62
256
6
ByLayer
370
-2
48
1
60
0
100
AcDbLine
10
59.5
20
-1.5875
30
0
11
59.5
21
-37.952229
31
0
39
0
210
0
220
0
230
1
0
LINE
5
17B
100
AcDbEntity
8
0
62
256
6
ByLayer
370
-2
48
1
60
0
100
AcDbLine
10
6
20
-12.0875
30
0
11
6
21
-37.952229
31
0
39
0
210
0
220
0
230
1
0
LINE
5
17C
100
AcDbEntity
8
0
62
256
6
ByLayer
370
-2
48
1
60
0
100
AcDbLine
10
56
20
-35.952229
30
0
11
9.5
21
-35.952229
31
0
39
0
210
0
220
0
230
1
0
SOLID
5
17D
100
AcDbEntity
8
0
62
256
6
ByLayer
370
-1
48
1
60
0
100
AcDbTrace
10
56
20
-36.535563
30
0
11
56
21
-35.368896
31
0
12
59.5
22
-35.952229
32
0
13
59.5
23
-35.952229
33
0
39
0
210
0
220
0
230
1
0
SOLID
5
17E
100
AcDbEntity
8
0
62
256
6
ByLayer
370
-1
48
1
60
0
100
AcDbTrace
10
9.5
20
-35.368896
30
0
11
9.5
21
-36.535563
31
0
12
6
22
-35.952229
32
0
13
6
23
-35.952229
33
0
39
0
210
0
220
0
230
1
0
MTEXT
5
17F
100
AcDbEntity
8
0
62
256
6
ByLayer
370
18
48
1
60
0
100
AcDbMText
10
32.75
20
-29.952229
30
0
210
0
220
0
230
1
1
\A1;53.5
40
3
41
0
44
1
50
0
71
5
72
5
7
iso_b_vert
0
POINT
5
180
100
AcDbEntity
8
Defpoints
62
0
6
ByLayer
370
-1
48
1
60
0
100
AcDbPoint
10
59.5
20
0
30
0
39
0
210
0
220
0
230
1
50
360
0
POINT
5
181
100
AcDbEntity
8
Defpoints
62
0
6
ByLayer
370
-1
48
1
60
0
100
AcDbPoint
10
6
20
-10.5
30
0
39
0
210
0
220
0
230
1
50
360
0
POINT
5
182
100
AcDbEntity
8
Defpoints
62
0
6
ByLayer
370
-1
48
1
60
0
100
AcDbPoint
10
6
20
-35.952229
30
0
39
0
210
0
220
0
230
1
50
360
0
ENDBLK
5
179
100
AcDbEntity
8
0
100
AcDbBlockEnd
0
BLOCK
5
18A
100
AcDbEntity
8
0
100
AcDbBlockBegin
2
_U1
70
0
10
0
20
0
30
0
3
_U1
0
MTEXT
5
184
100
AcDbEntity
8
SK2
62
256
6
ByLayer
370
18
48
1
60
0
100
AcDbMText
10
28.26763
20
-35.067115
30
0
210
0
220
0
230
1
1
\W0.7468;53.50
40
3
41
0
44
1.084337
50
0
71
7
72
5
7
iso_b_vert
0
LINE
5
185
100
AcDbEntity
8
SK2
62
256
6
ByLayer
370
13
48
1
60
0
100
AcDbLine
10
59.5
20
-1.5875
30
0
11
59.5
21
-37.952229
31
0
39
0
210
0
220
0
230
1
0
LINE
5
186
100
AcDbEntity
8
SK2
62
256
6
ByLayer
370
13
48
1
60
0
100
AcDbLine
10
6
20
-12.0875
30
0
11
6
21
-37.952229
31
0
39
0
210
0
220
0
230
1
0
LINE
5
187
100
AcDbEntity
8
SK2
62
256
6
ByLayer
370
13
48
1
60
0
100
AcDbLine
10
59.5
20
-35.952229
30
0
11
6
21
-35.952229
31
0
39
0
210
0
220
0
230
1
0
SOLID
5
188
100
AcDbEntity
8
SK2
62
256
6
ByLayer
370
18
48
1
60
0
100
AcDbTrace
10
59.5
20
-35.952229
30
0
11
56.000002
21
-36.413013
31
0
12
55.999998
22
-35.491446
32
0
13
55.999998
23
-35.491446
33
0
39
0
210
0
220
0
230
1
0
SOLID
5
189
100
AcDbEntity
8
SK2
62
256
6
ByLayer
370
18
48
1
60
0
100
AcDbTrace
10
6
20
-35.952229
30
0
11
9.499998
21
-35.491446
31
0
12
9.500002
22
-36.413013
32
0
13
9.500002
23
-36.413013
33
0
39
0
210
0
220
0
230
1
0
ENDBLK
5
18B
100
AcDbEntity
8
0
100
AcDbBlockEnd
0
BLOCK
5
190
100
AcDbEntity
8
0
100
AcDbBlockBegin
2
*D5
70
1
10
0
20
0
30
0
3
*D5
0
LINE
5
192
100
AcDbEntity
8
0
62
256
6
ByLayer
370
-2
48
1
60
0
100
AcDbLine
10
-56
20
-14.0875
30
0
11
-56
21
-37.952229
31
0
39
0
210
0
220
0
230
1
0
LINE
5
193
100
AcDbEntity
8
0
62
256
6
ByLayer
370
-2
48
1
60
0
100
AcDbLine
10
0
20
-14.0875
30
0
11
0
21
-37.952229
31
0
39
0
210
0
220
0
230
1
0
LINE
5
194
100
AcDbEntity
8
0
62
256
6
ByLayer
370
-2
48
1
60
0
100
AcDbLine
10
-52.5
20
-35.952229
30
0
11
-3.5
21
-35.952229
31
0
39
0
210
0
220
0
230
1
0
SOLID
5
195
100
AcDbEntity
8
0
62
256
6
ByLayer
370
-1
48
1
60
0
100
AcDbTrace
10
-52.5
20
-35.368896
30
0
11
-52.5
21
-36.535563
31
0
12
-56
22
-35.952229
32
0
13
-56
23
-35.952229
33
0
39
0
210
0
220
0
230
1
0
SOLID
5
196
100
AcDbEntity
8
0
62
256
6
ByLayer
370
-1
48
1
60
0
100
AcDbTrace
10
-3.5
20
-36.535563
30
0
11
-3.5
21
-35.368896
31
0
12
0
22
-35.952229
32
0
13
0
23
-35.952229
33
0
39
0
210
0
220
0
230
1
0
MTEXT
5
197
100
AcDbEntity
8
0
62
256
6
ByLayer
370
18
48
1
60
0
100
AcDbMText
10
-28
20
-29.952229
30
0
210
0
220
0
230
1
1
\A1;56
40
3
41
0
44
1
50
0
71
5
72
5
7
iso_b_vert
0
POINT
5
198
100
AcDbEntity
8
Defpoints
62
0
6
ByLayer
370
-1
48
1
60
0
100
AcDbPoint
10
-56
20
-12.5
30
0
39
0
210
0
220
0
230
1
50
360
0
POINT
5
199
100
AcDbEntity
8
Defpoints
62
0
6
ByLayer
370
-1
48
1
60
0
100
AcDbPoint
10
0
20
-12.5
30
0
39
0
210
0
220
0
230
1
50
360
0
POINT
5
19A
100
AcDbEntity
8
Defpoints
62
0
6
ByLayer
370
-1
48
1
60
0
100
AcDbPoint
10
0
20
-35.952229
30
0
39
0
210
0
220
0
230
1
50
360
0
ENDBLK
5
191
100
AcDbEntity
8
0
100
AcDbBlockEnd
0
BLOCK
5
1A2
100
AcDbEntity
8
0
100
AcDbBlockBegin
2
_U2
70
0
10
0
20
0
30
0
3
_U2
0
MTEXT
5
19C
100
AcDbEntity
8
SK2
62
256
6
ByLayer
370
18
48
1
60
0
100
AcDbMText
10
-32.48237
20
-35.067115
30
0
210
0
220
0
230
1
1
\W0.7468;56.00
40
3
41
0
44
1.084337
50
0
71
7
72
5
7
iso_b_vert
0
LINE
5
19D
100
AcDbEntity
8
SK2
62
256
6
ByLayer
370
13
48
1
60
0
100
AcDbLine
10
-56
20
-14.0875
30
0
11
-56
21
-37.952229
31
0
39
0
210
0
220
0
230
1
0
LINE
5
19E
100
AcDbEntity
8
SK2
62
256
6
ByLayer
370
13
48
1
60
0
100
AcDbLine
10
0
20
-14.0875
30
0
11
0
21
-37.952229
31
0
39
0
210
0
220
0
230
1
0
LINE
5
19F
100
AcDbEntity
8
SK2
62
256
6
ByLayer
370
13
48
1
60
0
100
AcDbLine
10
-56
20
-35.952229
30
0
11
0
21
-35.952229
31
0
39
0
210
0
220
0
230
1
0
SOLID
5
1A0
100
AcDbEntity
8
SK2
62
256
6
ByLayer
370
18
48
1
60
0
100
AcDbTrace
10
-56
20
-35.952229
30
0
11
-52.500002
21
-35.491446
31
0
12
-52.499998
22
-36.413013
32
0
13
-52.499998
23
-36.413013
33
0
39
0
210
0
220
0
230
1
0
SOLID
5
1A1
100
AcDbEntity
8
SK2
62
256
6
ByLayer
370
18
48
1
60
0
100
AcDbTrace
10
0
20
-35.952229
30
0
11
-3.499998
21
-36.413013
31
0
12
-3.500002
22
-35.491446
32
0
13
-3.500002
23
-35.491446
33
0
39
0
210
0
220
0
230
1
0
ENDBLK
5
1A3
100
AcDbEntity
8
0
100
AcDbBlockEnd
0
BLOCK
5
1A8
100
AcDbEntity
8
0
100
AcDbBlockBegin
2
*D7
70
1
10
0
20
0
30
0
3
*D7
0
LINE
5
1AA
100
AcDbEntity
8
0
62
256
6
ByLayer
370
-2
48
1
60
0
100
AcDbLine
10
59.5
20
1.5875
30
0
11
59.5
21
34.952229
31
0
39
0
210
0
220
0
230
1
0
LINE
5
1AB
100
AcDbEntity
8
0
62
256
6
ByLayer
370
-2
48
1
60
0
100
AcDbLine
10
15
20
12.0875
30
0
11
15
21
34.952229
31
0
39
0
210
0
220
0
230
1
0
LINE
5
1AC
100
AcDbEntity
8
0
62
256
6
ByLayer
370
-2
48
1
60
0
100
AcDbLine
10
56
20
32.952229
30
0
11
18.5
21
32.952229
31
0
39
0
210
0
220
0
230
1
0
SOLID
5
1AD
100
AcDbEntity
8
0
62
256
6
ByLayer
370
-1
48
1
60
0
100
AcDbTrace
10
56
20
32.368896
30
0
11
56
21
33.535563
31
0
12
59.5
22
32.952229
32
0
13
59.5
23
32.952229
33
0
39
0
210
0
220
0
230
1
0
SOLID
5
1AE
100
AcDbEntity
8
0
62
256
6
ByLayer
370
-1
48
1
60
0
100
AcDbTrace
10
18.5
20
33.535563
30
0
11
18.5
21
32.368896
31
0
12
15
22
32.952229
32
0
13
15
23
32.952229
33
0
39
0
210
0
220
0
230
1
0
MTEXT
5
1AF
100
AcDbEntity
8
0
62
256
6
ByLayer
370
18
48
1
60
0
100
AcDbMText
10
37.25
20
38.952229
30
0
210
0
220
0
230
1
1
\A1;44.5
40
3
41
0
44
1
50
0
71
5
72
5
7
iso_b_vert
0
POINT
5
1B0
100
AcDbEntity
8
Defpoints
62
0
6
ByLayer
370
-1
48
1
60
0
100
AcDbPoint
10
59.5
20
0
30
0
39
0
210
0
220
0
230
1
50
360
0
POINT
5
1B1
100
AcDbEntity
8
Defpoints
62
0
6
ByLayer
370
-1
48
1
60
0
100
AcDbPoint
10
15
20
10.5
30
0
39
0
210
0
220
0
230
1
50
360
0
POINT
5
1B2
100
AcDbEntity
8
Defpoints
62
0
6
ByLayer
370
-1
48
1
60
0
100
AcDbPoint
10
15
20
32.952229
30
0
39
0
210
0
220
0
230
1
50
360
0
ENDBLK
5
1A9
100
AcDbEntity
8
0
100
AcDbBlockEnd
0
BLOCK
5
1BA
100
AcDbEntity
8
0
100
AcDbBlockBegin
2
_U3
70
0
10
0
20
0
30
0
3
_U3
0
MTEXT
5
1B4
100
AcDbEntity
8
SK2
62
256
6
ByLayer
370
18
48
1
60
0
100
AcDbMText
10
32.451744
20
33.837344
30
0
210
0
220
0
230
1
1
\W0.7958;44.50
40
3
41
0
44
1.084337
50
0
71
7
72
5
7
iso_b_vert
0
LINE
5
1B5
100
AcDbEntity
8
SK2
62
256
6
ByLayer
370
13
48
1
60
0
100
AcDbLine
10
59.5
20
1.5875
30
0
11
59.5
21
34.952229
31
0
39
0
210
0
220
0
230
1
0
LINE
5
1B6
100
AcDbEntity
8
SK2
62
256
6
ByLayer
370
13
48
1
60
0
100
AcDbLine
10
15
20
12.0875
30
0
11
15
21
34.952229
31
0
39
0
210
0
220
0
230
1
0
LINE
5
1B7
100
AcDbEntity
8
SK2
62
256
6
ByLayer
370
13
48
1
60
0
100
AcDbLine
10
59.5
20
32.952229
30
0
11
15
21
32.952229
31
0
39
0
210
0
220
0
230
1
0
SOLID
5
1B8
100
AcDbEntity
8
SK2
62
256
6
ByLayer
370
18
48
1
60
0
100
AcDbTrace
10
59.5
20
32.952229
30
0
11
56.000002
21
32.491446
31
0
12
55.999998
22
33.413013
32
0
13
55.999998
23
33.413013
33
0
39
0
210
0
220
0
230
1
0
SOLID
5
1B9
100
AcDbEntity
8
SK2
62
256
6
ByLayer
370
18
48
1
60
0
100
AcDbTrace
10
15
20
32.952229
30
0
11
18.499998
21
33.413013
31
0
12
18.500002
22
32.491446
32
0
13
18.500002
23
32.491446
33
0
39
0
210
0
220
0
230
1
0
ENDBLK
5
1BB
100
AcDbEntity
8
0
100
AcDbBlockEnd
0
ENDSEC
0
SECTION
2
ENTITIES
0
ARC
5
C0
100
AcDbEntity
8
SK2
62
256
6
ByLayer
370
13
48
1
60
0
100
AcDbCircle
39
0
10
59.5
20
0
30
0
40
19
210
0
220
0
230
1
100
AcDbArc
50
290
51
70
0
ELLIPSE
5
C1
100
AcDbEntity
8
SK1
62
256
6
ByLayer
370
18
48
1
60
0
100
AcDbEllipse
10
-41.343561
20
0
30
0
11
-2.29613691341699E-15
21
-12.5000000000002
31
0
210
0
220
0
230
1
40
0.932515
41
-1.86465462472194
42
-1.27693802886786
0
ELLIPSE
5
C2
100
AcDbEntity
8
SK1
62
256
6
ByLayer
370
18
48
1
60
0
100
AcDbEllipse
10
276.680659
20
0
30
0
11
357.953166043254
21
-4.05596621644435E-13
31
0
210
0
220
0
230
1
40
0.034921
41
2.52406396812455
42
2.73005601344533
0
ELLIPSE
5
C3
100
AcDbEntity
8
SK1
62
256
6
ByLayer
370
18
48
1
60
0
100
AcDbEllipse
10
-25.404609
20
0
30
0
11
13.4046088753088
21
-1.51887581674114E-14
31
0
210
0
220
0
230
1
40
0.932515
41
-0.555530755442636
42
0.555530755442635
0
ELLIPSE
5
C4
100
AcDbEntity
8
SK1
62
256
6
ByLayer
370
18
48
1
60
0
100
AcDbEllipse
10
276.680659
20
0
30
0
11
357.953166032003
21
-4.05596621631686E-13
31
0
210
0
220
0
230
1
40
0.034921
41
-2.73005601344242
42
-2.52406396811705
0
POINT
5
70
100
AcDbEntity
8
81
62
256
6
ByLayer
370
18
48
1
60
0
100
AcDbPoint
10
59.5
20
0
30
0
39
0
210
0
220
0
230
1
50
360
0
POINT
5
72
100
AcDbEntity
8
80
62
256
6
ByLayer
370
18
48
1
60
0
100
AcDbPoint
10
0
20
0
30
0
39
0
210
0
220
0
230
1
50
360
0
POINT
5
74
100
AcDbEntity
8
1
62
256
6
ByLayer
370
18
48
1
60
1
100
AcDbPoint
10
-56
20
-12.5
30
0
39
0
210
0
220
0
230
1
50
360
0
POINT
5
76
100
AcDbEntity
8
1
62
256
6
ByLayer
370
18
48
1
60
1
100
AcDbPoint
10
59.5
20
0
30
0
39
0
210
0
220
0
230
1
50
360
0
POINT
5
77
100
AcDbEntity
8
1
62
256
6
ByLayer
370
18
48
1
60
1
100
AcDbPoint
10
59.5
20
0
30
0
39
0
210
0
220
0
230
1
50
360
0
POINT
5
78
100
AcDbEntity
8
1
62
256
6
ByLayer
370
18
48
1
60
1
100
AcDbPoint
10
6
20
-10.5
30
0
39
0
210
0
220
0
230
1
50
360
0
POINT
5
79
100
AcDbEntity
8
1
62
256
6
ByLayer
370
18
48
1
60
1
100
AcDbPoint
10
-56
20
-12.5
30
0
39
0
210
0
220
0
230
1
50
360
0
POINT
5
7A
100
AcDbEntity
8
1
62
256
6
ByLayer
370
18
48
1
60
1
100
AcDbPoint
10
0
20
-12.5
30
0
39
0
210
0
220
0
230
1
50
360
0
POINT
5
7B
100
AcDbEntity
8
1
62
256
6
ByLayer
370
18
48
1
60
1
100
AcDbPoint
10
59.5
20
0
30
0
39
0
210
0
220
0
230
1
50
360
0
POINT
5
7C
100
AcDbEntity
8
1
62
256
6
ByLayer
370
18
48
1
60
1
100
AcDbPoint
10
15
20
10.5
30
0
39
0
210
0
220
0
230
1
50
360
0
SPLINE
5
C5
100
AcDbEntity
8
1
62
256
6
ByLayer
370
18
48
1
60
0
100
AcDbSpline
70
4
71
3
72
20
73
16
40
0
40
0
40
0
40
0
40
0.131906746556821
40
0.131906746556821
40
0.305525397245458
40
0.305525397245458
40
0.479144047934094
40
0.479144047934094
40
0.565953373278411
40
0.565953373278411
40
0.652762698622727
40
0.652762698622727
40
0.826381349311363
40
0.826381349311363
40
1
40
1
40
1
40
1
41
1
10
27.3179815568952
20
-7.52032352115447
30
0
41
1
10
26.8884255740963
20
-7.62284029734712
30
0
41
1
10
26.4589796809582
20
-7.72284924565207
30
0
41
1
10
25.4645502983226
20
-7.94868903158047
30
0
41
1
10
24.8996263604207
20
-8.07262775041562
30
0
41
1
10
23.7695282865798
20
-8.31067519218726
30
0
41
1
10
23.2043761585942
20
-8.42483704247991
30
0
41
1
10
22.3565721139704
20
-8.58891874679881
30
0
41
1
10
22.0739569890377
20
-8.64241607849215
30
0
41
1
10
21.5087047509788
20
-8.74701468422572
30
0
41
1
10
21.2260707198946
20
-8.7981185134264
30
0
41
1
10
20.3778797019931
20
-8.94745257711378
30
0
41
1
10
19.8120733914149
20
-9.04177401848901
30
0
41
1
10
18.6798071071257
20
-9.22001803624002
30
0
41
1
10
18.1133511304683
20
-9.30394757317305
30
0
41
1
10
17.5466228140231
20
-9.38268897634839
30
0
0
SPLINE
5
C6
100
AcDbEntity
8
1
62
256
6
ByLayer
370
18
48
1
60
0
100
AcDbSpline
70
4
71
3
72
14
73
10
40
0
40
0
40
0
40
0
40
0.25
40
0.25
40
0.5
40
0.5
40
0.75
40
0.75
40
1
40
1
40
1
40
1
41
1
10
17.5466228140231
20
9.38268897634853
30
0
41
1
10
17.3310214335695
20
9.41361906783655
30
0
41
1
10
17.1164345275203
20
9.44465936767776
30
0
41
1
10
16.6889862881014
20
9.50637485759745
30
0
41
1
10
16.4761242095563
20
9.53704998918477
30
0
41
1
10
16.0519064559514
20
9.59756829149691
30
0
41
1
10
15.8405502701955
20
9.62741197710196
30
0
41
1
10
15.4192304203027
20
9.68591369780535
30
0
41
1
10
15.2092665801889
20
9.71457279154643
30
0
41
1
10
15
20
9.74250687613588
30
0
0
SPLINE
5
C7
100
AcDbEntity
8
1
62
256
6
ByLayer
370
18
48
1
60
0
100
AcDbSpline
70
4
71
3
72
47
73
43
40
0
40
0
40
0
40
0
40
0.125000000000005
40
0.125000000000005
40
0.156250000000005
40
0.156250000000005
40
0.187500000000005
40
0.187500000000005
40
0.250000000000006
40
0.250000000000006
40
0.312500000000007
40
0.312500000000007
40
0.375000000000008
40
0.375000000000008
40
0.437500000000008
40
0.437500000000008
40
0.500000000000009
40
0.500000000000009
40
0.531250000000009
40
0.531250000000009
40
0.562500000000008
40
0.562500000000008
40
0.593750000000008
40
0.593750000000008
40
0.625000000000007
40
0.656250000000007
40
0.656250000000007
40
0.687500000000006
40
0.687500000000006
40
0.750000000000005
40
0.750000000000005
40
0.812500000000005
40
0.812500000000005
40
0.843750000000004
40
0.843750000000004
40
0.875000000000004
40
0.875000000000004
40
0.906250000000003
40
0.906250000000003
40
0.937500000000003
40
0.937500000000003
40
1
40
1
40
1
40
1
41
1
10
22.1128680417245
20
-6.16567917534658
30
0
41
1
10
23.0551256133567
20
-6.43189493650709
30
0
41
1
10
23.9968888283524
20
-6.68634589807905
30
0
41
1
10
25.1728893632238
20
-6.99125380097223
30
0
41
1
10
25.4080296685737
20
-7.05157292157648
30
0
41
1
10
25.8781777372087
20
-7.17090650302544
30
0
41
1
10
26.1131783311084
20
-7.22993430507788
30
0
41
1
10
26.8181739393721
20
-7.40466414104677
30
0
41
1
10
27.2882267088494
20
-7.51789403387806
30
0
41
1
10
28.2282845533111
20
-7.73821455325481
30
0
41
1
10
28.6982847125517
20
-7.84531416336688
30
0
41
1
10
29.6380843147634
20
-8.05362295230412
30
0
41
1
10
30.1079059156487
20
-8.15478181989718
30
0
41
1
10
31.0478472405562
20
-8.35030698249756
30
0
41
1
10
31.5180299601445
20
-8.44457781362823
30
0
41
1
10
32.458694484232
20
-8.62637529474378
30
0
41
1
10
32.9291518994094
20
-8.71393938726686
30
0
41
1
10
33.6349735829582
20
-8.84031990262
30
0
41
1
10
33.8702603899228
20
-8.8816316920261
30
0
41
1
10
34.3409593315316
20
-8.9624743649442
30
0
41
1
10
34.5763950140148
20
-9.00197276481876
30
0
41
1
10
35.047466902536
20
-9.07909257240988
30
0
41
1
10
35.2831320907884
20
-9.11673019133593
30
0
41
1
10
35.7544446061808
20
-9.19015307692854
30
0
41
1
10
36.2256736649429
20
-9.26171377077
30
0
41
1
10
36.6966946428153
20
-9.32960460702256
30
0
41
1
10
37.1675916344567
20
-9.39567805181829
30
0
41
1
10
37.4029785462224
20
-9.42780478287582
30
0
41
1
10
38.1090362073416
20
-9.52135678155227
30
0
41
1
10
38.5796026300742
20
-9.57994890810207
30
0
41
1
10
39.5209300261038
20
-9.68916007876706
30
0
41
1
10
39.9916466200825
20
-9.73983570929167
30
0
41
1
10
40.6976405493797
20
-9.81010103620912
30
0
41
1
10
40.9329621549136
20
-9.83256024043592
30
0
41
1
10
41.4035771796359
20
-9.87555162680704
30
0
41
1
10
41.638862368137
20
-9.89608907802889
30
0
41
1
10
42.1094492489167
20
-9.93519440044577
30
0
41
1
10
42.3447715369462
20
-9.95374823177104
30
0
41
1
10
42.8155605117785
20
-9.98881256289386
30
0
41
1
10
43.0510134712067
20
-10.0053325258386
30
0
41
1
10
43.7575140380733
20
-10.0518851145836
30
0
41
1
10
44.2287030094455
20
-10.0789150407881
30
0
41
1
10
44.6999999999999
20
-10.1019579329405
30
0
0
SPLINE
5
C8
100
AcDbEntity
8
1
62
256
6
ByLayer
370
18
48
1
60
0
100
AcDbSpline
70
4
71
3
72
14
73
10
40
0
40
0
40
0
40
0
40
0.372006553826158
40
0.372006553826158
40
0.558009830739242
40
0.558009830739242
40
0.744013107652326
40
0.744013107652326
40
1
40
1
40
1
40
1
41
1
10
44.6999999999998
20
-10.4121533920406
30
0
41
1
10
45.1580983084891
20
-10.4335106908476
30
0
41
1
10
45.6158391345394
20
-10.4509551629929
30
0
41
1
10
46.3022076386614
20
-10.4711541882292
30
0
41
1
10
46.5309586382854
20
-10.4768932547299
30
0
41
1
10
46.9884437187993
20
-10.4863814241281
30
0
41
1
10
47.2171817555409
20
-10.4901309283648
30
0
41
1
10
47.7606715227578
20
-10.4966941738659
30
0
41
1
10
48.0753971424568
20
-10.4986269397269
30
0
41
1
10
48.3900590515932
20
-10.4986887255273
30
0
0
SPLINE
5
C9
100
AcDbEntity
8
1
62
256
6
ByLayer
370
18
48
1
60
0
100
AcDbSpline
70
4
71
3
72
24
73
20
40
0
40
0
40
0
40
0
40
0.125
40
0.125
40
0.250000000000001
40
0.250000000000001
40
0.375000000000001
40
0.375000000000001
40
0.500000000000002
40
0.500000000000002
40
0.625000000000002
40
0.625000000000002
40
0.750000000000002
40
0.750000000000002
40
0.875000000000003
40
0.875000000000003
40
0.937500000000001
40
0.937500000000001
40
1
40
1
40
1
40
1
41
1
10
55.6783125402065
20
-1.49813824179583
30
0
41
1
10
55.2202189117647
20
-1.33322161795064
30
0
41
1
10
54.7623167562166
20
-1.16796314732542
30
0
41
1
10
53.8469559189581
20
-0.836592820508315
30
0
41
1
10
53.3895192765788
20
-0.670419890743801
30
0
41
1
10
52.4749967020754
20
-0.337480097262386
30
0
41
1
10
52.0177727104859
20
-0.171096170147735
30
0
41
1
10
51.1033520170071
20
0.161371543279813
30
0
41
1
10
50.6461712555449
20
0.327499564309392
30
0
41
1
10
49.7319287495995
20
0.659709013479926
30
0
41
1
10
49.2748782796628
20
0.825821229528771
30
0
41
1
10
48.3606410070762
20
1.15729266474179
30
0
41
1
10
47.9034177553797
20
1.3225515828706
30
0
41
1
10
46.9886187283368
20
1.65172286040803
30
0
41
1
10
46.5310762821346
20
1.8157270507111
30
0
41
1
10
45.844580392516
20
2.06094846786868
30
0
41
1
10
45.6157190241617
20
2.14256074235462
30
0
41
1
10
45.1579341825636
20
2.30551938369629
30
0
41
1
10
44.9290114427429
20
2.38686769869469
30
0
41
1
10
44.7
20
2.46792510044537
30
0
0
SPLINE
5
CA
100
AcDbEntity
8
1
62
256
6
ByLayer
370
18
48
1
60
0
100
AcDbSpline
70
4
71
3
72
89
73
85
40
0
40
0
40
0
40
0
40
0.0312500000000036
40
0.0312500000000036
40
0.0625000000000071
40
0.0625000000000071
40
0.125000000000014
40
0.125000000000014
40
0.140625000000015
40
0.140625000000015
40
0.148437500000015
40
0.148437500000015
40
0.156250000000015
40
0.187500000000013
40
0.187500000000013
40
0.218750000000012
40
0.218750000000012
40
0.25000000000001
40
0.25000000000001
40
0.281250000000008
40
0.281250000000008
40
0.296875000000007
40
0.296875000000007
40
0.312500000000006
40
0.312500000000006
40
0.343750000000004
40
0.343750000000004
40
0.375000000000001
40
0.375000000000001
40
0.406249999999999
40
0.406249999999999
40
0.437499999999997
40
0.437499999999997
40
0.445312499999996
40
0.445312499999996
40
0.453124999999996
40
0.468749999999996
40
0.468749999999996
40
0.499999999999995
40
0.499999999999995
40
0.531249999999994
40
0.531249999999994
40
0.539062499999993
40
0.539062499999993
40
0.546874999999993
40
0.562499999999993
40
0.562499999999993
40
0.593749999999992
40
0.593749999999992
40
0.624999999999991
40
0.624999999999991
40
0.632812499999991
40
0.632812499999991
40
0.640624999999991
40
0.656249999999992
40
0.656249999999992
40
0.687499999999992
40
0.687499999999992
40
0.718749999999993
40
0.718749999999993
40
0.726562499999993
40
0.726562499999993
40
0.734374999999994
40
0.734374999999994
40
0.749999999999994
40
0.749999999999994
40
0.781249999999995
40
0.781249999999995
40
0.812499999999996
40
0.812499999999996
40
0.843749999999997
40
0.843749999999997
40
0.851562499999997
40
0.851562499999997
40
0.859374999999998
40
0.874999999999998
40
0.874999999999998
40
0.906249999999998
40
0.937499999999999
40
0.968749999999999
40
0.968749999999999
40
0.984375
40
0.984375
40
1
40
1
40
1
40
1
41
1
10
55.6783125402049
20
10.1666145377188
30
0
41
1
10
55.7438936349566
20
10.0040059764082
30
0
41
1
10
55.8095775035703
20
9.83895530547557
30
0
41
1
10
55.9412625664348
20
9.50435431998181
30
0
41
1
10
56.0072636445591
20
9.33480316290778
30
0
41
1
10
56.2058603792099
20
8.81981648632112
30
0
41
1
10
56.339067685202
20
8.46808378719021
30
0
41
1
10
56.5067312158973
20
8.01868508586247
30
0
41
1
10
56.5403201885338
20
7.92831578816399
30
0
41
1
10
56.590785852676
20
7.79203343530907
30
0
41
1
10
56.6076330624214
20
7.74645296168273
30
0
41
1
10
56.6412946114777
20
7.65521118398891
30
0
41
1
10
56.7253244863415
20
7.42701623797552
30
0
41
1
10
56.8087423285038
20
7.19837570341249
30
0
41
1
10
56.9413729355427
20
6.8319769008923
30
0
41
1
10
57.0072702673367
20
6.64849093734261
30
0
41
1
10
57.1380800788078
20
6.28090503079162
30
0
41
1
10
57.2029940818523
20
6.09680564227847
30
0
41
1
10
57.3315615553317
20
5.72790281736849
30
0
41
1
10
57.3952174393421
20
5.54310017782737
30
0
41
1
10
57.4894050583002
20
5.26524529236161
30
0
41
1
10
57.5205831925424
20
5.17251787139554
30
0
41
1
10
57.5824193846749
20
4.98681460037346
30
0
41
1
10
57.6130868652449
20
4.89380736401213
30
0
41
1
10
57.7037128395081
20
4.61571103369909
30
0
41
1
10
57.7624589925797
20
4.4311072356532
30
0
41
1
10
57.8755346571934
20
4.06318483677694
30
0
41
1
10
57.929871600903
20
3.8798674330979
30
0
41
1
10
58.0324779186374
20
3.51413710019548
30
0
41
1
10
58.0807560159489
20
3.33172492412689
30
0
41
1
10
58.1687578049942
20
2.96731123434995
30
0
41
1
10
58.2084854193566
20
2.78530827833964
30
0
41
1
10
58.2505832269928
20
2.55768283045074
30
0
41
1
10
58.2586288887352
20
2.51211030827736
30
0
41
1
10
58.273861677522
20
2.42113362443374
30
0
41
1
10
58.2953883297599
20
2.28514523461132
30
0
41
1
10
58.3127156837314
20
2.1506048530122
30
0
41
1
10
58.3412066919351
20
1.88352867504849
30
0
41
1
10
58.3519218363125
20
1.7081413979212
30
0
41
1
10
58.3547855372685
20
1.36331375394644
30
0
41
1
10
58.3469172430014
20
1.19387617626555
30
0
41
1
10
58.3255463875924
20
0.986347530610857
30
0
41
1
10
58.3206935490624
20
0.94500065007486
30
0
41
1
10
58.3099032274998
20
0.863009339254717
30
0
41
1
10
58.2921296159613
20
0.741327753022489
30
0
41
1
10
58.269866419274
20
0.623514412925857
30
0
41
1
10
58.2200999309595
20
0.392921388311265
30
0
41
1
10
58.1799641168984
20
0.245894919301037
30
0
41
1
10
58.0893897743948
20
-0.0352720389755632
30
0
41
1
10
58.0389589077669
20
-0.169416329019441
30
0
41
1
10
57.9711541061586
20
-0.329162412582093
30
0
41
1
10
57.9573383028795
20
-0.360744900638707
30
0
41
1
10
57.9293252938097
20
-0.42296278821334
30
0
41
1
10
57.8867809391669
20
-0.514767853948797
30
0
41
1
10
57.8428247519726
20
-0.602096835865183
30
0
41
1
10
57.753370920968
20
-0.770964921493544
30
0
41
1
10
57.6917000999889
20
-0.875839883234164
30
0
41
1
10
57.5654837434388
20
-1.07069223580919
30
0
41
1
10
57.5009297007539
20
-1.16066685996984
30
0
41
1
10
57.4188282546638
20
-1.26383591316559
30
0
41
1
10
57.4023364772279
20
-1.28400367150087
30
0
41
1
10
57.3692160657546
20
-1.32340315590139
30
0
41
1
10
57.3525805345167
20
-1.34264133331268
30
0
41
1
10
57.3026961907389
20
-1.39870361014982
30
0
41
1
10
57.2693995435448
20
-1.43396274304973
30
0
41
1
10
57.1694404317484
20
-1.53353454582097
30
0
41
1
10
57.1027137603857
20
-1.59165440049009
30
0
41
1
10
56.9692070947332
20
-1.69178428331549
30
0
41
1
10
56.9024250242296
20
-1.73379266774822
30
0
41
1
10
56.7687868465682
20
-1.80171611324914
30
0
41
1
10
56.7019297910063
20
-1.82763120280316
30
0
41
1
10
56.6182421391308
20
-1.84974819008283
30
0
41
1
10
56.6014937833994
20
-1.8536564064305
30
0
41
1
10
56.5681368143004
20
-1.86040849279928
30
0
41
1
10
56.5182535487036
20
-1.86895645340886
30
0
41
1
10
56.4688105557823
20
-1.87281629725606
30
0
41
1
10
56.3704683757111
20
-1.87439055871911
30
0
41
1
10
56.2407953315596
20
-1.86012258000693
30
0
41
1
10
56.0499530041776
20
-1.79049804923568
30
0
41
1
10
55.9247215166095
20
-1.71186318544679
30
0
41
1
10
55.8313778423991
20
-1.6405373981267
30
0
41
1
10
55.8004617570615
20
-1.61477703559603
30
0
41
1
10
55.7390793167076
20
-1.55937951279347
30
0
41
1
10
55.708598812204
20
-1.52973157630316
30
0
41
1
10
55.6783125402049
20
-1.49813824179526
30
0
0
SPLINE
5
CB
100
AcDbEntity
8
1
62
256
6
ByLayer
370
18
48
1
60
0
100
AcDbSpline
70
4
71
3
72
18
73
14
40
0
40
0
40
0
40
0
40
0.0587127421145377
40
0.0587127421145377
40
0.152841467903082
40
0.152841467903082
40
0.246970193691627
40
0.246970193691627
40
0.623485096845811
40
0.623485096845811
40
0.811742548422906
40
0.811742548422906
40
1
40
1
40
1
40
1
41
1
10
48.3900598535963
20
10.4986887256848
30
0
41
1
10
48.5326722326785
20
10.4987167270614
30
0
41
1
10
48.6752715248348
20
10.4983604064226
30
0
41
1
10
49.0464489152501
20
10.496431749145
30
0
41
1
10
49.2750047617526
20
10.4942546301622
30
0
41
1
10
49.7320394850967
20
10.4879116585018
30
0
41
1
10
49.9605180296307
20
10.483744069222
30
0
41
1
10
51.1030974354908
20
10.4579822366333
30
0
41
1
10
52.0177507153539
20
10.4217277228472
30
0
41
1
10
53.3897142701759
20
10.343625023945
30
0
41
1
10
53.8470641944982
20
10.3136215153984
30
0
41
1
10
54.7622553935276
20
10.2458671736113
30
0
41
1
10
55.2201573362031
20
10.208162823427
30
0
41
1
10
55.6783125402065
20
10.1666145377186
30
0
0
SPLINE
5
CC
100
AcDbEntity
8
1
62
256
6
ByLayer
370
18
48
1
60
0
100
AcDbSpline
70
4
71
3
72
41
73
37
40
0
40
0
40
0
40
0
40
0.0253609280680348
40
0.0253609280680348
40
0.106580850729033
40
0.106580850729033
40
0.187800773390032
40
0.187800773390032
40
0.269020696051031
40
0.269020696051031
40
0.350240618712029
40
0.350240618712029
40
0.390850580042527
40
0.390850580042527
40
0.431460541373026
40
0.431460541373026
40
0.472070502703524
40
0.472070502703524
40
0.512680464034022
40
0.55329042536452
40
0.55329042536452
40
0.593900386695018
40
0.593900386695018
40
0.675120309356015
40
0.675120309356015
40
0.756340232017011
40
0.756340232017011
40
0.796950193347509
40
0.796950193347509
40
0.837560154678007
40
0.837560154678007
40
0.878170116008505
40
0.878170116008505
40
0.918780077339004
40
0.918780077339004
40
1
40
1
40
1
40
1
41
1
10
27.3179513592409
20
7.5239580780954
30
0
41
1
10
27.464720160505
20
7.55895990221987
30
0
41
1
10
27.6114890583473
20
7.59365674268997
30
0
41
1
10
28.2282845533111
20
7.73821455325481
30
0
41
1
10
28.6982847125516
20
7.84531416336685
30
0
41
1
10
29.6380843147634
20
8.0536229523041
30
0
41
1
10
30.1079059156487
20
8.15478181989718
30
0
41
1
10
31.0478472405562
20
8.35030698249753
30
0
41
1
10
31.5180299601444
20
8.4445778136282
30
0
41
1
10
32.4586944842319
20
8.62637529474375
30
0
41
1
10
32.9291518994094
20
8.71393938726686
30
0
41
1
10
33.6349735829582
20
8.84031990262
30
0
41
1
10
33.8702603899227
20
8.88163169202605
30
0
41
1
10
34.3409593315316
20
8.9624743649442
30
0
41
1
10
34.5763950140148
20
9.00197276481876
30
0
41
1
10
35.0474669025359
20
9.07909257240982
30
0
41
1
10
35.2831320907883
20
9.1167301913359
30
0
41
1
10
35.7544446061808
20
9.19015307692854
30
0
41
1
10
36.2256736649428
20
9.26171377076997
30
0
41
1
10
36.6966946428152
20
9.32960460702253
30
0
41
1
10
37.1675916344566
20
9.39567805181827
30
0
41
1
10
37.4029785462223
20
9.4278047828758
30
0
41
1
10
38.1090362073416
20
9.52135678155227
30
0
41
1
10
38.5796026300741
20
9.57994890810207
30
0
41
1
10
39.5209300261037
20
9.68916007876706
30
0
41
1
10
39.9916466200825
20
9.73983570929164
30
0
41
1
10
40.6976405493797
20
9.81010103620912
30
0
41
1
10
40.9329621549135
20
9.83256024043592
30
0
41
1
10
41.4035771796359
20
9.87555162680701
30
0
41
1
10
41.6388623681369
20
9.89608907802889
30
0
41
1
10
42.1094492489167
20
9.93519440044574
30
0
41
1
10
42.3447715369461
20
9.95374823177102
30
0
41
1
10
42.8155605117785
20
9.98881256289386
30
0
41
1
10
43.0510134712066
20
10.0053325258386
30
0
41
1
10
43.7575140380732
20
10.0518851145836
30
0
41
1
10
44.2287030094454
20
10.0789150407881
30
0
41
1
10
44.6999999999998
20
10.1019579329405
30
0
0
SPLINE
5
CD
100
AcDbEntity
8
1
62
256
6
ByLayer
370
18
48
1
60
0
100
AcDbSpline
70
4
71
3
72
48
73
44
40
0
40
0
40
0
40
0
40
0.0625000000000013
40
0.0625000000000013
40
0.125000000000003
40
0.125000000000003
40
0.156250000000003
40
0.156250000000003
40
0.187500000000003
40
0.187500000000003
40
0.250000000000001
40
0.250000000000001
40
0.281250000000001
40
0.281250000000001
40
0.3125
40
0.3125
40
0.374999999999999
40
0.374999999999999
40
0.437499999999997
40
0.437499999999997
40
0.468749999999997
40
0.468749999999997
40
0.499999999999997
40
0.499999999999997
40
0.562499999999996
40
0.562499999999996
40
0.593749999999996
40
0.593749999999996
40
0.624999999999996
40
0.624999999999996
40
0.687499999999997
40
0.687499999999997
40
0.749999999999999
40
0.749999999999999
40
0.8125
40
0.8125
40
0.84375
40
0.84375
40
0.875
40
0.875
40
0.9375
40
0.9375
40
1
40
1
40
1
40
1
41
1
10
44.7
20
2.29096529114642
30
0
41
1
10
44.1332122236236
20
2.48642263402221
30
0
41
1
10
43.5667151797909
20
2.68003684496119
30
0
41
1
10
42.4343838524485
20
3.06385420050577
30
0
41
1
10
41.8685873796767
20
3.25415850914129
30
0
41
1
10
41.0202840732185
20
3.53675509783469
30
0
41
1
10
40.7375744437235
20
3.63045788458993
30
0
41
1
10
40.1721888817458
20
3.81665245858207
30
0
41
1
10
39.8895059392377
20
3.90912609713655
30
0
41
1
10
39.0414922760451
20
4.18469906609306
30
0
41
1
10
38.4762114666502
20
4.36599162095482
30
0
41
1
10
37.6284338696318
20
4.6344189821753
30
0
41
1
10
37.3458772587983
20
4.72333886213403
30
0
41
1
10
36.7807301195887
20
4.89979416540734
30
0
41
1
10
36.4981088941877
20
4.98725289650497
30
0
41
1
10
35.6500870009775
20
5.24729241592399
30
0
41
1
10
35.0845401425676
20
5.41756945743691
30
0
41
1
10
33.9531418923576
20
5.75217856995718
30
0
41
1
10
33.3873208473165
20
5.91657645025566
30
0
41
1
10
32.5380428202903
20
6.15792806037021
30
0
41
1
10
32.2548489277838
20
6.23748161152338
30
0
41
1
10
31.6882196746172
20
6.39470682271718
30
0
41
1
10
31.4047214587743
20
6.47241369904012
30
0
41
1
10
30.5546168491958
20
6.70262421502088
30
0
41
1
10
29.9883264694063
20
6.85226431204268
30
0
41
1
10
29.1395429550504
20
7.07091826288442
30
0
41
1
10
28.8566953379657
20
7.14277328789711
30
0
41
1
10
28.2910470392664
20
7.28420040626352
30
0
41
1
10
28.0082617570793
20
7.35380531976412
30
0
41
1
10
27.1600379829483
20
7.55933956508224
30
0
41
1
10
26.5947443127968
20
7.69201643245646
30
0
41
1
10
25.4645502983227
20
7.9486890315805
30
0
41
1
10
24.8996263604207
20
8.07262775041562
30
0
41
1
10
23.7695282865798
20
8.31067519218729
30
0
41
1
10
23.2043761585942
20
8.42483704247991
30
0
41
1
10
22.3565721139704
20
8.58891874679881
30
0
41
1
10
22.0739569890376
20
8.64241607849215
30
0
41
1
10
21.5087047509787
20
8.74701468422575
30
0
41
1
10
21.2260707198946
20
8.7981185134264
30
0
41
1
10
20.377879701993
20
8.94745257711381
30
0
41
1
10
19.8120733914148
20
9.04177401848901
30
0
41
1
10
18.6798071071257
20
9.22001803624002
30
0
41
1
10
18.1133511304683
20
9.30394757317308
30
0
41
1
10
17.5466228140231
20
9.38268897634839
30
0
0
SPLINE
5
CE
100
AcDbEntity
8
1
62
256
6
ByLayer
370
18
48
1
60
0
100
AcDbSpline
70
4
71
3
72
14
73
10
40
0
40
0
40
0
40
0
40
0.25
40
0.25
40
0.5
40
0.5
40
0.75
40
0.75
40
1
40
1
40
1
40
1
41
1
10
17.5466228140231
20
-9.38268897634853
30
0
41
1
10
17.3310214335695
20
-9.41361906783655
30
0
41
1
10
17.1164345275203
20
-9.44465936767773
30
0
41
1
10
16.6889862881014
20
-9.50637485759742
30
0
41
1
10
16.4761242095563
20
-9.53704998918482
30
0
41
1
10
16.0519064559513
20
-9.59756829149697
30
0
41
1
10
15.8405502701955
20
-9.62741197710196
30
0
41
1
10
15.4192304203027
20
-9.68591369780535
30
0
41
1
10
15.2092665801889
20
-9.71457279154646
30
0
41
1
10
15
20
-9.74250687613591
30
0
0
SPLINE
5
CF
100
AcDbEntity
8
1
62
256
6
ByLayer
370
18
48
1
60
0
100
AcDbSpline
70
4
71
4
72
10
73
5
40
0
40
0
40
0
40
0
40
0
40
1
40
1
40
1
40
1
40
1
41
0.999360141729582
10
18.4181789770448
20
-5.3402381669618
30
0
41
0.997759883300841
10
18.1208346086606
20
-6.16311734889157
30
0
41
0.994300910389205
10
17.8543679344777
20
-7.1651189663311
30
0
41
0.995056082424944
10
17.6610356567063
20
-8.27763536335878
30
0
41
0.996883372174069
10
17.5466228140231
20
-9.38268897634853
30
0
0
SPLINE
5
D0
100
AcDbEntity
8
1
62
256
6
ByLayer
370
18
48
1
60
0
100
AcDbSpline
70
4
71
3
72
25
73
21
40
0
40
0
40
0
40
0
40
0.125000000000004
40
0.125000000000004
40
0.250000000000007
40
0.250000000000007
40
0.375000000000011
40
0.375000000000011
40
0.500000000000014
40
0.500000000000014
40
0.562500000000019
40
0.593750000000021
40
0.593750000000021
40
0.625000000000023
40
0.625000000000023
40
0.750000000000016
40
0.750000000000016
40
0.875000000000008
40
0.875000000000008
40
1
40
1
40
1
40
1
41
1
10
15.0000000000003
20
-5.25538649177909
30
0
41
1
10
15.3033445764148
20
-5.22663484643448
30
0
41
1
10
15.6059313881159
20
-5.20824117062111
30
0
41
1
10
16.209701454561
20
-5.19086117642973
30
0
41
1
10
16.5108841889042
20
-5.19188006837823
30
0
41
1
10
17.1119380762939
20
-5.21204057104504
30
0
41
1
10
17.4118088124852
20
-5.23118638872964
30
0
41
1
10
18.0103258676742
20
-5.28618693086844
30
0
41
1
10
18.3089718461437
20
-5.32204478082838
30
0
41
1
10
18.7560927552124
20
-5.38712275016448
30
0
41
1
10
18.9794413198553
20
-5.42248126584261
30
0
41
1
10
19.2024868070548
20
-5.46180365136544
30
0
41
1
10
19.3511182157595
20
-5.4888676028572
30
0
41
1
10
19.4253697539466
20
-5.50281890741803
30
0
41
1
10
19.7957313342386
20
-5.5744667279599
30
0
41
1
10
20.0897044044353
20
-5.63793723461905
30
0
41
1
10
20.6737132557685
20
-5.77468748260239
30
0
41
1
10
20.9637501063542
20
-5.84796265536809
30
0
41
1
10
21.5405796121917
20
-6.00186906162358
30
0
41
1
10
21.8273744647984
20
-6.08249352803247
30
0
41
1
10
22.1128680417246
20
-6.16567917534647
30
0
0
SPLINE
5
D1
100
AcDbEntity
8
1
62
256
6
ByLayer
370
18
48
1
60
0
100
AcDbSpline
70
4
71
3
72
26
73
22
40
0
40
0
40
0
40
0
40
0.121044663555908
40
0.121044663555908
40
0.183827187587633
40
0.183827187587633
40
0.215218449603493
40
0.215218449603493
40
0.246609711619354
40
0.246609711619354
40
0.372174759682795
40
0.372174759682795
40
0.497739807746236
40
0.497739807746236
40
0.623304855809677
40
0.623304855809677
40
0.748869903873118
40
0.748869903873118
40
0.87443495193656
40
0.87443495193656
40
1
40
1
40
1
40
1
41
1
10
9.53906194306651
20
12.3843741276368
30
0
41
1
10
9.74791926152628
20
12.3007651314476
30
0
41
1
10
9.96006143544599
20
12.2129455603685
30
0
41
1
10
10.2861968197624
20
12.0742138874868
30
0
41
1
10
10.3982846312039
20
12.0258788473119
30
0
41
1
10
10.5673393812797
20
11.9520544035557
30
0
41
1
10
10.6238420577982
20
11.9272268080631
30
0
41
1
10
10.7369525191039
20
11.877227390285
30
0
41
1
10
10.7935836792023
20
11.8520453932314
30
0
41
1
10
11.0770839809109
20
11.7252577905114
30
0
41
1
10
11.304978727662
20
11.6210331269071
30
0
41
1
10
11.7621751656593
20
11.4076238627977
30
0
41
1
10
11.9914739419717
20
11.2984355183375
30
0
41
1
10
12.4509401998644
20
11.0754316582805
30
0
41
1
10
12.6811047742594
20
10.9616121961453
30
0
41
1
10
13.1421036410825
20
10.7295039235112
30
0
41
1
10
13.3729361591358
20
10.6112108492449
30
0
41
1
10
13.8354856150489
20
10.3702616065711
30
0
41
1
10
14.0672026208675
20
10.247601341113
30
0
41
1
10
14.5321771184453
20
9.9981001008972
30
0
41
1
10
14.765436412215
20
9.87125589547821
30
0
41
1
10
15
20
9.74250687613591
30
0
0
SPLINE
5
D2
100
AcDbEntity
8
1
62
256
6
ByLayer
370
18
48
1
60
0
100
AcDbSpline
70
4
71
3
72
116
73
112
40
0
40
0
40
0
40
0
40
0.0312500000000053
40
0.0312500000000053
40
0.0625000000000106
40
0.0625000000000106
40
0.0937500000000159
40
0.0937500000000159
40
0.125000000000021
40
0.125000000000021
40
0.156250000000026
40
0.156250000000026
40
0.171875000000029
40
0.171875000000029
40
0.17968750000003
40
0.17968750000003
40
0.187500000000032
40
0.187500000000032
40
0.218750000000034
40
0.218750000000034
40
0.250000000000037
40
0.250000000000037
40
0.28125000000004
40
0.28125000000004
40
0.289062500000041
40
0.289062500000041
40
0.296875000000042
40
0.312500000000045
40
0.312500000000045
40
0.34375000000005
40
0.34375000000005
40
0.359375000000053
40
0.359375000000053
40
0.367187500000054
40
0.367187500000054
40
0.371093750000054
40
0.371093750000054
40
0.375000000000054
40
0.390625000000055
40
0.390625000000055
40
0.406250000000057
40
0.406250000000057
40
0.421875000000058
40
0.421875000000058
40
0.429687500000058
40
0.429687500000058
40
0.433593750000058
40
0.433593750000058
40
0.437500000000059
40
0.453125000000059
40
0.46875000000006
40
0.46875000000006
40
0.48437500000006
40
0.48437500000006
40
0.488281250000061
40
0.488281250000061
40
0.492187500000061
40
0.492187500000061
40
0.500000000000061
40
0.500000000000061
40
0.515625000000062
40
0.515625000000062
40
0.531250000000062
40
0.531250000000062
40
0.539062500000063
40
0.542968750000063
40
0.542968750000063
40
0.546875000000063
40
0.546875000000063
40
0.562500000000064
40
0.562500000000064
40
0.593750000000065
40
0.593750000000065
40
0.597656250000065
40
0.597656250000065
40
0.601562500000065
40
0.609375000000064
40
0.609375000000064
40
0.625000000000063
40
0.625000000000063
40
0.656250000000061
40
0.656250000000061
40
0.66406250000006
40
0.66406250000006
40
0.671875000000059
40
0.671875000000059
40
0.687500000000056
40
0.687500000000056
40
0.718750000000051
40
0.718750000000051
40
0.750000000000047
40
0.750000000000047
40
0.781250000000042
40
0.781250000000042
40
0.796875000000039
40
0.796875000000039
40
0.804687500000037
40
0.804687500000037
40
0.812500000000036
40
0.812500000000036
40
0.84375000000003
40
0.84375000000003
40
0.875000000000024
40
0.875000000000024
40
0.906250000000018
40
0.906250000000018
40
0.937500000000012
40
0.937500000000012
40
0.968750000000006
40
0.968750000000006
40
1
40
1
40
1
40
1
41
1
10
15.0000000000003
20
-5.25538649177906
30
0
41
1
10
14.7385005932063
20
-5.34669173761256
30
0
41
1
10
14.4790751692957
20
-5.44343884378728
30
0
41
1
10
13.9642965365159
20
-5.64784034039937
30
0
41
1
10
13.7089432505298
20
-5.75549430954382
30
0
41
1
10
13.2022414854129
20
-5.98180938682515
30
0
41
1
10
12.9508928814283
20
-6.10046973676035
30
0
41
1
10
12.4521444713657
20
-6.34899136544564
30
0
41
1
10
12.2047444697285
20
-6.47885138585758
30
0
41
1
10
11.713853354927
20
-6.75008957129117
30
0
41
1
10
11.4703619296792
20
-6.89146565149065
30
0
41
1
10
11.1080441507759
20
-7.112535330485
30
0
41
1
10
10.9877583293156
20
-7.1877276814217
30
0
41
1
10
10.808060631205
20
-7.30283301415483
30
0
41
1
10
10.7482832563466
20
-7.3415877266732
30
0
41
1
10
10.6289726203621
20
-7.41988199289111
30
0
41
1
10
10.569384346886
20
-7.45945867429737
30
0
41
1
10
10.2727454079069
20
-7.65887255074387
30
0
41
1
10
10.0403335986289
20
-7.82278281742163
30
0
41
1
10
9.58548605715157
20
-8.15917115587911
30
0
41
1
10
9.36304725847853
20
-8.33164758088193
30
0
41
1
10
8.9285638673467
20
-8.68512847555391
30
0
41
1
10
8.71651338766492
20
-8.86612969462405
30
0
41
1
10
8.45844014468543
20
-9.09782512750272
30
0
41
1
10
8.4071734389741
20
-9.14443964484528
30
0
41
1
10
8.30537038193782
20
-9.23821040367275
30
0
41
1
10
8.15436368178811
20
-9.37912502833825
30
0
41
1
10
8.00849242164514
20
-9.52075523501878
30
0
41
1
10
7.72377684444942
20
-9.80481156730778
30
0
41
1
10
7.54329791316391
20
-9.99524478283089
30
0
41
1
10
7.28785602927954
20
-10.2818496192277
30
0
41
1
10
7.20526317464709
20
-10.3775435672611
30
0
41
1
10
7.08546687773458
20
-10.5212392206874
30
0
41
1
10
7.04621778950701
20
-10.5691635194989
30
0
41
1
10
6.98841030969322
20
-10.6410776382391
30
0
41
1
10
6.96930085092976
20
-10.6650767519432
30
0
41
1
10
6.9315734042851
20
-10.7129189544346
30
0
41
1
10
6.8384466257628
20
-10.8321790602118
30
0
41
1
10
6.75129916445303
20
-10.9496743898578
30
0
41
1
10
6.61977053046164
20
-11.1351759246288
30
0
41
1
10
6.55795866562775
20
-11.2266816766043
30
0
41
1
10
6.44264417789702
20
-11.4069290902122
30
0
41
1
10
6.38913964352019
20
-11.4956714635076
30
0
41
1
10
6.31556226389776
20
-11.6264628303708
30
0
41
1
10
6.2921514028219
20
-11.6696723941013
30
0
41
1
10
6.25878176852379
20
-11.7338684208265
30
0
41
1
10
6.24797252895735
20
-11.7551213485467
30
0
41
1
10
6.2270561599216
20
-11.7971900076243
30
0
41
1
10
6.17646539106244
20
-11.9013773247107
30
0
41
1
10
6.10065325413251
20
-12.0800377134872
30
0
41
1
10
6.05515785690005
20
-12.2259189494873
30
0
41
1
10
6.0209303362117
20
-12.3650903741205
30
0
41
1
10
6.00944938329636
20
-12.4313217484249
30
0
41
1
10
6.0025007097812
20
-12.5096922572645
30
0
41
1
10
6.00148179407614
20
-12.5251451078757
30
0
41
1
10
6.00019754920496
20
-12.5556013291645
30
0
41
1
10
5.99993237495886
20
-12.570618516439
30
0
41
1
10
6.00028609197955
20
-12.6148934207917
30
0
41
1
10
6.00204919725411
20
-12.643196352874
30
0
41
1
10
6.01181905172484
20
-12.724552126613
30
0
41
1
10
6.02429890853983
20
-12.7740566604074
30
0
41
1
10
6.06084751984613
20
-12.8639441992534
30
0
41
1
10
6.08491739849615
20
-12.9043263875524
30
0
41
1
10
6.1296265233193
20
-12.9582086998619
30
0
41
1
10
6.15413464266703
20
-12.9834755689097
30
0
41
1
10
6.1818778815155
20
-13.0062461778014
30
0
41
1
10
6.201094241558
20
-13.020872684226
30
0
41
1
10
6.21105665599595
20
-13.0279027058876
30
0
41
1
10
6.26238905304882
20
-13.0615045345932
30
0
41
1
10
6.30850348106233
20
-13.0835915338421
30
0
41
1
10
6.46096523554039
20
-13.1366987305561
30
0
41
1
10
6.58136807334273
20
-13.1546251300744
30
0
41
1
10
6.73605839110917
20
-13.157671043255
30
0
41
1
10
6.75349399446247
20
-13.1577695449969
30
0
41
1
10
6.78875302945318
20
-13.1575002560695
30
0
41
1
10
6.84226650862348
20
-13.1563976715312
30
0
41
1
10
6.89760664544735
20
-13.153267065958
30
0
41
1
10
7.01060850775508
20
-13.1444637036259
30
0
41
1
10
7.08903513273558
20
-13.1352100158886
30
0
41
1
10
7.33282944827164
20
-13.0983846544986
30
0
41
1
10
7.50668390015207
20
-13.0617928102721
30
0
41
1
10
7.7362594990899
20
-13.0037035230819
30
0
41
1
10
7.78278984442474
20
-12.9914645119256
30
0
41
1
10
7.87704147996683
20
-12.965798668613
30
0
41
1
10
7.92480791409989
20
-12.9523586736423
30
0
41
1
10
8.06952986896817
20
-12.9104222635548
30
0
41
1
10
8.16751099383376
20
-12.8804311488205
30
0
41
1
10
8.46550292626296
20
-12.7851102785247
30
0
41
1
10
8.66955067571479
20
-12.7144647342889
30
0
41
1
10
9.08643319707897
20
-12.5619800861091
30
0
41
1
10
9.29927497912155
20
-12.480127691742
30
0
41
1
10
9.73207809969568
20
-12.3073194094051
30
0
41
1
10
9.95204163512165
20
-12.2163570280248
30
0
41
1
10
10.2861968197624
20
-12.0742138874868
30
0
41
1
10
10.3982846312039
20
-12.0258788473119
30
0
41
1
10
10.5673393812797
20
-11.9520544035558
30
0
41
1
10
10.6238420577981
20
-11.9272268080631
30
0
41
1
10
10.7369525191039
20
-11.8772273902849
30
0
41
1
10
10.7935836792022
20
-11.8520453932314
30
0
41
1
10
11.0770839809109
20
-11.7252577905114
30
0
41
1
10
11.304978727662
20
-11.621033126907
30
0
41
1
10
11.7621751656594
20
-11.4076238627977
30
0
41
1
10
11.9914739419716
20
-11.2984355183375
30
0
41
1
10
12.4509401998644
20
-11.0754316582805
30
0
41
1
10
12.6811047742593
20
-10.9616121961454
30
0
41
1
10
13.1421036410825
20
-10.7295039235113
30
0
41
1
10
13.3729361591358
20
-10.6112108492449
30
0
41
1
10
13.8354856150489
20
-10.3702616065711
30
0
41
1
10
14.0672026208675
20
-10.247601341113
30
0
41
1
10
14.5321771184453
20
-9.9981001008972
30
0
41
1
10
14.765436412215
20
-9.87125589547821
30
0
41
1
10
15
20
-9.74250687613591
30
0
0
SPLINE
5
D3
100
AcDbEntity
8
SK1
62
256
6
ByLayer
370
18
48
1
60
0
100
AcDbSpline
70
4
71
3
72
34
73
30
40
0
40
0
40
0
40
0
40
0.125000000000001
40
0.125000000000001
40
0.250000000000002
40
0.250000000000002
40
0.375000000000003
40
0.375000000000003
40
0.437500000000004
40
0.437500000000004
40
0.500000000000005
40
0.500000000000005
40
0.625000000000005
40
0.625000000000005
40
0.656250000000005
40
0.656250000000005
40
0.687500000000005
40
0.687500000000005
40
0.750000000000005
40
0.750000000000005
40
0.812500000000005
40
0.812500000000005
40
0.843750000000004
40
0.843750000000004
40
0.875000000000004
40
0.875000000000004
40
0.937500000000002
40
0.937500000000002
40
1
40
1
40
1
40
1
41
1
10
-52.5003287739481
20
-3.62059097355461
30
0
41
1
10
-52.4791023107682
20
-3.69580949914169
30
0
41
1
10
-52.456173666836
20
-3.7701328086529
30
0
41
1
10
-52.4062202513365
20
-3.91675156331095
30
0
41
1
10
-52.3792000011184
20
-3.98904864238443
30
0
41
1
10
-52.3201140822394
20
-4.13128549106548
30
0
41
1
10
-52.2880578558644
20
-4.20122868864783
30
0
41
1
10
-52.2351342019209
20
-4.30400502578081
30
0
41
1
10
-52.2166821098451
20
-4.33790583931534
30
0
41
1
10
-52.1779019271959
20
-4.40490146665846
30
0
41
1
10
-52.1575385793023
20
-4.43805147836142
30
0
41
1
10
-52.093380094742
20
-4.53574061166557
30
0
41
1
10
-52.0468993353633
20
-4.59806703723407
30
0
41
1
10
-51.9825062567773
20
-4.67139689881651
30
0
41
1
10
-51.9693089720826
20
-4.68583123022111
30
0
41
1
10
-51.9422155209833
20
-4.71419608571787
30
0
41
1
10
-51.9282893124732
20
-4.72815494045494
30
0
41
1
10
-51.8855899983215
20
-4.7689776324583
30
0
41
1
10
-51.8559681934236
20
-4.79473829352929
30
0
41
1
10
-51.7940523105194
20
-4.84293492664423
30
0
41
1
10
-51.7617609635258
20
-4.86537421079322
30
0
41
1
10
-51.710934585781
20
-4.89608972183805
30
0
41
1
10
-51.6935927882519
20
-4.9058359097269
30
0
41
1
10
-51.6580214478988
20
-4.92423937407065
30
0
41
1
10
-51.6397301965266
20
-4.93292309713041
30
0
41
1
10
-51.583780125377
20
-4.9569645106269
30
0
41
1
10
-51.5455987975117
20
-4.97010157811332
30
0
41
1
10
-51.4673083175319
20
-4.99008231274206
30
0
41
1
10
-51.4272005227822
20
-4.99693051090844
30
0
41
1
10
-51.3860020460814
20
-5.00022676868039
30
0
0
SPLINE
5
D4
100
AcDbEntity
8
SK1
62
256
6
ByLayer
370
18
48
1
60
0
100
AcDbSpline
70
4
71
3
72
34
73
30
40
0
40
0
40
0
40
0
40
0.0625000000000001
40
0.0625000000000001
40
0.125
40
0.125
40
0.1875
40
0.1875
40
0.25
40
0.25
40
0.28125
40
0.28125
40
0.312499999999999
40
0.312499999999999
40
0.374999999999998
40
0.374999999999998
40
0.499999999999995
40
0.499999999999995
40
0.531249999999995
40
0.531249999999995
40
0.562499999999995
40
0.562499999999995
40
0.624999999999996
40
0.624999999999996
40
0.749999999999997
40
0.749999999999997
40
0.874999999999999
40
0.874999999999999
40
1
40
1
40
1
40
1
41
1
10
-51.3860020460814
20
5.00022676868039
30
0
41
1
10
-51.4271597094618
20
4.99693377635015
30
0
41
1
10
-51.4672462826171
20
4.9900941818546
30
0
41
1
10
-51.5455242136708
20
4.97012456894885
30
0
41
1
10
-51.5837142752675
20
4.95699014998107
30
0
41
1
10
-51.658355568598
20
4.92492253812571
30
0
41
1
10
-51.6938849422845
20
4.90639169663621
30
0
41
1
10
-51.7618166387264
20
4.86534206803361
30
0
41
1
10
-51.7942559781117
20
4.84279931421437
30
0
41
1
10
-51.8409760500773
20
4.80639681369991
30
0
41
1
10
-51.8562248159031
20
4.79382938651
30
0
41
1
10
-51.8861176712827
20
4.76788296468004
30
0
41
1
10
-51.9007110618413
20
4.75454548912128
30
0
41
1
10
-51.9432559764382
20
4.71379512925466
30
0
41
1
10
-51.9701014783725
20
4.68554212638855
30
0
41
1
10
-52.0468805903312
20
4.59805033156974
30
0
41
1
10
-52.0930959781036
20
4.5361050376323
30
0
41
1
10
-52.146279276313
20
4.45521167958731
30
0
41
1
10
-52.1566830990007
20
4.43885754119347
30
0
41
1
10
-52.1770537162702
20
4.4058167491863
30
0
41
1
10
-52.1870311208955
20
4.38911114781021
30
0
41
1
10
-52.2162315231511
20
4.33872068618709
30
0
41
1
10
-52.2347469485042
20
4.30473232112985
30
0
41
1
10
-52.2878314108395
20
4.20171722667834
30
0
41
1
10
-52.3199565384223
20
4.13164670884206
30
0
41
1
10
-52.3791390929746
20
3.98921323503123
30
0
41
1
10
-52.4061866509714
20
3.91684682729945
30
0
41
1
10
-52.4561716481468
20
3.77014208810513
30
0
41
1
10
-52.4791043925606
20
3.69580212206003
30
0
41
1
10
-52.5003287739482
20
3.62059097355464
30
0
0
SPLINE
5
D5
100
AcDbEntity
8
SK1
62
256
6
ByLayer
370
18
48
1
60
0
100
AcDbSpline
70
4
71
3
72
32
73
28
40
0
40
0
40
0
40
0
40
0.124999999999982
40
0.124999999999982
40
0.249999999999963
40
0.249999999999963
40
0.374999999999945
40
0.374999999999945
40
0.406249999999941
40
0.406249999999941
40
0.437499999999938
40
0.499999999999932
40
0.499999999999932
40
0.624999999999931
40
0.624999999999931
40
0.656249999999931
40
0.656249999999931
40
0.68749999999993
40
0.68749999999993
40
0.749999999999941
40
0.749999999999941
40
0.874999999999977
40
0.874999999999977
40
0.906249999999979
40
0.906249999999979
40
0.937499999999981
40
1
40
1
40
1
40
1
41
1
10
-14.0157764695459
20
6.59242894057729
30
0
41
1
10
-14.0458287908144
20
6.6375753796253
30
0
41
1
10
-14.0777095790597
20
6.68135165141678
30
0
41
1
10
-14.1456160664485
20
6.76590887596987
30
0
41
1
10
-14.1816386907667
20
6.80669170869109
30
0
41
1
10
-14.2584995514322
20
6.88489663469755
30
0
41
1
10
-14.2993317458756
20
6.92232243783545
30
0
41
1
10
-14.35399779722
20
6.96665617585003
30
0
41
1
10
-14.3651284778382
20
6.97541075031074
30
0
41
1
10
-14.3876400333972
20
6.9925614515505
30
0
41
1
10
-14.4218166346372
20
7.01777898878851
30
0
41
1
10
-14.4572545898122
20
7.04143848131534
30
0
41
1
10
-14.529923003083
20
7.08656817107874
30
0
41
1
10
-14.5807455844469
20
7.11375097789289
30
0
41
1
10
-14.6477689594914
20
7.14354340177493
30
0
41
1
10
-14.6613494138678
20
7.1492913738704
30
0
41
1
10
-14.6888796972728
20
7.1603468035685
30
0
41
1
10
-14.7028224503024
20
7.16564964334611
30
0
41
1
10
-14.7448319317882
20
7.18073146134719
30
0
41
1
10
-14.7732044950192
20
7.1897362156873
30
0
41
1
10
-14.8594560991353
20
7.21351895535656
30
0
41
1
10
-14.9184624466539
20
7.22508541231923
30
0
41
1
10
-14.9943023139084
20
7.23365556703433
30
0
41
1
10
-15.009604540326
20
7.23507501753883
30
0
41
1
10
-15.0401948935638
20
7.23728819114979
30
0
41
1
10
-15.0861089470591
20
7.23967813447453
30
0
41
1
10
-15.1321084232236
20
7.23928527151031
30
0
41
1
10
-15.1628130403699
20
7.23777548279986
30
0
0
SPLINE
5
D6
100
AcDbEntity
8
SK1
62
256
6
ByLayer
370
18
48
1
60
0
100
AcDbSpline
70
4
71
3
72
24
73
20
40
0
40
0
40
0
40
0
40
0.124999999999998
40
0.124999999999998
40
0.249999999999995
40
0.249999999999995
40
0.374999999999993
40
0.374999999999993
40
0.49999999999999
40
0.49999999999999
40
0.624999999999988
40
0.624999999999988
40
0.749999999999985
40
0.749999999999985
40
0.812499999999989
40
0.812499999999989
40
0.874999999999992
40
0.874999999999992
40
1
40
1
40
1
40
1
41
1
10
-15.1628130403699
20
-7.23777548279986
30
0
41
1
10
-15.1013368482927
20
-7.2407983526281
30
0
41
1
10
-15.0406973758297
20
-7.23880609117487
30
0
41
1
10
-14.920978556398
20
-7.22545942224767
30
0
41
1
10
-14.8618998887329
20
-7.21410077871741
30
0
41
1
10
-14.7452745335612
20
-7.18212437688828
30
0
41
1
10
-14.6895699451789
20
-7.16201960319464
30
0
41
1
10
-14.5827589175342
20
-7.11474711952985
30
0
41
1
10
-14.5316211412475
20
-7.08755690757022
30
0
41
1
10
-14.4334554488588
20
-7.02672282100497
30
0
41
1
10
-14.38751619038
20
-6.99376703919228
30
0
41
1
10
-14.3007925764322
20
-6.92357765523022
30
0
41
1
10
-14.2600161652162
20
-6.88633798514746
30
0
41
1
10
-14.2021759714483
20
-6.82763631844753
30
0
41
1
10
-14.1834523029509
20
-6.80759363972547
30
0
41
1
10
-14.1470479748901
20
-6.76660288333122
30
0
41
1
10
-14.1293429656042
20
-6.74562348347595
30
0
41
1
10
-14.0779142754528
20
-6.68164973874727
30
0
41
1
10
-14.0458764161971
20
-6.63764692539442
30
0
41
1
10
-14.0157764695459
20
-6.59242894057729
30
0
0
SPLINE
5
D7
100
AcDbEntity
8
1
62
256
6
ByLayer
370
13
48
1
60
0
100
AcDbSpline
70
4
71
3
72
42
73
38
40
0
40
0
40
0
40
0
40
0.0625000000000001
40
0.0625000000000001
40
0.0937500000000001
40
0.0937500000000001
40
0.109375
40
0.109375
40
0.125
40
0.125
40
0.1875
40
0.1875
40
0.25
40
0.25
40
0.3125
40
0.3125
40
0.375
40
0.375
40
0.4375
40
0.4375
40
0.5
40
0.5
40
0.5625
40
0.5625
40
0.625
40
0.625
40
0.6875
40
0.6875
40
0.75
40
0.75
40
0.8125
40
0.8125
40
0.875
40
0.875
40
0.9375
40
0.9375
40
1
40
1
40
1
40
1
41
1
10
44.7000000000001
20
-1.75639741360047
30
0
41
1
10
44.7637602759775
20
-1.39470949957209
30
0
41
1
10
44.827520551955
20
-1.03589423855502
30
0
41
1
10
44.9231609659212
20
-0.50608342640956
30
0
41
1
10
44.95504110391
20
-0.330873386342631
30
0
41
1
10
45.0028613108931
20
-0.0705826574760806
30
0
41
1
10
45.0188013798874
20
0.0154770355808012
30
0
41
1
10
45.0506815178761
20
0.188643960318927
30
0
41
1
10
45.0666215868706
20
0.275654740184365
30
0
41
1
10
45.1463219318424
20
0.71267243432743
30
0
41
1
10
45.2100822078199
20
1.0686147568849
30
0
41
1
10
45.3376027597749
20
1.78801945641595
30
0
41
1
10
45.4013630357523
20
2.15147663110636
30
0
41
1
10
45.5288835877072
20
2.87971236659553
30
0
41
1
10
45.5926438636848
20
3.24448141583898
30
0
41
1
10
45.7201644156397
20
3.96830226466767
30
0
41
1
10
45.7839246916171
20
4.32734059997873
30
0
41
1
10
45.9114452435721
20
5.03216824989553
30
0
41
1
10
45.9752055195496
20
5.37794133869269
30
0
41
1
10
46.1027260715046
20
6.04866441381415
30
0
41
1
10
46.1664863474821
20
6.37359734455339
30
0
41
1
10
46.294006899437
20
6.99553106998809
30
0
41
1
10
46.3577671754145
20
7.29251631128011
30
0
41
1
10
46.4852877273694
20
7.85240906040409
30
0
41
1
10
46.549048003347
20
8.1153047356529
30
0
41
1
10
46.6765685553019
20
8.60225525229956
30
0
41
1
10
46.7403288312794
20
8.82630356209108
30
0
41
1
10
46.8678493832343
20
9.23245953821905
30
0
41
1
10
46.9316096592119
20
9.41456656177951
30
0
41
1
10
47.0591302111668
20
9.73551231914186
30
0
41
1
10
47.1228904871442
20
9.87435582978631
30
0
41
1
10
47.2504110390992
20
10.1091542962545
30
0
41
1
10
47.3141713150767
20
10.2051181452701
30
0
41
1
10
47.4416918670316
20
10.3560336567148
30
0
41
1
10
47.5054521430091
20
10.4109965929192
30
0
41
1
10
47.6329726949641
20
10.4829738084307
30
0
41
1
10
47.6967329709415
20
10.5
30
0
41
1
10
47.760493246919
20
10.5
30
0
0
SPLINE
5
D8
100
AcDbEntity
8
1
62
256
6
ByLayer
370
13
48
1
60
0
100
AcDbSpline
70
4
71
3
72
85
73
81
40
0
40
0
40
0
40
0
40
0.0312500000000001
40
0.0312500000000001
40
0.0625000000000002
40
0.0625000000000002
40
0.0937500000000003
40
0.0937500000000003
40
0.125
40
0.125
40
0.156250000000001
40
0.156250000000001
40
0.187500000000001
40
0.187500000000001
40
0.218750000000001
40
0.218750000000001
40
0.250000000000001
40
0.250000000000001
40
0.281250000000001
40
0.281250000000001
40
0.312500000000001
40
0.312500000000001
40
0.320312500000001
40
0.320312500000001
40
0.324218750000001
40
0.324218750000001
40
0.328125000000001
40
0.343750000000001
40
0.343750000000001
40
0.375000000000001
40
0.375000000000001
40
0.406250000000002
40
0.406250000000002
40
0.437500000000002
40
0.437500000000002
40
0.468750000000002
40
0.468750000000002
40
0.500000000000002
40
0.500000000000002
40
0.531250000000003
40
0.531250000000003
40
0.562500000000003
40
0.562500000000003
40
0.593750000000003
40
0.593750000000003
40
0.625000000000003
40
0.625000000000003
40
0.640625000000003
40
0.640625000000003
40
0.644531250000003
40
0.644531250000003
40
0.648437500000003
40
0.648437500000003
40
0.656250000000003
40
0.656250000000003
40
0.687500000000003
40
0.687500000000003
40
0.718750000000003
40
0.718750000000003
40
0.750000000000003
40
0.750000000000003
40
0.781250000000002
40
0.781250000000002
40
0.812500000000002
40
0.812500000000002
40
0.843750000000002
40
0.843750000000002
40
0.875000000000002
40
0.875000000000002
40
0.906250000000001
40
0.906250000000001
40
0.937500000000001
40
0.937500000000001
40
0.953125000000001
40
0.953125000000001
40
0.960937500000001
40
0.960937500000001
40
0.968750000000001
40
0.968750000000001
40
1
40
1
40
1
40
1
41
1
10
47.1743192496036
20
10.5
30
0
41
1
10
47.2629025130474
20
10.5
30
0
41
1
10
47.3514857764912
20
10.4670811941285
30
0
41
1
10
47.5286523033786
20
10.3254025593875
30
0
41
1
10
47.6172355668224
20
10.2165817276337
30
0
41
1
10
47.79440209371
20
9.91658494234935
30
0
41
1
10
47.8829853571538
20
9.72535983378936
30
0
41
1
10
48.0601518840413
20
9.25936159488433
30
0
41
1
10
48.148735147485
20
8.984568352483
30
0
41
1
10
48.3259016743725
20
8.35666607980716
30
0
41
1
10
48.4144849378163
20
8.00357737935443
30
0
41
1
10
48.5916514647038
20
7.23077268418433
30
0
41
1
10
48.6802347281476
20
6.81111628056613
30
0
41
1
10
48.8574012550351
20
5.92210326662581
30
0
41
1
10
48.9459845184789
20
5.45283060414096
30
0
41
1
10
49.1231510453664
20
4.48452849223256
30
0
41
1
10
49.2117343088102
20
3.98558485163051
30
0
41
1
10
49.3889008356978
20
2.97826439118398
30
0
41
1
10
49.4774840991415
20
2.46995489961077
30
0
41
1
10
49.654650626029
20
1.46223704304572
30
0
41
1
10
49.7432338894727
20
0.962866657136829
30
0
41
1
10
49.8539629687774
20
0.353425496575824
30
0
41
1
10
49.8761087846384
20
0.232265873984318
30
0
41
1
10
49.9093275084298
20
0.0517604802754192
30
0
41
1
10
49.9204004163603
20
-0.0080634803019564
30
0
41
1
10
49.9425462322212
20
-0.128199476893343
30
0
41
1
10
49.9979107718736
20
-0.42957813588967
30
0
41
1
10
50.053275311526
20
-0.735894541419981
30
0
41
1
10
50.1861502066916
20
-1.47810138999478
30
0
41
1
10
50.2747334701354
20
-1.98241869363898
30
0
41
1
10
50.4518999970228
20
-2.9940770539792
30
0
41
1
10
50.5404832604666
20
-3.50136950559238
30
0
41
1
10
50.7176497873541
20
-4.49978488882635
30
0
41
1
10
50.8062330507979
20
-4.9908323240181
30
0
41
1
10
50.9833995776855
20
-5.93629540644983
30
0
41
1
10
51.0719828411292
20
-6.39062327837362
30
0
41
1
10
51.2491493680167
20
-7.24343215299879
30
0
41
1
10
51.3377326314605
20
-7.64183525106679
30
0
41
1
10
51.514899158348
20
-8.36740142544059
30
0
41
1
10
51.6034824217918
20
-8.69451739090357
30
0
41
1
10
51.7806489486794
20
-9.2678881649399
30
0
41
1
10
51.8692322121231
20
-9.51413718252408
30
0
41
1
10
52.0463987390106
20
-9.922746121481
30
0
41
1
10
52.1349820024544
20
-10.0851379174574
30
0
41
1
10
52.3121485293419
20
-10.3291793935279
30
0
41
1
10
52.4007317927857
20
-10.4108843038667
30
0
41
1
10
52.5336066879513
20
-10.4788500313346
30
0
41
1
10
52.5778983196732
20
-10.4924386005375
30
0
41
1
10
52.6332628593255
20
-10.4988944283831
30
0
41
1
10
52.644335767256
20
-10.499659474406
30
0
41
1
10
52.6664815831169
20
-10.5001587976748
30
0
41
1
10
52.6775544910474
20
-10.4998961124246
30
0
41
1
10
52.7107732148388
20
-10.4975481744178
30
0
41
1
10
52.7329190306997
20
-10.4938988725141
30
0
41
1
10
52.8436481100044
20
-10.4648132230221
30
0
41
1
10
52.9322313734483
20
-10.4067342809723
30
0
41
1
10
53.1093979003358
20
-10.2119895249258
30
0
41
1
10
53.1979811637796
20
-10.0752648244103
30
0
41
1
10
53.3751476906671
20
-9.71837428305071
30
0
41
1
10
53.4637309541108
20
-9.49816747520279
30
0
41
1
10
53.6408974809983
20
-8.97525603699077
30
0
41
1
10
53.7294807444421
20
-8.67254447672755
30
0
41
1
10
53.9066472713296
20
-7.99214080472532
30
0
41
1
10
53.9952305347734
20
-7.61448343372763
30
0
41
1
10
54.1723970616608
20
-6.79787977935922
30
0
41
1
10
54.2609803251047
20
-6.35900373870419
30
0
41
1
10
54.4381468519922
20
-5.43821591816379
30
0
41
1
10
54.526730115436
20
-4.95639136435369
30
0
41
1
10
54.7038966423235
20
-3.97007861151528
30
0
41
1
10
54.7924799057672
20
-3.46567177051603
30
0
41
1
10
54.9696464326548
20
-2.4540689315422
30
0
41
1
10
55.0582296960985
20
-1.94693079197916
30
0
41
1
10
55.1911045912642
20
-1.19705332888643
30
0
41
1
10
55.2353962229861
20
-0.948873085271003
30
0
41
1
10
55.3018336705689
20
-0.580610230021932
30
0
41
1
10
55.3239794864299
20
-0.458521862485128
30
0
41
1
10
55.3682711181517
20
-0.215875554143906
30
0
41
1
10
55.3904169340126
20
-0.0955247622582931
30
0
41
1
10
55.5011460133173
20
0.504137459826126
30
0
41
1
10
55.5897292767611
20
0.997541112444395
30
0
41
1
10
55.6783125402049
20
1.49793063978112
30
0
0
SPLINE
5
D9
100
AcDbEntity
8
1
62
256
6
ByLayer
370
13
48
1
60
0
100
AcDbSpline
70
4
71
3
72
32
73
28
40
0
40
0
40
0
40
0
40
0.125
40
0.125
40
0.1875
40
0.1875
40
0.25
40
0.25
40
0.3125
40
0.3125
40
0.375
40
0.375
40
0.4375
40
0.4375
40
0.5
40
0.5
40
0.5625
40
0.5625
40
0.625
40
0.625
40
0.6875
40
0.6875
40
0.75
40
0.75
40
0.875
40
0.875
40
1
40
1
40
1
40
1
41
1
10
44.7000000000001
20
0.98485567055431
30
0
41
1
10
44.8069012294493
20
1.58200363439033
30
0
41
1
10
44.9138024588985
20
2.19309340373079
30
0
41
1
10
45.0741543030723
20
3.10905663736915
30
0
41
1
10
45.1276049177969
20
3.41420185555666
30
0
41
1
10
45.2345061472461
20
4.01993396724629
30
0
41
1
10
45.2879567619707
20
4.32051513378798
30
0
41
1
10
45.39485799142
20
4.91268103698036
30
0
41
1
10
45.4483086061446
20
5.20425909300195
30
0
41
1
10
45.5552098355939
20
5.773945741516
30
0
41
1
10
45.6086604503184
20
6.052047254793
30
0
41
1
10
45.7155616797677
20
6.59048157669716
30
0
41
1
10
45.7690122944923
20
6.85080757764766
30
0
41
1
10
45.8759135239416
20
7.34977641603052
30
0
41
1
10
45.9293641386661
20
7.58841340096842
30
0
41
1
10
46.0362653681154
20
8.04066706266357
30
0
41
1
10
46.0897159828399
20
8.25427942565909
30
0
41
1
10
46.1966172122892
20
8.65387863792932
30
0
41
1
10
46.2500678270138
20
8.839863097711
30
0
41
1
10
46.356969056463
20
9.1824350655906
30
0
41
1
10
46.4104196711876
20
9.33902223829776
30
0
41
1
10
46.5173209006368
20
9.62190308575239
30
0
41
1
10
46.5707715153615
20
9.74819834870115
30
0
41
1
10
46.7311233595354
20
10.0815821046154
30
0
41
1
10
46.8380245889845
20
10.2428435197856
30
0
41
1
10
47.051827047883
20
10.4519761859428
30
0
41
1
10
47.1587282773322
20
10.5
30
0
41
1
10
47.2656295067815
20
10.5
30
0
0
SPLINE
5
DA
100
AcDbEntity
8
1
62
256
6
ByLayer
370
13
48
1
60
0
100
AcDbSpline
70
4
71
3
72
84
73
80
40
0
40
0
40
0
40
0
40
0.0312499999999997
40
0.0312499999999997
40
0.0624999999999993
40
0.0624999999999993
40
0.093749999999999
40
0.093749999999999
40
0.124999999999999
40
0.124999999999999
40
0.156249999999998
40
0.156249999999998
40
0.187499999999998
40
0.187499999999998
40
0.218749999999998
40
0.218749999999998
40
0.249999999999997
40
0.249999999999997
40
0.281249999999997
40
0.281249999999997
40
0.296874999999997
40
0.296874999999997
40
0.304687499999997
40
0.304687499999997
40
0.312499999999997
40
0.312499999999997
40
0.343749999999997
40
0.343749999999997
40
0.374999999999997
40
0.374999999999997
40
0.406249999999997
40
0.406249999999997
40
0.437499999999997
40
0.437499999999997
40
0.468749999999997
40
0.468749999999997
40
0.499999999999997
40
0.499999999999997
40
0.531249999999997
40
0.531249999999997
40
0.562499999999997
40
0.562499999999997
40
0.593749999999997
40
0.593749999999997
40
0.609374999999997
40
0.609374999999997
40
0.613281249999997
40
0.613281249999997
40
0.617187499999998
40
0.624999999999998
40
0.624999999999998
40
0.656249999999998
40
0.656249999999998
40
0.687499999999998
40
0.687499999999998
40
0.718749999999998
40
0.718749999999998
40
0.749999999999998
40
0.749999999999998
40
0.781249999999999
40
0.781249999999999
40
0.812499999999999
40
0.812499999999999
40
0.843749999999999
40
0.843749999999999
40
0.874999999999999
40
0.874999999999999
40
0.906249999999999
40
0.906249999999999
40
0.914062499999999
40
0.914062499999999
40
0.917968749999999
40
0.917968749999999
40
0.921874999999999
40
0.9375
40
0.9375
40
0.96875
40
0.96875
40
1
40
1
40
1
40
1
41
1
10
46.679455509466
20
10.5
30
0
41
1
10
46.7731936035362
20
10.5
30
0
41
1
10
46.8669316976064
20
10.4631222498746
30
0
41
1
10
47.0544078857468
20
10.3038581603469
30
0
41
1
10
47.148145979817
20
10.1813912935168
30
0
41
1
10
47.3356221679574
20
9.84369435073381
30
0
41
1
10
47.4293602620276
20
9.62840254722093
30
0
41
1
10
47.616836450168
20
9.10468259106034
30
0
41
1
10
47.7105745442382
20
8.79623648940353
30
0
41
1
10
47.8980507323786
20
8.09400385571104
30
0
41
1
10
47.9917888264487
20
7.70025724645316
30
0
41
1
10
48.1792650145891
20
6.84309630047656
30
0
41
1
10
48.2730031086594
20
6.37977300724859
30
0
41
1
10
48.4604792967998
20
5.4049952152796
30
0
41
1
10
48.55421739087
20
4.89365630493364
30
0
41
1
10
48.7416935790104
20
3.84703087156308
30
0
41
1
10
48.8354316730806
20
3.31185077058373
30
0
41
1
10
49.0229078612209
20
2.2409143132875
30
0
41
1
10
49.1166459552912
20
1.70522998741993
30
0
41
1
10
49.2572530963964
20
0.916120146477681
30
0
41
1
10
49.3041221434315
20
0.655451744073758
30
0
41
1
10
49.3744257139841
20
0.269498674244858
30
0
41
1
10
49.3978602375017
20
0.141686666385567
30
0
41
1
10
49.4447292845368
20
-0.112041151820193
30
0
41
1
10
49.4681638080544
20
-0.23957340724121
30
0
41
1
10
49.5853364256421
20
-0.882172019962582
30
0
41
1
10
49.6790745197123
20
-1.41001881471385
30
0
41
1
10
49.8665507078527
20
-2.47609468231261
30
0
41
1
10
49.9602888019228
20
-3.01427398505783
30
0
41
1
10
50.1477649900633
20
-4.07930838929488
30
0
41
1
10
50.2415030841335
20
-4.606072785273
30
0
41
1
10
50.4289792722739
20
-5.62415791032942
30
0
41
1
10
50.5227173663441
20
-6.11536382393649
30
0
41
1
10
50.7101935544844
20
-7.03896511031405
30
0
41
1
10
50.8039316485547
20
-7.47125253136252
30
0
41
1
10
50.9914078366951
20
-8.25787299021852
30
0
41
1
10
51.0851459307652
20
-8.61213726777402
30
0
41
1
10
51.2726221189056
20
-9.23055945260089
30
0
41
1
10
51.3663602129758
20
-9.49470582029184
30
0
41
1
10
51.5538364011163
20
-9.9289866162141
30
0
41
1
10
51.6475744951864
20
-10.0991627713123
30
0
41
1
10
51.8350506833268
20
-10.3493554296175
30
0
41
1
10
51.928788777397
20
-10.4294459676317
30
0
41
1
10
52.0693959185023
20
-10.4892986606762
30
0
41
1
10
52.1162649655374
20
-10.4992411273323
30
0
41
1
10
52.1748512743313
20
-10.5001373747273
30
0
41
1
10
52.1865685360901
20
-10.4997433284439
30
0
41
1
10
52.2100030596076
20
-10.4977863686079
30
0
41
1
10
52.245154844884
20
-10.4930962234835
30
0
41
1
10
52.2803066301602
20
-10.4830279296532
30
0
41
1
10
52.397479247748
20
-10.4370355349663
30
0
41
1
10
52.4912173418182
20
-10.3602869779233
30
0
41
1
10
52.6786935299586
20
-10.117064670364
30
0
41
1
10
52.7724316240288
20
-9.95051615651533
30
0
41
1
10
52.9599078121692
20
-9.52350739435607
30
0
41
1
10
53.0536459062394
20
-9.26300369557467
30
0
41
1
10
53.2411220943798
20
-8.65156269283858
30
0
41
1
10
53.33486018845
20
-8.30063463786709
30
0
41
1
10
53.5223363765904
20
-7.52007268440681
30
0
41
1
10
53.6160744706606
20
-7.09050552003632
30
0
41
1
10
53.8035506588009
20
-6.17150032481905
30
0
41
1
10
53.8972887528711
20
-5.68216927733391
30
0
41
1
10
54.0847649410115
20
-4.66688595085702
30
0
41
1
10
54.1785030350817
20
-4.14104885976164
30
0
41
1
10
54.3659792232221
20
-3.07695399209615
30
0
41
1
10
54.4597173172923
20
-2.53878829029225
30
0
41
1
10
54.6471935054326
20
-1.47196583170967
30
0
41
1
10
54.7409315995029
20
-0.94336053626634
30
0
41
1
10
54.8581042170907
20
-0.29945585895328
30
0
41
1
10
54.8815387406083
20
-0.171504995869839
30
0
41
1
10
54.9166905258846
20
0.0190113300120345
30
0
41
1
10
54.9284077876434
20
0.0823909085751495
30
0
41
1
10
54.9518423111608
20
0.209894383470754
30
0
41
1
10
55.0104286199547
20
0.529788685079581
30
0
41
1
10
55.0690149287486
20
0.855052765028631
30
0
41
1
10
55.2096220698539
20
1.64304228064088
30
0
41
1
10
55.3033601639241
20
2.1783164758024
30
0
41
1
10
55.4908363520645
20
3.24928179108548
30
0
41
1
10
55.5845744461347
20
3.78490250474573
30
0
41
1
10
55.6783125402048
20
4.30912829274956
30
0
0
SPLINE
5
DB
100
AcDbEntity
8
1
62
256
6
ByLayer
370
13
48
1
60
0
100
AcDbSpline
70
4
71
3
72
22
73
18
40
0
40
0
40
0
40
0
40
0.125
40
0.125
40
0.25
40
0.25
40
0.375
40
0.375
40
0.5
40
0.5
40
0.625
40
0.625
40
0.75
40
0.75
40
0.875
40
0.875
40
1
40
1
40
1
40
1
41
1
10
44.7000000000001
20
3.7952567016649
30
0
41
1
10
44.7862819069435
20
4.28349100648677
30
0
41
1
10
44.872563813887
20
4.76529130859979
30
0
41
1
10
45.045127627774
20
5.69728271553001
30
0
41
1
10
45.1314095347175
20
6.14739734964394
30
0
41
1
10
45.3039733486045
20
6.99788460298623
30
0
41
1
10
45.390255255548
20
7.39818568093966
30
0
41
1
10
45.5628190694349
20
8.13394211224141
30
0
41
1
10
45.6491009763785
20
8.46934915337209
30
0
41
1
10
45.8216647902655
20
9.06510811715185
30
0
41
1
10
45.9079466972089
20
9.32544607412331
30
0
41
1
10
46.080510511096
20
9.76671916166083
30
0
41
1
10
46.1667924180394
20
9.94767440507084
30
0
41
1
10
46.3393562319264
20
10.2315917316059
30
0
41
1
10
46.4256381388699
20
10.3345978692373
30
0
41
1
10
46.5982019527569
20
10.468775211153
30
0
41
1
10
46.6844838597004
20
10.5
30
0
41
1
10
46.7707657666438
20
10.5
30
0
0
SPLINE
5
DC
100
AcDbEntity
8
1
62
256
6
ByLayer
370
13
48
1
60
0
100
AcDbSpline
70
4
71
3
72
80
73
76
40
0
40
0
40
0
40
0
40
0.0312500000000001
40
0.0312500000000001
40
0.0625000000000002
40
0.0625000000000002
40
0.0937500000000004
40
0.0937500000000004
40
0.125000000000001
40
0.125000000000001
40
0.156250000000001
40
0.156250000000001
40
0.187500000000001
40
0.187500000000001
40
0.218750000000001
40
0.218750000000001
40
0.250000000000001
40
0.250000000000001
40
0.281250000000001
40
0.281250000000001
40
0.289062500000001
40
0.289062500000001
40
0.296875000000001
40
0.296875000000001
40
0.312500000000001
40
0.312500000000001
40
0.343750000000001
40
0.343750000000001
40
0.375
40
0.375
40
0.40625
40
0.40625
40
0.4375
40
0.4375
40
0.46875
40
0.46875
40
0.5
40
0.5
40
0.53125
40
0.53125
40
0.562499999999999
40
0.562499999999999
40
0.578124999999999
40
0.578124999999999
40
0.593749999999999
40
0.593749999999999
40
0.624999999999999
40
0.624999999999999
40
0.656249999999999
40
0.656249999999999
40
0.687499999999999
40
0.687499999999999
40
0.718749999999999
40
0.718749999999999
40
0.749999999999999
40
0.749999999999999
40
0.781249999999999
40
0.781249999999999
40
0.812499999999999
40
0.812499999999999
40
0.843749999999999
40
0.843749999999999
40
0.859374999999999
40
0.859374999999999
40
0.867187499999999
40
0.867187499999999
40
0.874999999999999
40
0.874999999999999
40
0.906249999999999
40
0.906249999999999
40
0.937499999999999
40
0.937499999999999
40
0.96875
40
0.96875
40
1
40
1
40
1
40
1
41
1
10
46.1845917693284
20
10.5
30
0
41
1
10
46.2834846940251
20
10.5
30
0
41
1
10
46.3823776187218
20
10.4589352382127
30
0
41
1
10
46.580163468115
20
10.2809959047996
30
0
41
1
10
46.6790563928116
20
10.1440167414522
30
0
41
1
10
46.8768422422049
20
9.76629249012166
30
0
41
1
10
46.9757351669015
20
9.52547171209218
30
0
41
1
10
47.1735210162947
20
8.94087716956727
30
0
41
1
10
47.2724139409913
20
8.59709186433253
30
0
41
1
10
47.4701997903846
20
7.81758603500867
30
0
41
1
10
47.5690927150812
20
7.38193410296537
30
0
41
1
10
47.7668785644746
20
6.43909482114367
30
0
41
1
10
47.8657714891712
20
5.93203930566355
30
0
41
1
10
48.0635573385644
20
4.87306998382823
30
0
41
1
10
48.1624502632611
20
4.32130774906972
30
0
41
1
10
48.3602361126543
20
3.20144440750766
30
0
41
1
10
48.4591290373509
20
2.63346773523739
30
0
41
1
10
48.6569148867442
20
1.50722555103155
30
0
41
1
10
48.7558078114408
20
0.94902959363688
30
0
41
1
10
48.8794239673116
20
0.270221499545301
30
0
41
1
10
48.9041471984858
20
0.135391236657
30
0
41
1
10
48.9535936608341
20
-0.132150582109915
30
0
41
1
10
48.9783168920082
20
-0.266947729533285
30
0
41
1
10
49.0524865855307
20
-0.674187486123543
30
0
41
1
10
49.1019330478791
20
-0.949423152099513
30
0
41
1
10
49.250272434924
20
-1.78282224348121
30
0
41
1
10
49.3491653596206
20
-2.34884519751222
30
0
41
1
10
49.5469512090139
20
-3.47836342276858
30
0
41
1
10
49.6458441337105
20
-4.04176002929088
30
0
41
1
10
49.8436299831037
20
-5.13835769002952
30
0
41
1
10
49.9425229078004
20
-5.67141575070127
30
0
41
1
10
50.1403087571936
20
-6.67916312704202
30
0
41
1
10
50.2392016818902
20
-7.15370441334162
30
0
41
1
10
50.4369875312835
20
-8.02027693720117
30
0
41
1
10
50.5358804559802
20
-8.41220364667009
30
0
41
1
10
50.7336663053734
20
-9.09741008097427
30
0
41
1
10
50.8325592300701
20
-9.39066118136591
30
0
41
1
10
51.0303450794633
20
-9.87247942041981
30
0
41
1
10
51.12923800416
20
-10.0610937286752
30
0
41
1
10
51.3270238535532
20
-10.3373904037134
30
0
41
1
10
51.4259167782499
20
-10.4251676303155
30
0
41
1
10
51.5742561652947
20
-10.4895973445707
30
0
41
1
10
51.6237026276431
20
-10.4999169195255
30
0
41
1
10
51.7225955523397
20
-10.5000820802351
30
0
41
1
10
51.7720420146879
20
-10.4899354775923
30
0
41
1
10
51.920381401733
20
-10.4260457090136
30
0
41
1
10
52.0192743264296
20
-10.3386567629619
30
0
41
1
10
52.2170601758229
20
-10.0631692747335
30
0
41
1
10
52.3159531005195
20
-9.8749757563981
30
0
41
1
10
52.5137389499127
20
-9.39399607426478
30
0
41
1
10
52.6126318746094
20
-9.10116247849075
30
0
41
1
10
52.8104177240027
20
-8.41674642959367
30
0
41
1
10
52.9093106486993
20
-8.02519227140044
30
0
41
1
10
53.1070964980925
20
-7.15928194002626
30
0
41
1
10
53.2059894227892
20
-6.68503003473162
30
0
41
1
10
53.4037752721824
20
-5.67775293014341
30
0
41
1
10
53.502668196879
20
-5.14487567998557
30
0
41
1
10
53.7004540462723
20
-4.04852373801603
30
0
41
1
10
53.7993469709689
20
-3.48519215288718
30
0
41
1
10
53.9971328203622
20
-2.35569827648581
30
0
41
1
10
54.0960257450588
20
-1.78963487621053
30
0
41
1
10
54.2443651321037
20
-0.956112620238088
30
0
41
1
10
54.2938115944521
20
-0.680825554770394
30
0
41
1
10
54.3679812879745
20
-0.273495651090542
30
0
41
1
10
54.3927045191488
20
-0.138649285540396
30
0
41
1
10
54.442150981497
20
0.128926700893203
30
0
41
1
10
54.4668742126712
20
0.263674341465673
30
0
41
1
10
54.590490368542
20
0.942332015010606
30
0
41
1
10
54.6893832932386
20
1.50044254561527
30
0
41
1
10
54.8871691426319
20
2.62660892625931
30
0
41
1
10
54.9860620673285
20
3.19459546294314
30
0
41
1
10
55.1838479167217
20
4.31459088752314
30
0
41
1
10
55.2827408414184
20
4.86647552443935
30
0
41
1
10
55.4805266908116
20
5.92580419719883
30
0
41
1
10
55.5794196155083
20
6.433096683559
30
0
41
1
10
55.6783125402049
20
6.90480238069705
30
0
0
SPLINE
5
DD
100
AcDbEntity
8
1
62
256
6
ByLayer
370
13
48
1
60
0
100
AcDbSpline
70
4
71
3
72
22
73
18
40
0
40
0
40
0
40
0
40
0.125
40
0.125
40
0.25
40
0.25
40
0.375
40
0.375
40
0.5
40
0.5
40
0.625
40
0.625
40
0.75
40
0.75
40
0.875
40
0.875
40
1
40
1
40
1
40
1
41
1
10
44.7000000000001
20
6.45956135226697
30
0
41
1
10
44.7656625844378
20
6.78645834456751
30
0
41
1
10
44.8313251688755
20
7.09938619269562
30
0
41
1
10
44.9626503377511
20
7.69034781551062
30
0
41
1
10
45.0283129221888
20
7.96836680595413
30
0
41
1
10
45.1596380910644
20
8.48398492236248
30
0
41
1
10
45.2253006755021
20
8.72157529957974
30
0
41
1
10
45.3566258443776
20
9.15263815017872
30
0
41
1
10
45.4222884288154
20
9.34610886650512
30
0
41
1
10
45.5536135976909
20
9.68722213287535
30
0
41
1
10
45.6192761821287
20
9.83486952695316
30
0
41
1
10
45.7506013510042
20
10.0845646080095
30
0
41
1
10
45.816263935442
20
10.1866222419262
30
0
41
1
10
45.9475891043174
20
10.3470764432712
30
0
41
1
10
46.0132516887552
20
10.4054859578351
30
0
41
1
10
46.1445768576308
20
10.4819408372046
30
0
41
1
10
46.2102394420685
20
10.5
30
0
41
1
10
46.2759020265063
20
10.5
30
0
0
SPLINE
5
DE
100
AcDbEntity
8
1
62
256
6
ByLayer
370
13
48
1
60
0
100
AcDbSpline
70
4
71
3
72
103
73
99
40
0
40
0
40
0
40
0
40
0.0312500000000003
40
0.0312500000000003
40
0.0625000000000007
40
0.0625000000000007
40
0.093750000000001
40
0.093750000000001
40
0.109375000000001
40
0.109375000000001
40
0.125000000000001
40
0.125000000000001
40
0.140625000000002
40
0.140625000000002
40
0.156250000000002
40
0.156250000000002
40
0.171875000000002
40
0.171875000000002
40
0.187500000000002
40
0.187500000000002
40
0.218750000000003
40
0.218750000000003
40
0.250000000000003
40
0.250000000000003
40
0.265625000000004
40
0.265625000000004
40
0.273437500000004
40
0.273437500000004
40
0.277343750000004
40
0.277343750000004
40
0.281250000000004
40
0.281250000000004
40
0.312500000000004
40
0.312500000000004
40
0.343750000000003
40
0.343750000000003
40
0.375000000000003
40
0.375000000000003
40
0.390625000000003
40
0.390625000000003
40
0.406250000000003
40
0.406250000000003
40
0.421875000000002
40
0.421875000000002
40
0.437500000000002
40
0.437500000000002
40
0.468750000000002
40
0.468750000000002
40
0.500000000000002
40
0.500000000000002
40
0.531250000000001
40
0.531250000000001
40
0.546875000000001
40
0.546875000000001
40
0.550781250000001
40
0.550781250000001
40
0.554687500000001
40
0.562500000000001
40
0.562500000000001
40
0.593750000000001
40
0.593750000000001
40
0.625000000000001
40
0.625000000000001
40
0.65625
40
0.65625
40
0.671875
40
0.671875
40
0.6875
40
0.6875
40
0.703125
40
0.703125
40
0.71875
40
0.71875
40
0.749999999999999
40
0.749999999999999
40
0.781249999999999
40
0.781249999999999
40
0.812499999999999
40
0.812499999999999
40
0.820312499999999
40
0.820312499999999
40
0.828124999999999
40
0.828124999999999
40
0.843749999999999
40
0.843749999999999
40
0.874999999999999
40
0.874999999999999
40
0.906249999999999
40
0.906249999999999
40
0.9375
40
0.9375
40
0.953125
40
0.953125
40
0.96875
40
0.96875
40
0.984375
40
0.984375
40
1
40
1
40
1
40
1
41
1
10
45.6897280291909
20
10.5
30
0
41
1
10
45.793775784514
20
10.5
30
0
41
1
10
45.897823539837
20
10.454519349158
30
0
41
1
10
46.1059190504831
20
10.2568069676459
30
0
41
1
10
46.2099668058062
20
10.1044413725794
30
0
41
1
10
46.4180623164523
20
9.68436760311704
30
0
41
1
10
46.5221100717754
20
9.41656878888898
30
0
41
1
10
46.67818170476
20
8.93018877164553
30
0
41
1
10
46.7302055824215
20
8.75404365343556
30
0
41
1
10
46.8342533377445
20
8.37520729433649
30
0
41
1
10
46.8862772154061
20
8.17251780708756
30
0
41
1
10
46.9903249707292
20
7.74284302440421
30
0
41
1
10
47.0423488483907
20
7.51586115991157
30
0
41
1
10
47.1463966037137
20
7.04053322490918
30
0
41
1
10
47.1984204813753
20
6.79219198593927
30
0
41
1
10
47.3024682366983
20
6.27763297966422
30
0
41
1
10
47.3544921143599
20
6.01142099403981
30
0
41
1
10
47.4585398696829
20
5.46500315037272
30
0
41
1
10
47.5105637473445
20
5.18480347082971
30
0
41
1
10
47.666635380329
20
4.32935763988661
30
0
41
1
10
47.7706831356521
20
3.73935454410957
30
0
41
1
10
47.9787786462982
20
2.55233038372106
30
0
41
1
10
48.0828264016213
20
1.95544613151083
30
0
41
1
10
48.2388980346059
20
1.07598951833953
30
0
41
1
10
48.2909219122674
20
0.785433512681237
30
0
41
1
10
48.3689577287597
20
0.355603571429384
30
0
41
1
10
48.3949696675905
20
0.213323742095184
30
0
41
1
10
48.4339875758366
20
0.0016274466956361
30
0
41
1
10
48.446993545252
20
-0.0686416384102415
30
0
41
1
10
48.4730054840828
20
-0.21013266180654
30
0
41
1
10
48.4860114534982
20
-0.281159402979995
30
0
41
1
10
48.6030651782366
20
-0.92276161922311
30
0
41
1
10
48.7071129335597
20
-1.51018801989522
30
0
41
1
10
48.9152084442058
20
-2.69550488493886
30
0
41
1
10
49.0192561995288
20
-3.29330420340708
30
0
41
1
10
49.227351710175
20
-4.46892841135033
30
0
41
1
10
49.3313994654981
20
-5.04658899018025
30
0
41
1
10
49.4874710984826
20
-5.87319618272454
30
0
41
1
10
49.5394949761442
20
-6.14207970183867
30
0
41
1
10
49.6435427314672
20
-6.66262184073679
30
0
41
1
10
49.6955666091288
20
-6.9142745703551
30
0
41
1
10
49.7996143644518
20
-7.39678610583749
30
0
41
1
10
49.8516382421134
20
-7.62763988215048
30
0
41
1
10
49.9556859974364
20
-8.06551426546778
30
0
41
1
10
50.0077098750979
20
-8.27253117730459
30
0
41
1
10
50.1637815080825
20
-8.8542668537267
30
0
41
1
10
50.2678292634056
20
-9.18927185863004
30
0
41
1
10
50.4759247740517
20
-9.7437816533627
30
0
41
1
10
50.5799725293748
20
-9.96332793147954
30
0
41
1
10
50.7880680400209
20
-10.289246781677
30
0
41
1
10
50.892115795344
20
-10.3957345266857
30
0
41
1
10
51.0481874283287
20
-10.4796875698981
30
0
41
1
10
51.1002113059901
20
-10.4951066333067
30
0
41
1
10
51.165241153067
20
-10.4999789220825
30
0
41
1
10
51.1782471224825
20
-10.5002364326155
30
0
41
1
10
51.2042590613132
20
-10.4993359399593
30
0
41
1
10
51.2432769695594
20
-10.4958465268005
30
0
41
1
10
51.2822948778055
20
-10.4857833017327
30
0
41
1
10
51.4123545719593
20
-10.4369688310734
30
0
41
1
10
51.5164023272823
20
-10.3487837812806
30
0
41
1
10
51.7244978379285
20
-10.0609632977385
30
0
41
1
10
51.8285455932516
20
-9.86120531580161
30
0
41
1
10
52.0366411038977
20
-9.34586801097916
30
0
41
1
10
52.1406888592207
20
-9.030231320642
30
0
41
1
10
52.2967604922054
20
-8.47562205428156
30
0
41
1
10
52.3487843698668
20
-8.27732583582952
30
0
41
1
10
52.4528321251899
20
-7.85600231806546
30
0
41
1
10
52.5048560028514
20
-7.63297817731279
30
0
41
1
10
52.6089037581746
20
-7.16502176520336
30
0
41
1
10
52.6609276358361
20
-6.92009411406926
30
0
41
1
10
52.7649753911591
20
-6.41173399949733
30
0
41
1
10
52.8169992688207
20
-6.14830719290819
30
0
41
1
10
52.9730709018053
20
-5.33601113316908
30
0
41
1
10
53.0771186571283
20
-4.76511496229998
30
0
41
1
10
53.2852141677744
20
-3.59738705051561
30
0
41
1
10
53.3892619230975
20
-3.00072895942651
30
0
41
1
10
53.5973574337436
20
-1.8128625161234
30
0
41
1
10
53.7014051890667
20
-1.2217590504313
30
0
41
1
10
53.8314648832205
20
-0.502070685117047
30
0
41
1
10
53.8574768220512
20
-0.359074209718841
30
0
41
1
10
53.9095006997129
20
-0.0752788701068425
30
0
41
1
10
53.9355126385436
20
0.0649071186116998
30
0
41
1
10
54.0135484550359
20
0.490438559520754
30
0
41
1
10
54.0655723326974
20
0.778551870012507
30
0
41
1
10
54.2216439656821
20
1.65220566200102
30
0
41
1
10
54.3256917210051
20
2.24727088735173
30
0
41
1
10
54.5337872316512
20
3.43588164028421
30
0
41
1
10
54.6378349869742
20
4.02930313834352
30
0
41
1
10
54.8459304976204
20
5.18244400340083
30
0
41
1
10
54.9499782529435
20
5.74197893879352
30
0
41
1
10
55.1060498859281
20
6.53143754080318
30
0
41
1
10
55.1580737635896
20
6.78629733383184
30
0
41
1
10
55.2621215189126
20
7.2757991410997
30
0
41
1
10
55.3141453965742
20
7.51043594177276
30
0
41
1
10
55.4181931518972
20
7.95635157144918
30
0
41
1
10
55.4702170295587
20
8.16762645020512
30
0
41
1
10
55.5742647848818
20
8.56432072291375
30
0
41
1
10
55.6262886625434
20
8.74973777209343
30
0
41
1
10
55.6783125402048
20
8.92134745484145
30
0
0
SPLINE
5
DF
100
AcDbEntity
8
1
62
256
6
ByLayer
370
13
48
1
60
0
100
AcDbSpline
70
4
71
3
72
14
73
10
40
0
40
0
40
0
40
0
40
0.25
40
0.25
40
0.5
40
0.5
40
0.75
40
0.75
40
1
40
1
40
1
40
1
41
1
10
44.7000000000001
20
8.60614796091448
30
0
41
1
10
44.7900865238641
20
8.93077494253777
30
0
41
1
10
44.8801730477282
20
9.21520230753555
30
0
41
1
10
45.0603460954562
20
9.69770168617723
30
0
41
1
10
45.1504326193203
20
9.89579352501627
30
0
41
1
10
45.3306056670484
20
10.2065440178596
30
0
41
1
10
45.4206921909125
20
10.3192553337348
30
0
41
1
10
45.6008652386406
20
10.4659501919984
30
0
41
1
10
45.6909517625046
20
10.5
30
0
41
1
10
45.7810382863687
20
10.5
30
0
0
SPLINE
5
E0
100
AcDbEntity
8
1
62
256
6
ByLayer
370
13
48
1
60
0
100
AcDbSpline
70
4
71
3
72
132
73
128
40
0
40
0
40
0
40
0
40
0.0312500000000005
40
0.0312500000000005
40
0.0468750000000008
40
0.0468750000000008
40
0.062500000000001
40
0.062500000000001
40
0.0781250000000012
40
0.0781250000000012
40
0.0937500000000015
40
0.0937500000000015
40
0.109375000000002
40
0.109375000000002
40
0.125000000000002
40
0.125000000000002
40
0.140625000000002
40
0.140625000000002
40
0.156250000000002
40
0.156250000000002
40
0.171875000000003
40
0.171875000000003
40
0.187500000000003
40
0.187500000000003
40
0.203125000000003
40
0.203125000000003
40
0.218750000000003
40
0.218750000000003
40
0.250000000000003
40
0.250000000000003
40
0.257812500000004
40
0.257812500000004
40
0.265625000000004
40
0.265625000000004
40
0.281250000000004
40
0.281250000000004
40
0.296875000000004
40
0.296875000000004
40
0.312500000000004
40
0.312500000000004
40
0.328125000000004
40
0.328125000000004
40
0.343750000000004
40
0.343750000000004
40
0.359375000000004
40
0.359375000000004
40
0.375000000000004
40
0.375000000000004
40
0.390625000000004
40
0.390625000000004
40
0.406250000000004
40
0.406250000000004
40
0.421875000000004
40
0.421875000000004
40
0.437500000000005
40
0.437500000000005
40
0.453125000000005
40
0.453125000000005
40
0.468750000000005
40
0.468750000000005
40
0.484375000000005
40
0.484375000000005
40
0.500000000000005
40
0.500000000000005
40
0.515625000000005
40
0.515625000000005
40
0.523437500000005
40
0.523437500000005
40
0.531250000000005
40
0.531250000000005
40
0.562500000000005
40
0.562500000000005
40
0.578125000000005
40
0.578125000000005
40
0.593750000000005
40
0.593750000000005
40
0.609375000000004
40
0.609375000000004
40
0.625000000000004
40
0.625000000000004
40
0.640625000000004
40
0.640625000000004
40
0.656250000000004
40
0.656250000000004
40
0.671875000000004
40
0.671875000000004
40
0.687500000000004
40
0.687500000000004
40
0.703125000000004
40
0.703125000000004
40
0.718750000000004
40
0.718750000000004
40
0.734375000000004
40
0.734375000000004
40
0.750000000000004
40
0.750000000000004
40
0.781250000000003
40
0.781250000000003
40
0.789062500000003
40
0.789062500000003
40
0.796875000000003
40
0.796875000000003
40
0.812500000000003
40
0.812500000000003
40
0.828125000000003
40
0.828125000000003
40
0.843750000000003
40
0.843750000000003
40
0.859375000000002
40
0.859375000000002
40
0.875000000000002
40
0.875000000000002
40
0.890625000000002
40
0.890625000000002
40
0.906250000000002
40
0.906250000000002
40
0.921875000000002
40
0.921875000000002
40
0.937500000000001
40
0.937500000000001
40
0.953125000000001
40
0.953125000000001
40
0.968750000000001
40
0.968750000000001
40
0.984375
40
0.984375
40
1
40
1
40
1
40
1
41
1
10
45.1948642890532
20
10.5
30
0
41
1
10
45.3040668750028
20
10.5
30
0
41
1
10
45.4132694609523
20
10.4498737052431
30
0
41
1
10
45.5770733398765
20
10.2859305675284
30
0
41
1
10
45.6316746328512
20
10.2165390203565
30
0
41
1
10
45.7408772188007
20
10.0468087232387
30
0
41
1
10
45.7954785117755
20
9.94646529214009
30
0
41
1
10
45.904681097725
20
9.71409736835147
30
0
41
1
10
45.9592823906998
20
9.58206948601483
30
0
41
1
10
46.0684849766492
20
9.28645863707129
30
0
41
1
10
46.123086269624
20
9.12287412001871
30
0
41
1
10
46.2322888555735
20
8.76521194260764
30
0
41
1
10
46.2868901485482
20
8.57113494837674
30
0
41
1
10
46.3960927344977
20
8.1545002419025
30
0
41
1
10
46.4506940274725
20
7.93194552642203
30
0
41
1
10
46.559896613422
20
7.46126349825965
30
0
41
1
10
46.6144979063967
20
7.21314131571404
30
0
41
1
10
46.7237004923463
20
6.69500518823631
30
0
41
1
10
46.778301785321
20
6.4249980137914
30
0
41
1
10
46.8875043712705
20
5.86736475791031
30
0
41
1
10
46.9421056642452
20
5.57974637822412
30
0
41
1
10
47.0513082501947
20
4.9915355806333
30
0
41
1
10
47.1059095431695
20
4.69095099518853
30
0
41
1
10
47.215112129119
20
4.08158850621967
30
0
41
1
10
47.2697134220937
20
3.7728178107466
30
0
41
1
10
47.3789160080433
20
3.1517712194009
30
0
41
1
10
47.433517301018
20
2.83950131244538
30
0
41
1
10
47.5973211799422
20
1.90402693643355
30
0
41
1
10
47.7065237658916
20
1.28244930710753
30
0
41
1
10
47.8430269983285
20
0.526388771459608
30
0
41
1
10
47.8703276448159
20
0.376200195798788
30
0
41
1
10
47.9249289377907
20
0.0782363141840676
30
0
41
1
10
47.952229584278
20
-0.0688680896424216
30
0
41
1
10
48.0341315237402
20
-0.515661284855156
30
0
41
1
10
48.0887328167149
20
-0.818383720320298
30
0
41
1
10
48.1979354026644
20
-1.43047264957963
30
0
41
1
10
48.2525366956392
20
-1.73983729338497
30
0
41
1
10
48.3617392815886
20
-2.3615424152436
30
0
41
1
10
48.4163405745634
20
-2.67387935966565
30
0
41
1
10
48.5255431605129
20
-3.2973500887218
30
0
41
1
10
48.5801444534877
20
-3.60847866343042
30
0
41
1
10
48.6893470394372
20
-4.22497428324806
30
0
41
1
10
48.7439483324119
20
-4.53033468185964
30
0
41
1
10
48.8531509183614
20
-5.1305352312969
30
0
41
1
10
48.907752211336
20
-5.42536778195949
30
0
41
1
10
49.0169547972856
20
-5.99976938568045
30
0
41
1
10
49.0715560902604
20
-6.27933056998788
30
0
41
1
10
49.1807586762099
20
-6.81869653144793
30
0
41
1
10
49.2353599691847
20
-7.07849396507604
30
0
41
1
10
49.3445625551341
20
-7.57432118877864
30
0
41
1
10
49.3991638481089
20
-7.8103449335278
30
0
41
1
10
49.5083664340584
20
-8.2552989809908
30
0
41
1
10
49.5629677270331
20
-8.46422515335075
30
0
41
1
10
49.6721703129826
20
-8.85249853025152
30
0
41
1
10
49.7267716059573
20
-9.03184387388009
30
0
41
1
10
49.8359741919069
20
-9.35940130691662
30
0
41
1
10
49.8905754848817
20
-9.50761384748367
30
0
41
1
10
49.9997780708312
20
-9.77230363907879
30
0
41
1
10
50.0543793638058
20
-9.8887834010059
30
0
41
1
10
50.1635819497553
20
-10.0903121808527
30
0
41
1
10
50.21818324273
20
-10.1753652953164
30
0
41
1
10
50.3273858286796
20
-10.3151507794429
30
0
41
1
10
50.3819871216544
20
-10.3698882403185
30
0
41
1
10
50.4911897076038
20
-10.4508176867747
30
0
41
1
10
50.5457910005786
20
-10.4770151578778
30
0
41
1
10
50.6276929400407
20
-10.49661194231
30
0
41
1
10
50.6549935865281
20
-10.4998643812394
30
0
41
1
10
50.7095948795028
20
-10.5001273073691
30
0
41
1
10
50.7368955259902
20
-10.4971444061666
30
0
41
1
10
50.8733987584271
20
-10.4658640320314
30
0
41
1
10
50.9826013443766
20
-10.3881679445646
30
0
41
1
10
51.1464052233008
20
-10.1804022299488
30
0
41
1
10
51.2010065162756
20
-10.096002168106
30
0
41
1
10
51.310209102225
20
-9.89579507190905
30
0
41
1
10
51.3648103951998
20
-9.77998391373654
30
0
41
1
10
51.4740129811493
20
-9.51662874259529
30
0
41
1
10
51.528614274124
20
-9.36908217980979
30
0
41
1
10
51.6378168600735
20
-9.04283433232521
30
0
41
1
10
51.6924181530483
20
-8.86413254951049
30
0
41
1
10
51.8016207389978
20
-8.47710382821106
30
0
41
1
10
51.8562220319725
20
-8.26877870123369
30
0
41
1
10
51.965424617922
20
-7.82496533825244
30
0
41
1
10
52.0200259108968
20
-7.58948118736902
30
0
41
1
10
52.1292284968462
20
-7.09465540640505
30
0
41
1
10
52.183829789821
20
-6.83531978688029
30
0
41
1
10
52.2930323757705
20
-6.29678719504966
30
0
41
1
10
52.3476336687452
20
-6.01759754655765
30
0
41
1
10
52.4568362546947
20
-5.44384090035706
30
0
41
1
10
52.5114375476695
20
-5.14928176868651
30
0
41
1
10
52.620640133619
20
-4.54952708675245
30
0
41
1
10
52.6752414265938
20
-4.24433914995893
30
0
41
1
10
52.7844440125432
20
-3.62808946069245
30
0
41
1
10
52.839045305518
20
-3.31703438062061
30
0
41
1
10
52.9482478914675
20
-2.69361785549251
30
0
41
1
10
53.0028491844422
20
-2.38126165398319
30
0
41
1
10
53.1666530633665
20
-1.44852130993161
30
0
41
1
10
53.2758556493159
20
-0.832771217327007
30
0
41
1
10
53.4123588817528
20
-0.0876079050067062
30
0
41
1
10
53.4396595282402
20
0.0595032407485974
30
0
41
1
10
53.4942608212149
20
0.357263311987396
30
0
41
1
10
53.5215614677023
20
0.507357276157194
30
0
41
1
10
53.6034634071644
20
0.960734090859859
30
0
41
1
10
53.6580647001392
20
1.2671302589427
30
0
41
1
10
53.7672672860887
20
1.88484125828555
30
0
41
1
10
53.8218685790634
20
2.19615342756609
30
0
41
1
10
53.931071165013
20
2.81976500478564
30
0
41
1
10
53.9856724579877
20
3.13206004407076
30
0
41
1
10
54.0948750439372
20
3.7532531394678
30
0
41
1
10
54.149476336912
20
4.06214523716142
30
0
41
1
10
54.2586789228614
20
4.67185102590076
30
0
41
1
10
54.3132802158362
20
4.97265752917968
30
0
41
1
10
54.4224828017856
20
5.561412348956
30
0
41
1
10
54.4770840947604
20
5.84935283875407
30
0
41
1
10
54.58628668071
20
6.40772522175857
30
0
41
1
10
54.6408879736847
20
6.67814940212673
30
0
41
1
10
54.7500905596342
20
7.19720427119177
30
0
41
1
10
54.8046918526089
20
7.44582816189791
30
0
41
1
10
54.9138944385585
20
7.91758384487787
30
0
41
1
10
54.9684957315332
20
8.1407104664155
30
0
41
1
10
55.0776983174827
20
8.55854145529182
30
0
41
1
10
55.1322996104574
20
8.75324277775175
30
0
41
1
10
55.2415021964069
20
9.11218639091373
30
0
41
1
10
55.2961034893816
20
9.27642796648973
30
0
41
1
10
55.4053060753311
20
9.57336558091532
30
0
41
1
10
55.4599073683058
20
9.70606312659763
30
0
41
1
10
55.5691099542553
20
9.93976386743216
30
0
41
1
10
55.6237112472301
20
10.0407704187061
30
0
41
1
10
55.6783125402049
20
10.1262869267228
30
0
0
SPLINE
5
E1
100
AcDbEntity
8
1
62
256
6
ByLayer
370
13
48
1
60
0
100
AcDbSpline
70
4
71
3
72
10
73
6
40
0
40
0
40
0
40
0
40
0.5
40
0.5
40
1
40
1
40
1
40
1
41
1
10
44.7000000000001
20
9.9687818078902
30
0
41
1
10
44.7976957577052
20
10.1528922831652
30
0
41
1
10
44.8953915154104
20
10.2864234349609
30
0
41
1
10
45.0907830308207
20
10.4599280115305
30
0
41
1
10
45.1884787885259
20
10.5
30
0
41
1
10
45.2861745462311
20
10.5
30
0
0
SPLINE
5
E2
100
AcDbEntity
8
1
62
256
6
ByLayer
370
13
48
1
60
0
100
AcDbSpline
70
4
71
3
72
134
73
130
40
0
40
0
40
0
40
0
40
0.0156249999999999
40
0.0156249999999999
40
0.0312499999999999
40
0.0312499999999999
40
0.0468749999999998
40
0.0468749999999998
40
0.0624999999999997
40
0.0624999999999997
40
0.0781249999999997
40
0.0781249999999997
40
0.0937499999999996
40
0.0937499999999996
40
0.109375
40
0.109375
40
0.124999999999999
40
0.124999999999999
40
0.140624999999999
40
0.140624999999999
40
0.156249999999999
40
0.156249999999999
40
0.171874999999999
40
0.171874999999999
40
0.187499999999999
40
0.187499999999999
40
0.203124999999999
40
0.203124999999999
40
0.218749999999999
40
0.218749999999999
40
0.234374999999999
40
0.234374999999999
40
0.249999999999999
40
0.249999999999999
40
0.265624999999999
40
0.265624999999999
40
0.281249999999999
40
0.281249999999999
40
0.296874999999999
40
0.296874999999999
40
0.312499999999999
40
0.312499999999999
40
0.328124999999999
40
0.328124999999999
40
0.343749999999999
40
0.343749999999999
40
0.359374999999999
40
0.359374999999999
40
0.374999999999999
40
0.374999999999999
40
0.390624999999999
40
0.390624999999999
40
0.406249999999999
40
0.406249999999999
40
0.421874999999999
40
0.421874999999999
40
0.437499999999999
40
0.437499999999999
40
0.453124999999999
40
0.453124999999999
40
0.468749999999999
40
0.468749999999999
40
0.484374999999999
40
0.484374999999999
40
0.499999999999999
40
0.499999999999999
40
0.515624999999999
40
0.515624999999999
40
0.531249999999999
40
0.531249999999999
40
0.546874999999999
40
0.546874999999999
40
0.562499999999999
40
0.562499999999999
40
0.578124999999999
40
0.578124999999999
40
0.593749999999999
40
0.593749999999999
40
0.609374999999999
40
0.609374999999999
40
0.624999999999999
40
0.624999999999999
40
0.640624999999999
40
0.640624999999999
40
0.656249999999999
40
0.656249999999999
40
0.671874999999999
40
0.671874999999999
40
0.687499999999999
40
0.687499999999999
40
0.703124999999999
40
0.703124999999999
40
0.718749999999999
40
0.718749999999999
40
0.734374999999999
40
0.734374999999999
40
0.749999999999999
40
0.749999999999999
40
0.765625
40
0.765625
40
0.78125
40
0.78125
40
0.796875
40
0.796875
40
0.8125
40
0.8125
40
0.828125
40
0.828125
40
0.84375
40
0.84375
40
0.859375
40
0.859375
40
0.875
40
0.875
40
0.890625
40
0.890625
40
0.90625
40
0.90625
40
0.921875
40
0.921875
40
0.9375
40
0.9375
40
0.953125
40
0.953125
40
0.96875
40
0.96875
40
0.984375
40
0.984375
40
1
40
1
40
1
40
1
41
1
10
44.7000005489157
20
10.5
30
0
41
1
10
44.7571792572036
20
10.5
30
0
41
1
10
44.8143579654916
20
10.4863118507016
30
0
41
1
10
44.9287153820675
20
10.4287412388045
30
0
41
1
10
44.9858940903555
20
10.3848518728072
30
0
41
1
10
45.1002515069314
20
10.2645609000282
30
0
41
1
10
45.1574302152194
20
10.1881525898756
30
0
41
1
10
45.2717876317953
20
10.0012256161692
30
0
41
1
10
45.3289663400833
20
9.89070124489629
30
0
41
1
10
45.4433237566592
20
9.63485323092357
30
0
41
1
10
45.5005024649471
20
9.48952571161738
30
0
41
1
10
45.6148598815231
20
9.16443867562273
30
0
41
1
10
45.6720385898111
20
8.98467783495738
30
0
41
1
10
45.786396006387
20
8.59222825383893
30
0
41
1
10
45.843574714675
20
8.37954118572765
30
0
41
1
10
45.9579321312509
20
7.92387623179229
30
0
41
1
10
46.0151108395388
20
7.68090305302877
30
0
41
1
10
46.1294682561148
20
7.16833996696445
30
0
41
1
10
46.1866469644027
20
6.89875738772486
30
0
41
1
10
46.3010043809786
20
6.33750402435106
30
0
41
1
10
46.3581830892667
20
6.04584238035568
30
0
41
1
10
46.4725405058426
20
5.44556334115089
30
0
41
1
10
46.5297192141306
20
5.13695584443639
30
0
41
1
10
46.6440766307065
20
4.50823164713464
30
0
41
1
10
46.7012553389945
20
4.18812450699969
30
0
41
1
10
46.8156127555704
20
3.54186555706579
30
0
41
1
10
46.8727914638583
20
3.2157220271491
30
0
41
1
10
46.9871488804343
20
2.56260175818821
30
0
41
1
10
47.0443275887223
20
2.23563137017578
30
0
41
1
10
47.1586850052981
20
1.58559409555755
30
0
41
1
10
47.2158637135862
20
1.26253133463644
30
0
41
1
10
47.330221130162
20
0.624413296980947
30
0
41
1
10
47.3873998384501
20
0.309359952824195
30
0
41
1
10
47.501757255026
20
-0.309358467899955
30
0
41
1
10
47.5589359633139
20
-0.624411778217166
30
0
41
1
10
47.6732933798898
20
-1.26252979043363
30
0
41
1
10
47.7304720881778
20
-1.58559254163683
30
0
41
1
10
47.8448295047538
20
-2.23562980391756
30
0
41
1
10
47.9020082130417
20
-2.56260018931405
30
0
41
1
10
48.0163656296176
20
-3.21572046104589
30
0
41
1
10
48.0735443379056
20
-3.54186399635287
30
0
41
1
10
48.1879017544816
20
-4.18812296566952
30
0
41
1
10
48.2450804627695
20
-4.50823011979969
30
0
41
1
10
48.3594378793454
20
-5.13695435389505
30
0
41
1
10
48.4166165876333
20
-5.44556187340939
30
0
41
1
10
48.5309740042093
20
-6.04584096675762
30
0
41
1
10
48.5881527124973
20
-6.33750264209624
30
0
41
1
10
48.7025101290732
20
-6.89875607596332
30
0
41
1
10
48.7596888373612
20
-7.16833869435081
30
0
41
1
10
48.8740462539371
20
-7.68090186533937
30
0
41
1
10
48.9312249622251
20
-7.92387508987554
30
0
41
1
10
49.045582378801
20
-8.37954014045232
30
0
41
1
10
49.102761087089
20
-8.59222725942769
30
0
41
1
10
49.2171185036649
20
-8.98467694561035
30
0
41
1
10
49.2742972119528
20
-9.1644378404709
30
0
41
1
10
49.3886546285288
20
-9.48952498635114
30
0
41
1
10
49.4458333368168
20
-9.63485256134319
30
0
41
1
10
49.5601907533926
20
-9.89070068640592
30
0
41
1
10
49.6173694616806
20
-10.0012251130794
30
0
41
1
10
49.7317268782566
20
-10.1881521957157
30
0
41
1
10
49.7889055865446
20
-10.2645605593953
30
0
41
1
10
49.9032630031205
20
-10.3848516360432
30
0
41
1
10
49.9604417114085
20
-10.4287410523814
30
0
41
1
10
50.0747991279844
20
-10.4863117607854
30
0
41
1
10
50.1319778362724
20
-10.4999999562499
30
0
41
1
10
50.2463352528483
20
-10.5000000437499
30
0
41
1
10
50.3035139611363
20
-10.4863119406176
30
0
41
1
10
50.4178713777122
20
-10.4287414252272
30
0
41
1
10
50.4750500860001
20
-10.3848521095709
30
0
41
1
10
50.589407502576
20
-10.2645612406609
30
0
41
1
10
50.646586210864
20
-10.1881529840353
30
0
41
1
10
50.7609436274399
20
-10.0012261192587
30
0
41
1
10
50.8181223357279
20
-9.89070180338641
30
0
41
1
10
50.9324797523038
20
-9.63485390050366
30
0
41
1
10
50.9896584605918
20
-9.48952643688335
30
0
41
1
10
51.1040158771677
20
-9.16443951077429
30
0
41
1
10
51.1611945854558
20
-8.98467872430416
30
0
41
1
10
51.2755520020317
20
-8.59222924824994
30
0
41
1
10
51.3327307103196
20
-8.37954223100274
30
0
41
1
10
51.4470881268955
20
-7.92387737370879
30
0
41
1
10
51.5042668351834
20
-7.68090424071798
30
0
41
1
10
51.6186242517593
20
-7.1683412395779
30
0
41
1
10
51.6758029600473
20
-6.89875869948622
30
0
41
1
10
51.7901603766232
20
-6.33750540660571
30
0
41
1
10
51.8473390849112
20
-6.04584379395362
30
0
41
1
10
51.9616965014872
20
-5.44556480889227
30
0
41
1
10
52.0188752097752
20
-5.13695733497761
30
0
41
1
10
52.1332326263511
20
-4.50823317446955
30
0
41
1
10
52.190411334639
20
-4.18812604832976
30
0
41
1
10
52.304768751215
20
-3.54186711777871
30
0
41
1
10
52.361947459503
20
-3.21572359325231
30
0
41
1
10
52.4763048760789
20
-2.56260332706236
30
0
41
1
10
52.5334835843668
20
-2.235632936434
30
0
41
1
10
52.6478410009427
20
-1.58559564947834
30
0
41
1
10
52.7050197092308
20
-1.2625328788393
30
0
41
1
10
52.8193771258067
20
-0.624414815744814
30
0
41
1
10
52.8765558340946
20
-0.309361455870317
30
0
41
1
10
52.9909132506705
20
0.30935700109751
30
0
41
1
10
53.0480919589585
20
0.62441025945347
30
0
41
1
10
53.1624493755345
20
1.26252824623089
30
0
41
1
10
53.2196280838224
20
1.58559098771613
30
0
41
1
10
53.3339855003983
20
2.23562823765937
30
0
41
1
10
53.3911642086863
20
2.5625986204399
30
0
41
1
10
53.5055216252622
20
3.21571889494265
30
0
41
1
10
53.5627003335502
20
3.5418624356399
30
0
41
1
10
53.6770577501262
20
4.18812142433933
30
0
41
1
10
53.7342364584141
20
4.50822859246463
30
0
41
1
10
53.8485938749899
20
5.13695286335363
30
0
41
1
10
53.905772583278
20
5.44556040566778
30
0
41
1
10
54.0201299998539
20
6.0458395531594
30
0
41
1
10
54.0773087081419
20
6.33750125984128
30
0
41
1
10
54.1916661247178
20
6.89875476420158
30
0
41
1
10
54.2488448330058
20
7.16833742173696
30
0
41
1
10
54.3632022495817
20
7.68090067764973
30
0
41
1
10
54.4203809578697
20
7.92387394795858
30
0
41
1
10
54.5347383744456
20
8.37953909517677
30
0
41
1
10
54.5919170827336
20
8.59222626501619
30
0
41
1
10
54.7062744993095
20
8.98467605626308
30
0
41
1
10
54.7634532075975
20
9.1644370053188
30
0
41
1
10
54.8778106241734
20
9.48952426108463
30
0
41
1
10
54.9349893324613
20
9.63485189176254
30
0
41
1
10
55.0493467490372
20
9.89070012791527
30
0
41
1
10
55.1065254573252
20
10.0012246099893
30
0
41
1
10
55.2208828739011
20
10.1881518015555
30
0
41
1
10
55.2780615821891
20
10.2645602187621
30
0
41
1
10
55.392418998765
20
10.3848513992789
30
0
41
1
10
55.449597707053
20
10.4287408659582
30
0
41
1
10
55.5639551236289
20
10.486311670869
30
0
41
1
10
55.6211338319168
20
10.4999999124996
30
0
41
1
10
55.6783125402048
20
10.4999999999996
30
0
0
SPLINE
5
E3
100
AcDbEntity
8
1
62
256
6
ByLayer
370
13
48
1
60
0
100
AcDbSpline
70
4
71
3
72
10
73
6
40
0
40
0
40
0
40
0
40
0.5
40
0.5
40
1
40
1
40
1
40
1
41
1
10
55.0921390918051
20
10.5
30
0
41
1
10
55.1898346665384
20
10.5
30
0
41
1
10
55.2875302412717
20
10.4599281623205
30
0
41
1
10
55.4829213907383
20
10.2864242590268
30
0
41
1
10
55.5806169654716
20
10.1528936306174
30
0
41
1
10
55.6783125402049
20
9.96878387678271
30
0
0
SPLINE
5
E4
100
AcDbEntity
8
1
62
256
6
ByLayer
370
13
48
1
60
0
100
AcDbSpline
70
4
71
3
72
8
73
4
40
0
40
0
40
0
40
0
40
1
40
1
40
1
40
1
41
1
10
44.7000000000001
20
10.4881547885043
30
0
41
1
10
44.7304369353645
20
10.4961248050841
30
0
41
1
10
44.760873870729
20
10.5
30
0
41
1
10
44.7913108060935
20
10.5
30
0
0
SPLINE
5
E5
100
AcDbEntity
8
1
62
256
6
ByLayer
370
13
48
1
60
0
100
AcDbSpline
70
4
71
3
72
132
73
128
40
0
40
0
40
0
40
0
40
0.015625
40
0.015625
40
0.03125
40
0.03125
40
0.046875
40
0.046875
40
0.0625000000000001
40
0.0625000000000001
40
0.0781250000000001
40
0.0781250000000001
40
0.0937500000000001
40
0.0937500000000001
40
0.109375
40
0.109375
40
0.125
40
0.125
40
0.140625
40
0.140625
40
0.15625
40
0.15625
40
0.171875
40
0.171875
40
0.1875
40
0.1875
40
0.203125
40
0.203125
40
0.2109375
40
0.2109375
40
0.21875
40
0.21875
40
0.25
40
0.25
40
0.265625
40
0.265625
40
0.28125
40
0.28125
40
0.296875
40
0.296875
40
0.312500000000001
40
0.312500000000001
40
0.328125000000001
40
0.328125000000001
40
0.343750000000001
40
0.343750000000001
40
0.359375000000001
40
0.359375000000001
40
0.375000000000001
40
0.375000000000001
40
0.390625000000001
40
0.390625000000001
40
0.406250000000001
40
0.406250000000001
40
0.421875000000001
40
0.421875000000001
40
0.437500000000001
40
0.437500000000001
40
0.468750000000001
40
0.468750000000001
40
0.476562500000001
40
0.476562500000001
40
0.484375000000001
40
0.484375000000001
40
0.500000000000001
40
0.500000000000001
40
0.515625000000001
40
0.515625000000001
40
0.531250000000001
40
0.531250000000001
40
0.546875000000001
40
0.546875000000001
40
0.5625
40
0.5625
40
0.578125
40
0.578125
40
0.59375
40
0.59375
40
0.609375
40
0.609375
40
0.625
40
0.625
40
0.640625
40
0.640625
40
0.65625
40
0.65625
40
0.671875
40
0.671875
40
0.6875
40
0.6875
40
0.703125
40
0.703125
40
0.71875
40
0.71875
40
0.734375
40
0.734375
40
0.7421875
40
0.7421875
40
0.75
40
0.75
40
0.78125
40
0.78125
40
0.796875
40
0.796875
40
0.8125
40
0.8125
40
0.828125000000001
40
0.828125000000001
40
0.843750000000001
40
0.843750000000001
40
0.859375000000001
40
0.859375000000001
40
0.875000000000001
40
0.875000000000001
40
0.890625
40
0.890625
40
0.90625
40
0.90625
40
0.921875
40
0.921875
40
0.9375
40
0.9375
40
0.953125
40
0.953125
40
0.96875
40
0.96875
40
1
40
1
40
1
40
1
41
1
10
44.7000000000001
20
10.1262886461432
30
0
41
1
10
44.7546012986926
20
10.0407723363603
30
0
41
1
10
44.8092025973853
20
9.939765983782
30
0
41
1
10
44.9184051947705
20
9.70606563568657
30
0
41
1
10
44.9730064934631
20
9.57336828403547
30
0
41
1
10
45.0822090908484
20
9.27643104711663
30
0
41
1
10
45.1368103895409
20
9.11218965500197
30
0
41
1
10
45.2460129869262
20
8.75324639239756
30
0
41
1
10
45.3006142856188
20
8.55854523701936
30
0
41
1
10
45.4098168830041
20
8.14071456066421
30
0
41
1
10
45.4644181816967
20
7.91758808455319
30
0
41
1
10
45.573620779082
20
7.445832666455
30
0
41
1
10
45.6282220777746
20
7.19720889519482
30
0
41
1
10
45.7374246751598
20
6.67815423600453
30
0
41
1
10
45.7920259738524
20
6.40773014606083
30
0
41
1
10
45.9012285712376
20
5.8493579133326
30
0
41
1
10
45.9558298699302
20
5.56141748338729
30
0
41
1
10
46.0650324673155
20
4.97266275272997
30
0
41
1
10
46.1196337660082
20
4.67185627872306
30
0
41
1
10
46.2288363633934
20
4.06215051936633
30
0
41
1
10
46.283437662086
20
3.75325842179262
30
0
41
1
10
46.3926402594713
20
3.13206530010649
30
0
41
1
10
46.4472415581639
20
2.81977023442366
30
0
41
1
10
46.5564441555491
20
2.19615858140324
30
0
41
1
10
46.6110454542417
20
1.88484636273122
30
0
41
1
10
46.7202480516269
20
1.26713524566378
30
0
41
1
10
46.7748493503195
20
0.960739009258361
30
0
41
1
10
46.8567512983585
20
0.5073620810644
30
0
41
1
10
46.8840519477048
20
0.357268077230174
30
0
41
1
10
46.9386532463975
20
0.0595079235204707
30
0
41
1
10
46.9659538957438
20
-0.0876032325322456
30
0
41
1
10
47.1024571424753
20
-0.832766497079234
30
0
41
1
10
47.2116597398605
20
-1.44851658494173
30
0
41
1
10
47.3754636359384
20
-2.38125698373622
30
0
41
1
10
47.430064934631
20
-2.69361321374049
30
0
41
1
10
47.5392675320162
20
-3.31702981726525
30
0
41
1
10
47.5938688307088
20
-3.62808494724391
30
0
41
1
10
47.703071428094
20
-4.24433475772409
30
0
41
1
10
47.7576727267866
20
-4.54952276582694
30
0
41
1
10
47.8668753241719
20
-5.14927761072431
30
0
41
1
10
47.9214766228645
20
-5.44383683404786
30
0
41
1
10
48.0306792202498
20
-6.01759368177196
30
0
41
1
10
48.0852805189424
20
-6.29678344012973
30
0
41
1
10
48.1944831163277
20
-6.83531626679672
30
0
41
1
10
48.2490844150203
20
-7.09465201128401
30
0
41
1
10
48.3582870124055
20
-7.58947805337399
30
0
41
1
10
48.4128883110981
20
-7.82496234041054
30
0
41
1
10
48.5220909084833
20
-8.26877598248578
30
0
41
1
10
48.576692207176
20
-8.47710125239274
30
0
41
1
10
48.6858948045613
20
-8.86413026174938
30
0
41
1
10
48.7404961032538
20
-9.04283218968101
30
0
41
1
10
48.8496987006391
20
-9.36908032516897
30
0
41
1
10
48.9042999993317
20
-9.51662703083215
30
0
41
1
10
49.013502596717
20
-9.77998248153006
30
0
41
1
10
49.0681038954095
20
-9.8957937763756
30
0
41
1
10
49.1773064927948
20
-10.0960011364372
30
0
41
1
10
49.2319077914874
20
-10.1804013254688
30
0
41
1
10
49.3957116875653
20
-10.3881674037327
30
0
41
1
10
49.5049142849506
20
-10.465863709333
30
0
41
1
10
49.6414175316821
20
-10.4971443197801
30
0
41
1
10
49.6687181810284
20
-10.500127266365
30
0
41
1
10
49.723319479721
20
-10.4998644277769
30
0
41
1
10
49.7506201290673
20
-10.4966120331115
30
0
41
1
10
49.8325220771062
20
-10.4770153826058
30
0
41
1
10
49.8871233757989
20
-10.4508180023116
30
0
41
1
10
49.9963259731841
20
-10.3698887383774
30
0
41
1
10
50.0509272718767
20
-10.3151513692116
30
0
41
1
10
50.160129869262
20
-10.1753660669176
30
0
41
1
10
50.2147311679545
20
-10.0903130425718
30
0
41
1
10
50.3239337653398
20
-9.88878443866216
30
0
41
1
10
50.3785350640324
20
-9.77230476254812
30
0
41
1
10
50.4877376614176
20
-9.50761513551683
30
0
41
1
10
50.5423389601103
20
-9.35940267369364
30
0
41
1
10
50.6515415574955
20
-9.03184538846662
30
0
41
1
10
50.7061428561881
20
-8.85250011389701
30
0
41
1
10
50.8153454535734
20
-8.46422686317726
30
0
41
1
10
50.869946752266
20
-8.25530074793372
30
0
41
1
10
50.9791493496513
20
-7.81034680105518
30
0
41
1
10
51.0337506483439
20
-7.57432309977043
30
0
41
1
10
51.1429532457291
20
-7.07849594832692
30
0
41
1
10
51.1975545444217
20
-6.81869854349242
30
0
41
1
10
51.3067571418069
20
-6.2793326246929
30
0
41
1
10
51.3613584404995
20
-5.99977145425396
30
0
41
1
10
51.4705610378848
20
-5.42536986384511
30
0
41
1
10
51.5251623365774
20
-5.13053731262997
30
0
41
1
10
51.6343649339627
20
-4.53033674884171
30
0
41
1
10
51.6889662326553
20
-4.22497633643712
30
0
41
1
10
51.7981688300405
20
-3.60848067750166
30
0
41
1
10
51.8527701287331
20
-3.29735207747444
30
0
41
1
10
51.9619727261183
20
-2.67388128832053
30
0
41
1
10
52.016574024811
20
-2.36154430912538
30
0
41
1
10
52.1257766221962
20
-1.73983911050132
30
0
41
1
10
52.1803779208889
20
-1.4304744247089
30
0
41
1
10
52.2895805182741
20
-0.818385406494883
30
0
41
1
10
52.3441818169667
20
-0.515662924066135
30
0
41
1
10
52.4260837650057
20
-0.0688696562442317
30
0
41
1
10
52.4533844143519
20
0.0782347623673161
30
0
41
1
10
52.5079857130446
20
0.376198658527841
30
0
41
1
10
52.5352863623909
20
0.526387242313916
30
0
41
1
10
52.6717896091224
20
1.28244782289164
30
0
41
1
10
52.7809922065077
20
1.90402550215325
30
0
41
1
10
52.9447961025855
20
2.83949997235658
30
0
41
1
10
52.9993974012782
20
3.15176991387907
30
0
41
1
10
53.1085999986634
20
3.77281657985395
30
0
41
1
10
53.163201297356
20
4.08158731538813
30
0
41
1
10
53.2724038947413
20
4.6909498887627
30
0
41
1
10
53.3270051934338
20
4.99153451854949
30
0
41
1
10
53.436207790819
20
5.57974540758411
30
0
41
1
10
53.4908090895117
20
5.86736383436826
30
0
41
1
10
53.6000116868969
20
6.42499718546549
30
0
41
1
10
53.6546129855896
20
6.695004408024
30
0
41
1
10
53.7638155829748
20
7.21314063092143
30
0
41
1
10
53.8184168816674
20
7.4612628607683
30
0
41
1
10
53.9276194790527
20
7.93194498095267
30
0
41
1
10
53.9822207777453
20
8.15449974114952
30
0
41
1
10
54.0914233751305
20
8.57113453289614
30
0
41
1
10
54.1460246738231
20
8.76521156767981
30
0
41
1
10
54.2552272712083
20
9.12287382076482
30
0
41
1
10
54.309828569901
20
9.28645837293678
30
0
41
1
10
54.4190311672863
20
9.58206928580188
30
0
41
1
10
54.4736324659789
20
9.71409719694043
30
0
41
1
10
54.5828350633641
20
9.94646517154706
30
0
41
1
10
54.6374363620567
20
10.0468086246629
30
0
41
1
10
54.7466389594419
20
10.2165389589642
30
0
41
1
10
54.8012402581346
20
10.2859305213046
30
0
41
1
10
54.9650441542124
20
10.4498736946815
30
0
41
1
10
55.0742467515977
20
10.5
30
0
41
1
10
55.1834493489829
20
10.5
30
0
0
SPLINE
5
E6
100
AcDbEntity
8
1
62
256
6
ByLayer
370
13
48
1
60
0
100
AcDbSpline
70
4
71
3
72
14
73
10
40
0
40
0
40
0
40
0
40
0.25
40
0.25
40
0.5
40
0.5
40
0.75
40
0.75
40
1
40
1
40
1
40
1
41
1
10
54.5972753516675
20
10.5
30
0
41
1
10
54.6873617840456
20
10.5
30
0
41
1
10
54.7774482164237
20
10.4659502614179
30
0
41
1
10
54.9576210811799
20
10.319255711236
30
0
41
1
10
55.0477075135581
20
10.2065446343536
30
0
41
1
10
55.2278803783144
20
9.89579480198751
30
0
41
1
10
55.3179668106925
20
9.69770338485034
30
0
41
1
10
55.4981396754487
20
9.21520501881116
30
0
41
1
10
55.5882261078268
20
8.93077824468878
30
0
41
1
10
55.6783125402049
20
8.6061519169497
30
0
0
SPLINE
5
E7
100
AcDbEntity
8
1
62
256
6
ByLayer
370
13
48
1
60
0
100
AcDbSpline
70
4
71
3
72
104
73
100
40
0
40
0
40
0
40
0
40
0.0156250000000003
40
0.0156250000000003
40
0.0312500000000006
40
0.0312500000000006
40
0.0468750000000009
40
0.0468750000000009
40
0.0625000000000012
40
0.0625000000000012
40
0.0937500000000021
40
0.0937500000000021
40
0.125000000000003
40
0.125000000000003
40
0.156250000000004
40
0.156250000000004
40
0.171875000000004
40
0.171875000000004
40
0.179687500000004
40
0.179687500000004
40
0.187500000000005
40
0.187500000000005
40
0.218750000000005
40
0.218750000000005
40
0.250000000000006
40
0.250000000000006
40
0.281250000000006
40
0.281250000000006
40
0.296875000000007
40
0.296875000000007
40
0.312500000000007
40
0.312500000000007
40
0.328125000000007
40
0.328125000000007
40
0.343750000000008
40
0.343750000000008
40
0.375000000000008
40
0.375000000000008
40
0.406250000000009
40
0.406250000000009
40
0.43750000000001
40
0.43750000000001
40
0.44531250000001
40
0.44531250000001
40
0.44921875000001
40
0.44921875000001
40
0.45312500000001
40
0.45312500000001
40
0.46875000000001
40
0.46875000000001
40
0.50000000000001
40
0.50000000000001
40
0.53125000000001
40
0.53125000000001
40
0.56250000000001
40
0.56250000000001
40
0.57812500000001
40
0.57812500000001
40
0.59375000000001
40
0.59375000000001
40
0.60937500000001
40
0.60937500000001
40
0.62500000000001
40
0.62500000000001
40
0.656250000000009
40
0.656250000000009
40
0.687500000000009
40
0.687500000000009
40
0.718750000000009
40
0.718750000000009
40
0.722656250000009
40
0.722656250000009
40
0.726562500000009
40
0.726562500000009
40
0.734375000000009
40
0.734375000000009
40
0.750000000000008
40
0.750000000000008
40
0.781250000000007
40
0.781250000000007
40
0.812500000000006
40
0.812500000000006
40
0.828125000000006
40
0.828125000000006
40
0.843750000000005
40
0.843750000000005
40
0.859375000000005
40
0.859375000000005
40
0.875000000000004
40
0.875000000000004
40
0.890625000000004
40
0.890625000000004
40
0.906250000000003
40
0.906250000000003
40
0.937500000000002
40
0.937500000000002
40
0.968750000000001
40
0.968750000000001
40
1
40
1
40
1
40
1
41
1
10
44.7000000000001
20
8.92135107622406
30
0
41
1
10
44.7520238833794
20
8.74974156840932
30
0
41
1
10
44.8040477667588
20
8.56432468629941
30
0
41
1
10
44.9080955335176
20
8.16763072723623
30
0
41
1
10
44.960119416897
20
7.95635599504536
30
0
41
1
10
45.0641671836559
20
7.5104406340256
30
0
41
1
10
45.1161910670353
20
7.27580395543629
30
0
41
1
10
45.2202388337941
20
6.78630236497554
30
0
41
1
10
45.2722627171735
20
6.53144266666621
30
0
41
1
10
45.4283343673117
20
5.74198430535506
30
0
41
1
10
45.5323821340705
20
5.18244947184539
30
0
41
1
10
45.7404776675881
20
4.02930869628554
30
0
41
1
10
45.8445254343469
20
3.43588718606071
30
0
41
1
10
46.0526209678646
20
2.24727631521188
30
0
41
1
10
46.1566687346233
20
1.65221098441418
30
0
41
1
10
46.3127403847615
20
0.778556986593031
30
0
41
1
10
46.3647642681409
20
0.490443599588559
30
0
41
1
10
46.44280009321
20
0.0649120349386862
30
0
41
1
10
46.4688120348997
20
-0.0752739671736435
30
0
41
1
10
46.5208359182791
20
-0.359069287315975
30
0
41
1
10
46.5468478599689
20
-0.502065754947949
30
0
41
1
10
46.6769075684173
20
-1.22175409193019
30
0
41
1
10
46.7809553351762
20
-1.81285756887689
30
0
41
1
10
46.9890508686937
20
-3.00072411491865
30
0
41
1
10
47.0930986354525
20
-3.59738229765389
30
0
41
1
10
47.3011941689701
20
-4.76511047444146
30
0
41
1
10
47.405241935729
20
-5.33600681870621
30
0
41
1
10
47.5613135858672
20
-6.14830318993506
30
0
41
1
10
47.6133374692466
20
-6.41173010880195
30
0
41
1
10
47.7173852360054
20
-6.92009046188889
30
0
41
1
10
47.7694091193848
20
-7.16501823925336
30
0
41
1
10
47.8734568861436
20
-7.63297491418055
30
0
41
1
10
47.925480769523
20
-7.85599919151196
30
0
41
1
10
48.0295285362818
20
-8.27732298876879
30
0
41
1
10
48.0815524196612
20
-8.47561935012556
30
0
41
1
10
48.2376240697994
20
-9.03022904845477
30
0
41
1
10
48.3416718365582
20
-9.34586603089247
30
0
41
1
10
48.5497673700758
20
-9.86120389748683
30
0
41
1
10
48.6538151368347
20
-10.0609621489292
30
0
41
1
10
48.8619106703522
20
-10.3487831269537
30
0
41
1
10
48.9659584371111
20
-10.4369684017096
30
0
41
1
10
49.0960181455596
20
-10.4857831193559
30
0
41
1
10
49.1220300872492
20
-10.4924919837821
30
0
41
1
10
49.1610479997838
20
-10.4981726417411
30
0
41
1
10
49.1740539706286
20
-10.4993358968795
30
0
41
1
10
49.2000659123183
20
-10.5002364338291
30
0
41
1
10
49.2130718831633
20
-10.4999789450345
30
0
41
1
10
49.2781017373874
20
-10.495106766409
30
0
41
1
10
49.3301256207668
20
-10.4796877928829
30
0
41
1
10
49.486197270905
20
-10.3957350218848
30
0
41
1
10
49.5902450376639
20
-10.289247461889
30
0
41
1
10
49.7983405711815
20
-9.96332897068794
30
0
41
1
10
49.9023883379403
20
-9.74378286640751
30
0
41
1
10
50.1104838714579
20
-9.18927338812682
30
0
41
1
10
50.2145316382167
20
-8.854268525658
30
0
41
1
10
50.3706032883549
20
-8.27253302672381
30
0
41
1
10
50.4226271717343
20
-8.06551616806598
30
0
41
1
10
50.5266749384931
20
-7.62764187777034
30
0
41
1
10
50.5786988218725
20
-7.39678814129758
30
0
41
1
10
50.6827465886314
20
-6.91427667140323
30
0
41
1
10
50.7347704720107
20
-6.66262396753234
30
0
41
1
10
50.8388182387695
20
-6.14208186594672
30
0
41
1
10
50.8908421221489
20
-5.87319835839929
30
0
41
1
10
51.0469137722872
20
-5.04659118011898
30
0
41
1
10
51.1509615390459
20
-4.46893058333512
30
0
41
1
10
51.3590570725635
20
-3.29330629539177
30
0
41
1
10
51.4631048393223
20
-2.69550691503812
30
0
41
1
10
51.6712003728399
20
-1.5101898980912
30
0
41
1
10
51.7752481395988
20
-0.922763407540117
30
0
41
1
10
51.8923018772024
20
-0.281161083415498
30
0
41
1
10
51.9053078480473
20
-0.210134330159889
30
0
41
1
10
51.931319789737
20
-0.0686432824368239
30
0
41
1
10
51.9443257605818
20
0.0016258146477526
30
0
41
1
10
51.9833436731163
20
0.213322120070416
30
0
41
1
10
52.009355614806
20
0.35560195689402
30
0
41
1
10
52.0873914398751
20
0.785431923067762
30
0
41
1
10
52.1394153232546
20
1.07598794862122
30
0
41
1
10
52.2954869733928
20
1.95544463127536
30
0
41
1
10
52.3995347401516
20
2.55232894303816
30
0
41
1
10
52.6076302736692
20
3.73935324504526
30
0
41
1
10
52.7116780404281
20
4.32935642286949
30
0
41
1
10
52.8677496905663
20
5.18480238696299
30
0
41
1
10
52.9197735739456
20
5.46500211253081
30
0
41
1
10
53.0238213407044
20
6.01142005003317
30
0
41
1
10
53.0758452240838
20
6.27763208346457
30
0
41
1
10
53.1798929908426
20
6.79219118550517
30
0
41
1
10
53.2319168742221
20
7.0405324724297
30
0
41
1
10
53.3359646409808
20
7.51586050184014
30
0
41
1
10
53.3879885243603
20
7.74284241278232
30
0
41
1
10
53.4920362911191
20
8.17251728531056
30
0
41
1
10
53.5440601744984
20
8.37520681595157
30
0
41
1
10
53.6481079412573
20
8.75404325743565
30
0
41
1
10
53.7001318246366
20
8.93018841463626
30
0
41
1
10
53.8562034747749
20
9.41656854067529
30
0
41
1
10
53.9602512415337
20
9.68436741634793
30
0
41
1
10
54.1683467750513
20
10.1044412823302
30
0
41
1
10
54.2723945418101
20
10.2568069125059
30
0
41
1
10
54.4804900753277
20
10.454519339107
30
0
41
1
10
54.5845378420865
20
10.5
30
0
41
1
10
54.6885856088453
20
10.5
30
0
0
SPLINE
5
E8
100
AcDbEntity
8
1
62
256
6
ByLayer
370
13
48
1
60
0
100
AcDbSpline
70
4
71
3
72
22
73
18
40
0
40
0
40
0
40
0
40
0.125
40
0.125
40
0.25
40
0.25
40
0.375
40
0.375
40
0.5
40
0.5
40
0.625
40
0.625
40
0.75
40
0.75
40
0.875
40
0.875
40
1
40
1
40
1
40
1
41
1
10
54.1024116115299
20
10.5
30
0
41
1
10
54.1680741502247
20
10.5
30
0
41
1
10
54.2337366889195
20
10.4819408624113
30
0
41
1
10
54.365061766309
20
10.4054860924122
30
0
41
1
10
54.4307243050039
20
10.3470766620598
30
0
41
1
10
54.5620493823934
20
10.1866226938071
30
0
41
1
10
54.6277119210882
20
10.0845652088132
30
0
41
1
10
54.7590369984778
20
9.83487049166976
30
0
41
1
10
54.8246995371726
20
9.68722331260796
30
0
41
1
10
54.9560246145622
20
9.34611053835582
30
0
41
1
10
55.021687153257
20
9.15264009913153
30
0
41
1
10
55.1530122306466
20
8.72157785503856
30
0
41
1
10
55.2186747693413
20
8.48398780719467
30
0
41
1
10
55.3499998467309
20
7.96837038669318
30
0
41
1
10
55.4156623854257
20
7.69035176272462
30
0
41
1
10
55.5469874628153
20
7.09939089087615
30
0
41
1
10
55.6126500015101
20
6.78646342716323
30
0
41
1
10
55.6783125402049
20
6.45956681774851
30
0
0
SPLINE
5
E9
100
AcDbEntity
8
1
62
256
6
ByLayer
370
13
48
1
60
0
100
AcDbSpline
70
4
71
3
72
80
73
76
40
0
40
0
40
0
40
0
40
0.0312499999999997
40
0.0312499999999997
40
0.0624999999999994
40
0.0624999999999994
40
0.0937499999999991
40
0.0937499999999991
40
0.124999999999999
40
0.124999999999999
40
0.132812499999999
40
0.132812499999999
40
0.140624999999999
40
0.140624999999999
40
0.156249999999999
40
0.156249999999999
40
0.187499999999999
40
0.187499999999999
40
0.218749999999999
40
0.218749999999999
40
0.249999999999998
40
0.249999999999998
40
0.281249999999998
40
0.281249999999998
40
0.312499999999998
40
0.312499999999998
40
0.343749999999998
40
0.343749999999998
40
0.374999999999998
40
0.374999999999998
40
0.406249999999998
40
0.406249999999998
40
0.421874999999998
40
0.421874999999998
40
0.437499999999998
40
0.437499999999998
40
0.468749999999998
40
0.468749999999998
40
0.499999999999998
40
0.499999999999998
40
0.531249999999998
40
0.531249999999998
40
0.562499999999998
40
0.562499999999998
40
0.593749999999997
40
0.593749999999997
40
0.624999999999997
40
0.624999999999997
40
0.656249999999997
40
0.656249999999997
40
0.687499999999997
40
0.687499999999997
40
0.703124999999997
40
0.703124999999997
40
0.710937499999997
40
0.710937499999997
40
0.718749999999997
40
0.718749999999997
40
0.749999999999998
40
0.749999999999998
40
0.781249999999998
40
0.781249999999998
40
0.812499999999998
40
0.812499999999998
40
0.843749999999999
40
0.843749999999999
40
0.874999999999999
40
0.874999999999999
40
0.906249999999999
40
0.906249999999999
40
0.937499999999999
40
0.937499999999999
40
0.96875
40
0.96875
40
1
40
1
40
1
40
1
41
1
10
44.7000000000001
20
6.90480761720019
30
0
41
1
10
44.7988929361324
20
6.43310212749671
30
0
41
1
10
44.8977858722647
20
5.9258097952976
30
0
41
1
10
45.0955717445295
20
4.86648131867548
30
0
41
1
10
45.1944646806619
20
4.31459672384273
30
0
41
1
10
45.3922505529266
20
3.19460128284712
30
0
41
1
10
45.491143489059
20
2.62661468789372
30
0
41
1
10
45.6889293613238
20
1.50044811374727
30
0
41
1
10
45.7878222974562
20
0.94233744815017
30
0
41
1
10
45.9114384676216
20
0.263679575363284
30
0
41
1
10
45.9361617016547
20
0.128931841039503
30
0
41
1
10
45.9856081697209
20
-0.138644122051858
30
0
41
1
10
46.010331403754
20
-0.273490477736175
30
0
41
1
10
46.0845011058533
20
-0.680820357602926
30
0
41
1
10
46.1339475739194
20
-0.956107414918904
30
0
41
1
10
46.2822869781179
20
-1.78962967223234
30
0
41
1
10
46.3811799142503
20
-2.35569310809018
30
0
41
1
10
46.5789657865151
20
-3.48518713354827
30
0
41
1
10
46.6778587226475
20
-4.04851883226266
30
0
41
1
10
46.8756445949123
20
-5.14487107727373
30
0
41
1
10
46.9745375310446
20
-5.677748516886
30
0
41
1
10
47.1723234033094
20
-6.68502606149073
30
0
41
1
10
47.2712163394417
20
-7.15927821720706
30
0
41
1
10
47.4690022117065
20
-8.0251890851232
30
0
41
1
10
47.5678951478389
20
-8.41674352920521
30
0
41
1
10
47.7656810201036
20
-9.10116015535743
30
0
41
1
10
47.8645739562359
20
-9.39399404227387
30
0
41
1
10
48.0623598285006
20
-9.87497428436848
30
0
41
1
10
48.161252764633
20
-10.0631680713922
30
0
41
1
10
48.3590386368978
20
-10.3386560548985
30
0
41
1
10
48.4579315730302
20
-10.4260452275278
30
0
41
1
10
48.6062709772287
20
-10.4899352972147
30
0
41
1
10
48.6557174452948
20
-10.5000819937801
30
0
41
1
10
48.7546103814273
20
-10.4999170080994
30
0
41
1
10
48.8040568494935
20
-10.48959752246
30
0
41
1
10
48.952396253692
20
-10.4251680791889
30
0
41
1
10
49.0512891898244
20
-10.3373910374043
30
0
41
1
10
49.2490750620891
20
-10.0610947244479
30
0
41
1
10
49.3479679982215
20
-9.87248059334559
30
0
41
1
10
49.5457538704863
20
-9.3906626828221
30
0
41
1
10
49.6446468066187
20
-9.09741173366044
30
0
41
1
10
49.8424326788834
20
-8.41220555958682
30
0
41
1
10
49.9413256150157
20
-8.02027895899349
30
0
41
1
10
50.1391114872805
20
-7.15370660030069
30
0
41
1
10
50.2380044234129
20
-6.67916537024811
30
0
41
1
10
50.4357902956776
20
-5.67141805230148
30
0
41
1
10
50.53468323181
20
-5.13835999383207
30
0
41
1
10
50.7324691040747
20
-4.04176229057401
30
0
41
1
10
50.8313620402071
20
-3.47836563945117
30
0
41
1
10
51.0291479124718
20
-2.34884729111789
30
0
41
1
10
51.1280408486042
20
-1.78282425873874
30
0
41
1
10
51.2763802528028
20
-0.949425035639365
30
0
41
1
10
51.325826720869
20
-0.67418932339362
30
0
41
1
10
51.3999964229682
20
-0.2669494951557
30
0
41
1
10
51.4247196570013
20
-0.132152305576426
30
0
41
1
10
51.4741661250675
20
0.135389526016894
30
0
41
1
10
51.4988893591006
20
0.270219796083296
30
0
41
1
10
51.6225055292661
20
0.949027929944094
30
0
41
1
10
51.7213984653985
20
1.50722393172219
30
0
41
1
10
51.9191843376631
20
2.63346622888366
30
0
41
1
10
52.0180772737955
20
3.20144296974121
30
0
41
1
10
52.2158631460603
20
4.32130646737122
30
0
41
1
10
52.3147560821927
20
4.87306878957554
30
0
41
1
10
52.5125419544573
20
5.93203829569578
30
0
41
1
10
52.6114348905897
20
6.43909390793166
30
0
41
1
10
52.8092207628545
20
7.38193338076201
30
0
41
1
10
52.9081136989869
20
7.81758540695688
30
0
41
1
10
53.1058995712516
20
8.59709141070189
30
0
41
1
10
53.204792507384
20
8.94087679613099
30
0
41
1
10
53.4025783796487
20
9.52547147711834
30
0
41
1
10
53.5014713157812
20
9.76629231339567
30
0
41
1
10
53.6992571880459
20
10.1440166561034
30
0
41
1
10
53.7981501241783
20
10.2809958526125
30
0
41
1
10
53.995935996443
20
10.4589352286704
30
0
41
1
10
54.0948289325754
20
10.5
30
0
41
1
10
54.1937218687077
20
10.5
30
0
0
SPLINE
5
EA
100
AcDbEntity
8
1
62
256
6
ByLayer
370
13
48
1
60
0
100
AcDbSpline
70
4
71
3
72
22
73
18
40
0
40
0
40
0
40
0
40
0.125
40
0.125
40
0.25
40
0.25
40
0.375
40
0.375
40
0.5
40
0.5
40
0.625
40
0.625
40
0.75
40
0.75
40
0.875
40
0.875
40
1
40
1
40
1
40
1
41
1
10
53.6075478713923
20
10.5
30
0
41
1
10
53.6938297325929
20
10.5
30
0
41
1
10
53.7801115937934
20
10.4687752443743
30
0
41
1
10
53.9526753161945
20
10.3345980494212
30
0
41
1
10
54.0389571773949
20
10.2315920256711
30
0
41
1
10
54.211520899796
20
9.94767501413014
30
0
41
1
10
54.2978027609965
20
9.766719971931
30
0
41
1
10
54.4703664833975
20
9.32544736934921
30
0
41
1
10
54.5566483445981
20
9.06510969612734
30
0
41
1
10
54.7292120669991
20
8.46935136454596
30
0
41
1
10
54.8154939281997
20
8.13394467175036
30
0
41
1
10
54.9880576506007
20
7.39818897242716
30
0
41
1
10
55.0743395118012
20
6.99788827790883
30
0
41
1
10
55.2469032342022
20
6.1474017907737
30
0
41
1
10
55.3331850954028
20
5.69728753919642
30
0
41
1
10
55.5057488178038
20
4.76529686107173
30
0
41
1
10
55.5920306790043
20
4.28349690504339
30
0
41
1
10
55.6783125402048
20
3.79526291384607
30
0
0
SPLINE
5
EB
100
AcDbEntity
8
1
62
256
6
ByLayer
370
13
48
1
60
0
100
AcDbSpline
70
4
71
3
72
85
73
81
40
0
40
0
40
0
40
0
40
0.0312500000000004
40
0.0312500000000004
40
0.0625000000000008
40
0.0625000000000008
40
0.0781250000000009
40
0.0781250000000009
40
0.082031250000001
40
0.082031250000001
40
0.085937500000001
40
0.085937500000001
40
0.0937500000000011
40
0.0937500000000011
40
0.125000000000001
40
0.125000000000001
40
0.156250000000001
40
0.156250000000001
40
0.187500000000001
40
0.187500000000001
40
0.218750000000001
40
0.218750000000001
40
0.250000000000002
40
0.250000000000002
40
0.281250000000002
40
0.281250000000002
40
0.312500000000002
40
0.312500000000002
40
0.343750000000002
40
0.343750000000002
40
0.375000000000002
40
0.375000000000002
40
0.382812500000002
40
0.386718750000002
40
0.386718750000002
40
0.390625000000002
40
0.390625000000002
40
0.406250000000002
40
0.406250000000002
40
0.437500000000002
40
0.437500000000002
40
0.468750000000001
40
0.468750000000001
40
0.500000000000001
40
0.500000000000001
40
0.531250000000001
40
0.531250000000001
40
0.562500000000001
40
0.562500000000001
40
0.593750000000001
40
0.593750000000001
40
0.625000000000001
40
0.625000000000001
40
0.65625
40
0.65625
40
0.6875
40
0.6875
40
0.6953125
40
0.6953125
40
0.703125
40
0.703125
40
0.71875
40
0.71875
40
0.75
40
0.75
40
0.78125
40
0.78125
40
0.8125
40
0.8125
40
0.84375
40
0.84375
40
0.875
40
0.875
40
0.90625
40
0.90625
40
0.9375
40
0.9375
40
0.96875
40
0.96875
40
1
40
1
40
1
40
1
41
1
10
44.7000000000001
20
4.30913443231751
30
0
41
1
10
44.793738105506
20
3.78490867003106
30
0
41
1
10
44.8874762110119
20
3.24928793202969
30
0
41
1
10
45.0749524220238
20
2.17832248570622
30
0
41
1
10
45.1686905275297
20
1.64304818404648
30
0
41
1
10
45.3092976857886
20
0.855058465220282
30
0
41
1
10
45.3561667385416
20
0.594847126307741
30
0
41
1
10
45.4147530544828
20
0.273879417481112
30
0
41
1
10
45.4264703176712
20
0.209899887446284
30
0
41
1
10
45.4499048440476
20
0.0823963708817814
30
0
41
1
10
45.4616221072358
20
0.0190167630694305
30
0
41
1
10
45.4967738968006
20
-0.171499545841783
30
0
41
1
10
45.520208423177
20
-0.299450399334376
30
0
41
1
10
45.6373810550594
20
-0.943355037857401
30
0
41
1
10
45.7311191605653
20
-1.47196033180222
30
0
41
1
10
45.9185953715772
20
-2.53878285769537
30
0
41
1
10
46.0123334770832
20
-3.07694862842524
30
0
41
1
10
46.1998096880951
20
-4.1410437083274
30
0
41
1
10
46.293547793601
20
-4.6668809427922
30
0
41
1
10
46.4810240046129
20
-5.6821646242195
30
0
41
1
10
46.5747621101188
20
-6.17149588324406
30
0
41
1
10
46.7622383211307
20
-7.09050155293664
30
0
41
1
10
46.8559764266367
20
-7.52006898010035
30
0
41
1
10
47.0434526376485
20
-8.30063148589846
30
0
41
1
10
47.1371907431544
20
-8.65155983022072
30
0
41
1
10
47.3246669541663
20
-9.26300141121746
30
0
41
1
10
47.4184050596722
20
-9.52350539873828
30
0
41
1
10
47.6058812706842
20
-9.95051471394834
30
0
41
1
10
47.6996193761901
20
-10.117063492017
30
0
41
1
10
47.887095587202
20
-10.3602862869117
30
0
41
1
10
47.9808336927079
20
-10.4370350670687
30
0
41
1
10
48.0980063245903
20
-10.4830277099713
30
0
41
1
10
48.133158114155
20
-10.493096075996
30
0
41
1
10
48.1683099037198
20
-10.4977862898567
30
0
41
1
10
48.1917444300962
20
-10.499743294746
30
0
41
1
10
48.2034616932845
20
-10.500137363053
30
0
41
1
10
48.2620480092257
20
-10.4992412251971
30
0
41
1
10
48.3089170619786
20
-10.489298847856
30
0
41
1
10
48.4495242202375
20
-10.4294464256792
30
0
41
1
10
48.5432623257435
20
-10.3493560722378
30
0
41
1
10
48.7307385367554
20
-10.0991637769159
30
0
41
1
10
48.8244766422613
20
-9.92898780014099
30
0
41
1
10
49.0119528532732
20
-9.49470733838672
30
0
41
1
10
49.1056909587791
20
-9.23056112642257
30
0
41
1
10
49.293167169791
20
-8.61213921533493
30
0
41
1
10
49.3869052752969
20
-8.25787505568397
30
0
41
1
10
49.5743814863088
20
-7.4712547843273
30
0
41
1
10
49.6681195918148
20
-7.03896743282078
30
0
41
1
10
49.8555958028267
20
-6.11536623383586
30
0
41
1
10
49.9493339083326
20
-5.62416033810359
30
0
41
1
10
50.1368101193445
20
-4.60607520141826
30
0
41
1
10
50.2305482248504
20
-4.07931077602228
30
0
41
1
10
50.4180244358623
20
-3.01427627583658
30
0
41
1
10
50.5117625413682
20
-2.47609690666763
30
0
41
1
10
50.6992387523801
20
-1.41002088226571
30
0
41
1
10
50.792976857886
20
-0.882173997223617
30
0
41
1
10
50.9101494897684
20
-0.239575264774175
30
0
41
1
10
50.9335840161449
20
-0.112042969090709
30
0
41
1
10
50.9804530688979
20
0.141684862042069
30
0
41
1
10
51.0038875952744
20
0.269496877090234
30
0
41
1
10
51.0741911744038
20
0.655449970691194
30
0
41
1
10
51.1210602271569
20
0.916118391890024
30
0
41
1
10
51.2616673854158
20
1.70522829807848
30
0
41
1
10
51.3554054909217
20
2.24091267937933
30
0
41
1
10
51.5428817019335
20
3.31184926887371
30
0
41
1
10
51.6366198074395
20
3.84702944661464
30
0
41
1
10
51.8240960184514
20
4.89365504849926
30
0
41
1
10
51.9178341239573
20
5.4049940505538
30
0
41
1
10
52.1053103349692
20
6.37977203141946
30
0
41
1
10
52.1990484404751
20
6.84309542175995
30
0
41
1
10
52.386524651487
20
7.70025655660706
30
0
41
1
10
52.4802627569929
20
8.09400325754308
30
0
41
1
10
52.6677389680048
20
8.79623605953029
30
0
41
1
10
52.7614770735107
20
9.10468223775095
30
0
41
1
10
52.9489532845226
20
9.62840232550113
30
0
41
1
10
53.0426913900285
20
9.84369418403088
30
0
41
1
10
53.2301676010404
20
10.1813912130322
30
0
41
1
10
53.3239057065464
20
10.3038581110933
30
0
41
1
10
53.5113819175582
20
10.4631222408392
30
0
41
1
10
53.6051200230642
20
10.5
30
0
41
1
10
53.6988581285701
20
10.5
30
0
0
SPLINE
5
EC
100
AcDbEntity
8
1
62
256
6
ByLayer
370
13
48
1
60
0
100
AcDbSpline
70
4
71
3
72
32
73
28
40
0
40
0
40
0
40
0
40
0.125
40
0.125
40
0.25
40
0.25
40
0.3125
40
0.3125
40
0.375
40
0.375
40
0.4375
40
0.4375
40
0.5
40
0.5
40
0.5625
40
0.5625
40
0.625
40
0.625
40
0.6875
40
0.6875
40
0.75
40
0.75
40
0.8125
40
0.8125
40
0.875
40
0.875
40
1
40
1
40
1
40
1
41
1
10
53.1126841312547
20
10.5
30
0
41
1
10
53.219585314961
20
10.5
30
0
41
1
10
53.3264864986674
20
10.4519762272764
30
0
41
1
10
53.5402888660798
20
10.2428437469151
30
0
41
1
10
53.647190049786
20
10.0815824765222
30
0
41
1
10
53.8075418253454
20
9.74819901867573
30
0
41
1
10
53.8609924171985
20
9.62190386840601
30
0
41
1
10
53.9678936009048
20
9.33902327131173
30
0
41
1
10
54.0213441927579
20
9.1824362362855
30
0
41
1
10
54.1282453764642
20
8.8398645655694
30
0
41
1
10
54.1816959683173
20
8.65388026526438
30
0
41
1
10
54.2885971520236
20
8.25428138907651
30
0
41
1
10
54.3420477438767
20
8.04066920267556
30
0
41
1
10
54.4489489275829
20
7.58841590541289
30
0
41
1
10
54.502399519436
20
7.34977910829767
30
0
41
1
10
54.6093007031423
20
6.85081065010766
30
0
41
1
10
54.6627512949955
20
6.59048484150986
30
0
41
1
10
54.7696524787017
20
6.05205090185044
30
0
41
1
10
54.8231030705549
20
5.77394957844828
30
0
41
1
10
54.9300042542611
20
5.20426330043108
30
0
41
1
10
54.9834548461142
20
4.91268542501678
30
0
41
1
10
55.0903560298204
20
4.32051986769776
30
0
41
1
10
55.1438066216736
20
4.01993886641148
30
0
41
1
10
55.2507078053798
20
3.4142070648941
30
0
41
1
10
55.304158397233
20
3.10906199161766
30
0
41
1
10
55.4645101727924
20
2.19309915671724
30
0
41
1
10
55.5714113564986
20
1.58200960451006
30
0
41
1
10
55.6783125402048
20
0.984861803016429
30
0
0
SPLINE
5
ED
100
AcDbEntity
8
1
62
256
6
ByLayer
370
13
48
1
60
0
100
AcDbSpline
70
4
71
3
72
85
73
81
40
0
40
0
40
0
40
0
40
0.0312500000000003
40
0.0312500000000003
40
0.0390625000000003
40
0.0390625000000003
40
0.0468750000000003
40
0.0468750000000003
40
0.0625000000000005
40
0.0625000000000005
40
0.0937500000000008
40
0.0937500000000008
40
0.125000000000001
40
0.125000000000001
40
0.156250000000001
40
0.156250000000001
40
0.187500000000002
40
0.187500000000002
40
0.218750000000002
40
0.218750000000002
40
0.250000000000002
40
0.250000000000002
40
0.281250000000002
40
0.281250000000002
40
0.312500000000003
40
0.312500000000003
40
0.343750000000003
40
0.343750000000003
40
0.351562500000003
40
0.351562500000003
40
0.355468750000003
40
0.355468750000003
40
0.359375000000003
40
0.375000000000003
40
0.375000000000003
40
0.406250000000003
40
0.406250000000003
40
0.437500000000004
40
0.437500000000004
40
0.468750000000004
40
0.468750000000004
40
0.500000000000005
40
0.500000000000005
40
0.531250000000005
40
0.531250000000005
40
0.562500000000005
40
0.562500000000005
40
0.593750000000006
40
0.593750000000006
40
0.625000000000006
40
0.625000000000006
40
0.656250000000006
40
0.656250000000006
40
0.671875000000006
40
0.671875000000006
40
0.675781250000006
40
0.675781250000006
40
0.679687500000006
40
0.679687500000006
40
0.687500000000006
40
0.687500000000006
40
0.718750000000006
40
0.718750000000006
40
0.750000000000005
40
0.750000000000005
40
0.781250000000004
40
0.781250000000004
40
0.812500000000004
40
0.812500000000004
40
0.843750000000003
40
0.843750000000003
40
0.875000000000002
40
0.875000000000002
40
0.906250000000002
40
0.906250000000002
40
0.937500000000001
40
0.937500000000001
40
0.968750000000001
40
0.968750000000001
40
1
40
1
40
1
40
1
41
1
10
44.7000000000001
20
1.49793684121539
30
0
41
1
10
44.7885832748796
20
0.997547192995057
30
0
41
1
10
44.8771665497591
20
0.504143389387394
30
0
41
1
10
44.9878956433585
20
-0.0955190451481371
30
0
41
1
10
45.0100414620783
20
-0.215869783361598
30
0
41
1
10
45.0543330995181
20
-0.458516074469031
30
0
41
1
10
45.0764789182379
20
-0.58060443509703
30
0
41
1
10
45.1429163743975
20
-0.948867275024895
30
0
41
1
10
45.1872080118373
20
-1.19704751564206
30
0
41
1
10
45.3200829241566
20
-1.94692499336065
30
0
41
1
10
45.4086661990361
20
-2.45406317438591
30
0
41
1
10
45.5858327487951
20
-3.46566616600745
30
0
41
1
10
45.6744160236746
20
-3.97007311826314
30
0
41
1
10
45.8515825734336
20
-4.95638616196899
30
0
41
1
10
45.9401658483131
20
-5.4382108953964
30
0
41
1
10
46.1173323980721
20
-6.35899913300045
30
0
41
1
10
46.2059156729516
20
-6.79787541102689
30
0
41
1
10
46.3830822227106
20
-7.61447957927928
30
0
41
1
10
46.4716654975901
20
-7.99213722665115
30
0
41
1
10
46.6488320473491
20
-8.67254146699659
30
0
41
1
10
46.7374153222287
20
-8.97525331907411
30
0
41
1
10
46.9145818719877
20
-9.49816533270251
30
0
41
1
10
47.0031651468671
20
-9.71837242403336
30
0
41
1
10
47.1803316966262
20
-10.0752635043795
30
0
41
1
10
47.2689149715057
20
-10.2119884603455
30
0
41
1
10
47.4460815212647
20
-10.4067336862604
30
0
41
1
10
47.5346647961442
20
-10.4648128427403
30
0
41
1
10
47.6453938897436
20
-10.4938987310286
30
0
41
1
10
47.6675397084635
20
-10.4975480792461
30
0
41
1
10
47.7007584365433
20
-10.4998960845352
30
0
41
1
10
47.7118313459032
20
-10.5001587917049
30
0
41
1
10
47.7339771646231
20
-10.4996595122824
30
0
41
1
10
47.7893417114227
20
-10.4958358908189
30
0
41
1
10
47.8447062582225
20
-10.4788502916551
30
0
41
1
10
47.9775811705417
20
-10.4108848361157
30
0
41
1
10
48.0661644454212
20
-10.3291801102248
30
0
41
1
10
48.2433309951803
20
-10.085138996531
30
0
41
1
10
48.3319142700597
20
-9.92274737841254
30
0
41
1
10
48.5090808198187
20
-9.51413877407856
30
0
41
1
10
48.5976640946983
20
-9.26788991316536
30
0
41
1
10
48.7748306444573
20
-8.69451941768955
30
0
41
1
10
48.8634139193368
20
-8.36740357402815
30
0
41
1
10
49.0405804690957
20
-7.64183759852637
30
0
41
1
10
49.1291637439753
20
-7.24343457747989
30
0
41
1
10
49.3063302937343
20
-6.39062580813032
30
0
41
1
10
49.3949135686138
20
-5.93629796446922
30
0
41
1
10
49.5720801183728
20
-4.99083489232817
30
0
41
1
10
49.6606633932523
20
-4.49978743922415
30
0
41
1
10
49.8378299430114
20
-3.50137198195904
30
0
41
1
10
49.9264132178909
20
-2.99407947431141
30
0
41
1
10
50.1035797676499
20
-1.98242097494332
30
0
41
1
10
50.1921630425294
20
-1.47810358838427
30
0
41
1
10
50.3250379548486
20
-0.735896604150383
30
0
41
1
10
50.3693295922884
20
-0.490843432622825
30
0
41
1
10
50.424694139088
20
-0.188477684700075
30
0
41
1
10
50.4357670484479
20
-0.128201419989438
30
0
41
1
10
50.4579128671678
20
-0.0080653989651012
30
0
41
1
10
50.4689857765278
20
0.0517585660522286
30
0
41
1
10
50.5022045046076
20
0.232263970011388
30
0
41
1
10
50.5243503233275
20
0.353423600124699
30
0
41
1
10
50.6350794169269
20
0.96286480177406
30
0
41
1
10
50.7236626918064
20
1.4622352317995
30
0
41
1
10
50.9008292415654
20
2.46995319836461
30
0
41
1
10
50.9894125164449
20
2.97826275583279
30
0
41
1
10
51.166579066204
20
3.9855833659974
30
0
41
1
10
51.2551623410834
20
4.48452709040589
30
0
41
1
10
51.4323288908424
20
5.4528293808857
30
0
41
1
10
51.5209121657219
20
5.92210213808892
30
0
41
1
10
51.698078715481
20
6.811115343279
30
0
41
1
10
51.7866619903605
20
7.23077184336415
30
0
41
1
10
51.9638285401195
20
8.003576723685
30
0
41
1
10
52.0524118149989
20
8.3566655127614
30
0
41
1
10
52.229578364758
20
8.98456794681289
30
0
41
1
10
52.3181616396374
20
9.25936126193122
30
0
41
1
10
52.4953281893965
20
9.72535962531597
30
0
41
1
10
52.583911464276
20
9.91658478563744
30
0
41
1
10
52.761078014035
20
10.2165816519754
30
0
41
1
10
52.8496612889145
20
10.3254025130474
30
0
41
1
10
53.0268278386736
20
10.4670811855982
30
0
41
1
10
53.115411113553
20
10.5
30
0
41
1
10
53.2039943884325
20
10.5
30
0
0
SPLINE
5
EE
100
AcDbEntity
8
1
62
256
6
ByLayer
370
13
48
1
60
0
100
AcDbSpline
70
4
71
3
72
42
73
38
40
0
40
0
40
0
40
0
40
0.0624999999999999
40
0.0624999999999999
40
0.125
40
0.125
40
0.1875
40
0.1875
40
0.25
40
0.25
40
0.3125
40
0.3125
40
0.375
40
0.375
40
0.4375
40
0.4375
40
0.5
40
0.5
40
0.5625
40
0.5625
40
0.624999999999999
40
0.624999999999999
40
0.687499999999999
40
0.687499999999999
40
0.749999999999999
40
0.749999999999999
40
0.812499999999999
40
0.812499999999999
40
0.875
40
0.875
40
0.890625
40
0.890625
40
0.90625
40
0.90625
40
0.9375
40
0.9375
40
1
40
1
40
1
40
1
41
1
10
52.6178203911171
20
10.5
30
0
41
1
10
52.6815806442231
20
10.5
30
0
41
1
10
52.7453408973291
20
10.4829738206662
30
0
41
1
10
52.8728614035411
20
10.4109966581406
30
0
41
1
10
52.9366216566471
20
10.3560337627079
30
0
41
1
10
53.0641421628591
20
10.2051183640868
30
0
41
1
10
53.1279024159651
20
10.1091545871423
30
0
41
1
10
53.255422922177
20
9.87435629692064
30
0
41
1
10
53.319183175283
20
9.73551289046418
30
0
41
1
10
53.446703681495
20
9.41456737197649
30
0
41
1
10
53.510463934601
20
9.23246048310423
30
0
41
1
10
53.6379844408131
20
8.82630480259203
30
0
41
1
10
53.7017446939191
20
8.60225665371638
30
0
41
1
10
53.829265200131
20
8.11530647837273
30
0
41
1
10
53.8930254532371
20
7.85241098348692
30
0
41
1
10
54.020545959449
20
7.29251860582485
30
0
41
1
10
54.084306212555
20
6.99553355559897
30
0
41
1
10
54.211826718767
20
6.37360021320248
30
0
41
1
10
54.2755869718729
20
6.04866747439985
30
0
41
1
10
54.403107478085
20
5.37794477418345
30
0
41
1
10
54.466867731191
20
5.03217186832322
30
0
41
1
10
54.594388237403
20
4.3273445664241
30
0
41
1
10
54.658148490509
20
3.96830639617161
30
0
41
1
10
54.785668996721
20
3.24448585252668
30
0
41
1
10
54.8494292498269
20
2.87971694339811
30
0
41
1
10
54.9769497560389
20
2.15148145843429
30
0
41
1
10
55.040710009145
20
1.78802439415566
30
0
41
1
10
55.1682305153569
20
1.06861988341004
30
0
41
1
10
55.2319907684629
20
0.712677639236631
30
0
41
1
10
55.3116910848454
20
0.275660022997784
30
0
41
1
10
55.327631148122
20
0.18864925771436
30
0
41
1
10
55.359511274675
20
0.0154823601599219
30
0
41
1
10
55.3754513379514
20
-0.0705772906709399
30
0
41
1
10
55.4232715277809
20
-0.33086787374296
30
0
41
1
10
55.4551516543339
20
-0.50607781822643
30
0
41
1
10
55.5507920339929
20
-1.03588835053691
30
0
41
1
10
55.614552287099
20
-1.39470343419416
30
0
41
1
10
55.6783125402049
20
-1.75639118601964
30
0
0
SPLINE
5
EF
100
AcDbEntity
8
1
62
256
6
ByLayer
370
13
48
1
60
0
100
AcDbSpline
70
4
71
3
72
80
73
76
40
0
40
0
40
0
40
0
40
0.031249999999999
40
0.031249999999999
40
0.0624999999999981
40
0.0624999999999981
40
0.0937499999999971
40
0.0937499999999971
40
0.124999999999996
40
0.124999999999996
40
0.156249999999995
40
0.156249999999995
40
0.187499999999994
40
0.187499999999994
40
0.218749999999994
40
0.218749999999994
40
0.249999999999993
40
0.249999999999993
40
0.281249999999992
40
0.281249999999992
40
0.312499999999991
40
0.312499999999991
40
0.316406249999991
40
0.316406249999991
40
0.320312499999991
40
0.328124999999991
40
0.328124999999991
40
0.343749999999991
40
0.343749999999991
40
0.374999999999992
40
0.374999999999992
40
0.406249999999992
40
0.406249999999992
40
0.437499999999993
40
0.437499999999993
40
0.468749999999993
40
0.468749999999993
40
0.499999999999993
40
0.499999999999993
40
0.531249999999994
40
0.531249999999994
40
0.562499999999994
40
0.562499999999994
40
0.593749999999995
40
0.593749999999995
40
0.624999999999995
40
0.624999999999995
40
0.656249999999996
40
0.656249999999996
40
0.660156249999996
40
0.660156249999996
40
0.664062499999996
40
0.671874999999996
40
0.671874999999996
40
0.687499999999996
40
0.687499999999996
40
0.718749999999996
40
0.718749999999996
40
0.749999999999997
40
0.749999999999997
40
0.781249999999997
40
0.781249999999997
40
0.812499999999998
40
0.812499999999998
40
0.843749999999998
40
0.843749999999998
40
0.874999999999998
40
0.874999999999998
40
0.906249999999999
40
0.906249999999999
40
0.937499999999999
40
0.937499999999999
40
0.96875
40
0.96875
40
1
40
1
40
1
40
1
41
1
10
44.7000000000001
20
-1.24067563334333
30
0
41
1
10
44.7834284442531
20
-1.70953077718846
30
0
41
1
10
44.8668568885062
20
-2.18569967307371
30
0
41
1
10
45.0337137770123
20
-3.13885375825407
30
0
41
1
10
45.1171422212654
20
-3.61580034219736
30
0
41
1
10
45.2839991097715
20
-4.55431754501112
30
0
41
1
10
45.3674275540246
20
-5.01583128422263
30
0
41
1
10
45.5342844425307
20
-5.9063952774045
30
0
41
1
10
45.6177128867839
20
-6.3353804013762
30
0
41
1
10
45.78456977529
20
-7.144779822955
30
0
41
1
10
45.867998219543
20
-7.5251353845286
30
0
41
1
10
46.0348551080492
20
-8.22406568156688
30
0
41
1
10
46.1182835523022
20
-8.54260216029337
30
0
41
1
10
46.2851404408083
20
-9.10908767885905
30
0
41
1
10
46.3685688850615
20
-9.35702693879122
30
0
41
1
10
46.5354257735676
20
-9.77865848682828
30
0
41
1
10
46.6188542178207
20
-9.95236864446593
30
0
41
1
10
46.7857111063269
20
-10.2268965890857
30
0
41
1
10
46.8691395505799
20
-10.3277516512281
30
0
41
1
10
47.035996439086
20
-10.4620737589563
30
0
41
1
10
47.1194248833391
20
-10.4955860549443
30
0
41
1
10
47.2132818831238
20
-10.5000903921802
30
0
41
1
10
47.2237104386555
20
-10.5001331573979
30
0
41
1
10
47.2445675497187
20
-10.4993058128889
30
0
41
1
10
47.2758532163136
20
-10.4966881812603
30
0
41
1
10
47.3071388829085
20
-10.4898594834181
30
0
41
1
10
47.3697102160983
20
-10.4703802230714
30
0
41
1
10
47.4114244382248
20
-10.4496268951384
30
0
41
1
10
47.5365671046044
20
-10.3625556776635
30
0
41
1
10
47.6199955488575
20
-10.2713177085426
30
0
41
1
10
47.7868524373636
20
-10.0165614751143
30
0
41
1
10
47.8702808816167
20
-9.85300415608813
30
0
41
1
10
48.0371377701229
20
-9.45158695143954
30
0
41
1
10
48.1205662143759
20
-9.21370593266383
30
0
41
1
10
48.2874231028821
20
-8.66653434333836
30
0
41
1
10
48.3708515471352
20
-8.35724952277707
30
0
41
1
10
48.5377084356413
20
-7.67533922180809
30
0
41
1
10
48.6211368798944
20
-7.30274838720453
30
0
41
1
10
48.7879937684006
20
-6.50686422894478
30
0
41
1
10
48.8714222126537
20
-6.08362758615218
30
0
41
1
10
49.0382791011598
20
-5.20225443219525
30
0
41
1
10
49.1217075454128
20
-4.74418309110638
30
0
41
1
10
49.288564433919
20
-3.81022312082334
30
0
41
1
10
49.371992878172
20
-3.33439323507923
30
0
41
1
10
49.5388497666782
20
-2.38136370254239
30
0
41
1
10
49.6222782109313
20
-1.90420550236976
30
0
41
1
10
49.7891350994374
20
-0.962792467143089
30
0
41
1
10
49.8725635436905
20
-0.498557711497682
30
0
41
1
10
49.9664205434752
20
0.010167055437023
30
0
41
1
10
49.9768490990068
20
0.0665551939201521
30
0
41
1
10
49.9977062100701
20
0.179937946884564
30
0
41
1
10
50.028991876665
20
0.350556929207499
30
0
41
1
10
50.0602775432599
20
0.522725334292801
30
0
41
1
10
50.1228488764497
20
0.868882433622417
30
0
41
1
10
50.1645630985763
20
1.10208723759902
30
0
41
1
10
50.2897057649559
20
1.80680247417089
30
0
41
1
10
50.373134209209
20
2.28349909278245
30
0
41
1
10
50.5399910977151
20
3.23666246941673
30
0
41
1
10
50.6234195419681
20
3.71308919324054
30
0
41
1
10
50.7902764304742
20
4.64940665909506
30
0
41
1
10
50.8737048747274
20
5.10923956461377
30
0
41
1
10
51.0405617632335
20
5.99528626385043
30
0
41
1
10
51.1239902074866
20
6.42143487181369
30
0
41
1
10
51.2908470959927
20
7.22414496016117
30
0
41
1
10
51.3742755402458
20
7.60064869859576
30
0
41
1
10
51.5411324287519
20
8.29111943535997
30
0
41
1
10
51.624560873005
20
8.60504996451004
30
0
41
1
10
51.7914177615112
20
9.16190601469563
30
0
41
1
10
51.8748462057642
20
9.40482377448575
30
0
41
1
10
52.0417030942704
20
9.81635160801295
30
0
41
1
10
52.1251315385235
20
9.9849812041648
30
0
41
1
10
52.2919884270297
20
10.2496054063242
30
0
41
1
10
52.3754168712827
20
10.3456382050066
30
0
41
1
10
52.5422737597888
20
10.4708128078103
30
0
41
1
10
52.6257022040419
20
10.5
30
0
41
1
10
52.7091306482949
20
10.5
30
0
0
SPLINE
5
F0
100
AcDbEntity
8
1
62
256
6
ByLayer
370
13
48
1
60
0
100
AcDbSpline
70
4
71
3
72
42
73
38
40
0
40
0
40
0
40
0
40
0.0625
40
0.0625
40
0.125
40
0.125
40
0.1875
40
0.1875
40
0.25
40
0.25
40
0.3125
40
0.3125
40
0.375
40
0.375
40
0.4375
40
0.4375
40
0.5
40
0.5
40
0.5625
40
0.5625
40
0.625
40
0.625
40
0.6875
40
0.6875
40
0.75
40
0.75
40
0.765625
40
0.765625
40
0.78125
40
0.78125
40
0.8125
40
0.8125
40
0.875
40
0.875
40
0.9375
40
0.9375
40
1
40
1
40
1
40
1
41
1
10
52.1229566509795
20
10.5
30
0
41
1
10
52.1970265653384
20
10.5
30
0
41
1
10
52.2710964796972
20
10.4770087205163
30
0
41
1
10
52.419236308415
20
10.3790620682024
30
0
41
1
10
52.4933062227739
20
10.3040815359237
30
0
41
1
10
52.6414460514916
20
10.0977437372102
30
0
41
1
10
52.7155159658504
20
9.96636389193196
30
0
41
1
10
52.8636557945682
20
9.64516461379506
30
0
41
1
10
52.937725708927
20
9.4553302228536
30
0
41
1
10
53.0858655376447
20
9.01809166920154
30
0
41
1
10
53.1599354520035
20
8.77068462588701
30
0
41
1
10
53.3080752807213
20
8.22238676648934
30
0
41
1
10
53.3821451950802
20
7.92150739509006
30
0
41
1
10
53.5302850237979
20
7.27344444803552
30
0
41
1
10
53.6043549381568
20
6.92628555564858
30
0
41
1
10
53.7524947668745
20
6.19538707133276
30
0
41
1
10
53.8265646812334
20
5.8116810095058
30
0
41
1
10
53.9747045099511
20
5.01906258166315
30
0
41
1
10
54.0487744243099
20
4.61018619636536
30
0
41
1
10
54.1969142530276
20
3.77918386483677
30
0
41
1
10
54.2709841673865
20
3.35708995377445
30
0
41
1
10
54.4191239961042
20
2.51114751067703
30
0
41
1
10
54.4931939104631
20
2.08732246612308
30
0
41
1
10
54.6413337391808
20
1.24810243797444
30
0
41
1
10
54.7154036535397
20
0.832720468589372
30
0
41
1
10
54.8079910464883
20
0.323963030723263
30
0
41
1
10
54.826508525078
20
0.222730089529364
30
0
41
1
10
54.8635434822574
20
0.0214107765455651
30
0
41
1
10
54.8820609608471
20
-0.0785236169088819
30
0
41
1
10
54.9376133966163
20
-0.381148784901029
30
0
41
1
10
54.9746483537957
20
-0.58515586956878
30
0
41
1
10
55.085753225334
20
-1.2025664855916
30
0
41
1
10
55.1598231396929
20
-1.621419306381
30
0
41
1
10
55.3079629684106
20
-2.4647341699818
30
0
41
1
10
55.3820328827694
20
-2.88918004384993
30
0
41
1
10
55.5301727114871
20
-3.73305487741089
30
0
41
1
10
55.604242625846
20
-4.15245748000703
30
0
41
1
10
55.6783125402049
20
-4.56349284849543
30
0
0
SPLINE
5
F1
100
AcDbEntity
8
1
62
256
6
ByLayer
370
13
48
1
60
0
100
AcDbSpline
70
4
71
3
72
79
73
75
40
0
40
0
40
0
40
0
40
0.0312500000000001
40
0.0312500000000001
40
0.0625000000000003
40
0.0625000000000003
40
0.0937500000000004
40
0.0937500000000004
40
0.125000000000001
40
0.125000000000001
40
0.156250000000001
40
0.156250000000001
40
0.187500000000001
40
0.187500000000001
40
0.218750000000001
40
0.218750000000001
40
0.250000000000001
40
0.250000000000001
40
0.265625000000001
40
0.265625000000001
40
0.273437500000001
40
0.273437500000001
40
0.281250000000001
40
0.281250000000001
40
0.312500000000001
40
0.312500000000001
40
0.34375
40
0.34375
40
0.375
40
0.375
40
0.40625
40
0.40625
40
0.437499999999999
40
0.437499999999999
40
0.468749999999999
40
0.468749999999999
40
0.499999999999999
40
0.499999999999999
40
0.531249999999998
40
0.531249999999998
40
0.562499999999998
40
0.562499999999998
40
0.593749999999997
40
0.593749999999997
40
0.624999999999997
40
0.624999999999997
40
0.632812499999997
40
0.632812499999997
40
0.636718749999997
40
0.636718749999997
40
0.640624999999997
40
0.656249999999997
40
0.656249999999997
40
0.687499999999997
40
0.687499999999997
40
0.718749999999997
40
0.718749999999997
40
0.749999999999998
40
0.749999999999998
40
0.781249999999998
40
0.781249999999998
40
0.812499999999999
40
0.812499999999999
40
0.843749999999999
40
0.843749999999999
40
0.874999999999999
40
0.874999999999999
40
0.906249999999999
40
0.906249999999999
40
0.9375
40
0.9375
40
0.96875
40
0.96875
40
1
40
1
40
1
40
1
41
1
10
44.7000000000001
20
-4.05294730306011
30
0
41
1
10
44.7782736136267
20
-4.49353917447294
30
0
41
1
10
44.8565472272533
20
-4.92748434673692
30
0
41
1
10
45.0130944545066
20
-5.76805981782005
30
0
41
1
10
45.0913680681332
20
-6.1746428294681
30
0
41
1
10
45.2479152953865
20
-6.94702234978905
30
0
41
1
10
45.3261889090131
20
-7.31277471883203
30
0
41
1
10
45.4827361362665
20
-7.99206264896424
30
0
41
1
10
45.5610097498931
20
-8.30556658407929
30
0
41
1
10
45.7175569771463
20
-8.87213994840693
30
0
41
1
10
45.7958305907729
20
-9.12519645924226
30
0
41
1
10
45.9523778180262
20
-9.5665577370701
30
0
41
1
10
46.0306514316529
20
-9.75486930376667
30
0
41
1
10
46.1871986589062
20
-10.0664143731776
30
0
41
1
10
46.2654722725328
20
-10.1896704101551
30
0
41
1
10
46.4220194997861
20
-10.3743095646334
30
0
41
1
10
46.5002931134127
20
-10.4357240225653
30
0
41
1
10
46.6177035338527
20
-10.4858660757318
30
0
41
1
10
46.656840340666
20
-10.4956014282347
30
0
41
1
10
46.715545550886
20
-10.5004136435711
30
0
41
1
10
46.7351139542926
20
-10.5004018003268
30
0
41
1
10
46.774250761106
20
-10.4971449524203
30
0
41
1
10
46.7938191645127
20
-10.493884985453
30
0
41
1
10
46.891661181546
20
-10.4691384076561
30
0
41
1
10
46.9699347951726
20
-10.4222380370216
30
0
41
1
10
47.1264820224258
20
-10.2678792654945
30
0
41
1
10
47.2047556360524
20
-10.1603884986132
30
0
41
1
10
47.3613028633058
20
-9.88087334419984
30
0
41
1
10
47.4395764769324
20
-9.70882353588615
30
0
41
1
10
47.5961237041857
20
-9.29955086699266
30
0
41
1
10
47.6743973178123
20
-9.06231677200643
30
0
41
1
10
47.8309445450656
20
-8.52594931627641
30
0
41
1
10
47.9092181586922
20
-8.22682386087567
30
0
41
1
10
48.0657653859455
20
-7.57392627154741
30
0
41
1
10
48.1440389995721
20
-7.22018151695261
30
0
41
1
10
48.3005862268254
20
-6.46874346281334
30
0
41
1
10
48.3788598404521
20
-6.07109199970506
30
0
41
1
10
48.5354070677053
20
-5.24492163099816
30
0
41
1
10
48.613680681332
20
-4.81645015812506
30
0
41
1
10
48.7702279085853
20
-3.94272802237273
30
0
41
1
10
48.8485015222119
20
-3.49752077476842
30
0
41
1
10
49.0050487494652
20
-2.60402333012311
30
0
41
1
10
49.0833223630918
20
-2.15576526788158
30
0
41
1
10
49.2398695903451
20
-1.26831227472226
30
0
41
1
10
49.3181432039717
20
-0.829134988512294
30
0
41
1
10
49.415985221005
20
-0.291978306791861
30
0
41
1
10
49.4355536244117
20
-0.185131541042494
30
0
41
1
10
49.4649062295217
20
-0.0258343083880845
30
0
41
1
10
49.4746904312249
20
0.0270210559827433
30
0
41
1
10
49.4942588346316
20
0.133224048851389
30
0
41
1
10
49.5431798431483
20
0.399540015203854
30
0
41
1
10
49.592100851665
20
0.669719731512743
30
0
41
1
10
49.7095112721049
20
1.32391021685467
30
0
41
1
10
49.7877848857316
20
1.76778927421384
30
0
41
1
10
49.9443321129849
20
2.66033035794632
30
0
41
1
10
50.0226057266115
20
3.10896918684813
30
0
41
1
10
50.1791529538647
20
3.99821622739714
30
0
41
1
10
50.2574265674914
20
4.43878745351412
30
0
41
1
10
50.4139737947447
20
5.29791996643246
30
0
41
1
10
50.4922474083713
20
5.71643529296239
30
0
41
1
10
50.6487946356246
20
6.51757808408007
30
0
41
1
10
50.7270682492512
20
6.90015905695981
30
0
41
1
10
50.8836154765045
20
7.61707892895799
30
0
41
1
10
50.9618890901311
20
7.95138053682558
30
0
41
1
10
51.1184363173844
20
8.562205416214
30
0
41
1
10
51.1967099310111
20
8.8387083190415
30
0
41
1
10
51.3532571582643
20
9.32810887890011
30
0
41
1
10
51.4315307718909
20
9.5410061515752
30
0
41
1
10
51.5880779991442
20
9.90139589473102
30
0
41
1
10
51.6663516127709
20
10.0489056968955
30
0
41
1
10
51.8228988400242
20
10.2804806139593
30
0
41
1
10
51.9011724536508
20
10.3645746451351
30
0
41
1
10
52.057719680904
20
10.4743177896113
30
0
41
1
10
52.1359932945307
20
10.5
30
0
41
1
10
52.2142669081574
20
10.5
30
0
0
SPLINE
5
F2
100
AcDbEntity
8
1
62
256
6
ByLayer
370
13
48
1
60
0
100
AcDbSpline
70
4
71
3
72
44
73
40
40
0
40
0
40
0
40
0
40
0.0625000000000006
40
0.0625000000000006
40
0.125000000000001
40
0.125000000000001
40
0.187500000000002
40
0.187500000000002
40
0.250000000000002
40
0.250000000000002
40
0.312500000000003
40
0.312500000000003
40
0.375000000000004
40
0.375000000000004
40
0.437500000000004
40
0.437500000000004
40
0.500000000000005
40
0.500000000000005
40
0.562500000000005
40
0.562500000000005
40
0.625000000000006
40
0.625000000000006
40
0.656250000000006
40
0.656250000000006
40
0.671875000000006
40
0.671875000000006
40
0.679687500000006
40
0.679687500000006
40
0.687500000000005
40
0.687500000000005
40
0.750000000000004
40
0.750000000000004
40
0.812500000000003
40
0.812500000000003
40
0.875000000000002
40
0.875000000000002
40
0.937500000000001
40
0.937500000000001
40
1
40
1
40
1
40
1
41
1
10
51.6280929108419
20
10.5
30
0
41
1
10
51.7124724864537
20
10.5
30
0
41
1
10
51.7968520620654
20
10.4701413468484
30
0
41
1
10
51.9656112132888
20
10.3420024970664
30
0
41
1
10
52.0499907889006
20
10.243674298068
30
0
41
1
10
52.2187499401241
20
9.97269837093521
30
0
41
1
10
52.3031295157358
20
9.80001055369115
30
0
41
1
10
52.4718886669593
20
9.37868074862376
30
0
41
1
10
52.556268242571
20
9.13001897925471
30
0
41
1
10
52.7250273937944
20
8.56031549618621
30
0
41
1
10
52.8094069694061
20
8.23928342122966
30
0
41
1
10
52.9781661206296
20
7.53380400143098
30
0
41
1
10
53.0625456962413
20
7.14939682232367
30
0
41
1
10
53.2313048474648
20
6.33077005878871
30
0
41
1
10
53.3156844230765
20
5.89661261879442
30
0
41
1
10
53.4844435743
20
4.99514985027645
30
0
41
1
10
53.5688231499117
20
4.52791341538077
30
0
41
1
10
53.7375823011351
20
3.57799046006039
30
0
41
1
10
53.8219618767468
20
3.09536377587676
30
0
41
1
10
53.9907210279703
20
2.13140170886635
30
0
41
1
10
54.0751006035821
20
1.65010641780071
30
0
41
1
10
54.2016699669997
20
0.939820357544875
30
0
41
1
10
54.2438597548055
20
0.704978018311863
30
0
41
1
10
54.3071444365143
20
0.356694550605312
30
0
41
1
10
54.3282393304172
20
0.241261716446388
30
0
41
1
10
54.3598816712716
20
0.0692271045803921
30
0
41
1
10
54.3704291182231
20
0.0121905563102871
30
0
41
1
10
54.391524012126
20
-0.10214209475825
30
0
41
1
10
54.4020714590775
20
-0.159498666002094
30
0
41
1
10
54.4969984816407
20
-0.67733220645502
30
0
41
1
10
54.5813780572524
20
-1.14932181275364
30
0
41
1
10
54.7501372084759
20
-2.10472967683924
30
0
41
1
10
54.8345167840875
20
-2.58812359931281
30
0
41
1
10
55.0032759353111
20
-3.55122153653969
30
0
41
1
10
55.0876555109228
20
-4.03087852623329
30
0
41
1
10
55.2564146621463
20
-4.96929996767847
30
0
41
1
10
55.340794237758
20
-5.42800024217482
30
0
41
1
10
55.5095533889814
20
-6.30691891015366
30
0
41
1
10
55.5939329645931
20
-6.72706872730129
30
0
41
1
10
55.6783125402048
20
-7.1200129888324
30
0
0
SPLINE
5
F3
100
AcDbEntity
8
1
62
256
6
ByLayer
370
13
48
1
60
0
100
AcDbSpline
70
4
71
3
72
76
73
72
40
0
40
0
40
0
40
0
40
0.03125
40
0.03125
40
0.0625
40
0.0625
40
0.09375
40
0.09375
40
0.125
40
0.125
40
0.15625
40
0.15625
40
0.1875
40
0.1875
40
0.203125
40
0.203125
40
0.2109375
40
0.2109375
40
0.21875
40
0.21875
40
0.25
40
0.25
40
0.28125
40
0.28125
40
0.3125
40
0.3125
40
0.34375
40
0.34375
40
0.375
40
0.375
40
0.40625
40
0.40625
40
0.4375
40
0.4375
40
0.46875
40
0.46875
40
0.5
40
0.5
40
0.53125
40
0.53125
40
0.5625
40
0.5625
40
0.59375
40
0.59375
40
0.609375
40
0.609375
40
0.625
40
0.625
40
0.65625
40
0.65625
40
0.6875
40
0.6875
40
0.71875
40
0.71875
40
0.75
40
0.75
40
0.78125
40
0.78125
40
0.8125
40
0.8125
40
0.84375
40
0.84375
40
0.875
40
0.875
40
0.90625
40
0.90625
40
0.9375
40
0.9375
40
0.96875
40
0.96875
40
1
40
1
40
1
40
1
41
1
10
44.7000000000001
20
-6.68456286870546
30
0
41
1
10
44.7731187830002
20
-7.04117238976593
30
0
41
1
10
44.8462375660004
20
-7.37937322197902
30
0
41
1
10
44.9924751320008
20
-8.00987400070153
30
0
41
1
10
45.0655939150011
20
-8.30215191196854
30
0
41
1
10
45.2118314810015
20
-8.83413933186083
30
0
41
1
10
45.2849502640017
20
-9.07383929854603
30
0
41
1
10
45.4311878300021
20
-9.49696650365229
30
0
41
1
10
45.5043066130023
20
-9.68039740143479
30
0
41
1
10
45.6505441790027
20
-9.99033325928548
30
0
41
1
10
45.7236629620029
20
-10.1168528258239
30
0
41
1
10
45.8699005280033
20
-10.3150787474747
30
0
41
1
10
45.9430193110036
20
-10.3868065025353
30
0
41
1
10
46.0526974855038
20
-10.4565292008242
30
0
41
1
10
46.0892568770039
20
-10.473473739873
30
0
41
1
10
46.1440959642541
20
-10.4899608661303
30
0
41
1
10
46.1623756600041
20
-10.4939689627315
30
0
41
1
10
46.1989350515042
20
-10.4991028329743
30
0
41
1
10
46.2172147472543
20
-10.500229441416
30
0
41
1
10
46.3086132260046
20
-10.498890099455
30
0
41
1
10
46.3817320090048
20
-10.4753396857711
30
0
41
1
10
46.5279695750052
20
-10.3775471224573
30
0
41
1
10
46.6010883580054
20
-10.3032813855655
30
0
41
1
10
46.7473259240058
20
-10.0998224884859
30
0
41
1
10
46.820444707006
20
-9.97060814668376
30
0
41
1
10
46.9666822730064
20
-9.65524658150616
30
0
41
1
10
47.0398010560066
20
-9.46908519034739
30
0
41
1
10
47.186038622007
20
-9.04060267250878
30
0
41
1
10
47.2591574050072
20
-8.79827848736807
30
0
41
1
10
47.4053949710076
20
-8.2612952189464
30
0
41
1
10
47.4785137540078
20
-7.96664631725579
30
0
41
1
10
47.6247513200082
20
-7.33178900391979
30
0
41
1
10
47.6978701030085
20
-6.99160315280997
30
0
41
1
10
47.8441076690089
20
-6.27490024900484
30
0
41
1
10
47.9172264520091
20
-5.89841426028806
30
0
41
1
10
48.0634640180095
20
-5.11997030616985
30
0
41
1
10
48.1365828010097
20
-4.71804612634162
30
0
41
1
10
48.2828203670101
20
-3.90021966850955
30
0
41
1
10
48.3559391500103
20
-3.48434798152897
30
0
41
1
10
48.5021767160108
20
-2.64976712040186
30
0
41
1
10
48.575295499011
20
-2.23108093597841
30
0
41
1
10
48.7215330650114
20
-1.40083956017088
30
0
41
1
10
48.7946518480115
20
-0.989297734409575
30
0
41
1
10
48.9043300225118
20
-0.383517354198688
30
0
41
1
10
48.940889414012
20
-0.183711561213187
30
0
41
1
10
49.0140081970122
20
0.212110773747753
30
0
41
1
10
49.0505675885123
20
0.412332908268752
30
0
41
1
10
49.1602457630125
20
1.01865623490238
30
0
41
1
10
49.2333645460128
20
1.43047272538763
30
0
41
1
10
49.3796021120132
20
2.26104393558603
30
0
41
1
10
49.4527208950134
20
2.67978505475398
30
0
41
1
10
49.5989584610138
20
3.51422060568496
30
0
41
1
10
49.672077244014
20
3.9298918321951
30
0
41
1
10
49.8183148100144
20
4.74704309215281
30
0
41
1
10
49.8914335930147
20
5.14849239819907
30
0
41
1
10
50.0376711590151
20
5.92571533065728
30
0
41
1
10
50.1107899420153
20
6.30145516441019
30
0
41
1
10
50.2570275080157
20
7.01642191226304
30
0
41
1
10
50.3301462910159
20
7.35561790264427
30
0
41
1
10
50.4763838570163
20
7.98830153377838
30
0
41
1
10
50.5495026400164
20
8.281766875524
30
0
41
1
10
50.6957402060169
20
8.81625523455745
30
0
41
1
10
50.7688589890171
20
9.05726838985737
30
0
41
1
10
50.9150965550175
20
9.4830745271401
30
0
41
1
10
50.9882153380177
20
9.66787086868857
30
0
41
1
10
51.1344529040181
20
9.98051917322314
30
0
41
1
10
51.2075716870183
20
10.1083855245532
30
0
41
1
10
51.3538092530187
20
10.3092260885662
30
0
41
1
10
51.426928036019
20
10.3822215933781
30
0
41
1
10
51.5731656020193
20
10.4775967528344
30
0
41
1
10
51.6462843850196
20
10.5
30
0
41
1
10
51.7194031680198
20
10.5
30
0
0
SPLINE
5
F4
100
AcDbEntity
8
1
62
256
6
ByLayer
370
13
48
1
60
0
100
AcDbSpline
70
4
71
3
72
44
73
40
40
0
40
0
40
0
40
0
40
0.0625
40
0.0625
40
0.125
40
0.125
40
0.1875
40
0.1875
40
0.25
40
0.25
40
0.3125
40
0.3125
40
0.375
40
0.375
40
0.4375
40
0.4375
40
0.5
40
0.5
40
0.5625
40
0.5625
40
0.59375
40
0.59375
40
0.6015625
40
0.6015625
40
0.609375
40
0.609375
40
0.625000000000001
40
0.625000000000001
40
0.6875
40
0.6875
40
0.75
40
0.75
40
0.8125
40
0.8125
40
0.875
40
0.875
40
0.9375
40
0.9375
40
1
40
1
40
1
40
1
41
1
10
51.1332291707043
20
10.5
30
0
41
1
10
51.227918407569
20
10.5
30
0
41
1
10
51.3226076444335
20
10.4623668657703
30
0
41
1
10
51.5119861181627
20
10.2997391496172
30
0
41
1
10
51.6066753550273
20
10.1746599609726
30
0
41
1
10
51.7960538287565
20
9.8297523834436
30
0
41
1
10
51.8907430656211
20
9.60985978601823
30
0
41
1
10
52.0801215393503
20
9.07514157210559
30
0
41
1
10
52.1748107762149
20
8.76029881944569
30
0
41
1
10
52.364189249944
20
8.04401887727005
30
0
41
1
10
52.4588784868087
20
7.64262615387861
30
0
41
1
10
52.6482569605379
20
6.76973452912239
30
0
41
1
10
52.7429461974025
20
6.29833347215319
30
0
41
1
10
52.9323246711317
20
5.30787252072381
30
0
41
1
10
53.0270139079962
20
4.78893457346544
30
0
41
1
10
53.2163923817254
20
3.72838127176786
30
0
41
1
10
53.31108161859
20
3.18687594433001
30
0
41
1
10
53.5004600923192
20
2.10508687747796
30
0
41
1
10
53.5951493291838
20
1.56487531864099
30
0
41
1
10
53.7371831844807
20
0.770473103808712
30
0
41
1
10
53.784527802913
20
0.508287789037666
30
0
41
1
10
53.8437085759533
20
0.185071396194445
30
0
41
1
10
53.8555447305614
20
0.120653031316294
30
0
41
1
10
53.8792170397776
20
-0.0077061377824066
30
0
41
1
10
53.8910531943857
20
-0.0716878493476543
30
0
41
1
10
53.9265616582098
20
-0.264810821325994
30
0
41
1
10
53.950233967426
20
-0.394492717576469
30
0
41
1
10
54.0685955135068
20
-1.04698868299337
30
0
41
1
10
54.1632847503714
20
-1.58226852500815
30
0
41
1
10
54.3526632241006
20
-2.66115991499748
30
0
41
1
10
54.4473524609651
20
-3.20471402116081
30
0
41
1
10
54.6367309346944
20
-4.27735148975333
30
0
41
1
10
54.731420171559
20
-4.80633506455538
30
0
41
1
10
54.9207986452881
20
-5.82487028126951
30
0
41
1
10
55.0154878821527
20
-6.31430008164503
30
0
41
1
10
55.2048663558819
20
-7.23002939476757
30
0
41
1
10
55.2995555927466
20
-7.6562193703646
30
0
41
1
10
55.4889340664757
20
-8.42664489787592
30
0
41
1
10
55.5836233033402
20
-8.77081662814584
30
0
41
1
10
55.6783125402049
20
-9.06839599877412
30
0
0
SPLINE
5
F5
100
AcDbEntity
8
1
62
256
6
ByLayer
370
13
48
1
60
0
100
AcDbSpline
70
4
71
3
72
77
73
73
40
0
40
0
40
0
40
0
40
0.0312499999999997
40
0.0312499999999997
40
0.0624999999999993
40
0.0624999999999993
40
0.093749999999999
40
0.093749999999999
40
0.124999999999999
40
0.124999999999999
40
0.156249999999998
40
0.156249999999998
40
0.164062499999998
40
0.164062499999998
40
0.171874999999998
40
0.187499999999998
40
0.187499999999998
40
0.218749999999999
40
0.218749999999999
40
0.249999999999999
40
0.249999999999999
40
0.28125
40
0.28125
40
0.3125
40
0.3125
40
0.343750000000001
40
0.343750000000001
40
0.375000000000001
40
0.375000000000001
40
0.406250000000002
40
0.406250000000002
40
0.437500000000002
40
0.437500000000002
40
0.468750000000003
40
0.468750000000003
40
0.500000000000003
40
0.500000000000003
40
0.531250000000004
40
0.531250000000004
40
0.562500000000004
40
0.562500000000004
40
0.578125000000005
40
0.578125000000005
40
0.585937500000005
40
0.585937500000005
40
0.593750000000005
40
0.593750000000005
40
0.625000000000004
40
0.625000000000004
40
0.656250000000004
40
0.656250000000004
40
0.687500000000004
40
0.687500000000004
40
0.718750000000003
40
0.718750000000003
40
0.750000000000003
40
0.750000000000003
40
0.781250000000003
40
0.781250000000003
40
0.812500000000002
40
0.812500000000002
40
0.843750000000002
40
0.843750000000002
40
0.875000000000001
40
0.875000000000001
40
0.906250000000001
40
0.906250000000001
40
0.937500000000001
40
0.937500000000001
40
0.96875
40
0.96875
40
1
40
1
40
1
40
1
41
1
10
44.7000000000001
20
-8.76722768772422
30
0
41
1
10
44.7679639523739
20
-9.00186636241986
30
0
41
1
10
44.8359279047476
20
-9.21326985095209
30
0
41
1
10
44.9718558094951
20
-9.58718829693527
30
0
41
1
10
45.0398197618688
20
-9.74970738526622
30
0
41
1
10
45.1757476666165
20
-10.0256876094585
30
0
41
1
10
45.2437116189902
20
-10.1391596029832
30
0
41
1
10
45.3796395237377
20
-10.3189009758925
30
0
41
1
10
45.4476034761115
20
-10.3851853583042
30
0
41
1
10
45.5835313808591
20
-10.4740331143901
30
0
41
1
10
45.6514953332329
20
-10.4966128744267
30
0
41
1
10
45.7364502737001
20
-10.5004034633219
30
0
41
1
10
45.7534412617934
20
-10.4999536189871
30
0
41
1
10
45.7874232379804
20
-10.496596208038
30
0
41
1
10
45.8383962022608
20
-10.4878585417841
30
0
41
1
10
45.8893691665411
20
-10.4676694612716
30
0
41
1
10
45.9913150951017
20
-10.4111752586608
30
0
41
1
10
46.0592790474755
20
-10.3519818749871
30
0
41
1
10
46.195206952223
20
-10.1868716217728
30
0
41
1
10
46.2631709045968
20
-10.0809393563456
30
0
41
1
10
46.3990988093443
20
-9.82020520131573
30
0
41
1
10
46.4670627617181
20
-9.66539162303809
30
0
41
1
10
46.6029906664656
20
-9.30671481356504
30
0
41
1
10
46.6709546188394
20
-9.10284626012901
30
0
41
1
10
46.8068825235869
20
-8.64811067490047
30
0
41
1
10
46.8748464759608
20
-8.39724652003954
30
0
41
1
10
47.0107743807083
20
-7.85284473908041
30
0
41
1
10
47.0787383330821
20
-7.55931852768484
30
0
41
1
10
47.2146662378296
20
-6.93597672412596
30
0
41
1
10
47.2826301902034
20
-6.60617965143194
30
0
41
1
10
47.4185580949509
20
-5.91828301700542
30
0
41
1
10
47.4865220473247
20
-5.56020615873919
30
0
41
1
10
47.6224499520723
20
-4.82470879661471
30
0
41
1
10
47.6904139044461
20
-4.4473115411312
30
0
41
1
10
47.8263418091936
20
-3.68240049738151
30
0
41
1
10
47.8943057615673
20
-3.29490710025297
30
0
41
1
10
48.0302336663149
20
-2.51863196038565
30
0
41
1
10
48.0981976186887
20
-2.12986536294903
30
0
41
1
10
48.2341255234362
20
-1.35893193275513
30
0
41
1
10
48.3020894758099
20
-0.976773980083806
30
0
41
1
10
48.4040354043706
20
-0.41342561076354
30
0
41
1
10
48.4380173805575
20
-0.227279945264172
30
0
41
1
10
48.4889903448378
20
0.0489695083381605
30
0
41
1
10
48.5059813329313
20
0.141007428021766
30
0
41
1
10
48.5399633091182
20
0.326493744075833
30
0
41
1
10
48.5569542972116
20
0.419702914094728
30
0
41
1
10
48.6419092376788
20
0.887862185032134
30
0
41
1
10
48.7098731900526
20
1.26920854117799
30
0
41
1
10
48.8458010948002
20
2.03908239406769
30
0
41
1
10
48.9137650471739
20
2.42760150358231
30
0
41
1
10
49.0496929519215
20
3.20403650900227
30
0
41
1
10
49.1176569042953
20
3.59193773033965
30
0
41
1
10
49.2535848090428
20
4.35837555292585
30
0
41
1
10
49.3215487614166
20
4.73689210349434
30
0
41
1
10
49.4574766661641
20
5.47534794022846
30
0
41
1
10
49.5254406185379
20
5.83526408786969
30
0
41
1
10
49.6613685232854
20
6.52751328600684
30
0
41
1
10
49.7293324756592
20
6.85982345662512
30
0
41
1
10
49.8652603804067
20
7.48876573073355
30
0
41
1
10
49.9332243327805
20
7.78537886781396
30
0
41
1
10
50.069152237528
20
8.33638474107639
30
0
41
1
10
50.1371161899018
20
8.59076543357565
30
0
41
1
10
50.2730440946494
20
9.05279252220762
30
0
41
1
10
50.3410080470231
20
9.26043536425422
30
0
41
1
10
50.4769359517707
20
9.62673972314423
30
0
41
1
10
50.5448999041445
20
9.78540597201919
30
0
41
1
10
50.680827808892
20
10.0537568566495
30
0
41
1
10
50.7487917612658
20
10.1634527737751
30
0
41
1
10
50.8847196660133
20
10.3358612922401
30
0
41
1
10
50.9526836183871
20
10.3985891015705
30
0
41
1
10
51.0886115231346
20
10.4806502614594
30
0
41
1
10
51.1565754755084
20
10.5
30
0
41
1
10
51.2245394278822
20
10.5
30
0
0
SPLINE
5
F6
100
AcDbEntity
8
1
62
256
6
ByLayer
370
13
48
1
60
0
100
AcDbSpline
70
4
71
3
72
58
73
54
40
0
40
0
40
0
40
0
40
0.062499999999999
40
0.062499999999999
40
0.124999999999998
40
0.124999999999998
40
0.187499999999997
40
0.187499999999997
40
0.218749999999997
40
0.218749999999997
40
0.249999999999996
40
0.249999999999996
40
0.281249999999995
40
0.281249999999995
40
0.312499999999995
40
0.312499999999995
40
0.343749999999994
40
0.343749999999994
40
0.374999999999994
40
0.374999999999994
40
0.437499999999993
40
0.437499999999993
40
0.499999999999992
40
0.499999999999992
40
0.531249999999992
40
0.531249999999992
40
0.539062499999992
40
0.539062499999992
40
0.546874999999992
40
0.546874999999992
40
0.562499999999992
40
0.562499999999992
40
0.624999999999993
40
0.624999999999993
40
0.687499999999994
40
0.687499999999994
40
0.718749999999995
40
0.718749999999995
40
0.749999999999996
40
0.749999999999996
40
0.781249999999996
40
0.781249999999996
40
0.812499999999997
40
0.812499999999997
40
0.843749999999997
40
0.843749999999997
40
0.874999999999998
40
0.874999999999998
40
0.906249999999998
40
0.906249999999998
40
0.937499999999999
40
0.937499999999999
40
1
40
1
40
1
40
1
41
1
10
50.6383654305668
20
10.5
30
0
41
1
10
50.7433643286842
20
10.5
30
0
41
1
10
50.8483632268017
20
10.453679471563
30
0
41
1
10
51.0583610230366
20
10.2521980880356
30
0
41
1
10
51.1633599211541
20
10.0968973428554
30
0
41
1
10
51.373357717389
20
9.66875637712275
30
0
41
1
10
51.4783566155065
20
9.39582269613291
30
0
41
1
10
51.6358549626826
20
8.90035684421343
30
0
41
1
10
51.6883544117413
20
8.72095640729003
30
0
41
1
10
51.7933533098589
20
8.33524469606255
30
0
41
1
10
51.8458527589175
20
8.12893537376607
30
0
41
1
10
51.9508516570351
20
7.69176966308331
30
0
41
1
10
52.0033511060938
20
7.46091698462169
30
0
41
1
10
52.1083500042112
20
6.97772692970369
30
0
41
1
10
52.1608494532699
20
6.72539471090232
30
0
41
1
10
52.2658483513874
20
6.20287210933489
30
0
41
1
10
52.3183478004461
20
5.93268783980074
30
0
41
1
10
52.4233466985635
20
5.37848070762331
30
0
41
1
10
52.4758461476223
20
5.09446431886858
30
0
41
1
10
52.6333444947985
20
4.22798939615024
30
0
41
1
10
52.738343392916
20
3.63120809848661
30
0
41
1
10
52.9483411891509
20
2.43252335097759
30
0
41
1
10
53.0533400872683
20
1.83075812778318
30
0
41
1
10
53.2108384344445
20
0.945641326973629
30
0
41
1
10
53.2633378835032
20
0.65347194564248
30
0
41
1
10
53.3289621948267
20
0.293605741498254
30
0
41
1
10
53.3420870570914
20
0.221898504795291
30
0
41
1
10
53.3683367816207
20
0.0790548702611886
30
0
41
1
10
53.3814616438854
20
0.0081148442575909
30
0
41
1
10
53.4208362306795
20
-0.205441681689223
30
0
41
1
10
53.4470859552089
20
-0.34898595126333
30
0
41
1
10
53.5783345778557
20
-1.07179316472912
30
0
41
1
10
53.6833334759731
20
-1.66662388285474
30
0
41
1
10
53.8933312722081
20
-2.86435849701084
30
0
41
1
10
53.9983301703255
20
-3.46715929038325
30
0
41
1
10
54.1558285175017
20
-4.35359185211479
30
0
41
1
10
54.2083279665604
20
-4.64606654504297
30
0
41
1
10
54.3133268646779
20
-5.22078212091509
30
0
41
1
10
54.3658263137366
20
-5.50301669965748
30
0
41
1
10
54.4708252118541
20
-6.05304846468931
30
0
41
1
10
54.5233246609128
20
-6.32083919159422
30
0
41
1
10
54.6283235590302
20
-6.83800912573577
30
0
41
1
10
54.680823008089
20
-7.08738232497666
30
0
41
1
10
54.7858219062065
20
-7.56416194079458
30
0
41
1
10
54.8383213552652
20
-7.79156338639785
30
0
41
1
10
54.9433202533827
20
-8.22143000169081
30
0
41
1
10
54.9958197024414
20
-8.42389170697277
30
0
41
1
10
55.1008186005589
20
-8.80162333040064
30
0
41
1
10
55.1533180496176
20
-8.97689156928686
30
0
41
1
10
55.258316947735
20
-9.29877276575317
30
0
41
1
10
55.3108163967937
20
-9.44538588013489
30
0
41
1
10
55.4683147439699
20
-9.84126930735872
30
0
41
1
10
55.5733136420874
20
-10.0462351037818
30
0
41
1
10
55.6783125402049
20
-10.1942021128439
30
0
0
SPLINE
5
F7
100
AcDbEntity
8
1
62
256
6
ByLayer
370
13
48
1
60
0
100
AcDbSpline
70
4
71
3
72
78
73
74
40
0
40
0
40
0
40
0
40
0.0312499999999999
40
0.0312499999999999
40
0.0624999999999998
40
0.0624999999999998
40
0.0781249999999998
40
0.0781249999999998
40
0.0859374999999997
40
0.0859374999999997
40
0.0937499999999997
40
0.0937499999999997
40
0.125
40
0.125
40
0.15625
40
0.15625
40
0.1875
40
0.1875
40
0.218749999999999
40
0.218749999999999
40
0.249999999999999
40
0.249999999999999
40
0.281249999999999
40
0.281249999999999
40
0.312499999999999
40
0.312499999999999
40
0.343749999999999
40
0.343749999999999
40
0.374999999999999
40
0.374999999999999
40
0.406249999999999
40
0.406249999999999
40
0.437499999999999
40
0.437499999999999
40
0.468749999999999
40
0.468749999999999
40
0.499999999999999
40
0.499999999999999
40
0.531249999999998
40
0.531249999999998
40
0.539062499999998
40
0.539062499999998
40
0.546874999999998
40
0.546874999999998
40
0.562499999999998
40
0.562499999999998
40
0.593749999999998
40
0.593749999999998
40
0.624999999999999
40
0.624999999999999
40
0.656249999999999
40
0.656249999999999
40
0.687499999999999
40
0.687499999999999
40
0.718749999999999
40
0.718749999999999
40
0.749999999999999
40
0.749999999999999
40
0.781249999999999
40
0.781249999999999
40
0.812499999999999
40
0.812499999999999
40
0.843749999999999
40
0.843749999999999
40
0.875
40
0.875
40
0.90625
40
0.90625
40
0.9375
40
0.9375
40
0.96875
40
0.96875
40
1
40
1
40
1
40
1
41
1
10
44.7000000000001
20
-10.0511682980712
30
0
41
1
10
44.7628091217474
20
-10.1594973551393
30
0
41
1
10
44.8256182434947
20
-10.2471379539448
30
0
41
1
10
44.9512364869894
20
-10.3830296835828
30
0
41
1
10
45.0140456087367
20
-10.4312914720771
30
0
41
1
10
45.1082592913578
20
-10.4764454255836
30
0
41
1
10
45.1396638522314
20
-10.4869642482431
30
0
41
1
10
45.1867706935419
20
-10.496284782701
30
0
41
1
10
45.2024729739787
20
-10.4983156701038
30
0
41
1
10
45.2338775348524
20
-10.5002858524976
30
0
41
1
10
45.2495798152893
20
-10.500233308928
30
0
41
1
10
45.3280912174734
20
-10.4947705698395
30
0
41
1
10
45.3909003392207
20
-10.4736178692519
30
0
41
1
10
45.5165185827154
20
-10.394124201393
30
0
41
1
10
45.5793277044628
20
-10.3357721756603
30
0
41
1
10
45.7049459479574
20
-10.1790559169049
30
0
41
1
10
45.7677550697048
20
-10.0806813687584
30
0
41
1
10
45.8933733131994
20
-9.84224252892437
30
0
41
1
10
45.9561824349468
20
-9.70217024943454
30
0
41
1
10
46.0818006784415
20
-9.38008567291638
30
0
41
1
10
46.1446098001888
20
-9.19806926187084
30
0
41
1
10
46.2702280436835
20
-8.79346075393315
30
0
41
1
10
46.3330371654308
20
-8.5708695495986
30
0
41
1
10
46.4586554089255
20
-8.08814253728912
30
0
41
1
10
46.5214645306729
20
-7.82801300250367
30
0
41
1
10
46.6470827741675
20
-7.27480026147217
30
0
41
1
10
46.7098918959149
20
-6.98172814094775
30
0
41
1
10
46.8355101394096
20
-6.36851747848763
30
0
41
1
10
46.8983192611569
20
-6.04839339193714
30
0
41
1
10
47.0239375046516
20
-5.38787289040252
30
0
41
1
10
47.086746626399
20
-5.04749229796306
30
0
41
1
10
47.2123648698936
20
-4.35369741313028
30
0
41
1
10
47.2751739916409
20
-4.00029820882025
30
0
41
1
10
47.4007922351356
20
-3.2876775434155
30
0
41
1
10
47.463601356883
20
-2.92846868512166
30
0
41
1
10
47.5892196003777
20
-2.2109912855386
30
0
41
1
10
47.652028722125
20
-1.85273176338637
30
0
41
1
10
47.7776469656197
20
-1.14313881832706
30
0
41
1
10
47.840456087367
20
-0.791810474448823
30
0
41
1
10
47.9189674895511
20
-0.360101856262901
30
0
41
1
10
47.934669769988
20
-0.274130147256813
30
0
41
1
10
47.9660743308617
20
-0.102994232707289
30
0
41
1
10
47.9817766112985
20
-0.018101991438499
30
0
41
1
10
48.0288834526089
20
0.237431491562319
30
0
41
1
10
48.0602880134826
20
0.409465312315632
30
0
41
1
10
48.1545016961037
20
0.929790296924068
30
0
41
1
10
48.2173108178509
20
1.28233721460086
30
0
41
1
10
48.3429290613457
20
1.99363478080758
30
0
41
1
10
48.405738183093
20
2.35237983680287
30
0
41
1
10
48.5313564265878
20
3.06997898867556
30
0
41
1
10
48.5941655483351
20
3.42882355847351
30
0
41
1
10
48.7197837918297
20
4.13978608579239
30
0
41
1
10
48.7825929135771
20
4.49189103533357
30
0
41
1
10
48.9082111570718
20
5.18213821278107
30
0
41
1
10
48.971020278819
20
5.52026514472433
30
0
41
1
10
49.0966385223137
20
6.17534965431483
30
0
41
1
10
49.1594476440611
20
6.49229146637242
30
0
41
1
10
49.2850658875557
20
7.0983020846146
30
0
41
1
10
49.3478750093031
20
7.38735677169456
30
0
41
1
10
49.4734932527978
20
7.93184907250617
30
0
41
1
10
49.5363023745451
20
8.18727616721119
30
0
41
1
10
49.6619206180398
20
8.66010559879885
30
0
41
1
10
49.7247297397871
20
8.87750235794846
30
0
41
1
10
49.8503479832818
20
9.27144573116851
30
0
41
1
10
49.9131571050292
20
9.4479921511001
30
0
41
1
10
50.0387753485239
20
9.75907913664025
30
0
41
1
10
50.1015844702712
20
9.8936244027837
30
0
41
1
10
50.2272027137658
20
10.1211527267819
30
0
41
1
10
50.2900118355132
20
10.2141441709837
30
0
41
1
10
50.4156300790078
20
10.3604063092993
30
0
41
1
10
50.4784392007552
20
10.4136875035163
30
0
41
1
10
50.6040574442499
20
10.4834788240817
30
0
41
1
10
50.6668665659973
20
10.5
30
0
41
1
10
50.7296756877446
20
10.5
30
0
0
SPLINE
5
F8
100
AcDbEntity
8
1
62
256
6
ByLayer
370
13
48
1
60
0
100
AcDbSpline
70
4
71
3
72
78
73
74
40
0
40
0
40
0
40
0
40
0.03125
40
0.03125
40
0.0625000000000001
40
0.0625000000000001
40
0.0937500000000001
40
0.0937500000000001
40
0.125
40
0.125
40
0.15625
40
0.15625
40
0.1875
40
0.1875
40
0.21875
40
0.21875
40
0.25
40
0.25
40
0.28125
40
0.28125
40
0.3125
40
0.3125
40
0.34375
40
0.34375
40
0.375
40
0.375
40
0.40625
40
0.40625
40
0.4375
40
0.4375
40
0.46875
40
0.46875
40
0.484375000000001
40
0.484375000000001
40
0.492187500000001
40
0.492187500000001
40
0.500000000000001
40
0.500000000000001
40
0.531250000000001
40
0.531250000000001
40
0.562500000000001
40
0.562500000000001
40
0.593750000000001
40
0.593750000000001
40
0.625000000000001
40
0.625000000000001
40
0.656250000000001
40
0.656250000000001
40
0.687500000000001
40
0.687500000000001
40
0.718750000000001
40
0.718750000000001
40
0.750000000000001
40
0.750000000000001
40
0.781250000000001
40
0.781250000000001
40
0.8125
40
0.8125
40
0.84375
40
0.84375
40
0.875
40
0.875
40
0.90625
40
0.90625
40
0.9375
40
0.9375
40
0.96875
40
0.96875
40
0.984375
40
0.984375
40
0.9921875
40
0.9921875
40
1
40
1
40
1
40
1
41
1
10
50.1435016904292
20
10.5
30
0
41
1
10
50.2011559701144
20
10.5
30
0
41
1
10
50.2588102497995
20
10.4860829019268
30
0
41
1
10
50.3741188091698
20
10.4275274343655
30
0
41
1
10
50.431773088855
20
10.3828818688037
30
0
41
1
10
50.5470816482253
20
10.2605009867621
30
0
41
1
10
50.6047359279105
20
10.1827586943111
30
0
41
1
10
50.7200444872809
20
9.99256339553054
30
0
41
1
10
50.7776987669659
20
9.88010447800758
30
0
41
1
10
50.8930073263363
20
9.61979919994656
30
0
41
1
10
50.9506616060215
20
9.47194887706274
30
0
41
1
10
51.0659701653917
20
9.14127981183671
30
0
41
1
10
51.1236244450769
20
8.9584598131203
30
0
41
1
10
51.2389330044473
20
8.55944719550214
30
0
41
1
10
51.2965872841324
20
8.34325648045356
30
0
41
1
10
51.4118958435027
20
7.88026669117642
30
0
41
1
10
51.4695501231879
20
7.63347269802006
30
0
41
1
10
51.5848586825583
20
7.11310389938623
30
0
41
1
10
51.6425129622435
20
6.83953688681549
30
0
41
1
10
51.7578215216137
20
6.27031749956521
30
0
41
1
10
51.8154758012989
20
5.97467474967419
30
0
41
1
10
51.9307843606693
20
5.36660220645729
30
0
41
1
10
51.9884386403544
20
5.054182742563
30
0
41
1
10
52.1037471997248
20
4.41815410806345
30
0
41
1
10
52.1614014794099
20
4.09455481628365
30
0
41
1
10
52.2767100387803
20
3.44175532584555
30
0
41
1
10
52.3343643184654
20
3.11256358049403
30
0
41
1
10
52.4496728778357
20
2.45388091025887
30
0
41
1
10
52.5073271575209
20
2.12439636228439
30
0
41
1
10
52.6226357168913
20
1.46991809262923
30
0
41
1
10
52.6802899965764
20
1.14492839737073
30
0
41
1
10
52.7667714161041
20
0.663903109721304
30
0
41
1
10
52.7955985559468
20
0.504632305448666
30
0
41
1
10
52.8388392657106
20
0.267665919017929
30
0
41
1
10
52.8532528356318
20
0.189000053730439
30
0
41
1
10
52.8820799754744
20
0.0323652354532271
30
0
41
1
10
52.8964935453957
20
-0.0454456505886469
30
0
41
1
10
52.9685613950022
20
-0.437226761711145
30
0
41
1
10
53.0262156746874
20
-0.756234723898785
30
0
41
1
10
53.1415242340577
20
-1.40185073737263
30
0
41
1
10
53.1991785137428
20
-1.72845646387071
30
0
41
1
10
53.3144870731131
20
-2.38496349217044
30
0
41
1
10
53.3721413527983
20
-2.71486014110695
30
0
41
1
10
53.4874499121686
20
-3.37301042160595
30
0
41
1
10
53.5451041918537
20
-3.70125708610539
30
0
41
1
10
53.6604127512242
20
-4.35070940757436
30
0
41
1
10
53.7180670309093
20
-4.67190615677362
30
0
41
1
10
53.8333755902796
20
-5.30164121916769
30
0
41
1
10
53.8910298699648
20
-5.61016942928649
30
0
41
1
10
54.0063384293351
20
-6.20901896665166
30
0
41
1
10
54.0639927090203
20
-6.4993300353643
30
0
41
1
10
54.1793012683907
20
-7.05657553150971
30
0
41
1
10
54.2369555480758
20
-7.32350071460829
30
0
41
1
10
54.3522641074462
20
-7.8294805053616
30
0
41
1
10
54.4099183871313
20
-8.06852796510447
30
0
41
1
10
54.5252269465017
20
-8.51518411443578
30
0
41
1
10
54.5828812261868
20
-8.72278853585456
30
0
41
1
10
54.6981897855571
20
-9.10409007878343
30
0
41
1
10
54.7558440652423
20
-9.2777861518108
30
0
41
1
10
54.8711526246126
20
-9.58998274708725
30
0
41
1
10
54.9288069042978
20
-9.72848529941021
30
0
41
1
10
55.0441154636681
20
-9.97017116530296
30
0
41
1
10
55.1017697433533
20
-10.0733590375941
30
0
41
1
10
55.2170783027236
20
-10.2453551138828
30
0
41
1
10
55.2747325824088
20
-10.3141695970768
30
0
41
1
10
55.3900411417791
20
-10.4192558395742
30
0
41
1
10
55.4476954214642
20
-10.4555347101313
30
0
41
1
10
55.534176840992
20
-10.4874434706102
30
0
41
1
10
55.5630039808347
20
-10.4943328623129
30
0
41
1
10
55.6062446905985
20
-10.4993182472552
30
0
41
1
10
55.6206582605198
20
-10.5000889446174
30
0
41
1
10
55.6494854003623
20
-10.4998948029105
30
0
41
1
10
55.6638989702836
20
-10.4989275688448
30
0
41
1
10
55.6783125402049
20
-10.4970664848188
30
0
0
SPLINE
5
F9
100
AcDbEntity
8
1
62
256
6
ByLayer
370
13
48
1
60
0
100
AcDbSpline
70
4
71
3
72
77
73
73
40
0
40
0
40
0
40
0
40
0.0078125000000002
40
0.0078125000000002
40
0.0156250000000005
40
0.0156250000000005
40
0.0312500000000007
40
0.0312500000000007
40
0.0625000000000014
40
0.0625000000000014
40
0.0937500000000021
40
0.0937500000000021
40
0.125000000000003
40
0.125000000000003
40
0.156250000000003
40
0.156250000000003
40
0.187500000000004
40
0.187500000000004
40
0.218750000000005
40
0.218750000000005
40
0.250000000000006
40
0.250000000000006
40
0.281250000000006
40
0.281250000000006
40
0.312500000000007
40
0.312500000000007
40
0.343750000000008
40
0.343750000000008
40
0.375000000000008
40
0.375000000000008
40
0.406250000000009
40
0.406250000000009
40
0.43750000000001
40
0.43750000000001
40
0.46875000000001
40
0.46875000000001
40
0.500000000000011
40
0.500000000000011
40
0.507812500000011
40
0.507812500000011
40
0.515625000000011
40
0.531250000000011
40
0.531250000000011
40
0.56250000000001
40
0.56250000000001
40
0.593750000000009
40
0.593750000000009
40
0.625000000000009
40
0.625000000000009
40
0.656250000000008
40
0.656250000000008
40
0.687500000000007
40
0.687500000000007
40
0.718750000000007
40
0.718750000000007
40
0.750000000000006
40
0.750000000000006
40
0.781250000000005
40
0.781250000000005
40
0.812500000000004
40
0.812500000000004
40
0.843750000000004
40
0.843750000000004
40
0.875000000000003
40
0.875000000000003
40
0.906250000000002
40
0.906250000000002
40
0.937500000000002
40
0.937500000000002
40
0.968750000000001
40
0.968750000000001
40
1
40
1
40
1
40
1
41
1
10
44.7000000000001
20
-10.4970663430648
30
0
41
1
10
44.7144135727803
20
-10.4989274728446
30
0
41
1
10
44.7288271455605
20
-10.499894751717
30
0
41
1
10
44.757654291121
20
-10.5000889811361
30
0
41
1
10
44.7720678639011
20
-10.4993183276334
30
0
41
1
10
44.8153085822418
20
-10.4943330753376
30
0
41
1
10
44.8441357278023
20
-10.4874437729951
30
0
41
1
10
44.9306171644836
20
-10.455535282571
30
0
41
1
10
44.9882714556046
20
-10.4192565947084
30
0
41
1
10
45.1035800378464
20
-10.3141707178887
30
0
41
1
10
45.1612343289672
20
-10.2453564176684
30
0
41
1
10
45.2765429112091
20
-10.0733607018509
30
0
41
1
10
45.33419720233
20
-9.97017300704357
30
0
41
1
10
45.4495057845718
20
-9.72848748449678
30
0
41
1
10
45.5071600756927
20
-9.58998509801947
30
0
41
1
10
45.6224686579345
20
-9.2777888167422
30
0
41
1
10
45.6801229490555
20
-9.10409289185108
30
0
41
1
10
45.7954315312972
20
-8.72279162202287
30
0
41
1
10
45.8530858224182
20
-8.51518732555292
30
0
41
1
10
45.96839440466
20
-8.06853139856267
30
0
41
1
10
46.0260486957809
20
-7.82948403620071
30
0
41
1
10
46.1413572780227
20
-7.32350440977581
30
0
41
1
10
46.1990115691436
20
-7.05657929361959
30
0
41
1
10
46.3143201513854
20
-6.49933389980888
30
0
41
1
10
46.3719744425063
20
-6.20902286649044
30
0
41
1
10
46.4872830247482
20
-5.61017336905661
30
0
41
1
10
46.544937315869
20
-5.30164516348324
30
0
41
1
10
46.6602458981109
20
-4.67191008166907
30
0
41
1
10
46.7179001892317
20
-4.35071330851724
30
0
41
1
10
46.8332087714736
20
-3.70126091430487
30
0
41
1
10
46.8908630625945
20
-3.37301420102986
30
0
41
1
10
47.0061716448363
20
-2.71486380270736
30
0
41
1
10
47.0638259359572
20
-2.38496708473809
30
0
41
1
10
47.179134518199
20
-1.72845990309401
30
0
41
1
10
47.2367888093199
20
-1.40185409229741
30
0
41
1
10
47.3520973915616
20
-0.756237899937986
30
0
41
1
10
47.4097516826826
20
-0.4372298431731
30
0
41
1
10
47.4818195465837
20
-0.0454486102981093
30
0
41
1
10
47.496233119364
20
0.0323622926458143
30
0
41
1
10
47.5250602649244
20
0.188997124580538
30
0
41
1
10
47.5683009832651
20
0.424993995991457
30
0
41
1
10
47.6115417016058
20
0.663900228294551
30
0
41
1
10
47.6980231382872
20
1.14492557318988
30
0
41
1
10
47.7556774294081
20
1.46991531391524
30
0
41
1
10
47.8709860116498
20
2.12439368872884
30
0
41
1
10
47.9286403027708
20
2.45387829639756
30
0
41
1
10
48.0439488850125
20
3.11256109900972
30
0
41
1
10
48.1016031761335
20
3.44175291704363
30
0
41
1
10
48.2169117583753
20
4.09455256369904
30
0
41
1
10
48.2745660494962
20
4.41815193900973
30
0
41
1
10
48.389874631738
20
5.0541807484536
30
0
41
1
10
48.4475289228589
20
5.36660030375373
30
0
41
1
10
48.5628375051007
20
5.97467303403693
30
0
41
1
10
48.6204917962216
20
6.27031587957802
30
0
41
1
10
48.7358003784635
20
6.83953545837232
30
0
41
1
10
48.7934546695844
20
7.11310256682523
30
0
41
1
10
48.9087632518261
20
7.63347155341384
30
0
41
1
10
48.9664175429471
20
7.88026563863144
30
0
41
1
10
49.0817261251889
20
8.34325560448121
30
0
41
1
10
49.1393804163098
20
8.55944640403197
30
0
41
1
10
49.2546889985516
20
8.95845917999361
30
0
41
1
10
49.3123432896725
20
9.14127925254559
30
0
41
1
10
49.4276518719143
20
9.47194845252926
30
0
41
1
10
49.4853061630352
20
9.61979883633342
30
0
41
1
10
49.6006147452771
20
9.88010422204115
30
0
41
1
10
49.6582690363979
20
9.99256318629256
30
0
41
1
10
49.7735776186398
20
10.1827585640214
30
0
41
1
10
49.8312319097607
20
10.2605008886973
30
0
41
1
10
49.9465404920024
20
10.3828818212228
30
0
41
1
10
50.0041947831234
20
10.4275274050503
30
0
41
1
10
50.1195033653652
20
10.4860828963985
30
0
41
1
10
50.1771576564861
20
10.5
30
0
41
1
10
50.234811947607
20
10.5
30
0
0
SPLINE
5
FA
100
AcDbEntity
8
1
62
256
6
ByLayer
370
13
48
1
60
0
100
AcDbSpline
70
4
71
3
72
77
73
73
40
0
40
0
40
0
40
0
40
0.0312499999999997
40
0.0312499999999997
40
0.0624999999999994
40
0.0624999999999994
40
0.0937499999999991
40
0.0937499999999991
40
0.124999999999999
40
0.124999999999999
40
0.156249999999999
40
0.156249999999999
40
0.187499999999998
40
0.187499999999998
40
0.218749999999998
40
0.218749999999998
40
0.249999999999998
40
0.249999999999998
40
0.281249999999997
40
0.281249999999997
40
0.312499999999997
40
0.312499999999997
40
0.343749999999997
40
0.343749999999997
40
0.374999999999996
40
0.374999999999996
40
0.406249999999996
40
0.406249999999996
40
0.437499999999996
40
0.437499999999996
40
0.453124999999995
40
0.453124999999995
40
0.460937499999996
40
0.460937499999996
40
0.468749999999996
40
0.468749999999996
40
0.499999999999996
40
0.499999999999996
40
0.531249999999996
40
0.531249999999996
40
0.562499999999997
40
0.562499999999997
40
0.593749999999997
40
0.593749999999997
40
0.624999999999997
40
0.624999999999997
40
0.656249999999997
40
0.656249999999997
40
0.687499999999998
40
0.687499999999998
40
0.718749999999998
40
0.718749999999998
40
0.749999999999998
40
0.749999999999998
40
0.781249999999998
40
0.781249999999998
40
0.812499999999999
40
0.812499999999999
40
0.843749999999999
40
0.843749999999999
40
0.874999999999999
40
0.874999999999999
40
0.906249999999999
40
0.906249999999999
40
0.914062499999999
40
0.914062499999999
40
0.921875
40
0.9375
40
0.9375
40
0.96875
40
0.96875
40
1
40
1
40
1
40
1
41
1
10
49.6486379502916
20
10.5
30
0
41
1
10
49.7114470606032
20
10.5
30
0
41
1
10
49.7742561709148
20
10.4834788301076
30
0
41
1
10
49.899874391538
20
10.4136875356115
30
0
41
1
10
49.9626835018496
20
10.360406361448
30
0
41
1
10
50.0883017224727
20
10.2141442786159
30
0
41
1
10
50.1511108327844
20
10.1211528698534
30
0
41
1
10
50.2767290534076
20
9.89362463254977
30
0
41
1
10
50.3395381637191
20
9.75907941766775
30
0
41
1
10
50.4651563843423
20
9.44799254975285
30
0
41
1
10
50.5279654946539
20
9.27144619618619
30
0
41
1
10
50.6535837152772
20
8.87750296881777
30
0
41
1
10
50.7163928255887
20
8.66010628914995
30
0
41
1
10
50.842011046212
20
8.18727702645648
30
0
41
1
10
50.9048201565235
20
7.93185002115297
30
0
41
1
10
51.0304383771467
20
7.3873579049131
30
0
41
1
10
51.0932474874583
20
7.09830331298824
30
0
41
1
10
51.2188657080815
20
6.49229288609087
30
0
41
1
10
51.2816748183931
20
6.17535117020628
30
0
41
1
10
51.4072930390163
20
5.52026684918013
30
0
41
1
10
51.4701021493279
20
5.18214000961291
30
0
41
1
10
51.5957203699511
20
4.49189300872879
30
0
41
1
10
51.6585294802627
20
4.13978814336377
30
0
41
1
10
51.7841477008859
20
3.42882577261716
30
0
41
1
10
51.8469568111975
20
3.06998127520961
30
0
41
1
10
51.9725750318207
20
2.3523822538219
30
0
41
1
10
52.0353841421323
20
1.99363725592093
30
0
41
1
10
52.1610023627555
20
1.28233979025723
30
0
41
1
10
52.2238114730671
20
0.929792915033346
30
0
41
1
10
52.3180251385345
20
0.409467982184765
30
0
41
1
10
52.3494296936903
20
0.237434176706301
30
0
41
1
10
52.396536526424
20
-0.0180992863067218
30
0
41
1
10
52.4122388040019
20
-0.102991499390527
30
0
41
1
10
52.4436433591577
20
-0.274127365439966
30
0
41
1
10
52.4593456367355
20
-0.360099050399953
30
0
41
1
10
52.537857024625
20
-0.791807549581961
30
0
41
1
10
52.6006661349367
20
-1.1431358021625
30
0
41
1
10
52.7262843555598
20
-1.85272857811665
30
0
41
1
10
52.7890934658714
20
-2.21098802247741
30
0
41
1
10
52.9147116864946
20
-2.92846528594657
30
0
41
1
10
52.9775207968062
20
-3.28767408593816
30
0
41
1
10
53.1031390174294
20
-4.00029465991551
30
0
41
1
10
53.165948127741
20
-4.3536938311222
30
0
41
1
10
53.2915663483642
20
-5.04748867972057
30
0
41
1
10
53.3543754586758
20
-5.38786926904857
30
0
41
1
10
53.479993679299
20
-6.04838979757841
30
0
41
1
10
53.5428027896106
20
-6.36851391424892
30
0
41
1
10
53.6684210102338
20
-6.9817246713551
30
0
41
1
10
53.7312301205454
20
-7.27479685640938
30
0
41
1
10
53.8568483411686
20
-7.82800975976801
30
0
41
1
10
53.9196574514802
20
-8.08813939234398
30
0
41
1
10
54.0452756721035
20
-8.57086663007917
30
0
41
1
10
54.1080847824149
20
-8.79345796203268
30
0
41
1
10
54.2337030030382
20
-9.19806674970033
30
0
41
1
10
54.2965121133497
20
-9.38008331283433
30
0
41
1
10
54.422130333973
20
-9.70216821133576
30
0
41
1
10
54.4849394442846
20
-9.84224066069595
30
0
41
1
10
54.6105576649078
20
-10.0806798507792
30
0
41
1
10
54.6733667752193
20
-10.1790545792824
30
0
41
1
10
54.7989849958426
20
-10.335771202063
30
0
41
1
10
54.8617941061541
20
-10.3941234114474
30
0
41
1
10
54.9874123267774
20
-10.473617443419
30
0
41
1
10
55.0502214370889
20
-10.4947703244575
30
0
41
1
10
55.1287328249784
20
-10.5002332837408
30
0
41
1
10
55.1444351025563
20
-10.5002858707189
30
0
41
1
10
55.1758396577121
20
-10.4983157777882
30
0
41
1
10
55.2229464904458
20
-10.4922239045527
30
0
41
1
10
55.2700533231795
20
-10.4764458171256
30
0
41
1
10
55.3642669886469
20
-10.4312921688117
30
0
41
1
10
55.4270760989585
20
-10.3830305999494
30
0
41
1
10
55.5526943195816
20
-10.2471393385796
30
0
41
1
10
55.6155034298932
20
-10.1594989884138
30
0
41
1
10
55.6783125402049
20
-10.0511701915365
30
0
0
SPLINE
5
FB
100
AcDbEntity
8
1
62
256
6
ByLayer
370
13
48
1
60
0
100
AcDbSpline
70
4
71
3
72
58
73
54
40
0
40
0
40
0
40
0
40
0.0625000000000001
40
0.0625000000000001
40
0.0937500000000001
40
0.0937500000000001
40
0.125
40
0.125
40
0.15625
40
0.15625
40
0.1875
40
0.1875
40
0.21875
40
0.21875
40
0.25
40
0.25
40
0.28125
40
0.28125
40
0.3125
40
0.3125
40
0.375
40
0.375
40
0.4375
40
0.4375
40
0.453125
40
0.453125
40
0.4609375
40
0.4609375
40
0.46875
40
0.46875
40
0.5
40
0.5
40
0.5625
40
0.5625
40
0.625
40
0.625
40
0.65625
40
0.65625
40
0.6875
40
0.6875
40
0.71875
40
0.71875
40
0.75
40
0.75
40
0.78125
40
0.78125
40
0.8125
40
0.8125
40
0.875
40
0.875
40
0.9375
40
0.9375
40
1
40
1
40
1
40
1
41
1
10
44.7000000000001
20
-10.1942036599324
30
0
41
1
10
44.804998920989
20
-10.0462370127597
30
0
41
1
10
44.9099978419779
20
-9.84127156973946
30
0
41
1
10
45.0674962234613
20
-9.44538862945737
30
0
41
1
10
45.1199956839558
20
-9.29877567018374
30
0
41
1
10
45.2249946049447
20
-8.97689476477746
30
0
41
1
10
45.2774940654392
20
-8.80162666183173
30
0
41
1
10
45.3824929864282
20
-8.42389528703745
30
0
41
1
10
45.4349924469226
20
-8.22143369443913
30
0
41
1
10
45.5399913679116
20
-7.79156727817119
30
0
41
1
10
45.592490828406
20
-7.56416591890314
30
0
41
1
10
45.697489749395
20
-7.08738644755366
30
0
41
1
10
45.7499892098895
20
-6.83801330644394
30
0
41
1
10
45.8549881308784
20
-6.32084345986164
30
0
41
1
10
45.9074875913729
20
-6.05305276238718
30
0
41
1
10
46.0124865123618
20
-5.50302102836403
30
0
41
1
10
46.0649859728563
20
-5.22078645120612
30
0
41
1
10
46.1699848938453
20
-4.64607085272064
30
0
41
1
10
46.2224843543397
20
-4.35359613560365
30
0
41
1
10
46.3799827358231
20
-3.46716346721357
30
0
41
1
10
46.4849816568121
20
-2.86436255712823
30
0
41
1
10
46.69497949879
20
-1.66662764966767
30
0
41
1
10
46.7999784197789
20
-1.07179675524779
30
0
41
1
10
46.9312270710151
20
-0.348989304680316
30
0
41
1
10
46.9574768012624
20
-0.205444986840575
30
0
41
1
10
46.9968513966332
20
0.0081116124269727
30
0
41
1
10
47.0099762617568
20
0.0790516428733099
30
0
41
1
10
47.036225992004
20
0.22189529136827
30
0
41
1
10
47.0493508571277
20
0.293602535460025
30
0
41
1
10
47.1149751827458
20
0.653468778604264
30
0
41
1
10
47.1674746432402
20
0.945638197736514
30
0
41
1
10
47.3249730247236
20
1.8307551317904
30
0
41
1
10
47.4299719457126
20
2.43252047061205
30
0
41
1
10
47.6399697876905
20
3.63120549565471
30
0
41
1
10
47.7449687086794
20
4.22798695519444
30
0
41
1
10
47.9024670901629
20
5.09446214201341
30
0
41
1
10
47.9549665506573
20
5.37847862226863
30
0
41
1
10
48.0599654716462
20
5.93268594137234
30
0
41
1
10
48.1124649321407
20
6.20287030632505
30
0
41
1
10
48.2174638531297
20
6.72539309934251
30
0
41
1
10
48.2699633136242
20
6.97772541416722
30
0
41
1
10
48.3749622346131
20
7.46091565837199
30
0
41
1
10
48.4274616951076
20
7.69176843008904
30
0
41
1
10
48.5324606160965
20
8.12893432133529
30
0
41
1
10
48.584960076591
20
8.33524373093297
30
0
41
1
10
48.6899589975799
20
8.72095560804101
30
0
41
1
10
48.7424584580744
20
8.90035612353881
30
0
41
1
10
48.8999568395578
20
9.39582219482625
30
0
41
1
10
49.0049557605468
20
9.66875599987577
30
0
41
1
10
49.2149536025246
20
10.0968971605411
30
0
41
1
10
49.3199525235136
20
10.252197976662
30
0
41
1
10
49.5299503654915
20
10.4536794512729
30
0
41
1
10
49.6349492864805
20
10.5
30
0
41
1
10
49.7399482074694
20
10.5
30
0
0
SPLINE
5
FC
100
AcDbEntity
8
1
62
256
6
ByLayer
370
13
48
1
60
0
100
AcDbSpline
70
4
71
3
72
78
73
74
40
0
40
0
40
0
40
0
40
0.0312499999999995
40
0.0312499999999995
40
0.062499999999999
40
0.062499999999999
40
0.0937499999999986
40
0.0937499999999986
40
0.124999999999998
40
0.124999999999998
40
0.156249999999998
40
0.156249999999998
40
0.187499999999997
40
0.187499999999997
40
0.218749999999997
40
0.218749999999997
40
0.249999999999996
40
0.249999999999996
40
0.281249999999996
40
0.281249999999996
40
0.312499999999995
40
0.312499999999995
40
0.343749999999995
40
0.343749999999995
40
0.374999999999994
40
0.374999999999994
40
0.406249999999994
40
0.406249999999994
40
0.414062499999994
40
0.414062499999994
40
0.421874999999994
40
0.421874999999994
40
0.437499999999994
40
0.437499999999994
40
0.468749999999995
40
0.468749999999995
40
0.499999999999995
40
0.499999999999995
40
0.531249999999995
40
0.531249999999995
40
0.562499999999996
40
0.562499999999996
40
0.593749999999996
40
0.593749999999996
40
0.624999999999997
40
0.624999999999997
40
0.656249999999997
40
0.656249999999997
40
0.687499999999997
40
0.687499999999997
40
0.718749999999997
40
0.718749999999997
40
0.749999999999998
40
0.749999999999998
40
0.781249999999998
40
0.781249999999998
40
0.812499999999998
40
0.812499999999998
40
0.828124999999999
40
0.828124999999999
40
0.835937499999999
40
0.835937499999999
40
0.843749999999999
40
0.843749999999999
40
0.874999999999999
40
0.874999999999999
40
0.906249999999999
40
0.906249999999999
40
0.937499999999999
40
0.937499999999999
40
0.96875
40
0.96875
40
1
40
1
40
1
40
1
41
1
10
49.153774210154
20
10.5
30
0
41
1
10
49.221738151092
20
10.5
30
0
41
1
10
49.2897020920301
20
10.4806502679837
30
0
41
1
10
49.4256299739061
20
10.3985891364694
30
0
41
1
10
49.4935939148441
20
10.335861349003
30
0
41
1
10
49.6295217967202
20
10.1634528910709
30
0
41
1
10
49.6974857376582
20
10.0537570126262
30
0
41
1
10
49.8334136195343
20
9.78540622242153
30
0
41
1
10
49.9013775604723
20
9.62674002929811
30
0
41
1
10
50.0373054423484
20
9.26043579772099
30
0
41
1
10
50.1052693832864
20
9.05279302723451
30
0
41
1
10
50.2411972651625
20
8.59076609467184
30
0
41
1
10
50.3091612061005
20
8.33638548667139
30
0
41
1
10
50.4450890879766
20
7.78537979105792
30
0
41
1
10
50.5130530289146
20
7.48876674710948
30
0
41
1
10
50.6489809107906
20
6.85982466261621
30
0
41
1
10
50.7169448517287
20
6.52751458845859
30
0
41
1
10
50.8528727336048
20
5.83526558091736
30
0
41
1
10
50.9208366745428
20
5.47534952738937
30
0
41
1
10
51.0567645564188
20
4.73689387119038
30
0
41
1
10
51.1247284973568
20
4.35837740702669
30
0
41
1
10
51.2606563792329
20
3.59193974510669
30
0
41
1
10
51.328620320171
20
3.20403859802136
30
0
41
1
10
51.464548202047
20
2.42760372582876
30
0
41
1
10
51.5325121429851
20
2.03908467528834
30
0
41
1
10
51.6684400248611
20
1.26921092341249
30
0
41
1
10
51.7364039657991
20
0.887864609311919
30
0
41
1
10
51.8213588919717
20
0.419705380185832
30
0
41
1
10
51.8383498772062
20
0.326496217995043
30
0
41
1
10
51.8723318476752
20
0.141009916536575
30
0
41
1
10
51.8893228329097
20
0.0489719939108113
30
0
41
1
10
51.9402957886132
20
-0.227277386285124
30
0
41
1
10
51.9742777590823
20
-0.413423003628367
30
0
41
1
10
52.0762236704893
20
-0.97677123199
30
0
41
1
10
52.1441876114273
20
-1.35892909535332
30
0
41
1
10
52.2801154933034
20
-2.12986236300924
30
0
41
1
10
52.3480794342414
20
-2.51862888723926
30
0
41
1
10
52.4840073161175
20
-3.29490390375881
30
0
41
1
10
52.5519712570555
20
-3.68239725077501
30
0
41
1
10
52.6878991389316
20
-4.44730822376374
30
0
41
1
10
52.7558630798696
20
-4.8247054586279
30
0
41
1
10
52.8917909617456
20
-5.56020281389249
30
0
41
1
10
52.9597549026836
20
-5.91827968594154
30
0
41
1
10
53.0956827845597
20
-6.60617638492857
30
0
41
1
10
53.1636467254978
20
-6.93597350841171
30
0
41
1
10
53.2995746073739
20
-7.5593154503182
30
0
41
1
10
53.3675385483119
20
-7.85284174926818
30
0
41
1
10
53.5034664301879
20
-8.39724373892005
30
0
41
1
10
53.5714303711259
20
-8.6481080149002
30
0
41
1
10
53.707358253002
20
-9.1028438701596
30
0
41
1
10
53.77532219394
20
-9.30671257247761
30
0
41
1
10
53.9112500758161
20
-9.66538969986064
30
0
41
1
10
53.9792140167542
20
-9.82020344713288
30
0
41
1
10
54.1151418986302
20
-10.0809379517696
30
0
41
1
10
54.1831058395682
20
-10.1868703977786
30
0
41
1
10
54.3190337214443
20
-10.3519810153467
30
0
41
1
10
54.3869976623823
20
-10.41117458277
30
0
41
1
10
54.4889435737894
20
-10.4676690577611
30
0
41
1
10
54.5229255442583
20
-10.4811285350316
30
0
41
1
10
54.5738984999619
20
-10.4936831589593
30
0
41
1
10
54.5908894851964
20
-10.4965960732135
30
0
41
1
10
54.6248714556655
20
-10.4999535724686
30
0
41
1
10
54.6418624409
20
-10.5004034602012
30
0
41
1
10
54.7268173670725
20
-10.4966130935543
30
0
41
1
10
54.7947813080105
20
-10.4740335293422
30
0
41
1
10
54.9307091898865
20
-10.3851861991232
30
0
41
1
10
54.9986731308246
20
-10.318902046767
30
0
41
1
10
55.1346010127006
20
-10.1391611633003
30
0
41
1
10
55.2025649536387
20
-10.025689429162
30
0
41
1
10
55.3384928355148
20
-9.74970974488448
30
0
41
1
10
55.4064567764528
20
-9.58719093706307
30
0
41
1
10
55.5423846583288
20
-9.21327306202866
30
0
41
1
10
55.6103485992668
20
-9.00186986389863
30
0
41
1
10
55.6783125402049
20
-8.76723147787359
30
0
0
SPLINE
5
FD
100
AcDbEntity
8
1
62
256
6
ByLayer
370
13
48
1
60
0
100
AcDbSpline
70
4
71
3
72
44
73
40
40
0
40
0
40
0
40
0
40
0.0625
40
0.0625
40
0.125
40
0.125
40
0.1875
40
0.1875
40
0.25
40
0.25
40
0.3125
40
0.3125
40
0.375
40
0.375
40
0.390625
40
0.390625
40
0.3984375
40
0.3984375
40
0.40625
40
0.40625
40
0.4375
40
0.4375
40
0.5
40
0.5
40
0.5625
40
0.5625
40
0.625
40
0.625
40
0.6875
40
0.6875
40
0.75
40
0.75
40
0.8125
40
0.8125
40
0.875
40
0.875
40
0.9375
40
0.9375
40
1
40
1
40
1
40
1
41
1
10
44.7000000000001
20
-9.06839944892056
30
0
41
1
10
44.7946892597361
20
-8.77082036383447
30
0
41
1
10
44.8893785194722
20
-8.42664888304174
30
0
41
1
10
45.0787570389443
20
-7.65622375927177
30
0
41
1
10
45.1734462986804
20
-7.23003393780684
30
0
41
1
10
45.3628248181526
20
-6.31430482848427
30
0
41
1
10
45.4575140778887
20
-5.82487507780425
30
0
41
1
10
45.6468925973609
20
-4.80633986278545
30
0
41
1
10
45.7415818570969
20
-4.27735624014915
30
0
41
1
10
45.9309603765691
20
-3.20471859791965
30
0
41
1
10
46.0256496363052
20
-2.66116436617608
30
0
41
1
10
46.2150281557773
20
-1.5822726735712
30
0
41
1
10
46.3097174155134
20
-1.04699265471291
30
0
41
1
10
46.4280789901835
20
-0.394496452813968
30
0
41
1
10
46.4517513051175
20
-0.264814508489053
30
0
41
1
10
46.4872597775186
20
-0.0716914635151227
30
0
41
1
10
46.4990959349855
20
-0.0077097253902707
30
0
41
1
10
46.5227682499196
20
0.120649456952805
30
0
41
1
10
46.5346044073866
20
0.185067828820053
30
0
41
1
10
46.5937851947216
20
0.508284258456342
30
0
41
1
10
46.6411298245896
20
0.77046960859019
30
0
41
1
10
46.7831637141938
20
1.56487194745185
30
0
41
1
10
46.8778529739298
20
2.1050836131426
30
0
41
1
10
47.067231493402
20
3.18687293751
30
0
41
1
10
47.1619207531381
20
3.72837841560889
30
0
41
1
10
47.3512992726102
20
4.78893205007944
30
0
41
1
10
47.4459885323463
20
5.30787017936427
30
0
41
1
10
47.6353670518185
20
6.29833150721927
30
0
41
1
10
47.7300563115545
20
6.76973275843298
30
0
41
1
10
47.9194348310267
20
7.64262476196006
30
0
41
1
10
48.0141240907628
20
8.0440176697104
30
0
41
1
10
48.203502610235
20
8.76029795085972
30
0
41
1
10
48.298191869971
20
9.07514085802131
30
0
41
1
10
48.4875703894431
20
9.60985933768734
30
0
41
1
10
48.5822596491793
20
9.82975204634303
30
0
41
1
10
48.7716381686514
20
10.1746597982139
30
0
41
1
10
48.8663274283875
20
10.2997390500302
30
0
41
1
10
49.0557059478597
20
10.4623668475127
30
0
41
1
10
49.1503952075958
20
10.5
30
0
41
1
10
49.2450844673318
20
10.5
30
0
0
SPLINE
5
FE
100
AcDbEntity
8
1
62
256
6
ByLayer
370
13
48
1
60
0
100
AcDbSpline
70
4
71
3
72
76
73
72
40
0
40
0
40
0
40
0
40
0.0312499999999999
40
0.0312499999999999
40
0.0624999999999998
40
0.0624999999999998
40
0.0937499999999997
40
0.0937499999999997
40
0.125
40
0.125
40
0.15625
40
0.15625
40
0.187499999999999
40
0.187499999999999
40
0.218749999999999
40
0.218749999999999
40
0.249999999999999
40
0.249999999999999
40
0.281249999999999
40
0.281249999999999
40
0.312499999999999
40
0.312499999999999
40
0.343749999999999
40
0.343749999999999
40
0.374999999999999
40
0.374999999999999
40
0.390624999999999
40
0.390624999999999
40
0.406249999999999
40
0.406249999999999
40
0.437499999999999
40
0.437499999999999
40
0.468749999999999
40
0.468749999999999
40
0.499999999999999
40
0.499999999999999
40
0.531249999999999
40
0.531249999999999
40
0.562499999999999
40
0.562499999999999
40
0.593749999999999
40
0.593749999999999
40
0.625
40
0.625
40
0.65625
40
0.65625
40
0.6875
40
0.6875
40
0.71875
40
0.71875
40
0.75
40
0.75
40
0.78125
40
0.78125
40
0.7890625
40
0.7890625
40
0.796875
40
0.796875
40
0.8125
40
0.8125
40
0.84375
40
0.84375
40
0.875
40
0.875
40
0.90625
40
0.90625
40
0.9375
40
0.9375
40
0.96875
40
0.96875
40
1
40
1
40
1
40
1
41
1
10
48.6589104700164
20
10.5
30
0
41
1
10
48.7320292415809
20
10.5
30
0
41
1
10
48.8051480131453
20
10.4775967598584
30
0
41
1
10
48.9513855562743
20
10.3822216311041
30
0
41
1
10
49.0245043278387
20
10.3092261499886
30
0
41
1
10
49.1707418709676
20
10.108385651599
30
0
41
1
10
49.2438606425321
20
9.98051934221115
30
0
41
1
10
49.390098185661
20
9.6678711397829
30
0
41
1
10
49.4632169572255
20
9.48307485840542
30
0
41
1
10
49.6094545003544
20
9.05726885774246
30
0
41
1
10
49.6825732719189
20
8.8162557788861
30
0
41
1
10
49.8288108150478
20
8.28176758510102
30
0
41
1
10
49.9019295866123
20
7.9883023321421
30
0
41
1
10
50.0481671297412
20
7.35561888540585
30
0
41
1
10
50.1212859013056
20
7.01642299060813
30
0
41
1
10
50.2675234444346
20
6.30145643429444
30
0
41
1
10
50.3406422159991
20
5.92571669646659
30
0
41
1
10
50.486879759128
20
5.14849394976457
30
0
41
1
10
50.5599985306924
20
4.74704473352338
30
0
41
1
10
50.7062360738214
20
3.92989364148008
30
0
41
1
10
50.7793548453859
20
3.51422249306324
30
0
41
1
10
50.9255923885148
20
2.67978708253509
30
0
41
1
10
50.9987111600792
20
2.26104602567264
30
0
41
1
10
51.1449487032082
20
1.43047492203192
30
0
41
1
10
51.2180674747726
20
1.01865847580515
30
0
41
1
10
51.3277456321193
20
0.412335201649739
30
0
41
1
10
51.3643050179015
20
0.212113082316364
30
0
41
1
10
51.437423789466
20
-0.183709226800005
30
0
41
1
10
51.4739831752482
20
-0.383514937912622
30
0
41
1
10
51.5836613325949
20
-0.989295176968938
30
0
41
1
10
51.6567801041594
20
-1.40083691359348
30
0
41
1
10
51.8030176472883
20
-2.2310781288833
30
0
41
1
10
51.8761364188528
20
-2.64976424195777
30
0
41
1
10
52.0223739619817
20
-3.48434498621117
30
0
41
1
10
52.0954927335462
20
-3.90021662770619
30
0
41
1
10
52.2417302766751
20
-4.71804302757704
30
0
41
1
10
52.3148490482396
20
-5.11996719496787
30
0
41
1
10
52.4610865913685
20
-5.89841116232842
30
0
41
1
10
52.5342053629329
20
-6.27489717675229
30
0
41
1
10
52.6804429060618
20
-6.99160017209445
30
0
41
1
10
52.7535616776263
20
-7.33178608904217
30
0
41
1
10
52.8997992207552
20
-7.96664357252385
30
0
41
1
10
52.9729179923197
20
-8.26129257850749
30
0
41
1
10
53.1191555354487
20
-8.79827608877011
30
0
41
1
10
53.1922743070131
20
-9.04060041142495
30
0
41
1
10
53.338511850142
20
-9.46908322951859
30
0
41
1
10
53.4116306217065
20
-9.65524478337457
30
0
41
1
10
53.5578681648355
20
-9.97060668953526
30
0
41
1
10
53.6309869364
20
-10.0998212095804
30
0
41
1
10
53.7772244795288
20
-10.3032804688286
30
0
41
1
10
53.8503432510933
20
-10.3775463896129
30
0
41
1
10
53.9965807942223
20
-10.4753393173943
30
0
41
1
10
54.0696995657867
20
-10.4988899116339
30
0
41
1
10
54.1610980302423
20
-10.5002294726595
30
0
41
1
10
54.1793777231334
20
-10.4991029086916
30
0
41
1
10
54.2159371089156
20
-10.4939691303013
30
0
41
1
10
54.2342168018067
20
-10.4899610808273
30
0
41
1
10
54.2890558804801
20
-10.4734740995207
30
0
41
1
10
54.3256152662623
20
-10.4565296618714
30
0
41
1
10
54.435293423609
20
-10.3868072815542
30
0
41
1
10
54.5084121951735
20
-10.3150797569675
30
0
41
1
10
54.6546497383024
20
-10.1168543275256
30
0
41
1
10
54.7277685098668
20
-9.99033502272005
30
0
41
1
10
54.8740060529958
20
-9.6803997097976
30
0
41
1
10
54.9471248245602
20
-9.49696909518212
30
0
41
1
10
55.0933623676892
20
-9.07384246440211
30
0
41
1
10
55.1664811392536
20
-8.83414278882225
30
0
41
1
10
55.3127186823825
20
-8.30215594323531
30
0
41
1
10
55.385837453947
20
-8.00987831509801
30
0
41
1
10
55.5320749970759
20
-7.37937807831074
30
0
41
1
10
55.6051937686404
20
-7.04117750483226
30
0
41
1
10
55.6783125402048
20
-6.68456822296542
30
0
0
SPLINE
5
FF
100
AcDbEntity
8
1
62
256
6
ByLayer
370
13
48
1
60
0
100
AcDbSpline
70
4
71
3
72
44
73
40
40
0
40
0
40
0
40
0
40
0.0624999999999992
40
0.0624999999999992
40
0.124999999999998
40
0.124999999999998
40
0.187499999999997
40
0.187499999999997
40
0.249999999999997
40
0.249999999999997
40
0.312499999999996
40
0.312499999999996
40
0.320312499999996
40
0.320312499999996
40
0.328124999999995
40
0.328124999999995
40
0.343749999999995
40
0.343749999999995
40
0.374999999999995
40
0.374999999999995
40
0.437499999999996
40
0.437499999999996
40
0.499999999999996
40
0.499999999999996
40
0.562499999999997
40
0.562499999999997
40
0.624999999999997
40
0.624999999999997
40
0.687499999999998
40
0.687499999999998
40
0.749999999999998
40
0.749999999999998
40
0.812499999999999
40
0.812499999999999
40
0.874999999999999
40
0.874999999999999
40
0.9375
40
0.9375
40
1
40
1
40
1
40
1
41
1
10
44.7000000000001
20
-7.12001810128231
30
0
41
1
10
44.7843795984832
20
-6.72707396817574
30
0
41
1
10
44.8687591969665
20
-6.30692423338414
30
0
41
1
10
45.0375183939329
20
-5.4280056395207
30
0
41
1
10
45.1218979924161
20
-4.96930535686136
30
0
41
1
10
45.2906571893825
20
-4.03088382031993
30
0
41
1
10
45.3750367878657
20
-3.55122674382452
30
0
41
1
10
45.5437959848322
20
-2.58812857306609
30
0
41
1
10
45.6281755833153
20
-2.10473450400122
30
0
41
1
10
45.7969347802818
20
-1.14932630843398
30
0
41
1
10
45.881314378765
20
-0.677336517352643
30
0
41
1
10
45.9762414270586
20
-0.15950275906107
30
0
41
1
10
45.986788876869
20
-0.102146163472867
30
0
41
1
10
46.0078837764898
20
0.0121865365279632
30
0
41
1
10
46.0184312263002
20
0.0692230874427935
30
0
41
1
10
46.0500735757315
20
0.241257719976744
30
0
41
1
10
46.0711684753522
20
0.356690569226259
30
0
41
1
10
46.1344531742146
20
0.704974086181153
30
0
41
1
10
46.1766429734562
20
0.939816463557918
30
0
41
1
10
46.3032123711811
20
1.65010265419082
30
0
41
1
10
46.3875919696643
20
2.13139805360987
30
0
41
1
10
46.5563511666307
20
3.09536037639805
30
0
41
1
10
46.6407307651139
20
3.57798720800679
30
0
41
1
10
46.8094899620804
20
4.52791048788725
30
0
41
1
10
46.8938695605636
20
4.99514709987091
30
0
41
1
10
47.06262875753
20
5.89661023793866
30
0
41
1
10
47.1470083560132
20
6.33076787030487
30
0
41
1
10
47.3157675529797
20
7.14939501673913
30
0
41
1
10
47.4001471514629
20
7.53380238626565
30
0
41
1
10
47.5689063484293
20
8.23928216804151
30
0
41
1
10
47.6532859469125
20
8.56031441446427
30
0
41
1
10
47.8220451438788
20
9.13001820792644
30
0
41
1
10
47.9064247423621
20
9.37868011617562
30
0
41
1
10
48.0751839393285
20
9.80001015830814
30
0
41
1
10
48.1595635378117
20
9.97269807374275
30
0
41
1
10
48.3283227347782
20
10.2436741545645
30
0
41
1
10
48.4127023332614
20
10.3420024091076
30
0
41
1
10
48.5814615302278
20
10.4701413306092
30
0
41
1
10
48.665841128711
20
10.5
30
0
41
1
10
48.7502207271942
20
10.5
30
0
0
SPLINE
5
100
100
AcDbEntity
8
1
62
256
6
ByLayer
370
13
48
1
60
0
100
AcDbSpline
70
4
71
3
72
80
73
76
40
0
40
0
40
0
40
0
40
0.0312500000000007
40
0.0312500000000007
40
0.0625000000000015
40
0.0625000000000015
40
0.0937500000000022
40
0.0937500000000022
40
0.125000000000003
40
0.125000000000003
40
0.156250000000004
40
0.156250000000004
40
0.187500000000004
40
0.187500000000004
40
0.218750000000005
40
0.218750000000005
40
0.250000000000006
40
0.250000000000006
40
0.281250000000007
40
0.281250000000007
40
0.312500000000007
40
0.312500000000007
40
0.343750000000008
40
0.343750000000008
40
0.359375000000008
40
0.359375000000008
40
0.363281250000008
40
0.363281250000008
40
0.367187500000008
40
0.367187500000008
40
0.375000000000008
40
0.375000000000008
40
0.406250000000008
40
0.406250000000008
40
0.437500000000007
40
0.437500000000007
40
0.468750000000006
40
0.468750000000006
40
0.500000000000006
40
0.500000000000006
40
0.531250000000005
40
0.531250000000005
40
0.562500000000004
40
0.562500000000004
40
0.593750000000004
40
0.593750000000004
40
0.625000000000003
40
0.625000000000003
40
0.656250000000002
40
0.656250000000002
40
0.687500000000001
40
0.687500000000001
40
0.718750000000001
40
0.718750000000001
40
0.7265625
40
0.7265625
40
0.734375
40
0.734375
40
0.75
40
0.75
40
0.78125
40
0.78125
40
0.8125
40
0.8125
40
0.84375
40
0.84375
40
0.875
40
0.875
40
0.90625
40
0.90625
40
0.9375
40
0.9375
40
0.96875
40
0.96875
40
1
40
1
40
1
40
1
41
1
10
48.1640467298788
20
10.5
30
0
41
1
10
48.2423203320697
20
10.5
30
0
41
1
10
48.3205939342606
20
10.474317797136
30
0
41
1
10
48.4771411386424
20
10.3645746857107
30
0
41
1
10
48.5554147408333
20
10.280480680085
30
0
41
1
10
48.711961945215
20
10.0489058337677
30
0
41
1
10
48.7902355474059
20
9.9013960768184
30
0
41
1
10
48.9467827517878
20
9.5410064433629
30
0
41
1
10
49.0250563539786
20
9.32810923517897
30
0
41
1
10
49.1816035583605
20
8.83870882077716
30
0
41
1
10
49.2598771605513
20
8.56220599890349
30
0
41
1
10
49.4164243649332
20
7.95138129275486
30
0
41
1
10
49.4946979671241
20
7.61707977714426
30
0
41
1
10
49.6512451715058
20
6.90016009412389
30
0
41
1
10
49.7295187736967
20
6.51757921792588
30
0
41
1
10
49.8860659780785
20
5.71643661709561
30
0
41
1
10
49.9643395802694
20
5.29792138413302
30
0
41
1
10
50.1208867846512
20
4.43878904826707
30
0
41
1
10
50.1991603868421
20
3.9982179056077
30
0
41
1
10
50.3557075912239
20
3.10897101644025
30
0
41
1
10
50.4339811934148
20
2.66033225545124
30
0
41
1
10
50.5905283977966
20
1.76779128870527
30
0
41
1
10
50.6688019999875
20
1.3239122804244
30
0
41
1
10
50.7862124032738
20
0.669721853767498
30
0
41
1
10
50.8253492043693
20
0.45357809781018
30
0
41
1
10
50.8742702057386
20
0.186489717941953
30
0
41
1
10
50.8840544060125
20
0.133226210006995
30
0
41
1
10
50.9036228065602
20
0.0270232238506765
30
0
41
1
10
50.9134070068341
20
-0.0258321329104376
30
0
41
1
10
50.9427596076557
20
-0.185129328939013
30
0
41
1
10
50.9623280082034
20
-0.291976070503637
30
0
41
1
10
51.060170010942
20
-0.82913263278104
30
0
41
1
10
51.1384436131328
20
-1.26830982813774
30
0
41
1
10
51.2949908175146
20
-2.15576265786231
30
0
41
1
10
51.3732644197056
20
-2.60402064756312
30
0
41
1
10
51.5298116240874
20
-3.49751797466513
30
0
41
1
10
51.6080852262783
20
-3.94272517731807
30
0
41
1
10
51.76463243066
20
-4.81644725890979
30
0
41
1
10
51.8429060328509
20
-5.24491872262334
30
0
41
1
10
51.9994532372327
20
-6.07108911432849
30
0
41
1
10
52.0777268394236
20
-6.46874060962764
30
0
41
1
10
52.2342740438054
20
-7.22017877111347
30
0
41
1
10
52.3125476459963
20
-7.57392360086845
30
0
41
1
10
52.4690948503781
20
-8.22682138059807
30
0
41
1
10
52.547368452569
20
-8.5259469512132
30
0
41
1
10
52.7039156569508
20
-9.06231467037384
30
0
41
1
10
52.7821892591417
20
-9.299548913526
30
0
41
1
10
52.9387364635235
20
-9.70882190167725
30
0
41
1
10
53.0170100657144
20
-9.88087188102415
30
0
41
1
10
53.1735572700962
20
-10.1603873890531
30
0
41
1
10
53.2518308722871
20
-10.2678783384655
30
0
41
1
10
53.4083780766689
20
-10.4222374756331
30
0
41
1
10
53.4866516788597
20
-10.4691380293431
30
0
41
1
10
53.5844936815984
20
-10.4938848305631
30
0
41
1
10
53.6040620821461
20
-10.4971448419492
30
0
41
1
10
53.6431988832416
20
-10.5004017780411
30
0
41
1
10
53.6627672837893
20
-10.5004136646286
30
0
41
1
10
53.7214724854325
20
-10.4956015843807
30
0
41
1
10
53.7606092865279
20
-10.4858663270992
30
0
41
1
10
53.8780196898142
20
-10.435724574733
30
0
41
1
10
53.9562932920052
20
-10.374310337671
30
0
41
1
10
54.112840496387
20
-10.1896716602929
30
0
41
1
10
54.1911140985778
20
-10.0664158795502
30
0
41
1
10
54.3476613029596
20
-9.75487134768633
30
0
41
1
10
54.4259349051505
20
-9.56656006227075
30
0
41
1
10
54.5824821095324
20
-9.12519935713712
30
0
41
1
10
54.6607557117232
20
-8.87214313764724
30
0
41
1
10
54.817302916105
20
-8.30557034803095
30
0
41
1
10
54.8955765182959
20
-7.99206669618997
30
0
41
1
10
55.0521237226777
20
-7.31277930580376
30
0
41
1
10
55.1303973248686
20
-6.94702719314034
30
0
41
1
10
55.2869445292504
20
-6.17464814210365
30
0
41
1
10
55.3652181314413
20
-5.76806534329265
30
0
41
1
10
55.521765335823
20
-4.92749024238091
30
0
41
1
10
55.6000389380139
20
-4.4935452274249
30
0
41
1
10
55.6783125402048
20
-4.05295348260725
30
0
0
SPLINE
5
101
100
AcDbEntity
8
1
62
256
6
ByLayer
370
13
48
1
60
0
100
AcDbSpline
70
4
71
3
72
42
73
38
40
0
40
0
40
0
40
0
40
0.0625000000000001
40
0.0625000000000001
40
0.125
40
0.125
40
0.1875
40
0.1875
40
0.218750000000001
40
0.218750000000001
40
0.234375000000001
40
0.234375000000001
40
0.250000000000001
40
0.250000000000001
40
0.312500000000001
40
0.312500000000001
40
0.375000000000001
40
0.375000000000001
40
0.437500000000001
40
0.437500000000001
40
0.500000000000001
40
0.500000000000001
40
0.562500000000001
40
0.562500000000001
40
0.625000000000001
40
0.625000000000001
40
0.687500000000001
40
0.687500000000001
40
0.750000000000001
40
0.750000000000001
40
0.812500000000001
40
0.812500000000001
40
0.875
40
0.875
40
0.9375
40
0.9375
40
1
40
1
40
1
40
1
41
1
10
44.7000000000001
20
-4.56349894067773
30
0
41
1
10
44.7740699372304
20
-4.15246352817698
30
0
41
1
10
44.8481398744607
20
-3.73306084683625
30
0
41
1
10
44.9962797489214
20
-2.88918580023969
30
0
41
1
10
45.0703496861517
20
-2.46473979216412
30
0
41
1
10
45.2184895606124
20
-1.62142462103117
30
0
41
1
10
45.2925594978428
20
-1.20257162698797
30
0
41
1
10
45.4036644036883
20
-0.585160734046241
30
0
41
1
10
45.4406993723035
20
-0.381153554225534
30
0
41
1
10
45.4962518252262
20
-0.0785282406461079
30
0
41
1
10
45.5147693095338
20
0.0214061937582528
30
0
41
1
10
45.551804278149
20
0.222725534230676
30
0
41
1
10
45.5703217624566
20
0.323958490320194
30
0
41
1
10
45.6629091839945
20
0.832716008475728
30
0
41
1
10
45.7369791212249
20
1.24809806081612
30
0
41
1
10
45.8851189956856
20
2.08731829178203
30
0
41
1
10
45.9591889329159
20
2.5111434562136
30
0
41
1
10
46.1073288073766
20
3.3570861718743
30
0
41
1
10
46.181398744607
20
3.77918023561679
30
0
41
1
10
46.3295386190676
20
4.61018289741543
30
0
41
1
10
46.403608556298
20
5.01905946027227
30
0
41
1
10
46.5517484307587
20
5.81167825697779
30
0
41
1
10
46.625818367989
20
6.1953845100555
30
0
41
1
10
46.7739582424497
20
6.92628337746533
30
0
41
1
10
46.8480281796801
20
7.27344246163139
30
0
41
1
10
46.9961680541408
20
7.92150577950622
30
0
41
1
10
47.0702379913711
20
8.22238532988732
30
0
41
1
10
47.2183778658318
20
8.77068352291792
30
0
41
1
10
47.2924478030622
20
9.0180907208437
30
0
41
1
10
47.4405876775228
20
9.45532955107245
30
0
41
1
10
47.5146576147532
20
9.64516406396683
30
0
41
1
10
47.6627974892139
20
9.96636354913397
30
0
41
1
10
47.7368674264442
20
10.0977434795032
30
0
41
1
10
47.8850073009049
20
10.3040814113498
30
0
41
1
10
47.9590772381353
20
10.3790619917023
30
0
41
1
10
48.107217112596
20
10.4770087062838
30
0
41
1
10
48.1812870498263
20
10.5
30
0
41
1
10
48.2553569870566
20
10.5
30
0
0
SPLINE
5
102
100
AcDbEntity
8
1
62
256
6
ByLayer
370
13
48
1
60
0
100
AcDbSpline
70
4
71
3
72
80
73
76
40
0
40
0
40
0
40
0
40
0.0312500000000009
40
0.0312500000000009
40
0.0625000000000019
40
0.0625000000000019
40
0.0937500000000028
40
0.0937500000000028
40
0.125000000000004
40
0.125000000000004
40
0.156250000000005
40
0.156250000000005
40
0.187500000000006
40
0.187500000000006
40
0.218750000000007
40
0.218750000000007
40
0.250000000000007
40
0.250000000000007
40
0.281250000000008
40
0.281250000000008
40
0.312500000000009
40
0.312500000000009
40
0.32812500000001
40
0.32812500000001
40
0.33593750000001
40
0.33984375000001
40
0.33984375000001
40
0.34375000000001
40
0.34375000000001
40
0.37500000000001
40
0.37500000000001
40
0.406250000000009
40
0.406250000000009
40
0.437500000000009
40
0.437500000000009
40
0.468750000000008
40
0.468750000000008
40
0.500000000000008
40
0.500000000000008
40
0.531250000000007
40
0.531250000000007
40
0.562500000000007
40
0.562500000000007
40
0.593750000000006
40
0.593750000000006
40
0.625000000000006
40
0.625000000000006
40
0.656250000000005
40
0.656250000000005
40
0.671875000000005
40
0.671875000000005
40
0.679687500000005
40
0.683593750000005
40
0.683593750000005
40
0.687500000000005
40
0.687500000000005
40
0.718750000000004
40
0.718750000000004
40
0.750000000000004
40
0.750000000000004
40
0.781250000000003
40
0.781250000000003
40
0.812500000000003
40
0.812500000000003
40
0.843750000000002
40
0.843750000000002
40
0.875000000000002
40
0.875000000000002
40
0.906250000000001
40
0.906250000000001
40
0.937500000000001
40
0.937500000000001
40
0.96875
40
0.96875
40
1
40
1
40
1
40
1
41
1
10
47.6691829897412
20
10.5
30
0
41
1
10
47.7526114225585
20
10.5
30
0
41
1
10
47.8360398553759
20
10.4708128158371
30
0
41
1
10
48.0028967210105
20
10.3456382484537
30
0
41
1
10
48.0863251538278
20
10.2496054771958
30
0
41
1
10
48.2531820194625
20
9.98498135092939
30
0
41
1
10
48.3366104522798
20
9.8163518032687
30
0
41
1
10
48.5034673179145
20
9.40482408691216
30
0
41
1
10
48.5868957507318
20
9.16190639580503
30
0
41
1
10
48.7537526163665
20
8.60505049935614
30
0
41
1
10
48.8371810491838
20
8.29112005523828
30
0
41
1
10
49.0040379148185
20
7.6006494983852
30
0
41
1
10
49.0874663476358
20
7.22414585478657
30
0
41
1
10
49.2543232132705
20
6.42143595771822
30
0
41
1
10
49.3377516460878
20
5.99528744614645
30
0
41
1
10
49.5046085117225
20
5.10924093282233
30
0
41
1
10
49.5880369445398
20
4.64940811678048
30
0
41
1
10
49.7548938101745
20
3.7130908157952
30
0
41
1
10
49.8383222429918
20
3.23666416733917
30
0
41
1
10
50.0051791086264
20
2.28350092247612
30
0
41
1
10
50.0886075414438
20
1.8068043602662
30
0
41
1
10
50.2137501906698
20
1.10208919246296
30
0
41
1
10
50.2554644070784
20
0.868884408791502
30
0
41
1
10
50.3180357316914
20
0.522727335970473
30
0
41
1
10
50.3493213939979
20
0.350558943153942
30
0
41
1
10
50.3806070563045
20
0.179939971632024
30
0
41
1
10
50.4014641645088
20
0.0665572255442441
30
0
41
1
10
50.4118927186109
20
0.0101690886814083
30
0
41
1
10
50.5057497055304
20
-0.498555568164449
30
0
41
1
10
50.5891781383478
20
-0.96279022975196
30
0
41
1
10
50.7560350039824
20
-1.90420309425613
30
0
41
1
10
50.8394634367997
20
-2.38136121781278
30
0
41
1
10
51.0063203024345
20
-3.33439062507881
30
0
41
1
10
51.0897487352518
20
-3.81022046223302
30
0
41
1
10
51.2566056008864
20
-4.74418037284846
30
0
41
1
10
51.3400340337037
20
-5.20225170292446
30
0
41
1
10
51.5068908993384
20
-6.08362487888311
30
0
41
1
10
51.5903193321557
20
-6.50686155473318
30
0
41
1
10
51.7571761977904
20
-7.30274582491299
30
0
41
1
10
51.8406046306077
20
-7.67533673838267
30
0
41
1
10
52.0074614962424
20
-8.3572472391742
30
0
41
1
10
52.0908899290597
20
-8.66653218065281
30
0
41
1
10
52.2577467946943
20
-9.21370404523168
30
0
41
1
10
52.3411752275116
20
-9.451585218275
30
0
41
1
10
52.5080320931464
20
-9.85300275292627
30
0
41
1
10
52.5914605259637
20
-10.0165602476125
30
0
41
1
10
52.7583173915983
20
-10.2713168408388
30
0
41
1
10
52.8417458244157
20
-10.3625549940376
30
0
41
1
10
52.9668884736417
20
-10.449626485041
30
0
41
1
10
53.0086026900504
20
-10.4703799037328
30
0
41
1
10
53.0711740146633
20
-10.4898592986472
30
0
41
1
10
53.1024596769699
20
-10.4966880633825
30
0
41
1
10
53.1337453392764
20
-10.4993057611601
30
0
41
1
10
53.1546024474806
20
-10.5001331495868
30
0
41
1
10
53.1650310015828
20
-10.5000904061503
30
0
41
1
10
53.2588879885023
20
-10.4955862691744
30
0
41
1
10
53.3423164213197
20
-10.4620741733977
30
0
41
1
10
53.5091732869543
20
-10.3277525072032
30
0
41
1
10
53.5926017197717
20
-10.2268976864064
30
0
41
1
10
53.7594585854064
20
-9.95237025651883
30
0
41
1
10
53.8428870182236
20
-9.77866037224766
30
0
41
1
10
54.0097438838583
20
-9.35702938792477
30
0
41
1
10
54.0931723166756
20
-9.10909041826852
30
0
41
1
10
54.2600291823103
20
-8.5426054775472
30
0
41
1
10
54.3434576151276
20
-8.22406928627709
30
0
41
1
10
54.5103144807622
20
-7.52513953994759
30
0
41
1
10
54.5937429135796
20
-7.14478424150462
30
0
41
1
10
54.7605997792143
20
-6.33538530231954
30
0
41
1
10
54.8440282120316
20
-5.90640039751699
30
0
41
1
10
55.0108850776662
20
-5.015836784355
30
0
41
1
10
55.0943135104836
20
-4.55432320595509
30
0
41
1
10
55.2611703761183
20
-3.61580625929017
30
0
41
1
10
55.3445988089355
20
-3.13885977070427
30
0
41
1
10
55.5114556745702
20
-2.18570581118286
30
0
41
1
10
55.5948841073875
20
-1.70953694566197
30
0
41
1
10
55.6783125402049
20
-1.24068180298806
30
0
0
SPLINE
5
103
100
AcDbEntity
8
1
62
256
6
ByLayer
370
13
48
1
60
0
100
AcDbSpline
70
4
71
3
72
8
73
4
40
0
40
0
40
0
40
0
40
1
40
1
40
1
40
1
41
1
10
55.6783125402051
20
0.850656380669562
30
0
41
1
10
56.9522083601366
20
0.553772315732061
30
0
41
1
10
58.2261041800682
20
0.270218150616302
30
0
41
1
10
59.4999999999998
20
5.68E-14
30
0
0
SPLINE
5
104
100
AcDbEntity
8
1
62
256
6
ByLayer
370
13
48
1
60
0
100
AcDbSpline
70
4
71
3
72
8
73
4
40
0
40
0
40
0
40
0
40
1
40
1
40
1
40
1
41
1
10
55.6783125402051
20
-4.97234698353233
30
0
41
1
10
56.9522083601366
20
-3.32667899557325
30
0
41
1
10
58.2261041800682
20
-1.66921786863401
30
0
41
1
10
59.4999999999998
20
-2.842E-13
30
0
0
SPLINE
5
105
100
AcDbEntity
8
1
62
256
6
ByLayer
370
13
48
1
60
0
100
AcDbSpline
70
4
71
3
72
8
73
4
40
0
40
0
40
0
40
0
40
1
40
1
40
1
40
1
41
1
10
55.6783125402048
20
-10.3685732371029
30
0
41
1
10
56.9522083601366
20
-6.91449186532665
30
0
41
1
10
58.2261041800684
20
-3.45827554184217
30
0
41
1
10
59.5000000000002
20
6.537E-13
30
0
0
SPLINE
5
106
100
AcDbEntity
8
1
62
256
6
ByLayer
370
13
48
1
60
0
100
AcDbSpline
70
4
71
3
72
8
73
4
40
0
40
0
40
0
40
0
40
1
40
1
40
1
40
1
41
1
10
55.6783125402048
20
-9.60430165826094
30
0
41
1
10
56.9522083601366
20
-6.39746198064131
30
0
41
1
10
58.2261041800683
20
-3.19600472879839
30
0
41
1
10
59.5
20
2.84E-14
30
0
0
SPLINE
5
107
100
AcDbEntity
8
1
62
256
6
ByLayer
370
13
48
1
60
0
100
AcDbSpline
70
4
71
3
72
8
73
4
40
0
40
0
40
0
40
0
40
1
40
1
40
1
40
1
41
1
10
55.6783125402048
20
2.33110053055083
30
0
41
1
10
56.9522083601366
20
1.56710912385898
30
0
41
1
10
58.2261041800684
20
0.790069907533137
30
0
41
1
10
59.5000000000001
20
-8.53E-14
30
0
0
SPLINE
5
108
100
AcDbEntity
8
1
62
256
6
ByLayer
370
13
48
1
60
0
100
AcDbSpline
70
4
71
3
72
8
73
4
40
0
40
0
40
0
40
0
40
1
40
1
40
1
40
1
41
1
10
55.6783125402051
20
10.4353067049871
30
0
41
1
10
56.9522083601368
20
6.95538860760746
30
0
41
1
10
58.2261041800686
20
3.47692764112901
30
0
41
1
10
59.5000000000002
20
-6.537E-13
30
0
0
SPLINE
5
109
100
AcDbEntity
8
1
62
256
6
ByLayer
370
13
48
1
60
0
100
AcDbSpline
70
4
71
3
72
8
73
4
40
0
40
0
40
0
40
0
40
1
40
1
40
1
40
1
41
1
10
55.6783125402048
20
5.65315458195687
30
0
41
1
10
56.9522083601366
20
3.78004149268389
30
0
41
1
10
58.2261041800683
20
1.89564284361199
30
0
41
1
10
59.5
20
-2.84E-14
30
0
0
SPLINE
5
10A
100
AcDbEntity
8
1
62
256
6
ByLayer
370
13
48
1
60
0
100
AcDbSpline
70
4
71
3
72
8
73
4
40
0
40
0
40
0
40
0
40
1
40
1
40
1
40
1
41
1
10
55.6783125402051
20
10.2331087465096
30
0
41
1
10
56.9522083601368
20
6.81907586647901
30
0
41
1
10
58.2261041800686
20
3.40801471537162
30
0
41
1
10
59.5000000000002
20
-6.537E-13
30
0
0
SPLINE
5
10B
100
AcDbEntity
8
1
62
256
6
ByLayer
370
13
48
1
60
0
100
AcDbSpline
70
4
71
3
72
8
73
4
40
0
40
0
40
0
40
0
40
1
40
1
40
1
40
1
41
1
10
55.6783125402049
20
9.55359182805799
30
0
41
1
10
56.9522083601366
20
6.37461091527786
30
0
41
1
10
58.2261041800683
20
3.19005703693983
30
0
41
1
10
59.4999999999999
20
1.137E-13
30
0
0
SPLINE
5
10C
100
AcDbEntity
8
1
62
256
6
ByLayer
370
13
48
1
60
0
100
AcDbSpline
70
4
71
3
72
8
73
4
40
0
40
0
40
0
40
0
40
1
40
1
40
1
40
1
41
1
10
55.6783125402049
20
10.4636979807185
30
0
41
1
10
56.9522083601366
20
6.97690995876863
30
0
41
1
10
58.2261041800683
20
3.48898515828893
30
0
41
1
10
59.5
20
0
30
0
0
SPLINE
5
10D
100
AcDbEntity
8
1
62
256
6
ByLayer
370
13
48
1
60
0
100
AcDbSpline
70
4
71
3
72
8
73
4
40
0
40
0
40
0
40
0
40
1
40
1
40
1
40
1
41
1
10
55.6783125402051
20
-2.73538500197714
30
0
41
1
10
56.9522083601366
20
-1.83650404244813
30
0
41
1
10
58.2261041800682
20
-0.924702351844189
30
0
41
1
10
59.4999999999998
20
-1.421E-13
30
0
0
SPLINE
5
10E
100
AcDbEntity
8
1
62
256
6
ByLayer
370
13
48
1
60
0
100
AcDbSpline
70
4
71
3
72
8
73
4
40
0
40
0
40
0
40
0
40
1
40
1
40
1
40
1
41
1
10
55.6783125402049
20
9.99001011343645
30
0
41
1
10
56.9522083601366
20
6.66412473696747
30
0
41
1
10
58.2261041800683
20
3.33409703798665
30
0
41
1
10
59.5
20
2.84E-14
30
0
0
SPLINE
5
10F
100
AcDbEntity
8
1
62
256
6
ByLayer
370
13
48
1
60
0
100
AcDbSpline
70
4
71
3
72
8
73
4
40
0
40
0
40
0
40
0
40
1
40
1
40
1
40
1
41
1
10
55.6783125402048
20
-7.80459352790157
30
0
41
1
10
56.9522083601365
20
-5.21201035430883
30
0
41
1
10
58.2261041800681
20
-2.61046015851835
30
0
41
1
10
59.4999999999998
20
-4.263E-13
30
0
0
SPLINE
5
110
100
AcDbEntity
8
1
62
256
6
ByLayer
370
13
48
1
60
0
100
AcDbSpline
70
4
71
3
72
8
73
4
40
0
40
0
40
0
40
0
40
1
40
1
40
1
40
1
41
1
10
55.6783125402048
20
-8.55834232583081
30
0
41
1
10
56.9522083601366
20
-5.71331085647719
30
0
41
1
10
58.2261041800683
20
-2.86050922950969
30
0
41
1
10
59.5
20
2.84E-14
30
0
0
SPLINE
5
111
100
AcDbEntity
8
1
62
256
6
ByLayer
370
13
48
1
60
0
100
AcDbSpline
70
4
71
3
72
8
73
4
40
0
40
0
40
0
40
0
40
1
40
1
40
1
40
1
41
1
10
55.6783125402048
20
-10.318366808919
30
0
41
1
10
56.9522083601366
20
-6.87643404144777
30
0
41
1
10
58.2261041800683
20
-3.43695332740336
30
0
41
1
10
59.5
20
2.84E-14
30
0
0
SPLINE
5
112
100
AcDbEntity
8
1
62
256
6
ByLayer
370
13
48
1
60
0
100
AcDbSpline
70
4
71
3
72
8
73
4
40
0
40
0
40
0
40
0
40
1
40
1
40
1
40
1
41
1
10
55.6783125402048
20
-6.72574631329906
30
0
41
1
10
56.9522083601366
20
-4.47355926651204
30
0
41
1
10
58.2261041800683
20
-2.23162748185067
30
0
41
1
10
59.5
20
2.84E-14
30
0
0
SPLINE
5
113
100
AcDbEntity
8
1
62
256
6
ByLayer
370
13
48
1
60
0
100
AcDbSpline
70
4
71
3
72
8
73
4
40
0
40
0
40
0
40
0
40
1
40
1
40
1
40
1
41
1
10
55.6783125402048
20
-7.60571343845328
30
0
41
1
10
56.9522083601366
20
-5.06125389361094
30
0
41
1
10
58.2261041800683
20
-2.52599758931524
30
0
41
1
10
59.5
20
2.84E-14
30
0
0
SPLINE
5
114
100
AcDbEntity
8
1
62
256
6
ByLayer
370
13
48
1
60
0
100
AcDbSpline
70
4
71
3
72
8
73
4
40
0
40
0
40
0
40
0
40
1
40
1
40
1
40
1
41
1
10
55.6783125402051
20
8.8365202076609
30
0
41
1
10
56.9522083601366
20
5.88378857181448
30
0
41
1
10
58.2261041800682
20
2.93826034354333
30
0
41
1
10
59.4999999999998
20
4.832E-13
30
0
0
SPLINE
5
115
100
AcDbEntity
8
1
62
256
6
ByLayer
370
13
48
1
60
0
100
AcDbSpline
70
4
71
3
72
8
73
4
40
0
40
0
40
0
40
0
40
1
40
1
40
1
40
1
41
1
10
55.6783125402048
20
8.31029985990875
30
0
41
1
10
56.9522083601366
20
5.54837559056671
30
0
41
1
10
58.2261041800683
20
2.77825538832349
30
0
41
1
10
59.5
20
-2.84E-14
30
0
0
SPLINE
5
116
100
AcDbEntity
8
1
62
256
6
ByLayer
370
13
48
1
60
0
100
AcDbSpline
70
4
71
3
72
8
73
4
40
0
40
0
40
0
40
0
40
1
40
1
40
1
40
1
41
1
10
55.6783125402048
20
-3.60588656533156
30
0
41
1
10
56.9522083601365
20
-2.39136195661399
30
0
41
1
10
58.2261041800682
20
-1.18939102125427
30
0
41
1
10
59.4999999999999
20
-8.53E-14
30
0
0
SPLINE
5
117
100
AcDbEntity
8
1
62
256
6
ByLayer
370
13
48
1
60
0
100
AcDbSpline
70
4
71
3
72
8
73
4
40
0
40
0
40
0
40
0
40
1
40
1
40
1
40
1
41
1
10
55.6783125402051
20
9.42841084213941
30
0
41
1
10
56.9522083601365
20
6.2797203586818
30
0
41
1
10
58.2261041800679
20
3.13689380820671
30
0
41
1
10
59.4999999999993
20
1.6485E-12
30
0
0
SPLINE
5
118
100
AcDbEntity
8
1
62
256
6
ByLayer
370
13
48
1
60
0
100
AcDbSpline
70
4
71
3
72
8
73
4
40
0
40
0
40
0
40
0
40
1
40
1
40
1
40
1
41
1
10
55.6783125402051
20
6.40060402834197
30
0
41
1
10
56.9522083601366
20
4.25646595672237
30
0
41
1
10
58.2261041800682
20
2.12291572598667
30
0
41
1
10
59.4999999999998
20
3.411E-13
30
0
0
SPLINE
5
119
100
AcDbEntity
8
1
62
256
6
ByLayer
370
13
48
1
60
0
100
AcDbSpline
70
4
71
3
72
8
73
4
40
0
40
0
40
0
40
0
40
1
40
1
40
1
40
1
41
1
10
55.6783125402051
20
-5.99969778862993
30
0
41
1
10
56.9522083601366
20
-4.01077575532722
30
0
41
1
10
58.2261041800682
20
-2.01086186118815
30
0
41
1
10
59.4999999999998
20
-3.411E-13
30
0
0
SPLINE
5
11A
100
AcDbEntity
8
1
62
256
6
ByLayer
370
13
48
1
60
0
100
AcDbSpline
70
4
71
3
72
8
73
4
40
0
40
0
40
0
40
0
40
1
40
1
40
1
40
1
41
1
10
55.6783125402048
20
-0.0619121786061498
30
0
41
1
10
56.9522083601365
20
-0.0278991121536478
30
0
41
1
10
58.2261041800682
20
-0.0072616011367472
30
0
41
1
10
59.4999999999999
20
0
30
0
0
SPLINE
5
11B
100
AcDbEntity
8
1
62
256
6
ByLayer
370
13
48
1
60
0
100
AcDbSpline
70
4
71
3
72
8
73
4
40
0
40
0
40
0
40
0
40
1
40
1
40
1
40
1
41
1
10
55.6783125402048
20
-4.71256174611179
30
0
41
1
10
56.9522083601366
20
-3.12975479343859
30
0
41
1
10
58.2261041800684
20
-1.55888943578572
30
0
41
1
10
59.5000000000001
20
1.705E-13
30
0
0
SPLINE
5
11C
100
AcDbEntity
8
1
62
256
6
ByLayer
370
13
48
1
60
0
100
AcDbSpline
70
4
71
3
72
8
73
4
40
0
40
0
40
0
40
0
40
1
40
1
40
1
40
1
41
1
10
55.6783125402051
20
3.21186609045415
30
0
41
1
10
56.9522083601366
20
2.12850931199188
30
0
41
1
10
58.2261041800682
20
1.05787949447387
30
0
41
1
10
59.4999999999998
20
1.705E-13
30
0
0
SPLINE
5
11D
100
AcDbEntity
8
1
62
256
6
ByLayer
370
13
48
1
60
0
100
AcDbSpline
70
4
71
3
72
8
73
4
40
0
40
0
40
0
40
0
40
1
40
1
40
1
40
1
41
1
10
55.6783125402048
20
-9.05454194531035
30
0
41
1
10
56.9522083601366
20
-6.02958861801662
30
0
41
1
10
58.2261041800683
20
-3.01138594538338
30
0
41
1
10
59.5
20
2.84E-14
30
0
0
SPLINE
5
11E
100
AcDbEntity
8
1
62
256
6
ByLayer
370
13
48
1
60
0
100
AcDbSpline
70
4
71
3
72
8
73
4
40
0
40
0
40
0
40
0
40
1
40
1
40
1
40
1
41
1
10
55.6783125402048
20
-9.71888486076648
30
0
41
1
10
56.9522083601366
20
-6.48431913216947
30
0
41
1
10
58.2261041800683
20
-3.24466717508926
30
0
41
1
10
59.5
20
2.84E-14
30
0
0
SPLINE
5
11F
100
AcDbEntity
8
1
62
256
6
ByLayer
370
13
48
1
60
0
100
AcDbSpline
70
4
71
3
72
8
73
4
40
0
40
0
40
0
40
0
40
1
40
1
40
1
40
1
41
1
10
55.6783125402051
20
7.31257076101792
30
0
41
1
10
56.9522083601365
20
4.86544836191993
30
0
41
1
10
58.2261041800679
20
2.42790699792602
30
0
41
1
10
59.4999999999993
20
1.279E-12
30
0
0
SPLINE
5
120
100
AcDbEntity
8
1
62
256
6
ByLayer
370
13
48
1
60
0
100
AcDbSpline
70
4
71
3
72
8
73
4
40
0
40
0
40
0
40
0
40
1
40
1
40
1
40
1
41
1
10
55.6783125402048
20
3.48934415134977
30
0
41
1
10
56.9522083601366
20
2.33884515052614
30
0
41
1
10
58.2261041800683
20
1.17572190889371
30
0
41
1
10
59.5
20
0
30
0
0
SPLINE
5
121
100
AcDbEntity
8
1
62
256
6
ByLayer
370
13
48
1
60
0
100
AcDbSpline
70
4
71
3
72
8
73
4
40
0
40
0
40
0
40
0
40
1
40
1
40
1
40
1
41
1
10
55.6783125402051
20
-0.35464286213741
30
0
41
1
10
56.9522083601366
20
-0.249796849173066
30
0
41
1
10
58.2261041800682
20
-0.131581665976483
30
0
41
1
10
59.4999999999998
20
-2.84E-14
30
0
0
SPLINE
5
122
100
AcDbEntity
8
1
62
256
6
ByLayer
370
13
48
1
60
0
100
AcDbSpline
70
4
71
3
72
8
73
4
40
0
40
0
40
0
40
0
40
1
40
1
40
1
40
1
41
1
10
55.6783125402048
20
-10.4900672058214
30
0
41
1
10
56.9522083601366
20
-6.99395980705322
30
0
41
1
10
58.2261041800684
20
-3.49724520197327
30
0
41
1
10
59.5000000000002
20
6.537E-13
30
0
0
SPLINE
5
123
100
AcDbEntity
8
1
62
256
6
ByLayer
370
13
48
1
60
0
100
AcDbSpline
70
4
71
3
72
8
73
4
40
0
40
0
40
0
40
0
40
1
40
1
40
1
40
1
41
1
10
55.6783125402048
20
6.63019324651353
30
0
41
1
10
56.9522083601366
20
4.43050076353424
30
0
41
1
10
58.2261041800683
20
2.22042018348046
30
0
41
1
10
59.5
20
-2.84E-14
30
0
0
SPLINE
5
124
100
AcDbEntity
8
1
62
256
6
ByLayer
370
13
48
1
60
0
100
AcDbSpline
70
4
71
3
72
8
73
4
40
0
40
0
40
0
40
0
40
1
40
1
40
1
40
1
41
1
10
55.6783125402051
20
-3.87943967913114
30
0
41
1
10
56.9522083601366
20
-2.59872257960888
30
0
41
1
10
58.2261041800682
20
-1.30556654626057
30
0
41
1
10
59.4999999999998
20
-2.274E-13
30
0
0
SPLINE
5
125
100
AcDbEntity
8
1
62
256
6
ByLayer
370
13
48
1
60
0
100
AcDbSpline
70
4
71
3
72
8
73
4
40
0
40
0
40
0
40
0
40
1
40
1
40
1
40
1
41
1
10
55.6783125402048
20
-10.0274361785095
30
0
41
1
10
56.9522083601365
20
-6.6809898192576
30
0
41
1
10
58.2261041800681
20
-3.33848669383175
30
0
41
1
10
59.4999999999998
20
-5.684E-13
30
0
0
SPLINE
5
126
100
AcDbEntity
8
1
62
256
6
ByLayer
370
13
48
1
60
0
100
AcDbSpline
70
4
71
3
72
8
73
4
40
0
40
0
40
0
40
0
40
1
40
1
40
1
40
1
41
1
10
55.6783125402048
20
8.99121691935932
30
0
41
1
10
56.9522083601366
20
6.00105284297342
30
0
41
1
10
58.2261041800683
20
3.0039586331682
30
0
41
1
10
59.5
20
-2.84E-14
30
0
0
SPLINE
5
127
100
AcDbEntity
8
1
62
256
6
ByLayer
370
13
48
1
60
0
100
AcDbSpline
70
4
71
3
72
8
73
4
40
0
40
0
40
0
40
0
40
1
40
1
40
1
40
1
41
1
10
55.6783125402048
20
-6.94794727895558
30
0
41
1
10
56.9522083601366
20
-4.64199357906134
30
0
41
1
10
58.2261041800684
20
-2.32599421554784
30
0
41
1
10
59.5000000000002
20
4.547E-13
30
0
0
SPLINE
5
128
100
AcDbEntity
8
1
62
256
6
ByLayer
370
13
48
1
60
0
100
AcDbSpline
70
4
71
3
72
8
73
4
40
0
40
0
40
0
40
0
40
1
40
1
40
1
40
1
41
1
10
55.6783125402048
20
-8.38540519075389
30
0
41
1
10
56.9522083601366
20
-5.58221985345259
30
0
41
1
10
58.2261041800683
20
-2.78706439760273
30
0
41
1
10
59.5
20
2.84E-14
30
0
0
SPLINE
5
129
100
AcDbEntity
8
1
62
256
6
ByLayer
370
13
48
1
60
0
100
AcDbSpline
70
4
71
3
72
8
73
4
40
0
40
0
40
0
40
0
40
1
40
1
40
1
40
1
41
1
10
55.6783125402051
20
9.89599526652168
30
0
41
1
10
56.9522083601365
20
6.59285895257898
30
0
41
1
10
58.2261041800679
20
3.2941697856638
30
0
41
1
10
59.4999999999993
20
1.7337E-12
30
0
0
SPLINE
5
12A
100
AcDbEntity
8
1
62
256
6
ByLayer
370
13
48
1
60
0
100
AcDbSpline
70
4
71
3
72
8
73
4
40
0
40
0
40
0
40
0
40
1
40
1
40
1
40
1
41
1
10
55.6783125402049
20
10.2947179423217
30
0
41
1
10
56.9522083601366
20
6.86577729512808
30
0
41
1
10
58.2261041800683
20
3.43417958174572
30
0
41
1
10
59.5
20
2.84E-14
30
0
0
SPLINE
5
12B
100
AcDbEntity
8
1
62
256
6
ByLayer
370
13
48
1
60
0
100
AcDbSpline
70
4
71
3
72
8
73
4
40
0
40
0
40
0
40
0
40
1
40
1
40
1
40
1
41
1
10
55.6783125402048
20
-9.19925608538054
30
0
41
1
10
56.9522083601366
20
-6.13928583119861
30
0
41
1
10
58.2261041800684
20
-3.07284472742705
30
0
41
1
10
59.5000000000002
20
5.969E-13
30
0
0
SPLINE
5
12C
100
AcDbEntity
8
1
62
256
6
ByLayer
370
13
48
1
60
0
100
AcDbSpline
70
4
71
3
72
8
73
4
40
0
40
0
40
0
40
0
40
1
40
1
40
1
40
1
41
1
10
55.6783125402048
20
-5.75710549241043
30
0
41
1
10
56.9522083601366
20
-3.82688426537419
30
0
41
1
10
58.2261041800684
20
-1.90783511444621
30
0
41
1
10
59.5000000000002
20
3.695E-13
30
0
0
SPLINE
5
12D
100
AcDbEntity
8
1
62
256
6
ByLayer
370
13
48
1
60
0
100
AcDbSpline
70
4
71
3
72
8
73
4
40
0
40
0
40
0
40
0
40
1
40
1
40
1
40
1
41
1
10
55.6783125402051
20
8.12812697737442
30
0
41
1
10
56.9522083601368
20
5.41028364238735
30
0
41
1
10
58.2261041800686
20
2.70088821828315
30
0
41
1
10
59.5000000000002
20
-5.116E-13
30
0
0
SPLINE
5
12E
100
AcDbEntity
8
1
62
256
6
ByLayer
370
13
48
1
60
0
100
AcDbSpline
70
4
71
3
72
8
73
4
40
0
40
0
40
0
40
0
40
1
40
1
40
1
40
1
41
1
10
55.6783125402048
20
-2.45167059528387
30
0
41
1
10
56.9522083601365
20
-1.6214408859467
30
0
41
1
10
58.2261041800682
20
-0.804211417957106
30
0
41
1
10
59.4999999999999
20
-5.68E-14
30
0
0
SPLINE
5
12F
100
AcDbEntity
8
1
62
256
6
ByLayer
370
13
48
1
60
0
100
AcDbSpline
70
4
71
3
72
8
73
4
40
0
40
0
40
0
40
0
40
1
40
1
40
1
40
1
41
1
10
55.6783125402051
20
5.40425034622021
30
0
41
1
10
56.9522083601366
20
3.59136538269019
30
0
41
1
10
58.2261041800682
20
1.78993547343711
30
0
41
1
10
59.4999999999998
20
2.842E-13
30
0
0
SPLINE
5
130
100
AcDbEntity
8
1
62
256
6
ByLayer
370
13
48
1
60
0
100
AcDbSpline
70
4
71
3
72
8
73
4
40
0
40
0
40
0
40
0
40
1
40
1
40
1
40
1
41
1
10
55.6783125402048
20
1.14212317559907
30
0
41
1
10
56.9522083601366
20
0.77471199117349
30
0
41
1
10
58.2261041800684
20
0.394001453436232
30
0
41
1
10
59.5000000000001
20
-2.84E-14
30
0
0
SPLINE
5
131
100
AcDbEntity
8
1
62
256
6
ByLayer
370
13
48
1
60
0
100
AcDbSpline
70
4
71
3
72
8
73
4
40
0
40
0
40
0
40
0
40
1
40
1
40
1
40
1
41
1
10
55.6783125402051
20
2.04474038555941
30
0
41
1
10
56.9522083601366
20
1.3500404265171
30
0
41
1
10
58.2261041800682
20
0.668455352600432
30
0
41
1
10
59.4999999999998
20
1.137E-13
30
0
0
SPLINE
5
132
100
AcDbEntity
8
1
62
256
6
ByLayer
370
13
48
1
60
0
100
AcDbSpline
70
4
71
3
72
8
73
4
40
0
40
0
40
0
40
0
40
1
40
1
40
1
40
1
41
1
10
55.6783125402048
20
-10.1103777536977
30
0
41
1
10
56.9522083601366
20
-6.74386176563848
30
0
41
1
10
58.2261041800683
20
-3.37371122814019
30
0
41
1
10
59.5
20
2.84E-14
30
0
0
SPLINE
5
133
100
AcDbEntity
8
1
62
256
6
ByLayer
370
13
48
1
60
0
100
AcDbSpline
70
4
71
3
72
8
73
4
40
0
40
0
40
0
40
0
40
1
40
1
40
1
40
1
41
1
10
55.6783125402048
20
4.60158350330232
30
0
41
1
10
56.9522083601366
20
3.07974533629368
30
0
41
1
10
58.2261041800683
20
1.54587293802587
30
0
41
1
10
59.5
20
-2.84E-14
30
0
0
SPLINE
5
134
100
AcDbEntity
8
1
62
256
6
ByLayer
370
13
48
1
60
0
100
AcDbSpline
70
4
71
3
72
8
73
4
40
0
40
0
40
0
40
0
40
1
40
1
40
1
40
1
41
1
10
55.6783125402051
20
-1.55526641665844
30
0
41
1
10
56.9522083601366
20
-1.05007263832968
30
0
41
1
10
58.2261041800682
20
-0.531646681393369
30
0
41
1
10
59.4999999999998
20
-8.53E-14
30
0
0
SPLINE
5
135
100
AcDbEntity
8
1
62
256
6
ByLayer
370
13
48
1
60
0
100
AcDbSpline
70
4
71
3
72
8
73
4
40
0
40
0
40
0
40
0
40
1
40
1
40
1
40
1
41
1
10
55.6783125402048
20
-1.2651312692426
30
0
41
1
10
56.9522083601365
20
-0.830142387545095
30
0
41
1
10
58.2261041800682
20
-0.408428917188019
30
0
41
1
10
59.4999999999999
20
-2.84E-14
30
0
0
SPLINE
5
136
100
AcDbEntity
8
1
62
256
6
ByLayer
370
13
48
1
60
0
100
AcDbSpline
70
4
71
3
72
8
73
4
40
0
40
0
40
0
40
0
40
1
40
1
40
1
40
1
41
1
10
55.6783125402048
20
-10.4732578570621
30
0
41
1
10
56.9522083601365
20
-6.98121786826727
30
0
41
1
10
58.2261041800681
20
-3.49010642409658
30
0
41
1
10
59.4999999999998
20
-5.684E-13
30
0
0
SPLINE
5
137
100
AcDbEntity
8
1
62
256
6
ByLayer
370
13
48
1
60
0
100
AcDbSpline
70
4
71
3
72
8
73
4
40
0
40
0
40
0
40
0
40
1
40
1
40
1
40
1
41
1
10
55.6783125402051
20
4.33664585734024
30
0
41
1
10
56.9522083601366
20
2.8789154698068
30
0
41
1
10
58.2261041800682
20
1.4333563240273
30
0
41
1
10
59.4999999999998
20
2.274E-13
30
0
0
SPLINE
5
138
100
AcDbEntity
8
1
62
256
6
ByLayer
370
13
48
1
60
0
100
AcDbSpline
70
4
71
3
72
8
73
4
40
0
40
0
40
0
40
0
40
1
40
1
40
1
40
1
41
1
10
55.6783125402048
20
7.51981800765856
30
0
41
1
10
56.9522083601366
20
5.02254735297259
30
0
41
1
10
58.2261041800683
20
2.51592302285766
30
0
41
1
10
59.5
20
-2.84E-14
30
0
0
LINE
5
7D
100
AcDbEntity
8
4
62
256
6
ByLayer
370
18
48
0.05
60
0
100
AcDbLine
10
-5
20
0
30
0
11
64.5
21
0
31
0
39
0
210
0
220
0
230
1
0
LINE
5
7F
100
AcDbEntity
8
81
62
256
6
ByLayer
370
18
48
1
60
0
100
AcDbLine
10
59.5
20
0
30
0
11
64.5
21
0
31
0
39
0
210
0
220
0
230
1
0
LINE
5
80
100
AcDbEntity
8
SK4
62
256
6
ByLayer
370
18
48
0.05
60
0
100
AcDbLine
10
-61
20
0
30
0
11
64.5
21
0
31
0
39
0
210
0
220
0
230
1
0
LINE
5
82
100
AcDbEntity
8
80
62
256
6
ByLayer
370
18
48
1
60
0
100
AcDbLine
10
0
20
0
30
0
11
-5
21
0
31
0
39
0
210
0
220
0
230
1
0
LINE
5
83
100
AcDbEntity
8
1
62
256
6
ByLayer
370
18
48
1
60
0
100
AcDbLine
10
55.678313
20
10.5
30
0
11
55.678313
21
10.166615
31
0
39
0
210
0
220
0
230
1
0
LINE
5
84
100
AcDbEntity
8
1
62
256
6
ByLayer
370
18
48
1
60
0
100
AcDbLine
10
55.678313
20
-10.5
30
0
11
55.678313
21
-1.498138
31
0
39
0
210
0
220
0
230
1
0
LINE
5
85
100
AcDbEntity
8
1
62
256
6
ByLayer
370
18
48
1
60
0
100
AcDbLine
10
15
20
-5.255386
30
0
11
15
21
9.742507
31
0
39
0
210
0
220
0
230
1
0
LINE
5
86
100
AcDbEntity
8
1
62
256
6
ByLayer
370
18
48
1
60
0
100
AcDbLine
10
0
20
-15
30
0
11
0
21
15
31
0
39
0
210
0
220
0
230
1
0
LINE
5
87
100
AcDbEntity
8
1
62
256
6
ByLayer
370
18
48
1
60
0
100
AcDbLine
10
3
20
-15
30
0
11
3
21
15
31
0
39
0
210
0
220
0
230
1
0
LINE
5
88
100
AcDbEntity
8
SK1
62
256
6
ByLayer
370
13
48
1
60
0
100
AcDbLine
10
-15.162813
20
-7.237775
30
0
11
-15.162813
21
7.237775
31
0
39
0
210
0
220
0
230
1
0
LINE
5
8A
100
AcDbEntity
8
SK1
62
256
6
ByLayer
370
13
48
1
60
0
100
AcDbLine
10
-51.386002
20
5.000227
30
0
11
-51.386002
21
-5.000227
31
0
39
0
210
0
220
0
230
1
0
LINE
5
8B
100
AcDbEntity
8
SK1
62
256
6
ByLayer
370
18
48
1
60
0
100
AcDbLine
10
-56
20
-11.5
30
0
11
-56
21
11.5
31
0
39
0
210
0
220
0
230
1
0
LINE
5
8C
100
AcDbEntity
8
SK1
62
256
6
ByLayer
370
13
48
1
60
0
100
AcDbLine
10
-52.500329
20
-3.620591
30
0
11
-52.500329
21
3.620591
31
0
39
0
210
0
220
0
230
1
0
LINE
5
8D
100
AcDbEntity
8
SK1
62
256
6
ByLayer
370
13
48
1
60
0
100
AcDbLine
10
-14.015776
20
6.592429
30
0
11
-14.015776
21
-6.592429
31
0
39
0
210
0
220
0
230
1
0
LINE
5
8E
100
AcDbEntity
8
SK1
62
256
6
ByLayer
370
18
48
1
60
0
100
AcDbLine
10
-55
20
-12.5
30
0
11
-55
21
12.5
31
0
39
0
210
0
220
0
230
1
0
LINE
5
8F
100
AcDbEntity
8
1
62
256
6
ByLayer
370
18
48
1
60
0
100
AcDbLine
10
59.5
20
0
30
0
11
55.678313
21
10.5
31
0
39
0
210
0
220
0
230
1
0
LINE
5
90
100
AcDbEntity
8
1
62
256
6
ByLayer
370
18
48
1
60
0
100
AcDbLine
10
55.678313
20
-10.5
30
0
11
59.5
21
0
31
0
39
0
210
0
220
0
230
1
0
LINE
5
91
100
AcDbEntity
8
1
62
256
6
ByLayer
370
18
48
1
60
0
100
AcDbLine
10
9.542782
20
12.382887
30
0
11
3
21
15
31
0
39
0
210
0
220
0
230
1
0
LINE
5
92
100
AcDbEntity
8
1
62
256
6
ByLayer
370
18
48
1
60
0
100
AcDbLine
10
3
20
-15
30
0
11
9.542782
21
-12.382887
31
0
39
0
210
0
220
0
230
1
0
LINE
5
93
100
AcDbEntity
8
1
62
256
6
ByLayer
370
18
48
1
60
0
100
AcDbLine
10
0
20
-15
30
0
11
3
21
-15
31
0
39
0
210
0
220
0
230
1
0
LINE
5
94
100
AcDbEntity
8
1
62
256
6
ByLayer
370
18
48
1
60
0
100
AcDbLine
10
3
20
15
30
0
11
0
21
15
31
0
39
0
210
0
220
0
230
1
0
LINE
5
95
100
AcDbEntity
8
1
62
256
6
ByLayer
370
18
48
1
60
0
100
AcDbLine
10
59.5
20
0
30
0
11
55.678313
21
10.5
31
0
39
0
210
0
220
0
230
1
0
LINE
5
96
100
AcDbEntity
8
1
62
256
6
ByLayer
370
18
48
1
60
0
100
AcDbLine
10
55.678313
20
-10.5
30
0
11
59.5
21
0
31
0
39
0
210
0
220
0
230
1
0
LINE
5
97
100
AcDbEntity
8
1
62
256
6
ByLayer
370
18
48
1
60
0
100
AcDbLine
10
44.7
20
-10.5
30
0
11
55.678313
21
-10.5
31
0
39
0
210
0
220
0
230
1
0
LINE
5
98
100
AcDbEntity
8
SK1
62
256
6
ByLayer
370
18
48
1
60
0
100
AcDbLine
10
-56
20
-11.5
30
0
11
-55
21
-12.5
31
0
39
0
210
0
220
0
230
1
0
LINE
5
99
100
AcDbEntity
8
SK1
62
256
6
ByLayer
370
18
48
1
60
0
100
AcDbLine
10
-55
20
12.5
30
0
11
-56
21
11.5
31
0
39
0
210
0
220
0
230
1
0
LINE
5
9A
100
AcDbEntity
8
SK1
62
256
6
ByLayer
370
18
48
1
60
0
100
AcDbLine
10
-55
20
-12.5
30
0
11
0
21
-12.5
31
0
39
0
210
0
220
0
230
1
0
LINE
5
9B
100
AcDbEntity
8
SK1
62
256
6
ByLayer
370
18
48
1
60
0
100
AcDbLine
10
0
20
12.5
30
0
11
-55
21
12.5
31
0
39
0
210
0
220
0
230
1
0
LINE
5
9C
100
AcDbEntity
8
1
62
256
6
ByLayer
370
18
48
1
60
0
100
AcDbLine
10
55.678313
20
10.5
30
0
11
55.678313
21
-10.5
31
0
39
0
210
0
220
0
230
1
0
LINE
5
9D
100
AcDbEntity
8
1
62
256
6
ByLayer
370
18
48
1
60
0
100
AcDbLine
10
55.678313
20
10.5
30
0
11
55.678313
21
-10.5
31
0
39
0
210
0
220
0
230
1
0
LINE
5
9E
100
AcDbEntity
8
1
62
256
6
ByLayer
370
18
48
1
60
0
100
AcDbLine
10
55.678313
20
10.5
30
0
11
55.678313
21
-10.5
31
0
39
0
210
0
220
0
230
1
0
LINE
5
9F
100
AcDbEntity
8
1
62
256
6
ByLayer
370
18
48
1
60
0
100
AcDbLine
10
44.7
20
10.5
30
0
11
44.7
21
-10.5
31
0
39
0
210
0
220
0
230
1
0
LINE
5
A0
100
AcDbEntity
8
1
62
256
6
ByLayer
370
18
48
1
60
0
100
AcDbLine
10
44.7
20
10.5
30
0
11
44.7
21
-10.5
31
0
39
0
210
0
220
0
230
1
0
LINE
5
A1
100
AcDbEntity
8
1
62
256
6
ByLayer
370
18
48
1
60
0
100
AcDbLine
10
55.678313
20
10.5
30
0
11
55.678313
21
-10.5
31
0
39
0
210
0
220
0
230
1
0
LINE
5
A2
100
AcDbEntity
8
1
62
256
6
ByLayer
370
18
48
1
60
0
100
AcDbLine
10
44.7
20
10.5
30
0
11
44.7
21
-10.5
31
0
39
0
210
0
220
0
230
1
0
LINE
5
A3
100
AcDbEntity
8
1
62
256
6
ByLayer
370
18
48
1
60
0
100
AcDbLine
10
55.678313
20
10.5
30
0
11
55.678313
21
-10.5
31
0
39
0
210
0
220
0
230
1
0
LINE
5
A4
100
AcDbEntity
8
SK2
62
256
6
ByLayer
370
13
48
1
60
0
100
AcDbLine
10
-62.5
20
-12.5
30
0
11
-62.5
21
41.524569
31
0
39
0
210
0
220
0
230
1
0
LINE
5
A6
100
AcDbEntity
8
SK2
62
256
6
ByLayer
370
13
48
1
60
0
100
AcDbLine
10
-57.5875
20
12.5
30
0
11
-64.5
21
12.5
31
0
39
0
210
0
220
0
230
1
0
LINE
5
A7
100
AcDbEntity
8
SK2
62
256
6
ByLayer
370
13
48
1
60
0
100
AcDbLine
10
-57.5875
20
-12.5
30
0
11
-64.5
21
-12.5
31
0
39
0
210
0
220
0
230
1
0
LINE
5
A8
100
AcDbEntity
8
1
62
256
6
ByLayer
370
18
48
1
60
1
100
AcDbLine
10
-62.5
20
12.5
30
0
11
-62.039216
21
9.000002
31
0
39
0
210
0
220
0
230
1
0
LINE
5
A9
100
AcDbEntity
8
1
62
256
6
ByLayer
370
18
48
1
60
1
100
AcDbLine
10
-62.039216
20
9.000002
30
0
11
-62.960784
21
8.999998
31
0
39
0
210
0
220
0
230
1
0
LINE
5
AA
100
AcDbEntity
8
1
62
256
6
ByLayer
370
18
48
1
60
1
100
AcDbLine
10
-62.960784
20
8.999998
30
0
11
-62.5
21
12.5
31
0
39
0
210
0
220
0
230
1
0
LINE
5
AB
100
AcDbEntity
8
1
62
256
6
ByLayer
370
18
48
1
60
1
100
AcDbLine
10
-62.5
20
-12.5
30
0
11
-62.960784
21
-9.000002
31
0
39
0
210
0
220
0
230
1
0
LINE
5
AC
100
AcDbEntity
8
1
62
256
6
ByLayer
370
18
48
1
60
1
100
AcDbLine
10
-62.960784
20
-9.000002
30
0
11
-62.039216
21
-8.999998
31
0
39
0
210
0
220
0
230
1
0
LINE
5
AD
100
AcDbEntity
8
1
62
256
6
ByLayer
370
18
48
1
60
1
100
AcDbLine
10
-62.039216
20
-8.999998
30
0
11
-62.5
21
-12.5
31
0
39
0
210
0
220
0
230
1
0
LINE
5
AE
100
AcDbEntity
8
2
62
256
6
ByLayer
370
13
48
1
60
0
100
AcDbLine
10
67
20
-10.5
30
0
11
67
21
38.774683
31
0
39
0
210
0
220
0
230
1
0
LINE
5
B0
100
AcDbEntity
8
2
62
256
6
ByLayer
370
13
48
1
60
0
100
AcDbLine
10
57.265813
20
10.5
30
0
11
69
21
10.5
31
0
39
0
210
0
220
0
230
1
0
LINE
5
B1
100
AcDbEntity
8
2
62
256
6
ByLayer
370
13
48
1
60
0
100
AcDbLine
10
57.265813
20
-10.5
30
0
11
69
21
-10.5
31
0
39
0
210
0
220
0
230
1
0
LINE
5
B2
100
AcDbEntity
8
1
62
256
6
ByLayer
370
18
48
1
60
1
100
AcDbLine
10
67
20
10.5
30
0
11
67.460784
21
7.000002
31
0
39
0
210
0
220
0
230
1
0
LINE
5
B3
100
AcDbEntity
8
1
62
256
6
ByLayer
370
18
48
1
60
1
100
AcDbLine
10
67.460784
20
7.000002
30
0
11
66.539216
21
6.999998
31
0
39
0
210
0
220
0
230
1
0
LINE
5
B4
100
AcDbEntity
8
1
62
256
6
ByLayer
370
18
48
1
60
1
100
AcDbLine
10
66.539216
20
6.999998
30
0
11
67
21
10.5
31
0
39
0
210
0
220
0
230
1
0
LINE
5
B5
100
AcDbEntity
8
1
62
256
6
ByLayer
370
18
48
1
60
1
100
AcDbLine
10
67
20
-10.5
30
0
11
66.539216
21
-7.000002
31
0
39
0
210
0
220
0
230
1
0
LINE
5
B6
100
AcDbEntity
8
1
62
256
6
ByLayer
370
18
48
1
60
1
100
AcDbLine
10
66.539216
20
-7.000002
30
0
11
67.460784
21
-6.999998
31
0
39
0
210
0
220
0
230
1
0
LINE
5
B7
100
AcDbEntity
8
1
62
256
6
ByLayer
370
18
48
1
60
1
100
AcDbLine
10
67.460784
20
-6.999998
30
0
11
67
21
-10.5
31
0
39
0
210
0
220
0
230
1
0
LINE
5
B8
100
AcDbEntity
8
SK2
62
256
6
ByLayer
370
13
48
1
60
0
100
AcDbLine
10
60.042957
20
-1.491762
30
0
11
66.682423
21
-19.733545
31
0
39
0
210
0
220
0
230
1
0
LINE
5
B9
100
AcDbEntity
8
SK2
62
256
6
ByLayer
370
13
48
1
60
0
100
AcDbLine
10
60.042957
20
1.491762
30
0
11
66.682423
21
19.733545
31
0
39
0
210
0
220
0
230
1
0
LINE
5
BA
100
AcDbEntity
8
1
62
256
6
ByLayer
370
18
48
1
60
1
100
AcDbLine
10
65.998383
20
-17.85416
30
0
11
69.051575
21
-16.082064
31
0
39
0
210
0
220
0
230
1
0
LINE
5
BB
100
AcDbEntity
8
1
62
256
6
ByLayer
370
18
48
1
60
1
100
AcDbLine
10
69.051575
20
-16.082064
30
0
11
69.406196
21
-16.93267
31
0
39
0
210
0
220
0
230
1
0
LINE
5
BC
100
AcDbEntity
8
1
62
256
6
ByLayer
370
18
48
1
60
1
100
AcDbLine
10
69.406196
20
-16.93267
30
0
11
65.998383
21
-17.85416
31
0
39
0
210
0
220
0
230
1
0
LINE
5
BD
100
AcDbEntity
8
1
62
256
6
ByLayer
370
18
48
1
60
1
100
AcDbLine
10
65.998383
20
17.85416
30
0
11
69.406193
21
16.932671
31
0
39
0
210
0
220
0
230
1
0
LINE
5
BE
100
AcDbEntity
8
1
62
256
6
ByLayer
370
18
48
1
60
1
100
AcDbLine
10
69.406193
20
16.932671
30
0
11
69.051579
21
16.082063
31
0
39
0
210
0
220
0
230
1
0
LINE
5
BF
100
AcDbEntity
8
1
62
256
6
ByLayer
370
18
48
1
60
1
100
AcDbLine
10
69.051579
20
16.082063
30
0
11
65.998383
21
17.85416
31
0
39
0
210
0
220
0
230
1
0
LINE
5
13D
100
AcDbEntity
8
1
62
256
6
ByLayer
370
18
48
1
60
1
100
AcDbLine
10
-62.5
20
12.5
30
0
11
-62.039216
21
9.000002
31
0
39
0
210
0
220
0
230
1
0
LINE
5
13E
100
AcDbEntity
8
1
62
256
6
ByLayer
370
18
48
1
60
1
100
AcDbLine
10
-62.039216
20
9.000002
30
0
11
-62.960784
21
8.999998
31
0
39
0
210
0
220
0
230
1
0
LINE
5
13F
100
AcDbEntity
8
1
62
256
6
ByLayer
370
18
48
1
60
1
100
AcDbLine
10
-62.960784
20
8.999998
30
0
11
-62.5
21
12.5
31
0
39
0
210
0
220
0
230
1
0
LINE
5
141
100
AcDbEntity
8
1
62
256
6
ByLayer
370
18
48
1
60
1
100
AcDbLine
10
-62.5
20
-12.5
30
0
11
-62.960784
21
-9.000002
31
0
39
0
210
0
220
0
230
1
0
LINE
5
142
100
AcDbEntity
8
1
62
256
6
ByLayer
370
18
48
1
60
1
100
AcDbLine
10
-62.960784
20
-9.000002
30
0
11
-62.039216
21
-8.999998
31
0
39
0
210
0
220
0
230
1
0
LINE
5
143
100
AcDbEntity
8
1
62
256
6
ByLayer
370
18
48
1
60
1
100
AcDbLine
10
-62.039216
20
-8.999998
30
0
11
-62.5
21
-12.5
31
0
39
0
210
0
220
0
230
1
0
LINE
5
147
100
AcDbEntity
8
1
62
256
6
ByLayer
370
18
48
1
60
1
100
AcDbLine
10
67
20
10.5
30
0
11
67.460784
21
7.000002
31
0
39
0
210
0
220
0
230
1
0
LINE
5
148
100
AcDbEntity
8
1
62
256
6
ByLayer
370
18
48
1
60
1
100
AcDbLine
10
67.460784
20
7.000002
30
0
11
66.539216
21
6.999998
31
0
39
0
210
0
220
0
230
1
0
LINE
5
149
100
AcDbEntity
8
1
62
256
6
ByLayer
370
18
48
1
60
1
100
AcDbLine
10
66.539216
20
6.999998
30
0
11
67
21
10.5
31
0
39
0
210
0
220
0
230
1
0
LINE
5
14B
100
AcDbEntity
8
1
62
256
6
ByLayer
370
18
48
1
60
1
100
AcDbLine
10
67
20
-10.5
30
0
11
66.539216
21
-7.000002
31
0
39
0
210
0
220
0
230
1
0
LINE
5
14C
100
AcDbEntity
8
1
62
256
6
ByLayer
370
18
48
1
60
1
100
AcDbLine
10
66.539216
20
-7.000002
30
0
11
67.460784
21
-6.999998
31
0
39
0
210
0
220
0
230
1
0
LINE
5
14D
100
AcDbEntity
8
1
62
256
6
ByLayer
370
18
48
1
60
1
100
AcDbLine
10
67.460784
20
-6.999998
30
0
11
67
21
-10.5
31
0
39
0
210
0
220
0
230
1
0
LINE
5
150
100
AcDbEntity
8
1
62
256
6
ByLayer
370
18
48
1
60
1
100
AcDbLine
10
65.998383
20
-17.85416
30
0
11
69.051575
21
-16.082064
31
0
39
0
210
0
220
0
230
1
0
LINE
5
151
100
AcDbEntity
8
1
62
256
6
ByLayer
370
18
48
1
60
1
100
AcDbLine
10
69.051575
20
-16.082064
30
0
11
69.406196
21
-16.93267
31
0
39
0
210
0
220
0
230
1
0
LINE
5
152
100
AcDbEntity
8
1
62
256
6
ByLayer
370
18
48
1
60
1
100
AcDbLine
10
69.406196
20
-16.93267
30
0
11
65.998383
21
-17.85416
31
0
39
0
210
0
220
0
230
1
0
LINE
5
154
100
AcDbEntity
8
1
62
256
6
ByLayer
370
18
48
1
60
1
100
AcDbLine
10
65.998383
20
17.85416
30
0
11
69.406193
21
16.932671
31
0
39
0
210
0
220
0
230
1
0
LINE
5
155
100
AcDbEntity
8
1
62
256
6
ByLayer
370
18
48
1
60
1
100
AcDbLine
10
69.406193
20
16.932671
30
0
11
69.051579
21
16.082063
31
0
39
0
210
0
220
0
230
1
0
LINE
5
156
100
AcDbEntity
8
1
62
256
6
ByLayer
370
18
48
1
60
1
100
AcDbLine
10
69.051579
20
16.082063
30
0
11
65.998383
21
17.85416
31
0
39
0
210
0
220
0
230
1
0
MTEXT
5
139
100
AcDbEntity
8
SK2
62
256
6
ByLayer
370
18
48
1
60
0
100
AcDbMText
10
-63.841114
20
24.158438
30
0
210
0
220
0
230
1
1
%%c
40
3
41
0
44
1.084337
50
90
71
7
72
5
7
iso_b_vert
0
MTEXT
5
13C
100
AcDbEntity
8
SK2
62
256
6
ByLayer
370
18
48
1
60
0
100
AcDbMText
10
-63.841114
20
30.135
30
0
210
0
220
0
230
1
1
\W0.7513;25.000
40
3
41
0
44
1.084337
50
90
71
7
72
5
7
iso_b_vert
0
MTEXT
5
145
100
AcDbEntity
8
2
62
256
6
ByLayer
370
18
48
1
60
0
100
AcDbMText
10
65.658886
20
22.158438
30
0
210
0
220
0
230
1
1
%%c
40
3
41
0
44
1.084337
50
90
71
7
72
5
7
iso_b_vert
0
MTEXT
5
146
100
AcDbEntity
8
2
62
256
6
ByLayer
370
18
48
1
60
0
100
AcDbMText
10
65.658886
20
28.135
30
0
210
0
220
0
230
1
1
\W0.7022;21.000
40
3
41
0
44
1.084337
50
90
71
7
72
5
7
iso_b_vert
0
MTEXT
5
14F
100
AcDbEntity
8
SK2
62
256
6
ByLayer
370
18
48
1
60
0
100
AcDbMText
10
79.409114
20
3.734657
30
0
210
0
220
0
230
1
1
\W0.7071;140%%d
40
3
41
0
44
1.084337
50
270
71
7
72
5
7
iso_b_vert
0
MTEXT
5
158
100
AcDbEntity
8
SK6
62
256
6
ByLayer
370
18
48
1
60
0
100
AcDbMText
10
-21.412312
20
-67.114886
30
0
210
0
220
0
230
1
1
\W0.7197;H85121.0
40
3
41
0
44
1.084337
50
0
71
7
72
5
7
iso_b_vert
0
HATCH
5
140
100
AcDbEntity
8
SK2
62
256
6
ByLayer
370
13
48
1
60
0
100
AcDbHatch
10
0
20
0
30
0
210
0
220
0
230
1
2
ANSI31
70
0
71
0
91
1
92
5
93
3
72
1
10
-62.5
20
12.5
11
-62.0392162584472
21
9.00000169255318
72
1
10
-62.0392162584472
20
9.00000169255318
11
-62.9607837415528
21
8.99999830744682
72
1
10
-62.9607837415528
20
8.99999830744682
11
-62.5
21
12.5
97
0
75
0
76
1
52
0
41
0.0062
77
0
78
1
53
45
43
0
44
0
45
-0.0139193969876572
46
0.0139193969876572
79
0
47
0
98
1
10
0
20
0
0
HATCH
5
144
100
AcDbEntity
8
SK2
62
256
6
ByLayer
370
13
48
1
60
0
100
AcDbHatch
10
0
20
0
30
0
210
0
220
0
230
1
2
ANSI31
70
0
71
0
91
1
92
5
93
3
72
1
10
-62.5
20
-12.5
11
-62.9607837415528
21
-9.00000169255318
72
1
10
-62.9607837415528
20
-9.00000169255318
11
-62.0392162584472
21
-8.99999830744682
72
1
10
-62.0392162584472
20
-8.99999830744682
11
-62.5
21
-12.5
97
0
75
0
76
1
52
0
41
0.0062
77
0
78
1
53
45
43
0
44
0
45
-0.0139193969876572
46
0.0139193969876572
79
0
47
0
98
1
10
0
20
0
0
HATCH
5
14A
100
AcDbEntity
8
2
62
256
6
ByLayer
370
13
48
1
60
0
100
AcDbHatch
10
0
20
0
30
0
210
0
220
0
230
1
2
ANSI31
70
0
71
0
91
1
92
5
93
3
72
1
10
66.9999999999999
20
10.5
11
67.4607837415527
21
7.00000169255318
72
1
10
67.4607837415527
20
7.00000169255318
11
66.5392162584471
21
6.99999830744682
72
1
10
66.5392162584471
20
6.99999830744682
11
66.9999999999999
21
10.5
97
0
75
0
76
1
52
0
41
0.0062
77
0
78
1
53
45
43
0
44
0
45
-0.0139193969876572
46
0.0139193969876572
79
0
47
0
98
1
10
0
20
0
0
HATCH
5
14E
100
AcDbEntity
8
2
62
256
6
ByLayer
370
13
48
1
60
0
100
AcDbHatch
10
0
20
0
30
0
210
0
220
0
230
1
2
ANSI31
70
0
71
0
91
1
92
5
93
3
72
1
10
66.9999999999999
20
-10.5
11
66.5392162584471
21
-7.00000169255318
72
1
10
66.5392162584471
20
-7.00000169255318
11
67.4607837415527
21
-6.99999830744682
72
1
10
67.4607837415527
20
-6.99999830744682
11
66.9999999999999
21
-10.5
97
0
75
0
76
1
52
0
41
0.0062
77
0
78
1
53
45
43
0
44
0
45
-0.0139193969876572
46
0.0139193969876572
79
0
47
0
98
1
10
0
20
0
0
HATCH
5
153
100
AcDbEntity
8
SK2
62
256
6
ByLayer
370
13
48
1
60
0
100
AcDbHatch
10
0
20
0
30
0
210
0
220
0
230
1
2
ANSI31
70
0
71
0
91
1
92
5
93
3
72
1
10
65.9983827231878
20
-17.8541597949322
11
69.051575425693
21
-16.0820638240607
72
1
10
69.051575425693
20
-16.0820638240607
11
69.4061958339751
21
-16.9326700737196
72
1
10
69.4061958339751
20
-16.9326700737196
11
65.9983827231878
21
-17.8541597949322
97
0
75
0
76
1
52
0
41
0.0062
77
0
78
1
53
45
43
0
44
0
45
-0.0139193969876572
46
0.0139193969876572
79
0
47
0
98
1
10
0
20
0
0
HATCH
5
157
100
AcDbEntity
8
SK2
62
256
6
ByLayer
370
13
48
1
60
0
100
AcDbHatch
10
0
20
0
30
0
210
0
220
0
230
1
2
ANSI31
70
0
71
0
91
1
92
5
93
3
72
1
10
65.9983827231878
20
17.8541597949322
11
69.4061927095191
21
16.9326713763016
72
1
10
69.4061927095191
20
16.9326713763016
11
69.051578550149
21
16.0820625214787
72
1
10
69.051578550149
20
16.0820625214787
11
65.9983827231878
21
17.8541597949322
97
0
75
0
76
1
52
0
41
0.0062
77
0
78
1
53
45
43
0
44
0
45
-0.0139193969876572
46
0.0139193969876572
79
0
47
0
98
1
10
0
20
0
0
DIMENSION
5
15B
100
AcDbEntity
8
SK2
62
256
6
ByLayer
370
18
48
1
60
0
100
AcDbDimension
2
_U0
10
59.5
20
-45.952229
30
0
11
1.75
21
-45.952229
31
0
70
32
71
1
72
1
41
1
210
0
220
0
230
1
3
Standard
100
AcDbAlignedDimension
13
-56
23
-12.5
33
0
14
59.5
24
0
34
0
50
0
100
AcDbRotatedDimension
1001
ACAD
1000
DSTYLE
1002
{
1070
   371
1070
    13
1070
   372
1070
    13
1070
     3
1000

1070
   170
1070
     0
1070
   144
1040
1.0
1070
   277
1070
     2
1070
   284
1070
     8
1070
   278
1070
    46
1070
   146
1040
1.166667
1070
   345
1005
16
1070
   347
1005
16
1070
   346
1005
16
1070
   344
1005
0
1070
   343
1005
0
1070
   172
1070
     1
1070
    76
1070
     0
1070
    75
1070
     0
1070
   282
1070
     0
1070
   281
1070
     0
1070
    71
1070
     0
1070
    74
1070
     0
1070
   279
1070
     0
1070
   173
1070
     1
1070
   340
1005
13A
1070
   271
1070
     2
1070
   272
1070
     3
1070
    77
1070
     1
1070
    73
1070
     1
1070
   171
1070
     3
1070
   274
1070
     4
1070
   177
1070
     2
1070
   176
1070
     2
1070
   178
1070
     2
1070
    78
1070
     8
1070
    48
1040
-0.1
1070
    41
1040
3.5
1070
   147
1040
1.5
1070
    42
1040
1.5875
1070
    44
1040
2.0
1070
   140
1040
3.0
1002
}
1001
ACAD_DSTYLE_DIM_LINETYPE
1070
   380
1005
16
1001
ACAD_DSTYLE_DIM_EXT1_LINETYPE
1070
   381
1005
16
1001
ACAD_DSTYLE_DIM_EXT2_LINETYPE
1070
   382
1005
16
0
DIMENSION
5
174
100
AcDbEntity
8
SK2
62
256
6
ByLayer
370
18
48
1
60
0
100
AcDbDimension
2
_U1
10
6
20
-35.952229
30
0
11
32.75
21
-35.952229
31
0
70
32
71
1
72
1
41
1
210
0
220
0
230
1
3
Standard
100
AcDbAlignedDimension
13
59.5
23
0
33
0
14
6
24
-10.5
34
0
50
0
100
AcDbRotatedDimension
1001
ACAD
1000
DSTYLE
1002
{
1070
   371
1070
    13
1070
   372
1070
    13
1070
     3
1000

1070
   170
1070
     0
1070
   144
1040
1.0
1070
   277
1070
     2
1070
   284
1070
     8
1070
   278
1070
    46
1070
   146
1040
1.166667
1070
   345
1005
16
1070
   347
1005
16
1070
   346
1005
16
1070
   344
1005
0
1070
   343
1005
0
1070
   172
1070
     1
1070
    76
1070
     0
1070
    75
1070
     0
1070
   282
1070
     0
1070
   281
1070
     0
1070
    71
1070
     0
1070
    74
1070
     0
1070
   279
1070
     0
1070
   173
1070
     1
1070
   340
1005
13A
1070
   271
1070
     2
1070
   272
1070
     3
1070
    77
1070
     1
1070
    73
1070
     1
1070
   171
1070
     3
1070
   274
1070
     4
1070
   177
1070
     2
1070
   176
1070
     2
1070
   178
1070
     2
1070
    78
1070
     8
1070
    48
1040
-0.1
1070
    41
1040
3.5
1070
   147
1040
1.5
1070
    42
1040
1.5875
1070
    44
1040
2.0
1070
   140
1040
3.0
1002
}
1001
ACAD_DSTYLE_DIM_LINETYPE
1070
   380
1005
16
1001
ACAD_DSTYLE_DIM_EXT1_LINETYPE
1070
   381
1005
16
1001
ACAD_DSTYLE_DIM_EXT2_LINETYPE
1070
   382
1005
16
0
DIMENSION
5
18C
100
AcDbEntity
8
SK2
62
256
6
ByLayer
370
18
48
1
60
0
100
AcDbDimension
2
_U2
10
0
20
-35.952229
30
0
11
-28
21
-35.952229
31
0
70
32
71
1
72
1
41
1
210
0
220
0
230
1
3
Standard
100
AcDbAlignedDimension
13
-56
23
-12.5
33
0
14
0
24
-12.5
34
0
50
0
100
AcDbRotatedDimension
1001
ACAD
1000
DSTYLE
1002
{
1070
   371
1070
    13
1070
   372
1070
    13
1070
     3
1000

1070
   170
1070
     0
1070
   144
1040
1.0
1070
   277
1070
     2
1070
   284
1070
     8
1070
   278
1070
    46
1070
   146
1040
1.166667
1070
   345
1005
16
1070
   347
1005
16
1070
   346
1005
16
1070
   344
1005
0
1070
   343
1005
0
1070
   172
1070
     1
1070
    76
1070
     0
1070
    75
1070
     0
1070
   282
1070
     0
1070
   281
1070
     0
1070
    71
1070
     0
1070
    74
1070
     0
1070
   279
1070
     0
1070
   173
1070
     1
1070
   340
1005
13A
1070
   271
1070
     2
1070
   272
1070
     3
1070
    77
1070
     1
1070
    73
1070
     1
1070
   171
1070
     3
1070
   274
1070
     4
1070
   177
1070
     2
1070
   176
1070
     2
1070
   178
1070
     2
1070
    78
1070
     8
1070
    48
1040
-0.1
1070
    41
1040
3.5
1070
   147
1040
1.5
1070
    42
1040
1.5875
1070
    44
1040
2.0
1070
   140
1040
3.0
1002
}
1001
ACAD_DSTYLE_DIM_LINETYPE
1070
   380
1005
16
1001
ACAD_DSTYLE_DIM_EXT1_LINETYPE
1070
   381
1005
16
1001
ACAD_DSTYLE_DIM_EXT2_LINETYPE
1070
   382
1005
16
0
DIMENSION
5
1A4
100
AcDbEntity
8
SK2
62
256
6
ByLayer
370
18
48
1
60
0
100
AcDbDimension
2
_U3
10
15
20
32.952229
30
0
11
37.25
21
32.952229
31
0
70
32
71
1
72
1
41
1
210
0
220
0
230
1
3
Standard
100
AcDbAlignedDimension
13
59.5
23
0
33
0
14
15
24
10.5
34
0
50
0
100
AcDbRotatedDimension
1001
ACAD
1000
DSTYLE
1002
{
1070
   371
1070
    13
1070
   372
1070
    13
1070
     3
1000

1070
   170
1070
     0
1070
   144
1040
1.0
1070
   277
1070
     2
1070
   284
1070
     8
1070
   278
1070
    46
1070
   146
1040
1.166667
1070
   345
1005
16
1070
   347
1005
16
1070
   346
1005
16
1070
   344
1005
0
1070
   343
1005
0
1070
   172
1070
     1
1070
    76
1070
     0
1070
    75
1070
     0
1070
   282
1070
     0
1070
   281
1070
     0
1070
    71
1070
     0
1070
    74
1070
     0
1070
   279
1070
     0
1070
   173
1070
     1
1070
   340
1005
13A
1070
   271
1070
     2
1070
   272
1070
     3
1070
    77
1070
     1
1070
    73
1070
     1
1070
   171
1070
     3
1070
   274
1070
     4
1070
   177
1070
     2
1070
   176
1070
     2
1070
   178
1070
     2
1070
    78
1070
     8
1070
    48
1040
-0.1
1070
    41
1040
3.5
1070
   147
1040
1.5
1070
    42
1040
1.5875
1070
    44
1040
2.0
1070
   140
1040
3.0
1002
}
1001
ACAD_DSTYLE_DIM_LINETYPE
1070
   380
1005
16
1001
ACAD_DSTYLE_DIM_EXT1_LINETYPE
1070
   381
1005
16
1001
ACAD_DSTYLE_DIM_EXT2_LINETYPE
1070
   382
1005
16
0
ENDSEC
0
SECTION
2
OBJECTS
0
DICTIONARY
5
22c
330
0
100
AcDbDictionary
280
0
281
1
3
ACAD_GROUP
350
22d
3
ACAD_MLINESTYLE
350
22e
0
DICTIONARY
5
22d
330
0
100
AcDbDictionary
280
0
281
1
0
DICTIONARY
5
22e
330
0
100
AcDbDictionary
280
0
281
1
3
Standard
350
18
0
MLINESTYLE
5
18
330
22e
100
AcDbMlineStyle
2
Standard
70
0
3

62
256
51
90
52
90
71
2
49
-0.5
62
256
6
ByLayer
49
0.5
62
256
6
ByLayer
0
RASTERVARIABLES
5
21a
330

100
AcDbRasterVariables
90
0
70
1
71
1
72
1
0
ENDSEC
0
EOF
