0
SECTION
2
HEADER
9
$ACADVER
1
AC1015
9
$DWGCODEPAGE
3
ANSI_1252
9
$HANDSEED
5
22e
9
$ANGBASE
50
0
9
$ANGDIR
70
0
9
$ATTMODE
70
1
9
$AUNITS
70
0
9
$AUPREC
70
0
9
$CECOLOR
62
256
9
$CELTSCALE
40
1
9
$CELTYPE
6
ByLayer
9
$CELWEIGHT
370
18
9
$CLAYER
8
0
9
$CMLJUST
70
0
9
$CMLSCALE
40
1
9
$CMLSTYLE
2
Standard
9
$DIMSTYLE
2
Standard
9
$TEXTSIZE
40
0.2
9
$TEXTSTYLE
7
Standard
9
$LUNITS
70
2
9
$LUPREC
70
4
9
$EXTNAMES
290
1
9
$INSUNITS
70
4
9
$LTSCALE
40
1
9
$LWDISPLAY
290
1
9
$PDMODE
70
0
9
$PDSIZE
40
0
9
$PLINEGEN
70
0
0
ENDSEC
0
SECTION
2
CLASSES
0
CLASS
1
RASTERVARIABLES
2
AcDbRasterVariables
3
ISM
90
0
280
0
281
0
0
ENDSEC
0
SECTION
2
TABLES
0
TABLE
2
VPORT
5
224
100
AcDbSymbolTable
0
VPORT
5
1
100
AcDbSymbolTableRecord
100
AcDbViewportTableRecord
2
*Active
70
0
10
0
20
0
11
1
21
1
12
-1
22
1
13
0
23
0
14
0.5
24
0.5
15
10
25
10
16
0
26
0
36
1
17
0
27
0
37
0
0
ENDTAB
0
TABLE
2
LTYPE
5
225
100
AcDbSymbolTable
0
LTYPE
5
14
100
AcDbSymbolTableRecord
100
AcDbLinetypeTableRecord
70
0
2
ByBlock
3

72
65
73
0
40
0
0
LTYPE
5
15
100
AcDbSymbolTableRecord
100
AcDbLinetypeTableRecord
70
0
2
ByLayer
3

72
65
73
0
40
0
0
LTYPE
5
16
100
AcDbSymbolTableRecord
100
AcDbLinetypeTableRecord
70
0
2
Continuous
3
Solid line
72
65
73
0
40
0
0
LTYPE
5
6E
100
AcDbSymbolTableRecord
100
AcDbLinetypeTableRecord
70
0
2
CENTER
3
____ _ ____ _ ____ _ ____
72
65
73
4
40
47.5
49
22
74
0
49
-8.5
74
0
49
8.5
74
0
49
-8.5
74
0
0
LTYPE
5
6F
100
AcDbSymbolTableRecord
100
AcDbLinetypeTableRecord
70
0
2
DASHED
3
__ __ __ __ __ __ __ __ __
72
65
73
2
40
25.72
49
12.86
74
0
49
-12.86
74
0
0
ENDTAB
0
TABLE
2
LAYER
5
226
100
AcDbSymbolTable
0
LAYER
5
10
100
AcDbSymbolTableRecord
100
AcDbLayerTableRecord
2
0
70
0
62
7
6
Continuous
290
1
370
-3
390
0
0
LAYER
5
71
100
AcDbSymbolTableRecord
100
AcDbLayerTableRecord
2
81
70
0
62
-3
6
Continuous
290
1
370
-3
390
0
0
LAYER
5
73
100
AcDbSymbolTableRecord
100
AcDbLayerTableRecord
2
80
70
0
62
-6
6
Continuous
290
1
370
-3
390
0
0
LAYER
5
75
100
AcDbSymbolTableRecord
100
AcDbLayerTableRecord
2
1
70
0
62
4
6
Continuous
290
1
370
-3
390
0
0
LAYER
5
7E
100
AcDbSymbolTableRecord
100
AcDbLayerTableRecord
2
4
70
0
62
-2
6
CENTER
290
1
370
-3
390
0
0
LAYER
5
B2
100
AcDbSymbolTableRecord
100
AcDbLayerTableRecord
2
2
70
0
62
7
6
Continuous
290
1
370
-3
390
0
0
LAYER
5
153
100
AcDbSymbolTableRecord
100
AcDbLayerTableRecord
2
Defpoints
70
0
62
7
6
Continuous
290
0
370
-3
390
0
0
LAYER
5
210
100
AcDbSymbolTableRecord
100
AcDbLayerTableRecord
2
SK4
70
0
62
2
6
CENTER
290
1
370
-3
390
0
0
LAYER
5
211
100
AcDbSymbolTableRecord
100
AcDbLayerTableRecord
2
SK1
70
0
62
4
6
Continuous
290
1
370
-3
390
0
0
LAYER
5
212
100
AcDbSymbolTableRecord
100
AcDbLayerTableRecord
2
SK2
70
0
62
7
6
Continuous
290
1
370
-3
390
0
0
LAYER
5
213
100
AcDbSymbolTableRecord
100
AcDbLayerTableRecord
2
SK6
70
0
62
5
6
Continuous
290
1
370
-3
390
0
0
ENDTAB
0
TABLE
2
STYLE
5
227
100
AcDbSymbolTable
0
STYLE
5
11
100
AcDbSymbolTableRecord
100
AcDbTextStyleTableRecord
2
Standard
3
txt
70
0
71
0
40
0
41
1
42
0
50
0
0
STYLE
5
12F
100
AcDbSymbolTableRecord
100
AcDbTextStyleTableRecord
2
iso_b_vert
3
simplex.shx
70
0
71
0
40
0
41
1
42
0
50
0
0
STYLE
5
130
100
AcDbSymbolTableRecord
100
AcDbTextStyleTableRecord
2
DWGDirectTextStyle
3
simplex
70
0
71
0
40
0
41
1
42
0
50
0
0
ENDTAB
0
TABLE
2
DIMSTYLE
5
228
100
AcDbSymbolTable
100
AcDbDimStyleTable
0
DIMSTYLE
105
27
100
AcDbSymbolTableRecord
100
AcDbDimStyleTableRecord
2
Standard
70
0
3
<>
41
0.18
42
0.0625
44
0.18
140
0.18
147
0.09
73
0
74
0
77
1
271
2
275
0
278
52
280
0
340
11
0
ENDTAB
0
TABLE
2
VIEW
5
229
100
AcDbSymbolTable
0
ENDTAB
0
TABLE
2
UCS
5
22a
100
AcDbSymbolTable
0
ENDTAB
0
TABLE
2
APPID
5
22b
100
AcDbSymbolTable
0
APPID
5
12
100
AcDbSymbolTableRecord
100
AcDbRegAppTableRecord
2
ACAD
70
0
0
APPID
5
14F
100
AcDbSymbolTableRecord
100
AcDbRegAppTableRecord
2
ACAD_DSTYLE_DIMBREAK
70
0
0
APPID
5
1CF
100
AcDbSymbolTableRecord
100
AcDbRegAppTableRecord
2
ACAD_DSTYLE_DIM_LINETYPE
70
0
0
APPID
5
1D0
100
AcDbSymbolTableRecord
100
AcDbRegAppTableRecord
2
ACAD_DSTYLE_DIM_EXT1_LINETYPE
70
0
0
APPID
5
1D1
100
AcDbSymbolTableRecord
100
AcDbRegAppTableRecord
2
ACAD_DSTYLE_DIM_EXT2_LINETYPE
70
0
0
APPID
5
20C
100
AcDbSymbolTableRecord
100
AcDbRegAppTableRecord
2
ACAD_MLEADERVER
70
0
0
ENDTAB
0
TABLE
2
BLOCK_RECORD
5
22c
100
AcDbSymbolTable
0
BLOCK_RECORD
5
1F
100
AcDbSymbolTableRecord
100
AcDbBlockTableRecord
2
*Model_Space
340
0
70
0
0
BLOCK_RECORD
5
1B
100
AcDbSymbolTableRecord
100
AcDbBlockTableRecord
2
*Paper_Space
340
0
70
0
0
BLOCK_RECORD
5
23
100
AcDbSymbolTableRecord
100
AcDbBlockTableRecord
2
*Paper_Space0
340
0
70
0
0
BLOCK_RECORD
5
154
100
AcDbSymbolTableRecord
100
AcDbBlockTableRecord
2
*D1
340
0
70
0
0
BLOCK_RECORD
5
160
100
AcDbSymbolTableRecord
100
AcDbBlockTableRecord
2
_U0
340
0
70
0
0
BLOCK_RECORD
5
16C
100
AcDbSymbolTableRecord
100
AcDbBlockTableRecord
2
*D3
340
0
70
0
0
BLOCK_RECORD
5
178
100
AcDbSymbolTableRecord
100
AcDbBlockTableRecord
2
_U1
340
0
70
0
0
BLOCK_RECORD
5
184
100
AcDbSymbolTableRecord
100
AcDbBlockTableRecord
2
*D5
340
0
70
0
0
BLOCK_RECORD
5
190
100
AcDbSymbolTableRecord
100
AcDbBlockTableRecord
2
_U2
340
0
70
0
0
BLOCK_RECORD
5
19C
100
AcDbSymbolTableRecord
100
AcDbBlockTableRecord
2
*D7
340
0
70
0
0
BLOCK_RECORD
5
1A8
100
AcDbSymbolTableRecord
100
AcDbBlockTableRecord
2
_U3
340
0
70
0
0
ENDTAB
0
ENDSEC
0
SECTION
2
BLOCKS
0
BLOCK
5
20
100
AcDbEntity
8
0
100
AcDbBlockBegin
2
*Model_Space
70
0
10
0
20
0
30
0
3
*Model_Space
0
ENDBLK
5
21
100
AcDbEntity
8
0
100
AcDbBlockEnd
0
BLOCK
5
1C
100
AcDbEntity
8
0
100
AcDbBlockBegin
2
*Paper_Space
70
0
10
0
20
0
30
0
3
*Paper_Space
0
ENDBLK
5
1D
100
AcDbEntity
8
0
100
AcDbBlockEnd
0
BLOCK
5
24
100
AcDbEntity
8
0
100
AcDbBlockBegin
2
*Paper_Space0
70
0
10
0
20
0
30
0
3
*Paper_Space0
0
ENDBLK
5
25
100
AcDbEntity
8
0
100
AcDbBlockEnd
0
BLOCK
5
155
100
AcDbEntity
8
0
100
AcDbBlockBegin
2
*D1
70
1
10
0
20
0
30
0
3
*D1
0
LINE
5
157
100
AcDbEntity
8
0
62
256
6
ByLayer
370
-2
48
1
60
0
100
AcDbLine
10
-56
20
-14.0875
30
0
11
-56
21
-45.196727
31
0
39
0
210
0
220
0
230
1
0
LINE
5
158
100
AcDbEntity
8
0
62
256
6
ByLayer
370
-2
48
1
60
0
100
AcDbLine
10
249.6
20
-1.5875
30
0
11
249.6
21
-45.196727
31
0
39
0
210
0
220
0
230
1
0
LINE
5
159
100
AcDbEntity
8
0
62
256
6
ByLayer
370
-2
48
1
60
0
100
AcDbLine
10
-52.5
20
-43.196727
30
0
11
246.1
21
-43.196727
31
0
39
0
210
0
220
0
230
1
0
SOLID
5
15A
100
AcDbEntity
8
0
62
256
6
ByLayer
370
-1
48
1
60
0
100
AcDbTrace
10
-52.5
20
-42.613394
30
0
11
-52.5
21
-43.780061
31
0
12
-56
22
-43.196727
32
0
13
-56
23
-43.196727
33
0
39
0
210
0
220
0
230
1
0
SOLID
5
15B
100
AcDbEntity
8
0
62
256
6
ByLayer
370
-1
48
1
60
0
100
AcDbTrace
10
246.1
20
-43.780061
30
0
11
246.1
21
-42.613394
31
0
12
249.6
22
-43.196727
32
0
13
249.6
23
-43.196727
33
0
39
0
210
0
220
0
230
1
0
MTEXT
5
15C
100
AcDbEntity
8
0
62
256
6
ByLayer
370
18
48
1
60
0
100
AcDbMText
10
96.8
20
-37.196727
30
0
210
0
220
0
230
1
1
\A1;305.6
40
3
41
0
44
1
50
0
71
5
72
5
7
iso_b_vert
0
POINT
5
15D
100
AcDbEntity
8
Defpoints
62
0
6
ByLayer
370
-1
48
1
60
0
100
AcDbPoint
10
-56
20
-12.5
30
0
39
0
210
0
220
0
230
1
50
360
0
POINT
5
15E
100
AcDbEntity
8
Defpoints
62
0
6
ByLayer
370
-1
48
1
60
0
100
AcDbPoint
10
249.6
20
0
30
0
39
0
210
0
220
0
230
1
50
360
0
POINT
5
15F
100
AcDbEntity
8
Defpoints
62
0
6
ByLayer
370
-1
48
1
60
0
100
AcDbPoint
10
249.6
20
-43.196727
30
0
39
0
210
0
220
0
230
1
50
360
0
ENDBLK
5
156
100
AcDbEntity
8
0
100
AcDbBlockEnd
0
BLOCK
5
167
100
AcDbEntity
8
0
100
AcDbBlockBegin
2
_U0
70
0
10
0
20
0
30
0
3
_U0
0
MTEXT
5
161
100
AcDbEntity
8
SK2
62
256
6
ByLayer
370
18
48
1
60
0
100
AcDbMText
10
91.196716
20
-42.311613
30
0
210
0
220
0
230
1
1
\W0.7513;305.60
40
3
41
0
44
1.084337
50
0
71
7
72
5
7
iso_b_vert
0
LINE
5
162
100
AcDbEntity
8
SK2
62
256
6
ByLayer
370
13
48
1
60
0
100
AcDbLine
10
-56
20
-14.0875
30
0
11
-56
21
-45.196727
31
0
39
0
210
0
220
0
230
1
0
LINE
5
163
100
AcDbEntity
8
SK2
62
256
6
ByLayer
370
13
48
1
60
0
100
AcDbLine
10
249.6
20
-1.5875
30
0
11
249.6
21
-45.196727
31
0
39
0
210
0
220
0
230
1
0
LINE
5
164
100
AcDbEntity
8
SK2
62
256
6
ByLayer
370
13
48
1
60
0
100
AcDbLine
10
-56
20
-43.196727
30
0
11
249.6
21
-43.196727
31
0
39
0
210
0
220
0
230
1
0
SOLID
5
165
100
AcDbEntity
8
SK2
62
256
6
ByLayer
370
18
48
1
60
0
100
AcDbTrace
10
-56
20
-43.196727
30
0
11
-52.500002
21
-42.735944
31
0
12
-52.499998
22
-43.657511
32
0
13
-52.499998
23
-43.657511
33
0
39
0
210
0
220
0
230
1
0
SOLID
5
166
100
AcDbEntity
8
SK2
62
256
6
ByLayer
370
18
48
1
60
0
100
AcDbTrace
10
249.6
20
-43.196727
30
0
11
246.100002
21
-43.657511
31
0
12
246.099998
22
-42.735944
32
0
13
246.099998
23
-42.735944
33
0
39
0
210
0
220
0
230
1
0
ENDBLK
5
168
100
AcDbEntity
8
0
100
AcDbBlockEnd
0
BLOCK
5
16D
100
AcDbEntity
8
0
100
AcDbBlockBegin
2
*D3
70
1
10
0
20
0
30
0
3
*D3
0
LINE
5
16F
100
AcDbEntity
8
0
62
256
6
ByLayer
370
-2
48
1
60
0
100
AcDbLine
10
249.6
20
-1.5875
30
0
11
249.6
21
-35.196727
31
0
39
0
210
0
220
0
230
1
0
LINE
5
170
100
AcDbEntity
8
0
62
256
6
ByLayer
370
-2
48
1
60
0
100
AcDbLine
10
6
20
-11.0875
30
0
11
6
21
-35.196727
31
0
39
0
210
0
220
0
230
1
0
LINE
5
171
100
AcDbEntity
8
0
62
256
6
ByLayer
370
-2
48
1
60
0
100
AcDbLine
10
246.1
20
-33.196727
30
0
11
9.5
21
-33.196727
31
0
39
0
210
0
220
0
230
1
0
SOLID
5
172
100
AcDbEntity
8
0
62
256
6
ByLayer
370
-1
48
1
60
0
100
AcDbTrace
10
246.1
20
-33.780061
30
0
11
246.1
21
-32.613394
31
0
12
249.6
22
-33.196727
32
0
13
249.6
23
-33.196727
33
0
39
0
210
0
220
0
230
1
0
SOLID
5
173
100
AcDbEntity
8
0
62
256
6
ByLayer
370
-1
48
1
60
0
100
AcDbTrace
10
9.5
20
-32.613394
30
0
11
9.5
21
-33.780061
31
0
12
6
22
-33.196727
32
0
13
6
23
-33.196727
33
0
39
0
210
0
220
0
230
1
0
MTEXT
5
174
100
AcDbEntity
8
0
62
256
6
ByLayer
370
18
48
1
60
0
100
AcDbMText
10
127.8
20
-27.196727
30
0
210
0
220
0
230
1
1
\A1;243.6
40
3
41
0
44
1
50
0
71
5
72
5
7
iso_b_vert
0
POINT
5
175
100
AcDbEntity
8
Defpoints
62
0
6
ByLayer
370
-1
48
1
60
0
100
AcDbPoint
10
249.6
20
0
30
0
39
0
210
0
220
0
230
1
50
360
0
POINT
5
176
100
AcDbEntity
8
Defpoints
62
0
6
ByLayer
370
-1
48
1
60
0
100
AcDbPoint
10
6
20
-9.5
30
0
39
0
210
0
220
0
230
1
50
360
0
POINT
5
177
100
AcDbEntity
8
Defpoints
62
0
6
ByLayer
370
-1
48
1
60
0
100
AcDbPoint
10
6
20
-33.196727
30
0
39
0
210
0
220
0
230
1
50
360
0
ENDBLK
5
16E
100
AcDbEntity
8
0
100
AcDbBlockEnd
0
BLOCK
5
17F
100
AcDbEntity
8
0
100
AcDbBlockBegin
2
_U1
70
0
10
0
20
0
30
0
3
_U1
0
MTEXT
5
179
100
AcDbEntity
8
SK2
62
256
6
ByLayer
370
18
48
1
60
0
100
AcDbMText
10
122.038773
20
-32.311613
30
0
210
0
220
0
230
1
1
\W0.7728;243.60
40
3
41
0
44
1.084337
50
0
71
7
72
5
7
iso_b_vert
0
LINE
5
17A
100
AcDbEntity
8
SK2
62
256
6
ByLayer
370
13
48
1
60
0
100
AcDbLine
10
249.6
20
-1.5875
30
0
11
249.6
21
-35.196727
31
0
39
0
210
0
220
0
230
1
0
LINE
5
17B
100
AcDbEntity
8
SK2
62
256
6
ByLayer
370
13
48
1
60
0
100
AcDbLine
10
6
20
-11.0875
30
0
11
6
21
-35.196727
31
0
39
0
210
0
220
0
230
1
0
LINE
5
17C
100
AcDbEntity
8
SK2
62
256
6
ByLayer
370
13
48
1
60
0
100
AcDbLine
10
249.6
20
-33.196727
30
0
11
6
21
-33.196727
31
0
39
0
210
0
220
0
230
1
0
SOLID
5
17D
100
AcDbEntity
8
SK2
62
256
6
ByLayer
370
18
48
1
60
0
100
AcDbTrace
10
249.6
20
-33.196727
30
0
11
246.100002
21
-33.657511
31
0
12
246.099998
22
-32.735944
32
0
13
246.099998
23
-32.735944
33
0
39
0
210
0
220
0
230
1
0
SOLID
5
17E
100
AcDbEntity
8
SK2
62
256
6
ByLayer
370
18
48
1
60
0
100
AcDbTrace
10
6
20
-33.196727
30
0
11
9.499998
21
-32.735944
31
0
12
9.500002
22
-33.657511
32
0
13
9.500002
23
-33.657511
33
0
39
0
210
0
220
0
230
1
0
ENDBLK
5
180
100
AcDbEntity
8
0
100
AcDbBlockEnd
0
BLOCK
5
185
100
AcDbEntity
8
0
100
AcDbBlockBegin
2
*D5
70
1
10
0
20
0
30
0
3
*D5
0
LINE
5
187
100
AcDbEntity
8
0
62
256
6
ByLayer
370
-2
48
1
60
0
100
AcDbLine
10
-56
20
-14.0875
30
0
11
-56
21
-35.196727
31
0
39
0
210
0
220
0
230
1
0
LINE
5
188
100
AcDbEntity
8
0
62
256
6
ByLayer
370
-2
48
1
60
0
100
AcDbLine
10
0
20
-14.0875
30
0
11
0
21
-35.196727
31
0
39
0
210
0
220
0
230
1
0
LINE
5
189
100
AcDbEntity
8
0
62
256
6
ByLayer
370
-2
48
1
60
0
100
AcDbLine
10
-52.5
20
-33.196727
30
0
11
-3.5
21
-33.196727
31
0
39
0
210
0
220
0
230
1
0
SOLID
5
18A
100
AcDbEntity
8
0
62
256
6
ByLayer
370
-1
48
1
60
0
100
AcDbTrace
10
-52.5
20
-32.613394
30
0
11
-52.5
21
-33.780061
31
0
12
-56
22
-33.196727
32
0
13
-56
23
-33.196727
33
0
39
0
210
0
220
0
230
1
0
SOLID
5
18B
100
AcDbEntity
8
0
62
256
6
ByLayer
370
-1
48
1
60
0
100
AcDbTrace
10
-3.5
20
-33.780061
30
0
11
-3.5
21
-32.613394
31
0
12
0
22
-33.196727
32
0
13
0
23
-33.196727
33
0
39
0
210
0
220
0
230
1
0
MTEXT
5
18C
100
AcDbEntity
8
0
62
256
6
ByLayer
370
18
48
1
60
0
100
AcDbMText
10
-28
20
-27.196727
30
0
210
0
220
0
230
1
1
\A1;56
40
3
41
0
44
1
50
0
71
5
72
5
7
iso_b_vert
0
POINT
5
18D
100
AcDbEntity
8
Defpoints
62
0
6
ByLayer
370
-1
48
1
60
0
100
AcDbPoint
10
-56
20
-12.5
30
0
39
0
210
0
220
0
230
1
50
360
0
POINT
5
18E
100
AcDbEntity
8
Defpoints
62
0
6
ByLayer
370
-1
48
1
60
0
100
AcDbPoint
10
0
20
-12.5
30
0
39
0
210
0
220
0
230
1
50
360
0
POINT
5
18F
100
AcDbEntity
8
Defpoints
62
0
6
ByLayer
370
-1
48
1
60
0
100
AcDbPoint
10
0
20
-33.196727
30
0
39
0
210
0
220
0
230
1
50
360
0
ENDBLK
5
186
100
AcDbEntity
8
0
100
AcDbBlockEnd
0
BLOCK
5
197
100
AcDbEntity
8
0
100
AcDbBlockBegin
2
_U2
70
0
10
0
20
0
30
0
3
_U2
0
MTEXT
5
191
100
AcDbEntity
8
SK2
62
256
6
ByLayer
370
18
48
1
60
0
100
AcDbMText
10
-32.48237
20
-32.311613
30
0
210
0
220
0
230
1
1
\W0.7468;56.00
40
3
41
0
44
1.084337
50
0
71
7
72
5
7
iso_b_vert
0
LINE
5
192
100
AcDbEntity
8
SK2
62
256
6
ByLayer
370
13
48
1
60
0
100
AcDbLine
10
-56
20
-14.0875
30
0
11
-56
21
-35.196727
31
0
39
0
210
0
220
0
230
1
0
LINE
5
193
100
AcDbEntity
8
SK2
62
256
6
ByLayer
370
13
48
1
60
0
100
AcDbLine
10
0
20
-14.0875
30
0
11
0
21
-35.196727
31
0
39
0
210
0
220
0
230
1
0
LINE
5
194
100
AcDbEntity
8
SK2
62
256
6
ByLayer
370
13
48
1
60
0
100
AcDbLine
10
-56
20
-33.196727
30
0
11
0
21
-33.196727
31
0
39
0
210
0
220
0
230
1
0
SOLID
5
195
100
AcDbEntity
8
SK2
62
256
6
ByLayer
370
18
48
1
60
0
100
AcDbTrace
10
-56
20
-33.196727
30
0
11
-52.500002
21
-32.735944
31
0
12
-52.499998
22
-33.657511
32
0
13
-52.499998
23
-33.657511
33
0
39
0
210
0
220
0
230
1
0
SOLID
5
196
100
AcDbEntity
8
SK2
62
256
6
ByLayer
370
18
48
1
60
0
100
AcDbTrace
10
0
20
-33.196727
30
0
11
-3.499998
21
-33.657511
31
0
12
-3.500002
22
-32.735944
32
0
13
-3.500002
23
-32.735944
33
0
39
0
210
0
220
0
230
1
0
ENDBLK
5
198
100
AcDbEntity
8
0
100
AcDbBlockEnd
0
BLOCK
5
19D
100
AcDbEntity
8
0
100
AcDbBlockBegin
2
*D7
70
1
10
0
20
0
30
0
3
*D7
0
LINE
5
19F
100
AcDbEntity
8
0
62
256
6
ByLayer
370
-2
48
1
60
0
100
AcDbLine
10
249.6
20
1.5875
30
0
11
249.6
21
32.196727
31
0
39
0
210
0
220
0
230
1
0
LINE
5
1A0
100
AcDbEntity
8
0
62
256
6
ByLayer
370
-2
48
1
60
0
100
AcDbLine
10
21.6
20
11.0875
30
0
11
21.6
21
32.196727
31
0
39
0
210
0
220
0
230
1
0
LINE
5
1A1
100
AcDbEntity
8
0
62
256
6
ByLayer
370
-2
48
1
60
0
100
AcDbLine
10
246.1
20
30.196727
30
0
11
25.1
21
30.196727
31
0
39
0
210
0
220
0
230
1
0
SOLID
5
1A2
100
AcDbEntity
8
0
62
256
6
ByLayer
370
-1
48
1
60
0
100
AcDbTrace
10
246.1
20
29.613394
30
0
11
246.1
21
30.780061
31
0
12
249.6
22
30.196727
32
0
13
249.6
23
30.196727
33
0
39
0
210
0
220
0
230
1
0
SOLID
5
1A3
100
AcDbEntity
8
0
62
256
6
ByLayer
370
-1
48
1
60
0
100
AcDbTrace
10
25.1
20
30.780061
30
0
11
25.1
21
29.613394
31
0
12
21.6
22
30.196727
32
0
13
21.6
23
30.196727
33
0
39
0
210
0
220
0
230
1
0
MTEXT
5
1A4
100
AcDbEntity
8
0
62
256
6
ByLayer
370
18
48
1
60
0
100
AcDbMText
10
135.6
20
36.196727
30
0
210
0
220
0
230
1
1
\A1;228
40
3
41
0
44
1
50
0
71
5
72
5
7
iso_b_vert
0
POINT
5
1A5
100
AcDbEntity
8
Defpoints
62
0
6
ByLayer
370
-1
48
1
60
0
100
AcDbPoint
10
249.6
20
0
30
0
39
0
210
0
220
0
230
1
50
360
0
POINT
5
1A6
100
AcDbEntity
8
Defpoints
62
0
6
ByLayer
370
-1
48
1
60
0
100
AcDbPoint
10
21.6
20
9.5
30
0
39
0
210
0
220
0
230
1
50
360
0
POINT
5
1A7
100
AcDbEntity
8
Defpoints
62
0
6
ByLayer
370
-1
48
1
60
0
100
AcDbPoint
10
21.6
20
30.196727
30
0
39
0
210
0
220
0
230
1
50
360
0
ENDBLK
5
19E
100
AcDbEntity
8
0
100
AcDbBlockEnd
0
BLOCK
5
1AF
100
AcDbEntity
8
0
100
AcDbBlockBegin
2
_U3
70
0
10
0
20
0
30
0
3
_U3
0
MTEXT
5
1A9
100
AcDbEntity
8
SK2
62
256
6
ByLayer
370
18
48
1
60
0
100
AcDbMText
10
129.996716
20
31.081842
30
0
210
0
220
0
230
1
1
\W0.7513;228.00
40
3
41
0
44
1.084337
50
0
71
7
72
5
7
iso_b_vert
0
LINE
5
1AA
100
AcDbEntity
8
SK2
62
256
6
ByLayer
370
13
48
1
60
0
100
AcDbLine
10
249.6
20
1.5875
30
0
11
249.6
21
32.196727
31
0
39
0
210
0
220
0
230
1
0
LINE
5
1AB
100
AcDbEntity
8
SK2
62
256
6
ByLayer
370
13
48
1
60
0
100
AcDbLine
10
21.6
20
11.0875
30
0
11
21.6
21
32.196727
31
0
39
0
210
0
220
0
230
1
0
LINE
5
1AC
100
AcDbEntity
8
SK2
62
256
6
ByLayer
370
13
48
1
60
0
100
AcDbLine
10
249.6
20
30.196727
30
0
11
21.6
21
30.196727
31
0
39
0
210
0
220
0
230
1
0
SOLID
5
1AD
100
AcDbEntity
8
SK2
62
256
6
ByLayer
370
18
48
1
60
0
100
AcDbTrace
10
249.6
20
30.196727
30
0
11
246.100002
21
29.735944
31
0
12
246.099998
22
30.657511
32
0
13
246.099998
23
30.657511
33
0
39
0
210
0
220
0
230
1
0
SOLID
5
1AE
100
AcDbEntity
8
SK2
62
256
6
ByLayer
370
18
48
1
60
0
100
AcDbTrace
10
21.6
20
30.196727
30
0
11
25.099998
21
30.657511
31
0
12
25.100002
22
29.735944
32
0
13
25.100002
23
29.735944
33
0
39
0
210
0
220
0
230
1
0
ENDBLK
5
1B0
100
AcDbEntity
8
0
100
AcDbBlockEnd
0
ENDSEC
0
SECTION
2
ENTITIES
0
ARC
5
C3
100
AcDbEntity
8
SK2
62
256
6
ByLayer
370
13
48
1
60
0
100
AcDbCircle
39
0
10
249.6
20
0
30
0
40
19
210
0
220
0
230
1
100
AcDbArc
50
290
51
70
0
POINT
5
70
100
AcDbEntity
8
81
62
256
6
ByLayer
370
18
48
1
60
0
100
AcDbPoint
10
249.6
20
0
30
0
39
0
210
0
220
0
230
1
50
360
0
POINT
5
72
100
AcDbEntity
8
80
62
256
6
ByLayer
370
18
48
1
60
0
100
AcDbPoint
10
0
20
0
30
0
39
0
210
0
220
0
230
1
50
360
0
POINT
5
74
100
AcDbEntity
8
1
62
256
6
ByLayer
370
18
48
1
60
1
100
AcDbPoint
10
-56
20
-12.5
30
0
39
0
210
0
220
0
230
1
50
360
0
POINT
5
76
100
AcDbEntity
8
1
62
256
6
ByLayer
370
18
48
1
60
1
100
AcDbPoint
10
249.6
20
0
30
0
39
0
210
0
220
0
230
1
50
360
0
POINT
5
77
100
AcDbEntity
8
1
62
256
6
ByLayer
370
18
48
1
60
1
100
AcDbPoint
10
249.6
20
0
30
0
39
0
210
0
220
0
230
1
50
360
0
POINT
5
78
100
AcDbEntity
8
1
62
256
6
ByLayer
370
18
48
1
60
1
100
AcDbPoint
10
6
20
-9.5
30
0
39
0
210
0
220
0
230
1
50
360
0
POINT
5
79
100
AcDbEntity
8
1
62
256
6
ByLayer
370
18
48
1
60
1
100
AcDbPoint
10
-56
20
-12.5
30
0
39
0
210
0
220
0
230
1
50
360
0
POINT
5
7A
100
AcDbEntity
8
1
62
256
6
ByLayer
370
18
48
1
60
1
100
AcDbPoint
10
0
20
-12.5
30
0
39
0
210
0
220
0
230
1
50
360
0
POINT
5
7B
100
AcDbEntity
8
1
62
256
6
ByLayer
370
18
48
1
60
1
100
AcDbPoint
10
249.6
20
0
30
0
39
0
210
0
220
0
230
1
50
360
0
POINT
5
7C
100
AcDbEntity
8
1
62
256
6
ByLayer
370
18
48
1
60
1
100
AcDbPoint
10
21.6
20
9.5
30
0
39
0
210
0
220
0
230
1
50
360
0
SPLINE
5
C4
100
AcDbEntity
8
1
62
256
6
ByLayer
370
18
48
1
60
0
100
AcDbSpline
70
4
71
3
72
13
73
9
40
0
40
0
40
0
40
0
40
0.182016727084654
40
0.182016727084654
40
0.364033454169307
40
0.364033454169307
40
0.728066908338615
40
1
40
1
40
1
40
1
41
1
10
236.1
20
-9.41532105440709
30
0
41
1
10
236.309416135944
20
-9.42544859317459
30
0
41
1
10
236.518767150586
20
-9.43465758076704
30
0
41
1
10
236.937493134561
20
-9.45120036369045
30
0
41
1
10
237.146852016919
20
-9.45854112504713
30
0
41
1
10
237.774871237792
20
-9.47780814887065
30
0
41
1
10
238.506165907875
20
-9.49383360036586
30
0
41
1
10
239.237115360157
20
-9.49874930563774
30
0
41
1
10
239.549579187993
20
-9.49881373345963
30
0
0
SPLINE
5
C5
100
AcDbEntity
8
1
62
256
6
ByLayer
370
18
48
1
60
0
100
AcDbSpline
70
4
71
3
72
103
73
99
40
0
40
0
40
0
40
0
40
0.0310250681638235
40
0.0310250681638235
40
0.0620501363276469
40
0.0620501363276469
40
0.0775626704095583
40
0.0775626704095583
40
0.0930752044914697
40
0.0930752044914697
40
0.108587738573381
40
0.108587738573381
40
0.124100272655292
40
0.124100272655292
40
0.155125340819114
40
0.155125340819114
40
0.170637874901025
40
0.170637874901025
40
0.186150408982936
40
0.186150408982936
40
0.217175477146757
40
0.217175477146757
40
0.232688011228667
40
0.232688011228667
40
0.248200545310577
40
0.263713079392488
40
0.263713079392488
40
0.279225613474398
40
0.279225613474398
40
0.310250681638219
40
0.310250681638219
40
0.34127574980204
40
0.34127574980204
40
0.35678828388395
40
0.35678828388395
40
0.37230081796586
40
0.37230081796586
40
0.40332588612968
40
0.40332588612968
40
0.4343509542935
40
0.4343509542935
40
0.449863488375411
40
0.449863488375411
40
0.465376022457321
40
0.465376022457321
40
0.496401090621142
40
0.496401090621142
40
0.527426158784962
40
0.527426158784962
40
0.542938692866873
40
0.542938692866873
40
0.558451226948783
40
0.558451226948783
40
0.589476295112603
40
0.589476295112603
40
0.620501363276423
40
0.620501363276423
40
0.636013897358333
40
0.636013897358333
40
0.651526431440243
40
0.651526431440243
40
0.667038965522153
40
0.667038965522153
40
0.682551499604064
40
0.682551499604064
40
0.713576567767884
40
0.713576567767884
40
0.729089101849795
40
0.729089101849795
40
0.744601635931705
40
0.744601635931705
40
0.775626704095526
40
0.775626704095526
40
0.806651772259348
40
0.806651772259348
40
0.822164306341259
40
0.822164306341259
40
0.837676840423169
40
0.837676840423169
40
0.868701908586991
40
0.868701908586991
40
0.884214442668902
40
0.884214442668902
40
0.891970709709857
40
0.891970709709857
40
0.899726976750812
40
0.899726976750812
40
0.915239510832721
40
0.915239510832721
40
0.930752044914629
40
0.930752044914629
40
0.961777113078447
40
0.961777113078447
40
0.977289647160355
40
0.977289647160355
40
0.992802181242263
40
0.992802181242263
40
1
40
1
40
1
40
1
41
1
10
21.855352587235
20
4.39734223939473
30
0
41
1
10
22.4146001058202
20
4.22322630055336
30
0
41
1
10
22.9737446855097
20
4.04710259663173
30
0
41
1
10
24.0915893764157
20
3.69030080891315
30
0
41
1
10
24.6502929475136
20
3.5096314534579
30
0
41
1
10
25.4878541033111
20
3.23478757330267
30
0
41
1
10
25.7669586592486
20
3.14253196443551
30
0
41
1
10
26.3249732608924
20
2.95665292774709
30
0
41
1
10
26.6038548756863
20
2.86295144694446
30
0
41
1
10
27.1616063172714
20
2.67467065066285
30
0
41
1
10
27.4405349290324
20
2.58025280009355
30
0
41
1
10
27.9985160099684
20
2.39092189610005
30
0
41
1
10
28.2775519011458
20
2.29596335479343
30
0
41
1
10
29.1147491969791
20
2.01008686037372
30
0
41
1
10
29.6730098095324
20
1.81819716425349
30
0
41
1
10
30.5104381261814
20
1.52795489502648
30
0
41
1
10
30.7895871097874
20
1.4308055016476
30
0
41
1
10
31.3478680132388
20
1.23561008912037
30
0
41
1
10
31.626973724492
20
1.13748774466501
30
0
41
1
10
32.4646987321277
20
0.843008469685429
30
0
41
1
10
33.0238303532339
20
0.6468500654411
30
0
41
1
10
33.8632147031054
20
0.352057152651696
30
0
41
1
10
34.1431221032462
20
0.253721127341578
30
0
41
1
10
34.7025576211652
20
0.0570394237223582
30
0
41
1
10
35.2617614153411
20
-0.139708900410085
30
0
41
1
10
35.8204468219741
20
-0.336746882789186
30
0
41
1
10
36.3788419237532
20
-0.534014549734849
30
0
41
1
10
36.6578925089756
20
-0.63276723891633
30
0
41
1
10
37.4951784683303
20
-0.927728587700102
30
0
41
1
10
38.0534557340206
20
-1.12291304320314
30
0
41
1
10
39.1698488683337
20
-1.51136135451324
30
0
41
1
10
39.7279899739831
20
-1.70455291911398
30
0
41
1
10
40.5649530074137
20
-1.9932456135499
30
0
41
1
10
40.8438929976544
20
-2.08931100698879
30
0
41
1
10
41.4016863690991
20
-2.28107962934243
30
0
41
1
10
41.6805711627689
20
-2.37669448509391
30
0
41
1
10
42.5176738909054
20
-2.66139257194243
30
0
41
1
10
43.076168608387
20
-2.84881032535392
30
0
41
1
10
44.1937214423289
20
-3.21970075073654
30
0
41
1
10
44.7527976866676
20
-3.40312357260072
30
0
41
1
10
45.5917011669204
20
-3.67563694690699
30
0
41
1
10
45.8714417495254
20
-3.7661063707931
30
0
41
1
10
46.4305944761634
20
-3.94584394600426
30
0
41
1
10
46.7100757948665
20
-4.03497342640284
30
0
41
1
10
47.5485356515971
20
-4.29938654269293
30
0
41
1
10
48.1073709039328
20
-4.47212436248122
30
0
41
1
10
49.2245364437427
20
-4.81120464707337
30
0
41
1
10
49.7828759597678
20
-4.97752385533687
30
0
41
1
10
50.6198491393555
20
-5.22253557866054
30
0
41
1
10
50.89872388598
20
-5.30352209172832
30
0
41
1
10
51.4564400969904
20
-5.46364411494861
30
0
41
1
10
51.735344412318
20
-5.54263501545475
30
0
41
1
10
52.57228972575
20
-5.77621593539845
30
0
41
1
10
53.1304637096223
20
-5.92764828681669
30
0
41
1
10
54.2470298304464
20
-6.22243400167906
30
0
41
1
10
54.8054239309263
20
-6.365783674738
30
0
41
1
10
55.6430158096655
20
-6.57500503360723
30
0
41
1
10
55.9221842924484
20
-6.64383265829727
30
0
41
1
10
56.4807698381633
20
-6.77903337511657
30
0
41
1
10
56.760230609746
20
-6.84532300315246
30
0
41
1
10
57.319446348565
20
-6.97538209059687
30
0
41
1
10
57.5992168368845
20
-7.03917029302431
30
0
41
1
10
58.1589173227784
20
-7.16428647439466
30
0
41
1
10
58.4386714232411
20
-7.22557332610415
30
0
41
1
10
59.277611453616
20
-7.40569282637566
30
0
41
1
10
59.836473346754
20
-7.52079710201861
30
0
41
1
10
60.6739436779351
20
-7.686189122987
30
0
41
1
10
60.9529482239253
20
-7.7401254229317
30
0
41
1
10
61.5110380533847
20
-7.84500808612168
30
0
41
1
10
61.7901207985323
20
-7.89596467736914
30
0
41
1
10
62.6273775182258
20
-8.04458592516454
30
0
41
1
10
63.1855650365524
20
-8.1380001218254
30
0
41
1
10
64.3017916762469
20
-8.31379028814723
30
0
41
1
10
64.8598212046086
20
-8.39617899279497
30
0
41
1
10
65.6965951224567
20
-8.51153127205765
30
0
41
1
10
65.9754977124061
20
-8.54857719066638
30
0
41
1
10
66.533611452403
20
-8.61949158953166
30
0
41
1
10
66.8127902780724
20
-8.65339928114716
30
0
41
1
10
67.6505953671122
20
-8.75060465067153
30
0
41
1
10
68.2095047170799
20
-8.8093769003188
30
0
41
1
10
69.048288117902
20
-8.88859544766936
30
0
41
1
10
69.3279515099699
20
-8.91351038839872
30
0
41
1
10
69.7475308143079
20
-8.94864077043505
30
0
41
1
10
69.8874196947443
20
-8.95997826767876
30
0
41
1
10
70.1670828392657
20
-8.98189260894392
30
0
41
1
10
70.3068667014397
20
-8.99247253671331
30
0
41
1
10
70.7261177027861
20
-9.02304915017461
30
0
41
1
10
71.0055117709897
20
-9.04186340396484
30
0
41
1
10
71.5643350064857
20
-9.07624866431544
30
0
41
1
10
71.8437259878653
20
-9.09184373711491
30
0
41
1
10
72.6817609995431
20
-9.13391643721224
30
0
41
1
10
73.2402839559603
20
-9.15568226976458
30
0
41
1
10
74.0776716872954
20
-9.1789743753132
30
0
41
1
10
74.3567340881197
20
-9.1851768557699
30
0
41
1
10
74.914696108024
20
-9.19444173781957
30
0
41
1
10
75.1935719980924
20
-9.19750446358216
30
0
41
1
10
75.601808572537
20
-9.19966004832085
30
0
41
1
10
75.731202983133
20
-9.20000043013169
30
0
41
1
10
75.8606108659357
20
-9.19999975966633
30
0
0
SPLINE
5
C6
100
AcDbEntity
8
1
62
256
6
ByLayer
370
18
48
1
60
0
100
AcDbSpline
70
4
71
3
72
178
73
174
40
0
40
0
40
0
40
0
40
0.0069513446416608
40
0.0069513446416608
40
0.0240728731823216
40
0.0240728731823216
40
0.0326336374526527
40
0.0326336374526527
40
0.0411944017229837
40
0.0411944017229837
40
0.0497551659933146
40
0.0497551659933146
40
0.0583159302636455
40
0.0583159302636455
40
0.0754374588043073
40
0.0754374588043073
40
0.0925589873449691
40
0.0925589873449691
40
0.1011197516153
40
0.1011197516153
40
0.109680515885631
40
0.109680515885631
40
0.126802044426293
40
0.126802044426293
40
0.143923572966955
40
0.143923572966955
40
0.152484337237286
40
0.152484337237286
40
0.161045101507617
40
0.161045101507617
40
0.178166630048278
40
0.178166630048278
40
0.195288158588939
40
0.195288158588939
40
0.203848922859269
40
0.203848922859269
40
0.212409687129599
40
0.212409687129599
40
0.229531215670259
40
0.229531215670259
40
0.246652744210918
40
0.246652744210918
40
0.255213508481248
40
0.255213508481248
40
0.263774272751579
40
0.263774272751579
40
0.272335037021909
40
0.272335037021909
40
0.280895801292239
40
0.280895801292239
40
0.298017329832899
40
0.298017329832899
40
0.306578094103229
40
0.306578094103229
40
0.315138858373559
40
0.315138858373559
40
0.33226038691422
40
0.33226038691422
40
0.34938191545488
40
0.34938191545488
40
0.35794267972521
40
0.35794267972521
40
0.36650344399554
40
0.36650344399554
40
0.383624972536201
40
0.383624972536201
40
0.392185736806532
40
0.392185736806532
40
0.400746501076863
40
0.400746501076863
40
0.405026883212028
40
0.405026883212028
40
0.409307265347193
40
0.409307265347193
40
0.417868029617524
40
0.417868029617524
40
0.434989558158185
40
0.434989558158185
40
0.443550322428516
40
0.443550322428516
40
0.452111086698846
40
0.452111086698846
40
0.460671850969176
40
0.460671850969176
40
0.469232615239506
40
0.469232615239506
40
0.486354143780167
40
0.486354143780167
40
0.494914908050496
40
0.494914908050496
40
0.503475672320826
40
0.503475672320826
40
0.520597200861485
40
0.520597200861485
40
0.537718729402145
40
0.537718729402145
40
0.546279493672474
40
0.546279493672474
40
0.554840257942804
40
0.554840257942804
40
0.571961786483462
40
0.571961786483462
40
0.589083315024121
40
0.589083315024121
40
0.597644079294451
40
0.597644079294451
40
0.606204843564781
40
0.606204843564781
40
0.623326372105444
40
0.623326372105444
40
0.640447900646105
40
0.640447900646105
40
0.649008664916436
40
0.649008664916436
40
0.653289047051601
40
0.653289047051601
40
0.657569429186767
40
0.657569429186767
40
0.67469095772743
40
0.67469095772743
40
0.691812486268093
40
0.691812486268093
40
0.700373250538425
40
0.700373250538425
40
0.708934014808757
40
0.708934014808757
40
0.726055543349422
40
0.726055543349422
40
0.743177071890086
40
0.743177071890086
40
0.751737836160419
40
0.751737836160419
40
0.760298600430751
40
0.760298600430751
40
0.777420128971414
40
0.777420128971414
40
0.785980893241745
40
0.785980893241745
40
0.794541657512077
40
0.794541657512077
40
0.803102421782407
40
0.803102421782407
40
0.811663186052738
40
0.811663186052738
40
0.8287847145934
40
0.8287847145934
40
0.845906243134062
40
0.845906243134062
40
0.854467007404393
40
0.854467007404393
40
0.863027771674724
40
0.863027771674724
40
0.880149300215386
40
0.880149300215386
40
0.897270828756048
40
0.897270828756048
40
0.905831593026378
40
0.905831593026378
40
0.914392357296708
40
0.914392357296708
40
0.931513885837367
40
0.931513885837367
40
0.948635414378025
40
0.948635414378025
40
0.957196178648355
40
0.957196178648355
40
0.965756942918684
40
0.965756942918684
40
0.982878471459343
40
0.982878471459343
40
0.991439235729672
40
0.991439235729672
40
1
40
1
40
1
40
1
41
1
10
138.459856881488
20
6.77312574192052
30
0
41
1
10
138.686427633838
20
6.8273823749337
30
0
41
1
10
138.912994293195
20
6.88094817446895
30
0
41
1
10
139.697945859111
20
7.06337221529856
30
0
41
1
10
140.256811467285
20
7.18778471815932
30
0
41
1
10
141.095700686632
20
7.36698556698482
30
0
41
1
10
141.375435786191
20
7.42546820169912
30
0
41
1
10
141.935091780097
20
7.53996913621239
30
0
41
1
10
142.214906207164
20
7.59596637196526
30
0
41
1
10
142.774140298183
20
7.70541943567952
30
0
41
1
10
143.053609119162
20
7.75889003358094
30
0
41
1
10
143.612233738744
20
7.86331924444579
30
0
41
1
10
143.891407499139
20
7.9142448956857
30
0
41
1
10
144.729047469018
20
8.06238697216529
30
0
41
1
10
145.287484759411
20
8.15521616525734
30
0
41
1
10
146.404078171777
20
8.32959507332458
30
0
41
1
10
146.962255621003
20
8.41111505055596
30
0
41
1
10
147.799175114403
20
8.52502681031629
30
0
41
1
10
148.078078199725
20
8.56161284883433
30
0
41
1
10
148.635796317751
20
8.63192959227013
30
0
41
1
10
148.914656959668
20
8.66561082490134
30
0
41
1
10
149.751635309397
20
8.76187564511585
30
0
41
1
10
150.309973562358
20
8.81987132589876
30
0
41
1
10
151.427094754013
20
8.9238222546405
30
0
41
1
10
151.98589113472
20
8.9697664243034
30
0
41
1
10
152.824276543866
20
9.0296290722799
30
0
41
1
10
153.103747720502
20
9.04808260491689
30
0
41
1
10
153.662857819596
20
9.08187346931192
30
0
41
1
10
153.942605033987
20
9.09718209925219
30
0
41
1
10
154.781592894998
20
9.13826193437311
30
0
41
1
10
155.340708726816
20
9.15927638358789
30
0
41
1
10
156.458315528331
20
9.18877806325978
30
0
41
1
10
157.016811332972
20
9.19726444310245
30
0
41
1
10
157.853921573426
20
9.20052720474962
30
0
41
1
10
158.132822956531
20
9.20003093769705
30
0
41
1
10
158.690617370484
20
9.19585673161913
30
0
41
1
10
158.969566099675
20
9.19218626086965
30
0
41
1
10
159.806562810314
20
9.17648274153655
30
0
41
1
10
160.364702635052
20
9.15975899871964
30
0
41
1
10
161.481077238063
20
9.11383057075446
30
0
41
1
10
162.039311075917
20
9.084626874028
30
0
41
1
10
162.876563881437
20
9.03124356629255
30
0
41
1
10
163.155607666419
20
9.01183176246181
30
0
41
1
10
163.713970742824
20
8.96996388203326
30
0
41
1
10
163.993311383732
20
8.94752750229443
30
0
41
1
10
164.552241699635
20
8.89963555065515
30
0
41
1
10
164.831830070414
20
8.87417834222816
30
0
41
1
10
165.391230479524
20
8.82023234487426
30
0
41
1
10
165.671109709543
20
8.7917369759368
30
0
41
1
10
166.51055148273
20
8.7017168617966
30
0
41
1
10
167.069682777252
20
8.63569386626489
30
0
41
1
10
167.907462603697
20
8.52737677775175
30
0
41
1
10
168.186575201743
20
8.48972214093354
30
0
41
1
10
168.744883145294
20
8.41174266958498
30
0
41
1
10
169.02405582379
20
8.37139797419178
30
0
41
1
10
169.861529926611
20
8.24622610609958
30
0
41
1
10
170.419799325886
20
8.15728113078654
30
0
41
1
10
171.536060456504
20
7.96819878121104
30
0
41
1
10
172.094030640145
20
7.86803001135195
30
0
41
1
10
172.930656131283
20
7.70906679778327
30
0
41
1
10
173.209521353984
20
7.65469073474071
30
0
41
1
10
173.767534069292
20
7.54365646666236
30
0
41
1
10
174.046643183972
20
7.48694099133778
30
0
41
1
10
174.88419086082
20
7.31308452713404
30
0
41
1
10
175.442866139068
20
7.19226751364451
30
0
41
1
10
176.281201210116
20
7.00340176488314
30
0
41
1
10
176.560699155268
20
6.93916975136372
30
0
41
1
10
177.119774427488
20
6.80807661098419
30
0
41
1
10
177.399332636736
20
6.74117651515078
30
0
41
1
10
177.81878568723
20
6.6389389350185
30
0
41
1
10
177.95859881574
20
6.6045644253488
30
0
41
1
10
178.238114993546
20
6.53537794819343
30
0
41
1
10
178.377839547771
20
6.50055885787629
30
0
41
1
10
178.796901609747
20
6.39540272123665
30
0
41
1
10
179.076124893394
20
6.32436102401351
30
0
41
1
10
179.913285751564
20
6.10831557136333
30
0
41
1
10
180.470729021096
20
5.96042889762214
30
0
41
1
10
181.305767436646
20
5.7325248588127
30
0
41
1
10
181.583925204635
20
5.65554217875524
30
0
41
1
10
182.139835639318
20
5.49947284137011
30
0
41
1
10
182.417562560918
20
5.42032167170601
30
0
41
1
10
182.972757866923
20
5.26027076335706
30
0
41
1
10
183.250283888377
20
5.1795154123144
30
0
41
1
10
183.805240097056
20
5.01667947090337
30
0
41
1
10
184.082651002622
20
4.9345506452523
30
0
41
1
10
184.914636881128
20
4.68593003408003
30
0
41
1
10
185.468975968902
20
4.5172351517229
30
0
41
1
10
186.299861583225
20
4.25939670365554
30
0
41
1
10
186.576719389566
20
4.17264982759596
30
0
41
1
10
187.130197366401
20
3.997468739173
30
0
41
1
10
187.406789784079
20
3.90895920028115
30
0
41
1
10
188.236554263466
20
3.64180711093991
30
0
41
1
10
188.789900346009
20
3.46205391447987
30
0
41
1
10
189.896611557577
20
3.09844913916376
30
0
41
1
10
190.449994544903
20
2.91464533192504
30
0
41
1
10
191.279959000086
20
2.63550437314498
30
0
41
1
10
191.556595466183
20
2.54188403718715
30
0
41
1
10
192.109803063214
20
2.35340499419672
30
0
41
1
10
192.38635275424
20
2.2584833326157
30
0
41
1
10
193.216356985338
20
1.97314723307616
30
0
41
1
10
193.770218440778
20
1.78232331437988
30
0
41
1
10
194.878624774989
20
1.39846321228379
30
0
41
1
10
195.433197437454
20
1.205507058526
30
0
41
1
10
196.265463473715
20
0.914065845080245
30
0
41
1
10
196.542953255552
20
0.816583254877543
30
0
41
1
10
197.098043033906
20
0.620856360449068
30
0
41
1
10
197.375641987836
20
0.522606671964411
30
0
41
1
10
198.209140405199
20
0.228346050549334
30
0
41
1
10
198.765653743439
20
0.0325676666789718
30
0
41
1
10
199.880053859349
20
-0.35916635245124
30
0
41
1
10
200.437964341149
20
-0.555048663326062
30
0
41
1
10
201.275761608528
20
-0.84937293293774
30
0
41
1
10
201.555177792845
20
-0.947581141334069
30
0
41
1
10
201.974535432618
20
-1.09503226628931
30
0
41
1
10
202.114380282572
20
-1.14419693011806
30
0
41
1
10
202.393977466202
20
-1.24232523580966
30
0
41
1
10
202.533761017476
20
-1.29128235835341
30
0
41
1
10
203.232646083122
20
-1.53541444239204
30
0
41
1
10
203.791567438937
20
-1.72887455238003
30
0
41
1
10
204.908763658386
20
-2.11296472119375
30
0
41
1
10
205.467056650521
20
-2.30354240653418
30
0
41
1
10
206.303869874254
20
-2.58766013769826
30
0
41
1
10
206.582686514258
20
-2.68211942241837
30
0
41
1
10
207.140164501724
20
-2.87029431372045
30
0
41
1
10
207.418878963377
20
-2.9638636240708
30
0
41
1
10
208.255264304928
20
-3.24217501293407
30
0
41
1
10
208.813012923198
20
-3.42497437172793
30
0
41
1
10
209.928587166864
20
-3.78577549424827
30
0
41
1
10
210.486422807109
20
-3.96375066486374
30
0
41
1
10
211.323082291881
20
-4.22746854163552
30
0
41
1
10
211.601927416242
20
-4.31489767546807
30
0
41
1
10
212.159721595557
20
-4.48831427338951
30
0
41
1
10
212.43873313631
20
-4.57414377091487
30
0
41
1
10
213.276222495686
20
-4.82873261717677
30
0
41
1
10
213.835048681629
20
-4.99486450001564
30
0
41
1
10
214.673884746987
20
-5.23906192349577
30
0
41
1
10
214.953596943305
20
-5.31962505614112
30
0
41
1
10
215.51319535745
20
-5.47913547308244
30
0
41
1
10
215.792895245012
20
-5.55802794439074
30
0
41
1
10
216.351703977592
20
-5.71404313144717
30
0
41
1
10
216.630841949676
20
-5.79124561914753
30
0
41
1
10
217.188865064555
20
-5.94335788012194
30
0
41
1
10
217.467794424552
20
-6.01816727525235
30
0
41
1
10
218.304293239406
20
-6.23902049867993
30
0
41
1
10
218.861540350502
20
-6.38157247308104
30
0
41
1
10
219.975034136314
20
-6.65779265865567
30
0
41
1
10
220.531278760403
20
-6.79146626054663
30
0
41
1
10
221.364723105742
20
-6.98558169310888
30
0
41
1
10
221.642365127546
20
-7.04925052362188
30
0
41
1
10
222.197666754629
20
-7.17382482710437
30
0
41
1
10
222.475333930243
20
-7.2347220531918
30
0
41
1
10
223.308283349001
20
-7.41347897553484
30
0
41
1
10
223.863514667289
20
-7.52740680367731
30
0
41
1
10
224.973668031304
20
-7.74512988056139
30
0
41
1
10
225.52858501935
20
-7.84893443422183
30
0
41
1
10
226.360559726881
20
-7.99717939278102
30
0
41
1
10
226.63782620276
20
-8.0453311352527
30
0
41
1
10
227.192607624838
20
-8.13859462571236
30
0
41
1
10
227.470099112935
20
-8.18374466322015
30
0
41
1
10
228.302776711103
20
-8.31491998179209
30
0
41
1
10
228.858177211686
20
-8.39666107685849
30
0
41
1
10
229.969363851464
20
-8.54894718251745
30
0
41
1
10
230.525131458532
20
-8.61951230808
30
0
41
1
10
231.358957401588
20
-8.71691808053262
30
0
41
1
10
231.63696835319
20
-8.74793435410032
30
0
41
1
10
232.193426722373
20
-8.80679398014109
30
0
41
1
10
232.471837891934
20
-8.83467489274653
30
0
41
1
10
233.307530618321
20
-8.9137698798998
30
0
41
1
10
233.865286397833
20
-8.96043030677677
30
0
41
1
10
234.702730084152
20
-9.02136721495125
30
0
41
1
10
234.982012308929
20
-9.04016897045682
30
0
41
1
10
235.540822606829
20
-9.07473389990221
30
0
41
1
10
235.82033419395
20
-9.09050430234046
30
0
41
1
10
236.1
20
-9.10471819901198
30
0
0
SPLINE
5
C7
100
AcDbEntity
8
1
62
256
6
ByLayer
370
18
48
1
60
0
100
AcDbSpline
70
4
71
3
72
184
73
180
40
0
40
0
40
0
40
0
40
0.0141631612652034
40
0.0141631612652034
40
0.0225735901764216
40
0.0225735901764216
40
0.0309840190876398
40
0.0309840190876398
40
0.039394447998858
40
0.039394447998858
40
0.0478048769100762
40
0.0478048769100762
40
0.0646257347325112
40
0.0646257347325112
40
0.0730361636437279
40
0.0730361636437279
40
0.0814465925549446
40
0.0814465925549446
40
0.0898570214661614
40
0.0898570214661614
40
0.0982674503773781
40
0.0982674503773781
40
0.115088308199812
40
0.115088308199812
40
0.123498737111028
40
0.123498737111028
40
0.131909166022244
40
0.131909166022244
40
0.148730023844674
40
0.148730023844674
40
0.165550881667105
40
0.165550881667105
40
0.173961310578321
40
0.173961310578321
40
0.182371739489537
40
0.182371739489537
40
0.199192597311967
40
0.199192597311967
40
0.207603026223183
40
0.207603026223183
40
0.216013455134398
40
0.216013455134398
40
0.224423884045613
40
0.224423884045613
40
0.232834312956828
40
0.232834312956828
40
0.24965517077926
40
0.24965517077926
40
0.266476028601693
40
0.266476028601693
40
0.274886457512909
40
0.274886457512909
40
0.283296886424125
40
0.283296886424125
40
0.300117744246558
40
0.300117744246558
40
0.316938602068991
40
0.316938602068991
40
0.321143816524599
40
0.321143816524599
40
0.325349030980208
40
0.325349030980208
40
0.333759459891424
40
0.333759459891424
40
0.350580317713857
40
0.350580317713857
40
0.358990746625073
40
0.358990746625073
40
0.367401175536288
40
0.367401175536288
40
0.375811604447504
40
0.375811604447504
40
0.384222033358721
40
0.384222033358721
40
0.401042891181152
40
0.401042891181152
40
0.409453320092369
40
0.409453320092369
40
0.417863749003585
40
0.417863749003585
40
0.434684606826016
40
0.434684606826016
40
0.451505464648447
40
0.451505464648447
40
0.459915893559663
40
0.459915893559663
40
0.468326322470879
40
0.468326322470879
40
0.485147180293312
40
0.485147180293312
40
0.501968038115745
40
0.501968038115745
40
0.510378467026962
40
0.510378467026962
40
0.518788895938178
40
0.518788895938178
40
0.535609753760612
40
0.535609753760612
40
0.552430611583046
40
0.552430611583046
40
0.556635826038654
40
0.556635826038654
40
0.560841040494263
40
0.560841040494263
40
0.56925146940548
40
0.56925146940548
40
0.586072327227913
40
0.586072327227913
40
0.602893185050347
40
0.602893185050347
40
0.611303613961564
40
0.611303613961564
40
0.61971404287278
40
0.61971404287278
40
0.636534900695214
40
0.636534900695214
40
0.653355758517647
40
0.653355758517647
40
0.661766187428864
40
0.661766187428864
40
0.67017661634008
40
0.67017661634008
40
0.686997474162513
40
0.686997474162513
40
0.69540790307373
40
0.69540790307373
40
0.703818331984947
40
0.703818331984947
40
0.712228760896163
40
0.712228760896163
40
0.72063918980738
40
0.72063918980738
40
0.737460047629813
40
0.737460047629813
40
0.74587047654103
40
0.74587047654103
40
0.754280905452247
40
0.754280905452247
40
0.771101763274679
40
0.771101763274679
40
0.787922621097112
40
0.787922621097112
40
0.796333050008328
40
0.796333050008328
40
0.804743478919545
40
0.804743478919545
40
0.813153907830761
40
0.813153907830761
40
0.821564336741978
40
0.821564336741978
40
0.838385194564411
40
0.838385194564411
40
0.846795623475628
40
0.846795623475628
40
0.855206052386845
40
0.855206052386845
40
0.872026910209279
40
0.872026910209279
40
0.888847768031713
40
0.888847768031713
40
0.89725819694293
40
0.89725819694293
40
0.905668625854148
40
0.905668625854148
40
0.922489483676582
40
0.922489483676582
40
0.939310341499016
40
0.939310341499016
40
0.947720770410233
40
0.947720770410233
40
0.95613119932145
40
0.95613119932145
40
0.972952057143883
40
0.972952057143883
40
0.989772914966315
40
0.989772914966315
40
0.998183343877531
40
0.998183343877531
40
1
40
1
40
1
40
1
41
1
10
220.459470465566
20
-6.78232761748717
30
0
41
1
10
219.980372785029
20
-6.89627728410318
30
0
41
1
10
219.50135726501
20
-7.00668625171554
30
0
41
1
10
218.738050355802
20
-7.17708175436402
30
0
41
1
10
218.453695435239
20
-7.23933462853208
30
0
41
1
10
217.885069340399
20
-7.36138067407799
30
0
41
1
10
217.600812318026
20
-7.42119695561823
30
0
41
1
10
217.032296648618
20
-7.53820635790601
30
0
41
1
10
216.747996482911
20
-7.59533069629958
30
0
41
1
10
216.179232914045
20
-7.70670632027094
30
0
41
1
10
215.894782487409
20
-7.76097932370655
30
0
41
1
10
215.041234790366
20
-7.91958325449713
30
0
41
1
10
214.47193767188
20
-8.0196995821382
30
0
41
1
10
213.617646346416
20
-8.1614893187629
30
0
41
1
10
213.332826218257
20
-8.20735541712878
30
0
41
1
10
212.763079916897
20
-8.29628059016835
30
0
41
1
10
212.478170737927
20
-8.33935854370125
30
0
41
1
10
211.90805323429
20
-8.4224481967783
30
0
41
1
10
211.622982253113
20
-8.46241949261204
30
0
41
1
10
211.053057619812
20
-8.53921836058854
30
0
41
1
10
210.768167018749
20
-8.5760517838302
30
0
41
1
10
209.913716361641
20
-8.68188776905603
30
0
41
1
10
209.344373893715
20
-8.74622991026115
30
0
41
1
10
208.490860006027
20
-8.83347421118231
30
0
41
1
10
208.206441018706
20
-8.86101077194914
30
0
41
1
10
207.637770511604
20
-8.91297130633569
30
0
41
1
10
207.35350966984
20
-8.93738470900249
30
0
41
1
10
206.500587654479
20
-9.00568549479956
30
0
41
1
10
205.931867525218
20
-9.04470740393617
30
0
41
1
10
204.794268565604
20
-9.10986771277928
30
0
41
1
10
204.225386360775
20
-9.13600568668954
30
0
41
1
10
203.372005042057
20
-9.16550784124937
30
0
41
1
10
203.087545409882
20
-9.1737242440245
30
0
41
1
10
202.518552410209
20
-9.18687864539584
30
0
41
1
10
202.233982711905
20
-9.19180887151248
30
0
41
1
10
201.379856319427
20
-9.20165085117512
30
0
41
1
10
200.809959050749
20
-9.2016361906272
30
0
41
1
10
199.954429854034
20
-9.19177489159731
30
0
41
1
10
199.669256835454
20
-9.18684712152938
30
0
41
1
10
199.099262453214
20
-9.1737134040668
30
0
41
1
10
198.814390644568
20
-9.16550673630272
30
0
41
1
10
198.244907056307
20
-9.14579925159254
30
0
41
1
10
197.960313504213
20
-9.13429022653142
30
0
41
1
10
197.391236759241
20
-9.10801530541974
30
0
41
1
10
197.106720926724
20
-9.09326444098019
30
0
41
1
10
196.253223413687
20
-9.04421951341737
30
0
41
1
10
195.68430471324
20
-9.00513417115559
30
0
41
1
10
194.54667208928
20
-8.91423697219477
30
0
41
1
10
193.977962331073
20
-8.86242345115602
30
0
41
1
10
193.125118963026
20
-8.77501696822497
30
0
41
1
10
192.840877157356
20
-8.74425929963462
30
0
41
1
10
192.272214037605
20
-8.67972582151447
30
0
41
1
10
191.987803685889
20
-8.64594395105399
30
0
41
1
10
191.134350814081
20
-8.54006549673389
30
0
41
1
10
190.565083932271
20
-8.46344477946494
30
0
41
1
10
189.426006914469
20
-8.29807281952353
30
0
41
1
10
188.856220992323
20
-8.20928986630437
30
0
41
1
10
188.143646787327
20
-8.09060807747125
30
0
41
1
10
188.001104055512
20
-8.0664912733572
30
0
41
1
10
187.716168227392
20
-8.01759235798761
30
0
41
1
10
187.573744817343
20
-7.99280901129518
30
0
41
1
10
187.146606448693
20
-7.91746492001775
30
0
41
1
10
186.862024418534
20
-7.86590869413843
30
0
41
1
10
186.008813848083
20
-7.70728150746973
30
0
41
1
10
185.440716533534
20
-7.59626345989955
30
0
41
1
10
184.589669754023
20
-7.42182461790068
30
0
41
1
10
184.30617212829
20
-7.36235609340858
30
0
41
1
10
183.739555590456
20
-7.24075308339866
30
0
41
1
10
183.456451657392
20
-7.17858909727755
30
0
41
1
10
182.890525121353
20
-7.05177432533281
30
0
41
1
10
182.607664209556
20
-6.98719855451861
30
0
41
1
10
182.042094424084
20
-6.85583223685822
30
0
41
1
10
181.759394649086
20
-6.78902406343875
30
0
41
1
10
180.91155669366
20
-6.58523154915807
30
0
41
1
10
180.34667617554
20
-6.44489089298125
30
0
41
1
10
179.499923453354
20
-6.22756679655666
30
0
41
1
10
179.217768508822
20
-6.15398613440635
30
0
41
1
10
178.653658604507
20
-6.00451937353014
30
0
41
1
10
178.371719464328
20
-5.92859599784597
30
0
41
1
10
177.525915141294
20
-5.69800453934857
30
0
41
1
10
176.962007556866
20
-5.54065364574583
30
0
41
1
10
175.834168528469
20
-5.21866861009588
30
0
41
1
10
175.270232231988
20
-5.05404648031217
30
0
41
1
10
174.424362163866
20
-4.80150376745581
30
0
41
1
10
174.142412725481
20
-4.71638306701831
30
0
41
1
10
173.57852833306
20
-4.54424790983916
30
0
41
1
10
173.296588228079
20
-4.45724439778024
30
0
41
1
10
172.4504171302
20
-4.19434841776453
30
0
41
1
10
171.885903538396
20
-4.01640545702
30
0
41
1
10
170.75613052679
20
-3.65506390178513
30
0
41
1
10
170.19086743757
20
-3.47167597693112
30
0
41
1
10
169.342465373174
20
-3.19230572083544
30
0
41
1
10
169.059587684542
20
-3.09844449636563
30
0
41
1
10
168.493626703735
20
-2.90937563706697
30
0
41
1
10
168.210515486268
20
-2.81424762982019
30
0
41
1
10
167.360553470504
20
-2.52777803615157
30
0
41
1
10
166.793157729706
20
-2.33511508905446
30
0
41
1
10
165.656901137383
20
-1.9462923941438
30
0
41
1
10
165.08803957579
20
-1.75013579223241
30
0
41
1
10
164.376082087066
20
-1.50256616972402
30
0
41
1
10
164.233647055125
20
-1.4529315732361
30
0
41
1
10
163.94868543191
20
-1.35343223496827
30
0
41
1
10
163.806133117917
20
-1.30356164266263
30
0
41
1
10
163.378621367345
20
-1.15385770850185
30
0
41
1
10
163.093701647195
20
-1.05398538386652
30
0
41
1
10
162.239144395941
20
-0.754336610992425
30
0
41
1
10
161.669738871499
20
-0.554439435856523
30
0
41
1
10
160.531566098663
20
-0.154253693474999
30
0
41
1
10
159.96280166193
20
0.0460431488458823
30
0
41
1
10
159.110203519927
20
0.346976378147843
30
0
41
1
10
158.826107752526
20
0.447403212302362
30
0
41
1
10
158.257870571617
20
0.647761982834226
30
0
41
1
10
157.973728301648
20
0.747691918722637
30
0
41
1
10
157.12124405867
20
1.04677616629289
30
0
41
1
10
156.552842879963
20
1.2452205396709
30
0
41
1
10
155.415934969684
20
1.64036875096525
30
0
41
1
10
154.847443357624
20
1.83711536235285
30
0
41
1
10
153.994660157943
20
2.13101048052178
30
0
41
1
10
153.710368722593
20
2.2287068285703
30
0
41
1
10
153.141506962988
20
2.42294989396208
30
0
41
1
10
152.856959027374
20
2.51955980087331
30
0
41
1
10
152.002977482166
20
2.80789443714937
30
0
41
1
10
151.433202748357
20
2.9981153653678
30
0
41
1
10
150.577902161122
20
3.28055693681282
30
0
41
1
10
150.292678925468
20
3.37423082252084
30
0
41
1
10
149.722715470973
20
3.56041936780281
30
0
41
1
10
149.437903802148
20
3.65299698990924
30
0
41
1
10
148.868518739308
20
3.83683650428691
30
0
41
1
10
148.583904806605
20
3.92799026319633
30
0
41
1
10
148.014744041986
20
4.10854385464435
30
0
41
1
10
147.730211288186
20
4.19798137976616
30
0
41
1
10
146.876763919472
20
4.46381486032513
30
0
41
1
10
146.307996271382
20
4.63772577615947
30
0
41
1
10
145.455193303013
20
4.89376342158826
30
0
41
1
10
145.17098514309
20
4.97830697086769
30
0
41
1
10
144.602696223923
20
5.14579923405924
30
0
41
1
10
144.318633330916
20
5.22878869312959
30
0
41
1
10
143.466362152393
20
5.47470420691431
30
0
41
1
10
142.897981053464
20
5.63437783198509
30
0
41
1
10
141.760869108339
20
5.94537835729517
30
0
41
1
10
141.192134390586
20
6.09669721095761
30
0
41
1
10
140.338824722998
20
6.31750603516792
30
0
41
1
10
140.054355108155
20
6.39008287181932
30
0
41
1
10
139.485349434155
20
6.53316719119849
30
0
41
1
10
139.200807846138
20
6.60366093572358
30
0
41
1
10
138.631401151227
20
6.74204945655708
30
0
41
1
10
138.34655349369
20
6.80998171996325
30
0
41
1
10
137.776579191378
20
6.94334892030898
30
0
41
1
10
137.491375687068
20
7.00880012019181
30
0
41
1
10
136.63593099331
20
7.20129163427768
30
0
41
1
10
136.066102426554
20
7.32441860316092
30
0
41
1
10
135.212127567732
20
7.50141963677709
30
0
41
1
10
134.927607056866
20
7.55915235856367
30
0
41
1
10
134.358776631592
20
7.67195914734765
30
0
41
1
10
134.074432922446
20
7.72697712411579
30
0
41
1
10
133.221396159231
20
7.88755681236518
30
0
41
1
10
132.652778307759
20
7.9887832138171
30
0
41
1
10
131.51573428601
20
8.17974905332883
30
0
41
1
10
130.947307889807
20
8.2694893121502
30
0
41
1
10
130.094878693407
20
8.39550887573625
30
0
41
1
10
129.810787996485
20
8.43610017169229
30
0
41
1
10
129.242540247629
20
8.51423933094011
30
0
41
1
10
128.958346874214
20
8.55174872101327
30
0
41
1
10
128.105525068609
20
8.65958897712849
30
0
41
1
10
127.536675655784
20
8.72526060036401
30
0
41
1
10
126.398420976582
20
8.84423264898919
30
0
41
1
10
125.82901917657
20
8.89753726244234
30
0
41
1
10
124.974560401912
20
8.96814284141962
30
0
41
1
10
124.689688210357
20
8.99011848766159
30
0
41
1
10
124.119583816594
20
9.03077909738846
30
0
41
1
10
123.834467271084
20
9.04946344570024
30
0
41
1
10
122.979568018934
20
9.10058521094925
30
0
41
1
10
122.409979300261
20
9.12811483918682
30
0
41
1
10
121.271537084579
20
9.17018197520289
30
0
41
1
10
120.702704178144
20
9.18472349071274
30
0
41
1
10
119.850027187712
20
9.19671219908324
30
0
41
1
10
119.565866399547
20
9.19906338886949
30
0
41
1
10
119.220285380495
20
9.19992381185702
30
0
41
1
10
119.158898654308
20
9.20000013790701
30
0
41
1
10
119.097511440011
20
9.20000004851576
30
0
0
SPLINE
5
C8
100
AcDbEntity
8
1
62
256
6
ByLayer
370
18
48
1
60
0
100
AcDbSpline
70
4
71
3
72
74
73
70
40
0
40
0
40
0
40
0
40
0.0092470300523452
40
0.0092470300523452
40
0.0312637627178498
40
0.0312637627178498
40
0.0752972280488571
40
0.0752972280488571
40
0.0973139607143604
40
0.0973139607143604
40
0.119330693379864
40
0.119330693379864
40
0.141347426045368
40
0.141347426045368
40
0.163364158710871
40
0.163364158710871
40
0.207397624041879
40
0.207397624041879
40
0.229414356707382
40
0.229414356707382
40
0.251431089372885
40
0.251431089372885
40
0.273447822038389
40
0.273447822038389
40
0.295464554703893
40
0.295464554703893
40
0.339498020034899
40
0.339498020034899
40
0.361514752700402
40
0.361514752700402
40
0.383531485365905
40
0.383531485365905
40
0.427564950696911
40
0.427564950696911
40
0.471598416027917
40
0.471598416027917
40
0.493615148693421
40
0.493615148693421
40
0.515631881358925
40
0.515631881358925
40
0.559665346689933
40
0.559665346689933
40
0.581682079355436
40
0.581682079355436
40
0.60369881202094
40
0.60369881202094
40
0.625715544686444
40
0.625715544686444
40
0.647732277351947
40
0.647732277351947
40
0.691765742682954
40
0.691765742682954
40
0.735799208013962
40
0.735799208013962
40
0.757815940679465
40
0.757815940679465
40
0.779832673344969
40
0.779832673344969
40
0.823866138675975
40
0.823866138675975
40
0.867899604006981
40
0.867899604006981
40
0.889916336672485
40
0.889916336672485
40
0.911933069337989
40
0.911933069337989
40
0.955966534668994
40
0.955966534668994
40
1
40
1
40
1
40
1
41
1
10
56.4803487707189
20
-6.77774625782041
30
0
41
1
10
56.3608429039126
20
-6.80630788292058
30
0
41
1
10
56.2413491389907
20
-6.83464542517777
30
0
41
1
10
55.8373564273922
20
-6.92963580641808
30
0
41
1
10
55.5528883453486
20
-6.99519631280867
30
0
41
1
10
54.6995976191346
20
-7.18793032496916
30
0
41
1
10
54.1308849928346
20
-7.31115524102441
30
0
41
1
10
53.2780786298289
20
-7.48820130663009
30
0
41
1
10
52.9938546439475
20
-7.54591855762752
30
0
41
1
10
52.4255081654005
20
-7.65876532731443
30
0
41
1
10
52.1413948586469
20
-7.71390870268581
30
0
41
1
10
51.5732251831514
20
-7.82151798365007
30
0
41
1
10
51.289135743488
20
-7.87393191909905
30
0
41
1
10
50.7207960424072
20
-7.97576531737226
30
0
41
1
10
50.4365663471997
20
-8.02521683840985
30
0
41
1
10
49.5837089081722
20
-8.16921031640791
30
0
41
1
10
49.0149091036902
20
-8.25939182879381
30
0
41
1
10
48.1614155447396
20
-8.38598694257189
30
0
41
1
10
47.8768700690189
20
-8.42673935273345
30
0
41
1
10
47.3076918755067
20
-8.50534136500201
30
0
41
1
10
47.0230765608065
20
-8.54320840265305
30
0
41
1
10
46.4536262263429
20
-8.61587200498991
30
0
41
1
10
46.1687546844411
20
-8.65063190595646
30
0
41
1
10
45.5986951321034
20
-8.7169973730812
30
0
41
1
10
45.3134561628151
20
-8.74861405914839
30
0
41
1
10
44.4581974064725
20
-8.83867258788808
30
0
41
1
10
43.8883793551416
20
-8.8923589850659
30
0
41
1
10
43.0342412274569
20
-8.96341903998871
30
0
41
1
10
42.7496276981221
20
-8.9855263512822
30
0
41
1
10
42.1806073891791
20
-9.02656980181155
30
0
41
1
10
41.8962087166999
20
-9.04550653123101
30
0
41
1
10
41.0429596986653
20
-9.09735611400717
30
0
41
1
10
40.4740833182609
20
-9.12534484319013
30
0
41
1
10
39.3362970689526
20
-9.16832584387703
30
0
41
1
10
38.7673825442216
20
-9.18331764647189
30
0
41
1
10
37.9140441469151
20
-9.19602322465781
30
0
41
1
10
37.629609375845
20
-9.19862628547148
30
0
41
1
10
37.0607301045664
20
-9.20054004567797
30
0
41
1
10
36.7762625254575
20
-9.19984745531076
30
0
41
1
10
35.9224751702371
20
-9.1928414659661
30
0
41
1
10
35.3528644785534
20
-9.18161304564839
30
0
41
1
10
34.4978584850897
20
-9.15497059297894
30
0
41
1
10
34.2127503433366
20
-9.14445471149449
30
0
41
1
10
33.6423760106176
20
-9.12013994173438
30
0
41
1
10
33.3573632742484
20
-9.10635166004514
30
0
41
1
10
32.7876968503858
20
-9.07550242235493
30
0
41
1
10
32.5030578695668
20
-9.05843268383765
30
0
41
1
10
31.9340478718112
20
-9.02105478606106
30
0
41
1
10
31.6496364887058
20
-9.0007698187938
30
0
41
1
10
30.7965851779041
20
-8.9352274858332
30
0
41
1
10
30.2281712603393
20
-8.8852649605366
30
0
41
1
10
29.0919564781696
20
-8.77288935127692
30
0
41
1
10
28.5241576060191
20
-8.7104756952964
30
0
41
1
10
27.6729877880591
20
-8.60739990924077
30
0
41
1
10
27.3893684893518
20
-8.5714445252454
30
0
41
1
10
26.8221049361282
20
-8.49657672119758
30
0
41
1
10
26.5384468272553
20
-8.45768269986269
30
0
41
1
10
25.6874062189051
20
-8.33663875895911
30
0
41
1
10
25.1199569522686
20
-8.25013310338079
30
0
41
1
10
23.9849294978324
20
-8.06548165168718
30
0
41
1
10
23.4173604519553
20
-7.96732386861862
30
0
41
1
10
22.5659612408563
20
-7.81117618883621
30
0
41
1
10
22.2821418217283
20
-7.75765497212811
30
0
41
1
10
21.7142274867524
20
-7.64803695648536
30
0
41
1
10
21.4301525386611
20
-7.59191193675801
30
0
41
1
10
20.5775921664308
20
-7.41957747518467
30
0
41
1
10
20.0087639223485
20
-7.29942570424498
30
0
41
1
10
18.8702176609637
20
-7.04853302412269
30
0
41
1
10
18.3005018270022
20
-6.91779082423099
30
0
41
1
10
17.7303862244329
20
-6.78155491395432
30
0
0
SPLINE
5
C9
100
AcDbEntity
8
1
62
256
6
ByLayer
370
18
48
1
60
0
100
AcDbSpline
70
4
71
3
72
18
73
14
40
0
40
0
40
0
40
0
40
0.249999999999985
40
0.249999999999985
40
0.374999999999985
40
0.374999999999985
40
0.499999999999985
40
0.499999999999985
40
0.749999999999985
40
0.749999999999985
40
0.874999999999993
40
0.874999999999993
40
1
40
1
40
1
40
1
41
1
10
246.142282774476
20
-1.35496565744202
30
0
41
1
10
245.304430367046
20
-1.05254439215329
30
0
41
1
10
244.467018392387
20
-0.749638981054886
30
0
41
1
10
243.211715289478
20
-0.294109278853966
30
0
41
1
10
242.793419238531
20
-0.14206421849741
30
0
41
1
10
241.957149423318
20
0.162553926754015
30
0
41
1
10
241.539232637513
20
0.315283913153706
30
0
41
1
10
240.285061021863
20
0.771761952754815
30
0
41
1
10
239.448515488231
20
1.07416357067075
30
0
41
1
10
238.193221440073
20
1.52536853371259
30
0
41
1
10
237.774714164634
20
1.67537946965317
30
0
41
1
10
236.937587227113
20
1.97472452601326
30
0
41
1
10
236.518986884266
20
2.12411077925654
30
0
41
1
10
236.1
20
2.27225297043114
30
0
0
SPLINE
5
CA
100
AcDbEntity
8
1
62
256
6
ByLayer
370
18
48
1
60
0
100
AcDbSpline
70
4
71
3
72
88
73
84
40
0
40
0
40
0
40
0
40
0.0312500000000115
40
0.0312500000000115
40
0.062500000000023
40
0.062500000000023
40
0.125000000000043
40
0.125000000000043
40
0.140625000000047
40
0.140625000000047
40
0.14843750000005
40
0.14843750000005
40
0.156250000000052
40
0.187500000000058
40
0.218750000000064
40
0.218750000000064
40
0.25000000000007
40
0.25000000000007
40
0.281250000000076
40
0.281250000000076
40
0.296875000000078
40
0.296875000000078
40
0.312500000000079
40
0.312500000000079
40
0.343750000000079
40
0.343750000000079
40
0.375000000000079
40
0.375000000000079
40
0.406250000000079
40
0.406250000000079
40
0.437500000000079
40
0.437500000000079
40
0.445312500000079
40
0.445312500000079
40
0.453125000000079
40
0.468750000000078
40
0.468750000000078
40
0.500000000000075
40
0.500000000000075
40
0.531250000000073
40
0.531250000000073
40
0.539062500000072
40
0.539062500000072
40
0.546875000000071
40
0.56250000000007
40
0.56250000000007
40
0.593750000000066
40
0.593750000000066
40
0.625000000000063
40
0.625000000000063
40
0.632812500000061
40
0.632812500000061
40
0.640625000000059
40
0.656250000000053
40
0.656250000000053
40
0.687500000000041
40
0.687500000000041
40
0.718750000000029
40
0.718750000000029
40
0.726562500000028
40
0.726562500000028
40
0.734375000000026
40
0.734375000000026
40
0.750000000000024
40
0.750000000000024
40
0.781250000000022
40
0.781250000000022
40
0.812500000000019
40
0.812500000000019
40
0.843750000000017
40
0.843750000000017
40
0.851562500000017
40
0.851562500000017
40
0.859375000000017
40
0.875000000000016
40
0.875000000000016
40
0.906250000000011
40
0.937500000000006
40
0.968750000000002
40
0.968750000000002
40
0.984375000000001
40
0.984375000000001
40
1
40
1
40
1
40
1
41
1
10
246.142282774471
20
9.19834265453255
30
0
41
1
10
246.201629250763
20
9.0511533156718
30
0
41
1
10
246.261068468132
20
8.90175926254798
30
0
41
1
10
246.38023191603
20
8.59891920937417
30
0
41
1
10
246.439956099018
20
8.44547163802332
30
0
41
1
10
246.619661534528
20
7.97942620186311
30
0
41
1
10
246.740191935161
20
7.66115817639354
30
0
41
1
10
246.891890566844
20
7.25456528428708
30
0
41
1
10
246.922280771144
20
7.1728061854279
30
0
41
1
10
246.96793980523
20
7.04951229841325
30
0
41
1
10
246.983182277219
20
7.00827654418774
30
0
41
1
10
247.013637075661
20
6.92573370924796
30
0
41
1
10
247.089662420778
20
6.71929496700488
30
0
41
1
10
247.225516688659
20
6.34698201119267
30
0
41
1
10
247.344768276457
20
6.01500185931172
30
0
41
1
10
247.463131025587
20
5.68246586793811
30
0
41
1
10
247.521868965991
20
5.51592030576381
30
0
41
1
10
247.638202952635
20
5.18218947975762
30
0
41
1
10
247.695801329259
20
5.01500504907469
30
0
41
1
10
247.781025318383
20
4.76363769689726
30
0
41
1
10
247.809236173791
20
4.67974955001589
30
0
41
1
10
247.86518702342
20
4.51174789378999
30
0
41
1
10
247.892941931007
20
4.42758670822738
30
0
41
1
10
247.974961751754
20
4.17593419654546
30
0
41
1
10
248.028125050488
20
4.00889227285464
30
0
41
1
10
248.130446475108
20
3.67598576573116
30
0
41
1
10
248.17961131357
20
3.51012226161592
30
0
41
1
10
248.272441793483
20
3.17922640288558
30
0
41
1
10
248.316115245641
20
3.01419476386332
30
0
41
1
10
248.395712556912
20
2.68451479240934
30
0
41
1
10
248.431639928928
20
2.51986510101031
30
0
41
1
10
248.469702682266
20
2.3139497904281
30
0
41
1
10
248.47697647148
20
2.2727255820916
30
0
41
1
10
248.490748227498
20
2.19042206584837
30
0
41
1
10
248.510208623588
20
2.06739891816338
30
0
41
1
10
248.525868053643
20
1.94568822132479
30
0
41
1
10
248.551609524656
20
1.70408274165868
30
0
41
1
10
248.56127958144
20
1.54542469257257
30
0
41
1
10
248.563830228755
20
1.23348886160136
30
0
41
1
10
248.556695522887
20
1.08021383717153
30
0
41
1
10
248.537348105662
20
0.892482558598914
30
0
41
1
10
248.532955788852
20
0.855082499473014
30
0
41
1
10
248.523188596271
20
0.780903420047537
30
0
41
1
10
248.507101627584
20
0.670815253234224
30
0
41
1
10
248.486954585704
20
0.56422545160018
30
0
41
1
10
248.441921610259
20
0.355598920878862
30
0
41
1
10
248.405606980814
20
0.222576957698379
30
0
41
1
10
248.323660155355
20
-0.0318085700181712
30
0
41
1
10
248.278034897555
20
-0.153175595617398
30
0
41
1
10
248.216692995901
20
-0.297705368406042
30
0
41
1
10
248.204194738898
20
-0.326278219656189
30
0
41
1
10
248.178849323811
20
-0.382575768875199
30
0
41
1
10
248.140356496128
20
-0.465644955072349
30
0
41
1
10
248.100586764461
20
-0.544663436385918
30
0
41
1
10
248.01965331581
20
-0.697460758584867
30
0
41
1
10
247.963857441696
20
-0.792353993399132
30
0
41
1
10
247.849666748727
20
-0.968659050519733
30
0
41
1
10
247.791264232336
20
-1.05006837833588
30
0
41
1
10
247.71698773804
20
-1.14341514152616
30
0
41
1
10
247.702067827544
20
-1.16166276209248
30
0
41
1
10
247.672104323358
20
-1.197310992924
30
0
41
1
10
247.657052473153
20
-1.21471980805137
30
0
41
1
10
247.611915389899
20
-1.26545265770295
30
0
41
1
10
247.581787803585
20
-1.29735929808851
30
0
41
1
10
247.49134358838
20
-1.38746181766021
30
0
41
1
10
247.430969994742
20
-1.44005187849655
30
0
41
1
10
247.310177581112
20
-1.53065003801618
30
0
41
1
10
247.249756881035
20
-1.56865664526691
30
0
41
1
10
247.128851512779
20
-1.63010329774659
30
0
41
1
10
247.068365985979
20
-1.65354336512487
30
0
41
1
10
246.992655723345
20
-1.67354161464044
30
0
41
1
10
246.977501418356
20
-1.6770755922137
30
0
41
1
10
246.947318474781
20
-1.68317994862758
30
0
41
1
10
246.902182210306
20
-1.69090567352328
30
0
41
1
10
246.857445622809
20
-1.69438650191106
30
0
41
1
10
246.768466153471
20
-1.6957839981128
30
0
41
1
10
246.651143061801
20
-1.68282901869191
30
0
41
1
10
246.478488705505
20
-1.61973765774584
30
0
41
1
10
246.365199978691
20
-1.54851480598279
30
0
41
1
10
246.280760462247
20
-1.48392202543909
30
0
41
1
10
246.252788380662
20
-1.46059024087631
30
0
41
1
10
246.197256621524
20
-1.41042205613357
30
0
41
1
10
246.169681694854
20
-1.38357402896221
30
0
41
1
10
246.142282774471
20
-1.35496565744037
30
0
0
SPLINE
5
CB
100
AcDbEntity
8
1
62
256
6
ByLayer
370
18
48
1
60
0
100
AcDbSpline
70
4
71
3
72
24
73
20
40
0
40
0
40
0
40
0
40
0.0481629774628514
40
0.0481629774628514
40
0.143346679716562
40
0.143346679716562
40
0.238530381970272
40
0.238530381970272
40
0.333714084223983
40
0.333714084223983
40
0.428897786477693
40
0.428897786477693
40
0.619265190985136
40
0.619265190985136
40
0.809632595492579
40
0.809632595492579
40
0.90481629774629
40
0.90481629774629
40
1
40
1
40
1
40
1
41
1
10
239.549578679452
20
9.49881373335478
30
0
41
1
10
239.655406468718
20
9.49883555504198
30
0
41
1
10
239.761224733857
20
9.49862365813701
30
0
41
1
10
240.076139251648
20
9.49729665770482
30
0
41
1
10
240.285205681695
20
9.49550096301434
30
0
41
1
10
240.703245144926
20
9.49006705715783
30
0
41
1
10
240.912206603248
20
9.48642625198184
30
0
41
1
10
241.330129509562
20
9.47730244339883
30
0
41
1
10
241.539112348901
20
9.47182341098943
30
0
41
1
10
241.957200660655
20
9.45906194921997
30
0
41
1
10
242.16629168613
20
9.45177735466697
30
0
41
1
10
242.793662018166
20
9.42721698820208
30
0
41
1
10
243.212043024597
20
9.40723777531105
30
0
41
1
10
244.049004529671
20
9.36006036957011
30
0
41
1
10
244.467582896087
20
9.33286184635685
30
0
41
1
10
245.095528644987
20
9.28656461517613
30
0
41
1
10
245.304856797334
20
9.27021477433013
30
0
41
1
10
245.723527024844
20
9.23565597903013
30
0
41
1
10
245.932864273894
20
9.21744200447986
30
0
41
1
10
246.142282774476
20
9.1983426545321
30
0
0
SPLINE
5
CC
100
AcDbEntity
8
1
62
256
6
ByLayer
370
18
48
1
60
0
100
AcDbSpline
70
4
71
3
72
194
73
190
40
0
40
0
40
0
40
0
40
0.0055202983050058
40
0.0055202983050058
40
0.0137842147215652
40
0.0137842147215652
40
0.0220481311381247
40
0.0220481311381247
40
0.0385759639712435
40
0.0385759639712435
40
0.046839880387803
40
0.046839880387803
40
0.0551037968043624
40
0.0551037968043624
40
0.0716316296374817
40
0.0716316296374817
40
0.0881594624706009
40
0.0881594624706009
40
0.0964233788871603
40
0.0964233788871603
40
0.10468729530372
40
0.10468729530372
40
0.121215128136839
40
0.121215128136839
40
0.129479044553398
40
0.129479044553398
40
0.133611002761678
40
0.133611002761678
40
0.137742960969959
40
0.137742960969959
40
0.14600687738652
40
0.14600687738652
40
0.154270793803081
40
0.154270793803081
40
0.170798626636203
40
0.170798626636203
40
0.179062543052764
40
0.179062543052764
40
0.187326459469324
40
0.187326459469324
40
0.195590375885885
40
0.195590375885885
40
0.203854292302446
40
0.203854292302446
40
0.220382125135567
40
0.220382125135567
40
0.228646041552128
40
0.228646041552128
40
0.236909957968688
40
0.236909957968688
40
0.245173874385249
40
0.245173874385249
40
0.25343779080181
40
0.25343779080181
40
0.269965623634932
40
0.269965623634932
40
0.278229540051493
40
0.278229540051493
40
0.286493456468055
40
0.286493456468055
40
0.303021289301178
40
0.303021289301178
40
0.319549122134301
40
0.319549122134301
40
0.327813038550862
40
0.327813038550862
40
0.336076954967423
40
0.336076954967423
40
0.352604787800545
40
0.352604787800545
40
0.360868704217106
40
0.360868704217106
40
0.369132620633667
40
0.369132620633667
40
0.377396537050228
40
0.377396537050228
40
0.38566045346679
40
0.38566045346679
40
0.402188286299912
40
0.402188286299912
40
0.418716119133034
40
0.418716119133034
40
0.426980035549595
40
0.426980035549595
40
0.435243951966156
40
0.435243951966156
40
0.451771784799277
40
0.451771784799277
40
0.468299617632399
40
0.468299617632399
40
0.476563534048959
40
0.476563534048959
40
0.48482745046552
40
0.48482745046552
40
0.49309136688208
40
0.49309136688208
40
0.50135528329864
40
0.50135528329864
40
0.517883116131761
40
0.517883116131761
40
0.526147032548321
40
0.526147032548321
40
0.534410948964881
40
0.534410948964881
40
0.550938781798002
40
0.550938781798002
40
0.567466614631122
40
0.567466614631122
40
0.575730531047683
40
0.575730531047683
40
0.583994447464243
40
0.583994447464243
40
0.600522280297363
40
0.600522280297363
40
0.608786196713923
40
0.608786196713923
40
0.617050113130484
40
0.617050113130484
40
0.625314029547044
40
0.625314029547044
40
0.633577945963604
40
0.633577945963604
40
0.650105778796725
40
0.650105778796725
40
0.658369695213286
40
0.658369695213286
40
0.666633611629846
40
0.666633611629846
40
0.674897528046407
40
0.674897528046407
40
0.683161444462968
40
0.683161444462968
40
0.699689277296089
40
0.699689277296089
40
0.70795319371265
40
0.70795319371265
40
0.71621711012921
40
0.71621711012921
40
0.72034906833749
40
0.72034906833749
40
0.724481026545771
40
0.724481026545771
40
0.732744942962331
40
0.732744942962331
40
0.749272775795451
40
0.749272775795451
40
0.757536692212012
40
0.757536692212012
40
0.765800608628572
40
0.765800608628572
40
0.782328441461693
40
0.782328441461693
40
0.798856274294813
40
0.798856274294813
40
0.807120190711374
40
0.807120190711374
40
0.815384107127934
40
0.815384107127934
40
0.831911939961055
40
0.831911939961055
40
0.840175856377615
40
0.840175856377615
40
0.848439772794176
40
0.848439772794176
40
0.856703689210737
40
0.856703689210737
40
0.864967605627297
40
0.864967605627297
40
0.881495438460418
40
0.881495438460418
40
0.898023271293539
40
0.898023271293539
40
0.906287187710099
40
0.906287187710099
40
0.914551104126659
40
0.914551104126659
40
0.93107893695978
40
0.93107893695978
40
0.947606769792901
40
0.947606769792901
40
0.955870686209461
40
0.955870686209461
40
0.964134602626021
40
0.964134602626021
40
0.98066243545914
40
0.98066243545914
40
0.997190268292259
40
0.997190268292259
40
1
40
1
40
1
40
1
41
1
10
56.479707237759
20
6.77833135339472
30
0
41
1
10
56.6663478595279
20
6.82291076250328
30
0
41
1
10
56.8530603500258
20
6.86691279483819
30
0
41
1
10
57.3194463485648
20
6.97538209059684
30
0
41
1
10
57.5992168368844
20
7.03917029302426
30
0
41
1
10
58.1589173227782
20
7.1642864743946
30
0
41
1
10
58.438671423241
20
7.2255733261041
30
0
41
1
10
59.2776114536159
20
7.40569282637563
30
0
41
1
10
59.8364733467538
20
7.52079710201858
30
0
41
1
10
60.673943677935
20
7.68618912298697
30
0
41
1
10
60.9529482239251
20
7.74012542293167
30
0
41
1
10
61.5110380533845
20
7.84500808612162
30
0
41
1
10
61.7901207985321
20
7.89596467736908
30
0
41
1
10
62.6273775182257
20
8.04458592516448
30
0
41
1
10
63.1855650365522
20
8.13800012182537
30
0
41
1
10
64.3017916762468
20
8.3137902881472
30
0
41
1
10
64.8598212046084
20
8.39617899279497
30
0
41
1
10
65.6965951224566
20
8.51153127205762
30
0
41
1
10
65.975497712406
20
8.54857719066635
30
0
41
1
10
66.5336114524028
20
8.61949158953163
30
0
41
1
10
66.8127902780723
20
8.65339928114713
30
0
41
1
10
67.6505953671121
20
8.75060465067153
30
0
41
1
10
68.2095047170797
20
8.80937690031877
30
0
41
1
10
69.0482881179017
20
8.88859544766933
30
0
41
1
10
69.3279515099698
20
8.91351038839869
30
0
41
1
10
69.7475308143078
20
8.94864077043502
30
0
41
1
10
69.8874196947442
20
8.95997826767874
30
0
41
1
10
70.1670828392655
20
8.98189260894392
30
0
41
1
10
70.3068667014395
20
8.99247253671328
30
0
41
1
10
70.7261177027859
20
9.02304915017461
30
0
41
1
10
71.0055117709895
20
9.04186340396481
30
0
41
1
10
71.5643350064856
20
9.07624866431541
30
0
41
1
10
71.8437259878651
20
9.09184373711491
30
0
41
1
10
72.6817609995429
20
9.13391643721221
30
0
41
1
10
73.2402839559602
20
9.15568226976455
30
0
41
1
10
74.0776716872953
20
9.1789743753132
30
0
41
1
10
74.3567340881195
20
9.1851768557699
30
0
41
1
10
74.9146961080239
20
9.19444173781957
30
0
41
1
10
75.1935719980924
20
9.19750446358216
30
0
41
1
10
75.7512721641151
20
9.20044925109482
30
0
41
1
10
76.0301590297711
20
9.20032937703786
30
0
41
1
10
76.5881175012454
20
9.19694026726944
30
0
41
1
10
76.8671607360973
20
9.19367193165158
30
0
41
1
10
77.7044230619613
20
9.17916881136148
30
0
41
1
10
78.2627880086123
20
9.1632464585268
30
0
41
1
10
79.1004684675912
20
9.12991182244804
30
0
41
1
10
79.3797172708966
20
9.11722271305982
30
0
41
1
10
79.9382301549167
20
9.08864657675522
30
0
41
1
10
80.2174650920325
20
9.07274266119799
30
0
41
1
10
80.7761608713758
20
9.03780321872586
30
0
41
1
10
81.0556753832898
20
9.01879964352736
30
0
41
1
10
81.6150264207239
20
8.9777506870596
30
0
41
1
10
81.8949197001647
20
8.95569181728908
30
0
41
1
10
82.7342226230197
20
8.8849860468695
30
0
41
1
10
83.2934076473151
20
8.83181765435972
30
0
41
1
10
84.1315032051565
20
8.74289522380954
30
0
41
1
10
84.4107545559636
20
8.7117238059198
30
0
41
1
10
84.9689981729344
20
8.64626738124659
30
0
41
1
10
85.2479680351534
20
8.61195542756505
30
0
41
1
10
86.0849688519505
20
8.50481210223248
30
0
41
1
10
86.6431333381337
20
8.42785247236571
30
0
41
1
10
87.7594154421021
20
8.26264164648305
30
0
41
1
10
88.3175621314052
20
8.17442097313605
30
0
41
1
10
89.1546282886965
20
8.03340820312829
30
0
41
1
10
89.4336237618509
20
7.98495349937994
30
0
41
1
10
89.9915362344976
20
7.88507560273163
30
0
41
1
10
90.2704612603177
20
7.83365849821547
30
0
41
1
10
91.1077057728224
20
7.67582426104386
30
0
41
1
10
91.6663705328305
20
7.56566776830093
30
0
41
1
10
92.5048739696277
20
7.39272314362788
30
0
41
1
10
92.7844655244868
20
7.33379723957395
30
0
41
1
10
93.3438027286284
20
7.21333439971414
30
0
41
1
10
93.6235897926171
20
7.15178766489234
30
0
41
1
10
94.1831092066529
20
7.02605235957392
30
0
41
1
10
94.4626985010845
20
6.96187634447719
30
0
41
1
10
95.0215639774684
20
6.83094356453284
30
0
41
1
10
95.3008788350199
20
6.76425893688619
30
0
41
1
10
96.1389051680089
20
6.56143090210085
30
0
41
1
10
96.6975246970223
20
6.4221873156402
30
0
41
1
10
97.8143705719582
20
6.13521619939468
30
0
41
1
10
98.372612483056
20
5.98752043942932
30
0
41
1
10
99.2095337739673
20
5.75924768770588
30
0
41
1
10
99.4884135721262
20
5.68198725874998
30
0
41
1
10
100.046106470892
20
5.52538097341949
30
0
41
1
10
100.324978492781
20
5.44616842031496
30
0
41
1
10
101.161916400028
20
5.20639496006817
30
0
41
1
10
101.720155286865
20
5.04336544098112
30
0
41
1
10
102.836965694069
20
4.71046004334235
30
0
41
1
10
103.395544318269
20
4.5406015451353
30
0
41
1
10
104.233508186898
20
4.28021404204463
30
0
41
1
10
104.512817414832
20
4.19240937601936
30
0
41
1
10
105.071640021206
20
4.01535315670824
30
0
41
1
10
105.351213133729
20
3.9262592984168
30
0
41
1
10
105.910709974824
20
3.74703032052958
30
0
41
1
10
106.190546167625
20
3.65686980754686
30
0
41
1
10
106.749925278865
20
3.47552237756131
30
0
41
1
10
107.029533532329
20
3.38431915838166
30
0
41
1
10
107.868082909911
20
3.10903855490929
30
0
41
1
10
108.426746246156
20
2.92328574886474
30
0
41
1
10
109.264013342171
20
2.64081439749444
30
0
41
1
10
109.542953478042
20
2.54593950787623
30
0
41
1
10
110.100872093116
20
2.35568000555423
30
0
41
1
10
110.379883791955
20
2.26038851597878
30
0
41
1
10
111.216988579861
20
1.97379724481385
30
0
41
1
10
111.775136031085
20
1.78173925166922
30
0
41
1
10
112.891405984968
20
1.39513631199807
30
0
41
1
10
113.449525305209
20
1.20058269808746
30
0
41
1
10
114.286510899219
20
0.906361757640866
30
0
41
1
10
114.565467769387
20
0.80787054310133
30
0
41
1
10
115.123690861996
20
0.611159284703405
30
0
41
1
10
115.402943736133
20
0.512902238077032
30
0
41
1
10
116.241020611425
20
0.218130198401809
30
0
41
1
10
116.800170987915
20
0.0216390102933985
30
0
41
1
10
117.639409480916
20
-0.273459157544664
30
0
41
1
10
117.919300371066
20
-0.371910507829171
30
0
41
1
10
118.478671828462
20
-0.568824313120473
30
0
41
1
10
118.758198363104
20
-0.667321295529007
30
0
41
1
10
119.316935669325
20
-0.864380362332469
30
0
41
1
10
119.596175525521
20
-0.962856789802686
30
0
41
1
10
120.154725369865
20
-1.1587641292615
30
0
41
1
10
120.433999332678
20
-1.2563001845046
30
0
41
1
10
121.27172880547
20
-1.5479245240648
30
0
41
1
10
121.830108203134
20
-1.74098433965054
30
0
41
1
10
122.667374886118
20
-2.02894820203417
30
0
41
1
10
122.946412349181
20
-2.12466747332621
30
0
41
1
10
123.504356375102
20
-2.31564141133572
30
0
41
1
10
123.783246479918
20
-2.41094133177739
30
0
41
1
10
124.340948108046
20
-2.60092307526165
30
0
41
1
10
124.619812508212
20
-2.69545880849427
30
0
41
1
10
125.177782074801
20
-2.88304213213456
30
0
41
1
10
125.456850060222
20
-2.97619224075481
30
0
41
1
10
126.29422974844
20
-3.2539270122931
30
0
41
1
10
126.852733080788
20
-3.4367552060026
30
0
41
1
10
127.69071580148
20
-3.70789341569466
30
0
41
1
10
127.970080863756
20
-3.79775610472447
30
0
41
1
10
128.528858357555
20
-3.97651297253773
30
0
41
1
10
128.808245147078
20
-4.0654737312355
30
0
41
1
10
129.227463669151
20
-4.19791181216371
30
0
41
1
10
129.367234348719
20
-4.24186959676447
30
0
41
1
10
129.646879317563
20
-4.32930232572446
30
0
41
1
10
129.786767632561
20
-4.37279551370435
30
0
41
1
10
130.206391134789
20
-4.5025730447324
30
0
41
1
10
130.486081465432
20
-4.58816459990689
30
0
41
1
10
131.324925692144
20
-4.84231496511211
30
0
41
1
10
131.883865173903
20
-5.00822448168535
30
0
41
1
10
132.721686364798
20
-5.25218315105417
30
0
41
1
10
133.000861828768
20
-5.33268416969071
30
0
41
1
10
133.558985349856
20
-5.49210549752368
30
0
41
1
10
133.837904237607
20
-5.57109026017167
30
0
41
1
10
134.674682976915
20
-5.80481942078021
30
0
41
1
10
135.232753116529
20
-5.95593511994826
30
0
41
1
10
136.348986500515
20
-6.24966087352516
30
0
41
1
10
136.907169661913
20
-6.39222553177936
30
0
41
1
10
137.744384911257
20
-6.59992508591884
30
0
41
1
10
138.023446712292
20
-6.66813219880748
30
0
41
1
10
138.581520570601
20
-6.80253095304906
30
0
41
1
10
138.860515453291
20
-6.86875200536895
30
0
41
1
10
139.69794585911
20
-7.06337221529841
30
0
41
1
10
140.256811467285
20
-7.18778471815924
30
0
41
1
10
141.095700686632
20
-7.36698556698474
30
0
41
1
10
141.37543578619
20
-7.425468201699
30
0
41
1
10
141.935091780097
20
-7.53996913621228
30
0
41
1
10
142.214906207163
20
-7.59596637196518
30
0
41
1
10
142.774140298183
20
-7.7054194356794
30
0
41
1
10
143.053609119161
20
-7.7588900335808
30
0
41
1
10
143.612233738744
20
-7.86331924444573
30
0
41
1
10
143.891407499139
20
-7.91424489568561
30
0
41
1
10
144.729047469018
20
-8.06238697216523
30
0
41
1
10
145.287484759411
20
-8.15521616525731
30
0
41
1
10
146.404078171776
20
-8.32959507332453
30
0
41
1
10
146.962255621003
20
-8.41111505055591
30
0
41
1
10
147.799175114403
20
-8.52502681031621
30
0
41
1
10
148.078078199724
20
-8.56161284883427
30
0
41
1
10
148.635796317751
20
-8.63192959227007
30
0
41
1
10
148.914656959667
20
-8.66561082490128
30
0
41
1
10
149.751635309396
20
-8.76187564511579
30
0
41
1
10
150.309973562358
20
-8.81987132589873
30
0
41
1
10
151.427094754013
20
-8.92382225464044
30
0
41
1
10
151.98589113472
20
-8.96976642430334
30
0
41
1
10
152.824276543866
20
-9.02962907227987
30
0
41
1
10
153.103747720501
20
-9.04808260491686
30
0
41
1
10
153.662857819595
20
-9.08187346931189
30
0
41
1
10
153.942605033987
20
-9.09718209925217
30
0
41
1
10
154.781592894998
20
-9.13826193437311
30
0
41
1
10
155.340708726816
20
-9.15927638358789
30
0
41
1
10
156.45831552833
20
-9.18877806325978
30
0
41
1
10
157.016811332972
20
-9.19726444310245
30
0
41
1
10
157.669757324784
20
-9.19980939720384
30
0
41
1
10
157.764614174914
20
-9.19999608330394
30
0
41
1
10
157.859460533194
20
-9.19999940142469
30
0
0
SPLINE
5
CD
100
AcDbEntity
8
1
62
256
6
ByLayer
370
18
48
1
60
0
100
AcDbSpline
70
4
71
3
72
34
73
30
40
0
40
0
40
0
40
0
40
0.0401023718558114
40
0.0401023718558114
40
0.0934300178638289
40
0.0934300178638289
40
0.146757663871846
40
0.146757663871846
40
0.25341295588788
40
0.25341295588788
40
0.360068247903914
40
0.360068247903914
40
0.413395893911925
40
0.413395893911925
40
0.466723539919937
40
0.466723539919937
40
0.573378831935952
40
0.573378831935952
40
0.680034123951966
40
0.680034123951966
40
0.733361769959973
40
0.733361769959973
40
0.78668941596798
40
0.78668941596798
40
0.893344707983985
40
0.893344707983985
40
0.946672353991992
40
0.946672353991992
40
1
40
1
40
1
40
1
41
1
10
220.459903588226
20
6.77308441428545
30
0
41
1
10
220.668988124389
20
6.82295732593158
30
0
41
1
10
220.877991701535
20
6.87221830226264
30
0
41
1
10
221.364723105742
20
6.98558169310883
30
0
41
1
10
221.642365127545
20
7.04925052362185
30
0
41
1
10
222.197666754629
20
7.17382482710431
30
0
41
1
10
222.475333930243
20
7.23472205319177
30
0
41
1
10
223.308283349001
20
7.41347897553482
30
0
41
1
10
223.863514667289
20
7.52740680367722
30
0
41
1
10
224.973668031304
20
7.74512988056136
30
0
41
1
10
225.52858501935
20
7.84893443422158
30
0
41
1
10
226.360559726881
20
7.99717939278091
30
0
41
1
10
226.637826202759
20
8.04533113525264
30
0
41
1
10
227.192607624838
20
8.1385946257123
30
0
41
1
10
227.470099112935
20
8.1837446632201
30
0
41
1
10
228.302776711103
20
8.31491998179206
30
0
41
1
10
228.858177211686
20
8.39666107685846
30
0
41
1
10
229.969363851464
20
8.54894718251742
30
0
41
1
10
230.525131458532
20
8.61951230807998
30
0
41
1
10
231.358957401588
20
8.71691808053257
30
0
41
1
10
231.63696835319
20
8.74793435410029
30
0
41
1
10
232.193426722373
20
8.80679398014107
30
0
41
1
10
232.471837891934
20
8.83467489274651
30
0
41
1
10
233.307530618322
20
8.91376987989977
30
0
41
1
10
233.865286397833
20
8.96043030677677
30
0
41
1
10
234.702730084152
20
9.02136721495125
30
0
41
1
10
234.982012308929
20
9.04016897045682
30
0
41
1
10
235.540822606829
20
9.07473389990221
30
0
41
1
10
235.82033419395
20
9.09050430234046
30
0
41
1
10
236.1
20
9.10471819901196
30
0
0
SPLINE
5
CE
100
AcDbEntity
8
1
62
256
6
ByLayer
370
18
48
1
60
0
100
AcDbSpline
70
4
71
3
72
66
73
62
40
0
40
0
40
0
40
0
40
0.0487757290900637
40
0.0487757290900637
40
0.0975514581801274
40
0.0975514581801274
40
0.121939322725159
40
0.121939322725159
40
0.146327187270191
40
0.146327187270191
40
0.195102916360251
40
0.195102916360251
40
0.24387864545031
40
0.24387864545031
40
0.26826650999534
40
0.26826650999534
40
0.29265437454037
40
0.29265437454037
40
0.341430103630429
40
0.341430103630429
40
0.390205832720489
40
0.390205832720489
40
0.414593697265516
40
0.414593697265516
40
0.438981561810544
40
0.438981561810544
40
0.487757290900595
40
0.487757290900595
40
0.512145155445623
40
0.512145155445623
40
0.536533019990651
40
0.536533019990651
40
0.560920884535678
40
0.560920884535678
40
0.585308749080706
40
0.585308749080706
40
0.634084478170761
40
0.634084478170761
40
0.658472342715791
40
0.658472342715791
40
0.682860207260821
40
0.682860207260821
40
0.707248071805851
40
0.707248071805851
40
0.731635936350881
40
0.731635936350881
40
0.780411665440936
40
0.780411665440936
40
0.804799529985966
40
0.804799529985966
40
0.829187394530995
40
0.829187394530995
40
0.877963123621055
40
0.877963123621055
40
0.926738852711115
40
0.926738852711115
40
0.951126717256146
40
0.951126717256146
40
0.975514581801178
40
0.975514581801178
40
1
40
1
40
1
40
1
41
1
10
236.1
20
2.09484011672558
30
0
41
1
10
235.529744304411
20
2.29073166475459
30
0
41
1
10
234.959798657105
20
2.4845098228825
30
0
41
1
10
233.820566866279
20
2.86801747177247
30
0
41
1
10
233.251280017671
20
3.05774552701092
30
0
41
1
10
232.397911461777
20
3.33946572524246
30
0
41
1
10
232.113565892408
20
3.43293755682976
30
0
41
1
10
231.544937328114
20
3.61858173277375
30
0
41
1
10
231.26061563428
20
3.71065240871886
30
0
41
1
10
230.407578773494
20
3.98449651208622
30
0
41
1
10
229.838818462707
20
4.16397535284403
30
0
41
1
10
228.701206244515
20
4.51691413240519
30
0
41
1
10
228.132357436277
20
4.69038245334221
30
0
41
1
10
227.279082004625
20
4.94618981226077
30
0
41
1
10
226.994666910419
20
5.03074917952804
30
0
41
1
10
226.425601016213
20
5.19782623475189
30
0
41
1
10
226.140952387938
20
5.28035099759811
30
0
41
1
10
225.286674361972
20
5.52493069263727
30
0
41
1
10
224.716711143974
20
5.68398990779534
30
0
41
1
10
223.575945705596
20
5.99422950432958
30
0
41
1
10
223.006008926861
20
6.14521759539798
30
0
41
1
10
222.151966383284
20
6.3654054851375
30
0
41
1
10
221.867392433208
20
6.43769546543214
30
0
41
1
10
221.298249285492
20
6.57964315759199
30
0
41
1
10
221.013702733503
20
6.64934982245458
30
0
41
1
10
220.160149439762
20
6.8547179094904
30
0
41
1
10
219.591225032116
20
6.98662477557386
30
0
41
1
10
218.738050355802
20
7.17708175436402
30
0
41
1
10
218.45369543524
20
7.23933462853208
30
0
41
1
10
217.885069340399
20
7.36138067407802
30
0
41
1
10
217.600812318026
20
7.42119695561826
30
0
41
1
10
217.032296648618
20
7.53820635790598
30
0
41
1
10
216.747996482911
20
7.59533069629961
30
0
41
1
10
216.179232914045
20
7.70670632027091
30
0
41
1
10
215.894782487409
20
7.76097932370652
30
0
41
1
10
215.041234790366
20
7.91958325449718
30
0
41
1
10
214.471937671881
20
8.0196995821382
30
0
41
1
10
213.617646346416
20
8.1614893187629
30
0
41
1
10
213.332826218257
20
8.20735541712875
30
0
41
1
10
212.763079916897
20
8.29628059016832
30
0
41
1
10
212.478170737928
20
8.33935854370122
30
0
41
1
10
211.908053234291
20
8.42244819677828
30
0
41
1
10
211.622982253113
20
8.46241949261204
30
0
41
1
10
211.053057619812
20
8.53921836058854
30
0
41
1
10
210.76816701875
20
8.5760517838302
30
0
41
1
10
209.913716361641
20
8.68188776905598
30
0
41
1
10
209.344373893715
20
8.74622991026112
30
0
41
1
10
208.490860006027
20
8.83347421118231
30
0
41
1
10
208.206441018706
20
8.86101077194914
30
0
41
1
10
207.637770511604
20
8.91297130633566
30
0
41
1
10
207.35350966984
20
8.93738470900249
30
0
41
1
10
206.500587654479
20
9.00568549479956
30
0
41
1
10
205.931867525219
20
9.04470740393617
30
0
41
1
10
204.794268565604
20
9.10986771277928
30
0
41
1
10
204.225386360775
20
9.13600568668952
30
0
41
1
10
203.372005042058
20
9.16550784124937
30
0
41
1
10
203.087545409882
20
9.1737242440245
30
0
41
1
10
202.518552410209
20
9.18687864539584
30
0
41
1
10
202.233982711905
20
9.19180887151248
30
0
41
1
10
201.663426256098
20
9.19838331422247
30
0
41
1
10
201.377457718073
20
9.20001992340241
30
0
41
1
10
201.091371354769
20
9.20000143889115
30
0
0
SPLINE
5
CF
100
AcDbEntity
8
1
62
256
6
ByLayer
370
18
48
1
60
0
100
AcDbSpline
70
4
71
3
72
180
73
176
40
0
40
0
40
0
40
0
40
0.0039408565791064
40
0.0039408565791064
40
0.0123614837873406
40
0.0123614837873406
40
0.0292027382038091
40
0.0292027382038091
40
0.037623365412043
40
0.037623365412043
40
0.0460439926202769
40
0.0460439926202769
40
0.0628852470367439
40
0.0628852470367439
40
0.079726501453211
40
0.079726501453211
40
0.0881471286614449
40
0.0881471286614449
40
0.0965677558696787
40
0.0965677558696787
40
0.113409010286146
40
0.113409010286146
40
0.130250264702613
40
0.130250264702613
40
0.138670891910847
40
0.138670891910847
40
0.147091519119081
40
0.147091519119081
40
0.163932773535549
40
0.163932773535549
40
0.180774027952018
40
0.180774027952018
40
0.189194655160251
40
0.189194655160251
40
0.197615282368485
40
0.197615282368485
40
0.214456536784952
40
0.214456536784952
40
0.222877163993186
40
0.222877163993186
40
0.23129779120142
40
0.23129779120142
40
0.239718418409654
40
0.239718418409654
40
0.248139045617888
40
0.248139045617888
40
0.264980300034356
40
0.264980300034356
40
0.27340092724259
40
0.27340092724259
40
0.281821554450824
40
0.281821554450824
40
0.298662808867291
40
0.298662808867291
40
0.315504063283759
40
0.315504063283759
40
0.323924690491993
40
0.323924690491993
40
0.332345317700227
40
0.332345317700227
40
0.349186572116697
40
0.349186572116697
40
0.366027826533166
40
0.366027826533166
40
0.3744484537414
40
0.3744484537414
40
0.382869080949635
40
0.382869080949635
40
0.39128970815787
40
0.39128970815787
40
0.399710335366104
40
0.399710335366104
40
0.416551589782573
40
0.416551589782573
40
0.424972216990807
40
0.424972216990807
40
0.433392844199042
40
0.433392844199042
40
0.450234098615511
40
0.450234098615511
40
0.46707535303198
40
0.46707535303198
40
0.475495980240215
40
0.475495980240215
40
0.48391660744845
40
0.48391660744845
40
0.500757861864921
40
0.500757861864921
40
0.517599116281391
40
0.517599116281391
40
0.526019743489627
40
0.526019743489627
40
0.534440370697862
40
0.534440370697862
40
0.551281625114333
40
0.551281625114333
40
0.559702252322569
40
0.559702252322569
40
0.568122879530805
40
0.568122879530805
40
0.584964133947275
40
0.584964133947275
40
0.601805388363746
40
0.601805388363746
40
0.610226015571981
40
0.610226015571981
40
0.618646642780217
40
0.618646642780217
40
0.635487897196689
40
0.635487897196689
40
0.652329151613161
40
0.652329151613161
40
0.660749778821397
40
0.660749778821397
40
0.669170406029633
40
0.669170406029633
40
0.686011660446106
40
0.686011660446106
40
0.702852914862578
40
0.702852914862578
40
0.711273542070814
40
0.711273542070814
40
0.71969416927905
40
0.71969416927905
40
0.736535423695522
40
0.736535423695522
40
0.753376678111995
40
0.753376678111995
40
0.761797305320231
40
0.761797305320231
40
0.770217932528467
40
0.770217932528467
40
0.787059186944939
40
0.787059186944939
40
0.795479814153176
40
0.795479814153176
40
0.803900441361412
40
0.803900441361412
40
0.812321068569648
40
0.812321068569648
40
0.820741695777883
40
0.820741695777883
40
0.837582950194355
40
0.837582950194355
40
0.846003577402591
40
0.846003577402591
40
0.854424204610827
40
0.854424204610827
40
0.862844831819063
40
0.862844831819063
40
0.871265459027299
40
0.871265459027299
40
0.888106713443771
40
0.888106713443771
40
0.896527340652006
40
0.896527340652006
40
0.904947967860242
40
0.904947967860242
40
0.913368595068478
40
0.913368595068478
40
0.921789222276714
40
0.921789222276714
40
0.938630476693186
40
0.938630476693186
40
0.947051103901421
40
0.947051103901421
40
0.955471731109657
40
0.955471731109657
40
0.972312985526129
40
0.972312985526129
40
0.9891542399426
40
0.9891542399426
40
0.997574867150836
40
0.997574867150836
40
1
40
1
40
1
40
1
41
1
10
138.461596460791
20
-6.78221964346236
30
0
41
1
10
138.328283969672
20
-6.8139759344979
30
0
41
1
10
138.194940432352
20
-6.84545737113632
30
0
41
1
10
137.776579191378
20
-6.94334892030886
30
0
41
1
10
137.491375687068
20
-7.00880012019172
30
0
41
1
10
136.635930993311
20
-7.2012916342776
30
0
41
1
10
136.066102426555
20
-7.32441860316084
30
0
41
1
10
135.212127567732
20
-7.501419636777
30
0
41
1
10
134.927607056867
20
-7.55915235856361
30
0
41
1
10
134.358776631592
20
-7.67195914734756
30
0
41
1
10
134.074432922446
20
-7.72697712411573
30
0
41
1
10
133.221396159231
20
-7.88755681236512
30
0
41
1
10
132.652778307759
20
-7.98878321381704
30
0
41
1
10
131.51573428601
20
-8.17974905332878
30
0
41
1
10
130.947307889808
20
-8.26948931215017
30
0
41
1
10
130.094878693407
20
-8.3955088757362
30
0
41
1
10
129.810787996485
20
-8.43610017169223
30
0
41
1
10
129.242540247629
20
-8.51423933094006
30
0
41
1
10
128.958346874215
20
-8.55174872101321
30
0
41
1
10
128.105525068609
20
-8.65958897712844
30
0
41
1
10
127.536675655785
20
-8.72526060036395
30
0
41
1
10
126.398420976583
20
-8.84423264898916
30
0
41
1
10
125.82901917657
20
-8.89753726244231
30
0
41
1
10
124.974560401913
20
-8.96814284141959
30
0
41
1
10
124.689688210358
20
-8.99011848766156
30
0
41
1
10
124.119583816594
20
-9.03077909738843
30
0
41
1
10
123.834467271084
20
-9.04946344570024
30
0
41
1
10
122.979568018934
20
-9.10058521094922
30
0
41
1
10
122.409979300262
20
-9.12811483918682
30
0
41
1
10
121.27153708458
20
-9.17018197520289
30
0
41
1
10
120.702704178145
20
-9.18472349071274
30
0
41
1
10
119.850027187712
20
-9.19671219908324
30
0
41
1
10
119.565866399548
20
-9.19906338886946
30
0
41
1
10
118.997476758858
20
-9.20047855777565
30
0
41
1
10
118.71327063282
20
-9.19954622042815
30
0
41
1
10
117.860630057681
20
-9.19185833132789
30
0
41
1
10
117.292169503866
20
-9.1802187993255
30
0
41
1
10
116.439474727336
20
-9.15298664692375
30
0
41
1
10
116.155243790714
20
-9.14227849105575
30
0
41
1
10
115.586793027176
20
-9.11757868522074
30
0
41
1
10
115.302588073679
20
-9.10357968157228
30
0
41
1
10
114.734095508575
20
-9.07231098451209
30
0
41
1
10
114.449766526028
20
-9.05506072029988
30
0
41
1
10
113.880876488507
20
-9.01737931015847
30
0
41
1
10
113.596326946677
20
-8.99694306346115
30
0
41
1
10
112.742374092478
20
-8.93085649652073
30
0
41
1
10
112.172663348162
20
-8.88043769894878
30
0
41
1
10
111.317534738105
20
-8.79517431583005
30
0
41
1
10
111.032324044079
20
-8.76513562452357
30
0
41
1
10
110.462333095859
20
-8.70187540375571
30
0
41
1
10
110.177520636023
20
-8.66863132773275
30
0
41
1
10
109.323281185334
20
-8.56439863734553
30
0
41
1
10
108.754004474747
20
-8.48897701145776
30
0
41
1
10
107.615931380046
20
-8.32637491186443
30
0
41
1
10
107.047129852474
20
-8.23920109018664
30
0
41
1
10
106.194343676068
20
-8.09954052989218
30
0
41
1
10
105.910153779789
20
-8.05149817086414
30
0
41
1
10
105.341910566935
20
-7.95242839820253
30
0
41
1
10
105.05784551161
20
-7.90141457114129
30
0
41
1
10
104.205465443863
20
-7.74446420145424
30
0
41
1
10
103.637050274516
20
-7.63451039885084
30
0
41
1
10
102.499948823065
20
-7.40396781846357
30
0
41
1
10
101.931259392062
20
-7.28338527826875
30
0
41
1
10
101.078082400091
20
-7.09436801726898
30
0
41
1
10
100.79367723125
20
-7.02998231248529
30
0
41
1
10
100.224759983176
20
-6.89857913537639
30
0
41
1
10
99.9402103530193
20
-6.83163228876694
30
0
41
1
10
99.3708082375047
20
-6.69549353080302
30
0
41
1
10
99.0859735366071
20
-6.62626819392574
30
0
41
1
10
98.5160439657772
20
-6.48549896479156
30
0
41
1
10
98.230920455022
20
-6.41394850825185
30
0
41
1
10
97.3753456839193
20
-6.19584470886866
30
0
41
1
10
96.8054712641055
20
-6.04604310818971
30
0
41
1
10
95.9514895415545
20
-5.81457935697506
30
0
41
1
10
95.6669851252771
20
-5.73625539581769
30
0
41
1
10
95.0980951466141
20
-5.5777032418699
30
0
41
1
10
94.813679209019
20
-5.49754599579578
30
0
41
1
10
93.9605078342828
20
-5.25447648112552
30
0
41
1
10
93.391838705572
20
-5.08894688446196
30
0
41
1
10
92.2547691569168
20
-4.75085401741887
30
0
41
1
10
91.6863733679878
20
-4.57827999984522
30
0
41
1
10
90.8340481891531
20
-4.31393316111729
30
0
41
1
10
90.5499849105409
20
-4.22489942843737
30
0
41
1
10
89.9816927204794
20
-4.04564646905754
30
0
41
1
10
89.6974763714843
20
-3.95539706809023
30
0
41
1
10
88.8446309062365
20
-3.68275666915702
30
0
41
1
10
88.2758026758365
20
-3.49848361247427
30
0
41
1
10
87.1376708069134
20
-3.12476960538541
30
0
41
1
10
86.5683927673095
20
-2.93525793111033
30
0
41
1
10
85.7141122555861
20
-2.64705939884502
30
0
41
1
10
85.4292543167942
20
-2.55044019261527
30
0
41
1
10
84.8591686713226
20
-2.35659102961097
30
0
41
1
10
84.5739668389759
20
-2.25930100081806
30
0
41
1
10
83.718905196557
20
-1.96665409778518
30
0
41
1
10
83.1492438432484
20
-1.77041701105395
30
0
41
1
10
82.2953660884681
20
-1.47422512483129
30
0
41
1
10
82.0108440183596
20
-1.37518423311766
30
0
41
1
10
81.4420175387217
20
-1.17645328287205
30
0
41
1
10
81.1577297275642
20
-1.07671565402916
30
0
41
1
10
80.3050230695027
20
-0.777015089765342
30
0
41
1
10
79.7365690890304
20
-0.577114501136265
30
0
41
1
10
78.5996424068636
20
-0.177266011080377
30
0
41
1
10
78.0311821912624
20
0.0227176583197206
30
0
41
1
10
77.1785530735965
20
0.322944509040099
30
0
41
1
10
76.8943547084182
20
0.423065300033017
30
0
41
1
10
76.3259881331094
20
0.623418848455657
30
0
41
1
10
76.0418335706873
20
0.723690795058417
30
0
41
1
10
75.189079214416
20
1.02371086193207
30
0
41
1
10
74.620180073854
20
1.22263812798963
30
0
41
1
10
73.4816488113746
20
1.61849046328936
30
0
41
1
10
72.9120117837183
20
1.81540143833848
30
0
41
1
10
72.0570584543107
20
2.10941607582569
30
0
41
1
10
71.7719110902943
20
2.20723558383415
30
0
41
1
10
71.2019003009688
20
2.40223053236045
30
0
41
1
10
70.9170455341206
20
2.49934749983203
30
0
41
1
10
70.0626063871842
20
2.78864431607548
30
0
41
1
10
69.4932360322581
20
2.97903012146441
30
0
41
1
10
68.3550491784179
20
3.35503633202748
30
0
41
1
10
67.7862301612362
20
3.54065041772478
30
0
41
1
10
66.9334813794684
20
3.81565250092677
30
0
41
1
10
66.649324794831
20
3.90678263225883
30
0
41
1
10
66.0810965762156
20
4.08769627779733
30
0
41
1
10
65.7969841782932
20
4.17737447211726
30
0
41
1
10
64.9445111036661
20
4.44372732733487
30
0
41
1
10
64.3760738956362
20
4.61787699224891
30
0
41
1
10
63.2390027850652
20
4.95949084246055
30
0
41
1
10
62.6703701251315
20
5.12695870736241
30
0
41
1
10
61.8173386276542
20
5.37325665103154
30
0
41
1
10
61.5329982089618
20
5.45457663191007
30
0
41
1
10
60.9641110845763
20
5.61515216062907
30
0
41
1
10
60.6795407766302
20
5.69435467399865
30
0
41
1
10
59.8254553851638
20
5.92873238847761
30
0
41
1
10
59.2555699947306
20
6.08069039199364
30
0
41
1
10
58.4000340992717
20
6.30226166866166
30
0
41
1
10
58.1148983973478
20
6.37501582489753
30
0
41
1
10
57.5450007999704
20
6.51827210137427
30
0
41
1
10
57.2601965288699
20
6.58878720546846
30
0
41
1
10
56.6908787685659
20
6.7275812224681
30
0
41
1
10
56.4063602040874
20
6.79584654704857
30
0
41
1
10
55.8373564273925
20
6.92963580641802
30
0
41
1
10
55.5528883453489
20
6.99519631280862
30
0
41
1
10
54.6995976191349
20
7.18793032496913
30
0
41
1
10
54.1308849928349
20
7.31115524102435
30
0
41
1
10
53.2780786298292
20
7.48820130663006
30
0
41
1
10
52.9938546439477
20
7.54591855762749
30
0
41
1
10
52.4255081654008
20
7.65876532731437
30
0
41
1
10
52.1413948586469
20
7.71390870268579
30
0
41
1
10
51.5732251831516
20
7.82151798365004
30
0
41
1
10
51.2891357434882
20
7.87393191909902
30
0
41
1
10
50.7207960424075
20
7.97576531737224
30
0
41
1
10
50.4365663471999
20
8.02521683840982
30
0
41
1
10
49.5837089081725
20
8.16921031640788
30
0
41
1
10
49.0149091036904
20
8.25939182879378
30
0
41
1
10
48.1614155447398
20
8.38598694257183
30
0
41
1
10
47.8768700690192
20
8.42673935273345
30
0
41
1
10
47.3076918755069
20
8.50534136500195
30
0
41
1
10
47.0230765608068
20
8.54320840265302
30
0
41
1
10
46.4536262263431
20
8.61587200498985
30
0
41
1
10
46.1687546844414
20
8.65063190595643
30
0
41
1
10
45.5986951321037
20
8.71699737308114
30
0
41
1
10
45.3134561628154
20
8.74861405914837
30
0
41
1
10
44.4581974064728
20
8.83867258788806
30
0
41
1
10
43.8883793551419
20
8.8923589850659
30
0
41
1
10
43.0342412274572
20
8.96341903998871
30
0
41
1
10
42.7496276981223
20
8.98552635128218
30
0
41
1
10
42.1806073891794
20
9.02656980181155
30
0
41
1
10
41.8962087167001
20
9.04550653123098
30
0
41
1
10
41.0429596986655
20
9.09735611400717
30
0
41
1
10
40.4740833182612
20
9.12534484319013
30
0
41
1
10
39.3362970689528
20
9.16832584387703
30
0
41
1
10
38.7673825442218
20
9.18331764647186
30
0
41
1
10
37.9140441469153
20
9.19602322465781
30
0
41
1
10
37.6296093758451
20
9.19862628547148
30
0
41
1
10
37.2632513881717
20
9.19985874615958
30
0
41
1
10
37.1813307184092
20
9.19999751394434
30
0
41
1
10
37.0994053358838
20
9.19999962971804
30
0
0
SPLINE
5
D0
100
AcDbEntity
8
1
62
256
6
ByLayer
370
18
48
1
60
0
100
AcDbSpline
70
4
71
3
72
117
73
113
40
0
40
0
40
0
40
0
40
0.0312499999999992
40
0.0624999999999984
40
0.0624999999999984
40
0.0937499999999977
40
0.0937499999999977
40
0.124999999999997
40
0.124999999999997
40
0.156249999999996
40
0.156249999999996
40
0.187499999999995
40
0.187499999999995
40
0.195312499999994
40
0.195312499999994
40
0.203124999999993
40
0.203124999999993
40
0.218749999999992
40
0.218749999999992
40
0.249999999999989
40
0.249999999999989
40
0.281249999999985
40
0.281249999999985
40
0.296874999999984
40
0.296874999999984
40
0.304687499999984
40
0.304687499999984
40
0.312499999999984
40
0.312499999999984
40
0.343749999999985
40
0.343749999999985
40
0.359374999999985
40
0.359374999999985
40
0.374999999999984
40
0.374999999999984
40
0.378906249999984
40
0.378906249999984
40
0.382812499999984
40
0.390624999999984
40
0.390624999999984
40
0.406249999999983
40
0.406249999999983
40
0.421874999999983
40
0.421874999999983
40
0.429687499999983
40
0.429687499999983
40
0.433593749999983
40
0.433593749999983
40
0.437499999999983
40
0.453124999999984
40
0.453124999999984
40
0.468749999999984
40
0.468749999999984
40
0.476562499999984
40
0.476562499999984
40
0.480468749999984
40
0.480468749999984
40
0.484374999999984
40
0.499999999999985
40
0.515624999999985
40
0.515624999999985
40
0.523437499999985
40
0.523437499999985
40
0.527343749999985
40
0.527343749999985
40
0.531249999999985
40
0.546874999999984
40
0.546874999999984
40
0.562499999999984
40
0.562499999999984
40
0.566406249999984
40
0.566406249999984
40
0.570312499999984
40
0.570312499999984
40
0.578124999999984
40
0.578124999999984
40
0.593749999999984
40
0.593749999999984
40
0.609374999999984
40
0.609374999999984
40
0.624999999999985
40
0.624999999999985
40
0.632812499999985
40
0.632812499999985
40
0.640624999999985
40
0.640624999999985
40
0.656249999999986
40
0.656249999999986
40
0.687499999999986
40
0.687499999999986
40
0.718749999999987
40
0.718749999999987
40
0.726562499999988
40
0.726562499999988
40
0.734374999999988
40
0.749999999999988
40
0.749999999999988
40
0.78124999999999
40
0.78124999999999
40
0.812499999999991
40
0.812499999999991
40
0.843749999999993
40
0.843749999999993
40
0.874999999999994
40
0.874999999999994
40
0.906249999999996
40
0.906249999999996
40
0.937499999999997
40
0.937499999999997
40
0.968749999999999
40
0.968749999999999
40
1
40
1
40
1
40
1
41
1
10
15
20
5.3230776087336
30
0
41
1
10
14.7468361030206
20
5.36078793706611
30
0
41
1
10
14.2441851632232
20
5.42408848967975
30
0
41
1
10
13.7486439485079
20
5.46222516323212
30
0
41
1
10
13.2565512338456
20
5.48708287688223
30
0
41
1
10
13.0122291412619
20
5.49287343453639
30
0
41
1
10
12.5269411171755
20
5.49021118382061
30
0
41
1
10
12.2859751927506
20
5.48176111777221
30
0
41
1
10
11.8073205239562
20
5.44932554183217
30
0
41
1
10
11.5696317303474
20
5.42534477613086
30
0
41
1
10
11.097466182902
20
5.36011865237302
30
0
41
1
10
10.8629892863095
20
5.31888159917256
30
0
41
1
10
10.5718703209104
20
5.25507327937601
30
0
41
1
10
10.5137454333731
20
5.24169658697701
30
0
41
1
10
10.397692921362
20
5.2136675959423
30
0
41
1
10
10.3397083991274
20
5.1989999464933
30
0
41
1
10
10.166504840263
20
5.15313122594819
30
0
41
1
10
10.0521411267497
20
5.12009989908609
30
0
41
1
10
9.71240036120263
20
5.01331264295777
30
0
41
1
10
9.49036571229875
20
4.9318915235126
30
0
41
1
10
9.05556122625541
20
4.74622928963197
30
0
41
1
10
8.84278643121048
20
4.64200683151446
30
0
41
1
10
8.53106193594054
20
4.46597086823192
30
0
41
1
10
8.42839623289557
20
4.40399826265241
30
0
41
1
10
8.2763576541649
20
4.30564741678958
30
0
41
1
10
8.22613150891999
20
4.27204405837068
30
0
41
1
10
8.1268158006488
20
4.20329885165836
30
0
41
1
10
8.07769213737619
20
4.16813506139343
30
0
41
1
10
7.83478550784244
20
3.98825104157149
30
0
41
1
10
7.64909448900357
20
3.83140965296695
30
0
41
1
10
7.38475673687489
20
3.5738567734395
30
0
41
1
10
7.29901870369193
20
3.48427681964566
30
0
41
1
10
7.13263371870197
20
3.29694463452961
30
0
41
1
10
7.05198508129831
20
3.19919539853362
30
0
41
1
10
6.95465377059074
20
3.07130791636453
30
0
41
1
10
6.93538844511713
20
3.04547858804682
30
0
41
1
10
6.89736472078658
20
2.99344360278235
30
0
41
1
10
6.84104405350638
20
2.91476680223434
30
0
41
1
10
6.78688730594666
20
2.83419338380435
30
0
41
1
10
6.68152399999818
20
2.67044260271211
30
0
41
1
10
6.61520889452409
20
2.55780922298931
30
0
41
1
10
6.49091744472652
20
2.32508818667091
30
0
41
1
10
6.43293835911625
20
2.20500304474174
30
0
41
1
10
6.35276399329203
20
2.01873628110309
30
0
41
1
10
6.32717369541356
20
1.95562229986726
30
0
41
1
10
6.29058108642957
20
1.8593240786918
30
0
41
1
10
6.27868016963157
20
1.82694272177278
30
0
41
1
10
6.25562209113816
20
1.76199680740737
30
0
41
1
10
6.19975136663787
20
1.59894828228352
30
0
41
1
10
6.15276550426694
20
1.43246960768579
30
0
41
1
10
6.08935912789902
20
1.16153525668727
30
0
41
1
10
6.06353889827011
20
1.02378481162032
30
0
41
1
10
6.03417941310448
20
0.813511642196659
30
0
41
1
10
6.02595751296236
20
0.74281166110751
30
0
41
1
10
6.01606877915097
20
0.635809967435449
30
0
41
1
10
6.01318455813335
20
0.600012783823303
30
0
41
1
10
6.00827556520298
20
0.528604480103752
30
0
41
1
10
5.99812519983684
20
0.350243886162104
30
0
41
1
10
5.99874558691911
20
0.0306207779610759
30
0
41
1
10
6.02578508698483
20
-0.251491764364232
30
0
41
1
10
6.05609757818858
20
-0.462321847728504
30
0
41
1
10
6.06787634366037
20
-0.53247264750047
30
0
41
1
10
6.08809116997367
20
-0.637507741895263
30
0
41
1
10
6.09524621566263
20
-0.672439187054977
30
0
41
1
10
6.11030400801636
20
-0.741784313627761
30
0
41
1
10
6.14987045217629
20
-0.914113914482215
30
0
41
1
10
6.19882592763702
20
-1.08140404554041
30
0
41
1
10
6.28843646935471
20
-1.34305813054203
30
0
41
1
10
6.3388856023073
20
-1.47087853172204
30
0
41
1
10
6.4087095227095
20
-1.62708271110697
30
0
41
1
10
6.42301297140055
20
-1.65814469769182
30
0
41
1
10
6.45229191579033
20
-1.71991458377784
30
0
41
1
10
6.46726833089369
20
-1.75062130098854
30
0
41
1
10
6.51294595382581
20
-1.84172900430511
30
0
41
1
10
6.54447381486662
20
-1.90128780036881
30
0
41
1
10
6.64210802596438
20
-2.0766397507482
30
0
41
1
10
6.71125862026645
20
-2.18911595772889
30
0
41
1
10
6.85692599148177
20
-2.4061392904174
30
0
41
1
10
6.93344531040904
20
-2.51068355855159
30
0
41
1
10
7.09327588820385
20
-2.71254962823426
30
0
41
1
10
7.17658880473766
20
-2.8098695903104
30
0
41
1
10
7.3063061719661
20
-2.95085958708017
30
0
41
1
10
7.35037716215322
20
-2.99705828644605
30
0
41
1
10
7.43940675318467
20
-3.08722169180501
30
0
41
1
10
7.48443959338157
20
-3.13127035420547
30
0
41
1
10
7.62100188958487
20
-3.26051936114459
30
0
41
1
10
7.71399283523101
20
-3.34282841148237
30
0
41
1
10
7.99819285183543
20
-3.57955371689479
30
0
41
1
10
8.19461111085369
20
-3.72381795348863
30
0
41
1
10
8.59872059644778
20
-3.99079228725353
30
0
41
1
10
8.80642423282107
20
-4.11347477935067
30
0
41
1
10
9.07175804252036
20
-4.2559564339727
30
0
41
1
10
9.12515663067477
20
-4.28392998751355
30
0
41
1
10
9.2322064695371
20
-4.33869757489705
30
0
41
1
10
9.3931787220797
20
-4.41909281949663
30
0
41
1
10
9.55525304388881
20
-4.49458081666961
30
0
41
1
10
9.88064616730951
20
-4.63985119827018
30
0
41
1
10
10.0992297655044
20
-4.72912152419394
30
0
41
1
10
10.5386247637923
20
-4.89609481200898
30
0
41
1
10
10.7594351721137
20
-4.97379246991997
30
0
41
1
10
11.2023586705709
20
-5.12025134379857
30
0
41
1
10
11.4244692051544
20
-5.18901211190487
30
0
41
1
10
11.8692783554971
20
-5.31937173646543
30
0
41
1
10
12.0919737763019
20
-5.38097140479911
30
0
41
1
10
12.5375386557109
20
-5.49790830166225
30
0
41
1
10
12.7604053375069
20
-5.55324489846336
30
0
41
1
10
13.2062930266378
20
-5.65766763961116
30
0
41
1
10
13.4293126264565
20
-5.70675015821965
30
0
41
1
10
13.8759469056006
20
-5.79784849528639
30
0
41
1
10
14.0995619602076
20
-5.83985779383352
30
0
41
1
10
14.5483047360187
20
-5.91531946296777
30
0
41
1
10
14.7734342391011
20
-5.94876403967666
30
0
41
1
10
15
20
-5.97695908839574
30
0
0
SPLINE
5
D1
100
AcDbEntity
8
1
62
256
6
ByLayer
370
18
48
1
60
0
100
AcDbSpline
70
4
71
3
72
14
73
10
40
0
40
0
40
0
40
0
40
0.25
40
0.25
40
0.5
40
0.5
40
0.75
40
0.75
40
1
40
1
40
1
40
1
41
1
10
17.7303862244323
20
-6.78155491395418
30
0
41
1
10
17.4991458854055
20
-6.72457697334798
30
0
41
1
10
17.26905638233
20
-6.66488805142973
30
0
41
1
10
16.810771664221
20
-6.54047496429595
30
0
41
1
10
16.5825752914839
20
-6.47575355958824
30
0
41
1
10
16.1277891759835
20
-6.34151092441343
30
0
41
1
10
15.9011986819499
20
-6.27199223594209
30
0
41
1
10
15.4494886240588
20
-6.12815255993971
30
0
41
1
10
15.2243688621312
20
-6.05383346723312
30
0
41
1
10
15
20
-5.97695908839572
30
0
0
SPLINE
5
D2
100
AcDbEntity
8
1
62
256
6
ByLayer
370
18
48
1
60
0
100
AcDbSpline
70
4
71
4
72
16
73
11
40
0
40
0
40
0
40
0
40
0
40
0.291578272607952
40
0.291578272607952
40
0.291578272607952
40
0.708421727392044
40
0.708421727392044
40
0.708421727392044
40
1
40
1
40
1
40
1
40
1
41
0.996827628610383
10
21.855352587235
20
4.39734223939474
30
0
41
0.994721668755302
10
21.732413656409
20
4.24836247355131
30
0
41
0.994145119994475
10
21.5120872539465
20
3.8248841183338
30
0
41
1
10
21.203980776818
20
3.1247786196281
30
0
41
1
10
20.4069528162154
20
1.1860836478636
30
0
41
0.988033871712585
10
19.7928694058337
20
-0.409068513345528
30
0
41
1
10
19.178785995452
20
-2.14231939083234
30
0
41
1
10
18.3817580348493
20
-4.52360805833629
30
0
41
0.994145119994474
10
18.0736515577208
20
-5.49347526590997
30
0
41
0.994721668755302
10
17.8533251552583
20
-6.26419146971047
30
0
41
0.996827628610383
10
17.7303862244324
20
-6.78155491395424
30
0
0
SPLINE
5
D3
100
AcDbEntity
8
1
62
256
6
ByLayer
370
18
48
1
60
0
100
AcDbSpline
70
4
71
3
72
25
73
21
40
0
40
0
40
0
40
0
40
0.124999999999988
40
0.124999999999988
40
0.249999999999977
40
0.249999999999977
40
0.374999999999966
40
0.374999999999966
40
0.499999999999954
40
0.499999999999954
40
0.562499999999948
40
0.593749999999948
40
0.593749999999948
40
0.624999999999948
40
0.624999999999948
40
0.749999999999966
40
0.749999999999966
40
0.874999999999983
40
0.874999999999983
40
1
40
1
40
1
40
1
41
1
10
15
20
5.3230776087336
30
0
41
1
10
15.2927017137305
20
5.34734641135532
30
0
41
1
10
15.5845934346664
20
5.36205563224718
30
0
41
1
10
16.1668816739664
20
5.37404203308884
30
0
41
1
10
16.4572775911594
20
5.37130997789689
30
0
41
1
10
17.0366764815855
20
5.34956713176445
30
0
41
1
10
17.3256789858948
20
5.33054911865887
30
0
41
1
10
17.9023881532673
20
5.27712018879583
30
0
41
1
10
18.1900944444172
20
5.24270314452585
30
0
41
1
10
18.6207603731451
20
5.1801450091661
30
0
41
1
10
18.8358700999005
20
5.14613284429484
30
0
41
1
10
19.0506614118364
20
5.10814528548374
30
0
41
1
10
19.1937868275926
20
5.0819517167898
30
0
41
1
10
19.2653106218445
20
5.06842090693223
30
0
41
1
10
19.6220675125567
20
4.99877558436316
30
0
41
1
10
19.9052837791354
20
4.9365829798499
30
0
41
1
10
20.4680163522167
20
4.80065187929259
30
0
41
1
10
20.7475336774046
20
4.72691481440316
30
0
41
1
10
21.3035478991513
20
4.56934522569654
30
0
41
1
10
21.5800468401223
20
4.48551788161527
30
0
41
1
10
21.8553525872349
20
4.39734223939479
30
0
0
SPLINE
5
D4
100
AcDbEntity
8
1
62
256
6
ByLayer
370
13
48
1
60
0
100
AcDbSpline
70
4
71
3
72
8
73
4
40
0
40
0
40
0
40
0
40
1
40
1
40
1
40
1
41
1
10
236.1
20
9.47400250646544
30
0
41
1
10
236.143146364593
20
9.49157582673951
30
0
41
1
10
236.186292729186
20
9.5
30
0
41
1
10
236.229439093779
20
9.5
30
0
0
SPLINE
5
D5
100
AcDbEntity
8
1
62
256
6
ByLayer
370
13
48
1
60
0
100
AcDbSpline
70
4
71
3
72
120
73
116
40
0
40
0
40
0
40
0
40
0.0312500000000002
40
0.0312500000000002
40
0.0625000000000004
40
0.0625000000000004
40
0.0781250000000005
40
0.0781250000000005
40
0.0937500000000005
40
0.0937500000000005
40
0.109375000000001
40
0.109375000000001
40
0.125000000000001
40
0.125000000000001
40
0.140625000000001
40
0.140625000000001
40
0.156250000000001
40
0.156250000000001
40
0.171875000000001
40
0.171875000000001
40
0.187500000000001
40
0.187500000000001
40
0.218750000000001
40
0.218750000000001
40
0.250000000000001
40
0.250000000000001
40
0.257812500000001
40
0.257812500000001
40
0.261718750000001
40
0.261718750000001
40
0.265625000000001
40
0.265625000000001
40
0.281250000000001
40
0.281250000000001
40
0.3125
40
0.3125
40
0.34375
40
0.34375
40
0.359375
40
0.359375
40
0.374999999999999
40
0.374999999999999
40
0.390624999999999
40
0.390624999999999
40
0.406249999999998
40
0.406249999999998
40
0.421874999999998
40
0.421874999999998
40
0.437499999999998
40
0.437499999999998
40
0.453124999999997
40
0.453124999999997
40
0.468749999999997
40
0.468749999999997
40
0.499999999999997
40
0.499999999999997
40
0.515624999999997
40
0.515624999999997
40
0.523437499999996
40
0.523437499999996
40
0.527343749999996
40
0.527343749999996
40
0.531249999999996
40
0.531249999999996
40
0.562499999999995
40
0.562499999999995
40
0.593749999999995
40
0.593749999999995
40
0.609374999999994
40
0.609374999999994
40
0.624999999999994
40
0.624999999999994
40
0.640624999999994
40
0.640624999999994
40
0.656249999999994
40
0.656249999999994
40
0.671874999999993
40
0.671874999999993
40
0.687499999999993
40
0.687499999999993
40
0.703124999999993
40
0.703124999999993
40
0.718749999999993
40
0.718749999999993
40
0.749999999999993
40
0.749999999999993
40
0.781249999999993
40
0.781249999999993
40
0.789062499999993
40
0.789062499999993
40
0.796874999999993
40
0.796874999999993
40
0.812499999999994
40
0.812499999999994
40
0.843749999999994
40
0.843749999999994
40
0.859374999999995
40
0.859374999999995
40
0.874999999999995
40
0.874999999999995
40
0.890624999999996
40
0.890624999999996
40
0.906249999999996
40
0.906249999999996
40
0.921874999999997
40
0.921874999999997
40
0.937499999999998
40
0.937499999999998
40
0.953124999999998
40
0.953124999999998
40
0.968749999999999
40
0.968749999999999
40
0.984374999999999
40
0.984374999999999
40
1
40
1
40
1
40
1
41
1
10
236.595642711254
20
9.5
30
0
41
1
10
236.69508687858
20
9.5
30
0
41
1
10
236.794531045905
20
9.4550555949202
30
0
41
1
10
236.993419380555
20
9.25911927134752
30
0
41
1
10
237.09286354788
20
9.10797767599664
30
0
41
1
10
237.242029798868
20
8.79556532191046
30
0
41
1
10
237.291751882531
20
8.6772239996528
30
0
41
1
10
237.391196049856
20
8.41223584580209
30
0
41
1
10
237.440918133518
20
8.26558760158019
30
0
41
1
10
237.540362300844
20
7.94491258672144
30
0
41
1
10
237.590084384506
20
7.77088635011617
30
0
41
1
10
237.689528551832
20
7.39722743203205
30
0
41
1
10
237.739250635494
20
7.19759733828514
30
0
41
1
10
237.838694802819
20
6.77530122487195
30
0
41
1
10
237.888416886482
20
6.55263968233882
30
0
41
1
10
237.987861053807
20
6.08754274407622
30
0
41
1
10
238.03758313747
20
5.84511329093019
30
0
41
1
10
238.137027304795
20
5.34427597815056
30
0
41
1
10
238.186749388457
20
5.08587491042573
30
0
41
1
10
238.286193555782
20
4.55722962635878
30
0
41
1
10
238.335915639445
20
4.28699235020272
30
0
41
1
10
238.485081890433
20
3.46491528601129
30
0
41
1
10
238.584526057758
20
2.90185487619118
30
0
41
1
10
238.783414392409
20
1.77823886877283
30
0
41
1
10
238.882858559734
20
1.21781039472199
30
0
41
1
10
239.00716376889
20
0.535518963597895
30
0
41
1
10
239.032024810721
20
0.399953474079865
30
0
41
1
10
239.069316373468
20
0.198193373138651
30
0
41
1
10
239.081746894384
20
0.131204427397648
30
0
41
1
10
239.106607936215
20
-0.0022063634665699
30
0
41
1
10
239.119038457131
20
-0.068640760375672
30
0
41
1
10
239.181191061709
20
-0.403160823127195
30
0
41
1
10
239.230913145371
20
-0.675228560574595
30
0
41
1
10
239.380079396359
20
-1.50073174045406
30
0
41
1
10
239.479523563685
20
-2.06369345531408
30
0
41
1
10
239.678411898335
20
-3.18716013158303
30
0
41
1
10
239.77785606566
20
-3.74752255068111
30
0
41
1
10
239.927022316648
20
-4.56117176464826
30
0
41
1
10
239.97674440031
20
-4.82787654406937
30
0
41
1
10
240.076188567636
20
-5.34803141251385
30
0
41
1
10
240.125910651298
20
-5.60147453278907
30
0
41
1
10
240.225354818623
20
-6.09106205764252
30
0
41
1
10
240.275076902286
20
-6.32719988116173
30
0
41
1
10
240.374521069611
20
-6.77853953295593
30
0
41
1
10
240.424243153274
20
-6.99373585354883
30
0
41
1
10
240.523687320599
20
-7.40014591182563
30
0
41
1
10
240.573409404261
20
-7.59135577677699
30
0
41
1
10
240.672853571587
20
-7.94747975535881
30
0
41
1
10
240.722575655249
20
-8.11239197217716
30
0
41
1
10
240.822019822574
20
-8.41442853514337
30
0
41
1
10
240.871741906237
20
-8.5515530311977
30
0
41
1
10
240.971186073562
20
-8.797369298056
30
0
41
1
10
241.020908157225
20
-8.90606307395055
30
0
41
1
10
241.170074408212
20
-9.18974897551738
30
0
41
1
10
241.269518575538
20
-9.32205108689888
30
0
41
1
10
241.418684826525
20
-9.44248980031247
30
0
41
1
10
241.468406910188
20
-9.46971336760018
30
0
41
1
10
241.542990035682
20
-9.4926413199874
30
0
41
1
10
241.567851077513
20
-9.49730260627163
30
0
41
1
10
241.60514264026
20
-9.50003130130548
30
0
41
1
10
241.617573161176
20
-9.50023342952503
30
0
41
1
10
241.642434203007
20
-9.49923815099638
30
0
41
1
10
241.654864723923
20
-9.49803535307854
30
0
41
1
10
241.766739412164
20
-9.48070328969263
30
0
41
1
10
241.866183579489
20
-9.41876704677836
30
0
41
1
10
242.065071914139
20
-9.18675098800935
30
0
41
1
10
242.164516081464
20
-9.01652614977752
30
0
41
1
10
242.313682332452
20
-8.67528737000151
30
0
41
1
10
242.363404416114
20
-8.54730912401567
30
0
41
1
10
242.46284858344
20
-8.26326605599419
30
0
41
1
10
242.512570667102
20
-8.10720045295722
30
0
41
1
10
242.612014834427
20
-7.76819719306553
30
0
41
1
10
242.66173691809
20
-7.58526076683808
30
0
41
1
10
242.761181085415
20
-7.19456664167393
30
0
41
1
10
242.810903169078
20
-6.98681220245214
30
0
41
1
10
242.910347336403
20
-6.54930153988474
30
0
41
1
10
242.960069420066
20
-6.31955034887079
30
0
41
1
10
243.059513587391
20
-5.84150873490859
30
0
41
1
10
243.109235671054
20
-5.59322461785698
30
0
41
1
10
243.208679838378
20
-5.08205054252133
30
0
41
1
10
243.258401922041
20
-4.81916750556692
30
0
41
1
10
243.357846089366
20
-4.28299873908497
30
0
41
1
10
243.407568173029
20
-4.00971984384282
30
0
41
1
10
243.556734424017
20
-3.18067488398094
30
0
41
1
10
243.656178591342
20
-2.61587053206577
30
0
41
1
10
243.855066925992
20
-1.49382751034372
30
0
41
1
10
243.954511093317
20
-0.936700099228744
30
0
41
1
10
244.078816302474
20
-0.260836802845546
30
0
41
1
10
244.103677344305
20
-0.126742955347339
30
0
41
1
10
244.153399427968
20
0.139412436615515
30
0
41
1
10
244.178260469799
20
0.273646869091095
30
0
41
1
10
244.252843595293
20
0.679355861185854
30
0
41
1
10
244.302565678955
20
0.953852805956132
30
0
41
1
10
244.451731929943
20
1.78508674907002
30
0
41
1
10
244.551176097268
20
2.34977520184967
30
0
41
1
10
244.700342348256
20
3.19092827284606
30
0
41
1
10
244.750064431919
20
3.47027540155852
30
0
41
1
10
244.849508599244
20
4.02277598150857
30
0
41
1
10
244.899230682906
20
4.29592330047112
30
0
41
1
10
244.998674850232
20
4.83176120535657
30
0
41
1
10
245.048396933894
20
5.09444495036087
30
0
41
1
10
245.147841101219
20
5.60515535253305
30
0
41
1
10
245.197563184882
20
5.85317509260986
30
0
41
1
10
245.297007352207
20
6.33062879253953
30
0
41
1
10
245.34672943587
20
6.56005646184653
30
0
41
1
10
245.446173603195
20
6.99686986475314
30
0
41
1
10
245.495895686857
20
7.20425059081009
30
0
41
1
10
245.595339854182
20
7.59415842144585
30
0
41
1
10
245.645061937845
20
7.77668229722164
30
0
41
1
10
245.74450610517
20
8.11483449051514
30
0
41
1
10
245.794228188833
20
8.27046161018416
30
0
41
1
10
245.893672356158
20
8.55361523029117
30
0
41
1
10
245.943394439821
20
8.68114254209286
30
0
41
1
10
246.042838607146
20
8.90773381551338
30
0
41
1
10
246.092560690808
20
9.00680032856647
30
0
41
1
10
246.142282774471
20
9.09184911579331
30
0
0
SPLINE
5
D6
100
AcDbEntity
8
1
62
256
6
ByLayer
370
13
48
1
60
0
100
AcDbSpline
70
4
71
3
72
118
73
114
40
0
40
0
40
0
40
0
40
0.0312500000000017
40
0.0312500000000017
40
0.0468750000000023
40
0.0468750000000023
40
0.062500000000003
40
0.062500000000003
40
0.0781250000000036
40
0.0781250000000036
40
0.0937500000000042
40
0.0937500000000042
40
0.109375000000005
40
0.109375000000005
40
0.125000000000005
40
0.125000000000005
40
0.140625000000006
40
0.140625000000006
40
0.156250000000007
40
0.156250000000007
40
0.171875000000007
40
0.171875000000007
40
0.187500000000008
40
0.187500000000008
40
0.203125000000008
40
0.203125000000008
40
0.218750000000009
40
0.218750000000009
40
0.25000000000001
40
0.25000000000001
40
0.281250000000011
40
0.281250000000011
40
0.296875000000011
40
0.296875000000011
40
0.312500000000011
40
0.312500000000011
40
0.328125000000011
40
0.328125000000011
40
0.343750000000011
40
0.343750000000011
40
0.359375000000011
40
0.359375000000011
40
0.375000000000011
40
0.375000000000011
40
0.390625000000012
40
0.390625000000012
40
0.406250000000012
40
0.406250000000012
40
0.421875000000012
40
0.421875000000012
40
0.437500000000012
40
0.437500000000012
40
0.453125000000012
40
0.453125000000012
40
0.468750000000012
40
0.468750000000012
40
0.500000000000012
40
0.500000000000012
40
0.531250000000012
40
0.531250000000012
40
0.546875000000011
40
0.546875000000011
40
0.562500000000011
40
0.562500000000011
40
0.578125000000011
40
0.578125000000011
40
0.59375000000001
40
0.59375000000001
40
0.60937500000001
40
0.60937500000001
40
0.625000000000009
40
0.625000000000009
40
0.640625000000009
40
0.640625000000009
40
0.656250000000009
40
0.656250000000009
40
0.671875000000008
40
0.671875000000008
40
0.687500000000008
40
0.687500000000008
40
0.703125000000008
40
0.703125000000008
40
0.718750000000007
40
0.718750000000007
40
0.750000000000007
40
0.750000000000007
40
0.781250000000007
40
0.781250000000007
40
0.796875000000006
40
0.796875000000006
40
0.812500000000006
40
0.812500000000006
40
0.828125000000006
40
0.828125000000006
40
0.843750000000005
40
0.843750000000005
40
0.859375000000005
40
0.859375000000005
40
0.875000000000004
40
0.875000000000004
40
0.890625000000004
40
0.890625000000004
40
0.906250000000003
40
0.906250000000003
40
0.921875000000003
40
0.921875000000003
40
0.937500000000002
40
0.937500000000002
40
0.953125000000002
40
0.953125000000002
40
0.968750000000001
40
0.968750000000001
40
1
40
1
40
1
40
1
41
1
10
236.100000502114
20
9.5
30
0
41
1
10
236.204607609118
20
9.5
30
0
41
1
10
236.309214716122
20
9.4502357059398
30
0
41
1
10
236.466125376627
20
9.2869836714541
30
0
41
1
10
236.518428930129
20
9.21785234322078
30
0
41
1
10
236.623036037133
20
9.04872793843882
30
0
41
1
10
236.675339590634
20
8.94872969776333
30
0
41
1
10
236.779946697638
20
8.7172481613118
30
0
41
1
10
236.83225025114
20
8.58576135813001
30
0
41
1
10
236.936857358144
20
8.29163499223009
30
0
41
1
10
236.989160911646
20
8.12899423162813
30
0
41
1
10
237.09376801865
20
7.77392080109237
30
0
41
1
10
237.146071572151
20
7.58148964422978
30
0
41
1
10
237.250678679155
20
7.16922135257397
30
0
41
1
10
237.302982232657
20
6.94938847654984
30
0
41
1
10
237.407589339661
20
6.48564092249165
30
0
41
1
10
237.459892893162
20
6.2417328746082
30
0
41
1
10
237.564500000166
20
5.73393221250811
30
0
41
1
10
237.616803553668
20
5.47004786794088
30
0
41
1
10
237.721410660672
20
4.92693826104127
30
0
41
1
10
237.773714214174
20
4.64772195449007
30
0
41
1
10
237.878321321177
20
4.07887625216944
30
0
41
1
10
237.930624874679
20
3.78925550633303
30
0
41
1
10
238.035231981683
20
3.20454502782144
30
0
41
1
10
238.087535535185
20
2.90946278646825
30
0
41
1
10
238.192142642188
20
2.31854444788456
30
0
41
1
10
238.24444619569
20
2.0227140968257
30
0
41
1
10
238.401356856196
20
1.14052065270099
30
0
41
1
10
238.5059639632
20
0.559793528597083
30
0
41
1
10
238.715178177207
20
-0.559792185094238
30
0
41
1
10
238.819785284211
20
-1.14051925235393
30
0
41
1
10
238.976695944717
20
-2.02271267973495
30
0
41
1
10
239.028999498218
20
-2.318543028427
30
0
41
1
10
239.133606605222
20
-2.90946136951771
30
0
41
1
10
239.185910158724
20
-3.20454361574784
30
0
41
1
10
239.290517265728
20
-3.78925411179625
30
0
41
1
10
239.342820819229
20
-4.07887487029495
30
0
41
1
10
239.447427926233
20
-4.64772060590505
30
0
41
1
10
239.499731479735
20
-4.9269369330847
30
0
41
1
10
239.604338586739
20
-5.47004658897117
30
0
41
1
10
239.656642140241
20
-5.73393096189659
30
0
41
1
10
239.761249247244
20
-6.24173168777634
30
0
41
1
10
239.813552800746
20
-6.48563977107929
30
0
41
1
10
239.91815990775
20
-6.9493874019737
30
0
41
1
10
239.970463461252
20
-7.16922031941121
30
0
41
1
10
240.075070568256
20
-7.58148869850447
30
0
41
1
10
240.127374121757
20
-7.77391990138696
30
0
41
1
10
240.231981228761
20
-8.1289934269808
30
0
41
1
10
240.284284782263
20
-8.29163423661652
30
0
41
1
10
240.388891889267
20
-8.58576070193675
30
0
41
1
10
240.441195442769
20
-8.71724755550096
30
0
41
1
10
240.545802549772
20
-8.94872919246251
30
0
41
1
10
240.598106103274
20
-9.04872748326233
30
0
41
1
10
240.702713210278
20
-9.21785198659987
30
0
41
1
10
240.75501676378
20
-9.28698336326238
30
0
41
1
10
240.911927424285
20
-9.45023553871312
30
0
41
1
10
241.016534531289
20
-9.49999992083323
30
0
41
1
10
241.225748745296
20
-9.50000007916657
30
0
41
1
10
241.3303558523
20
-9.45023587316632
30
0
41
1
10
241.487266512806
20
-9.28698397964556
30
0
41
1
10
241.539570066308
20
-9.21785269984144
30
0
41
1
10
241.644177173311
20
-9.04872839361505
30
0
41
1
10
241.696480726813
20
-8.94873020306389
30
0
41
1
10
241.801087833817
20
-8.71724876712236
30
0
41
1
10
241.853391387319
20
-8.58576201432302
30
0
41
1
10
241.957998494322
20
-8.29163574784343
30
0
41
1
10
242.010302047824
20
-8.1289950362752
30
0
41
1
10
242.114909154828
20
-7.77392170079756
30
0
41
1
10
242.16721270833
20
-7.58149058995485
30
0
41
1
10
242.271819815333
20
-7.16922238573653
30
0
41
1
10
242.324123368835
20
-6.94938955112579
30
0
41
1
10
242.428730475839
20
-6.48564207390382
30
0
41
1
10
242.481034029341
20
-6.24173406143993
30
0
41
1
10
242.585641136345
20
-5.73393346311946
30
0
41
1
10
242.637944689847
20
-5.47004914691044
30
0
41
1
10
242.74255179685
20
-4.92693958899778
30
0
41
1
10
242.794855350352
20
-4.64772330307497
30
0
41
1
10
242.899462457356
20
-4.07887763404386
30
0
41
1
10
242.951766010858
20
-3.78925690086979
30
0
41
1
10
243.056373117861
20
-3.20454643989501
30
0
41
1
10
243.108676671363
20
-2.90946420341876
30
0
41
1
10
243.213283778367
20
-2.31854586734212
30
0
41
1
10
243.265587331869
20
-2.0227155139165
30
0
41
1
10
243.422497992374
20
-1.14052205304807
30
0
41
1
10
243.527105099378
20
-0.559794904891902
30
0
41
1
10
243.736319313386
20
0.559790874383197
30
0
41
1
10
243.840926420389
20
1.14051785200692
30
0
41
1
10
243.997837080895
20
2.02271126264418
30
0
41
1
10
244.050140634397
20
2.31854160896944
30
0
41
1
10
244.154747741401
20
2.90945995256717
30
0
41
1
10
244.207051294902
20
3.20454220367421
30
0
41
1
10
244.311658401906
20
3.78925271725939
30
0
41
1
10
244.363961955408
20
4.07887348842038
30
0
41
1
10
244.468569062411
20
4.64771925731995
30
0
41
1
10
244.520872615913
20
4.92693560512799
30
0
41
1
10
244.625479722917
20
5.47004531000135
30
0
41
1
10
244.677783276419
20
5.73392971128496
30
0
41
1
10
244.782390383423
20
6.24173050094427
30
0
41
1
10
244.834693936925
20
6.48563861966679
30
0
41
1
10
244.939301043928
20
6.94938632739738
30
0
41
1
10
244.99160459743
20
7.16921928624825
30
0
41
1
10
245.096211704434
20
7.58148775277897
30
0
41
1
10
245.148515257936
20
7.77391900168132
30
0
41
1
10
245.253122364939
20
8.12899262233324
30
0
41
1
10
245.305425918441
20
8.29163348100272
30
0
41
1
10
245.410033025445
20
8.58576004574323
30
0
41
1
10
245.462336578947
20
8.71724694968992
30
0
41
1
10
245.566943685951
20
8.94872868716143
30
0
41
1
10
245.619247239452
20
9.04872702808558
30
0
41
1
10
245.723854346456
20
9.21785162997875
30
0
41
1
10
245.776157899958
20
9.28698305507046
30
0
41
1
10
245.933068560464
20
9.45023537148617
30
0
41
1
10
246.037675667467
20
9.49999984166627
30
0
41
1
10
246.142282774471
20
9.49999999999963
30
0
0
SPLINE
5
D7
100
AcDbEntity
8
1
62
256
6
ByLayer
370
13
48
1
60
0
100
AcDbSpline
70
4
71
3
72
119
73
115
40
0
40
0
40
0
40
0
40
0.0156249999999996
40
0.0156249999999996
40
0.0312499999999993
40
0.0312499999999993
40
0.0468749999999989
40
0.0468749999999989
40
0.0624999999999986
40
0.0624999999999986
40
0.0781249999999983
40
0.0781249999999983
40
0.0937499999999979
40
0.0937499999999979
40
0.109374999999998
40
0.109374999999998
40
0.124999999999997
40
0.124999999999997
40
0.140624999999997
40
0.140624999999997
40
0.156249999999996
40
0.156249999999996
40
0.187499999999996
40
0.187499999999996
40
0.203124999999996
40
0.203124999999996
40
0.210937499999995
40
0.210937499999995
40
0.218749999999995
40
0.218749999999995
40
0.249999999999994
40
0.249999999999994
40
0.281249999999993
40
0.281249999999993
40
0.296874999999992
40
0.296874999999992
40
0.312499999999992
40
0.312499999999992
40
0.328124999999991
40
0.328124999999991
40
0.34374999999999
40
0.34374999999999
40
0.35937499999999
40
0.35937499999999
40
0.374999999999989
40
0.374999999999989
40
0.390624999999988
40
0.390624999999988
40
0.406249999999988
40
0.406249999999988
40
0.437499999999986
40
0.437499999999986
40
0.468749999999984
40
0.468749999999984
40
0.472656249999984
40
0.472656249999984
40
0.476562499999984
40
0.476562499999984
40
0.484374999999985
40
0.484374999999985
40
0.499999999999986
40
0.499999999999986
40
0.531249999999988
40
0.531249999999988
40
0.546874999999989
40
0.546874999999989
40
0.56249999999999
40
0.56249999999999
40
0.578124999999991
40
0.578124999999991
40
0.593749999999992
40
0.593749999999992
40
0.609374999999993
40
0.609374999999993
40
0.624999999999994
40
0.624999999999994
40
0.640624999999995
40
0.640624999999995
40
0.656249999999996
40
0.656249999999996
40
0.687499999999999
40
0.687499999999999
40
0.718750000000002
40
0.718750000000002
40
0.734375000000003
40
0.734375000000003
40
0.738281250000004
40
0.738281250000004
40
0.742187500000004
40
0.750000000000004
40
0.750000000000004
40
0.781250000000003
40
0.781250000000003
40
0.812500000000002
40
0.812500000000002
40
0.828125000000002
40
0.828125000000002
40
0.843750000000001
40
0.843750000000001
40
0.859375000000001
40
0.859375000000001
40
0.875000000000001
40
0.875000000000001
40
0.890625000000001
40
0.890625000000001
40
0.90625
40
0.90625
40
0.921875
40
0.921875
40
0.9375
40
0.9375
40
0.96875
40
0.96875
40
1
40
1
40
1
40
1
41
1
10
236.1
20
9.09185083350695
30
0
41
1
10
236.149722088893
20
9.00680222566353
30
0
41
1
10
236.199444177786
20
8.90773589170996
30
0
41
1
10
236.298888355572
20
8.68114497081038
30
0
41
1
10
236.348610444465
20
8.55361783241861
30
0
41
1
10
236.448054622251
20
8.2704645481449
30
0
41
1
10
236.497776711144
20
8.11483759088637
30
0
41
1
10
236.59722088893
20
7.77668570631053
30
0
41
1
10
236.646942977823
20
7.59416197682927
30
0
41
1
10
236.746387155608
20
7.20425441814302
30
0
41
1
10
236.796109244501
20
6.99687381773046
30
0
41
1
10
236.895553422287
20
6.56006064187306
30
0
41
1
10
236.94527551118
20
6.33063307396378
30
0
41
1
10
237.044719688966
20
5.85317955019693
30
0
41
1
10
237.094441777859
20
5.60515988488257
30
0
41
1
10
237.193885955645
20
5.0944496045654
30
0
41
1
10
237.243608044538
20
4.8317659066557
30
0
41
1
10
237.343052222324
20
4.29592806861768
30
0
41
1
10
237.392774311217
20
4.02278076941406
30
0
41
1
10
237.492218489002
20
3.47028020321014
30
0
41
1
10
237.541940577895
20
3.19093306849382
30
0
41
1
10
237.691106844574
20
2.34977994470384
30
0
41
1
10
237.79055102236
20
1.78509141017926
30
0
41
1
10
237.939717289039
20
0.953857295643559
30
0
41
1
10
237.989439377932
20
0.679360285656088
30
0
41
1
10
238.064022511271
20
0.273651186477252
30
0
41
1
10
238.088883555718
20
0.139416716763975
30
0
41
1
10
238.13860564461
20
-0.126738752293335
30
0
41
1
10
238.163466689057
20
-0.260832544067142
30
0
41
1
10
238.287771911289
20
-0.93669580576065
30
0
41
1
10
238.387216089075
20
-1.49382322025139
30
0
41
1
10
238.586104444647
20
-2.61586632401787
30
0
41
1
10
238.685548622433
20
-3.18067075478186
30
0
41
1
10
238.834714889112
20
-4.00971589103946
30
0
41
1
10
238.884436978005
20
-4.2829948546607
30
0
41
1
10
238.98388115579
20
-4.81916377591509
30
0
41
1
10
239.033603244684
20
-5.08204689926126
30
0
41
1
10
239.13304742247
20
-5.59322116330162
30
0
41
1
10
239.182769511362
20
-5.84150538266135
30
0
41
1
10
239.282213689148
20
-6.31954721421531
30
0
41
1
10
239.331935778041
20
-6.54929852050515
30
0
41
1
10
239.431379955827
20
-6.98680942299103
30
0
41
1
10
239.48110204472
20
-7.19456398684588
30
0
41
1
10
239.580546222506
20
-7.58525836663301
30
0
41
1
10
239.630268311399
20
-7.76819492284028
30
0
41
1
10
239.729712489185
20
-8.10719844393739
30
0
41
1
10
239.779434578078
20
-8.26326417819061
30
0
41
1
10
239.878878755864
20
-8.5473075059746
30
0
41
1
10
239.928600844757
20
-8.67528588049927
30
0
41
1
10
240.077767111435
20
-9.01652503669038
30
0
41
1
10
240.177211289221
20
-9.18675011321133
30
0
41
1
10
240.376099644793
20
-9.41876660364113
30
0
41
1
10
240.475543822579
20
-9.48070303994021
30
0
41
1
10
240.587418522588
20
-9.49803529131435
30
0
41
1
10
240.599849044811
20
-9.49923810971623
30
0
41
1
10
240.624710089258
20
-9.50023342840277
30
0
41
1
10
240.637140611481
20
-9.50003131983766
30
0
41
1
10
240.674432178151
20
-9.49730268459462
30
0
41
1
10
240.699293222597
20
-9.49264143858534
30
0
41
1
10
240.773876355937
20
-9.46971360794592
30
0
41
1
10
240.823598444829
20
-9.44249012306446
30
0
41
1
10
240.972764711508
20
-9.32205165763347
30
0
41
1
10
241.072208889294
20
-9.18974971267187
30
0
41
1
10
241.221375155973
20
-8.90606404823706
30
0
41
1
10
241.271097244866
20
-8.79737034927712
30
0
41
1
10
241.370541422652
20
-8.55155422960925
30
0
41
1
10
241.420263511545
20
-8.41442980380455
30
0
41
1
10
241.519707689331
20
-8.11239337234395
30
0
41
1
10
241.569429778224
20
-7.9474812167756
30
0
41
1
10
241.66887395601
20
-7.59135734972674
30
0
41
1
10
241.718596044903
20
-7.40014753505346
30
0
41
1
10
241.818040222688
20
-6.99373756489896
30
0
41
1
10
241.867762311581
20
-6.7785412821473
30
0
41
1
10
241.967206489367
20
-6.32720169276226
30
0
41
1
10
242.01692857826
20
-6.09106389381026
30
0
41
1
10
242.116372756046
20
-5.60147640466377
30
0
41
1
10
242.166094844939
20
-5.34803329552989
30
0
41
1
10
242.265539022725
20
-4.82787843645906
30
0
41
1
10
242.315261111618
20
-4.56117365527382
30
0
41
1
10
242.464427378297
20
-3.74752441831876
30
0
41
1
10
242.563871556083
20
-3.18716196016456
30
0
41
1
10
242.762759911654
20
-2.06369517211704
30
0
41
1
10
242.86220408944
20
-1.50073338470318
30
0
41
1
10
243.011370356119
20
-0.675230083026577
30
0
41
1
10
243.061092445012
20
-0.403162302819851
30
0
41
1
10
243.123245056128
20
-0.0686421850797387
30
0
41
1
10
243.135675578351
20
-0.002207776876844
30
0
41
1
10
243.160536622798
20
0.131203020029972
30
0
41
1
10
243.197828189467
20
0.332169331588801
30
0
41
1
10
243.235119756137
20
0.535517577232469
30
0
41
1
10
243.35942497837
20
1.21780905012324
30
0
41
1
10
243.458869156155
20
1.77823757019567
30
0
41
1
10
243.657757511727
20
2.90185369266928
30
0
41
1
10
243.757201689513
20
3.46491417152455
30
0
41
1
10
243.906367956192
20
4.28699135088226
30
0
41
1
10
243.956090045085
20
4.55722866732003
30
0
41
1
10
244.055534222871
20
5.08587403436246
30
0
41
1
10
244.105256311764
20
5.34427514477761
30
0
41
1
10
244.20470048955
20
5.8451125437837
30
0
41
1
10
244.254422578443
20
6.08754204046176
30
0
41
1
10
244.353866756228
20
6.55263906499482
30
0
41
1
10
244.403588845122
20
6.77530065026215
30
0
41
1
10
244.503033022907
20
7.19759684676472
30
0
41
1
10
244.5527551118
20
7.39722698086302
30
0
41
1
10
244.652199289586
20
7.7708859758622
30
0
41
1
10
244.701921378479
20
7.94491224902828
30
0
41
1
10
244.801365556265
20
8.26558733209043
30
0
41
1
10
244.851087645158
20
8.41223560795331
30
0
41
1
10
244.950531822944
20
8.67722381938282
30
0
41
1
10
245.000253911837
20
8.79556516757799
30
0
41
1
10
245.149420178515
20
9.10797759030291
30
0
41
1
10
245.248864356301
20
9.25911921902667
30
0
41
1
10
245.447752711873
20
9.45505558540833
30
0
41
1
10
245.547196889659
20
9.5
30
0
41
1
10
245.646641067445
20
9.5
30
0
0
SPLINE
5
D8
100
AcDbEntity
8
1
62
256
6
ByLayer
370
13
48
1
60
0
100
AcDbSpline
70
4
71
3
72
8
73
4
40
0
40
0
40
0
40
0
40
1
40
1
40
1
40
1
41
1
10
246.01284468492
20
9.5
30
0
41
1
10
246.055990714771
20
9.5
30
0
41
1
10
246.099136744621
20
9.49157595756463
30
0
41
1
10
246.142282774471
20
9.47400291548144
30
0
0
SPLINE
5
D9
100
AcDbEntity
8
1
62
256
6
ByLayer
370
13
48
1
60
0
100
AcDbSpline
70
4
71
3
72
82
73
78
40
0
40
0
40
0
40
0
40
0.0312499999999996
40
0.0312499999999996
40
0.0624999999999992
40
0.0624999999999992
40
0.0937499999999989
40
0.0937499999999989
40
0.124999999999999
40
0.124999999999999
40
0.156249999999998
40
0.156249999999998
40
0.164062499999999
40
0.164062499999999
40
0.171874999999999
40
0.171874999999999
40
0.1875
40
0.1875
40
0.21875
40
0.21875
40
0.250000000000001
40
0.250000000000001
40
0.281250000000002
40
0.281250000000002
40
0.312500000000003
40
0.312500000000003
40
0.343750000000004
40
0.343750000000004
40
0.375000000000005
40
0.375000000000005
40
0.406250000000005
40
0.406250000000005
40
0.437500000000006
40
0.437500000000006
40
0.445312500000006
40
0.445312500000006
40
0.453125000000006
40
0.453125000000006
40
0.468750000000007
40
0.468750000000007
40
0.500000000000007
40
0.500000000000007
40
0.531250000000008
40
0.531250000000008
40
0.562500000000009
40
0.562500000000009
40
0.59375000000001
40
0.59375000000001
40
0.625000000000011
40
0.625000000000011
40
0.656250000000012
40
0.656250000000012
40
0.687500000000012
40
0.687500000000012
40
0.718750000000013
40
0.718750000000013
40
0.726562500000013
40
0.726562500000013
40
0.734375000000013
40
0.734375000000013
40
0.750000000000013
40
0.750000000000013
40
0.781250000000011
40
0.781250000000011
40
0.81250000000001
40
0.81250000000001
40
0.843750000000008
40
0.843750000000008
40
0.875000000000006
40
0.875000000000006
40
0.906250000000005
40
0.906250000000005
40
0.937500000000003
40
0.937500000000003
40
0.968750000000001
40
0.968750000000001
40
1
40
1
40
1
40
1
41
1
10
236.1
20
7.77789047912052
30
0
41
1
10
236.194281238107
20
7.44104593674882
30
0
41
1
10
236.288562476215
20
7.0565852836009
30
0
41
1
10
236.477124952429
20
6.21034690537405
30
0
41
1
10
236.571406190537
20
5.74869837988382
30
0
41
1
10
236.759968666751
20
4.77402094397689
30
0
41
1
10
236.854249904859
20
4.26116010528136
30
0
41
1
10
237.042812381073
20
3.21326460851182
30
0
41
1
10
237.137093619181
20
2.67837856793639
30
0
41
1
10
237.325656095395
20
1.61393775057047
30
0
41
1
10
237.419937333503
20
1.08447215125273
30
0
41
1
10
237.537788881137
20
0.439791218465388
30
0
41
1
10
237.561359190664
20
0.311696544211173
30
0
41
1
10
237.608499809718
20
0.0574664434824115
30
0
41
1
10
237.632070119244
20
-0.0681801119754084
30
0
41
1
10
237.702781047825
20
-0.44969069828889
30
0
41
1
10
237.749921666878
20
-0.707948528789473
30
0
41
1
10
237.891343524039
20
-1.49098477673201
30
0
41
1
10
237.985624762147
20
-2.02420997836029
30
0
41
1
10
238.174187238361
20
-3.08953472707466
30
0
41
1
10
238.268468476469
20
-3.62152780011923
30
0
41
1
10
238.457030952683
20
-4.65612513007116
30
0
41
1
10
238.551312190791
20
-5.15857077138736
30
0
41
1
10
238.739874667005
20
-6.10522314307929
30
0
41
1
10
238.834155905113
20
-6.5492661554261
30
0
41
1
10
239.022718381328
20
-7.3547179921872
30
0
41
1
10
239.116999619435
20
-7.71601613638765
30
0
41
1
10
239.30556209565
20
-8.34037262228631
30
0
41
1
10
239.399843333757
20
-8.6034097232353
30
0
41
1
10
239.588405809972
20
-9.02651230678535
30
0
41
1
10
239.682687048079
20
-9.18664122344822
30
0
41
1
10
239.871249524293
20
-9.40937869798211
30
0
41
1
10
239.965530762401
20
-9.47209824052365
30
0
41
1
10
240.083382310035
20
-9.49758244445812
30
0
41
1
10
240.106952619562
20
-9.5000466253245
30
0
41
1
10
240.154093238616
20
-9.49995203956431
30
0
41
1
10
240.177663548142
20
-9.49739097388138
30
0
41
1
10
240.248374476723
20
-9.48180307734071
30
0
41
1
10
240.295515095777
20
-9.46086199197524
30
0
41
1
10
240.436936952938
20
-9.36377256707905
30
0
41
1
10
240.531218191045
20
-9.25311660717512
30
0
41
1
10
240.71978066726
20
-8.93058420098268
30
0
41
1
10
240.814061905367
20
-8.71861507607039
30
0
41
1
10
241.002624381582
20
-8.19276286121266
30
0
41
1
10
241.096905619689
20
-7.87885594696854
30
0
41
1
10
241.285468095904
20
-7.15924778738096
30
0
41
1
10
241.379749334011
20
-6.753615040375
30
0
41
1
10
241.568311810226
20
-5.87087484779252
30
0
41
1
10
241.662593048333
20
-5.39391150847544
30
0
41
1
10
241.851155524548
20
-4.39573415183889
30
0
41
1
10
241.945436762655
20
-3.87468858080396
30
0
41
1
10
242.13399923887
20
-2.81756780883498
30
0
41
1
10
242.228280476977
20
-2.28162901646093
30
0
41
1
10
242.416842953192
20
-1.22116126517616
30
0
41
1
10
242.511124191299
20
-0.696704400554722
30
0
41
1
10
242.628975738933
20
-0.061037123975126
30
0
41
1
10
242.65254604846
20
0.0646083470172982
30
0
41
1
10
242.699686667514
20
0.31891202104697
30
0
41
1
10
242.723256977041
20
0.447041010861568
30
0
41
1
10
242.793967905621
20
0.833944318937682
30
0
41
1
10
242.841108524675
20
1.09524825237744
30
0
41
1
10
242.982530381836
20
1.88545348676331
30
0
41
1
10
243.076811619943
20
2.4208118842823
30
0
41
1
10
243.265374096158
20
3.48370886816556
30
0
41
1
10
243.359655334265
20
4.0111252720769
30
0
41
1
10
243.54821781048
20
5.02928913915389
30
0
41
1
10
243.642499048587
20
5.51987139454423
30
0
41
1
10
243.831061524802
20
6.43614664281341
30
0
41
1
10
243.925342762909
20
6.8616839268484
30
0
41
1
10
244.113905239124
20
7.62531324484357
30
0
41
1
10
244.208186477231
20
7.96331482852676
30
0
41
1
10
244.396748953446
20
8.53887454236184
30
0
41
1
10
244.491030191553
20
8.7764344549297
30
0
41
1
10
244.679592667768
20
9.14906543691217
30
0
41
1
10
244.773873905875
20
9.28421590031215
30
0
41
1
10
244.96243638209
20
9.45962533401655
30
0
41
1
10
245.056717620197
20
9.5
30
0
41
1
10
245.150998858305
20
9.5
30
0
0
SPLINE
5
DA
100
AcDbEntity
8
1
62
256
6
ByLayer
370
13
48
1
60
0
100
AcDbSpline
70
4
71
3
72
12
73
8
40
0
40
0
40
0
40
0
40
0.5
40
0.5
40
0.75
40
0.75
40
1
40
1
40
1
40
1
41
1
10
245.51720247578
20
9.5
30
0
41
1
10
245.621382525562
20
9.5
30
0
41
1
10
245.725562575344
20
9.45064390563397
30
0
41
1
10
245.881832650016
20
9.2887745904122
30
0
41
1
10
245.933922674907
20
9.22023162106757
30
0
41
1
10
246.038102724689
20
9.05254883774461
30
0
41
1
10
246.09019274958
20
8.95340394855825
30
0
41
1
10
246.142282774471
20
8.83864648917478
30
0
0
SPLINE
5
DB
100
AcDbEntity
8
1
62
256
6
ByLayer
370
13
48
1
60
0
100
AcDbSpline
70
4
71
3
72
86
73
82
40
0
40
0
40
0
40
0
40
0.0312499999999985
40
0.0312499999999985
40
0.062499999999997
40
0.062499999999997
40
0.0937499999999955
40
0.0937499999999955
40
0.109374999999995
40
0.109374999999995
40
0.117187499999995
40
0.117187499999995
40
0.121093749999995
40
0.121093749999995
40
0.124999999999995
40
0.124999999999995
40
0.156249999999998
40
0.156249999999998
40
0.187500000000002
40
0.187500000000002
40
0.218750000000005
40
0.218750000000005
40
0.250000000000009
40
0.250000000000009
40
0.281250000000013
40
0.281250000000013
40
0.312500000000016
40
0.312500000000016
40
0.34375000000002
40
0.34375000000002
40
0.375000000000023
40
0.375000000000023
40
0.406250000000027
40
0.406250000000027
40
0.410156250000027
40
0.410156250000027
40
0.414062500000027
40
0.414062500000027
40
0.421875000000027
40
0.421875000000027
40
0.437500000000026
40
0.437500000000026
40
0.468750000000025
40
0.468750000000025
40
0.500000000000025
40
0.500000000000025
40
0.531250000000024
40
0.531250000000024
40
0.562500000000023
40
0.562500000000023
40
0.593750000000022
40
0.593750000000022
40
0.625000000000021
40
0.625000000000021
40
0.65625000000002
40
0.65625000000002
40
0.687500000000019
40
0.687500000000019
40
0.703125000000019
40
0.703125000000019
40
0.710937500000018
40
0.710937500000018
40
0.718750000000018
40
0.718750000000018
40
0.750000000000016
40
0.750000000000016
40
0.781250000000014
40
0.781250000000014
40
0.812500000000012
40
0.812500000000012
40
0.84375000000001
40
0.84375000000001
40
0.875000000000008
40
0.875000000000008
40
0.906250000000006
40
0.906250000000006
40
0.937500000000004
40
0.937500000000004
40
0.968750000000002
40
0.968750000000002
40
1
40
1
40
1
40
1
41
1
10
236.1
20
5.61852462964467
30
0
41
1
10
236.189118298429
20
5.17060313154351
30
0
41
1
10
236.278236596858
20
4.6967855532391
30
0
41
1
10
236.456473193715
20
3.72143662353108
30
0
41
1
10
236.545591492144
20
3.22002624200081
30
0
41
1
10
236.723828089002
20
2.21359356222419
30
0
41
1
10
236.81294638743
20
1.70865658010021
30
0
41
1
10
236.946623835073
20
0.964045942096277
30
0
41
1
10
236.991182984288
20
0.717940115214589
30
0
41
1
10
237.058021708109
20
0.35349464876731
30
0
41
1
10
237.080301282717
20
0.23279568719849
30
0
41
1
10
237.113720644627
20
0.0530926999633436
30
0
41
1
10
237.124860431931
20
-0.0064311417749821
30
0
41
1
10
237.147140006538
20
-0.125997818340323
30
0
41
1
10
237.158279793842
20
-0.186008736516868
30
0
41
1
10
237.258537879574
20
-0.728031614957899
30
0
41
1
10
237.347656178003
20
-1.22374120158321
30
0
41
1
10
237.525892774861
20
-2.22578220728792
30
0
41
1
10
237.61501107329
20
-2.73206010587089
30
0
41
1
10
237.793247670147
20
-3.7331994676282
30
0
41
1
10
237.882365968576
20
-4.22796084321453
30
0
41
1
10
238.060602565433
20
-5.18152763202005
30
0
41
1
10
238.149720863862
20
-5.64020663409164
30
0
41
1
10
238.32795746072
20
-6.49806520306311
30
0
41
1
10
238.417075759149
20
-6.89712914810039
30
0
41
1
10
238.595312356006
20
-7.61699425918414
30
0
41
1
10
238.684430654435
20
-7.93772783393902
30
0
41
1
10
238.862667251293
20
-8.4898306949338
30
0
41
1
10
238.951785549721
20
-8.72119841196709
30
0
41
1
10
239.130022146579
20
-9.09221161594581
30
0
41
1
10
239.219140445008
20
-9.23191265811204
30
0
41
1
10
239.397377041865
20
-9.42511033436836
30
0
41
1
10
239.486495340294
20
-9.47869249888444
30
0
41
1
10
239.586753426026
20
-9.49676157287942
30
0
41
1
10
239.59789321333
20
-9.49818556472133
30
0
41
1
10
239.620172787937
20
-9.49989164588135
30
0
41
1
10
239.631312575241
20
-9.50017493955446
30
0
41
1
10
239.664731937152
20
-9.49934273676078
30
0
41
1
10
239.687011511759
20
-9.49653011906867
30
0
41
1
10
239.753850235581
20
-9.48101326966034
30
0
41
1
10
239.798409384795
20
-9.46122243154554
30
0
41
1
10
239.932086832438
20
-9.37129864388419
30
0
41
1
10
240.021205130867
20
-9.27042567271235
30
0
41
1
10
240.199441727724
20
-8.97866211469241
30
0
41
1
10
240.288560026153
20
-8.78769899652295
30
0
41
1
10
240.466796623011
20
-8.31436050409087
30
0
41
1
10
240.55591492144
20
-8.03195913667008
30
0
41
1
10
240.734151518297
20
-7.38289411325195
30
0
41
1
10
240.823269816726
20
-7.0162697114645
30
0
41
1
10
241.001506413584
20
-6.21430693965905
30
0
41
1
10
241.090624712012
20
-5.7790669573651
30
0
41
1
10
241.26886130887
20
-4.86170397606455
30
0
41
1
10
241.357979607299
20
-4.37970772412424
30
0
41
1
10
241.536216204156
20
-3.39343164052426
30
0
41
1
10
241.625334502585
20
-2.88926717825302
30
0
41
1
10
241.803571099443
20
-1.88223899873245
30
0
41
1
10
241.892689397872
20
-1.37945030033879
30
0
41
1
10
242.026366845515
20
-0.640956781185508
30
0
41
1
10
242.070925994729
20
-0.397369332365173
30
0
41
1
10
242.137764718551
20
-0.0373057633530607
30
0
41
1
10
242.160044293158
20
0.0815035861127456
30
0
41
1
10
242.204603442373
20
0.321977684685095
30
0
41
1
10
242.22688301698
20
0.443084611269114
30
0
41
1
10
242.338280890016
20
1.05238438511782
30
0
41
1
10
242.427399188444
20
1.55207882962335
30
0
41
1
10
242.605635785302
20
2.55761354735935
30
0
41
1
10
242.694754083731
20
3.06338947535994
30
0
41
1
10
242.872990680588
20
4.05825237502404
30
0
41
1
10
242.962108979017
20
4.54723100969204
30
0
41
1
10
243.140345575875
20
5.48385142329298
30
0
41
1
10
243.229463874304
20
5.93136564979542
30
0
41
1
10
243.407700471161
20
6.76225067198681
30
0
41
1
10
243.49681876959
20
7.14551359680434
30
0
41
1
10
243.675055366448
20
7.83061842294126
30
0
41
1
10
243.764173664876
20
8.13240660184903
30
0
41
1
10
243.942410261734
20
8.64535572632215
30
0
41
1
10
244.031528560163
20
8.8565292474766
30
0
41
1
10
244.20976515702
20
9.18775202570743
30
0
41
1
10
244.298883455449
20
9.30786605634751
30
0
41
1
10
244.477120052307
20
9.46394605487635
30
0
41
1
10
244.566238350735
20
9.5
30
0
41
1
10
244.655356649164
20
9.5
30
0
0
SPLINE
5
DC
100
AcDbEntity
8
1
62
256
6
ByLayer
370
13
48
1
60
0
100
AcDbSpline
70
4
71
3
72
14
73
10
40
0
40
0
40
0
40
0
40
0.25
40
0.25
40
0.5
40
0.5
40
0.75
40
0.75
40
1
40
1
40
1
40
1
41
1
10
245.02156026664
20
9.5
30
0
41
1
10
245.114953808959
20
9.5
30
0
41
1
10
245.208347351278
20
9.4603859199477
30
0
41
1
10
245.395134435917
20
9.28838491248274
30
0
41
1
10
245.488527978236
20
9.15588747766117
30
0
41
1
10
245.675315062875
20
8.7905551514263
30
0
41
1
10
245.768708605194
20
8.55764344078764
30
0
41
1
10
245.955495689833
20
7.99307961883926
30
0
41
1
10
246.048889232152
20
7.66142333665073
30
0
41
1
10
246.142282774471
20
7.2864527882835
30
0
0
SPLINE
5
DD
100
AcDbEntity
8
1
62
256
6
ByLayer
370
13
48
1
60
0
100
AcDbSpline
70
4
71
3
72
85
73
81
40
0
40
0
40
0
40
0
40
0.0312500000000077
40
0.0312500000000077
40
0.0625000000000153
40
0.0625000000000153
40
0.0664062500000159
40
0.0664062500000159
40
0.0703125000000164
40
0.0781250000000168
40
0.0781250000000168
40
0.0937500000000168
40
0.0937500000000168
40
0.125000000000017
40
0.125000000000017
40
0.156250000000017
40
0.156250000000017
40
0.187500000000017
40
0.187500000000017
40
0.218750000000018
40
0.218750000000018
40
0.250000000000018
40
0.250000000000018
40
0.281250000000018
40
0.281250000000018
40
0.312500000000018
40
0.312500000000018
40
0.343750000000018
40
0.343750000000018
40
0.375000000000018
40
0.375000000000018
40
0.378906250000018
40
0.378906250000018
40
0.382812500000019
40
0.390625000000018
40
0.390625000000018
40
0.406250000000018
40
0.406250000000018
40
0.437500000000018
40
0.437500000000018
40
0.468750000000019
40
0.468750000000019
40
0.500000000000019
40
0.500000000000019
40
0.531250000000019
40
0.531250000000019
40
0.562500000000019
40
0.562500000000019
40
0.593750000000019
40
0.593750000000019
40
0.625000000000019
40
0.625000000000019
40
0.65625000000002
40
0.65625000000002
40
0.68750000000002
40
0.68750000000002
40
0.691406250000019
40
0.691406250000019
40
0.695312500000019
40
0.703125000000019
40
0.703125000000019
40
0.718750000000018
40
0.718750000000018
40
0.750000000000016
40
0.750000000000016
40
0.781250000000014
40
0.781250000000014
40
0.812500000000012
40
0.812500000000012
40
0.84375000000001
40
0.84375000000001
40
0.875000000000008
40
0.875000000000008
40
0.906250000000006
40
0.906250000000006
40
0.937500000000004
40
0.937500000000004
40
0.968750000000002
40
0.968750000000002
40
1
40
1
40
1
40
1
41
1
10
236.1
20
2.93725213351533
30
0
41
1
10
236.18395535875
20
2.46394098181543
30
0
41
1
10
236.2679107175
20
1.9875941767184
30
0
41
1
10
236.435821435001
20
1.0466116898308
30
0
41
1
10
236.519776793751
20
0.582010647776457
30
0
41
1
10
236.614226572345
20
0.0737707803880596
30
0
41
1
10
236.624720992189
20
0.0176214454199055
30
0
41
1
10
236.645709831877
20
-0.0948857815891131
30
0
41
1
10
236.677193091408
20
-0.264257717404519
30
0
41
1
10
236.708676350939
20
-0.435362469126432
30
0
41
1
10
236.771642870002
20
-0.779589815206947
30
0
41
1
10
236.813620549377
20
-1.01177358249763
30
0
41
1
10
236.939553587503
20
-1.71376979208287
30
0
41
1
10
237.023508946253
20
-2.18913700881595
30
0
41
1
10
237.191419663753
20
-3.1374906875877
30
0
41
1
10
237.275375022503
20
-3.61041500612851
30
0
41
1
10
237.443285740004
20
-4.53391407591383
30
0
41
1
10
237.527241098754
20
-4.98440056893892
30
0
41
1
10
237.695151816255
20
-5.84256332297986
30
0
41
1
10
237.779107175005
20
-6.25014585495509
30
0
41
1
10
237.947017892506
20
-7.00436847987203
30
0
41
1
10
238.030973251256
20
-7.35093578861216
30
0
41
1
10
238.198883968756
20
-7.96992424936317
30
0
41
1
10
238.282839327507
20
-8.24231386838281
30
0
41
1
10
238.450750045007
20
-8.70630342225823
30
0
41
1
10
238.534705403757
20
-8.89791798353394
30
0
41
1
10
238.702616121258
20
-9.2005299955849
30
0
41
1
10
238.786571480008
20
-9.31157718945457
30
0
41
1
10
238.954482197508
20
-9.45902248207565
30
0
41
1
10
239.038437556259
20
-9.49548595947888
30
0
41
1
10
239.132887334853
20
-9.50011867297351
30
0
41
1
10
239.143381754696
20
-9.50013246959767
30
0
41
1
10
239.164370594384
20
-9.49915907460354
30
0
41
1
10
239.195853853915
20
-9.4961891944335
30
0
41
1
10
239.227337113447
20
-9.48859226337524
30
0
41
1
10
239.29030363251
20
-9.46698134308926
30
0
41
1
10
239.332281311885
20
-9.44401152140378
30
0
41
1
10
239.45821435001
20
-9.34763518224807
30
0
41
1
10
239.54216970876
20
-9.24660898589457
30
0
41
1
10
239.710080426261
20
-8.96452047972738
30
0
41
1
10
239.794035785011
20
-8.78340526307846
30
0
41
1
10
239.961946502511
20
-8.34007617721946
30
0
41
1
10
240.045901861262
20
-8.07784227689345
30
0
41
1
10
240.213812578762
20
-7.4779368874124
30
0
41
1
10
240.297767937513
20
-7.14029090273368
30
0
41
1
10
240.465678655013
20
-6.40190083493877
30
0
41
1
10
240.549634013763
20
-6.00122511095782
30
0
41
1
10
240.717544731264
20
-5.15435799050499
30
0
41
1
10
240.801500090014
20
-4.70825910583307
30
0
41
1
10
240.969410807514
20
-3.79087284570912
30
0
41
1
10
241.053366166265
20
-3.31967580920593
30
0
41
1
10
241.221276883765
20
-2.37231915814365
30
0
41
1
10
241.305232242516
20
-1.89622577764891
30
0
41
1
10
241.473142960016
20
-0.956776675025736
30
0
41
1
10
241.557098318766
20
-0.493453391197363
30
0
41
1
10
241.65154809736
20
0.0129312135994724
30
0
41
1
10
241.662042517204
20
0.06906298590539
30
0
41
1
10
241.683031356892
20
0.181983137706169
30
0
41
1
10
241.714514616423
20
0.351957128842599
30
0
41
1
10
241.745997875954
20
0.523609389994562
30
0
41
1
10
241.808964395017
20
0.868852299122352
30
0
41
1
10
241.850942074392
20
1.10160708421793
30
0
41
1
10
241.976875112517
20
1.80494648755862
30
0
41
1
10
242.060830471268
20
2.28071302106093
30
0
41
1
10
242.228741188768
20
3.22864633703065
30
0
41
1
10
242.312696547519
20
3.70074891264474
30
0
41
1
10
242.480607265019
20
4.62127612278283
30
0
41
1
10
242.564562623769
20
5.06961141342362
30
0
41
1
10
242.73247334127
20
5.92220632647766
30
0
41
1
10
242.81642870002
20
6.32637277174817
30
0
41
1
10
242.98433941752
20
7.0727431110968
30
0
41
1
10
243.068294776271
20
7.41487639154772
30
0
41
1
10
243.236205493771
20
8.02436267502836
30
0
41
1
10
243.320160852522
20
8.29168715154222
30
0
41
1
10
243.488071570022
20
8.74535768019476
30
0
41
1
10
243.572026928772
20
8.93172108710561
30
0
41
1
10
243.739937646273
20
9.22405649790628
30
0
41
1
10
243.823893005023
20
9.33007986912037
30
0
41
1
10
243.991803722524
20
9.4680187709167
30
0
41
1
10
244.075759081274
20
9.5
30
0
41
1
10
244.159714440024
20
9.5
30
0
0
SPLINE
5
DE
100
AcDbEntity
8
1
62
256
6
ByLayer
370
13
48
1
60
0
100
AcDbSpline
70
4
71
3
72
22
73
18
40
0
40
0
40
0
40
0
40
0.125
40
0.125
40
0.25
40
0.25
40
0.375
40
0.375
40
0.5
40
0.5
40
0.625
40
0.625
40
0.75
40
0.75
40
0.875
40
0.875
40
1
40
1
40
1
40
1
41
1
10
244.525918057499
20
9.5
30
0
41
1
10
244.593266587373
20
9.5
30
0
41
1
10
244.660615117247
20
9.47944753508563
30
0
41
1
10
244.795312176995
20
9.39191902637404
30
0
41
1
10
244.862660706868
20
9.32492088988948
30
0
41
1
10
244.997357766616
20
9.14056442273417
30
0
41
1
10
245.06470629649
20
9.02318621288904
30
0
41
1
10
245.199403356237
20
8.73620129769233
30
0
41
1
10
245.266751886111
20
8.56658129868364
30
0
41
1
10
245.401448945859
20
8.17582762610118
30
0
41
1
10
245.468797475733
20
7.95469113461576
30
0
41
1
10
245.603494535481
20
7.46445804518751
30
0
41
1
10
245.670843065354
20
7.19537111710775
30
0
41
1
10
245.805540125102
20
6.61553204410708
30
0
41
1
10
245.872888654976
20
6.30480120633734
30
0
41
1
10
246.007585714723
20
5.65023955233593
30
0
41
1
10
246.074934244597
20
5.30643795831904
30
0
41
1
10
246.142282774471
20
4.95111674611903
30
0
0
SPLINE
5
DF
100
AcDbEntity
8
1
62
256
6
ByLayer
370
13
48
1
60
0
100
AcDbSpline
70
4
71
3
72
82
73
78
40
0
40
0
40
0
40
0
40
0.0078125
40
0.0078125
40
0.015625
40
0.015625
40
0.0312500000000001
40
0.0312500000000001
40
0.0625000000000001
40
0.0625000000000001
40
0.0937500000000002
40
0.0937500000000002
40
0.125
40
0.125
40
0.15625
40
0.15625
40
0.1875
40
0.1875
40
0.218750000000001
40
0.218750000000001
40
0.250000000000001
40
0.250000000000001
40
0.281250000000001
40
0.281250000000001
40
0.312500000000001
40
0.312500000000001
40
0.328125000000001
40
0.328125000000001
40
0.335937500000001
40
0.335937500000001
40
0.343750000000001
40
0.343750000000001
40
0.375000000000001
40
0.375000000000001
40
0.406250000000001
40
0.406250000000001
40
0.437500000000001
40
0.437500000000001
40
0.468750000000001
40
0.468750000000001
40
0.500000000000001
40
0.500000000000001
40
0.531250000000001
40
0.531250000000001
40
0.562500000000001
40
0.562500000000001
40
0.593750000000001
40
0.593750000000001
40
0.625000000000001
40
0.625000000000001
40
0.656250000000001
40
0.656250000000001
40
0.664062500000001
40
0.664062500000001
40
0.671875000000001
40
0.671875000000001
40
0.687500000000001
40
0.687500000000001
40
0.718750000000001
40
0.718750000000001
40
0.75
40
0.75
40
0.78125
40
0.78125
40
0.8125
40
0.8125
40
0.84375
40
0.84375
40
0.875
40
0.875
40
0.90625
40
0.90625
40
0.9375
40
0.9375
40
0.96875
40
0.96875
40
1
40
1
40
1
40
1
41
1
10
236.1
20
0.173813299758223
30
0
41
1
10
236.119698104768
20
0.0676273884924683
30
0
41
1
10
236.139396209536
20
-0.0374495961088428
30
0
41
1
10
236.178792419072
20
-0.249558814461949
30
0
41
1
10
236.19849052384
20
-0.35630718938134
30
0
41
1
10
236.257584838143
20
-0.678396399516885
30
0
41
1
10
236.296981047679
20
-0.895587917407681
30
0
41
1
10
236.415169676287
20
-1.55241922583198
30
0
41
1
10
236.493962095359
20
-1.99740524337236
30
0
41
1
10
236.651546933502
20
-2.8877949605972
30
0
41
1
10
236.730339352574
20
-3.33315711064486
30
0
41
1
10
236.887924190717
20
-4.20810236630621
30
0
41
1
10
236.966716609789
20
-4.63762425820207
30
0
41
1
10
237.124301447932
20
-5.46387524531789
30
0
41
1
10
237.203093867004
20
-5.86053519705456
30
0
41
1
10
237.360678705147
20
-6.60523966017189
30
0
41
1
10
237.439471124219
20
-6.95322383088541
30
0
41
1
10
237.597055962362
20
-7.58795447435773
30
0
41
1
10
237.675848381434
20
-7.87466474525885
30
0
41
1
10
237.833433219577
20
-8.37892843328481
30
0
41
1
10
237.912225638649
20
-8.59647734385419
30
0
41
1
10
238.069810476793
20
-8.9598325783808
30
0
41
1
10
238.148602895864
20
-9.10566334051632
30
0
41
1
10
238.306187734008
20
-9.32801099586757
30
0
41
1
10
238.38498015308
20
-9.40457072809232
30
0
41
1
10
238.503168781687
20
-9.47221606207353
30
0
41
1
10
238.542564991223
20
-9.48692537939374
30
0
41
1
10
238.601659305527
20
-9.49801479702825
30
0
41
1
10
238.621357410295
20
-9.49988326871949
30
0
41
1
10
238.660753619831
20
-9.50010612523783
30
0
41
1
10
238.680451724598
20
-9.4984648321396
30
0
41
1
10
238.778942248438
20
-9.48114111385306
30
0
41
1
10
238.85773466751
20
-9.43801051949004
30
0
41
1
10
239.015319505653
20
-9.28541653938791
30
0
41
1
10
239.094111924725
20
-9.17590595597804
30
0
41
1
10
239.251696762868
20
-8.88589337940141
30
0
41
1
10
239.33048918194
20
-8.70535585153647
30
0
41
1
10
239.488074020083
20
-8.27314599707103
30
0
41
1
10
239.566866439155
20
-8.02146230074479
30
0
41
1
10
239.724451277298
20
-7.4520817118856
30
0
41
1
10
239.80324369637
20
-7.1344049600757
30
0
41
1
10
239.960828534514
20
-6.44331392983869
30
0
41
1
10
240.039620953585
20
-6.06994908273245
30
0
41
1
10
240.197205791729
20
-5.28184900017894
30
0
41
1
10
240.2759982108
20
-4.86718053948957
30
0
41
1
10
240.433583048944
20
-4.01313460961532
30
0
41
1
10
240.512375468016
20
-3.57382434674227
30
0
41
1
10
240.669960306159
20
-2.68737374001711
30
0
41
1
10
240.748752725231
20
-2.24028608003047
30
0
41
1
10
240.906337563374
20
-1.35352567126696
30
0
41
1
10
240.985129982446
20
-0.913883115212315
30
0
41
1
10
241.083620506286
20
-0.376679647262989
30
0
41
1
10
241.103318611053
20
-0.269848400912593
30
0
41
1
10
241.142714820589
20
-0.0575638068526416
30
0
41
1
10
241.162412925357
20
0.0475045380130723
30
0
41
1
10
241.221507239661
20
0.36580012657754
30
0
41
1
10
241.260903449197
20
0.580769387945423
30
0
41
1
10
241.379092077804
20
1.23200976224376
30
0
41
1
10
241.457884496876
20
1.6747095444783
30
0
41
1
10
241.615469335019
20
2.56413524973777
30
0
41
1
10
241.694261754091
20
3.01082525251033
30
0
41
1
10
241.851846592235
20
3.89249125866468
30
0
41
1
10
241.930639011306
20
4.3274100185638
30
0
41
1
10
242.088223849449
20
5.16854407490399
30
0
41
1
10
242.167016268521
20
5.57469071278919
30
0
41
1
10
242.324601106665
20
6.34197658990061
30
0
41
1
10
242.403393525737
20
6.70305177588838
30
0
41
1
10
242.56097836388
20
7.36663283135905
30
0
41
1
10
242.639770782952
20
7.66909558598863
30
0
41
1
10
242.797355621095
20
8.20629949248746
30
0
41
1
10
242.876148040166
20
8.44102833353409
30
0
41
1
10
243.03373287831
20
8.83888252352696
30
0
41
1
10
243.112525297382
20
9.00202605569447
30
0
41
1
10
243.270110135525
20
9.2579989790477
30
0
41
1
10
243.348902554597
20
9.35086794767324
30
0
41
1
10
243.50648739274
20
9.47184441818308
30
0
41
1
10
243.585279811812
20
9.5
30
0
41
1
10
243.664072230884
20
9.5
30
0
0
SPLINE
5
E0
100
AcDbEntity
8
1
62
256
6
ByLayer
370
13
48
1
60
0
100
AcDbSpline
70
4
71
3
72
22
73
18
40
0
40
0
40
0
40
0
40
0.125
40
0.125
40
0.25
40
0.25
40
0.375
40
0.375
40
0.5
40
0.5
40
0.625
40
0.625
40
0.75
40
0.75
40
0.875
40
0.875
40
1
40
1
40
1
40
1
41
1
10
244.030275848359
20
9.5
30
0
41
1
10
244.118276136947
20
9.5
30
0
41
1
10
244.206276425535
20
9.46484898593351
30
0
41
1
10
244.382277002711
20
9.31279783279527
30
0
41
1
10
244.470277291299
20
9.19581497471788
30
0
41
1
10
244.646277868475
20
8.87322713499873
30
0
41
1
10
244.734278157063
20
8.66756040349765
30
0
41
1
10
244.910278734239
20
8.16773523571365
30
0
41
1
10
244.998279022827
20
7.87356275723917
30
0
41
1
10
245.174279600003
20
7.2050946709744
30
0
41
1
10
245.262279888591
20
6.83084644125907
30
0
41
1
10
245.438280465767
20
6.01836654669131
30
0
41
1
10
245.526280754355
20
5.58023380472994
30
0
41
1
10
245.702281331531
20
4.66163844677737
30
0
41
1
10
245.790281620119
20
4.18129557604178
30
0
41
1
10
245.966282197295
20
3.20203461821427
30
0
41
1
10
246.054282485883
20
2.70322106534681
30
0
41
1
10
246.142282774471
20
2.20629809614562
30
0
0
SPLINE
5
E1
100
AcDbEntity
8
1
62
256
6
ByLayer
370
13
48
1
60
0
100
AcDbSpline
70
4
71
3
72
78
73
74
40
0
40
0
40
0
40
0
40
0.0312499999999989
40
0.0312499999999989
40
0.0624999999999978
40
0.0624999999999978
40
0.0937499999999968
40
0.0937499999999968
40
0.124999999999996
40
0.124999999999996
40
0.156249999999995
40
0.156249999999995
40
0.187499999999994
40
0.187499999999994
40
0.218749999999992
40
0.218749999999992
40
0.249999999999991
40
0.249999999999991
40
0.28124999999999
40
0.28124999999999
40
0.28906249999999
40
0.28906249999999
40
0.296874999999989
40
0.296874999999989
40
0.312499999999988
40
0.312499999999988
40
0.343749999999987
40
0.343749999999987
40
0.374999999999986
40
0.374999999999986
40
0.406249999999985
40
0.406249999999985
40
0.437499999999984
40
0.437499999999984
40
0.468749999999983
40
0.468749999999983
40
0.499999999999982
40
0.499999999999982
40
0.531249999999981
40
0.531249999999981
40
0.56249999999998
40
0.56249999999998
40
0.593749999999979
40
0.593749999999979
40
0.624999999999978
40
0.624999999999978
40
0.640624999999977
40
0.640624999999977
40
0.648437499999977
40
0.648437499999977
40
0.656249999999978
40
0.656249999999978
40
0.68749999999998
40
0.68749999999998
40
0.718749999999982
40
0.718749999999982
40
0.749999999999984
40
0.749999999999984
40
0.781249999999986
40
0.781249999999986
40
0.812499999999988
40
0.812499999999988
40
0.84374999999999
40
0.84374999999999
40
0.874999999999992
40
0.874999999999992
40
0.906249999999994
40
0.906249999999994
40
0.937499999999996
40
0.937499999999996
40
0.968749999999998
40
0.968749999999998
40
1
40
1
40
1
40
1
41
1
10
236.1
20
-2.57191640183444
30
0
41
1
10
236.173629479393
20
-2.98788947158707
30
0
41
1
10
236.247258958786
20
-3.40335228070623
30
0
41
1
10
236.394517917573
20
-4.2200202659252
30
0
41
1
10
236.468147396966
20
-4.62118143841471
30
0
41
1
10
236.615406355752
20
-5.39536900355751
30
0
41
1
10
236.689035835145
20
-5.76834605691977
30
0
41
1
10
236.836294793932
20
-6.47314396500497
30
0
41
1
10
236.909924273325
20
-6.80492057774003
30
0
41
1
10
237.057183232111
20
-7.416597547561
30
0
41
1
10
237.130812711504
20
-7.69646866213066
30
0
41
1
10
237.278071670291
20
-8.19705420024778
30
0
41
1
10
237.351701149684
20
-8.41776011382194
30
0
41
1
10
237.49896010847
20
-8.79675763394732
30
0
41
1
10
237.572589587863
20
-8.95506118108986
30
0
41
1
10
237.71984854665
20
-9.20996084178694
30
0
41
1
10
237.793478026043
20
-9.30658385809539
30
0
41
1
10
237.940736984829
20
-9.44218604960068
30
0
41
1
10
238.014366464222
20
-9.48119910326159
30
0
41
1
10
238.106403313463
20
-9.49798597551569
30
0
41
1
10
238.124810683312
20
-9.49974881147276
30
0
41
1
10
238.161625423009
20
-9.50020119272074
30
0
41
1
10
238.180032792857
20
-9.49889823503264
30
0
41
1
10
238.235254902402
20
-9.49023268438765
30
0
41
1
10
238.272069642098
20
-9.47810782988952
30
0
41
1
10
238.382513861188
20
-9.42139105929556
30
0
41
1
10
238.456143340581
20
-9.35637974756253
30
0
41
1
10
238.603402299367
20
-9.16653252085777
30
0
41
1
10
238.677031778761
20
-9.04166493444393
30
0
41
1
10
238.824290737547
20
-8.72947191348257
30
0
41
1
10
238.89792021694
20
-8.54212558987808
30
0
41
1
10
239.045179175726
20
-8.1060220946425
30
0
41
1
10
239.11880865512
20
-7.85726203888083
30
0
41
1
10
239.266067613906
20
-7.30344058920417
30
0
41
1
10
239.339697093299
20
-6.99839764872283
30
0
41
1
10
239.486956052086
20
-6.3409566679272
30
0
41
1
10
239.560585531479
20
-5.98859585419754
30
0
41
1
10
239.707844490265
20
-5.24845088139313
30
0
41
1
10
239.781473969658
20
-4.86071468161725
30
0
41
1
10
239.928732928444
20
-4.0634229642242
30
0
41
1
10
240.002362407837
20
-3.65391549850719
30
0
41
1
10
240.149621366624
20
-2.82687543933898
30
0
41
1
10
240.223250846017
20
-2.40938157644476
30
0
41
1
10
240.370509804804
20
-1.57901758309478
30
0
41
1
10
240.444139284197
20
-1.16617147349871
30
0
41
1
10
240.554583503286
20
-0.558279444531252
30
0
41
1
10
240.591398242983
20
-0.357526361268526
30
0
41
1
10
240.646620352528
20
-0.0600194673276633
30
0
41
1
10
240.665027722376
20
0.0381883094399029
30
0
41
1
10
240.701842462073
20
0.236348045859955
30
0
41
1
10
240.720249831921
20
0.336034970874721
30
0
41
1
10
240.812286681163
20
0.837183715604908
30
0
41
1
10
240.885916160555
20
1.24688695406806
30
0
41
1
10
241.033175119342
20
2.07402281025415
30
0
41
1
10
241.106804598735
20
2.491435650456
30
0
41
1
10
241.254063557521
20
3.32186203632045
30
0
41
1
10
241.327693036914
20
3.73484047220239
30
0
41
1
10
241.474951995701
20
4.54281521296846
30
0
41
1
10
241.548581475094
20
4.93776517622422
30
0
41
1
10
241.69584043388
20
5.69588855033365
30
0
41
1
10
241.769469913273
20
6.05901291610701
30
0
41
1
10
241.91672887206
20
6.74094665509259
30
0
41
1
10
241.990358351453
20
7.05971495629714
30
0
41
1
10
242.137617310239
20
7.64304771313346
30
0
41
1
10
242.211246789632
20
7.90758816641997
30
0
41
1
10
242.358505748419
20
8.37623398522371
30
0
41
1
10
242.432135227812
20
8.58033660945554
30
0
41
1
10
242.579394186598
20
8.92594483249229
30
0
41
1
10
242.653023665991
20
9.06746708798718
30
0
41
1
10
242.800282624778
20
9.28960053487003
30
0
41
1
10
242.873912104171
20
9.37024131420728
30
0
41
1
10
243.021171062957
20
9.4754238492153
30
0
41
1
10
243.09480054235
20
9.5
30
0
41
1
10
243.168430021743
20
9.5
30
0
0
SPLINE
5
E2
100
AcDbEntity
8
1
62
256
6
ByLayer
370
13
48
1
60
0
100
AcDbSpline
70
4
71
3
72
42
73
38
40
0
40
0
40
0
40
0
40
0.0625000000000004
40
0.0625000000000004
40
0.125000000000001
40
0.125000000000001
40
0.187500000000001
40
0.187500000000001
40
0.250000000000002
40
0.250000000000002
40
0.312500000000002
40
0.312500000000002
40
0.375000000000002
40
0.375000000000002
40
0.437500000000003
40
0.437500000000003
40
0.500000000000003
40
0.500000000000003
40
0.562500000000003
40
0.562500000000003
40
0.625000000000004
40
0.625000000000004
40
0.687500000000004
40
0.687500000000004
40
0.750000000000004
40
0.750000000000004
40
0.812500000000005
40
0.812500000000005
40
0.875000000000005
40
0.875000000000005
40
0.937500000000006
40
0.937500000000006
40
0.953125000000005
40
0.953125000000005
40
0.968750000000004
40
0.968750000000004
40
1
40
1
40
1
40
1
41
1
10
243.534633639219
20
9.5
30
0
41
1
10
243.58895966287
20
9.5
30
0
41
1
10
243.643285686521
20
9.48663780916121
30
0
41
1
10
243.751937733823
20
9.43034056125825
30
0
41
1
10
243.806263757474
20
9.38739795032009
30
0
41
1
10
243.914915804776
20
9.26962585855176
30
0
41
1
10
243.969241828427
20
9.19478910096956
30
0
41
1
10
244.07789387573
20
9.0116890084409
30
0
41
1
10
244.132219899381
20
8.9034196203657
30
0
41
1
10
244.240871946683
20
8.65289261739312
30
0
41
1
10
244.295197970334
20
8.51063115122713
30
0
41
1
10
244.403850017636
20
8.19268872539138
30
0
41
1
10
244.458176041287
20
8.01700692719123
30
0
41
1
10
244.566828088589
20
7.63399619531873
30
0
41
1
10
244.621154112241
20
7.42666987490077
30
0
41
1
10
244.729806159543
20
6.98332072139502
30
0
41
1
10
244.784132183194
20
6.74730387520401
30
0
41
1
10
244.892784230496
20
6.25057270690729
30
0
41
1
10
244.947110254147
20
5.98986712018976
30
0
41
1
10
245.055762301449
20
5.44858214509765
30
0
41
1
10
245.1100883251
20
5.1680131758493
30
0
41
1
10
245.218740372402
20
4.59235794071085
30
0
41
1
10
245.273066396054
20
4.29728249120402
30
0
41
1
10
245.381718443356
20
3.69817998978357
30
0
41
1
10
245.436044467007
20
3.3941629052822
30
0
41
1
10
245.544696514309
20
2.78263555466793
30
0
41
1
10
245.59902253796
20
2.47513342893981
30
0
41
1
10
245.707674585262
20
1.86171204469198
30
0
41
1
10
245.762000608913
20
1.55579852514583
30
0
41
1
10
245.870652656215
20
0.950038006080035
30
0
41
1
10
245.924978679867
20
0.650194196986604
30
0
41
1
10
245.992886209431
20
0.281529210939595
30
0
41
1
10
246.006467715343
20
0.208101328054226
30
0
41
1
10
246.033630727169
20
0.0619068135892746
30
0
41
1
10
246.047212233082
20
-0.0106345743311067
30
0
41
1
10
246.08795675082
20
-0.229456724282954
30
0
41
1
10
246.115119762645
20
-0.376685261860302
30
0
41
1
10
246.142282774471
20
-0.525053555360074
30
0
0
SPLINE
5
E3
100
AcDbEntity
8
1
62
256
6
ByLayer
370
13
48
1
60
0
100
AcDbSpline
70
4
71
3
72
79
73
75
40
0
40
0
40
0
40
0
40
0.031250000000002
40
0.031250000000002
40
0.0625000000000039
40
0.0625000000000039
40
0.0937500000000059
40
0.0937500000000059
40
0.125000000000008
40
0.125000000000008
40
0.15625000000001
40
0.15625000000001
40
0.187500000000012
40
0.187500000000012
40
0.218750000000014
40
0.218750000000014
40
0.234375000000015
40
0.234375000000015
40
0.238281250000015
40
0.238281250000015
40
0.242187500000015
40
0.250000000000016
40
0.250000000000016
40
0.281250000000015
40
0.281250000000015
40
0.312500000000015
40
0.312500000000015
40
0.343750000000014
40
0.343750000000014
40
0.375000000000013
40
0.375000000000013
40
0.406250000000013
40
0.406250000000013
40
0.437500000000012
40
0.437500000000012
40
0.468750000000012
40
0.468750000000012
40
0.500000000000011
40
0.500000000000011
40
0.53125000000001
40
0.53125000000001
40
0.56250000000001
40
0.56250000000001
40
0.593750000000009
40
0.593750000000009
40
0.609375000000009
40
0.609375000000009
40
0.617187500000009
40
0.617187500000009
40
0.625000000000008
40
0.625000000000008
40
0.656250000000008
40
0.656250000000008
40
0.687500000000007
40
0.687500000000007
40
0.718750000000006
40
0.718750000000006
40
0.750000000000006
40
0.750000000000006
40
0.781250000000005
40
0.781250000000005
40
0.812500000000004
40
0.812500000000004
40
0.843750000000004
40
0.843750000000004
40
0.875000000000003
40
0.875000000000003
40
0.906250000000002
40
0.906250000000002
40
0.937500000000001
40
0.937500000000001
40
0.968750000000001
40
0.968750000000001
40
1
40
1
40
1
40
1
41
1
10
236.1
20
-5.2888569345692
30
0
41
1
10
236.168466539715
20
-5.64205961767703
30
0
41
1
10
236.236933079429
20
-5.98163437987773
30
0
41
1
10
236.373866158858
20
-6.62342833445712
30
0
41
1
10
236.442332698573
20
-6.92561809483215
30
0
41
1
10
236.579265778002
20
-7.48436686712134
30
0
41
1
10
236.647732317717
20
-7.74090690038844
30
0
41
1
10
236.784665397146
20
-8.20272054528945
30
0
41
1
10
236.853131936861
20
-8.40798874621439
30
0
41
1
10
236.99006501629
20
-8.76463740116859
30
0
41
1
10
237.058531556005
20
-8.91602571105457
30
0
41
1
10
237.195464635434
20
-9.16526652141286
30
0
41
1
10
237.263931175149
20
-9.26313690460452
30
0
41
1
10
237.400864254578
20
-9.40826618444257
30
0
41
1
10
237.469330794292
20
-9.45554822533134
30
0
41
1
10
237.572030603864
20
-9.49215926372133
30
0
41
1
10
237.606263873722
20
-9.49865713097478
30
0
41
1
10
237.649055461043
20
-9.50010091150779
30
0
41
1
10
237.657613778508
20
-9.50005754897768
30
0
41
1
10
237.674730413436
20
-9.49930426548238
30
0
41
1
10
237.700405365829
20
-9.49717075561753
30
0
41
1
10
237.726080318222
20
-9.49197349028515
30
0
41
1
10
237.811663492866
20
-9.4676145395228
30
0
41
1
10
237.88013003258
20
-9.42555968255579
30
0
41
1
10
238.017063112009
20
-9.29133206356278
30
0
41
1
10
238.085529651724
20
-9.19913588311229
30
0
41
1
10
238.222462731153
20
-8.96144800059912
30
0
41
1
10
238.290929270868
20
-8.81593760256268
30
0
41
1
10
238.427862350297
20
-8.47094617034455
30
0
41
1
10
238.496328890012
20
-8.27145599375996
30
0
41
1
10
238.633261969441
20
-7.82076825232392
30
0
41
1
10
238.701728509155
20
-7.56957458232401
30
0
41
1
10
238.838661588585
20
-7.02077157359744
30
0
41
1
10
238.907128128299
20
-6.72317983254973
30
0
41
1
10
239.044061207729
20
-6.08957779044465
30
0
41
1
10
239.112527747443
20
-5.75359602915617
30
0
41
1
10
239.249460826873
20
-5.05321041630177
30
0
41
1
10
239.317927366587
20
-4.68884055375656
30
0
41
1
10
239.454860446016
20
-3.9427133668801
30
0
41
1
10
239.523326985731
20
-3.56098900882873
30
0
41
1
10
239.66026006516
20
-2.79119618294703
30
0
41
1
10
239.728726604875
20
-2.40315419860335
30
0
41
1
10
239.865659684304
20
-1.63086697491681
30
0
41
1
10
239.934126224019
20
-1.24663863953344
30
0
41
1
10
240.03682603359
20
-0.679577214957135
30
0
41
1
10
240.071059303448
20
-0.492089847175009
30
0
41
1
10
240.122409208234
20
-0.21382779806234
30
0
41
1
10
240.139525843162
20
-0.121567660010811
30
0
41
1
10
240.17375911302
20
0.0618648863733142
30
0
41
1
10
240.190875747948
20
0.15369760124824
30
0
41
1
10
240.276458922591
20
0.616383885366872
30
0
41
1
10
240.344925462306
20
0.994689575211851
30
0
41
1
10
240.481858541735
20
1.76009778248115
30
0
41
1
10
240.55032508145
20
2.14718904938792
30
0
41
1
10
240.687258160879
20
2.92085169015772
30
0
41
1
10
240.755724700594
20
3.30740168343792
30
0
41
1
10
240.892657780023
20
4.06935705719198
30
0
41
1
10
240.961124319738
20
4.4447325222695
30
0
41
1
10
241.098057399167
20
5.17318446488406
30
0
41
1
10
241.166523938882
20
5.52622674358486
30
0
41
1
10
241.303457018311
20
6.19930899257733
30
0
41
1
10
241.371923558025
20
6.5193166133875
30
0
41
1
10
241.508856637455
20
7.11710048824204
30
0
41
1
10
241.577323177169
20
7.3948525321824
30
0
41
1
10
241.714256256599
20
7.90124245245011
30
0
41
1
10
241.782722796313
20
8.12986870094917
30
0
41
1
10
241.919655875743
20
8.5340227047279
30
0
41
1
10
241.988122415457
20
8.70955265335141
30
0
41
1
10
242.125055494886
20
9.00657119653548
30
0
41
1
10
242.193522034601
20
9.12807374111853
30
0
41
1
10
242.33045511403
20
9.31888312936806
30
0
41
1
10
242.398921653745
20
9.3882113900959
30
0
41
1
10
242.535854733174
20
9.47875783647598
30
0
41
1
10
242.604321272889
20
9.5
30
0
41
1
10
242.672787812603
20
9.5
30
0
0
SPLINE
5
E4
100
AcDbEntity
8
1
62
256
6
ByLayer
370
13
48
1
60
0
100
AcDbSpline
70
4
71
3
72
42
73
38
40
0
40
0
40
0
40
0
40
0.0625000000000011
40
0.0625000000000011
40
0.125000000000002
40
0.125000000000002
40
0.187500000000003
40
0.187500000000003
40
0.250000000000004
40
0.250000000000004
40
0.312500000000005
40
0.312500000000005
40
0.375000000000006
40
0.375000000000006
40
0.437500000000007
40
0.437500000000007
40
0.500000000000008
40
0.500000000000008
40
0.562500000000009
40
0.562500000000009
40
0.62500000000001
40
0.62500000000001
40
0.687500000000011
40
0.687500000000011
40
0.750000000000012
40
0.750000000000012
40
0.781250000000014
40
0.781250000000014
40
0.796875000000014
40
0.796875000000014
40
0.812500000000013
40
0.812500000000013
40
0.875000000000009
40
0.875000000000009
40
0.937500000000004
40
0.937500000000004
40
1
40
1
40
1
40
1
41
1
10
243.038991430078
20
9.5
30
0
41
1
10
243.103643333087
20
9.5
30
0
41
1
10
243.168295236095
20
9.48106389627745
30
0
41
1
10
243.297599042111
20
9.40059404794391
30
0
41
1
10
243.362250945119
20
9.33904227833753
30
0
41
1
10
243.491554751136
20
9.16976830709069
30
0
41
1
10
243.556206654144
20
9.06202961298899
30
0
41
1
10
243.68551046016
20
8.79852453600935
30
0
41
1
10
243.750162363168
20
8.64274647248948
30
0
41
1
10
243.879466169185
20
8.28345652054557
30
0
41
1
10
243.944118072193
20
8.0799407967466
30
0
41
1
10
244.073421878209
20
7.62786433321304
30
0
41
1
10
244.138073781218
20
7.37930941367046
30
0
41
1
10
244.267377587234
20
6.8422139257714
30
0
41
1
10
244.332029490242
20
6.55368865487762
30
0
41
1
10
244.461333296258
20
5.94376277035315
30
0
41
1
10
244.525985199267
20
5.62238460067309
30
0
41
1
10
244.655289005283
20
4.95533703932838
30
0
41
1
10
244.719940908291
20
4.60969334186984
30
0
41
1
10
244.849244714308
20
3.90343439931692
30
0
41
1
10
244.913896617316
20
3.54284375884103
30
0
41
1
10
245.043200423332
20
2.81597495770811
30
0
41
1
10
245.10785232634
20
2.44971671082018
30
0
41
1
10
245.237156132357
20
1.72008044496235
30
0
41
1
10
245.301808035365
20
1.35671556805113
30
0
41
1
10
245.398785889877
20
0.819340275700711
30
0
41
1
10
245.431111841381
20
0.641483133425368
30
0
41
1
10
245.479600768637
20
0.377182672912937
30
0
41
1
10
245.495763744389
20
0.289495976721867
30
0
41
1
10
245.528089695893
20
0.115037575760141
30
0
41
1
10
245.544252671645
20
0.0285568473975957
30
0
41
1
10
245.625067550406
20
-0.404999736455352
30
0
41
1
10
245.689719453414
20
-0.759593990233583
30
0
41
1
10
245.81902325943
20
-1.47827430161834
30
0
41
1
10
245.883675162438
20
-1.84235360389027
30
0
41
1
10
246.012978968455
20
-2.57251458941695
30
0
41
1
10
246.077630871463
20
-2.93858232376854
30
0
41
1
10
246.142282774471
20
-3.3013195355187
30
0
0
SPLINE
5
E5
100
AcDbEntity
8
1
62
256
6
ByLayer
370
13
48
1
60
0
100
AcDbSpline
70
4
71
3
72
78
73
74
40
0
40
0
40
0
40
0
40
0.0312500000000001
40
0.0312500000000001
40
0.0625000000000003
40
0.0625000000000003
40
0.0937500000000004
40
0.0937500000000004
40
0.125000000000001
40
0.125000000000001
40
0.156250000000001
40
0.156250000000001
40
0.171875
40
0.171875
40
0.1796875
40
0.1796875
40
0.187499999999999
40
0.187499999999999
40
0.218749999999999
40
0.218749999999999
40
0.249999999999999
40
0.249999999999999
40
0.281249999999999
40
0.281249999999999
40
0.312499999999999
40
0.312499999999999
40
0.343749999999999
40
0.343749999999999
40
0.374999999999999
40
0.374999999999999
40
0.406249999999999
40
0.406249999999999
40
0.437499999999999
40
0.437499999999999
40
0.468749999999999
40
0.468749999999999
40
0.499999999999999
40
0.499999999999999
40
0.531249999999999
40
0.531249999999999
40
0.562499999999999
40
0.562499999999999
40
0.578124999999999
40
0.578124999999999
40
0.585937499999999
40
0.585937499999999
40
0.593749999999999
40
0.593749999999999
40
0.624999999999999
40
0.624999999999999
40
0.656249999999999
40
0.656249999999999
40
0.687499999999999
40
0.687499999999999
40
0.718749999999999
40
0.718749999999999
40
0.749999999999999
40
0.749999999999999
40
0.781249999999999
40
0.781249999999999
40
0.812499999999999
40
0.812499999999999
40
0.843749999999999
40
0.843749999999999
40
0.874999999999999
40
0.874999999999999
40
0.90625
40
0.90625
40
0.9375
40
0.9375
40
0.96875
40
0.96875
40
1
40
1
40
1
40
1
41
1
10
236.1
20
-7.539325853485
30
0
41
1
10
236.163303600036
20
-7.7797595255995
30
0
41
1
10
236.226607200072
20
-7.99954801282976
30
0
41
1
10
236.353214400144
20
-8.39427913838949
30
0
41
1
10
236.41651800018
20
-8.5692212910094
30
0
41
1
10
236.543125200252
20
-8.87291205087271
30
0
41
1
10
236.606428800289
20
-9.00166803501517
30
0
41
1
10
236.733036000361
20
-9.21375670445883
30
0
41
1
10
236.796339600397
20
-9.29710241764187
30
0
41
1
10
236.922946800469
20
-9.42094307759319
30
0
41
1
10
236.986250400505
20
-9.46145387442576
30
0
41
1
10
237.081205800559
20
-9.49302982450286
30
0
41
1
10
237.112857600577
20
-9.49869916101153
30
0
41
1
10
237.160335300604
20
-9.50035089317021
30
0
41
1
10
237.176161200613
20
-9.49977026318305
30
0
41
1
10
237.207813000631
20
-9.49629414918118
30
0
41
1
10
237.22363890064
20
-9.49339530599457
30
0
41
1
10
237.302768400685
20
-9.47291731394824
30
0
41
1
10
237.366072000721
20
-9.43734699705786
30
0
41
1
10
237.492679200794
20
-9.3238007702619
30
0
41
1
10
237.55598280083
20
-9.24580885999762
30
0
41
1
10
237.682590000902
20
-9.04465230139201
30
0
41
1
10
237.745893600938
20
-8.92147412954722
30
0
41
1
10
237.87250080101
20
-8.62892581616791
30
0
41
1
10
237.935804401046
20
-8.45954747589624
30
0
41
1
10
238.062411601118
20
-8.07566433068365
30
0
41
1
10
238.125715201154
20
-7.86115898222846
30
0
41
1
10
238.252322401227
20
-7.3903113479827
30
0
41
1
10
238.315626001263
20
-7.13397719792465
30
0
41
1
10
238.442233201335
20
-6.58487400389006
30
0
41
1
10
238.505536801371
20
-6.29212099896043
30
0
41
1
10
238.632144001443
20
-5.67732717466714
30
0
41
1
10
238.695447601479
20
-5.35530778910979
30
0
41
1
10
238.822054801551
20
-4.69030000868526
30
0
41
1
10
238.885358401587
20
-4.34733485661152
30
0
41
1
10
239.011965601659
20
-3.64924137883125
30
0
41
1
10
239.075269201695
20
-3.29413443212397
30
0
41
1
10
239.201876401767
20
-2.58036700416153
30
0
41
1
10
239.265180001803
20
-2.22172320316221
30
0
41
1
10
239.391787201876
20
-1.50871470347315
30
0
41
1
10
239.455090801912
20
-1.15436052023617
30
0
41
1
10
239.550046201966
20
-0.631021094046588
30
0
41
1
10
239.581698001984
20
-0.457929688127479
30
0
41
1
10
239.629175702011
20
-0.200848887208139
30
0
41
1
10
239.64500160202
20
-0.115580638122566
30
0
41
1
10
239.676653402038
20
0.0540263493748228
30
0
41
1
10
239.692479302047
20
0.138890672593362
30
0
41
1
10
239.771608802092
20
0.566317532651055
30
0
41
1
10
239.834912402128
20
0.915277012493306
30
0
41
1
10
239.9615196022
20
1.62137779299763
30
0
41
1
10
240.024823202236
20
1.97851214074746
30
0
41
1
10
240.151430402309
20
2.69377080833203
30
0
41
1
10
240.214734002345
20
3.05188181737628
30
0
41
1
10
240.341341202417
20
3.76086935051902
30
0
41
1
10
240.404644802453
20
4.11172686169192
30
0
41
1
10
240.531252002525
20
4.79743915563787
30
0
41
1
10
240.594555602561
20
5.13227132384543
30
0
41
1
10
240.721162802633
20
5.77725490314594
30
0
41
1
10
240.784466402669
20
6.08738339518541
30
0
41
1
10
240.911073602742
20
6.67506855049768
30
0
41
1
10
240.974377202778
20
6.95260575196141
30
0
41
1
10
241.10098440285
20
7.46865455534871
30
0
41
1
10
241.164288002886
20
7.70715337583189
30
0
41
1
10
241.290895202958
20
8.14060413741302
30
0
41
1
10
241.354198802994
20
8.33555177346213
30
0
41
1
10
241.480806003066
20
8.67957299356445
30
0
41
1
10
241.544109603102
20
8.82865070507509
30
0
41
1
10
241.670716803174
20
9.08079974457448
30
0
41
1
10
241.73402040321
20
9.18388194827628
30
0
41
1
10
241.860627603282
20
9.34586958491806
30
0
41
1
10
241.923931203318
20
9.40478998182664
30
0
41
1
10
242.050538403391
20
9.48184707582146
30
0
41
1
10
242.113842003427
20
9.5
30
0
41
1
10
242.177145603463
20
9.5
30
0
0
SPLINE
5
E6
100
AcDbEntity
8
1
62
256
6
ByLayer
370
13
48
1
60
0
100
AcDbSpline
70
4
71
3
72
44
73
40
40
0
40
0
40
0
40
0
40
0.0624999999999998
40
0.0624999999999998
40
0.125
40
0.125
40
0.187499999999999
40
0.187499999999999
40
0.249999999999999
40
0.249999999999999
40
0.312499999999999
40
0.312499999999999
40
0.374999999999999
40
0.374999999999999
40
0.437499999999999
40
0.437499999999999
40
0.499999999999999
40
0.499999999999999
40
0.562499999999999
40
0.562499999999999
40
0.624999999999999
40
0.624999999999999
40
0.687499999999999
40
0.687499999999999
40
0.695312499999999
40
0.695312499999999
40
0.703125
40
0.703125
40
0.718749999999999
40
0.718749999999999
40
0.75
40
0.75
40
0.8125
40
0.8125
40
0.875
40
0.875
40
0.9375
40
0.9375
40
1
40
1
40
1
40
1
41
1
10
242.543349220938
20
9.5
30
0
41
1
10
242.618327003303
20
9.5
30
0
41
1
10
242.693304785669
20
9.47451278915281
30
0
41
1
10
242.843260350399
20
9.36531780789034
30
0
41
1
10
242.918238132764
20
9.28157240970924
30
0
41
1
10
243.068193697495
20
9.05084485806466
30
0
41
1
10
243.14317147986
20
8.90383068505599
30
0
41
1
10
243.293127044591
20
8.54492806265915
30
0
41
1
10
243.368104826956
20
8.33302240331207
30
0
41
1
10
243.518060391687
20
7.84685189540713
30
0
41
1
10
243.593038174052
20
7.57259176488725
30
0
41
1
10
243.742993738783
20
6.96859109086412
30
0
41
1
10
243.817971521148
20
6.63887882165594
30
0
41
1
10
243.967927085878
20
5.93472111115776
30
0
41
1
10
244.042904868244
20
5.56032213821601
30
0
41
1
10
244.192860432974
20
4.78025819809278
30
0
41
1
10
244.267838215339
20
4.3746471741857
30
0
41
1
10
244.41779378007
20
3.546795026273
30
0
41
1
10
244.492771562435
20
3.1246033122419
30
0
41
1
10
244.642727127166
20
2.27779848453685
30
0
41
1
10
244.717704909531
20
1.85322120760361
30
0
41
1
10
244.867660474261
20
1.01411729278124
30
0
41
1
10
244.942638256627
20
0.599609164039748
30
0
41
1
10
245.026988261788
20
0.144515824337873
30
0
41
1
10
245.036360484583
20
0.0941040584123698
30
0
41
1
10
245.055104930175
20
-0.0063949641774173
30
0
41
1
10
245.06447715297
20
-0.0565117482609878
30
0
41
1
10
245.092593821357
20
-0.20766261070932
30
0
41
1
10
245.111338266949
20
-0.309065869125419
30
0
41
1
10
245.167571603723
20
-0.614981745688425
30
0
41
1
10
245.205060494905
20
-0.821205907388048
30
0
41
1
10
245.317527168453
20
-1.44490469779882
30
0
41
1
10
245.392504950818
20
-1.86748114272294
30
0
41
1
10
245.542460515549
20
-2.71453967328114
30
0
41
1
10
245.617438297914
20
-3.13899137445981
30
0
41
1
10
245.767393862645
20
-3.97606091215872
30
0
41
1
10
245.84237164501
20
-4.38863296507475
30
0
41
1
10
245.99232720974
20
-5.18729470054063
30
0
41
1
10
246.067304992106
20
-5.57333065921205
30
0
41
1
10
246.142282774471
20
-5.93911007408065
30
0
0
SPLINE
5
E7
100
AcDbEntity
8
1
62
256
6
ByLayer
370
13
48
1
60
0
100
AcDbSpline
70
4
71
3
72
77
73
73
40
0
40
0
40
0
40
0
40
0.0312499999999983
40
0.0312499999999983
40
0.0624999999999967
40
0.0624999999999967
40
0.093749999999995
40
0.093749999999995
40
0.101562499999994
40
0.101562499999994
40
0.109374999999994
40
0.124999999999993
40
0.124999999999993
40
0.156249999999994
40
0.156249999999994
40
0.187499999999994
40
0.187499999999994
40
0.218749999999994
40
0.218749999999994
40
0.249999999999994
40
0.249999999999994
40
0.281249999999995
40
0.281249999999995
40
0.312499999999995
40
0.312499999999995
40
0.343749999999995
40
0.343749999999995
40
0.374999999999995
40
0.374999999999995
40
0.406249999999996
40
0.406249999999996
40
0.437499999999996
40
0.437499999999996
40
0.468749999999996
40
0.468749999999996
40
0.499999999999996
40
0.499999999999996
40
0.531249999999997
40
0.531249999999997
40
0.546874999999996
40
0.546874999999996
40
0.554687499999996
40
0.554687499999996
40
0.562499999999996
40
0.562499999999996
40
0.593749999999996
40
0.593749999999996
40
0.624999999999996
40
0.624999999999996
40
0.656249999999996
40
0.656249999999996
40
0.687499999999997
40
0.687499999999997
40
0.718749999999997
40
0.718749999999997
40
0.749999999999997
40
0.749999999999997
40
0.781249999999998
40
0.781249999999998
40
0.812499999999998
40
0.812499999999998
40
0.843749999999998
40
0.843749999999998
40
0.874999999999999
40
0.874999999999999
40
0.906249999999999
40
0.906249999999999
40
0.937499999999999
40
0.937499999999999
40
0.96875
40
0.96875
40
1
40
1
40
1
40
1
41
1
10
236.1
20
-8.97321984143338
30
0
41
1
10
236.158140660358
20
-9.08693591495475
30
0
41
1
10
236.216281320715
20
-9.18128668556912
30
0
41
1
10
236.33256264143
20
-9.33267120279064
30
0
41
1
10
236.390703301788
20
-9.38971468616509
30
0
41
1
10
236.506984622503
20
-9.4690351791829
30
0
41
1
10
236.56512528286
20
-9.49132279731055
30
0
41
1
10
236.637801108307
20
-9.49955434840768
30
0
41
1
10
236.652336273396
20
-9.50022190125432
30
0
41
1
10
236.681406603575
20
-9.49965017439857
30
0
41
1
10
236.725012098843
20
-9.49591401888532
30
0
41
1
10
236.768617594112
20
-9.48328078424024
30
0
41
1
10
236.855828584648
20
-9.44550322544717
30
0
41
1
10
236.913969245005
20
-9.40360969582264
30
0
41
1
10
237.03025056572
20
-9.28349139285297
30
0
41
1
10
237.088391226078
20
-9.20525632799445
30
0
41
1
10
237.204672546793
20
-9.01050989461211
30
0
41
1
10
237.26281320715
20
-8.89398999649302
30
0
41
1
10
237.379094527866
20
-8.62200753907518
30
0
41
1
10
237.437235188223
20
-8.46653978060715
30
0
41
1
10
237.553516508938
20
-8.11748589783465
30
0
41
1
10
237.611657169296
20
-7.92389917840441
30
0
41
1
10
237.727938490011
20
-7.50101371916713
30
0
41
1
10
237.786079150368
20
-7.27171959695474
30
0
41
1
10
237.902360471083
20
-6.78134895704244
30
0
41
1
10
237.960501131441
20
-6.52028197039647
30
0
41
1
10
238.076782452156
20
-5.97160417210458
30
0
41
1
10
238.134923112513
20
-5.68400659211812
30
0
41
1
10
238.251204433229
20
-5.08846814996713
30
0
41
1
10
238.309345093586
20
-4.78054235123858
30
0
41
1
10
238.425626414301
20
-4.15107783394058
30
0
41
1
10
238.483767074659
20
-3.82955392574618
30
0
41
1
10
238.600048395374
20
-3.17969716161247
30
0
41
1
10
238.658189055731
20
-2.85137703138994
30
0
41
1
10
238.774470376446
20
-2.1943856561123
30
0
41
1
10
238.832611036804
20
-1.86572381978189
30
0
41
1
10
238.948892357519
20
-1.21382456909728
30
0
41
1
10
239.007033017876
20
-0.890592750397673
30
0
41
1
10
239.094244008412
20
-0.413463533381844
30
0
41
1
10
239.123314338591
20
-0.255699283351248
30
0
41
1
10
239.16691983386
20
-0.0213556140146238
30
0
41
1
10
239.181454998949
20
0.0562502549924488
30
0
41
1
10
239.210525329128
20
0.212706789414682
30
0
41
1
10
239.225060494217
20
0.291313833085212
30
0
41
1
10
239.297736319664
20
0.686086267627189
30
0
41
1
10
239.355876980022
20
1.00750250880085
30
0
41
1
10
239.472158300737
20
1.65688563595563
30
0
41
1
10
239.530298961094
20
1.98484773442189
30
0
41
1
10
239.646580281809
20
2.64173292521281
30
0
41
1
10
239.704720942167
20
2.97064740307013
30
0
41
1
10
239.821002262882
20
3.62310692805784
30
0
41
1
10
239.879142923239
20
3.94663987610619
30
0
41
1
10
239.995424243954
20
4.58157789543642
30
0
41
1
10
240.053564904312
20
4.89296846267052
30
0
41
1
10
240.169846225027
20
5.49683923795055
30
0
41
1
10
240.227986885384
20
5.78930426371673
30
0
41
1
10
240.344268206099
20
6.34896999012966
30
0
41
1
10
240.402408866457
20
6.61615689838049
30
0
41
1
10
240.518690187172
20
7.11978375332632
30
0
41
1
10
240.576830847529
20
7.35621325266601
30
0
41
1
10
240.693112168245
20
7.79408485619194
30
0
41
1
10
240.751252828602
20
7.99552124006408
30
0
41
1
10
240.867534149317
20
8.36065554639427
30
0
41
1
10
240.925674809675
20
8.52435297791308
30
0
41
1
10
241.04195613039
20
8.81284189366588
30
0
41
1
10
241.100096790747
20
8.93763768718458
30
0
41
1
10
241.216378111462
20
9.14867964520812
30
0
41
1
10
241.27451877182
20
9.23493375825944
30
0
41
1
10
241.390800092535
20
9.37058354434234
30
0
41
1
10
241.448940752892
20
9.41998926689078
30
0
41
1
10
241.565222073607
20
9.48469219000748
30
0
41
1
10
241.623362733965
20
9.5
30
0
41
1
10
241.681503394322
20
9.5
30
0
0
SPLINE
5
E8
100
AcDbEntity
8
1
62
256
6
ByLayer
370
13
48
1
60
0
100
AcDbSpline
70
4
71
3
72
44
73
40
40
0
40
0
40
0
40
0
40
0.0624999999999995
40
0.0624999999999995
40
0.124999999999999
40
0.124999999999999
40
0.187499999999999
40
0.187499999999999
40
0.249999999999998
40
0.249999999999998
40
0.312499999999998
40
0.312499999999998
40
0.374999999999997
40
0.374999999999997
40
0.437499999999997
40
0.437499999999997
40
0.499999999999996
40
0.499999999999996
40
0.562499999999996
40
0.562499999999996
40
0.593749999999995
40
0.593749999999995
40
0.609374999999995
40
0.609374999999995
40
0.617187499999995
40
0.617187499999995
40
0.624999999999995
40
0.624999999999995
40
0.687499999999996
40
0.687499999999996
40
0.749999999999997
40
0.749999999999997
40
0.812499999999997
40
0.812499999999997
40
0.874999999999998
40
0.874999999999998
40
0.937499999999999
40
0.937499999999999
40
1
40
1
40
1
40
1
41
1
10
242.047707011798
20
9.5
30
0
41
1
10
242.13301067352
20
9.5
30
0
41
1
10
242.218314335243
20
9.46697905263866
30
0
41
1
10
242.388921658687
20
9.32441671236734
30
0
41
1
10
242.47422532041
20
9.2148042831968
30
0
41
1
10
242.644832643854
20
8.91255695725494
30
0
41
1
10
242.730136305577
20
8.71986733602853
30
0
41
1
10
242.900743629021
20
8.25104531612419
30
0
41
1
10
242.986047290744
20
7.9748963544771
30
0
41
1
10
243.156654614188
20
7.34596738549877
30
0
41
1
10
243.241958275911
20
6.9932215175084
30
0
41
1
10
243.412565599356
20
6.22491260329201
30
0
41
1
10
243.497869261078
20
5.80942891367172
30
0
41
1
10
243.668476584523
20
4.93471725810281
30
0
41
1
10
243.753780246245
20
4.47559099988393
30
0
41
1
10
243.92438756969
20
3.53510884326209
30
0
41
1
10
244.009691231412
20
3.05384754260601
30
0
41
1
10
244.180298554857
20
2.08999377121234
30
0
41
1
10
244.265602216579
20
1.60746631593165
30
0
41
1
10
244.393557709163
20
0.896036366239315
30
0
41
1
10
244.436209540024
20
0.660923129541402
30
0
41
1
10
244.500187286316
20
0.312653141087907
30
0
41
1
10
244.521513201746
20
0.197294188548142
30
0
41
1
10
244.553502074892
20
0.0255008908396803
30
0
41
1
10
244.564165032607
20
-0.0314575100915988
30
0
41
1
10
244.585490948038
20
-0.146015167308377
30
0
41
1
10
244.596153905753
20
-0.203500961283794
30
0
41
1
10
244.692120525191
20
-0.722626820232733
30
0
41
1
10
244.777424186913
20
-1.19673228294746
30
0
41
1
10
244.948031510358
20
-2.15522921021409
30
0
41
1
10
245.033335172081
20
-2.63957896363348
30
0
41
1
10
245.203942495525
20
-3.59942571148582
30
0
41
1
10
245.289246157248
20
-4.07484469041478
30
0
41
1
10
245.459853480692
20
-4.99540502978803
30
0
41
1
10
245.545157142415
20
-5.44044581221175
30
0
41
1
10
245.715764465859
20
-6.27928636004881
30
0
41
1
10
245.801068127582
20
-6.67298947004537
30
0
41
1
10
245.971675451026
20
-7.39172240682211
30
0
41
1
10
246.056979112749
20
-7.71668812922542
30
0
41
1
10
246.142282774471
20
-8.00162524027493
30
0
0
SPLINE
5
E9
100
AcDbEntity
8
1
62
256
6
ByLayer
370
13
48
1
60
0
100
AcDbSpline
70
4
71
3
72
77
73
73
40
0
40
0
40
0
40
0
40
0.0078125000000002
40
0.0078125000000002
40
0.0156250000000005
40
0.0156250000000005
40
0.031250000000001
40
0.031250000000001
40
0.0625000000000009
40
0.0625000000000009
40
0.0937500000000008
40
0.0937500000000008
40
0.125000000000001
40
0.125000000000001
40
0.156250000000001
40
0.156250000000001
40
0.187500000000001
40
0.187500000000001
40
0.21875
40
0.21875
40
0.25
40
0.25
40
0.28125
40
0.28125
40
0.3125
40
0.3125
40
0.34375
40
0.34375
40
0.375
40
0.375
40
0.40625
40
0.40625
40
0.4375
40
0.4375
40
0.46875
40
0.46875
40
0.5
40
0.5
40
0.5078125
40
0.5078125
40
0.515625
40
0.531250000000001
40
0.531250000000001
40
0.5625
40
0.5625
40
0.59375
40
0.59375
40
0.625
40
0.625
40
0.65625
40
0.65625
40
0.6875
40
0.6875
40
0.71875
40
0.71875
40
0.75
40
0.75
40
0.78125
40
0.78125
40
0.8125
40
0.8125
40
0.84375
40
0.84375
40
0.875
40
0.875
40
0.90625
40
0.90625
40
0.9375
40
0.9375
40
0.96875
40
0.96875
40
1
40
1
40
1
40
1
41
1
10
236.1
20
-9.49359248464728
30
0
41
1
10
236.11324443017
20
-9.49623404696638
30
0
41
1
10
236.126488860339
20
-9.49804728230865
30
0
41
1
10
236.152977720679
20
-9.50005979087072
30
0
41
1
10
236.166222150849
20
-9.50026289193684
30
0
41
1
10
236.205955441358
20
-9.49848752178082
30
0
41
1
10
236.232444301697
20
-9.49409775583251
30
0
41
1
10
236.311910882716
20
-9.47080180906809
30
0
41
1
10
236.364888603395
20
-9.44175241932834
30
0
41
1
10
236.470844044753
20
-9.35423672044621
30
0
41
1
10
236.523821765432
20
-9.29576378671038
30
0
41
1
10
236.62977720679
20
-9.14761853626138
30
0
41
1
10
236.682754927469
20
-9.05794026077308
30
0
41
1
10
236.788710368827
20
-8.84640368755041
30
0
41
1
10
236.841688089506
20
-8.72454092446722
30
0
41
1
10
236.947643530864
20
-8.44861618039755
30
0
41
1
10
237.000621251543
20
-8.29455200072977
30
0
41
1
10
237.106576692901
20
-7.95526951622097
30
0
41
1
10
237.15955441358
20
-7.77005183080411
30
0
41
1
10
237.265509854938
20
-7.37059725904336
30
0
41
1
10
237.318487575617
20
-7.15636399223797
30
0
41
1
10
237.424443016975
20
-6.70203972328054
30
0
41
1
10
237.477420737653
20
-6.4619550745301
30
0
41
1
10
237.583376179012
20
-5.9599649704243
30
0
41
1
10
237.636353899691
20
-5.69806791106419
30
0
41
1
10
237.742309341049
20
-5.15714107145405
30
0
41
1
10
237.795287061727
20
-4.87812073990153
30
0
41
1
10
237.901242503085
20
-4.30801486258591
30
0
41
1
10
237.954220223764
20
-4.01693872481266
30
0
41
1
10
238.060175665122
20
-3.42788104642384
30
0
41
1
10
238.113153385801
20
-3.12990788292569
30
0
41
1
10
238.219108827159
20
-2.53203781285205
30
0
41
1
10
238.272086547838
20
-2.2321475272596
30
0
41
1
10
238.378041989196
20
-1.63501922100357
30
0
41
1
10
238.431019709875
20
-1.33778568581693
30
0
41
1
10
238.536975151233
20
-0.749973493928508
30
0
41
1
10
238.589952871912
20
-0.459397148856994
30
0
41
1
10
238.656175022761
20
-0.102415645777398
30
0
41
1
10
238.669419452931
20
-0.0315055577259216
30
0
41
1
10
238.69590831327
20
0.110488863838242
30
0
41
1
10
238.735641603779
20
0.324453427615993
30
0
41
1
10
238.775374894289
20
0.541134459961569
30
0
41
1
10
238.854841475307
20
0.977516544850545
30
0
41
1
10
238.907819195986
20
1.27248537653878
30
0
41
1
10
239.013774637344
20
1.86678886004157
30
0
41
1
10
239.066752358023
20
2.16611992440391
30
0
41
1
10
239.172707799381
20
2.76479319834891
30
0
41
1
10
239.22568552006
20
3.06412963103412
30
0
41
1
10
239.331640961418
20
3.65797673896407
30
0
41
1
10
239.384618682097
20
3.95247968341178
30
0
41
1
10
239.490574123455
20
4.53154456646783
30
0
41
1
10
239.543551844134
20
4.81609740949281
30
0
41
1
10
239.649507285492
20
5.3701235355187
30
0
41
1
10
239.702485006171
20
5.63958725586792
30
0
41
1
10
239.808440447529
20
6.15855690923078
30
0
41
1
10
239.861418168208
20
6.40805388742089
30
0
41
1
10
239.967373609566
20
6.8827542010668
30
0
41
1
10
240.020351330245
20
7.1079502471799
30
0
41
1
10
240.126306771602
20
7.53050288469154
30
0
41
1
10
240.179284492282
20
7.72785468536216
30
0
41
1
10
240.28523993364
20
8.09214720983218
30
0
41
1
10
240.338217654318
20
8.25908608987254
30
0
41
1
10
240.444173095676
20
8.56105618814644
30
0
41
1
10
240.497150816355
20
8.69608850592687
30
0
41
1
10
240.603106257713
20
8.93383465075351
30
0
41
1
10
240.656083978393
20
9.03655210469739
30
0
41
1
10
240.76203941975
20
9.21027058512291
30
0
41
1
10
240.815017140429
20
9.2812770627045
30
0
41
1
10
240.920972581787
20
9.39304943477029
30
0
41
1
10
240.973950302466
20
9.43382177963898
30
0
41
1
10
241.079905743824
20
9.48729373222153
30
0
41
1
10
241.132883464503
20
9.5
30
0
41
1
10
241.185861185182
20
9.5
30
0
0
SPLINE
5
EA
100
AcDbEntity
8
1
62
256
6
ByLayer
370
13
48
1
60
0
100
AcDbSpline
70
4
71
3
72
42
73
38
40
0
40
0
40
0
40
0
40
0.0624999999999999
40
0.0624999999999999
40
0.125
40
0.125
40
0.1875
40
0.1875
40
0.25
40
0.25
40
0.3125
40
0.3125
40
0.375
40
0.375
40
0.437499999999999
40
0.437499999999999
40
0.499999999999999
40
0.499999999999999
40
0.531249999999999
40
0.531249999999999
40
0.546874999999999
40
0.546874999999999
40
0.562499999999999
40
0.562499999999999
40
0.624999999999999
40
0.624999999999999
40
0.687499999999999
40
0.687499999999999
40
0.749999999999999
40
0.749999999999999
40
0.8125
40
0.8125
40
0.875
40
0.875
40
0.9375
40
0.9375
40
1
40
1
40
1
40
1
41
1
10
241.552064802658
20
9.5
30
0
41
1
10
241.647694343737
20
9.5
30
0
41
1
10
241.743323884816
20
9.45845601161841
30
0
41
1
10
241.934582966975
20
9.27780185284527
30
0
41
1
10
242.030212508055
20
9.13856775097904
30
0
41
1
10
242.221471590214
20
8.754709003004
30
0
41
1
10
242.317101131293
20
8.5100010216895
30
0
41
1
10
242.508360213452
20
7.91756022902905
30
0
41
1
10
242.603989754531
20
7.56982975034848
30
0
41
1
10
242.79524883669
20
6.78527244480321
30
0
41
1
10
242.89087837777
20
6.34854788441507
30
0
41
1
10
243.082137459929
20
5.40993618972655
30
0
41
1
10
243.177767001008
20
4.90821902169304
30
0
41
1
10
243.369026083167
20
3.86931031276788
30
0
41
1
10
243.464655624246
20
3.33229399504069
30
0
41
1
10
243.655914706405
20
2.25279904174229
30
0
41
1
10
243.751544247485
20
1.71044489020778
30
0
41
1
10
243.894988559104
20
0.912052367427293
30
0
41
1
10
243.942803329644
20
0.648398874326034
30
0
41
1
10
244.014525485453
20
0.258544041863786
30
0
41
1
10
244.038432870723
20
0.129526418350395
30
0
41
1
10
244.086247641263
20
-0.126366421049283
30
0
41
1
10
244.110155026533
20
-0.255349968301857
30
0
41
1
10
244.229691952882
20
-0.905031180692504
30
0
41
1
10
244.325321493962
20
-1.44001705207185
30
0
41
1
10
244.516580576121
20
-2.51834659291492
30
0
41
1
10
244.6122101172
20
-3.06160225492937
30
0
41
1
10
244.803469199359
20
-4.12830740614797
30
0
41
1
10
244.899098740438
20
-4.65160189433348
30
0
41
1
10
245.090357822597
20
-5.64791171402175
30
0
41
1
10
245.185987363677
20
-6.12074614955549
30
0
41
1
10
245.377246445836
20
-6.98858584640496
30
0
41
1
10
245.472875986915
20
-7.38344817518481
30
0
41
1
10
245.664135069074
20
-8.07582712716271
30
0
41
1
10
245.759764610153
20
-8.37329013778782
30
0
41
1
10
245.951023692312
20
-8.86250278213913
30
0
41
1
10
246.046653233392
20
-9.05429711739228
30
0
41
1
10
246.142282774471
20
-9.19468641820743
30
0
0
SPLINE
5
EB
100
AcDbEntity
8
1
62
256
6
ByLayer
370
13
48
1
60
0
100
AcDbSpline
70
4
71
3
72
42
73
38
40
0
40
0
40
0
40
0
40
0.0624999999999975
40
0.0624999999999975
40
0.124999999999995
40
0.124999999999995
40
0.187499999999993
40
0.187499999999993
40
0.24999999999999
40
0.24999999999999
40
0.312499999999988
40
0.312499999999988
40
0.374999999999985
40
0.374999999999985
40
0.437499999999983
40
0.437499999999983
40
0.453124999999982
40
0.453124999999982
40
0.468749999999982
40
0.468749999999982
40
0.499999999999983
40
0.499999999999983
40
0.562499999999985
40
0.562499999999985
40
0.624999999999987
40
0.624999999999987
40
0.687499999999989
40
0.687499999999989
40
0.749999999999991
40
0.749999999999991
40
0.812499999999994
40
0.812499999999994
40
0.874999999999996
40
0.874999999999996
40
0.937499999999998
40
0.937499999999998
40
1
40
1
40
1
40
1
41
1
10
236.1
20
-9.19468789246656
30
0
41
1
10
236.195629562001
20
-9.05429891791496
30
0
41
1
10
236.291259124002
20
-8.86250490001638
30
0
41
1
10
236.482518248003
20
-8.37329283616046
30
0
41
1
10
236.578147810004
20
-8.07583008834229
30
0
41
1
10
236.769406934006
20
-7.38345157598226
30
0
41
1
10
236.865036496007
20
-6.98858942375935
30
0
41
1
10
237.056295620009
20
-6.12074997682731
30
0
41
1
10
237.15192518201
20
-5.64791561461311
30
0
41
1
10
237.343184306011
20
-4.65160584060359
30
0
41
1
10
237.438813868012
20
-4.12831132496115
30
0
41
1
10
237.630072992014
20
-3.06160603729921
30
0
41
1
10
237.725702554015
20
-2.51835026659299
30
0
41
1
10
237.916961678016
20
-1.44002045576374
30
0
41
1
10
238.012591240018
20
-0.905034423350457
30
0
41
1
10
238.132128192519
20
-0.25535299526851
30
0
41
1
10
238.156035583019
20
-0.126369371769727
30
0
41
1
10
238.203850364019
20
0.129523490841365
30
0
41
1
10
238.227757754519
20
0.25854112742374
30
0
41
1
10
238.29947992602
20
0.648396003547646
30
0
41
1
10
238.347294707021
20
0.912049531712483
30
0
41
1
10
238.490739050022
20
1.71044217753035
30
0
41
1
10
238.586368612023
20
2.25279643519232
30
0
41
1
10
238.777627736024
20
3.33229164207751
30
0
41
1
10
238.873257298025
20
3.86930810723342
30
0
41
1
10
239.064516422027
20
4.90821713604322
30
0
41
1
10
239.160145984028
20
5.40993447637746
30
0
41
1
10
239.35140510803
20
6.34854651758212
30
0
41
1
10
239.447034670031
20
6.78527125195887
30
0
41
1
10
239.638293794032
20
7.5698288834875
30
0
41
1
10
239.733923356033
20
7.91755951397173
30
0
41
1
10
239.925182480035
20
8.51000057024172
30
0
41
1
10
240.020812042036
20
8.75470866329349
30
0
41
1
10
240.212071166037
20
9.13856758681561
30
0
41
1
10
240.307700728038
20
9.2778017525531
30
0
41
1
10
240.49895985204
20
9.45845599334237
30
0
41
1
10
240.594589414041
20
9.5
30
0
41
1
10
240.690218976042
20
9.5
30
0
0
SPLINE
5
EC
100
AcDbEntity
8
1
62
256
6
ByLayer
370
13
48
1
60
0
100
AcDbSpline
70
4
71
3
72
78
73
74
40
0
40
0
40
0
40
0
40
0.0312499999999983
40
0.0312499999999983
40
0.0624999999999966
40
0.0624999999999966
40
0.0937499999999949
40
0.0937499999999949
40
0.124999999999993
40
0.124999999999993
40
0.156249999999991
40
0.156249999999991
40
0.18749999999999
40
0.18749999999999
40
0.218749999999988
40
0.218749999999988
40
0.249999999999986
40
0.249999999999986
40
0.281249999999985
40
0.281249999999985
40
0.312499999999983
40
0.312499999999983
40
0.343749999999981
40
0.343749999999981
40
0.37499999999998
40
0.37499999999998
40
0.406249999999978
40
0.406249999999978
40
0.437499999999977
40
0.437499999999977
40
0.468749999999975
40
0.468749999999975
40
0.484374999999974
40
0.484374999999974
40
0.492187499999974
40
0.492187499999974
40
0.499999999999973
40
0.499999999999973
40
0.531249999999975
40
0.531249999999975
40
0.562499999999976
40
0.562499999999976
40
0.593749999999978
40
0.593749999999978
40
0.62499999999998
40
0.62499999999998
40
0.656249999999981
40
0.656249999999981
40
0.687499999999983
40
0.687499999999983
40
0.718749999999985
40
0.718749999999985
40
0.749999999999986
40
0.749999999999986
40
0.781249999999988
40
0.781249999999988
40
0.812499999999989
40
0.812499999999989
40
0.843749999999991
40
0.843749999999991
40
0.874999999999993
40
0.874999999999993
40
0.906249999999995
40
0.906249999999995
40
0.937499999999996
40
0.937499999999996
40
0.968749999999998
40
0.968749999999998
40
0.984374999999999
40
0.984374999999999
40
0.9921875
40
0.9921875
40
1
40
1
40
1
40
1
41
1
10
241.056422593517
20
9.5
30
0
41
1
10
241.109400303736
20
9.5
30
0
41
1
10
241.162378013954
20
9.48729373724615
30
0
41
1
10
241.26833343439
20
9.43382180628927
30
0
41
1
10
241.321311144608
20
9.39304947802825
30
0
41
1
10
241.427266565045
20
9.28127715186659
30
0
41
1
10
241.480244275263
20
9.21027070358758
30
0
41
1
10
241.5861996957
20
9.03655229494677
30
0
41
1
10
241.639177405918
20
8.93383488348954
30
0
41
1
10
241.745132826355
20
8.69608883652049
30
0
41
1
10
241.798110536573
20
8.56105657411283
30
0
41
1
10
241.90406595701
20
8.25908659828826
30
0
41
1
10
241.957043667228
20
8.09214778532277
30
0
41
1
10
242.062999087664
20
7.72785540463573
30
0
41
1
10
242.115976797882
20
7.53050368066783
30
0
41
1
10
242.221932218319
20
7.10795120334041
30
0
41
1
10
242.274909928537
20
6.88275524070025
30
0
41
1
10
242.380865348974
20
6.40805509735307
30
0
41
1
10
242.433843059192
20
6.15855820597824
30
0
41
1
10
242.539798479629
20
5.63958872589413
30
0
41
1
10
242.592776189847
20
5.37012509199749
30
0
41
1
10
242.698731610284
20
4.81609913486923
30
0
41
1
10
242.751709320502
20
4.5315463742798
30
0
41
1
10
242.857664740938
20
3.95248164879342
30
0
41
1
10
242.910642451156
20
3.6579787794729
30
0
41
1
10
243.016597871593
20
3.06413181181421
30
0
41
1
10
243.069575581811
20
2.76479544426951
30
0
41
1
10
243.175531002248
20
2.16612228871148
30
0
41
1
10
243.228508712466
20
1.86679127759535
30
0
41
1
10
243.334464132903
20
1.27248788760701
30
0
41
1
10
243.387441843121
20
0.977519096189525
30
0
41
1
10
243.466908408449
20
0.541137061752607
30
0
41
1
10
243.493397263557
20
0.396683055353122
30
0
41
1
10
243.533130546221
20
0.181813252282552
30
0
41
1
10
243.546374973776
20
0.11049150743446
30
0
41
1
10
243.572863828885
20
-0.0315029022351041
30
0
41
1
10
243.58610825644
20
-0.102412960983344
30
0
41
1
10
243.652330394212
20
-0.459394354385893
30
0
41
1
10
243.705308104431
20
-0.749970614427866
30
0
41
1
10
243.811263524867
20
-1.33778264593119
30
0
41
1
10
243.864241235086
20
-1.63501610577154
30
0
41
1
10
243.970196655522
20
-2.23214427557224
30
0
41
1
10
244.02317436574
20
-2.53203450006791
30
0
41
1
10
244.129129786177
20
-3.12990446672401
30
0
41
1
10
244.182107496395
20
-3.42787758791545
30
0
41
1
10
244.288062916832
20
-4.01693520458085
30
0
41
1
10
244.34104062705
20
-4.30801132295136
30
0
41
1
10
244.446996047487
20
-4.87811718761253
30
0
41
1
10
244.499973757705
20
-5.15713752592495
30
0
41
1
10
244.605929178141
20
-5.69806440722076
30
0
41
1
10
244.658906888359
20
-5.95996150151373
30
0
41
1
10
244.764862308796
20
-6.46195170413094
30
0
41
1
10
244.817840019014
20
-6.70203641646094
30
0
41
1
10
244.923795439451
20
-7.15636084003967
30
0
41
1
10
244.976773149669
20
-7.37059419788139
30
0
41
1
10
245.082728570106
20
-7.77004897639395
30
0
41
1
10
245.135706280324
20
-7.95526677751539
30
0
41
1
10
245.241661700761
20
-8.29454951397943
30
0
41
1
10
245.294639410979
20
-8.44861382988321
30
0
41
1
10
245.400594831415
20
-8.72453886188046
30
0
41
1
10
245.453572541633
20
-8.84640177663928
30
0
41
1
10
245.55952796207
20
-9.05793866309071
30
0
41
1
10
245.612505672288
20
-9.1476171001172
30
0
41
1
10
245.718461092725
20
-9.29576267792686
30
0
41
1
10
245.771438802943
20
-9.35423577747304
30
0
41
1
10
245.87739422338
20
-9.44175180706199
30
0
41
1
10
245.930371933598
20
-9.47080136169012
30
0
41
1
10
246.009838498925
20
-9.4940975517286
30
0
41
1
10
246.036327354034
20
-9.49848739809812
30
0
41
1
10
246.076060636698
20
-9.50026288752096
30
0
41
1
10
246.089305064253
20
-9.50005982590122
30
0
41
1
10
246.115793919362
20
-9.49804739867676
30
0
41
1
10
246.129038346916
20
-9.49623420486586
30
0
41
1
10
246.142282774471
20
-9.49359268493606
30
0
0
SPLINE
5
ED
100
AcDbEntity
8
1
62
256
6
ByLayer
370
13
48
1
60
0
100
AcDbSpline
70
4
71
3
72
44
73
40
40
0
40
0
40
0
40
0
40
0.0625000000000051
40
0.0625000000000051
40
0.12500000000001
40
0.12500000000001
40
0.187500000000015
40
0.187500000000015
40
0.250000000000021
40
0.250000000000021
40
0.312500000000026
40
0.312500000000026
40
0.375000000000031
40
0.375000000000031
40
0.38281250000003
40
0.38281250000003
40
0.39062500000003
40
0.39062500000003
40
0.406250000000029
40
0.406250000000029
40
0.437500000000027
40
0.437500000000027
40
0.500000000000024
40
0.500000000000024
40
0.562500000000021
40
0.562500000000021
40
0.625000000000018
40
0.625000000000018
40
0.687500000000015
40
0.687500000000015
40
0.750000000000012
40
0.750000000000012
40
0.812500000000009
40
0.812500000000009
40
0.875000000000006
40
0.875000000000006
40
0.937500000000003
40
0.937500000000003
40
1
40
1
40
1
40
1
41
1
10
236.1
20
-8.00162859466488
30
0
41
1
10
236.185303682644
20
-7.71669172561417
30
0
41
1
10
236.270607365288
20
-7.39172621009348
30
0
41
1
10
236.441214730575
20
-6.67299359915268
30
0
41
1
10
236.526518413219
20
-6.27929060802578
30
0
41
1
10
236.697125778506
20
-5.44045020499877
30
0
41
1
10
236.78242946115
20
-4.99540944856778
30
0
41
1
10
236.953036826438
20
-4.07484907685787
30
0
41
1
10
237.038340509082
20
-3.5994300397567
30
0
41
1
10
237.208947874369
20
-2.63958311013249
30
0
41
1
10
237.294251557013
20
-2.15523323330308
30
0
41
1
10
237.4648589223
20
-1.1967360174732
30
0
41
1
10
237.550162604944
20
-0.72263038975899
30
0
41
1
10
237.646129247919
20
-0.203504334689427
30
0
41
1
10
237.656792208249
20
-0.146018518775122
30
0
41
1
10
237.67811812891
20
-0.0314608174257671
30
0
41
1
10
237.68878108924
20
0.025497598298017
30
0
41
1
10
237.720769970232
20
0.197290914343029
30
0
41
1
10
237.742095890893
20
0.312649880417325
30
0
41
1
10
237.806073652876
20
0.660919913451266
30
0
41
1
10
237.848725494198
20
0.896033185183484
30
0
41
1
10
237.976681018163
20
1.60746325590625
30
0
41
1
10
238.061984700807
20
2.08999081332621
30
0
41
1
10
238.232592066094
20
3.05384482705924
30
0
41
1
10
238.317895748738
20
3.53510626790671
30
0
41
1
10
238.488503114026
20
4.47558873135901
30
0
41
1
10
238.57380679667
20
4.93471515613658
30
0
41
1
10
238.744414161957
20
5.80942715409401
30
0
41
1
10
238.829717844601
20
6.22491101940906
30
0
41
1
10
239.000325209889
20
6.9932202748802
30
0
41
1
10
239.085628892532
20
7.3459663082896
30
0
41
1
10
239.25623625782
20
7.97489558068622
30
0
41
1
10
239.341539940464
20
8.25104468024048
30
0
41
1
10
239.512147305752
20
8.71986693707009
30
0
41
1
10
239.597450988395
20
8.91255665730009
30
0
41
1
10
239.768058353683
20
9.2148041383798
30
0
41
1
10
239.853362036326
20
9.32441662373753
30
0
41
1
10
240.023969401614
20
9.46697903637471
30
0
41
1
10
240.109273084258
20
9.5
30
0
41
1
10
240.194576766902
20
9.5
30
0
0
SPLINE
5
EE
100
AcDbEntity
8
1
62
256
6
ByLayer
370
13
48
1
60
0
100
AcDbSpline
70
4
71
3
72
78
73
74
40
0
40
0
40
0
40
0
40
0.03125
40
0.03125
40
0.0625
40
0.0625
40
0.0937500000000001
40
0.0937500000000001
40
0.125
40
0.125
40
0.15625
40
0.15625
40
0.1875
40
0.1875
40
0.21875
40
0.21875
40
0.25
40
0.25
40
0.28125
40
0.28125
40
0.3125
40
0.3125
40
0.34375
40
0.34375
40
0.375
40
0.375
40
0.40625
40
0.40625
40
0.437499999999999
40
0.437499999999999
40
0.4453125
40
0.4453125
40
0.453125000000001
40
0.453125000000001
40
0.468750000000001
40
0.468750000000001
40
0.500000000000001
40
0.500000000000001
40
0.531250000000001
40
0.531250000000001
40
0.562500000000001
40
0.562500000000001
40
0.593750000000001
40
0.593750000000001
40
0.625000000000001
40
0.625000000000001
40
0.656250000000001
40
0.656250000000001
40
0.687500000000001
40
0.687500000000001
40
0.718750000000001
40
0.718750000000001
40
0.750000000000001
40
0.750000000000001
40
0.78125
40
0.78125
40
0.8125
40
0.8125
40
0.84375
40
0.84375
40
0.875
40
0.875
40
0.890625000000001
40
0.890625000000001
40
0.8984375
40
0.8984375
40
0.90625
40
0.90625
40
0.9375
40
0.9375
40
0.96875
40
0.96875
40
1
40
1
40
1
40
1
41
1
10
240.560780384377
20
9.5
30
0
41
1
10
240.618921034274
20
9.5
30
0
41
1
10
240.677061684171
20
9.48469219552507
30
0
41
1
10
240.793342983964
20
9.41998929629739
30
0
41
1
10
240.851483633861
20
9.37058359212986
30
0
41
1
10
240.967764933655
20
9.23493385690915
30
0
41
1
10
241.025905583551
20
9.14867977634765
30
0
41
1
10
241.142186883345
20
8.93763789778245
30
0
41
1
10
241.200327533242
20
8.81284215123785
30
0
41
1
10
241.316608833036
20
8.52435334320276
30
0
41
1
10
241.374749482932
20
8.36065597242833
30
0
41
1
10
241.491030782726
20
7.99552179945849
30
0
41
1
10
241.549171432623
20
7.7940854881972
30
0
41
1
10
241.665452732416
20
7.35621403873998
30
0
41
1
10
241.723593382313
20
7.11978462084741
30
0
41
1
10
241.839874682107
20
6.61615793373059
30
0
41
1
10
241.898015332004
20
6.34897111184699
30
0
41
1
10
242.014296631797
20
5.78930555869067
30
0
41
1
10
242.072437281694
20
5.49684061979801
30
0
41
1
10
242.188718581488
20
4.89297001434272
30
0
41
1
10
242.246859231384
20
4.58157953004567
30
0
41
1
10
242.363140531178
20
3.94664166865255
30
0
41
1
10
242.421281181075
20
3.62310879559422
30
0
41
1
10
242.537562480869
20
2.97064940943687
30
0
41
1
10
242.595703130765
20
2.64173499541513
30
0
41
1
10
242.711984430559
20
1.98484991896149
30
0
41
1
10
242.770125080456
20
1.65688787099734
30
0
41
1
10
242.886406380249
20
1.00750483042168
30
0
41
1
10
242.944547030146
20
0.686088625329461
30
0
41
1
10
243.017222842517
20
0.291316226825359
30
0
41
1
10
243.031758004992
20
0.212709189911436
30
0
41
1
10
243.06082832994
20
0.05625266810776
30
0
41
1
10
243.075363492414
20
-0.0213531905943114
30
0
41
1
10
243.118968979837
20
-0.255696793780061
30
0
41
1
10
243.148039304785
20
-0.413461000409995
30
0
41
1
10
243.23525027963
20
-0.890590090251578
30
0
41
1
10
243.293390929527
20
-1.213821828194
30
0
41
1
10
243.409672229321
20
-1.86572093075569
30
0
41
1
10
243.467812879218
20
-2.19438269973639
30
0
41
1
10
243.584094179011
20
-2.85137395924048
30
0
41
1
10
243.642234828908
20
-3.17969404105887
30
0
41
1
10
243.758516128702
20
-3.82955073247294
30
0
41
1
10
243.816656778599
20
-4.15107461637245
30
0
41
1
10
243.932938078392
20
-4.78053911334379
30
0
41
1
10
243.991078728289
20
-5.08846491605817
30
0
41
1
10
244.107360028083
20
-5.68400339704297
30
0
41
1
10
244.16550067798
20
-5.97160101188811
30
0
41
1
10
244.281781977773
20
-6.52027891134503
30
0
41
1
10
244.33992262767
20
-6.78134596429845
30
0
41
1
10
244.456203927464
20
-7.27171676665898
30
0
41
1
10
244.51434457736
20
-7.50101098500309
30
0
41
1
10
244.630625877154
20
-7.92389666264174
30
0
41
1
10
244.688766527051
20
-8.11748350432413
30
0
41
1
10
244.805047826844
20
-8.46653765236897
30
0
41
1
10
244.863188476741
20
-8.62200555383492
30
0
41
1
10
244.979469776535
20
-8.89398831158437
30
0
41
1
10
245.037610426432
20
-9.01050836701427
30
0
41
1
10
245.153891726225
20
-9.20525512255372
30
0
41
1
10
245.212032376122
20
-9.28349035223889
30
0
41
1
10
245.328313675916
20
-9.4036089858804
30
0
41
1
10
245.386454325812
20
-9.44550268133614
30
0
41
1
10
245.473665300658
20
-9.48328048534867
30
0
41
1
10
245.502735625606
20
-9.49170272293816
30
0
41
1
10
245.546341113029
20
-9.49840449335551
30
0
41
1
10
245.560876275503
20
-9.49965011699268
30
0
41
1
10
245.589946600451
20
-9.50022192316911
30
0
41
1
10
245.604481762926
20
-9.49955441029178
30
0
41
1
10
245.677157575297
20
-9.49132306516512
30
0
41
1
10
245.735298225193
20
-9.46903562702383
30
0
41
1
10
245.851579524987
20
-9.38971552274734
30
0
41
1
10
245.909720174884
20
-9.33267224813653
30
0
41
1
10
246.026001474678
20
-9.18128817328082
30
0
41
1
10
246.084142124574
20
-9.08693763626817
30
0
41
1
10
246.142282774471
20
-8.97322180558004
30
0
0
SPLINE
5
EF
100
AcDbEntity
8
1
62
256
6
ByLayer
370
13
48
1
60
0
100
AcDbSpline
70
4
71
3
72
44
73
40
40
0
40
0
40
0
40
0
40
0.0625000000000074
40
0.0625000000000074
40
0.125000000000015
40
0.125000000000015
40
0.187500000000022
40
0.187500000000022
40
0.25000000000003
40
0.25000000000003
40
0.281250000000034
40
0.281250000000034
40
0.296875000000036
40
0.296875000000036
40
0.304687500000037
40
0.304687500000037
40
0.312500000000037
40
0.312500000000037
40
0.375000000000034
40
0.375000000000034
40
0.43750000000003
40
0.43750000000003
40
0.500000000000027
40
0.500000000000027
40
0.562500000000024
40
0.562500000000024
40
0.62500000000002
40
0.62500000000002
40
0.687500000000017
40
0.687500000000017
40
0.750000000000013
40
0.750000000000013
40
0.81250000000001
40
0.81250000000001
40
0.875000000000007
40
0.875000000000007
40
0.937500000000003
40
0.937500000000003
40
1
40
1
40
1
40
1
41
1
10
236.1
20
-5.9391149732111
30
0
41
1
10
236.174977803287
20
-5.57333563655362
30
0
41
1
10
236.249955606573
20
-5.18729971534873
30
0
41
1
10
236.399911213147
20
-4.38863797871966
30
0
41
1
10
236.474889016434
20
-3.97606588725952
30
0
41
1
10
236.624844623007
20
-3.1389962093682
30
0
41
1
10
236.699822426294
20
-2.71454440665391
30
0
41
1
10
236.849778032867
20
-1.86748562734886
30
0
41
1
10
236.924755836154
20
-1.44490903531857
30
0
41
1
10
237.037222541084
20
-0.821210003844044
30
0
41
1
10
237.074711442727
20
-0.614985758387036
30
0
41
1
10
237.130944795192
20
-0.309069752700907
30
0
41
1
10
237.149689246014
20
-0.207666450661577
30
0
41
1
10
237.177805922246
20
-0.0565155220958218
30
0
41
1
10
237.187178147657
20
-0.0063987138468633
30
0
41
1
10
237.205922598479
20
0.0941003206707762
30
0
41
1
10
237.21529482389
20
0.144512092847378
30
0
41
1
10
237.299644852587
20
0.599605491411353
30
0
41
1
10
237.374622655874
20
1.01411369113487
30
0
41
1
10
237.524578262447
20
1.85321778507048
30
0
41
1
10
237.599556065734
20
2.27779517015759
30
0
41
1
10
237.749511672307
20
3.12460024684114
30
0
41
1
10
237.824489475594
20
3.54679210168811
30
0
41
1
10
237.974445082167
20
4.3746445547778
30
0
41
1
10
238.049422885454
20
4.78025574299926
30
0
41
1
10
238.199378492027
20
5.56032002234193
30
0
41
1
10
238.274356295314
20
5.93471917011132
30
0
41
1
10
238.424311901888
20
6.63887722597892
30
0
41
1
10
238.499289705174
20
6.96858966564184
30
0
41
1
10
238.649245311747
20
7.57259066204972
30
0
41
1
10
238.724223115034
20
7.84685094442958
30
0
41
1
10
238.874178721608
20
8.33302172638662
30
0
41
1
10
238.949156524895
20
8.54492750789248
30
0
41
1
10
239.099112131468
20
8.90383033850514
30
0
41
1
10
239.174089934754
20
9.05084459757867
30
0
41
1
10
239.324045541328
20
9.28157228390884
30
0
41
1
10
239.399023344615
20
9.36531773074941
30
0
41
1
10
239.548978951188
20
9.47451277488608
30
0
41
1
10
239.623956754475
20
9.5
30
0
41
1
10
239.698934557761
20
9.5
30
0
0
SPLINE
5
F0
100
AcDbEntity
8
1
62
256
6
ByLayer
370
13
48
1
60
0
100
AcDbSpline
70
4
71
3
72
77
73
73
40
0
40
0
40
0
40
0
40
0.0312499999999992
40
0.0312499999999992
40
0.0624999999999985
40
0.0624999999999985
40
0.0937499999999977
40
0.0937499999999977
40
0.124999999999997
40
0.124999999999997
40
0.156249999999996
40
0.156249999999996
40
0.187499999999996
40
0.187499999999996
40
0.218749999999995
40
0.218749999999995
40
0.249999999999994
40
0.249999999999994
40
0.281249999999993
40
0.281249999999993
40
0.312499999999993
40
0.312499999999993
40
0.343749999999992
40
0.343749999999992
40
0.374999999999991
40
0.374999999999991
40
0.406249999999991
40
0.406249999999991
40
0.414062499999991
40
0.414062499999991
40
0.421874999999991
40
0.437499999999991
40
0.437499999999991
40
0.46874999999999
40
0.46874999999999
40
0.49999999999999
40
0.49999999999999
40
0.531249999999989
40
0.531249999999989
40
0.562499999999988
40
0.562499999999988
40
0.593749999999988
40
0.593749999999988
40
0.624999999999987
40
0.624999999999987
40
0.656249999999986
40
0.656249999999986
40
0.687499999999986
40
0.687499999999986
40
0.718749999999985
40
0.718749999999985
40
0.749999999999984
40
0.749999999999984
40
0.781249999999984
40
0.781249999999984
40
0.812499999999983
40
0.812499999999983
40
0.820312499999984
40
0.820312499999984
40
0.828124999999984
40
0.828124999999984
40
0.843749999999985
40
0.843749999999985
40
0.874999999999988
40
0.874999999999988
40
0.906249999999991
40
0.906249999999991
40
0.937499999999994
40
0.937499999999994
40
0.968749999999997
40
0.968749999999997
40
1
40
1
40
1
40
1
41
1
10
240.065138175237
20
9.5
30
0
41
1
10
240.128441764812
20
9.5
30
0
41
1
10
240.191745354387
20
9.48184708183311
30
0
41
1
10
240.318352533538
20
9.40479001401528
30
0
41
1
10
240.381656123113
20
9.34586963728546
30
0
41
1
10
240.508263302264
20
9.18388205651641
30
0
41
1
10
240.571566891839
20
9.08079988852009
30
0
41
1
10
240.69817407099
20
8.82865093613063
30
0
41
1
10
240.761477660566
20
8.6795732760306
30
0
41
1
10
240.888084839716
20
8.33555217317641
30
0
41
1
10
240.951388429292
20
8.14060460296298
30
0
41
1
10
241.077995608442
20
7.70715398467647
30
0
41
1
10
241.141299198018
20
7.46865524164139
30
0
41
1
10
241.267906377168
20
6.95260660062519
30
0
41
1
10
241.331209966744
20
6.67506948406609
30
0
41
1
10
241.457817145894
20
6.08738450099057
30
0
41
1
10
241.52112073547
20
5.77725609626106
30
0
41
1
10
241.647727914621
20
5.13227268868403
30
0
41
1
10
241.711031504196
20
4.79744060486897
30
0
41
1
10
241.837638683347
20
4.11172847187649
30
0
41
1
10
241.900942272922
20
3.76087103724902
30
0
41
1
10
242.027549452073
20
3.05188364538176
30
0
41
1
10
242.090853041648
20
2.69377270105994
30
0
41
1
10
242.217460220799
20
1.97851414842603
30
0
41
1
10
242.280763810374
20
1.62137985090482
30
0
41
1
10
242.407370989525
20
0.915279155095902
30
0
41
1
10
242.4706745791
20
0.566319709727082
30
0
41
1
10
242.549804066069
20
0.138892882928758
30
0
41
1
10
242.565629963463
20
0.0540285553707918
30
0
41
1
10
242.597281758251
20
-0.115578387826474
30
0
41
1
10
242.644759450433
20
-0.371381668959259
30
0
41
1
10
242.692237142614
20
-0.631018713935276
30
0
41
1
10
242.787192526977
20
-1.15435801612946
30
0
41
1
10
242.850496116552
20
-1.50871212177344
30
0
41
1
10
242.977103295703
20
-2.22172048285839
30
0
41
1
10
243.040406885279
20
-2.58036422287114
30
0
41
1
10
243.167014064429
20
-3.29413155192404
30
0
41
1
10
243.230317654005
20
-3.64923846073714
30
0
41
1
10
243.356924833155
20
-4.34733189146547
30
0
41
1
10
243.420228422731
20
-4.69029703440887
30
0
41
1
10
243.546835601881
20
-5.35530482930713
30
0
41
1
10
243.610139191457
20
-5.67732423848801
30
0
41
1
10
243.736746370607
20
-6.29211814435754
30
0
41
1
10
243.800049960183
20
-6.58487120724593
30
0
41
1
10
243.926657139334
20
-7.13397455031807
30
0
41
1
10
243.989960728909
20
-7.39030879144531
30
0
41
1
10
244.11656790806
20
-7.86115663698519
30
0
41
1
10
244.179871497635
20
-8.07566210564215
30
0
41
1
10
244.306478676786
20
-8.45954551419803
30
0
41
1
10
244.369782266361
20
-8.62892399758007
30
0
41
1
10
244.496389445512
20
-8.92147261249065
30
0
41
1
10
244.559693035087
20
-9.04465094272433
30
0
41
1
10
244.686300214238
20
-9.24580782535023
30
0
41
1
10
244.749603803813
20
-9.32379990121925
30
0
41
1
10
244.876210982964
20
-9.43734645886286
30
0
41
1
10
244.939514572539
20
-9.47291694097854
30
0
41
1
10
245.018644059508
20
-9.49339513528986
30
0
41
1
10
245.034469956902
20
-9.49629401871954
30
0
41
1
10
245.06612175169
20
-9.49977021270144
30
0
41
1
10
245.081947649084
20
-9.50035088201824
30
0
41
1
10
245.129425341265
20
-9.49869927010829
30
0
41
1
10
245.161077136053
20
-9.49303001789778
30
0
41
1
10
245.256032520416
20
-9.46145433291954
30
0
41
1
10
245.319336109991
20
-9.42094372918638
30
0
41
1
10
245.445943289142
20
-9.29710348504383
30
0
41
1
10
245.509246878718
20
-9.21375799457678
30
0
41
1
10
245.635854057868
20
-9.001669793979
30
0
41
1
10
245.699157647444
20
-8.8729140559567
30
0
41
1
10
245.825764826594
20
-8.56922380247272
30
0
41
1
10
245.88906841617
20
-8.39428191008375
30
0
41
1
10
246.01567559532
20
-7.99955130733753
30
0
41
1
10
246.078979184896
20
-7.77976308264556
30
0
41
1
10
246.142282774471
20
-7.53932966764691
30
0
0
SPLINE
5
F1
100
AcDbEntity
8
1
62
256
6
ByLayer
370
13
48
1
60
0
100
AcDbSpline
70
4
71
3
72
41
73
37
40
0
40
0
40
0
40
0
40
0.0624999999999944
40
0.0624999999999944
40
0.124999999999989
40
0.124999999999989
40
0.187499999999983
40
0.187499999999983
40
0.203124999999983
40
0.203124999999983
40
0.218749999999983
40
0.249999999999983
40
0.249999999999983
40
0.312499999999984
40
0.312499999999984
40
0.374999999999986
40
0.374999999999986
40
0.437499999999987
40
0.437499999999987
40
0.499999999999989
40
0.499999999999989
40
0.56249999999999
40
0.56249999999999
40
0.624999999999991
40
0.624999999999991
40
0.687499999999993
40
0.687499999999993
40
0.749999999999994
40
0.749999999999994
40
0.812499999999996
40
0.812499999999996
40
0.874999999999997
40
0.874999999999997
40
0.937499999999999
40
0.937499999999999
40
1
40
1
40
1
40
1
41
1
10
236.1
20
-3.30132516986086
30
0
41
1
10
236.16465192393
20
-2.9385878755968
30
0
41
1
10
236.229303847859
20
-2.57252003306209
30
0
41
1
10
236.358607695718
20
-1.84235879288326
30
0
41
1
10
236.423259619648
20
-1.47827934419979
30
0
41
1
10
236.552563467507
20
-0.759598715411528
30
0
41
1
10
236.617215391437
20
-0.405004290683877
30
0
41
1
10
236.698030296349
20
0.0285525142793688
30
0
41
1
10
236.714193277331
20
0.115033243824115
30
0
41
1
10
236.746519239296
20
0.289491671056282
30
0
41
1
10
236.795008182243
20
0.552550299018179
30
0
41
1
10
236.84349712519
20
0.819336063884066
30
0
41
1
10
236.940475011085
20
1.35671147123102
30
0
41
1
10
237.005126935014
20
1.72007644101868
30
0
41
1
10
237.134430782874
20
2.44971292309953
30
0
41
1
10
237.199082706803
20
2.81597129333855
30
0
41
1
10
237.328386554662
20
3.54284036674571
30
0
41
1
10
237.393038478592
20
3.90343115613212
30
0
41
1
10
237.522342326451
20
4.60969041430906
30
0
41
1
10
237.586994250381
20
4.95533427845047
30
0
41
1
10
237.71629809824
20
5.62238218097593
30
0
41
1
10
237.78095002217
20
5.9437605251097
30
0
41
1
10
237.910253870029
20
6.55368675529508
30
0
41
1
10
237.974905793958
20
6.84221219734766
30
0
41
1
10
238.104209641818
20
7.37930801361003
30
0
41
1
10
238.168861565747
20
7.62786309031563
30
0
41
1
10
238.298165413607
20
8.07993984525757
30
0
41
1
10
238.362817337536
20
8.28345570327642
30
0
41
1
10
238.492121185395
20
8.64274589455925
30
0
41
1
10
238.556773109325
20
8.79852406319267
30
0
41
1
10
238.686076957184
20
9.06202931837095
30
0
41
1
10
238.750728881114
20
9.16976808557027
30
0
41
1
10
238.880032728973
20
9.33904217119451
30
0
41
1
10
238.944684652903
20
9.40059398210522
30
0
41
1
10
239.073988500762
20
9.48106388399574
30
0
41
1
10
239.138640424691
20
9.5
30
0
41
1
10
239.203292348621
20
9.5
30
0
0
SPLINE
5
F2
100
AcDbEntity
8
1
62
256
6
ByLayer
370
13
48
1
60
0
100
AcDbSpline
70
4
71
3
72
79
73
75
40
0
40
0
40
0
40
0
40
0.0312499999999999
40
0.0312499999999999
40
0.0624999999999999
40
0.0624999999999999
40
0.0937499999999998
40
0.0937499999999998
40
0.125
40
0.125
40
0.15625
40
0.15625
40
0.1875
40
0.1875
40
0.21875
40
0.21875
40
0.25
40
0.25
40
0.28125
40
0.28125
40
0.3125
40
0.3125
40
0.34375
40
0.34375
40
0.375
40
0.375
40
0.382812499999999
40
0.382812499999999
40
0.390624999999999
40
0.390624999999999
40
0.40625
40
0.40625
40
0.4375
40
0.4375
40
0.46875
40
0.46875
40
0.5
40
0.5
40
0.53125
40
0.53125
40
0.5625
40
0.5625
40
0.59375
40
0.59375
40
0.625
40
0.625
40
0.65625
40
0.65625
40
0.6875
40
0.6875
40
0.71875
40
0.71875
40
0.75
40
0.75
40
0.7578125
40
0.761718749999999
40
0.761718749999999
40
0.765624999999999
40
0.765624999999999
40
0.781249999999999
40
0.781249999999999
40
0.812499999999999
40
0.812499999999999
40
0.843749999999999
40
0.843749999999999
40
0.875
40
0.875
40
0.90625
40
0.90625
40
0.9375
40
0.9375
40
0.96875
40
0.96875
40
1
40
1
40
1
40
1
41
1
10
239.569495966096
20
9.5
30
0
41
1
10
239.63796249535
20
9.5
30
0
41
1
10
239.706429024604
20
9.47875784298284
30
0
41
1
10
239.843362083112
20
9.38821142509164
30
0
41
1
10
239.911828612366
20
9.31888318636399
30
0
41
1
10
240.048761670874
20
9.12807385904031
30
0
41
1
10
240.117228200128
20
9.00657135339765
30
0
41
1
10
240.254161258635
20
8.70955290491099
30
0
41
1
10
240.322627787889
20
8.5340230120506
30
0
41
1
10
240.459560846397
20
8.12986913461404
30
0
41
1
10
240.528027375651
20
7.90124295668761
30
0
41
1
10
240.664960434159
20
7.39485318848222
30
0
41
1
10
240.733426963413
20
7.11710122601212
30
0
41
1
10
240.870360021921
20
6.51931751960871
30
0
41
1
10
240.938826551174
20
6.19930998575103
30
0
41
1
10
241.075759609682
20
5.52622790999584
30
0
41
1
10
241.144226138936
20
5.17318571754973
30
0
41
1
10
241.281159197444
20
4.44473394073344
30
0
41
1
10
241.349625726698
20
4.06935855517514
30
0
41
1
10
241.486558785206
20
3.30740332868447
30
0
41
1
10
241.555025314459
20
2.92085340313503
30
0
41
1
10
241.691958372967
20
2.14719088254924
30
0
41
1
10
241.760424902221
20
1.76009966809443
30
0
41
1
10
241.897357960729
20
0.994691548732874
30
0
41
1
10
241.965824489983
20
0.616385894352078
30
0
41
1
10
242.05140765155
20
0.153699643909278
30
0
41
1
10
242.068524283864
20
0.0618669241238763
30
0
41
1
10
242.102757548491
20
-0.121565577957512
30
0
41
1
10
242.119874180804
20
-0.213825694051025
30
0
41
1
10
242.171224077745
20
-0.492087678026792
30
0
41
1
10
242.205457342371
20
-0.679575003365358
30
0
41
1
10
242.308157136253
20
-1.24663630488294
30
0
41
1
10
242.376623665506
20
-1.63086456391415
30
0
41
1
10
242.513556724014
20
-2.40315165383802
30
0
41
1
10
242.582023253268
20
-2.79119358080598
30
0
41
1
10
242.718956311776
20
-3.56098631836807
30
0
41
1
10
242.78742284103
20
-3.94271064551518
30
0
41
1
10
242.924355899537
20
-4.68883780323657
30
0
41
1
10
242.992822428792
20
-5.05320766756594
30
0
41
1
10
243.129755487299
20
-5.7535933204357
30
0
41
1
10
243.198222016553
20
-6.08957511997542
30
0
41
1
10
243.335155075061
20
-6.72317727552871
30
0
41
1
10
243.403621604315
20
-7.0207690917716
30
0
41
1
10
243.540554662823
20
-7.56957228474002
30
0
41
1
10
243.609021192077
20
-7.82076606376259
30
0
41
1
10
243.745954250585
20
-8.27145405080017
30
0
41
1
10
243.814420779838
20
-8.47094436392408
30
0
41
1
10
243.951353838346
20
-8.81593608826586
30
0
41
1
10
244.0198203676
20
-8.96144664184229
30
0
41
1
10
244.156753426108
20
-9.19913484505622
30
0
41
1
10
244.225219955362
20
-9.29133119062897
30
0
41
1
10
244.36215301387
20
-9.42555914043115
30
0
41
1
10
244.430619543123
20
-9.46761416305932
30
0
41
1
10
244.516202704691
20
-9.49197331643745
30
0
41
1
10
244.541877653161
20
-9.49717064222634
30
0
41
1
10
244.567552601631
20
-9.49930421194082
30
0
41
1
10
244.584669233945
20
-9.5000575351892
30
0
41
1
10
244.593227550101
20
-9.50010091741422
30
0
41
1
10
244.636019130885
20
-9.49865723705094
30
0
41
1
10
244.670252395512
20
-9.49215945440403
30
0
41
1
10
244.772952189393
20
-9.45554868300968
30
0
41
1
10
244.841418718647
20
-9.40826683780676
30
0
41
1
10
244.978351777155
20
-9.26313798078536
30
0
41
1
10
245.046818306409
20
-9.16526782473105
30
0
41
1
10
245.183751364916
20
-8.91602749224953
30
0
41
1
10
245.25221789417
20
-8.76463943308454
30
0
41
1
10
245.389150952678
20
-8.40799129152515
30
0
41
1
10
245.457617481932
20
-8.20272335322844
30
0
41
1
10
245.59455054044
20
-7.74091023103949
30
0
41
1
10
245.663017069694
20
-7.48437045779008
30
0
41
1
10
245.799950128201
20
-6.92562218735665
30
0
41
1
10
245.868416657455
20
-6.62343266874771
30
0
41
1
10
246.005349715963
20
-5.98163916488247
30
0
41
1
10
246.073816245217
20
-5.64206461156999
30
0
41
1
10
246.142282774471
20
-5.2888621151443
30
0
0
SPLINE
5
F3
100
AcDbEntity
8
1
62
256
6
ByLayer
370
13
48
1
60
0
100
AcDbSpline
70
4
71
3
72
42
73
38
40
0
40
0
40
0
40
0
40
0.031249999999999
40
0.031249999999999
40
0.0468749999999985
40
0.0468749999999985
40
0.0624999999999981
40
0.0624999999999981
40
0.124999999999998
40
0.124999999999998
40
0.187499999999998
40
0.187499999999998
40
0.249999999999999
40
0.249999999999999
40
0.312499999999999
40
0.312499999999999
40
0.374999999999999
40
0.374999999999999
40
0.437499999999999
40
0.437499999999999
40
0.499999999999999
40
0.499999999999999
40
0.562499999999999
40
0.562499999999999
40
0.625
40
0.625
40
0.6875
40
0.6875
40
0.75
40
0.75
40
0.8125
40
0.8125
40
0.875
40
0.875
40
0.9375
40
0.9375
40
1
40
1
40
1
40
1
41
1
10
236.1
20
-0.525059040600382
30
0
41
1
10
236.127163022286
20
-0.376690661921657
30
0
41
1
10
236.154326044573
20
-0.229462037338095
30
0
41
1
10
236.195070578002
20
-0.01063975494273
30
0
41
1
10
236.208652089145
20
0.0619016494465257
30
0
41
1
10
236.235815111431
20
0.208096189156521
30
0
41
1
10
236.249396622574
20
0.281524085500393
30
0
41
1
10
236.31730417829
20
0.650189143051705
30
0
41
1
10
236.371630222863
20
0.95003302288444
30
0
41
1
10
236.480282312007
20
1.55579371042984
30
0
41
1
10
236.53460835658
20
1.86170732772351
30
0
41
1
10
236.643260445725
20
2.47512893278682
30
0
41
1
10
236.697586490298
20
2.78263118158461
30
0
41
1
10
236.806238579443
20
3.39415880020408
30
0
41
1
10
236.860564624015
20
3.69817602963553
30
0
41
1
10
236.96921671316
20
4.29727883760603
30
0
41
1
10
237.023542757733
20
4.59235444871965
30
0
41
1
10
237.132194846878
20
5.16801001714538
30
0
41
1
10
237.18652089145
20
5.44857915805443
30
0
41
1
10
237.295172980595
20
5.9898644789869
30
0
41
1
10
237.349499025168
20
6.25057023986045
30
0
41
1
10
237.458151114313
20
6.74730175115877
30
0
41
1
10
237.512477158885
20
6.98331876617164
30
0
41
1
10
237.621129248031
20
7.42666824463399
30
0
41
1
10
237.675455292603
20
7.63399472116672
30
0
41
1
10
237.784107381748
20
8.01700574632923
30
0
41
1
10
237.838433426321
20
8.19268768169147
30
0
41
1
10
237.947085515465
20
8.51063035829097
30
0
41
1
10
238.001411560038
20
8.65289193805384
30
0
41
1
10
238.110063649183
20
8.90341914194332
30
0
41
1
10
238.164389693756
20
9.01168861734183
30
0
41
1
10
238.2730417829
20
9.19478885744761
30
0
41
1
10
238.327367827473
20
9.26962567529324
30
0
41
1
10
238.436019916618
20
9.38739786144825
30
0
41
1
10
238.490345961191
20
9.43034050652309
30
0
41
1
10
238.598998050336
20
9.48663779885467
30
0
41
1
10
238.653324094908
20
9.5
30
0
41
1
10
238.707650139481
20
9.5
30
0
0
SPLINE
5
F4
100
AcDbEntity
8
1
62
256
6
ByLayer
370
13
48
1
60
0
100
AcDbSpline
70
4
71
3
72
78
73
74
40
0
40
0
40
0
40
0
40
0.0312500000000019
40
0.0312500000000019
40
0.0625000000000037
40
0.0625000000000037
40
0.0937500000000056
40
0.0937500000000056
40
0.125000000000007
40
0.125000000000007
40
0.156250000000009
40
0.156250000000009
40
0.187500000000011
40
0.187500000000011
40
0.218750000000013
40
0.218750000000013
40
0.250000000000015
40
0.250000000000015
40
0.281250000000017
40
0.281250000000017
40
0.312500000000019
40
0.312500000000019
40
0.34375000000002
40
0.34375000000002
40
0.35156250000002
40
0.35156250000002
40
0.35937500000002
40
0.35937500000002
40
0.375000000000019
40
0.375000000000019
40
0.406250000000018
40
0.406250000000018
40
0.437500000000017
40
0.437500000000017
40
0.468750000000016
40
0.468750000000016
40
0.500000000000014
40
0.500000000000014
40
0.531250000000013
40
0.531250000000013
40
0.562500000000012
40
0.562500000000012
40
0.593750000000011
40
0.593750000000011
40
0.625000000000009
40
0.625000000000009
40
0.656250000000008
40
0.656250000000008
40
0.687500000000007
40
0.687500000000007
40
0.703125000000006
40
0.703125000000006
40
0.710937500000006
40
0.710937500000006
40
0.718750000000005
40
0.718750000000005
40
0.750000000000004
40
0.750000000000004
40
0.781250000000004
40
0.781250000000004
40
0.812500000000004
40
0.812500000000004
40
0.843750000000003
40
0.843750000000003
40
0.875000000000002
40
0.875000000000002
40
0.906250000000002
40
0.906250000000002
40
0.937500000000001
40
0.937500000000001
40
0.968750000000001
40
0.968750000000001
40
1
40
1
40
1
40
1
41
1
10
239.073853756956
20
9.5
30
0
41
1
10
239.147483225888
20
9.5
30
0
41
1
10
239.221112694821
20
9.47542385621873
30
0
41
1
10
239.368371632686
20
9.37024135203441
30
0
41
1
10
239.442001101618
20
9.28960059654162
30
0
41
1
10
239.589260039483
20
9.06746721566967
30
0
41
1
10
239.662889508416
20
8.92594500235961
30
0
41
1
10
239.810148446281
20
8.58033688150044
30
0
41
1
10
239.883777915213
20
8.37623431726598
30
0
41
1
10
240.031036853078
20
7.90758863335682
30
0
41
1
10
240.10466632201
20
7.64304825495341
30
0
41
1
10
240.251925259875
20
7.05971565760871
30
0
41
1
10
240.325554728808
20
6.74094744098133
30
0
41
1
10
240.472813666673
20
6.05901387412857
30
0
41
1
10
240.546443135605
20
5.69588959587065
30
0
41
1
10
240.69370207347
20
4.93776639256242
30
0
41
1
10
240.767331542402
20
4.54281651255522
30
0
41
1
10
240.914590480267
20
3.73484192759594
30
0
41
1
10
240.9882199492
20
3.32186356424808
30
0
41
1
10
241.135478887065
20
2.49143730800469
30
0
41
1
10
241.209108355997
20
2.07402452488299
30
0
41
1
10
241.356367293862
20
1.24688876483262
30
0
41
1
10
241.429996762795
20
0.83718556543343
30
0
41
1
10
241.52203359896
20
0.336036857996731
30
0
41
1
10
241.540440966193
20
0.236349939868546
30
0
41
1
10
241.577255700659
20
0.0381902160883385
30
0
41
1
10
241.595663067892
20
-0.0600175449815481
30
0
41
1
10
241.650885169592
20
-0.357524373046658
30
0
41
1
10
241.687699904058
20
-0.55827741332584
30
0
41
1
10
241.798144107456
20
-1.1661693176562
30
0
41
1
10
241.871773576389
20
-1.57901534989915
30
0
41
1
10
242.019032514254
20
-2.40937920874254
30
0
41
1
10
242.092661983187
20
-2.8268730145295
30
0
41
1
10
242.239920921051
20
-3.65391298833748
30
0
41
1
10
242.313550389984
20
-4.06342042585445
30
0
41
1
10
242.460809327849
20
-4.86071212269786
30
0
41
1
10
242.534438796781
20
-5.24844833016906
30
0
41
1
10
242.681697734646
20
-5.98859335802354
30
0
41
1
10
242.755327203578
20
-6.34095421912934
30
0
41
1
10
242.902586141443
20
-6.99839533390735
30
0
41
1
10
242.976215610376
20
-7.30343836098385
30
0
41
1
10
243.123474548241
20
-7.85726001823429
30
0
41
1
10
243.197104017173
20
-8.10602019493371
30
0
41
1
10
243.344362955038
20
-8.54212395796606
30
0
41
1
10
243.41799242397
20
-8.72947042837205
30
0
41
1
10
243.565251361835
20
-9.04166375831369
30
0
41
1
10
243.638880830768
20
-9.16653150684957
30
0
41
1
10
243.786139768633
20
-9.35637906233083
30
0
41
1
10
243.859769237565
20
-9.42139054067613
30
0
41
1
10
243.970213440964
20
-9.47810755737774
30
0
41
1
10
244.00702817543
20
-9.49023249329019
30
0
41
1
10
244.062250277129
20
-9.49889816437701
30
0
41
1
10
244.080657644362
20
-9.50020116173266
30
0
41
1
10
244.117472378829
20
-9.49974886000521
30
0
41
1
10
244.135879746062
20
-9.49798606500923
30
0
41
1
10
244.227916582227
20
-9.48119940352956
30
0
41
1
10
244.30154605116
20
-9.44218653776466
30
0
41
1
10
244.448804989025
20
-9.30658475703231
30
0
41
1
10
244.522434457957
20
-9.20996196361472
30
0
41
1
10
244.669693395822
20
-8.9550627753238
30
0
41
1
10
244.743322864755
20
-8.79675947767601
30
0
41
1
10
244.890581802619
20
-8.41776247000521
30
0
41
1
10
244.964211271552
20
-8.19705681933129
30
0
41
1
10
245.111470209417
20
-7.69647180371186
30
0
41
1
10
245.185099678349
20
-7.41660094865065
30
0
41
1
10
245.332358616214
20
-6.80492447644679
30
0
41
1
10
245.405988085147
20
-6.47314810172489
30
0
41
1
10
245.553247023011
20
-5.76835063170572
30
0
41
1
10
245.626876491944
20
-5.39537377832181
30
0
41
1
10
245.774135429809
20
-4.62118656280512
30
0
41
1
10
245.847764898741
20
-4.22002553992999
30
0
41
1
10
245.995023836606
20
-3.40335779711091
30
0
41
1
10
246.068653305539
20
-2.98789508078923
30
0
41
1
10
246.142282774471
20
-2.57192207526737
30
0
0
SPLINE
5
F5
100
AcDbEntity
8
1
62
256
6
ByLayer
370
13
48
1
60
0
100
AcDbSpline
70
4
71
3
72
22
73
18
40
0
40
0
40
0
40
0
40
0.125
40
0.125
40
0.25
40
0.25
40
0.375
40
0.375
40
0.5
40
0.5
40
0.625
40
0.625
40
0.75
40
0.75
40
0.875
40
0.875
40
1
40
1
40
1
40
1
41
1
10
236.1
20
2.206292425436
30
0
41
1
10
236.188000330431
20
2.70321561752067
30
0
41
1
10
236.276000660862
20
3.20202943449919
30
0
41
1
10
236.452001321723
20
4.18129098164806
30
0
41
1
10
236.540001652154
20
4.66163417744761
30
0
41
1
10
236.716002313016
20
5.58023021204397
30
0
41
1
10
236.804002643447
20
6.01836330529628
30
0
41
1
10
236.980003304309
20
6.83084388781924
30
0
41
1
10
237.068003634739
20
7.20509245387319
30
0
41
1
10
237.244004295601
20
7.87356116017847
30
0
41
1
10
237.332004626032
20
8.16773392212718
30
0
41
1
10
237.508005286894
20
8.66755957814786
30
0
41
1
10
237.596005617324
20
8.87322651436145
30
0
41
1
10
237.772006278186
20
9.19581467504023
30
0
41
1
10
237.860006608617
20
9.31279764947672
30
0
41
1
10
238.036007269479
20
9.46484895235773
30
0
41
1
10
238.12400759991
20
9.5
30
0
41
1
10
238.21200793034
20
9.5
30
0
0
SPLINE
5
F6
100
AcDbEntity
8
1
62
256
6
ByLayer
370
13
48
1
60
0
100
AcDbSpline
70
4
71
3
72
82
73
78
40
0
40
0
40
0
40
0
40
0.03125
40
0.03125
40
0.0625000000000001
40
0.0625000000000001
40
0.0937500000000001
40
0.0937500000000001
40
0.125
40
0.125
40
0.15625
40
0.15625
40
0.1875
40
0.1875
40
0.21875
40
0.21875
40
0.25
40
0.25
40
0.28125
40
0.28125
40
0.3125
40
0.3125
40
0.328125
40
0.328125
40
0.3359375
40
0.3359375
40
0.34375
40
0.34375
40
0.375
40
0.375
40
0.40625
40
0.40625
40
0.4375
40
0.4375
40
0.46875
40
0.46875
40
0.5
40
0.5
40
0.53125
40
0.53125
40
0.5625
40
0.5625
40
0.59375
40
0.59375
40
0.625
40
0.625
40
0.65625
40
0.65625
40
0.6640625
40
0.6640625
40
0.671875
40
0.671875
40
0.6875
40
0.6875
40
0.71875
40
0.71875
40
0.75
40
0.75
40
0.78125
40
0.78125
40
0.8125
40
0.8125
40
0.84375
40
0.84375
40
0.875
40
0.875
40
0.90625
40
0.90625
40
0.937499999999999
40
0.937499999999999
40
0.96875
40
0.96875
40
0.984375
40
0.984375
40
0.9921875
40
0.9921875
40
1
40
1
40
1
40
1
41
1
10
238.578211547816
20
9.5
30
0
41
1
10
238.657003956427
20
9.5
30
0
41
1
10
238.735796365038
20
9.47184442568457
30
0
41
1
10
238.89338118226
20
9.3508679883553
30
0
41
1
10
238.972173590871
20
9.25799904544033
30
0
41
1
10
239.129758408093
20
9.00202619320413
30
0
41
1
10
239.208550816704
20
8.83888270646517
30
0
41
1
10
239.366135633926
20
8.44102862597839
30
0
41
1
10
239.444928042537
20
8.20629984901046
30
0
41
1
10
239.602512859759
20
7.66909608531464
30
0
41
1
10
239.68130526837
20
7.36663340938401
30
0
41
1
10
239.838890085592
20
6.70305251934769
30
0
41
1
10
239.917682494203
20
6.34197742004861
30
0
41
1
10
240.075267311425
20
5.57469171624905
30
0
41
1
10
240.154059720036
20
5.16854516493413
30
0
41
1
10
240.311644537258
20
4.32741127363317
30
0
41
1
10
240.390436945868
20
3.89249259216146
30
0
41
1
10
240.548021763091
20
3.01082672827468
30
0
41
1
10
240.626814171702
20
2.56413678932321
30
0
41
1
10
240.784398988923
20
1.67471119312708
30
0
41
1
10
240.863191397535
20
1.23201145613908
30
0
41
1
10
240.981380010451
20
0.58077113481491
30
0
41
1
10
241.020776214757
20
0.365801888642977
30
0
41
1
10
241.079870521215
20
0.0475063192249934
30
0
41
1
10
241.099568623368
20
-0.0575620109670467
30
0
41
1
10
241.138964827673
20
-0.269846561124069
30
0
41
1
10
241.158662929826
20
-0.376677785774433
30
0
41
1
10
241.25715344059
20
-0.913881146834797
30
0
41
1
10
241.3359458492
20
-1.35352362249662
30
0
41
1
10
241.493530666422
20
-2.24028389056065
30
0
41
1
10
241.572323075033
20
-2.68737149029846
30
0
41
1
10
241.729907892255
20
-3.57382200663798
30
0
41
1
10
241.808700300866
20
-4.01313223944345
30
0
41
1
10
241.966285118089
20
-4.8671781474649
30
0
41
1
10
242.045077526699
20
-5.2818466164282
30
0
41
1
10
242.202662343921
20
-6.06994675811188
30
0
41
1
10
242.281454752533
20
-6.44331165610024
30
0
41
1
10
242.439039569754
20
-7.13440282975296
30
0
41
1
10
242.517831978365
20
-7.45207967407663
30
0
41
1
10
242.675416795587
20
-8.02146048332884
30
0
41
1
10
242.754209204198
20
-8.27314430747504
30
0
41
1
10
242.91179402142
20
-8.70535444253349
30
0
41
1
10
242.990586430031
20
-8.88589212309438
30
0
41
1
10
243.148171247253
20
-9.17590501761757
30
0
41
1
10
243.226963655865
20
-9.28541576620853
30
0
41
1
10
243.384548473087
20
-9.43801007713876
30
0
41
1
10
243.463340881697
20
-9.48114083710402
30
0
41
1
10
243.561831392461
20
-9.49846475642934
30
0
41
1
10
243.581529494614
20
-9.50010608934468
30
0
41
1
10
243.620925698919
20
-9.49988331215602
30
0
41
1
10
243.640623801072
20
-9.49801488141483
30
0
41
1
10
243.69971810753
20
-9.48692559046233
30
0
41
1
10
243.739114311836
20
-9.47221636271652
30
0
41
1
10
243.857302924752
20
-9.40457131226842
30
0
41
1
10
243.936095333363
20
-9.32801178900323
30
0
41
1
10
244.093680150585
20
-9.10566458422579
30
0
41
1
10
244.172472559196
20
-8.9598340636966
30
0
41
1
10
244.330057376418
20
-8.59647933182339
30
0
41
1
10
244.408849785029
20
-8.37893068223894
30
0
41
1
10
244.566434602251
20
-7.87466751736616
30
0
41
1
10
244.645227010862
20
-7.58795750852414
30
0
41
1
10
244.802811828084
20
-6.95322736967461
30
0
41
1
10
244.881604236695
20
-6.6052434413987
30
0
41
1
10
245.039189053917
20
-5.86053942422578
30
0
41
1
10
245.117981462528
20
-5.46387967589405
30
0
41
1
10
245.27556627975
20
-4.63762904204557
30
0
41
1
10
245.354358688361
20
-4.20810729996623
30
0
41
1
10
245.511943505583
20
-3.33316228292864
30
0
41
1
10
245.590735914194
20
-2.88780022170565
30
0
41
1
10
245.748320731416
20
-1.9974106212299
30
0
41
1
10
245.827113140027
20
-1.55242463167761
30
0
41
1
10
245.945301752944
20
-0.895593324349363
30
0
41
1
10
245.984697957249
20
-0.67840180005183
30
0
41
1
10
246.043792263707
20
-0.356312571038501
30
0
41
1
10
246.06349036586
20
-0.249564188283586
30
0
41
1
10
246.102886570166
20
-0.0374549513389866
30
0
41
1
10
246.122584672318
20
0.0676220124451277
30
0
41
1
10
246.142282774471
20
0.173807886299244
30
0
0
SPLINE
5
F7
100
AcDbEntity
8
1
62
256
6
ByLayer
370
13
48
1
60
0
100
AcDbSpline
70
4
71
3
72
22
73
18
40
0
40
0
40
0
40
0
40
0.125
40
0.125
40
0.25
40
0.25
40
0.375
40
0.375
40
0.5
40
0.5
40
0.625
40
0.625
40
0.75
40
0.75
40
0.875
40
0.875
40
1
40
1
40
1
40
1
41
1
10
236.1
20
4.95111144795348
30
0
41
1
10
236.167348571717
20
5.30643299503478
30
0
41
1
10
236.234697143433
20
5.6502349356586
30
0
41
1
10
236.369394286867
20
6.30479728291331
30
0
41
1
10
236.436742858583
20
6.61552846721591
30
0
41
1
10
236.571440002017
20
7.19536820954852
30
0
41
1
10
236.638788573733
20
7.46445546032336
30
0
41
1
10
236.773485717167
20
7.95468915083831
30
0
41
1
10
236.840834288883
20
8.17582592064628
30
0
41
1
10
236.975531432317
20
8.56658009089003
30
0
41
1
10
237.042880004033
20
8.73620030921657
30
0
41
1
10
237.177577147467
20
9.02318559666131
30
0
41
1
10
237.244925719183
20
9.14056395946147
30
0
41
1
10
237.379622862617
20
9.32492066593102
30
0
41
1
10
237.446971434333
20
9.39191888883082
30
0
41
1
10
237.581668577767
20
9.47944750948753
30
0
41
1
10
237.649017149483
20
9.5
30
0
41
1
10
237.7163657212
20
9.5
30
0
0
SPLINE
5
F8
100
AcDbEntity
8
1
62
256
6
ByLayer
370
13
48
1
60
0
100
AcDbSpline
70
4
71
3
72
85
73
81
40
0
40
0
40
0
40
0
40
0.031249999999999
40
0.031249999999999
40
0.0624999999999981
40
0.0624999999999981
40
0.0937499999999971
40
0.0937499999999971
40
0.124999999999996
40
0.124999999999996
40
0.156249999999995
40
0.156249999999995
40
0.187499999999994
40
0.187499999999994
40
0.218749999999993
40
0.218749999999993
40
0.249999999999993
40
0.249999999999993
40
0.281249999999992
40
0.281249999999992
40
0.296874999999991
40
0.296874999999991
40
0.304687499999991
40
0.308593749999992
40
0.308593749999992
40
0.312499999999992
40
0.312499999999992
40
0.343749999999996
40
0.343749999999996
40
0.375000000000001
40
0.375000000000001
40
0.406250000000005
40
0.406250000000005
40
0.43750000000001
40
0.43750000000001
40
0.468750000000014
40
0.468750000000014
40
0.500000000000019
40
0.500000000000019
40
0.531250000000023
40
0.531250000000023
40
0.562500000000028
40
0.562500000000028
40
0.593750000000033
40
0.593750000000033
40
0.609375000000035
40
0.609375000000035
40
0.617187500000036
40
0.621093750000036
40
0.621093750000036
40
0.625000000000036
40
0.625000000000036
40
0.656250000000033
40
0.656250000000033
40
0.68750000000003
40
0.68750000000003
40
0.718750000000027
40
0.718750000000027
40
0.750000000000024
40
0.750000000000024
40
0.781250000000021
40
0.781250000000021
40
0.812500000000019
40
0.812500000000019
40
0.843750000000016
40
0.843750000000016
40
0.875000000000013
40
0.875000000000013
40
0.90625000000001
40
0.90625000000001
40
0.921875000000008
40
0.921875000000008
40
0.929687500000007
40
0.933593750000006
40
0.933593750000006
40
0.937500000000006
40
0.937500000000006
40
0.968750000000003
40
0.968750000000003
40
1
40
1
40
1
40
1
41
1
10
238.082569338675
20
9.5
30
0
41
1
10
238.166524686965
20
9.5
30
0
41
1
10
238.250480035254
20
9.46801877891789
30
0
41
1
10
238.418390731834
20
9.33007991268013
30
0
41
1
10
238.502346080123
20
9.22405656906352
30
0
41
1
10
238.670256776702
20
8.93172123449565
30
0
41
1
10
238.754212124992
20
8.74535787624569
30
0
41
1
10
238.922122821571
20
8.29168746423122
30
0
41
1
10
239.00607816986
20
8.02436305568943
30
0
41
1
10
239.173988866439
20
7.41487692217945
30
0
41
1
10
239.257944214729
20
7.07274372368593
30
0
41
1
10
239.425854911308
20
6.32637355410824
30
0
41
1
10
239.509810259597
20
5.92220719658607
30
0
41
1
10
239.677720956177
20
5.06961245549189
30
0
41
1
10
239.761676304466
20
4.62127724899787
30
0
41
1
10
239.929587001045
20
3.700750195052
30
0
41
1
10
240.013542349335
20
3.22864769144212
30
0
41
1
10
240.181453045914
20
2.28071450131495
30
0
41
1
10
240.265408394203
20
1.80494802164282
30
0
41
1
10
240.391341416638
20
1.10160868332167
30
0
41
1
10
240.433319090783
20
0.868853917304222
30
0
41
1
10
240.496285602
20
0.523611032858213
30
0
41
1
10
240.527768857608
20
0.351958783065442
30
0
41
1
10
240.559252113217
20
0.181984801825791
30
0
41
1
10
240.580240950289
20
0.0690646563001849
30
0
41
1
10
240.590735368825
20
0.0129328850601667
30
0
41
1
10
240.685185135651
20
-0.493451620141371
30
0
41
1
10
240.769140483941
20
-0.956774819216491
30
0
41
1
10
240.93705118052
20
-1.89622377067818
30
0
41
1
10
241.021006528809
20
-2.37231708483176
30
0
41
1
10
241.188917225388
20
-3.31967363310619
30
0
41
1
10
241.272872573678
20
-3.79087063325054
30
0
41
1
10
241.440783270257
20
-4.70825686039859
30
0
41
1
10
241.524738618547
20
-5.15435574853345
30
0
41
1
10
241.692649315125
20
-6.00122292115756
30
0
41
1
10
241.776604663415
20
-6.40189869388462
30
0
41
1
10
241.944515359994
20
-7.14028890368417
30
0
41
1
10
242.028470708284
20
-7.47793498159706
30
0
41
1
10
242.196381404863
20
-8.07784059483714
30
0
41
1
10
242.280336753152
20
-8.34007462560993
30
0
41
1
10
242.448247449731
20
-8.78340399754197
30
0
41
1
10
242.532202798021
20
-8.96451936971749
30
0
41
1
10
242.7001134946
20
-9.24660819792192
30
0
41
1
10
242.78406884289
20
-9.34763456070104
30
0
41
1
10
242.910001865324
20
-9.44401114770062
30
0
41
1
10
242.951979539469
20
-9.46698105171623
30
0
41
1
10
243.014946050686
20
-9.48859209401635
30
0
41
1
10
243.046429306294
20
-9.49618908571375
30
0
41
1
10
243.077912561903
20
-9.49915902579585
30
0
41
1
10
243.098901398975
20
-9.50013246055192
30
0
41
1
10
243.109395817512
20
-9.50011868361526
30
0
41
1
10
243.203845584337
20
-9.49548615140964
30
0
41
1
10
243.287800932627
20
-9.45902285729886
30
0
41
1
10
243.455711629206
20
-9.31157797163189
30
0
41
1
10
243.539666977495
20
-9.20053100144983
30
0
41
1
10
243.707577674075
20
-8.89791946619724
30
0
41
1
10
243.791533022364
20
-8.70630515799192
30
0
41
1
10
243.959443718943
20
-8.24231612170266
30
0
41
1
10
244.043399067233
20
-7.96992676708496
30
0
41
1
10
244.211309763812
20
-7.35093882389046
30
0
41
1
10
244.295265112101
20
-7.00437176814586
30
0
41
1
10
244.46317580868
20
-6.25014961480463
30
0
41
1
10
244.54713115697
20
-5.84256730126134
30
0
41
1
10
244.715041853549
20
-4.98440493086736
30
0
41
1
10
244.798997201838
20
-4.53391860297432
30
0
41
1
10
244.966907898418
20
-3.61041979946117
30
0
41
1
10
245.050863246707
20
-3.13749558206499
30
0
41
1
10
245.218773943286
20
-2.1891420400674
30
0
41
1
10
245.302729291576
20
-1.71377485903824
30
0
41
1
10
245.42866231401
20
-1.01177865870758
30
0
41
1
10
245.470639988155
20
-0.779594887172436
30
0
41
1
10
245.533606499372
20
-0.435367524711239
30
0
41
1
10
245.56508975498
20
-0.264262762298756
30
0
41
1
10
245.596573010589
20
-0.0948908122508669
30
0
41
1
10
245.617561847662
20
0.017616425009038
30
0
41
1
10
245.628056266198
20
0.0737657331719674
30
0
41
1
10
245.722506033023
20
0.582005430846863
30
0
41
1
10
245.806461381313
20
1.04660634068617
30
0
41
1
10
245.974372077892
20
1.98758862207862
30
0
41
1
10
246.058327426182
20
2.46393535404988
30
0
41
1
10
246.142282774471
20
2.93724647202504
30
0
0
SPLINE
5
F9
100
AcDbEntity
8
1
62
256
6
ByLayer
370
13
48
1
60
0
100
AcDbSpline
70
4
71
3
72
14
73
10
40
0
40
0
40
0
40
0
40
0.25
40
0.25
40
0.5
40
0.5
40
0.75
40
0.75
40
1
40
1
40
1
40
1
41
1
10
236.1
20
7.28644875635405
30
0
41
1
10
236.193393626005
20
7.66141994819645
30
0
41
1
10
236.28678725201
20
7.99307682630075
30
0
41
1
10
236.47357450402
20
8.55764168040528
30
0
41
1
10
236.566968130025
20
8.79055382707062
30
0
41
1
10
236.753755382035
20
9.15588683787018
30
0
41
1
10
236.84714900804
20
9.28838452147164
30
0
41
1
10
237.03393626005
20
9.46038584859181
30
0
41
1
10
237.127329886055
20
9.5
30
0
41
1
10
237.22072351206
20
9.5
30
0
0
SPLINE
5
FA
100
AcDbEntity
8
1
62
256
6
ByLayer
370
13
48
1
60
0
100
AcDbSpline
70
4
71
3
72
86
73
82
40
0
40
0
40
0
40
0
40
0.03125
40
0.03125
40
0.0625
40
0.0625
40
0.09375
40
0.09375
40
0.125
40
0.125
40
0.15625
40
0.15625
40
0.1875
40
0.1875
40
0.21875
40
0.21875
40
0.25
40
0.25
40
0.28125
40
0.28125
40
0.2890625
40
0.2890625
40
0.296875
40
0.296875
40
0.3125
40
0.3125
40
0.34375
40
0.34375
40
0.375
40
0.375
40
0.40625
40
0.40625
40
0.4375
40
0.4375
40
0.46875
40
0.46875
40
0.5
40
0.5
40
0.53125
40
0.53125
40
0.5625
40
0.5625
40
0.578125
40
0.578125
40
0.5859375
40
0.5859375
40
0.58984375
40
0.58984375
40
0.59375
40
0.59375
40
0.625
40
0.625
40
0.65625
40
0.65625
40
0.6875
40
0.6875
40
0.71875
40
0.71875
40
0.75
40
0.75
40
0.78125
40
0.78125
40
0.8125
40
0.8125
40
0.84375
40
0.84375
40
0.875
40
0.875
40
0.87890625
40
0.87890625
40
0.8828125
40
0.8828125
40
0.890625
40
0.890625
40
0.90625
40
0.90625
40
0.9375
40
0.9375
40
0.96875
40
0.96875
40
1
40
1
40
1
40
1
41
1
10
237.586927129535
20
9.5
30
0
41
1
10
237.676045417503
20
9.5
30
0
41
1
10
237.765163705471
20
9.46394606337904
30
0
41
1
10
237.943400281407
20
9.30786610280683
30
0
41
1
10
238.032518569375
20
9.18775210167107
30
0
41
1
10
238.210755145312
20
8.85652940478664
30
0
41
1
10
238.29987343328
20
8.64535593550289
30
0
41
1
10
238.478110009216
20
8.13240693455822
30
0
41
1
10
238.567228297184
20
7.83061882729325
30
0
41
1
10
238.74546487312
20
7.14551415746402
30
0
41
1
10
238.834583161088
20
6.76225131724954
30
0
41
1
10
239.012819737024
20
5.9313664674726
30
0
41
1
10
239.101938024993
20
5.48385232869552
30
0
41
1
10
239.280174600929
20
4.54723208321954
30
0
41
1
10
239.369292888897
20
4.05825352887732
30
0
41
1
10
239.547529464833
20
3.06339077382503
30
0
41
1
10
239.636647752801
20
2.55761491007598
30
0
41
1
10
239.814884328737
20
1.55208029962014
30
0
41
1
10
239.904002616705
20
1.0523858981517
30
0
41
1
10
240.015400476665
20
0.443086164041063
30
0
41
1
10
240.037680048657
20
0.321979244710491
30
0
41
1
10
240.082239192642
20
0.0815051592693692
30
0
41
1
10
240.104518764633
20
-0.0373041792718709
30
0
41
1
10
240.171357480609
20
-0.397367682399477
30
0
41
1
10
240.215916624593
20
-0.640955088423226
30
0
41
1
10
240.349594056546
20
-1.3794484847987
30
0
41
1
10
240.438712344514
20
-1.88223710881556
30
0
41
1
10
240.61694892045
20
-2.889265167404
30
0
41
1
10
240.706067208418
20
-3.39342958322584
30
0
41
1
10
240.884303784354
20
-4.37970561373328
30
0
41
1
10
240.973422072322
20
-4.86170185913861
30
0
41
1
10
241.151658648258
20
-5.77906487476599
30
0
41
1
10
241.240776936227
20
-6.21430489798311
30
0
41
1
10
241.419013512163
20
-7.01626779949348
30
0
41
1
10
241.508131800131
20
-7.38289229004286
30
0
41
1
10
241.686368376067
20
-8.0319575314503
30
0
41
1
10
241.775486664035
20
-8.31435902800365
30
0
41
1
10
241.953723239971
20
-8.78769780570522
30
0
41
1
10
242.042841527939
20
-8.97866107988537
30
0
41
1
10
242.221078103875
20
-9.27042496090991
30
0
41
1
10
242.310196391844
20
-9.37129809896953
30
0
41
1
10
242.443873823796
20
-9.46122213401804
30
0
41
1
10
242.48843296778
20
-9.48101305412339
30
0
41
1
10
242.555271683756
20
-9.49653002466439
30
0
41
1
10
242.577551255748
20
-9.49934268242714
30
0
41
1
10
242.610970613736
20
-9.50017494474159
30
0
41
1
10
242.622110399732
20
-9.49989167090101
30
0
41
1
10
242.644389971724
20
-9.49818563041833
30
0
41
1
10
242.65552975772
20
-9.49676165927778
30
0
41
1
10
242.755787831684
20
-9.4786927748454
30
0
41
1
10
242.844906119652
20
-9.42511080227263
30
0
41
1
10
243.023142695588
20
-9.23191355085964
30
0
41
1
10
243.112260983556
20
-9.0922127416095
30
0
41
1
10
243.290497559493
20
-8.72120002992352
30
0
41
1
10
243.379615847461
20
-8.48983257218759
30
0
41
1
10
243.557852423397
20
-7.93773023387067
30
0
41
1
10
243.646970711365
20
-7.61699692232528
30
0
41
1
10
243.825207287301
20
-6.89713231530641
30
0
41
1
10
243.914325575269
20
-6.49806861091912
30
0
41
1
10
244.092562151205
20
-5.64021047630948
30
0
41
1
10
244.181680439173
20
-5.18153166779442
30
0
41
1
10
244.359917015109
20
-4.22796520216875
30
0
41
1
10
244.449035303077
20
-3.73320395615988
30
0
41
1
10
244.627271879014
20
-2.7320647834151
30
0
41
1
10
244.716390166982
20
-2.22578694433091
30
0
41
1
10
244.894626742918
20
-1.22374599173079
30
0
41
1
10
244.983745030886
20
-0.728036398836508
30
0
41
1
10
245.08400310485
20
-0.186013482837467
30
0
41
1
10
245.095142890846
20
-0.12600256006732
30
0
41
1
10
245.117422462838
20
-0.0064358735008625
30
0
41
1
10
245.128562248834
20
0.0530879517383767
30
0
41
1
10
245.161981606822
20
0.232790882224805
30
0
41
1
10
245.184261178814
20
0.353489807190044
30
0
41
1
10
245.25109989479
20
0.717935168078753
30
0
41
1
10
245.295659038774
20
0.964040930257823
30
0
41
1
10
245.429336470727
20
1.70865139575326
30
0
41
1
10
245.518454758695
20
2.21358829182037
30
0
41
1
10
245.696691334631
20
3.22002088024303
30
0
41
1
10
245.785809622599
20
3.72143125668731
30
0
41
1
10
245.964046198535
20
4.69678027283587
30
0
41
1
10
246.053164486503
20
5.17059794281744
30
0
41
1
10
246.142282774471
20
5.61851958224659
30
0
0
SPLINE
5
FB
100
AcDbEntity
8
1
62
256
6
ByLayer
370
13
48
1
60
0
100
AcDbSpline
70
4
71
3
72
12
73
8
40
0
40
0
40
0
40
0
40
0.249999999999998
40
0.249999999999998
40
0.499999999999996
40
0.499999999999996
40
1
40
1
40
1
40
1
41
1
10
236.1
20
8.83864427679757
30
0
41
1
10
236.152090108576
20
8.95340212072861
30
0
41
1
10
236.204180217153
20
9.05254734361375
30
0
41
1
10
236.308360434306
20
9.220230690666
30
0
41
1
10
236.360450542883
20
9.28877389007582
30
0
41
1
10
236.516720868613
20
9.45064374598996
30
0
41
1
10
236.620901085766
20
9.5
30
0
41
1
10
236.72508130292
20
9.5
30
0
0
SPLINE
5
FC
100
AcDbEntity
8
1
62
256
6
ByLayer
370
13
48
1
60
0
100
AcDbSpline
70
4
71
3
72
82
73
78
40
0
40
0
40
0
40
0
40
0.0312500000000004
40
0.0312500000000004
40
0.0625000000000008
40
0.0625000000000008
40
0.0937500000000012
40
0.0937500000000012
40
0.125000000000002
40
0.125000000000002
40
0.156250000000002
40
0.156250000000002
40
0.187500000000002
40
0.187500000000002
40
0.218750000000003
40
0.218750000000003
40
0.250000000000003
40
0.250000000000003
40
0.265625000000004
40
0.265625000000004
40
0.273437500000004
40
0.273437500000004
40
0.281250000000005
40
0.281250000000005
40
0.312500000000006
40
0.312500000000006
40
0.343750000000006
40
0.343750000000006
40
0.375000000000007
40
0.375000000000007
40
0.406250000000008
40
0.406250000000008
40
0.437500000000009
40
0.437500000000009
40
0.46875000000001
40
0.46875000000001
40
0.500000000000011
40
0.500000000000011
40
0.531250000000012
40
0.531250000000012
40
0.546875000000012
40
0.546875000000012
40
0.554687500000013
40
0.554687500000013
40
0.562500000000013
40
0.562500000000013
40
0.593750000000012
40
0.593750000000012
40
0.625000000000011
40
0.625000000000011
40
0.65625000000001
40
0.65625000000001
40
0.687500000000009
40
0.687500000000009
40
0.718750000000008
40
0.718750000000008
40
0.750000000000007
40
0.750000000000007
40
0.781250000000006
40
0.781250000000006
40
0.812500000000005
40
0.812500000000005
40
0.828125000000004
40
0.828125000000004
40
0.835937500000005
40
0.835937500000005
40
0.843750000000005
40
0.843750000000005
40
0.875000000000004
40
0.875000000000004
40
0.906250000000003
40
0.906250000000003
40
0.937500000000002
40
0.937500000000002
40
0.968750000000001
40
0.968750000000001
40
1
40
1
40
1
40
1
41
1
10
237.091284920395
20
9.5
30
0
41
1
10
237.185566148041
20
9.5
30
0
41
1
10
237.279847375688
20
9.45962534302274
30
0
41
1
10
237.468409830981
20
9.28421594969214
30
0
41
1
10
237.562691058628
20
9.14906551772197
30
0
41
1
10
237.751253513921
20
8.77643462218524
30
0
41
1
10
237.845534741568
20
8.53887476466377
30
0
41
1
10
238.034097196861
20
7.96331518096136
30
0
41
1
10
238.128378424508
20
7.62531367233487
30
0
41
1
10
238.316940879801
20
6.86168451607332
30
0
41
1
10
238.411222107447
20
6.43614731862741
30
0
41
1
10
238.599784562741
20
5.51987224367153
30
0
41
1
10
238.694065790387
20
5.02929007489763
30
0
41
1
10
238.882628245681
20
4.01112636974855
30
0
41
1
10
238.976909473327
20
3.48371004107099
30
0
41
1
10
239.165471928621
20
2.42081318792287
30
0
41
1
10
239.259753156267
20
1.88545484588491
30
0
41
1
10
239.401174997737
20
1.09524967701697
30
0
41
1
10
239.44831561156
20
0.83394576250285
30
0
41
1
10
239.519026532295
20
0.447042478395531
30
0
41
1
10
239.542596839207
20
0.318913495835972
30
0
41
1
10
239.589737453031
20
0.064609834861443
30
0
41
1
10
239.613307759942
20
-0.0610356224679549
30
0
41
1
10
239.7311592945
20
-0.696702789485613
30
0
41
1
10
239.825440522147
20
-1.22115957129103
30
0
41
1
10
240.01400297744
20
-2.28162718050908
30
0
41
1
10
240.108284205087
20
-2.81756591374921
30
0
41
1
10
240.29684666038
20
-3.87468660532363
30
0
41
1
10
240.391127888027
20
-4.39573215523879
30
0
41
1
10
240.57969034332
20
-5.3939095180761
30
0
41
1
10
240.673971570967
20
-5.87087288481442
30
0
41
1
10
240.86253402626
20
-6.75361318361584
30
0
41
1
10
240.956815253907
20
-7.15924600942137
30
0
41
1
10
241.1453777092
20
-7.87885437155882
30
0
41
1
10
241.239658936846
20
-8.19276140944933
30
0
41
1
10
241.42822139214
20
-8.71861390233209
30
0
41
1
10
241.522502619786
20
-8.93058318146657
30
0
41
1
10
241.711065075079
20
-9.25311590897755
30
0
41
1
10
241.805346302726
20
-9.36377203584172
30
0
41
1
10
241.946768144196
20
-9.46086170820658
30
0
41
1
10
241.993908758019
20
-9.48180287558765
30
0
41
1
10
242.064619678754
20
-9.4973908931585
30
0
41
1
10
242.088189985666
20
-9.4999519988549
30
0
41
1
10
242.135330599489
20
-9.50004666379763
30
0
41
1
10
242.158900906401
20
-9.49758252398772
30
0
41
1
10
242.276752440959
20
-9.47209853314891
30
0
41
1
10
242.371033668606
20
-9.40937918588338
30
0
41
1
10
242.559596123899
20
-9.18664214419883
30
0
41
1
10
242.653877351546
20
-9.02651346511851
30
0
41
1
10
242.842439806839
20
-8.60341138155047
30
0
41
1
10
242.936721034486
20
-8.34037454288145
30
0
41
1
10
243.125283489779
20
-7.71601858003581
30
0
41
1
10
243.219564717426
20
-7.35472069637731
30
0
41
1
10
243.408127172719
20
-6.54926934943381
30
0
41
1
10
243.502408400366
20
-6.10522656611283
30
0
41
1
10
243.690970855659
20
-5.15857459564117
30
0
41
1
10
243.785252083305
20
-4.65612912636587
30
0
41
1
10
243.973814538599
20
-3.62153206876536
30
0
41
1
10
244.068095766245
20
-3.08953909603153
30
0
41
1
10
244.256658221539
20
-2.02421447441301
30
0
41
1
10
244.350939449185
20
-1.49098929969321
30
0
41
1
10
244.492361290655
20
-0.707953043917883
30
0
41
1
10
244.539501904478
20
-0.449695202846414
30
0
41
1
10
244.610212825213
20
-0.0681845900782605
30
0
41
1
10
244.633783132125
20
0.0574619535328793
30
0
41
1
10
244.680923745948
20
0.311691979589369
30
0
41
1
10
244.70449405286
20
0.439786617846892
30
0
41
1
10
244.822345587418
20
1.08446737840694
30
0
41
1
10
244.916626815065
20
1.61393286482689
30
0
41
1
10
245.105189270358
20
2.67837353310756
30
0
41
1
10
245.199470498005
20
3.21325953775778
30
0
41
1
10
245.388032953298
20
4.26115506086535
30
0
41
1
10
245.482314180945
20
4.77401596204948
30
0
41
1
10
245.670876636238
20
5.74869362897468
30
0
41
1
10
245.765157863884
20
6.21034232305715
30
0
41
1
10
245.953720319178
20
7.05658113395788
30
0
41
1
10
246.048001546825
20
7.44104205103042
30
0
41
1
10
246.142282774471
20
7.77788689124887
30
0
0
SPLINE
5
FD
100
AcDbEntity
8
1
62
256
6
ByLayer
370
13
48
1
60
0
100
AcDbSpline
70
4
71
3
72
8
73
4
40
0
40
0
40
0
40
0
40
1
40
1
40
1
40
1
41
1
10
246.142282774471
20
-4.78309183490441
30
0
41
1
10
247.294855182981
20
-3.17926752165081
30
0
41
1
10
248.44742759149
20
-1.58489406458827
30
0
41
1
10
249.6
20
5.68E-14
30
0
0
SPLINE
5
FE
100
AcDbEntity
8
1
62
256
6
ByLayer
370
13
48
1
60
0
100
AcDbSpline
70
4
71
3
72
8
73
4
40
0
40
0
40
0
40
0
40
1
40
1
40
1
40
1
41
1
10
246.142282774471
20
-1.91125240638931
30
0
41
1
10
247.294855182981
20
-1.28489382974024
30
0
41
1
10
248.44742759149
20
-0.647805864480915
30
0
41
1
10
249.6
20
-1.137E-13
30
0
0
SPLINE
5
FF
100
AcDbEntity
8
1
62
256
6
ByLayer
370
13
48
1
60
0
100
AcDbSpline
70
4
71
3
72
8
73
4
40
0
40
0
40
0
40
0
40
1
40
1
40
1
40
1
41
1
10
246.142282774471
20
-1.39033249499604
30
0
41
1
10
247.294855182981
20
-0.916056787380143
30
0
41
1
10
248.44742759149
20
-0.452609873542684
30
0
41
1
10
249.6
20
2.84E-14
30
0
0
SPLINE
5
100
100
AcDbEntity
8
1
62
256
6
ByLayer
370
13
48
1
60
0
100
AcDbSpline
70
4
71
3
72
8
73
4
40
0
40
0
40
0
40
0
40
1
40
1
40
1
40
1
41
1
10
246.142282774471
20
7.97009139761687
30
0
41
1
10
247.294855182981
20
5.31935292432649
30
0
41
1
10
248.44742759149
20
2.66263989844899
30
0
41
1
10
249.6
20
5.68E-14
30
0
0
SPLINE
5
101
100
AcDbEntity
8
1
62
256
6
ByLayer
370
13
48
1
60
0
100
AcDbSpline
70
4
71
3
72
8
73
4
40
0
40
0
40
0
40
0
40
1
40
1
40
1
40
1
41
1
10
246.142282774471
20
6.41647670989315
30
0
41
1
10
247.294855182981
20
4.28572563370909
30
0
41
1
10
248.44742759149
20
2.1468872619736
30
0
41
1
10
249.6
20
2.84E-14
30
0
0
SPLINE
5
102
100
AcDbEntity
8
1
62
256
6
ByLayer
370
13
48
1
60
0
100
AcDbSpline
70
4
71
3
72
8
73
4
40
0
40
0
40
0
40
0
40
1
40
1
40
1
40
1
41
1
10
246.142282774471
20
-7.80438554763305
30
0
41
1
10
247.294855182981
20
-5.20916693604622
30
0
41
1
10
248.44742759149
20
-2.60768952312063
30
0
41
1
10
249.6
20
-4.263E-13
30
0
0
SPLINE
5
103
100
AcDbEntity
8
1
62
256
6
ByLayer
370
13
48
1
60
0
100
AcDbSpline
70
4
71
3
72
8
73
4
40
0
40
0
40
0
40
0
40
1
40
1
40
1
40
1
41
1
10
246.142282774471
20
-6.19407852079303
30
0
41
1
10
247.294855182981
20
-4.13768767417056
30
0
41
1
10
248.44742759149
20
-2.07298247483965
30
0
41
1
10
249.6
20
5.68E-14
30
0
0
SPLINE
5
104
100
AcDbEntity
8
1
62
256
6
ByLayer
370
13
48
1
60
0
100
AcDbSpline
70
4
71
3
72
8
73
4
40
0
40
0
40
0
40
0
40
1
40
1
40
1
40
1
41
1
10
246.142282774471
20
-7.05598333621441
30
0
41
1
10
247.294855182981
20
-4.71132047439866
30
0
41
1
10
248.44742759149
20
-2.35931195440133
30
0
41
1
10
249.6
20
-3.979E-13
30
0
0
SPLINE
5
105
100
AcDbEntity
8
1
62
256
6
ByLayer
370
13
48
1
60
0
100
AcDbSpline
70
4
71
3
72
8
73
4
40
0
40
0
40
0
40
0
40
1
40
1
40
1
40
1
41
1
10
246.142282774471
20
2.8536568655243
30
0
41
1
10
247.294855182981
20
1.89199413875019
30
0
41
1
10
248.44742759149
20
0.940769518095948
30
0
41
1
10
249.6
20
1.421E-13
30
0
0
SPLINE
5
106
100
AcDbEntity
8
1
62
256
6
ByLayer
370
13
48
1
60
0
100
AcDbSpline
70
4
71
3
72
8
73
4
40
0
40
0
40
0
40
0
40
1
40
1
40
1
40
1
41
1
10
246.142282774471
20
5.03763575010379
30
0
41
1
10
247.294855182981
20
3.34914063528339
30
0
41
1
10
248.44742759149
20
1.66991869892226
30
0
41
1
10
249.6
20
2.842E-13
30
0
0
SPLINE
5
107
100
AcDbEntity
8
1
62
256
6
ByLayer
370
13
48
1
60
0
100
AcDbSpline
70
4
71
3
72
8
73
4
40
0
40
0
40
0
40
0
40
1
40
1
40
1
40
1
41
1
10
246.142282774471
20
-9.45341612600029
30
0
41
1
10
247.294855182981
20
-6.303360420606
30
0
41
1
10
248.44742759149
20
-3.15220287259481
30
0
41
1
10
249.6
20
-5.116E-13
30
0
0
SPLINE
5
108
100
AcDbEntity
8
1
62
256
6
ByLayer
370
13
48
1
60
0
100
AcDbSpline
70
4
71
3
72
8
73
4
40
0
40
0
40
0
40
0
40
1
40
1
40
1
40
1
41
1
10
246.142282774471
20
1.68377131421175
30
0
41
1
10
247.294855182981
20
1.11173812501741
30
0
41
1
10
248.44742759149
20
0.550477686615125
30
0
41
1
10
249.6
20
8.53E-14
30
0
0
SPLINE
5
109
100
AcDbEntity
8
1
62
256
6
ByLayer
370
13
48
1
60
0
100
AcDbSpline
70
4
71
3
72
8
73
4
40
0
40
0
40
0
40
0
40
1
40
1
40
1
40
1
41
1
10
246.142282774471
20
-8.42724635113032
30
0
41
1
10
247.294855182981
20
-5.62321869697584
30
0
41
1
10
248.447427591491
20
-2.81411977745341
30
0
41
1
10
249.6
20
6.537E-13
30
0
0
SPLINE
5
10A
100
AcDbEntity
8
1
62
256
6
ByLayer
370
13
48
1
60
0
100
AcDbSpline
70
4
71
3
72
8
73
4
40
0
40
0
40
0
40
0
40
1
40
1
40
1
40
1
41
1
10
246.142282774471
20
2.20155815637426
30
0
41
1
10
247.294855182981
20
1.47835679951837
30
0
41
1
10
248.44742759149
20
0.744499672605826
30
0
41
1
10
249.6
20
5.68E-14
30
0
0
SPLINE
5
10B
100
AcDbEntity
8
1
62
256
6
ByLayer
370
13
48
1
60
0
100
AcDbSpline
70
4
71
3
72
8
73
4
40
0
40
0
40
0
40
0
40
1
40
1
40
1
40
1
41
1
10
246.142282774471
20
4.45166036612261
30
0
41
1
10
247.294855182981
20
2.97744644959596
30
0
41
1
10
248.44742759149
20
1.49355077108967
30
0
41
1
10
249.6
20
-5.68E-14
30
0
0
SPLINE
5
10C
100
AcDbEntity
8
1
62
256
6
ByLayer
370
13
48
1
60
0
100
AcDbSpline
70
4
71
3
72
8
73
4
40
0
40
0
40
0
40
0
40
1
40
1
40
1
40
1
41
1
10
246.142282774471
20
-0.718000784273642
30
0
41
1
10
247.294855182981
20
-0.48958530997632
30
0
41
1
10
248.44742759149
20
-0.25025026275074
30
0
41
1
10
249.6
20
-2.84E-14
30
0
0
SPLINE
5
10D
100
AcDbEntity
8
1
62
256
6
ByLayer
370
13
48
1
60
0
100
AcDbSpline
70
4
71
3
72
8
73
4
40
0
40
0
40
0
40
0
40
1
40
1
40
1
40
1
41
1
10
246.142282774471
20
3.9776384698271
30
0
41
1
10
247.294855182981
20
2.64181551973601
30
0
41
1
10
248.44742759149
20
1.31592812363471
30
0
41
1
10
249.6
20
2.274E-13
30
0
0
SPLINE
5
10E
100
AcDbEntity
8
1
62
256
6
ByLayer
370
13
48
1
60
0
100
AcDbSpline
70
4
71
3
72
8
73
4
40
0
40
0
40
0
40
0
40
1
40
1
40
1
40
1
41
1
10
246.142282774471
20
-8.17009298107754
30
0
41
1
10
247.294855182981
20
-5.44114140185113
30
0
41
1
10
248.44742759149
20
-2.71776080596374
30
0
41
1
10
249.6
20
8.53E-14
30
0
0
SPLINE
5
10F
100
AcDbEntity
8
1
62
256
6
ByLayer
370
13
48
1
60
0
100
AcDbSpline
70
4
71
3
72
8
73
4
40
0
40
0
40
0
40
0
40
1
40
1
40
1
40
1
41
1
10
246.142282774471
20
-9.49631753473784
30
0
41
1
10
247.294855182981
20
-6.3305735162775
30
0
41
1
10
248.44742759149
20
-3.16511541596563
30
0
41
1
10
249.6
20
1.137E-13
30
0
0
SPLINE
5
110
100
AcDbEntity
8
1
62
256
6
ByLayer
370
13
48
1
60
0
100
AcDbSpline
70
4
71
3
72
8
73
4
40
0
40
0
40
0
40
0
40
1
40
1
40
1
40
1
41
1
10
246.142282774471
20
9.01294060925133
30
0
41
1
10
247.294855182981
20
6.01208803525154
30
0
41
1
10
248.44742759149
20
3.00775653245736
30
0
41
1
10
249.6
20
-2.84E-14
30
0
0
SPLINE
5
111
100
AcDbEntity
8
1
62
256
6
ByLayer
370
13
48
1
60
0
100
AcDbSpline
70
4
71
3
72
8
73
4
40
0
40
0
40
0
40
0
40
1
40
1
40
1
40
1
41
1
10
246.142282774471
20
-9.12561398570534
30
0
41
1
10
247.294855182981
20
-6.0806990869167
30
0
41
1
10
248.44742759149
20
-3.03880958041586
30
0
41
1
10
249.6
20
-5.116E-13
30
0
0
SPLINE
5
112
100
AcDbEntity
8
1
62
256
6
ByLayer
370
13
48
1
60
0
100
AcDbSpline
70
4
71
3
72
8
73
4
40
0
40
0
40
0
40
0
40
1
40
1
40
1
40
1
41
1
10
246.142282774471
20
-5.23253570907679
30
0
41
1
10
247.294855182981
20
-3.49749599714386
30
0
41
1
10
248.44742759149
20
-1.7533069827193
30
0
41
1
10
249.6
20
-2.842E-13
30
0
0
SPLINE
5
113
100
AcDbEntity
8
1
62
256
6
ByLayer
370
13
48
1
60
0
100
AcDbSpline
70
4
71
3
72
8
73
4
40
0
40
0
40
0
40
0
40
1
40
1
40
1
40
1
41
1
10
246.142282774471
20
6.01659758168273
30
0
41
1
10
247.294855182981
20
4.00259144796431
30
0
41
1
10
248.44742759149
20
1.99704694875226
30
0
41
1
10
249.6
20
3.411E-13
30
0
0
SPLINE
5
114
100
AcDbEntity
8
1
62
256
6
ByLayer
370
13
48
1
60
0
100
AcDbSpline
70
4
71
3
72
8
73
4
40
0
40
0
40
0
40
0
40
1
40
1
40
1
40
1
41
1
10
246.142282774471
20
5.47812915254229
30
0
41
1
10
247.294855182981
20
3.66103173443511
30
0
41
1
10
248.447427591491
20
1.83497774986276
30
0
41
1
10
249.6
20
-5.68E-14
30
0
0
SPLINE
5
115
100
AcDbEntity
8
1
62
256
6
ByLayer
370
13
48
1
60
0
100
AcDbSpline
70
4
71
3
72
8
73
4
40
0
40
0
40
0
40
0
40
1
40
1
40
1
40
1
41
1
10
246.142282774471
20
-4.18682228637476
30
0
41
1
10
247.294855182981
20
-2.80104357172129
30
0
41
1
10
248.44742759149
20
-1.40542778054555
30
0
41
1
10
249.6
20
-2.274E-13
30
0
0
SPLINE
5
116
100
AcDbEntity
8
1
62
256
6
ByLayer
370
13
48
1
60
0
100
AcDbSpline
70
4
71
3
72
8
73
4
40
0
40
0
40
0
40
0
40
1
40
1
40
1
40
1
41
1
10
246.142282774471
20
8.8318323735588
30
0
41
1
10
247.294855182981
20
5.88385445358424
30
0
41
1
10
248.44742759149
20
2.93989273850423
30
0
41
1
10
249.6
20
4.832E-13
30
0
0
SPLINE
5
117
100
AcDbEntity
8
1
62
256
6
ByLayer
370
13
48
1
60
0
100
AcDbSpline
70
4
71
3
72
8
73
4
40
0
40
0
40
0
40
0
40
1
40
1
40
1
40
1
41
1
10
246.142282774471
20
-3.70568504877161
30
0
41
1
10
247.294855182981
20
-2.46037462855836
30
0
41
1
10
248.44742759149
20
-1.22513891498826
30
0
41
1
10
249.6
20
2.84E-14
30
0
0
SPLINE
5
118
100
AcDbEntity
8
1
62
256
6
ByLayer
370
13
48
1
60
0
100
AcDbSpline
70
4
71
3
72
8
73
4
40
0
40
0
40
0
40
0
40
1
40
1
40
1
40
1
41
1
10
246.142282774471
20
-8.71797216817009
30
0
41
1
10
247.294855182981
20
-5.80763104393964
30
0
41
1
10
248.44742759149
20
-2.90162295816816
30
0
41
1
10
249.6
20
8.53E-14
30
0
0
SPLINE
5
119
100
AcDbEntity
8
1
62
256
6
ByLayer
370
13
48
1
60
0
100
AcDbSpline
70
4
71
3
72
8
73
4
40
0
40
0
40
0
40
0
40
1
40
1
40
1
40
1
41
1
10
246.142282774471
20
-5.78355776778153
30
0
41
1
10
247.294855182981
20
-3.84701869213225
30
0
41
1
10
248.44742759149
20
-1.91915459567409
30
0
41
1
10
249.6
20
5.68E-14
30
0
0
SPLINE
5
11A
100
AcDbEntity
8
1
62
256
6
ByLayer
370
13
48
1
60
0
100
AcDbSpline
70
4
71
3
72
8
73
4
40
0
40
0
40
0
40
0
40
1
40
1
40
1
40
1
41
1
10
246.142282774471
20
0.486800604162028
30
0
41
1
10
247.294855182981
20
0.313598682973406
30
0
41
1
10
248.44742759149
20
0.151330866694138
30
0
41
1
10
249.6
20
2.84E-14
30
0
0
SPLINE
5
11B
100
AcDbEntity
8
1
62
256
6
ByLayer
370
13
48
1
60
0
100
AcDbSpline
70
4
71
3
72
8
73
4
40
0
40
0
40
0
40
0
40
1
40
1
40
1
40
1
41
1
10
246.142282774471
20
-9.38646110416789
30
0
41
1
10
247.294855182981
20
-6.25595295607297
30
0
41
1
10
248.44742759149
20
-3.12711388761031
30
0
41
1
10
249.6
20
1.137E-13
30
0
0
SPLINE
5
11C
100
AcDbEntity
8
1
62
256
6
ByLayer
370
13
48
1
60
0
100
AcDbSpline
70
4
71
3
72
8
73
4
40
0
40
0
40
0
40
0
40
1
40
1
40
1
40
1
41
1
10
246.142282774471
20
-2.56866858350438
30
0
41
1
10
247.294855182981
20
-1.70190412964436
30
0
41
1
10
248.44742759149
20
-0.845676171068618
30
0
41
1
10
249.6
20
2.84E-14
30
0
0
SPLINE
5
11D
100
AcDbEntity
8
1
62
256
6
ByLayer
370
13
48
1
60
0
100
AcDbSpline
70
4
71
3
72
8
73
4
40
0
40
0
40
0
40
0
40
1
40
1
40
1
40
1
41
1
10
246.142282774471
20
8.31780704197882
30
0
41
1
10
247.294855182981
20
5.53991489128802
30
0
41
1
10
248.44742759149
20
2.76729598016783
30
0
41
1
10
249.6
20
4.547E-13
30
0
0
SPLINE
5
11E
100
AcDbEntity
8
1
62
256
6
ByLayer
370
13
48
1
60
0
100
AcDbSpline
70
4
71
3
72
8
73
4
40
0
40
0
40
0
40
0
40
1
40
1
40
1
40
1
41
1
10
246.142282774471
20
9.32053191447829
30
0
41
1
10
247.294855182981
20
6.21580619574343
30
0
41
1
10
248.44742759149
20
3.1089436476326
30
0
41
1
10
249.6
20
-2.84E-14
30
0
0
SPLINE
5
11F
100
AcDbEntity
8
1
62
256
6
ByLayer
370
13
48
1
60
0
100
AcDbSpline
70
4
71
3
72
8
73
4
40
0
40
0
40
0
40
0
40
1
40
1
40
1
40
1
41
1
10
246.142282774471
20
-0.189631506927668
30
0
41
1
10
247.294855182981
20
-0.115473748356464
30
0
41
1
10
248.44742759149
20
-0.0522628899951485
30
0
41
1
10
249.6
20
0
30
0
0
SPLINE
5
120
100
AcDbEntity
8
1
62
256
6
ByLayer
370
13
48
1
60
0
100
AcDbSpline
70
4
71
3
72
8
73
4
40
0
40
0
40
0
40
0
40
1
40
1
40
1
40
1
41
1
10
246.142282774471
20
6.89877637676372
30
0
41
1
10
247.294855182981
20
4.59165654281458
30
0
41
1
10
248.44742759149
20
2.29205068549902
30
0
41
1
10
249.6
20
3.695E-13
30
0
0
SPLINE
5
121
100
AcDbEntity
8
1
62
256
6
ByLayer
370
13
48
1
60
0
100
AcDbSpline
70
4
71
3
72
8
73
4
40
0
40
0
40
0
40
0
40
1
40
1
40
1
40
1
41
1
10
246.142282774471
20
8.5603670697804
30
0
41
1
10
247.294855182981
20
5.71165937886138
30
0
41
1
10
248.447427591491
20
2.85818662180577
30
0
41
1
10
249.6
20
-8.53E-14
30
0
0
SPLINE
5
122
100
AcDbEntity
8
1
62
256
6
ByLayer
370
13
48
1
60
0
100
AcDbSpline
70
4
71
3
72
8
73
4
40
0
40
0
40
0
40
0
40
1
40
1
40
1
40
1
41
1
10
246.142282774471
20
1.01411989506767
30
0
41
1
10
247.294855182981
20
0.686966802300674
30
0
41
1
10
248.44742759149
20
0.348924794816042
30
0
41
1
10
249.6
20
0
30
0
0
SPLINE
5
123
100
AcDbEntity
8
1
62
256
6
ByLayer
370
13
48
1
60
0
100
AcDbSpline
70
4
71
3
72
8
73
4
40
0
40
0
40
0
40
0
40
1
40
1
40
1
40
1
41
1
10
246.142282774471
20
-3.07375960711184
30
0
41
1
10
247.294855182981
20
-2.05953353715108
30
0
41
1
10
248.44742759149
20
-1.03494085592851
30
0
41
1
10
249.6
20
-1.705E-13
30
0
0
SPLINE
5
124
100
AcDbEntity
8
1
62
256
6
ByLayer
370
13
48
1
60
0
100
AcDbSpline
70
4
71
3
72
8
73
4
40
0
40
0
40
0
40
0
40
1
40
1
40
1
40
1
41
1
10
246.142282774471
20
-6.69098934445853
30
0
41
1
10
247.294855182981
20
-4.45288668936931
30
0
41
1
10
248.44742759149
20
-2.22254359068711
30
0
41
1
10
249.6
20
8.53E-14
30
0
0
SPLINE
5
125
100
AcDbEntity
8
1
62
256
6
ByLayer
370
13
48
1
60
0
100
AcDbSpline
70
4
71
3
72
8
73
4
40
0
40
0
40
0
40
0
40
1
40
1
40
1
40
1
41
1
10
246.142282774471
20
9.47819306928184
30
0
41
1
10
247.294855182981
20
6.31953684838899
30
0
41
1
10
248.44742759149
20
3.16012027059298
30
0
41
1
10
249.6
20
0
30
0
0
SPLINE
5
126
100
AcDbEntity
8
1
62
256
6
ByLayer
370
13
48
1
60
0
100
AcDbSpline
70
4
71
3
72
8
73
4
40
0
40
0
40
0
40
0
40
1
40
1
40
1
40
1
41
1
10
246.142282774471
20
7.25160877191277
30
0
41
1
10
247.294855182981
20
4.84147931639114
30
0
41
1
10
248.44742759149
20
2.42426192853228
30
0
41
1
10
249.6
20
2.84E-14
30
0
0
SPLINE
5
127
100
AcDbEntity
8
1
62
256
6
ByLayer
370
13
48
1
60
0
100
AcDbSpline
70
4
71
3
72
8
73
4
40
0
40
0
40
0
40
0
40
1
40
1
40
1
40
1
41
1
10
246.142282774471
20
-7.49078961338387
30
0
41
1
10
247.294855182981
20
-4.98712551594514
30
0
41
1
10
248.44742759149
20
-2.49018073184328
30
0
41
1
10
249.6
20
8.53E-14
30
0
0
SPLINE
5
128
100
AcDbEntity
8
1
62
256
6
ByLayer
370
13
48
1
60
0
100
AcDbSpline
70
4
71
3
72
8
73
4
40
0
40
0
40
0
40
0
40
1
40
1
40
1
40
1
41
1
10
246.142282774471
20
9.203788779413
30
0
41
1
10
247.294855182981
20
6.13314628639566
30
0
41
1
10
248.44742759149
20
3.06519835889301
30
0
41
1
10
249.6
20
5.116E-13
30
0
0
SPLINE
5
129
100
AcDbEntity
8
1
62
256
6
ByLayer
370
13
48
1
60
0
100
AcDbSpline
70
4
71
3
72
8
73
4
40
0
40
0
40
0
40
0
40
1
40
1
40
1
40
1
41
1
10
246.142282774471
20
-8.91454640287287
30
0
41
1
10
247.294855182981
20
-5.94681531727244
30
0
41
1
10
248.447427591491
20
-2.97528207868993
30
0
41
1
10
249.6
20
6.821E-13
30
0
0
SPLINE
5
12A
100
AcDbEntity
8
1
62
256
6
ByLayer
370
13
48
1
60
0
100
AcDbSpline
70
4
71
3
72
8
73
4
40
0
40
0
40
0
40
0
40
1
40
1
40
1
40
1
41
1
10
246.142282774471
20
7.66998140024057
30
0
41
1
10
247.294855182981
20
5.10686021403859
30
0
41
1
10
248.44742759149
20
2.5501844767096
30
0
41
1
10
249.6
20
4.263E-13
30
0
0
SPLINE
5
12B
100
AcDbEntity
8
1
62
256
6
ByLayer
370
13
48
1
60
0
100
AcDbSpline
70
4
71
3
72
8
73
4
40
0
40
0
40
0
40
0
40
1
40
1
40
1
40
1
41
1
10
246.142282774471
20
9.42769296584189
30
0
41
1
10
247.294855182981
20
6.28378027931919
30
0
41
1
10
248.44742759149
20
3.1411971741291
30
0
41
1
10
249.6
20
5.116E-13
30
0
0
SPLINE
5
12C
100
AcDbEntity
8
1
62
256
6
ByLayer
370
13
48
1
60
0
100
AcDbSpline
70
4
71
3
72
8
73
4
40
0
40
0
40
0
40
0
40
1
40
1
40
1
40
1
41
1
10
246.142282774471
20
-9.25844699035699
30
0
41
1
10
247.294855182981
20
-6.17475141913121
30
0
41
1
10
248.44742759149
20
-3.08858396877227
30
0
41
1
10
249.6
20
-5.116E-13
30
0
0
SPLINE
5
12D
100
AcDbEntity
8
1
62
256
6
ByLayer
370
13
48
1
60
0
100
AcDbSpline
70
4
71
3
72
8
73
4
40
0
40
0
40
0
40
0
40
1
40
1
40
1
40
1
41
1
10
246.142282774471
20
3.35358213568708
30
0
41
1
10
247.294855182981
20
2.24596593751414
30
0
41
1
10
248.44742759149
20
1.12809852274728
30
0
41
1
10
249.6
20
-2.84E-14
30
0
0
LINE
5
7D
100
AcDbEntity
8
4
62
256
6
ByLayer
370
18
48
0.05
60
0
100
AcDbLine
10
-5
20
0
30
0
11
254.6
21
0
31
0
39
0
210
0
220
0
230
1
0
LINE
5
7F
100
AcDbEntity
8
81
62
256
6
ByLayer
370
18
48
1
60
0
100
AcDbLine
10
249.6
20
0
30
0
11
254.6
21
0
31
0
39
0
210
0
220
0
230
1
0
LINE
5
80
100
AcDbEntity
8
SK4
62
256
6
ByLayer
370
18
48
0.05
60
0
100
AcDbLine
10
-61
20
0
30
0
11
254.6
21
0
31
0
39
0
210
0
220
0
230
1
0
LINE
5
82
100
AcDbEntity
8
80
62
256
6
ByLayer
370
18
48
1
60
0
100
AcDbLine
10
0
20
0
30
0
11
-5
21
0
31
0
39
0
210
0
220
0
230
1
0
LINE
5
83
100
AcDbEntity
8
1
62
256
6
ByLayer
370
18
48
1
60
0
100
AcDbLine
10
246.142283
20
9.5
30
0
11
246.142283
21
9.198343
31
0
39
0
210
0
220
0
230
1
0
LINE
5
84
100
AcDbEntity
8
1
62
256
6
ByLayer
370
18
48
1
60
0
100
AcDbLine
10
246.142283
20
-9.5
30
0
11
246.142283
21
-1.354966
31
0
39
0
210
0
220
0
230
1
0
LINE
5
85
100
AcDbEntity
8
1
62
256
6
ByLayer
370
18
48
1
60
0
100
AcDbLine
10
15
20
-9.2
30
0
11
15
21
-5.976959
31
0
39
0
210
0
220
0
230
1
0
LINE
5
86
100
AcDbEntity
8
1
62
256
6
ByLayer
370
18
48
1
60
0
100
AcDbLine
10
15
20
5.323078
30
0
11
15
21
9.2
31
0
39
0
210
0
220
0
230
1
0
LINE
5
87
100
AcDbEntity
8
1
62
256
6
ByLayer
370
18
48
1
60
0
100
AcDbLine
10
0
20
-15
30
0
11
0
21
15
31
0
39
0
210
0
220
0
230
1
0
LINE
5
88
100
AcDbEntity
8
1
62
256
6
ByLayer
370
18
48
1
60
0
100
AcDbLine
10
3
20
-15
30
0
11
3
21
15
31
0
39
0
210
0
220
0
230
1
0
LINE
5
89
100
AcDbEntity
8
SK1
62
256
6
ByLayer
370
18
48
1
60
0
100
AcDbLine
10
-56
20
-11.5
30
0
11
-56
21
11.5
31
0
39
0
210
0
220
0
230
1
0
LINE
5
8B
100
AcDbEntity
8
SK1
62
256
6
ByLayer
370
18
48
1
60
0
100
AcDbLine
10
-55
20
-12.5
30
0
11
-55
21
12.5
31
0
39
0
210
0
220
0
230
1
0
LINE
5
8C
100
AcDbEntity
8
1
62
256
6
ByLayer
370
18
48
1
60
0
100
AcDbLine
10
119.095431
20
9.2
30
0
11
75.860346
21
9.2
31
0
39
0
210
0
220
0
230
1
0
LINE
5
8D
100
AcDbEntity
8
1
62
256
6
ByLayer
370
18
48
1
60
0
100
AcDbLine
10
15
20
-9.2
30
0
11
37.097853
21
-9.2
31
0
39
0
210
0
220
0
230
1
0
LINE
5
8E
100
AcDbEntity
8
1
62
256
6
ByLayer
370
18
48
1
60
0
100
AcDbLine
10
157.861303
20
-9.2
30
0
11
201.094118
21
-9.2
31
0
39
0
210
0
220
0
230
1
0
LINE
5
8F
100
AcDbEntity
8
1
62
256
6
ByLayer
370
18
48
1
60
0
100
AcDbLine
10
201.094118
20
9.2
30
0
11
157.861303
21
9.2
31
0
39
0
210
0
220
0
230
1
0
LINE
5
90
100
AcDbEntity
8
1
62
256
6
ByLayer
370
18
48
1
60
0
100
AcDbLine
10
37.097853
20
9.2
30
0
11
15
21
9.2
31
0
39
0
210
0
220
0
230
1
0
LINE
5
91
100
AcDbEntity
8
1
62
256
6
ByLayer
370
18
48
1
60
0
100
AcDbLine
10
75.860346
20
-9.2
30
0
11
119.095431
21
-9.2
31
0
39
0
210
0
220
0
230
1
0
LINE
5
92
100
AcDbEntity
8
1
62
256
6
ByLayer
370
18
48
1
60
0
100
AcDbLine
10
249.6
20
0
30
0
11
246.142283
21
9.5
31
0
39
0
210
0
220
0
230
1
0
LINE
5
93
100
AcDbEntity
8
1
62
256
6
ByLayer
370
18
48
1
60
0
100
AcDbLine
10
246.142283
20
-9.5
30
0
11
249.6
21
0
31
0
39
0
210
0
220
0
230
1
0
LINE
5
94
100
AcDbEntity
8
1
62
256
6
ByLayer
370
18
48
1
60
0
100
AcDbLine
10
15
20
9.2
30
0
11
3
21
15
31
0
39
0
210
0
220
0
230
1
0
LINE
5
95
100
AcDbEntity
8
1
62
256
6
ByLayer
370
18
48
1
60
0
100
AcDbLine
10
3
20
-15
30
0
11
15
21
-9.2
31
0
39
0
210
0
220
0
230
1
0
LINE
5
96
100
AcDbEntity
8
1
62
256
6
ByLayer
370
18
48
1
60
0
100
AcDbLine
10
0
20
-15
30
0
11
3
21
-15
31
0
39
0
210
0
220
0
230
1
0
LINE
5
97
100
AcDbEntity
8
1
62
256
6
ByLayer
370
18
48
1
60
0
100
AcDbLine
10
3
20
15
30
0
11
0
21
15
31
0
39
0
210
0
220
0
230
1
0
LINE
5
98
100
AcDbEntity
8
SK1
62
256
6
ByLayer
370
18
48
1
60
0
100
AcDbLine
10
-56
20
-11.5
30
0
11
-55
21
-12.5
31
0
39
0
210
0
220
0
230
1
0
LINE
5
99
100
AcDbEntity
8
SK1
62
256
6
ByLayer
370
18
48
1
60
0
100
AcDbLine
10
-55
20
12.5
30
0
11
-56
21
11.5
31
0
39
0
210
0
220
0
230
1
0
LINE
5
9A
100
AcDbEntity
8
SK1
62
256
6
ByLayer
370
18
48
1
60
0
100
AcDbLine
10
-55
20
-12.5
30
0
11
0
21
-12.5
31
0
39
0
210
0
220
0
230
1
0
LINE
5
9B
100
AcDbEntity
8
SK1
62
256
6
ByLayer
370
18
48
1
60
0
100
AcDbLine
10
0
20
12.5
30
0
11
-55
21
12.5
31
0
39
0
210
0
220
0
230
1
0
LINE
5
9C
100
AcDbEntity
8
1
62
256
6
ByLayer
370
18
48
1
60
0
100
AcDbLine
10
236.1
20
-9.5
30
0
11
246.142283
21
-9.5
31
0
39
0
210
0
220
0
230
1
0
LINE
5
9D
100
AcDbEntity
8
1
62
256
6
ByLayer
370
18
48
1
60
0
100
AcDbLine
10
249.6
20
0
30
0
11
246.142283
21
9.5
31
0
39
0
210
0
220
0
230
1
0
LINE
5
9E
100
AcDbEntity
8
1
62
256
6
ByLayer
370
18
48
1
60
0
100
AcDbLine
10
246.142283
20
-9.5
30
0
11
249.6
21
0
31
0
39
0
210
0
220
0
230
1
0
LINE
5
9F
100
AcDbEntity
8
1
62
256
6
ByLayer
370
18
48
1
60
0
100
AcDbLine
10
246.142283
20
9.5
30
0
11
246.142283
21
-9.5
31
0
39
0
210
0
220
0
230
1
0
LINE
5
A0
100
AcDbEntity
8
1
62
256
6
ByLayer
370
18
48
1
60
0
100
AcDbLine
10
246.142283
20
9.5
30
0
11
246.142283
21
-9.5
31
0
39
0
210
0
220
0
230
1
0
LINE
5
A1
100
AcDbEntity
8
1
62
256
6
ByLayer
370
18
48
1
60
0
100
AcDbLine
10
246.142283
20
9.5
30
0
11
246.142283
21
-9.5
31
0
39
0
210
0
220
0
230
1
0
LINE
5
A2
100
AcDbEntity
8
1
62
256
6
ByLayer
370
18
48
1
60
0
100
AcDbLine
10
236.1
20
9.5
30
0
11
236.1
21
-9.5
31
0
39
0
210
0
220
0
230
1
0
LINE
5
A3
100
AcDbEntity
8
1
62
256
6
ByLayer
370
18
48
1
60
0
100
AcDbLine
10
236.1
20
9.5
30
0
11
236.1
21
-9.5
31
0
39
0
210
0
220
0
230
1
0
LINE
5
A4
100
AcDbEntity
8
1
62
256
6
ByLayer
370
18
48
1
60
0
100
AcDbLine
10
246.142283
20
9.5
30
0
11
246.142283
21
-9.5
31
0
39
0
210
0
220
0
230
1
0
LINE
5
A5
100
AcDbEntity
8
1
62
256
6
ByLayer
370
18
48
1
60
0
100
AcDbLine
10
236.1
20
9.5
30
0
11
236.1
21
-9.5
31
0
39
0
210
0
220
0
230
1
0
LINE
5
A6
100
AcDbEntity
8
1
62
256
6
ByLayer
370
18
48
1
60
0
100
AcDbLine
10
246.142283
20
9.5
30
0
11
246.142283
21
-9.5
31
0
39
0
210
0
220
0
230
1
0
LINE
5
A7
100
AcDbEntity
8
SK2
62
256
6
ByLayer
370
13
48
1
60
0
100
AcDbLine
10
-62.5
20
-12.5
30
0
11
-62.5
21
41.524569
31
0
39
0
210
0
220
0
230
1
0
LINE
5
A9
100
AcDbEntity
8
SK2
62
256
6
ByLayer
370
13
48
1
60
0
100
AcDbLine
10
-57.5875
20
12.5
30
0
11
-64.5
21
12.5
31
0
39
0
210
0
220
0
230
1
0
LINE
5
AA
100
AcDbEntity
8
SK2
62
256
6
ByLayer
370
13
48
1
60
0
100
AcDbLine
10
-57.5875
20
-12.5
30
0
11
-64.5
21
-12.5
31
0
39
0
210
0
220
0
230
1
0
LINE
5
AB
100
AcDbEntity
8
1
62
256
6
ByLayer
370
18
48
1
60
1
100
AcDbLine
10
-62.5
20
12.5
30
0
11
-62.039216
21
9.000002
31
0
39
0
210
0
220
0
230
1
0
LINE
5
AC
100
AcDbEntity
8
1
62
256
6
ByLayer
370
18
48
1
60
1
100
AcDbLine
10
-62.039216
20
9.000002
30
0
11
-62.960784
21
8.999998
31
0
39
0
210
0
220
0
230
1
0
LINE
5
AD
100
AcDbEntity
8
1
62
256
6
ByLayer
370
18
48
1
60
1
100
AcDbLine
10
-62.960784
20
8.999998
30
0
11
-62.5
21
12.5
31
0
39
0
210
0
220
0
230
1
0
LINE
5
AE
100
AcDbEntity
8
1
62
256
6
ByLayer
370
18
48
1
60
1
100
AcDbLine
10
-62.5
20
-12.5
30
0
11
-62.960784
21
-9.000002
31
0
39
0
210
0
220
0
230
1
0
LINE
5
AF
100
AcDbEntity
8
1
62
256
6
ByLayer
370
18
48
1
60
1
100
AcDbLine
10
-62.960784
20
-9.000002
30
0
11
-62.039216
21
-8.999998
31
0
39
0
210
0
220
0
230
1
0
LINE
5
B0
100
AcDbEntity
8
1
62
256
6
ByLayer
370
18
48
1
60
1
100
AcDbLine
10
-62.039216
20
-8.999998
30
0
11
-62.5
21
-12.5
31
0
39
0
210
0
220
0
230
1
0
LINE
5
B1
100
AcDbEntity
8
2
62
256
6
ByLayer
370
13
48
1
60
0
100
AcDbLine
10
257.1
20
-9.5
30
0
11
257.1
21
37.774683
31
0
39
0
210
0
220
0
230
1
0
LINE
5
B3
100
AcDbEntity
8
2
62
256
6
ByLayer
370
13
48
1
60
0
100
AcDbLine
10
247.729783
20
9.5
30
0
11
259.1
21
9.5
31
0
39
0
210
0
220
0
230
1
0
LINE
5
B4
100
AcDbEntity
8
2
62
256
6
ByLayer
370
13
48
1
60
0
100
AcDbLine
10
247.729783
20
-9.5
30
0
11
259.1
21
-9.5
31
0
39
0
210
0
220
0
230
1
0
LINE
5
B5
100
AcDbEntity
8
1
62
256
6
ByLayer
370
18
48
1
60
1
100
AcDbLine
10
257.1
20
9.5
30
0
11
257.560784
21
6.000002
31
0
39
0
210
0
220
0
230
1
0
LINE
5
B6
100
AcDbEntity
8
1
62
256
6
ByLayer
370
18
48
1
60
1
100
AcDbLine
10
257.560784
20
6.000002
30
0
11
256.639216
21
5.999998
31
0
39
0
210
0
220
0
230
1
0
LINE
5
B7
100
AcDbEntity
8
1
62
256
6
ByLayer
370
18
48
1
60
1
100
AcDbLine
10
256.639216
20
5.999998
30
0
11
257.1
21
9.5
31
0
39
0
210
0
220
0
230
1
0
LINE
5
B8
100
AcDbEntity
8
1
62
256
6
ByLayer
370
18
48
1
60
1
100
AcDbLine
10
257.1
20
-9.5
30
0
11
256.639216
21
-6.000002
31
0
39
0
210
0
220
0
230
1
0
LINE
5
B9
100
AcDbEntity
8
1
62
256
6
ByLayer
370
18
48
1
60
1
100
AcDbLine
10
256.639216
20
-6.000002
30
0
11
257.560784
21
-5.999998
31
0
39
0
210
0
220
0
230
1
0
LINE
5
BA
100
AcDbEntity
8
1
62
256
6
ByLayer
370
18
48
1
60
1
100
AcDbLine
10
257.560784
20
-5.999998
30
0
11
257.1
21
-9.5
31
0
39
0
210
0
220
0
230
1
0
LINE
5
BB
100
AcDbEntity
8
SK2
62
256
6
ByLayer
370
13
48
1
60
0
100
AcDbLine
10
250.142957
20
-1.491762
30
0
11
256.782423
21
-19.733545
31
0
39
0
210
0
220
0
230
1
0
LINE
5
BC
100
AcDbEntity
8
SK2
62
256
6
ByLayer
370
13
48
1
60
0
100
AcDbLine
10
250.142957
20
1.491762
30
0
11
256.782423
21
19.733545
31
0
39
0
210
0
220
0
230
1
0
LINE
5
BD
100
AcDbEntity
8
1
62
256
6
ByLayer
370
18
48
1
60
1
100
AcDbLine
10
256.098383
20
-17.85416
30
0
11
259.151575
21
-16.082064
31
0
39
0
210
0
220
0
230
1
0
LINE
5
BE
100
AcDbEntity
8
1
62
256
6
ByLayer
370
18
48
1
60
1
100
AcDbLine
10
259.151575
20
-16.082064
30
0
11
259.506196
21
-16.93267
31
0
39
0
210
0
220
0
230
1
0
LINE
5
BF
100
AcDbEntity
8
1
62
256
6
ByLayer
370
18
48
1
60
1
100
AcDbLine
10
259.506196
20
-16.93267
30
0
11
256.098383
21
-17.85416
31
0
39
0
210
0
220
0
230
1
0
LINE
5
C0
100
AcDbEntity
8
1
62
256
6
ByLayer
370
18
48
1
60
1
100
AcDbLine
10
256.098383
20
17.85416
30
0
11
259.506193
21
16.932671
31
0
39
0
210
0
220
0
230
1
0
LINE
5
C1
100
AcDbEntity
8
1
62
256
6
ByLayer
370
18
48
1
60
1
100
AcDbLine
10
259.506193
20
16.932671
30
0
11
259.151579
21
16.082063
31
0
39
0
210
0
220
0
230
1
0
LINE
5
C2
100
AcDbEntity
8
1
62
256
6
ByLayer
370
18
48
1
60
1
100
AcDbLine
10
259.151579
20
16.082063
30
0
11
256.098383
21
17.85416
31
0
39
0
210
0
220
0
230
1
0
LINE
5
132
100
AcDbEntity
8
1
62
256
6
ByLayer
370
18
48
1
60
1
100
AcDbLine
10
-62.5
20
12.5
30
0
11
-62.039216
21
9.000002
31
0
39
0
210
0
220
0
230
1
0
LINE
5
133
100
AcDbEntity
8
1
62
256
6
ByLayer
370
18
48
1
60
1
100
AcDbLine
10
-62.039216
20
9.000002
30
0
11
-62.960784
21
8.999998
31
0
39
0
210
0
220
0
230
1
0
LINE
5
134
100
AcDbEntity
8
1
62
256
6
ByLayer
370
18
48
1
60
1
100
AcDbLine
10
-62.960784
20
8.999998
30
0
11
-62.5
21
12.5
31
0
39
0
210
0
220
0
230
1
0
LINE
5
136
100
AcDbEntity
8
1
62
256
6
ByLayer
370
18
48
1
60
1
100
AcDbLine
10
-62.5
20
-12.5
30
0
11
-62.960784
21
-9.000002
31
0
39
0
210
0
220
0
230
1
0
LINE
5
137
100
AcDbEntity
8
1
62
256
6
ByLayer
370
18
48
1
60
1
100
AcDbLine
10
-62.960784
20
-9.000002
30
0
11
-62.039216
21
-8.999998
31
0
39
0
210
0
220
0
230
1
0
LINE
5
138
100
AcDbEntity
8
1
62
256
6
ByLayer
370
18
48
1
60
1
100
AcDbLine
10
-62.039216
20
-8.999998
30
0
11
-62.5
21
-12.5
31
0
39
0
210
0
220
0
230
1
0
LINE
5
13C
100
AcDbEntity
8
1
62
256
6
ByLayer
370
18
48
1
60
1
100
AcDbLine
10
257.1
20
9.5
30
0
11
257.560784
21
6.000002
31
0
39
0
210
0
220
0
230
1
0
LINE
5
13D
100
AcDbEntity
8
1
62
256
6
ByLayer
370
18
48
1
60
1
100
AcDbLine
10
257.560784
20
6.000002
30
0
11
256.639216
21
5.999998
31
0
39
0
210
0
220
0
230
1
0
LINE
5
13E
100
AcDbEntity
8
1
62
256
6
ByLayer
370
18
48
1
60
1
100
AcDbLine
10
256.639216
20
5.999998
30
0
11
257.1
21
9.5
31
0
39
0
210
0
220
0
230
1
0
LINE
5
140
100
AcDbEntity
8
1
62
256
6
ByLayer
370
18
48
1
60
1
100
AcDbLine
10
257.1
20
-9.5
30
0
11
256.639216
21
-6.000002
31
0
39
0
210
0
220
0
230
1
0
LINE
5
141
100
AcDbEntity
8
1
62
256
6
ByLayer
370
18
48
1
60
1
100
AcDbLine
10
256.639216
20
-6.000002
30
0
11
257.560784
21
-5.999998
31
0
39
0
210
0
220
0
230
1
0
LINE
5
142
100
AcDbEntity
8
1
62
256
6
ByLayer
370
18
48
1
60
1
100
AcDbLine
10
257.560784
20
-5.999998
30
0
11
257.1
21
-9.5
31
0
39
0
210
0
220
0
230
1
0
LINE
5
145
100
AcDbEntity
8
1
62
256
6
ByLayer
370
18
48
1
60
1
100
AcDbLine
10
256.098383
20
-17.85416
30
0
11
259.151575
21
-16.082064
31
0
39
0
210
0
220
0
230
1
0
LINE
5
146
100
AcDbEntity
8
1
62
256
6
ByLayer
370
18
48
1
60
1
100
AcDbLine
10
259.151575
20
-16.082064
30
0
11
259.506196
21
-16.93267
31
0
39
0
210
0
220
0
230
1
0
LINE
5
147
100
AcDbEntity
8
1
62
256
6
ByLayer
370
18
48
1
60
1
100
AcDbLine
10
259.506196
20
-16.93267
30
0
11
256.098383
21
-17.85416
31
0
39
0
210
0
220
0
230
1
0
LINE
5
149
100
AcDbEntity
8
1
62
256
6
ByLayer
370
18
48
1
60
1
100
AcDbLine
10
256.098383
20
17.85416
30
0
11
259.506193
21
16.932671
31
0
39
0
210
0
220
0
230
1
0
LINE
5
14A
100
AcDbEntity
8
1
62
256
6
ByLayer
370
18
48
1
60
1
100
AcDbLine
10
259.506193
20
16.932671
30
0
11
259.151579
21
16.082063
31
0
39
0
210
0
220
0
230
1
0
LINE
5
14B
100
AcDbEntity
8
1
62
256
6
ByLayer
370
18
48
1
60
1
100
AcDbLine
10
259.151579
20
16.082063
30
0
11
256.098383
21
17.85416
31
0
39
0
210
0
220
0
230
1
0
MTEXT
5
12E
100
AcDbEntity
8
SK2
62
256
6
ByLayer
370
18
48
1
60
0
100
AcDbMText
10
-63.841114
20
24.158438
30
0
210
0
220
0
230
1
1
%%c
40
3
41
0
44
1.084337
50
90
71
7
72
5
7
iso_b_vert
0
MTEXT
5
131
100
AcDbEntity
8
SK2
62
256
6
ByLayer
370
18
48
1
60
0
100
AcDbMText
10
-63.841114
20
30.135
30
0
210
0
220
0
230
1
1
\W0.7513;25.000
40
3
41
0
44
1.084337
50
90
71
7
72
5
7
iso_b_vert
0
MTEXT
5
13A
100
AcDbEntity
8
2
62
256
6
ByLayer
370
18
48
1
60
0
100
AcDbMText
10
255.758886
20
21.158438
30
0
210
0
220
0
230
1
1
%%c
40
3
41
0
44
1.084337
50
90
71
7
72
5
7
iso_b_vert
0
MTEXT
5
13B
100
AcDbEntity
8
2
62
256
6
ByLayer
370
18
48
1
60
0
100
AcDbMText
10
255.758886
20
27.135
30
0
210
0
220
0
230
1
1
\W0.7022;19.000
40
3
41
0
44
1.084337
50
90
71
7
72
5
7
iso_b_vert
0
MTEXT
5
144
100
AcDbEntity
8
SK2
62
256
6
ByLayer
370
18
48
1
60
0
100
AcDbMText
10
269.509114
20
3.734657
30
0
210
0
220
0
230
1
1
\W0.7071;140%%d
40
3
41
0
44
1.084337
50
270
71
7
72
5
7
iso_b_vert
0
MTEXT
5
14D
100
AcDbEntity
8
SK6
62
256
6
ByLayer
370
18
48
1
60
0
100
AcDbMText
10
79.067889
20
-67.114886
30
0
210
0
220
0
230
1
1
\W0.7236;H851219.0
40
3
41
0
44
1.084337
50
0
71
7
72
5
7
iso_b_vert
0
HATCH
5
135
100
AcDbEntity
8
SK2
62
256
6
ByLayer
370
13
48
1
60
0
100
AcDbHatch
10
0
20
0
30
0
210
0
220
0
230
1
2
ANSI31
70
0
71
0
91
1
92
5
93
3
72
1
10
-62.5
20
12.5
11
-62.0392162584472
21
9.00000169255318
72
1
10
-62.0392162584472
20
9.00000169255318
11
-62.9607837415528
21
8.99999830744682
72
1
10
-62.9607837415528
20
8.99999830744682
11
-62.5
21
12.5
97
0
75
0
76
1
52
0
41
0.0062
77
0
78
1
53
45
43
0
44
0
45
-0.0139193969876572
46
0.0139193969876572
79
0
47
0
98
1
10
0
20
0
0
HATCH
5
139
100
AcDbEntity
8
SK2
62
256
6
ByLayer
370
13
48
1
60
0
100
AcDbHatch
10
0
20
0
30
0
210
0
220
0
230
1
2
ANSI31
70
0
71
0
91
1
92
5
93
3
72
1
10
-62.5
20
-12.5
11
-62.9607837415528
21
-9.00000169255318
72
1
10
-62.9607837415528
20
-9.00000169255318
11
-62.0392162584472
21
-8.99999830744682
72
1
10
-62.0392162584472
20
-8.99999830744682
11
-62.5
21
-12.5
97
0
75
0
76
1
52
0
41
0.0062
77
0
78
1
53
45
43
0
44
0
45
-0.0139193969876572
46
0.0139193969876572
79
0
47
0
98
1
10
0
20
0
0
HATCH
5
13F
100
AcDbEntity
8
2
62
256
6
ByLayer
370
13
48
1
60
0
100
AcDbHatch
10
0
20
0
30
0
210
0
220
0
230
1
2
ANSI31
70
0
71
0
91
1
92
5
93
3
72
1
10
257.1
20
9.5
11
257.560783741553
21
6.00000169255318
72
1
10
257.560783741553
20
6.00000169255318
11
256.639216258447
21
5.99999830744682
72
1
10
256.639216258447
20
5.99999830744682
11
257.1
21
9.5
97
0
75
0
76
1
52
0
41
0.0062
77
0
78
1
53
45
43
0
44
0
45
-0.0139193969876572
46
0.0139193969876572
79
0
47
0
98
1
10
0
20
0
0
HATCH
5
143
100
AcDbEntity
8
2
62
256
6
ByLayer
370
13
48
1
60
0
100
AcDbHatch
10
0
20
0
30
0
210
0
220
0
230
1
2
ANSI31
70
0
71
0
91
1
92
5
93
3
72
1
10
257.1
20
-9.5
11
256.639216258447
21
-6.00000169255318
72
1
10
256.639216258447
20
-6.00000169255318
11
257.560783741553
21
-5.99999830744682
72
1
10
257.560783741553
20
-5.99999830744682
11
257.1
21
-9.5
97
0
75
0
76
1
52
0
41
0.0062
77
0
78
1
53
45
43
0
44
0
45
-0.0139193969876572
46
0.0139193969876572
79
0
47
0
98
1
10
0
20
0
0
HATCH
5
148
100
AcDbEntity
8
SK2
62
256
6
ByLayer
370
13
48
1
60
0
100
AcDbHatch
10
0
20
0
30
0
210
0
220
0
230
1
2
ANSI31
70
0
71
0
91
1
92
5
93
3
72
1
10
256.098382723188
20
-17.8541597949323
11
259.151575425693
21
-16.0820638240608
72
1
10
259.151575425693
20
-16.0820638240608
11
259.506195833975
21
-16.9326700737197
72
1
10
259.506195833975
20
-16.9326700737197
11
256.098382723188
21
-17.8541597949323
97
0
75
0
76
1
52
0
41
0.0062
77
0
78
1
53
45
43
0
44
0
45
-0.0139193969876572
46
0.0139193969876572
79
0
47
0
98
1
10
0
20
0
0
HATCH
5
14C
100
AcDbEntity
8
SK2
62
256
6
ByLayer
370
13
48
1
60
0
100
AcDbHatch
10
0
20
0
30
0
210
0
220
0
230
1
2
ANSI31
70
0
71
0
91
1
92
5
93
3
72
1
10
256.098382723188
20
17.8541597949323
11
259.506192709519
21
16.9326713763017
72
1
10
259.506192709519
20
16.9326713763017
11
259.151578550149
21
16.0820625214788
72
1
10
259.151578550149
20
16.0820625214788
11
256.098382723188
21
17.8541597949323
97
0
75
0
76
1
52
0
41
0.0062
77
0
78
1
53
45
43
0
44
0
45
-0.0139193969876572
46
0.0139193969876572
79
0
47
0
98
1
10
0
20
0
0
DIMENSION
5
150
100
AcDbEntity
8
SK2
62
256
6
ByLayer
370
18
48
1
60
0
100
AcDbDimension
2
_U0
10
249.6
20
-43.196727
30
0
11
96.8
21
-43.196727
31
0
70
32
71
1
72
1
41
1
210
0
220
0
230
1
3
Standard
100
AcDbAlignedDimension
13
-56
23
-12.5
33
0
14
249.6
24
0
34
0
50
0
100
AcDbRotatedDimension
1001
ACAD
1000
DSTYLE
1002
{
1070
   371
1070
    13
1070
   372
1070
    13
1070
     3
1000

1070
   170
1070
     0
1070
   144
1040
1.0
1070
   277
1070
     2
1070
   284
1070
     8
1070
   278
1070
    46
1070
   146
1040
1.166667
1070
   345
1005
16
1070
   347
1005
16
1070
   346
1005
16
1070
   344
1005
0
1070
   343
1005
0
1070
   172
1070
     1
1070
    76
1070
     0
1070
    75
1070
     0
1070
   282
1070
     0
1070
   281
1070
     0
1070
    71
1070
     0
1070
    74
1070
     0
1070
   279
1070
     0
1070
   173
1070
     1
1070
   340
1005
12F
1070
   271
1070
     2
1070
   272
1070
     3
1070
    77
1070
     1
1070
    73
1070
     1
1070
   171
1070
     3
1070
   274
1070
     4
1070
   177
1070
     2
1070
   176
1070
     2
1070
   178
1070
     2
1070
    78
1070
     8
1070
    48
1040
-0.1
1070
    41
1040
3.5
1070
   147
1040
1.5
1070
    42
1040
1.5875
1070
    44
1040
2.0
1070
   140
1040
3.0
1002
}
1001
ACAD_DSTYLE_DIM_LINETYPE
1070
   380
1005
16
1001
ACAD_DSTYLE_DIM_EXT1_LINETYPE
1070
   381
1005
16
1001
ACAD_DSTYLE_DIM_EXT2_LINETYPE
1070
   382
1005
16
0
DIMENSION
5
169
100
AcDbEntity
8
SK2
62
256
6
ByLayer
370
18
48
1
60
0
100
AcDbDimension
2
_U1
10
6
20
-33.196727
30
0
11
127.8
21
-33.196727
31
0
70
32
71
1
72
1
41
1
210
0
220
0
230
1
3
Standard
100
AcDbAlignedDimension
13
249.6
23
0
33
0
14
6
24
-9.5
34
0
50
0
100
AcDbRotatedDimension
1001
ACAD
1000
DSTYLE
1002
{
1070
   371
1070
    13
1070
   372
1070
    13
1070
     3
1000

1070
   170
1070
     0
1070
   144
1040
1.0
1070
   277
1070
     2
1070
   284
1070
     8
1070
   278
1070
    46
1070
   146
1040
1.166667
1070
   345
1005
16
1070
   347
1005
16
1070
   346
1005
16
1070
   344
1005
0
1070
   343
1005
0
1070
   172
1070
     1
1070
    76
1070
     0
1070
    75
1070
     0
1070
   282
1070
     0
1070
   281
1070
     0
1070
    71
1070
     0
1070
    74
1070
     0
1070
   279
1070
     0
1070
   173
1070
     1
1070
   340
1005
12F
1070
   271
1070
     2
1070
   272
1070
     3
1070
    77
1070
     1
1070
    73
1070
     1
1070
   171
1070
     3
1070
   274
1070
     4
1070
   177
1070
     2
1070
   176
1070
     2
1070
   178
1070
     2
1070
    78
1070
     8
1070
    48
1040
-0.1
1070
    41
1040
3.5
1070
   147
1040
1.5
1070
    42
1040
1.5875
1070
    44
1040
2.0
1070
   140
1040
3.0
1002
}
1001
ACAD_DSTYLE_DIM_LINETYPE
1070
   380
1005
16
1001
ACAD_DSTYLE_DIM_EXT1_LINETYPE
1070
   381
1005
16
1001
ACAD_DSTYLE_DIM_EXT2_LINETYPE
1070
   382
1005
16
0
DIMENSION
5
181
100
AcDbEntity
8
SK2
62
256
6
ByLayer
370
18
48
1
60
0
100
AcDbDimension
2
_U2
10
0
20
-33.196727
30
0
11
-28
21
-33.196727
31
0
70
32
71
1
72
1
41
1
210
0
220
0
230
1
3
Standard
100
AcDbAlignedDimension
13
-56
23
-12.5
33
0
14
0
24
-12.5
34
0
50
0
100
AcDbRotatedDimension
1001
ACAD
1000
DSTYLE
1002
{
1070
   371
1070
    13
1070
   372
1070
    13
1070
     3
1000

1070
   170
1070
     0
1070
   144
1040
1.0
1070
   277
1070
     2
1070
   284
1070
     8
1070
   278
1070
    46
1070
   146
1040
1.166667
1070
   345
1005
16
1070
   347
1005
16
1070
   346
1005
16
1070
   344
1005
0
1070
   343
1005
0
1070
   172
1070
     1
1070
    76
1070
     0
1070
    75
1070
     0
1070
   282
1070
     0
1070
   281
1070
     0
1070
    71
1070
     0
1070
    74
1070
     0
1070
   279
1070
     0
1070
   173
1070
     1
1070
   340
1005
12F
1070
   271
1070
     2
1070
   272
1070
     3
1070
    77
1070
     1
1070
    73
1070
     1
1070
   171
1070
     3
1070
   274
1070
     4
1070
   177
1070
     2
1070
   176
1070
     2
1070
   178
1070
     2
1070
    78
1070
     8
1070
    48
1040
-0.1
1070
    41
1040
3.5
1070
   147
1040
1.5
1070
    42
1040
1.5875
1070
    44
1040
2.0
1070
   140
1040
3.0
1002
}
1001
ACAD_DSTYLE_DIM_LINETYPE
1070
   380
1005
16
1001
ACAD_DSTYLE_DIM_EXT1_LINETYPE
1070
   381
1005
16
1001
ACAD_DSTYLE_DIM_EXT2_LINETYPE
1070
   382
1005
16
0
DIMENSION
5
199
100
AcDbEntity
8
SK2
62
256
6
ByLayer
370
18
48
1
60
0
100
AcDbDimension
2
_U3
10
21.6
20
30.196727
30
0
11
135.6
21
30.196727
31
0
70
32
71
1
72
1
41
1
210
0
220
0
230
1
3
Standard
100
AcDbAlignedDimension
13
249.6
23
0
33
0
14
21.6
24
9.5
34
0
50
0
100
AcDbRotatedDimension
1001
ACAD
1000
DSTYLE
1002
{
1070
   371
1070
    13
1070
   372
1070
    13
1070
     3
1000

1070
   170
1070
     0
1070
   144
1040
1.0
1070
   277
1070
     2
1070
   284
1070
     8
1070
   278
1070
    46
1070
   146
1040
1.166667
1070
   345
1005
16
1070
   347
1005
16
1070
   346
1005
16
1070
   344
1005
0
1070
   343
1005
0
1070
   172
1070
     1
1070
    76
1070
     0
1070
    75
1070
     0
1070
   282
1070
     0
1070
   281
1070
     0
1070
    71
1070
     0
1070
    74
1070
     0
1070
   279
1070
     0
1070
   173
1070
     1
1070
   340
1005
12F
1070
   271
1070
     2
1070
   272
1070
     3
1070
    77
1070
     1
1070
    73
1070
     1
1070
   171
1070
     3
1070
   274
1070
     4
1070
   177
1070
     2
1070
   176
1070
     2
1070
   178
1070
     2
1070
    78
1070
     8
1070
    48
1040
-0.1
1070
    41
1040
3.5
1070
   147
1040
1.5
1070
    42
1040
1.5875
1070
    44
1040
2.0
1070
   140
1040
3.0
1002
}
1001
ACAD_DSTYLE_DIM_LINETYPE
1070
   380
1005
16
1001
ACAD_DSTYLE_DIM_EXT1_LINETYPE
1070
   381
1005
16
1001
ACAD_DSTYLE_DIM_EXT2_LINETYPE
1070
   382
1005
16
0
ENDSEC
0
SECTION
2
OBJECTS
0
DICTIONARY
5
221
330
0
100
AcDbDictionary
280
0
281
1
3
ACAD_GROUP
350
222
3
ACAD_MLINESTYLE
350
223
0
DICTIONARY
5
222
330
0
100
AcDbDictionary
280
0
281
1
0
DICTIONARY
5
223
330
0
100
AcDbDictionary
280
0
281
1
3
Standard
350
18
0
MLINESTYLE
5
18
330
223
100
AcDbMlineStyle
2
Standard
70
0
3

62
256
51
90
52
90
71
2
49
-0.5
62
256
6
ByLayer
49
0.5
62
256
6
ByLayer
0
RASTERVARIABLES
5
20f
330

100
AcDbRasterVariables
90
0
70
1
71
1
72
1
0
ENDSEC
0
EOF
