0
SECTION
2
HEADER
9
$ACADVER
1
AC1015
9
$DWGCODEPAGE
3
ANSI_1252
9
$HANDSEED
5
217
9
$ANGBASE
50
0
9
$ANGDIR
70
0
9
$ATTMODE
70
1
9
$AUNITS
70
0
9
$AUPREC
70
0
9
$CECOLOR
62
256
9
$CELTSCALE
40
1
9
$CELTYPE
6
ByLayer
9
$CELWEIGHT
370
18
9
$CLAYER
8
0
9
$CMLJUST
70
0
9
$CMLSCALE
40
1
9
$CMLSTYLE
2
Standard
9
$DIMSTYLE
2
Standard
9
$TEXTSIZE
40
0.2
9
$TEXTSTYLE
7
Standard
9
$LUNITS
70
2
9
$LUPREC
70
4
9
$EXTNAMES
290
1
9
$INSUNITS
70
4
9
$LTSCALE
40
1
9
$LWDISPLAY
290
1
9
$PDMODE
70
0
9
$PDSIZE
40
0
9
$PLINEGEN
70
0
0
ENDSEC
0
SECTION
2
CLASSES
0
CLASS
1
RASTERVARIABLES
2
AcDbRasterVariables
3
ISM
90
0
280
0
281
0
0
ENDSEC
0
SECTION
2
TABLES
0
TABLE
2
VPORT
5
20d
100
AcDbSymbolTable
0
VPORT
5
1
100
AcDbSymbolTableRecord
100
AcDbViewportTableRecord
2
*Active
70
0
10
0
20
0
11
1
21
1
12
-1
22
1
13
0
23
0
14
0.5
24
0.5
15
10
25
10
16
0
26
0
36
1
17
0
27
0
37
0
0
ENDTAB
0
TABLE
2
LTYPE
5
20e
100
AcDbSymbolTable
0
LTYPE
5
14
100
AcDbSymbolTableRecord
100
AcDbLinetypeTableRecord
70
0
2
ByBlock
3

72
65
73
0
40
0
0
LTYPE
5
15
100
AcDbSymbolTableRecord
100
AcDbLinetypeTableRecord
70
0
2
ByLayer
3

72
65
73
0
40
0
0
LTYPE
5
16
100
AcDbSymbolTableRecord
100
AcDbLinetypeTableRecord
70
0
2
Continuous
3
Solid line
72
65
73
0
40
0
0
LTYPE
5
6E
100
AcDbSymbolTableRecord
100
AcDbLinetypeTableRecord
70
0
2
CENTER
3
____ _ ____ _ ____ _ ____
72
65
73
4
40
47.5
49
22
74
0
49
-8.5
74
0
49
8.5
74
0
49
-8.5
74
0
0
LTYPE
5
6F
100
AcDbSymbolTableRecord
100
AcDbLinetypeTableRecord
70
0
2
DASHED
3
__ __ __ __ __ __ __ __ __
72
65
73
2
40
25.72
49
12.86
74
0
49
-12.86
74
0
0
ENDTAB
0
TABLE
2
LAYER
5
20f
100
AcDbSymbolTable
0
LAYER
5
10
100
AcDbSymbolTableRecord
100
AcDbLayerTableRecord
2
0
70
0
62
7
6
Continuous
290
1
370
-3
390
0
0
LAYER
5
71
100
AcDbSymbolTableRecord
100
AcDbLayerTableRecord
2
81
70
0
62
-3
6
Continuous
290
1
370
-3
390
0
0
LAYER
5
73
100
AcDbSymbolTableRecord
100
AcDbLayerTableRecord
2
80
70
0
62
-6
6
Continuous
290
1
370
-3
390
0
0
LAYER
5
75
100
AcDbSymbolTableRecord
100
AcDbLayerTableRecord
2
1
70
0
62
4
6
Continuous
290
1
370
-3
390
0
0
LAYER
5
7F
100
AcDbSymbolTableRecord
100
AcDbLayerTableRecord
2
4
70
0
62
-2
6
CENTER
290
1
370
-3
390
0
0
LAYER
5
B2
100
AcDbSymbolTableRecord
100
AcDbLayerTableRecord
2
2
70
0
62
7
6
Continuous
290
1
370
-3
390
0
0
LAYER
5
13C
100
AcDbSymbolTableRecord
100
AcDbLayerTableRecord
2
Defpoints
70
0
62
7
6
Continuous
290
0
370
-3
390
0
0
LAYER
5
1f9
100
AcDbSymbolTableRecord
100
AcDbLayerTableRecord
2
SK4
70
0
62
2
6
CENTER
290
1
370
-3
390
0
0
LAYER
5
1fa
100
AcDbSymbolTableRecord
100
AcDbLayerTableRecord
2
SK1
70
0
62
4
6
Continuous
290
1
370
-3
390
0
0
LAYER
5
1fb
100
AcDbSymbolTableRecord
100
AcDbLayerTableRecord
2
SK2
70
0
62
7
6
Continuous
290
1
370
-3
390
0
0
LAYER
5
1fc
100
AcDbSymbolTableRecord
100
AcDbLayerTableRecord
2
SK6
70
0
62
5
6
Continuous
290
1
370
-3
390
0
0
ENDTAB
0
TABLE
2
STYLE
5
210
100
AcDbSymbolTable
0
STYLE
5
11
100
AcDbSymbolTableRecord
100
AcDbTextStyleTableRecord
2
Standard
3
txt
70
0
71
0
40
0
41
1
42
0
50
0
0
STYLE
5
118
100
AcDbSymbolTableRecord
100
AcDbTextStyleTableRecord
2
iso_b_vert
3
simplex.shx
70
0
71
0
40
0
41
1
42
0
50
0
0
STYLE
5
119
100
AcDbSymbolTableRecord
100
AcDbTextStyleTableRecord
2
DWGDirectTextStyle
3
simplex
70
0
71
0
40
0
41
1
42
0
50
0
0
ENDTAB
0
TABLE
2
DIMSTYLE
5
211
100
AcDbSymbolTable
100
AcDbDimStyleTable
0
DIMSTYLE
105
27
100
AcDbSymbolTableRecord
100
AcDbDimStyleTableRecord
2
Standard
70
0
3
<>
41
0.18
42
0.0625
44
0.18
140
0.18
147
0.09
73
0
74
0
77
1
271
2
275
0
278
52
280
0
340
11
0
ENDTAB
0
TABLE
2
VIEW
5
212
100
AcDbSymbolTable
0
ENDTAB
0
TABLE
2
UCS
5
213
100
AcDbSymbolTable
0
ENDTAB
0
TABLE
2
APPID
5
214
100
AcDbSymbolTable
0
APPID
5
12
100
AcDbSymbolTableRecord
100
AcDbRegAppTableRecord
2
ACAD
70
0
0
APPID
5
138
100
AcDbSymbolTableRecord
100
AcDbRegAppTableRecord
2
ACAD_DSTYLE_DIMBREAK
70
0
0
APPID
5
1B8
100
AcDbSymbolTableRecord
100
AcDbRegAppTableRecord
2
ACAD_DSTYLE_DIM_LINETYPE
70
0
0
APPID
5
1B9
100
AcDbSymbolTableRecord
100
AcDbRegAppTableRecord
2
ACAD_DSTYLE_DIM_EXT1_LINETYPE
70
0
0
APPID
5
1BA
100
AcDbSymbolTableRecord
100
AcDbRegAppTableRecord
2
ACAD_DSTYLE_DIM_EXT2_LINETYPE
70
0
0
APPID
5
1F5
100
AcDbSymbolTableRecord
100
AcDbRegAppTableRecord
2
ACAD_MLEADERVER
70
0
0
ENDTAB
0
TABLE
2
BLOCK_RECORD
5
215
100
AcDbSymbolTable
0
BLOCK_RECORD
5
1F
100
AcDbSymbolTableRecord
100
AcDbBlockTableRecord
2
*Model_Space
340
0
70
0
0
BLOCK_RECORD
5
1B
100
AcDbSymbolTableRecord
100
AcDbBlockTableRecord
2
*Paper_Space
340
0
70
0
0
BLOCK_RECORD
5
23
100
AcDbSymbolTableRecord
100
AcDbBlockTableRecord
2
*Paper_Space0
340
0
70
0
0
BLOCK_RECORD
5
13D
100
AcDbSymbolTableRecord
100
AcDbBlockTableRecord
2
*D1
340
0
70
0
0
BLOCK_RECORD
5
149
100
AcDbSymbolTableRecord
100
AcDbBlockTableRecord
2
_U0
340
0
70
0
0
BLOCK_RECORD
5
155
100
AcDbSymbolTableRecord
100
AcDbBlockTableRecord
2
*D3
340
0
70
0
0
BLOCK_RECORD
5
161
100
AcDbSymbolTableRecord
100
AcDbBlockTableRecord
2
_U1
340
0
70
0
0
BLOCK_RECORD
5
16D
100
AcDbSymbolTableRecord
100
AcDbBlockTableRecord
2
*D5
340
0
70
0
0
BLOCK_RECORD
5
179
100
AcDbSymbolTableRecord
100
AcDbBlockTableRecord
2
_U2
340
0
70
0
0
BLOCK_RECORD
5
185
100
AcDbSymbolTableRecord
100
AcDbBlockTableRecord
2
*D7
340
0
70
0
0
BLOCK_RECORD
5
191
100
AcDbSymbolTableRecord
100
AcDbBlockTableRecord
2
_U3
340
0
70
0
0
ENDTAB
0
ENDSEC
0
SECTION
2
BLOCKS
0
BLOCK
5
20
100
AcDbEntity
8
0
100
AcDbBlockBegin
2
*Model_Space
70
0
10
0
20
0
30
0
3
*Model_Space
0
ENDBLK
5
21
100
AcDbEntity
8
0
100
AcDbBlockEnd
0
BLOCK
5
1C
100
AcDbEntity
8
0
100
AcDbBlockBegin
2
*Paper_Space
70
0
10
0
20
0
30
0
3
*Paper_Space
0
ENDBLK
5
1D
100
AcDbEntity
8
0
100
AcDbBlockEnd
0
BLOCK
5
24
100
AcDbEntity
8
0
100
AcDbBlockBegin
2
*Paper_Space0
70
0
10
0
20
0
30
0
3
*Paper_Space0
0
ENDBLK
5
25
100
AcDbEntity
8
0
100
AcDbBlockEnd
0
BLOCK
5
13E
100
AcDbEntity
8
0
100
AcDbBlockBegin
2
*D1
70
1
10
0
20
0
30
0
3
*D1
0
LINE
5
140
100
AcDbEntity
8
0
62
256
6
ByLayer
370
-2
48
1
60
0
100
AcDbLine
10
-48
20
-9.5875
30
0
11
-48
21
-44.788973
31
0
39
0
210
0
220
0
230
1
0
LINE
5
141
100
AcDbEntity
8
0
62
256
6
ByLayer
370
-2
48
1
60
0
100
AcDbLine
10
188
20
-1.5875
30
0
11
188
21
-44.788973
31
0
39
0
210
0
220
0
230
1
0
LINE
5
142
100
AcDbEntity
8
0
62
256
6
ByLayer
370
-2
48
1
60
0
100
AcDbLine
10
-44.5
20
-42.788973
30
0
11
184.5
21
-42.788973
31
0
39
0
210
0
220
0
230
1
0
SOLID
5
143
100
AcDbEntity
8
0
62
256
6
ByLayer
370
-1
48
1
60
0
100
AcDbTrace
10
-44.5
20
-42.205639
30
0
11
-44.5
21
-43.372306
31
0
12
-48
22
-42.788973
32
0
13
-48
23
-42.788973
33
0
39
0
210
0
220
0
230
1
0
SOLID
5
144
100
AcDbEntity
8
0
62
256
6
ByLayer
370
-1
48
1
60
0
100
AcDbTrace
10
184.5
20
-43.372306
30
0
11
184.5
21
-42.205639
31
0
12
188
22
-42.788973
32
0
13
188
23
-42.788973
33
0
39
0
210
0
220
0
230
1
0
MTEXT
5
145
100
AcDbEntity
8
0
62
256
6
ByLayer
370
18
48
1
60
0
100
AcDbMText
10
70
20
-36.788973
30
0
210
0
220
0
230
1
1
\A1;236
40
3
41
0
44
1
50
0
71
5
72
5
7
iso_b_vert
0
POINT
5
146
100
AcDbEntity
8
Defpoints
62
0
6
ByLayer
370
-1
48
1
60
0
100
AcDbPoint
10
-48
20
-8
30
0
39
0
210
0
220
0
230
1
50
360
0
POINT
5
147
100
AcDbEntity
8
Defpoints
62
0
6
ByLayer
370
-1
48
1
60
0
100
AcDbPoint
10
188
20
0
30
0
39
0
210
0
220
0
230
1
50
360
0
POINT
5
148
100
AcDbEntity
8
Defpoints
62
0
6
ByLayer
370
-1
48
1
60
0
100
AcDbPoint
10
188
20
-42.788973
30
0
39
0
210
0
220
0
230
1
50
360
0
ENDBLK
5
13F
100
AcDbEntity
8
0
100
AcDbBlockEnd
0
BLOCK
5
150
100
AcDbEntity
8
0
100
AcDbBlockBegin
2
_U0
70
0
10
0
20
0
30
0
3
_U0
0
MTEXT
5
14A
100
AcDbEntity
8
SK2
62
256
6
ByLayer
370
18
48
1
60
0
100
AcDbMText
10
64.396716
20
-41.903858
30
0
210
0
220
0
230
1
1
\W0.7513;236.00
40
3
41
0
44
1.084337
50
0
71
7
72
5
7
iso_b_vert
0
LINE
5
14B
100
AcDbEntity
8
SK2
62
256
6
ByLayer
370
13
48
1
60
0
100
AcDbLine
10
-48
20
-9.5875
30
0
11
-48
21
-44.788973
31
0
39
0
210
0
220
0
230
1
0
LINE
5
14C
100
AcDbEntity
8
SK2
62
256
6
ByLayer
370
13
48
1
60
0
100
AcDbLine
10
188
20
-1.5875
30
0
11
188
21
-44.788973
31
0
39
0
210
0
220
0
230
1
0
LINE
5
14D
100
AcDbEntity
8
SK2
62
256
6
ByLayer
370
13
48
1
60
0
100
AcDbLine
10
-48
20
-42.788973
30
0
11
188
21
-42.788973
31
0
39
0
210
0
220
0
230
1
0
SOLID
5
14E
100
AcDbEntity
8
SK2
62
256
6
ByLayer
370
18
48
1
60
0
100
AcDbTrace
10
-48
20
-42.788973
30
0
11
-44.500002
21
-42.328189
31
0
12
-44.499998
22
-43.249756
32
0
13
-44.499998
23
-43.249756
33
0
39
0
210
0
220
0
230
1
0
SOLID
5
14F
100
AcDbEntity
8
SK2
62
256
6
ByLayer
370
18
48
1
60
0
100
AcDbTrace
10
188
20
-42.788973
30
0
11
184.500002
21
-43.249756
31
0
12
184.499998
22
-42.328189
32
0
13
184.499998
23
-42.328189
33
0
39
0
210
0
220
0
230
1
0
ENDBLK
5
151
100
AcDbEntity
8
0
100
AcDbBlockEnd
0
BLOCK
5
156
100
AcDbEntity
8
0
100
AcDbBlockBegin
2
*D3
70
1
10
0
20
0
30
0
3
*D3
0
LINE
5
158
100
AcDbEntity
8
0
62
256
6
ByLayer
370
-2
48
1
60
0
100
AcDbLine
10
188
20
-1.5875
30
0
11
188
21
-34.788973
31
0
39
0
210
0
220
0
230
1
0
LINE
5
159
100
AcDbEntity
8
0
62
256
6
ByLayer
370
-2
48
1
60
0
100
AcDbLine
10
6
20
-8.5875
30
0
11
6
21
-34.788973
31
0
39
0
210
0
220
0
230
1
0
LINE
5
15A
100
AcDbEntity
8
0
62
256
6
ByLayer
370
-2
48
1
60
0
100
AcDbLine
10
184.5
20
-32.788973
30
0
11
9.5
21
-32.788973
31
0
39
0
210
0
220
0
230
1
0
SOLID
5
15B
100
AcDbEntity
8
0
62
256
6
ByLayer
370
-1
48
1
60
0
100
AcDbTrace
10
184.5
20
-33.372306
30
0
11
184.5
21
-32.205639
31
0
12
188
22
-32.788973
32
0
13
188
23
-32.788973
33
0
39
0
210
0
220
0
230
1
0
SOLID
5
15C
100
AcDbEntity
8
0
62
256
6
ByLayer
370
-1
48
1
60
0
100
AcDbTrace
10
9.5
20
-32.205639
30
0
11
9.5
21
-33.372306
31
0
12
6
22
-32.788973
32
0
13
6
23
-32.788973
33
0
39
0
210
0
220
0
230
1
0
MTEXT
5
15D
100
AcDbEntity
8
0
62
256
6
ByLayer
370
18
48
1
60
0
100
AcDbMText
10
97
20
-26.788973
30
0
210
0
220
0
230
1
1
\A1;182
40
3
41
0
44
1
50
0
71
5
72
5
7
iso_b_vert
0
POINT
5
15E
100
AcDbEntity
8
Defpoints
62
0
6
ByLayer
370
-1
48
1
60
0
100
AcDbPoint
10
188
20
0
30
0
39
0
210
0
220
0
230
1
50
360
0
POINT
5
15F
100
AcDbEntity
8
Defpoints
62
0
6
ByLayer
370
-1
48
1
60
0
100
AcDbPoint
10
6
20
-7
30
0
39
0
210
0
220
0
230
1
50
360
0
POINT
5
160
100
AcDbEntity
8
Defpoints
62
0
6
ByLayer
370
-1
48
1
60
0
100
AcDbPoint
10
6
20
-32.788973
30
0
39
0
210
0
220
0
230
1
50
360
0
ENDBLK
5
157
100
AcDbEntity
8
0
100
AcDbBlockEnd
0
BLOCK
5
168
100
AcDbEntity
8
0
100
AcDbBlockBegin
2
_U1
70
0
10
0
20
0
30
0
3
_U1
0
MTEXT
5
162
100
AcDbEntity
8
SK2
62
256
6
ByLayer
370
18
48
1
60
0
100
AcDbMText
10
91.771658
20
-31.903858
30
0
210
0
220
0
230
1
1
\W0.7022;182.00
40
3
41
0
44
1.084337
50
0
71
7
72
5
7
iso_b_vert
0
LINE
5
163
100
AcDbEntity
8
SK2
62
256
6
ByLayer
370
13
48
1
60
0
100
AcDbLine
10
188
20
-1.5875
30
0
11
188
21
-34.788973
31
0
39
0
210
0
220
0
230
1
0
LINE
5
164
100
AcDbEntity
8
SK2
62
256
6
ByLayer
370
13
48
1
60
0
100
AcDbLine
10
6
20
-8.5875
30
0
11
6
21
-34.788973
31
0
39
0
210
0
220
0
230
1
0
LINE
5
165
100
AcDbEntity
8
SK2
62
256
6
ByLayer
370
13
48
1
60
0
100
AcDbLine
10
188
20
-32.788973
30
0
11
6
21
-32.788973
31
0
39
0
210
0
220
0
230
1
0
SOLID
5
166
100
AcDbEntity
8
SK2
62
256
6
ByLayer
370
18
48
1
60
0
100
AcDbTrace
10
188
20
-32.788973
30
0
11
184.500002
21
-33.249756
31
0
12
184.499998
22
-32.328189
32
0
13
184.499998
23
-32.328189
33
0
39
0
210
0
220
0
230
1
0
SOLID
5
167
100
AcDbEntity
8
SK2
62
256
6
ByLayer
370
18
48
1
60
0
100
AcDbTrace
10
6
20
-32.788973
30
0
11
9.499998
21
-32.328189
31
0
12
9.500002
22
-33.249756
32
0
13
9.500002
23
-33.249756
33
0
39
0
210
0
220
0
230
1
0
ENDBLK
5
169
100
AcDbEntity
8
0
100
AcDbBlockEnd
0
BLOCK
5
16E
100
AcDbEntity
8
0
100
AcDbBlockBegin
2
*D5
70
1
10
0
20
0
30
0
3
*D5
0
LINE
5
170
100
AcDbEntity
8
0
62
256
6
ByLayer
370
-2
48
1
60
0
100
AcDbLine
10
-48
20
-9.5875
30
0
11
-48
21
-34.788973
31
0
39
0
210
0
220
0
230
1
0
LINE
5
171
100
AcDbEntity
8
0
62
256
6
ByLayer
370
-2
48
1
60
0
100
AcDbLine
10
0
20
-9.5875
30
0
11
0
21
-34.788973
31
0
39
0
210
0
220
0
230
1
0
LINE
5
172
100
AcDbEntity
8
0
62
256
6
ByLayer
370
-2
48
1
60
0
100
AcDbLine
10
-44.5
20
-32.788973
30
0
11
-3.5
21
-32.788973
31
0
39
0
210
0
220
0
230
1
0
SOLID
5
173
100
AcDbEntity
8
0
62
256
6
ByLayer
370
-1
48
1
60
0
100
AcDbTrace
10
-44.5
20
-32.205639
30
0
11
-44.5
21
-33.372306
31
0
12
-48
22
-32.788973
32
0
13
-48
23
-32.788973
33
0
39
0
210
0
220
0
230
1
0
SOLID
5
174
100
AcDbEntity
8
0
62
256
6
ByLayer
370
-1
48
1
60
0
100
AcDbTrace
10
-3.5
20
-33.372306
30
0
11
-3.5
21
-32.205639
31
0
12
0
22
-32.788973
32
0
13
0
23
-32.788973
33
0
39
0
210
0
220
0
230
1
0
MTEXT
5
175
100
AcDbEntity
8
0
62
256
6
ByLayer
370
18
48
1
60
0
100
AcDbMText
10
-24
20
-26.788973
30
0
210
0
220
0
230
1
1
\A1;48
40
3
41
0
44
1
50
0
71
5
72
5
7
iso_b_vert
0
POINT
5
176
100
AcDbEntity
8
Defpoints
62
0
6
ByLayer
370
-1
48
1
60
0
100
AcDbPoint
10
-48
20
-8
30
0
39
0
210
0
220
0
230
1
50
360
0
POINT
5
177
100
AcDbEntity
8
Defpoints
62
0
6
ByLayer
370
-1
48
1
60
0
100
AcDbPoint
10
0
20
-8
30
0
39
0
210
0
220
0
230
1
50
360
0
POINT
5
178
100
AcDbEntity
8
Defpoints
62
0
6
ByLayer
370
-1
48
1
60
0
100
AcDbPoint
10
0
20
-32.788973
30
0
39
0
210
0
220
0
230
1
50
360
0
ENDBLK
5
16F
100
AcDbEntity
8
0
100
AcDbBlockEnd
0
BLOCK
5
180
100
AcDbEntity
8
0
100
AcDbBlockBegin
2
_U2
70
0
10
0
20
0
30
0
3
_U2
0
MTEXT
5
17A
100
AcDbEntity
8
SK2
62
256
6
ByLayer
370
18
48
1
60
0
100
AcDbMText
10
-28.640313
20
-31.903858
30
0
210
0
220
0
230
1
1
\W0.7694;48.00
40
3
41
0
44
1.084337
50
0
71
7
72
5
7
iso_b_vert
0
LINE
5
17B
100
AcDbEntity
8
SK2
62
256
6
ByLayer
370
13
48
1
60
0
100
AcDbLine
10
-48
20
-9.5875
30
0
11
-48
21
-34.788973
31
0
39
0
210
0
220
0
230
1
0
LINE
5
17C
100
AcDbEntity
8
SK2
62
256
6
ByLayer
370
13
48
1
60
0
100
AcDbLine
10
0
20
-9.5875
30
0
11
0
21
-34.788973
31
0
39
0
210
0
220
0
230
1
0
LINE
5
17D
100
AcDbEntity
8
SK2
62
256
6
ByLayer
370
13
48
1
60
0
100
AcDbLine
10
-48
20
-32.788973
30
0
11
0
21
-32.788973
31
0
39
0
210
0
220
0
230
1
0
SOLID
5
17E
100
AcDbEntity
8
SK2
62
256
6
ByLayer
370
18
48
1
60
0
100
AcDbTrace
10
-48
20
-32.788973
30
0
11
-44.500002
21
-32.328189
31
0
12
-44.499998
22
-33.249756
32
0
13
-44.499998
23
-33.249756
33
0
39
0
210
0
220
0
230
1
0
SOLID
5
17F
100
AcDbEntity
8
SK2
62
256
6
ByLayer
370
18
48
1
60
0
100
AcDbTrace
10
0
20
-32.788973
30
0
11
-3.499998
21
-33.249756
31
0
12
-3.500002
22
-32.328189
32
0
13
-3.500002
23
-32.328189
33
0
39
0
210
0
220
0
230
1
0
ENDBLK
5
181
100
AcDbEntity
8
0
100
AcDbBlockEnd
0
BLOCK
5
186
100
AcDbEntity
8
0
100
AcDbBlockBegin
2
*D7
70
1
10
0
20
0
30
0
3
*D7
0
LINE
5
188
100
AcDbEntity
8
0
62
256
6
ByLayer
370
-2
48
1
60
0
100
AcDbLine
10
188
20
1.5875
30
0
11
188
21
31.788973
31
0
39
0
210
0
220
0
230
1
0
LINE
5
189
100
AcDbEntity
8
0
62
256
6
ByLayer
370
-2
48
1
60
0
100
AcDbLine
10
20
20
8.5875
30
0
11
20
21
31.788973
31
0
39
0
210
0
220
0
230
1
0
LINE
5
18A
100
AcDbEntity
8
0
62
256
6
ByLayer
370
-2
48
1
60
0
100
AcDbLine
10
184.5
20
29.788973
30
0
11
23.5
21
29.788973
31
0
39
0
210
0
220
0
230
1
0
SOLID
5
18B
100
AcDbEntity
8
0
62
256
6
ByLayer
370
-1
48
1
60
0
100
AcDbTrace
10
184.5
20
29.205639
30
0
11
184.5
21
30.372306
31
0
12
188
22
29.788973
32
0
13
188
23
29.788973
33
0
39
0
210
0
220
0
230
1
0
SOLID
5
18C
100
AcDbEntity
8
0
62
256
6
ByLayer
370
-1
48
1
60
0
100
AcDbTrace
10
23.5
20
30.372306
30
0
11
23.5
21
29.205639
31
0
12
20
22
29.788973
32
0
13
20
23
29.788973
33
0
39
0
210
0
220
0
230
1
0
MTEXT
5
18D
100
AcDbEntity
8
0
62
256
6
ByLayer
370
18
48
1
60
0
100
AcDbMText
10
104
20
35.788973
30
0
210
0
220
0
230
1
1
\A1;168
40
3
41
0
44
1
50
0
71
5
72
5
7
iso_b_vert
0
POINT
5
18E
100
AcDbEntity
8
Defpoints
62
0
6
ByLayer
370
-1
48
1
60
0
100
AcDbPoint
10
188
20
0
30
0
39
0
210
0
220
0
230
1
50
360
0
POINT
5
18F
100
AcDbEntity
8
Defpoints
62
0
6
ByLayer
370
-1
48
1
60
0
100
AcDbPoint
10
20
20
7
30
0
39
0
210
0
220
0
230
1
50
360
0
POINT
5
190
100
AcDbEntity
8
Defpoints
62
0
6
ByLayer
370
-1
48
1
60
0
100
AcDbPoint
10
20
20
29.788973
30
0
39
0
210
0
220
0
230
1
50
360
0
ENDBLK
5
187
100
AcDbEntity
8
0
100
AcDbBlockEnd
0
BLOCK
5
198
100
AcDbEntity
8
0
100
AcDbBlockBegin
2
_U3
70
0
10
0
20
0
30
0
3
_U3
0
MTEXT
5
192
100
AcDbEntity
8
SK2
62
256
6
ByLayer
370
18
48
1
60
0
100
AcDbMText
10
98.771658
20
30.674087
30
0
210
0
220
0
230
1
1
\W0.7022;168.00
40
3
41
0
44
1.084337
50
0
71
7
72
5
7
iso_b_vert
0
LINE
5
193
100
AcDbEntity
8
SK2
62
256
6
ByLayer
370
13
48
1
60
0
100
AcDbLine
10
188
20
1.5875
30
0
11
188
21
31.788973
31
0
39
0
210
0
220
0
230
1
0
LINE
5
194
100
AcDbEntity
8
SK2
62
256
6
ByLayer
370
13
48
1
60
0
100
AcDbLine
10
20
20
8.5875
30
0
11
20
21
31.788973
31
0
39
0
210
0
220
0
230
1
0
LINE
5
195
100
AcDbEntity
8
SK2
62
256
6
ByLayer
370
13
48
1
60
0
100
AcDbLine
10
188
20
29.788973
30
0
11
20
21
29.788973
31
0
39
0
210
0
220
0
230
1
0
SOLID
5
196
100
AcDbEntity
8
SK2
62
256
6
ByLayer
370
18
48
1
60
0
100
AcDbTrace
10
188
20
29.788973
30
0
11
184.500002
21
29.328189
31
0
12
184.499998
22
30.249756
32
0
13
184.499998
23
30.249756
33
0
39
0
210
0
220
0
230
1
0
SOLID
5
197
100
AcDbEntity
8
SK2
62
256
6
ByLayer
370
18
48
1
60
0
100
AcDbTrace
10
20
20
29.788973
30
0
11
23.499998
21
30.249756
31
0
12
23.500002
22
29.328189
32
0
13
23.500002
23
29.328189
33
0
39
0
210
0
220
0
230
1
0
ENDBLK
5
199
100
AcDbEntity
8
0
100
AcDbBlockEnd
0
ENDSEC
0
SECTION
2
ENTITIES
0
ARC
5
C3
100
AcDbEntity
8
SK2
62
256
6
ByLayer
370
13
48
1
60
0
100
AcDbCircle
39
0
10
188
20
0
30
0
40
19
210
0
220
0
230
1
100
AcDbArc
50
290
51
70
0
POINT
5
70
100
AcDbEntity
8
81
62
256
6
ByLayer
370
18
48
1
60
0
100
AcDbPoint
10
188
20
0
30
0
39
0
210
0
220
0
230
1
50
360
0
POINT
5
72
100
AcDbEntity
8
80
62
256
6
ByLayer
370
18
48
1
60
0
100
AcDbPoint
10
0
20
0
30
0
39
0
210
0
220
0
230
1
50
360
0
POINT
5
74
100
AcDbEntity
8
1
62
256
6
ByLayer
370
18
48
1
60
1
100
AcDbPoint
10
-48
20
-8
30
0
39
0
210
0
220
0
230
1
50
360
0
POINT
5
76
100
AcDbEntity
8
1
62
256
6
ByLayer
370
18
48
1
60
1
100
AcDbPoint
10
188
20
0
30
0
39
0
210
0
220
0
230
1
50
360
0
POINT
5
77
100
AcDbEntity
8
1
62
256
6
ByLayer
370
18
48
1
60
1
100
AcDbPoint
10
188
20
0
30
0
39
0
210
0
220
0
230
1
50
360
0
POINT
5
78
100
AcDbEntity
8
1
62
256
6
ByLayer
370
18
48
1
60
1
100
AcDbPoint
10
6
20
-7
30
0
39
0
210
0
220
0
230
1
50
360
0
POINT
5
79
100
AcDbEntity
8
1
62
256
6
ByLayer
370
18
48
1
60
1
100
AcDbPoint
10
-48
20
-8
30
0
39
0
210
0
220
0
230
1
50
360
0
POINT
5
7A
100
AcDbEntity
8
1
62
256
6
ByLayer
370
18
48
1
60
1
100
AcDbPoint
10
0
20
-8
30
0
39
0
210
0
220
0
230
1
50
360
0
POINT
5
7B
100
AcDbEntity
8
1
62
256
6
ByLayer
370
18
48
1
60
1
100
AcDbPoint
10
188
20
0
30
0
39
0
210
0
220
0
230
1
50
360
0
POINT
5
7C
100
AcDbEntity
8
1
62
256
6
ByLayer
370
18
48
1
60
1
100
AcDbPoint
10
20
20
7
30
0
39
0
210
0
220
0
230
1
50
360
0
SPLINE
5
C4
100
AcDbEntity
8
1
62
256
6
ByLayer
370
18
48
1
60
0
100
AcDbSpline
70
4
71
3
72
14
73
10
40
0
40
0
40
0
40
0
40
0.167420045102311
40
0.167420045102311
40
0.334840090204622
40
0.334840090204622
40
0.669680180409244
40
0.669680180409244
40
1
40
1
40
1
40
1
41
1
10
177.7
20
-6.91938332820106
30
0
41
1
10
177.861704995682
20
-6.92827169013546
30
0
41
1
10
178.023328116499
20
-6.93643164530647
30
0
41
1
10
178.346530178767
20
-6.95124796643049
30
0
41
1
10
178.508124425268
20
-6.95790028363916
30
0
41
1
10
178.992903839799
20
-6.97561010436181
30
0
41
1
10
179.316047225258
20
-6.98443528713133
30
0
41
1
10
179.957797949076
20
-6.99612059287904
30
0
41
1
10
180.276414066122
20
-6.99905860422822
30
0
41
1
10
180.594909820348
20
-6.99912566306554
30
0
0
SPLINE
5
C5
100
AcDbEntity
8
1
62
256
6
ByLayer
370
18
48
1
60
0
100
AcDbSpline
70
4
71
3
72
104
73
100
40
0
40
0
40
0
40
0
40
0.0304729398981319
40
0.0304729398981319
40
0.0609458797962639
40
0.0609458797962639
40
0.0761823497453303
40
0.0761823497453303
40
0.0914188196943967
40
0.0914188196943967
40
0.106655289643463
40
0.106655289643463
40
0.12189175959253
40
0.12189175959253
40
0.152364699490662
40
0.152364699490662
40
0.167601169439728
40
0.167601169439728
40
0.182837639388794
40
0.182837639388794
40
0.213310579286927
40
0.213310579286927
40
0.228547049235994
40
0.228547049235994
40
0.243783519185061
40
0.243783519185061
40
0.259019989134128
40
0.259019989134128
40
0.274256459083195
40
0.274256459083195
40
0.30472939898133
40
0.30472939898133
40
0.335202338879464
40
0.335202338879464
40
0.350438808828531
40
0.350438808828531
40
0.365675278777598
40
0.365675278777598
40
0.396148218675732
40
0.396148218675732
40
0.426621158573866
40
0.426621158573866
40
0.441857628522932
40
0.441857628522932
40
0.457094098471998
40
0.457094098471998
40
0.48756703837013
40
0.48756703837013
40
0.518039978268262
40
0.518039978268262
40
0.533276448217328
40
0.533276448217328
40
0.548512918166393
40
0.548512918166393
40
0.578985858064523
40
0.578985858064523
40
0.609458797962654
40
0.609458797962654
40
0.624695267911718
40
0.624695267911718
40
0.639931737860783
40
0.639931737860783
40
0.655168207809847
40
0.655168207809847
40
0.670404677758912
40
0.670404677758912
40
0.700877617657042
40
0.700877617657042
40
0.716114087606107
40
0.716114087606107
40
0.731350557555171
40
0.731350557555171
40
0.7618234974533
40
0.7618234974533
40
0.792296437351429
40
0.792296437351429
40
0.807532907300494
40
0.807532907300494
40
0.822769377249559
40
0.822769377249559
40
0.853242317147688
40
0.853242317147688
40
0.868478787096753
40
0.868478787096753
40
0.883715257045817
40
0.883715257045817
40
0.898951726994881
40
0.898951726994881
40
0.914188196943945
40
0.914188196943945
40
0.944661136842073
40
0.944661136842073
40
0.959897606791137
40
0.959897606791137
40
0.975134076740201
40
0.975134076740201
40
0.990370546689264
40
0.990370546689264
40
1
40
1
40
1
40
1
41
1
10
19.475456787031
20
3.42963918454333
30
0
41
1
10
19.8898785938098
20
3.30616183460941
30
0
41
1
10
20.3042356538648
20
3.1810462449599
30
0
41
1
10
21.13263276301
20
2.92712415519142
30
0
41
1
10
21.5466739597473
20
2.79832029300934
30
0
41
1
10
22.1673716550478
20
2.60201252128289
30
0
41
1
10
22.3742108500925
20
2.53606077421654
30
0
41
1
10
22.7877421615758
20
2.40304689673508
30
0
41
1
10
22.9944154131104
20
2.33593250445713
30
0
41
1
10
23.4077643113296
20
2.20099557335345
30
0
41
1
10
23.6144747701621
20
2.1332693446661
30
0
41
1
10
24.0279966773957
20
1.99739019053197
30
0
41
1
10
24.2347918273058
20
1.92919231868197
30
0
41
1
10
24.8552425547217
20
1.72372583616624
30
0
41
1
10
25.2689714693142
20
1.58560916780388
30
0
41
1
10
25.8895827688463
20
1.37636180369944
30
0
41
1
10
26.0964563230337
20
1.30626712919698
30
0
41
1
10
26.5101823146012
20
1.16529984142849
30
0
41
1
10
26.7170256242038
20
1.09439954331719
30
0
41
1
10
27.3378550782363
20
0.881485793924782
30
0
41
1
10
27.7522218299169
20
0.739504908376176
30
0
41
1
10
28.3742678223092
20
0.525841900118934
30
0
41
1
10
28.5816662434509
20
0.454532367712375
30
0
41
1
10
28.9959941391565
20
0.311867835791645
30
0
41
1
10
29.2029988162548
20
0.24048507797562
30
0
41
1
10
29.616669779769
20
0.0975547546720463
30
0
41
1
10
29.8233339836671
20
0.0260004278086114
30
0
41
1
10
30.2363045121469
20
-0.117329307020014
30
0
41
1
10
30.4426192030033
20
-0.189076008901537
30
0
41
1
10
31.0614043132186
20
-0.403440156577887
30
0
41
1
10
31.4736762332276
20
-0.545318987058181
30
0
41
1
10
32.2974696912321
20
-0.827868116912725
30
0
41
1
10
32.7090120882702
20
-0.968472246985584
30
0
41
1
10
33.3256686147793
20
-1.17874992123075
30
0
41
1
10
33.5311026524454
20
-1.24876281041455
30
0
41
1
10
33.9417612634551
20
-1.38854056430648
30
0
41
1
10
34.1470054176624
20
-1.45824570147127
30
0
41
1
10
34.762809811886
20
-1.66584814794635
30
0
41
1
10
35.1733353542603
20
-1.80255689070282
30
0
41
1
10
35.9941402424219
20
-2.07329427704821
30
0
41
1
10
36.4044358386548
20
-2.20727540200412
30
0
41
1
10
37.0195881319324
20
-2.40651664544893
30
0
41
1
10
37.2245759583026
20
-2.4726811702995
30
0
41
1
10
37.6345040131015
20
-2.60428467768665
30
0
41
1
10
37.8394718053999
20
-2.66964671623847
30
0
41
1
10
38.4546363973489
20
-2.86373720201192
30
0
41
1
10
38.8649730217917
20
-2.99080980800409
30
0
41
1
10
39.6859030434166
20
-3.24087504036186
30
0
41
1
10
40.0965073123051
20
-3.36383851600905
30
0
41
1
10
40.7124937867871
20
-3.54548287161504
30
0
41
1
10
40.9178180543543
20
-3.60560887856357
30
0
41
1
10
41.3285886825248
20
-3.72466991324705
30
0
41
1
10
41.5340680837053
20
-3.78352078856935
30
0
41
1
10
42.1509295637712
20
-3.95768932137938
30
0
41
1
10
42.5626330943406
20
-4.07088485064068
30
0
41
1
10
43.386800777689
20
-4.29186138226686
30
0
41
1
10
43.7992702537552
20
-4.39962970078221
30
0
41
1
10
44.4184333778393
20
-4.55743589952795
30
0
41
1
10
44.6248807260528
20
-4.6094344132174
30
0
41
1
10
45.0380773643436
20
-4.71178830712299
30
0
41
1
10
45.2448572531221
20
-4.76207399686828
30
0
41
1
10
45.6587926922626
20
-4.86084223897348
30
0
41
1
10
45.8659350624945
20
-4.90935500105454
30
0
41
1
10
46.2805479105576
20
-5.00468687795976
30
0
41
1
10
46.4879803791303
20
-5.05149387431774
30
0
41
1
10
47.1097715603078
20
-5.18919953258481
30
0
41
1
10
47.5239384894726
20
-5.27746305578177
30
0
41
1
10
48.1444989760036
20
-5.40475175800449
30
0
41
1
10
48.3512305030268
20
-5.44633674750025
30
0
41
1
10
48.7646915657876
20
-5.52740344997858
30
0
41
1
10
48.9714403197543
20
-5.56685733132269
30
0
41
1
10
49.5916662217198
20
-5.68214457465589
30
0
41
1
10
50.0051141278563
20
-5.75492187317403
30
0
41
1
10
50.8317975330793
20
-5.89257258217106
30
0
41
1
10
51.2450261012305
20
-5.95745644267157
30
0
41
1
10
51.8645760449436
20
-6.04892942630005
30
0
41
1
10
52.0710575615163
20
-6.07842237573007
30
0
41
1
10
52.4842034306383
20
-6.13511474161027
30
0
41
1
10
52.690858634507
20
-6.16232919191401
30
0
41
1
10
53.3109806856154
20
-6.24070861264067
30
0
41
1
10
53.7246158661524
20
-6.28860084039138
30
0
41
1
10
54.3452896730321
20
-6.3540056562112
30
0
41
1
10
54.5522170111458
20
-6.37473417749669
30
0
41
1
10
54.9661223362911
20
-6.41404551030226
30
0
41
1
10
55.1730895277568
20
-6.43263616139717
30
0
41
1
10
55.5870996078664
20
-6.46762376319913
30
0
41
1
10
55.794166485991
20
-6.48400080121871
30
0
41
1
10
56.2086307078968
20
-6.51439196075447
30
0
41
1
10
56.4160353651815
20
-6.5284272844568
30
0
41
1
10
57.0375386150042
20
-6.5670537436755
30
0
41
1
10
57.4512862009724
20
-6.58818940662042
30
0
41
1
10
58.0709332026455
20
-6.61308441540899
30
0
41
1
10
58.2773192235842
20
-6.62024640189125
30
0
41
1
10
58.6897425451114
20
-6.6322956351454
30
0
41
1
10
58.8957638827093
20
-6.63718501077085
30
0
41
1
10
59.3075297250705
20
-6.64465657977536
30
0
41
1
10
59.5133043534535
20
-6.64723353754403
30
0
41
1
10
59.8490482155222
20
-6.64956396101749
30
0
41
1
10
59.979037688139
20
-6.65000911799461
30
0
41
1
10
60.1089941408819
20
-6.65000000739838
30
0
0
SPLINE
5
C6
100
AcDbEntity
8
1
62
256
6
ByLayer
370
18
48
1
60
0
100
AcDbSpline
70
4
71
3
72
170
73
166
40
0
40
0
40
0
40
0
40
0.0164613343113156
40
0.0164613343113156
40
0.0337163986216394
40
0.0337163986216394
40
0.0423439307768021
40
0.0423439307768021
40
0.0509714629319645
40
0.0509714629319645
40
0.0682265272422895
40
0.0682265272422895
40
0.0854815915526146
40
0.0854815915526146
40
0.0941091237077772
40
0.0941091237077772
40
0.10273665586294
40
0.10273665586294
40
0.119991720173264
40
0.119991720173264
40
0.137246784483587
40
0.137246784483587
40
0.141560550561169
40
0.141560550561169
40
0.14587431663875
40
0.14587431663875
40
0.154501848793914
40
0.154501848793914
40
0.171756913104242
40
0.171756913104242
40
0.18901197741457
40
0.18901197741457
40
0.197639509569734
40
0.197639509569734
40
0.206267041724898
40
0.206267041724898
40
0.223522106035227
40
0.223522106035227
40
0.240777170345557
40
0.240777170345557
40
0.249404702500721
40
0.249404702500721
40
0.258032234655885
40
0.258032234655885
40
0.275287298966212
40
0.275287298966212
40
0.283914831121376
40
0.283914831121376
40
0.29254236327654
40
0.29254236327654
40
0.301169895431704
40
0.301169895431704
40
0.309797427586868
40
0.309797427586868
40
0.327052491897197
40
0.327052491897197
40
0.344307556207526
40
0.344307556207526
40
0.352935088362691
40
0.352935088362691
40
0.361562620517855
40
0.361562620517855
40
0.378817684828185
40
0.378817684828185
40
0.396072749138514
40
0.396072749138514
40
0.404700281293678
40
0.404700281293678
40
0.413327813448842
40
0.413327813448842
40
0.43058287775917
40
0.43058287775917
40
0.447837942069498
40
0.447837942069498
40
0.456465474224662
40
0.456465474224662
40
0.465093006379826
40
0.465093006379826
40
0.482348070690154
40
0.482348070690154
40
0.490975602845318
40
0.490975602845318
40
0.499603135000482
40
0.499603135000482
40
0.508230667155646
40
0.508230667155646
40
0.51685819931081
40
0.51685819931081
40
0.534113263621137
40
0.534113263621137
40
0.5427407957763
40
0.5427407957763
40
0.551368327931463
40
0.551368327931463
40
0.559995860086626
40
0.559995860086626
40
0.568623392241789
40
0.568623392241789
40
0.585878456552115
40
0.585878456552115
40
0.594505988707278
40
0.594505988707278
40
0.603133520862441
40
0.603133520862441
40
0.620388585172767
40
0.620388585172767
40
0.637643649483093
40
0.637643649483093
40
0.646271181638257
40
0.646271181638257
40
0.65489871379342
40
0.65489871379342
40
0.672153778103748
40
0.672153778103748
40
0.689408842414076
40
0.689408842414076
40
0.69803637456924
40
0.69803637456924
40
0.706663906724403
40
0.706663906724403
40
0.72391897103473
40
0.72391897103473
40
0.741174035345057
40
0.741174035345057
40
0.749801567500221
40
0.749801567500221
40
0.758429099655385
40
0.758429099655385
40
0.775684163965714
40
0.775684163965714
40
0.792939228276044
40
0.792939228276044
40
0.801566760431208
40
0.801566760431208
40
0.810194292586373
40
0.810194292586373
40
0.827449356896702
40
0.827449356896702
40
0.844704421207031
40
0.844704421207031
40
0.853331953362196
40
0.853331953362196
40
0.861959485517361
40
0.861959485517361
40
0.879214549827692
40
0.879214549827692
40
0.896469614138023
40
0.896469614138023
40
0.905097146293189
40
0.905097146293189
40
0.913724678448354
40
0.913724678448354
40
0.930979742758685
40
0.930979742758685
40
0.948234807069015
40
0.948234807069015
40
0.956862339224179
40
0.956862339224179
40
0.965489871379344
40
0.965489871379344
40
0.982744935689672
40
0.982744935689672
40
0.991372467844836
40
0.991372467844836
40
1
40
1
40
1
40
1
41
1
10
106.122554798054
20
4.8706148621178
30
0
41
1
10
106.512666881367
20
4.96281047194839
30
0
41
1
10
106.902983924536
20
5.05156272686278
30
0
41
1
10
107.702688766086
20
5.22673546441342
30
0
41
1
10
108.112089853664
20
5.31283404791617
30
0
41
1
10
108.726278669767
20
5.43684573098807
30
0
41
1
10
108.931022965577
20
5.47732539855954
30
0
41
1
10
109.340515720171
20
5.55659442774436
30
0
41
1
10
109.5452537108
20
5.59539873932229
30
0
41
1
10
110.159769215805
20
5.7087615142085
30
0
41
1
10
110.569943147619
20
5.78013412652291
30
0
41
1
10
111.391014288618
20
5.91498638949321
30
0
41
1
10
111.801928366581
20
5.97843837925902
30
0
41
1
10
112.418755830659
20
6.06775658739829
30
0
41
1
10
112.624440700929
20
6.09655177746006
30
0
41
1
10
113.03594148655
20
6.15218805213743
30
0
41
1
10
113.241760956532
20
6.17902127834671
30
0
41
1
10
113.859767687632
20
6.25614442655336
30
0
41
1
10
114.272508720634
20
6.30307420924734
30
0
41
1
10
115.099185458888
20
6.38832361305245
30
0
41
1
10
115.513143369835
20
6.42661788682381
30
0
41
1
10
116.031282106487
20
6.46907107782312
30
0
41
1
10
116.134960601771
20
6.47729163849536
30
0
41
1
10
116.342213500209
20
6.49317565649105
30
0
41
1
10
116.445803503266
20
6.50084179089043
30
0
41
1
10
116.756481918858
20
6.52299692753496
30
0
41
1
10
116.963486004669
20
6.53663486049075
30
0
41
1
10
117.584511615887
20
6.57397749840692
30
0
41
1
10
117.998450416464
20
6.59418843669641
30
0
41
1
10
118.825929017553
20
6.62549731144566
30
0
41
1
10
119.239487217421
20
6.63658687961916
30
0
41
1
10
119.859416353933
20
6.64635597504915
30
0
41
1
10
120.065976697799
20
6.64846655011002
30
0
41
1
10
120.479008996307
20
6.65036678171415
30
0
41
1
10
120.685509719222
20
6.65015376065097
30
0
41
1
10
121.305230737788
20
6.64606120772453
30
0
41
1
10
121.718542922089
20
6.63874219116286
30
0
41
1
10
122.545292337225
20
6.61498317881083
30
0
41
1
10
122.958740805157
20
6.59854540693524
30
0
41
1
10
123.578887092706
20
6.56691427503824
30
0
41
1
10
123.785578882264
20
6.55519507073083
30
0
41
1
10
124.19906322823
20
6.52945416282341
30
0
41
1
10
124.405891251118
20
6.51545230805937
30
0
41
1
10
125.026753548165
20
6.47015771553373
30
0
41
1
10
125.441067637237
20
6.4355285218889
30
0
41
1
10
126.063022748672
20
6.37687017521787
30
0
41
1
10
126.27047379193
20
6.35619081641201
30
0
41
1
10
126.684841348038
20
6.3126317079425
30
0
41
1
10
126.891834890105
20
6.28974598853333
30
0
41
1
10
127.305416181171
20
6.24172520991016
30
0
41
1
10
127.511989400548
20
6.21657062498619
30
0
41
1
10
127.92489130674
20
6.16419656665565
30
0
41
1
10
128.13124779159
20
6.1370137807962
30
0
41
1
10
128.750027934607
20
6.05251454327842
30
0
41
1
10
129.16212296357
20
5.99220165031267
30
0
41
1
10
129.985344263402
20
5.86354005455777
30
0
41
1
10
130.396470868061
20
5.79519285822116
30
0
41
1
10
131.012294717231
20
5.68638529646117
30
0
41
1
10
131.217421870292
20
5.64905888089314
30
0
41
1
10
131.627608337793
20
5.57266667849061
30
0
41
1
10
131.832682928446
20
5.53362978564829
30
0
41
1
10
132.44777604945
20
5.41390327619155
30
0
41
1
10
132.857659967046
20
5.33059394914221
30
0
41
1
10
133.676942814863
20
5.15680664873145
30
0
41
1
10
134.08633632012
20
5.06631905256859
30
0
41
1
10
134.699931537698
20
4.92488738257512
30
0
41
1
10
134.904391676927
20
4.87681126528364
30
0
41
1
10
135.313408901272
20
4.77929282297256
30
0
41
1
10
135.517961238181
20
4.72984392242319
30
0
41
1
10
136.131663270228
20
4.57927173877366
30
0
41
1
10
136.540867677523
20
4.47594661730616
30
0
41
1
10
137.359279232617
20
4.26312204746986
30
0
41
1
10
137.768470194119
20
4.15358478974335
30
0
41
1
10
138.382165940916
20
3.9843412877226
30
0
41
1
10
138.586740404969
20
3.92715900360065
30
0
41
1
10
138.996130374623
20
3.81181222747233
30
0
41
1
10
139.200926707472
20
3.7536032011414
30
0
41
1
10
139.815541063502
20
3.57718995452942
30
0
41
1
10
140.225598022241
20
3.45723747375328
30
0
41
1
10
140.841051316057
20
3.27351049975527
30
0
41
1
10
141.04626317324
20
3.21163249270774
30
0
41
1
10
141.456788463221
20
3.08653504969911
30
0
41
1
10
141.662089556666
20
3.02328052956531
30
0
41
1
10
142.072833315346
20
2.89551894942005
30
0
41
1
10
142.278300930287
20
2.83108122827002
30
0
41
1
10
142.689600475525
20
2.70159805115441
30
0
41
1
10
142.895407299385
20
2.6364822412238
30
0
41
1
10
143.51323462248
20
2.43983519442699
30
0
41
1
10
143.925675456171
20
2.30704867323718
30
0
41
1
10
144.545072528779
20
2.10499599078088
30
0
41
1
10
144.751660752777
20
2.0371646711306
30
0
41
1
10
145.165063627226
20
1.90045976709786
30
0
41
1
10
145.371862330783
20
1.83153284796359
30
0
41
1
10
145.785774064768
20
1.69289669271828
30
0
41
1
10
145.992962339239
20
1.62327362767354
30
0
41
1
10
146.407606741203
20
1.48381919180446
30
0
41
1
10
146.614879148577
20
1.41397222930223
30
0
41
1
10
147.236499760362
20
1.203932439835
30
0
41
1
10
147.650663714616
20
1.06327690385953
30
0
41
1
10
148.271415737634
20
0.850999518794652
30
0
41
1
10
148.47825070948
20
0.78002459981667
30
0
41
1
10
148.891728290761
20
0.637562523596756
30
0
41
1
10
149.09835320401
20
0.566023531574331
30
0
41
1
10
149.718189774765
20
0.351373023088826
30
0
41
1
10
150.131524237786
20
0.208699367874829
30
0
41
1
10
150.958198278891
20
-0.0764285795404476
30
0
41
1
10
151.371542840151
20
-0.218868245947732
30
0
41
1
10
151.991445209087
20
-0.432708594474718
30
0
41
1
10
152.198060313083
20
-0.504018637953806
30
0
41
1
10
152.611224605214
20
-0.646779472731595
30
0
41
1
10
152.817769000369
20
-0.71824416849887
30
0
41
1
10
153.437654406354
20
-0.931823731676417
30
0
41
1
10
153.851303641429
20
-1.07296124442868
30
0
41
1
10
154.679079478553
20
-1.35363758085526
30
0
41
1
10
155.093229269446
20
-1.49310872446046
30
0
41
1
10
155.714722587545
20
-1.70137495117146
30
0
41
1
10
155.921928236748
20
-1.77065059603254
30
0
41
1
10
156.336417552843
20
-1.90892109008709
30
0
41
1
10
156.543551262032
20
-1.97782421016114
30
0
41
1
10
157.164492444141
20
-2.18260990462647
30
0
41
1
10
157.577973782796
20
-2.31684425491582
30
0
41
1
10
158.403768963792
20
-2.58158036372171
30
0
41
1
10
158.816101008189
20
-2.71202255915051
30
0
41
1
10
159.433632181982
20
-2.90515434863229
30
0
41
1
10
159.639304299752
20
-2.9691382006346
30
0
41
1
10
160.050347088257
20
-3.09618409059558
30
0
41
1
10
160.255739293763
20
-3.15918231684401
30
0
41
1
10
160.871817825083
20
-3.34581274341105
30
0
41
1
10
161.282296272569
20
-3.46740548284319
30
0
41
1
10
162.102577130154
20
-3.70558224557513
30
0
41
1
10
162.512393141599
20
-3.82212922502083
30
0
41
1
10
163.126501742717
20
-3.99343790150132
30
0
41
1
10
163.331086226927
20
-4.04999203581411
30
0
41
1
10
163.740112361266
20
-4.16175857389871
30
0
41
1
10
163.94458302112
20
-4.21690032107773
30
0
41
1
10
164.5580803103
20
-4.37962417807975
30
0
41
1
10
164.967077589808
20
-4.48478733684917
30
0
41
1
10
165.784891614273
20
-4.68895703905784
30
0
41
1
10
166.19371724766
20
-4.7879438116195
30
0
41
1
10
166.806702402836
20
-4.93200245912382
30
0
41
1
10
167.010970338485
20
-4.97931935259229
30
0
41
1
10
167.419525047868
20
-5.07225073026913
30
0
41
1
10
167.623844764321
20
-5.1178003713278
30
0
41
1
10
168.237052463655
20
-5.25149137496831
30
0
41
1
10
168.646094023803
20
-5.33686711206309
30
0
41
1
10
169.464489656318
20
-5.50045253761513
30
0
41
1
10
169.873848477863
20
-5.57865432099689
30
0
41
1
10
170.488000966721
20
-5.69070591982114
30
0
41
1
10
170.692720164807
20
-5.72720557913453
30
0
41
1
10
171.102343278674
20
-5.79820011436715
30
0
41
1
10
171.307278525306
20
-5.83264823450281
30
0
41
1
10
171.922485003839
20
-5.93282600860647
30
0
41
1
10
172.33309486309
20
-5.99548821794733
30
0
41
1
10
173.155120009184
20
-6.1127689605508
30
0
41
1
10
173.566536683407
20
-6.16738688478623
30
0
41
1
10
174.184151058483
20
-6.24330982268282
30
0
41
1
10
174.390094255087
20
-6.26762338077927
30
0
41
1
10
174.802334685784
20
-6.31401362414485
30
0
41
1
10
175.008653453129
20
-6.33607052139695
30
0
41
1
10
175.628153499101
20
-6.39890344595736
30
0
41
1
10
176.041857738942
20
-6.4363670194019
30
0
41
1
10
176.663382577298
20
-6.48597870952423
30
0
41
1
10
176.870779410956
20
-6.50142160730439
30
0
41
1
10
177.285453403215
20
-6.53007306220564
30
0
41
1
10
177.492751240652
20
-6.54328496761673
30
0
41
1
10
177.7
20
-6.55537544878214
30
0
0
SPLINE
5
C7
100
AcDbEntity
8
1
62
256
6
ByLayer
370
18
48
1
60
0
100
AcDbSpline
70
4
71
3
72
163
73
159
40
0
40
0
40
0
40
0
40
0.003061087678951
40
0.003061087678951
40
0.0198802480669044
40
0.0198802480669044
40
0.0282898282608811
40
0.0282898282608811
40
0.0366994084548577
40
0.0366994084548577
40
0.0535185688428111
40
0.0535185688428111
40
0.0703377292307645
40
0.0703377292307645
40
0.0787473094247416
40
0.0787473094247416
40
0.0871568896187188
40
0.0871568896187188
40
0.120795210394625
40
0.120795210394625
40
0.137614370782577
40
0.137614370782577
40
0.15443353117053
40
0.15443353117053
40
0.171252691558483
40
0.171252691558483
40
0.179662271752459
40
0.179662271752459
40
0.188071851946435
40
0.188071851946435
40
0.204891012334388
40
0.204891012334388
40
0.213300592528364
40
0.213300592528364
40
0.221710172722341
40
0.221710172722341
40
0.230119752916317
40
0.230119752916317
40
0.238529333110294
40
0.238529333110294
40
0.255348493498247
40
0.255348493498247
40
0.263758073692223
40
0.263758073692223
40
0.272167653886201
40
0.272167653886201
40
0.280577234080177
40
0.280577234080177
40
0.288986814274154
40
0.288986814274154
40
0.305805974662109
40
0.305805974662109
40
0.314215554856086
40
0.314215554856086
40
0.322625135050063
40
0.322625135050063
40
0.339444295438018
40
0.339444295438018
40
0.343649085535007
40
0.343649085535007
40
0.347853875631995
40
0.356263455825974
40
0.356263455825974
40
0.364673036019952
40
0.364673036019952
40
0.37308261621393
40
0.37308261621393
40
0.389901776601887
40
0.389901776601887
40
0.406720936989844
40
0.406720936989844
40
0.415130517183822
40
0.415130517183822
40
0.423540097377801
40
0.423540097377801
40
0.457178418153712
40
0.457178418153712
40
0.473997578541668
40
0.473997578541668
40
0.490816738929624
40
0.490816738929624
40
0.50763589931758
40
0.50763589931758
40
0.516045479511558
40
0.516045479511558
40
0.524455059705536
40
0.524455059705536
40
0.55809338048145
40
0.55809338048145
40
0.566502960675429
40
0.566502960675429
40
0.574912540869409
40
0.574912540869409
40
0.591731701257366
40
0.591731701257366
40
0.608550861645323
40
0.608550861645323
40
0.616960441839302
40
0.616960441839302
40
0.625370022033281
40
0.625370022033281
40
0.642189182421239
40
0.642189182421239
40
0.650598762615218
40
0.650598762615218
40
0.659008342809197
40
0.659008342809197
40
0.667417923003177
40
0.667417923003177
40
0.675827503197156
40
0.675827503197156
40
0.692646663585115
40
0.692646663585115
40
0.701056243779094
40
0.701056243779094
40
0.709465823973074
40
0.709465823973074
40
0.726284984361033
40
0.726284984361033
40
0.743104144748992
40
0.743104144748992
40
0.751513724942972
40
0.751513724942972
40
0.759923305136951
40
0.759923305136951
40
0.79356162591287
40
0.79356162591287
40
0.810380786300829
40
0.810380786300829
40
0.827199946688789
40
0.827199946688789
40
0.844019107076748
40
0.844019107076748
40
0.852428687270728
40
0.852428687270728
40
0.860838267464708
40
0.860838267464708
40
0.89447658824063
40
0.89447658824063
40
0.902886168434611
40
0.902886168434611
40
0.911295748628592
40
0.911295748628592
40
0.928114909016553
40
0.928114909016553
40
0.944934069404515
40
0.944934069404515
40
0.953343649598496
40
0.953343649598496
40
0.961753229792477
40
0.961753229792477
40
0.978572390180438
40
0.978572390180438
40
0.986981970374418
40
0.986981970374418
40
0.995391550568397
40
0.995391550568397
40
1
40
1
40
1
40
1
41
1
10
166.545298747159
20
-4.86944980077007
30
0
41
1
10
166.468770299133
20
-4.88745065917863
30
0
41
1
10
166.392255938282
20
-4.9053280603575
30
0
41
1
10
165.895424349508
20
-5.02063418624201
30
0
41
1
10
165.475520939969
20
-5.11448244841949
30
0
41
1
10
164.846358325216
20
-5.2498243742848
30
0
41
1
10
164.636754229924
20
-5.29403438428537
30
0
41
1
10
164.217778055604
20
-5.38063335756604
30
0
41
1
10
164.008406363221
20
-5.42302054440168
30
0
41
1
10
163.380400934584
20
-5.54702418466889
30
0
41
1
10
162.961874191836
20
-5.62549382865333
30
0
41
1
10
162.125169411843
20
-5.77425619707702
30
0
41
1
10
161.706985328722
20
-5.84453967860537
30
0
41
1
10
161.080020131352
20
-5.94388534563646
30
0
41
1
10
160.871087899375
20
-5.97599134133782
30
0
41
1
10
160.453302008838
20
-6.03812602787786
30
0
41
1
10
160.244438023766
20
-6.06813973747518
30
0
41
1
10
159.199897462955
20
-6.21250892540522
30
0
41
1
10
158.363797336444
20
-6.31018499376486
30
0
41
1
10
157.109310518298
20
-6.43031428442609
30
0
41
1
10
156.6911442343
20
-6.46595520634628
30
0
41
1
10
155.853919680238
20
-6.52775305900801
30
0
41
1
10
155.434936213495
20
-6.55398746751902
30
0
41
1
10
154.596273728187
20
-6.59716953518884
30
0
41
1
10
154.176597592781
20
-6.61411917870853
30
0
41
1
10
153.546603709393
20
-6.63249428288901
30
0
41
1
10
153.336532198725
20
-6.63744248437345
30
0
41
1
10
152.916110418947
20
-6.64494172980372
30
0
41
1
10
152.705742098683
20
-6.64749192486622
30
0
41
1
10
152.074158204618
20
-6.65155747556892
30
0
41
1
10
151.652476479319
20
-6.64949429745462
30
0
41
1
10
151.019042989814
20
-6.639208448289
30
0
41
1
10
150.807693529111
20
-6.63457777274485
30
0
41
1
10
150.385367337431
20
-6.62291614425115
30
0
41
1
10
150.174318311431
20
-6.61588391867062
30
0
41
1
10
149.752439047975
20
-6.59940806138854
30
0
41
1
10
149.541605618598
20
-6.58996298414814
30
0
41
1
10
149.1199815397
20
-6.56873242190804
30
0
41
1
10
148.909197616643
20
-6.55694691068339
30
0
41
1
10
148.276948961085
20
-6.51809942663559
30
0
41
1
10
147.855582682704
20
-6.48755346556032
30
0
41
1
10
147.223772016435
20
-6.43476725195873
30
0
41
1
10
147.013209507085
20
-6.41600855082777
30
0
41
1
10
146.592175706097
20
-6.37614767611723
30
0
41
1
10
146.38171117083
20
-6.35503905692869
30
0
41
1
10
145.960827948406
20
-6.31050114591852
30
0
41
1
10
145.750391895937
20
-6.28708643656233
30
0
41
1
10
145.329411602931
20
-6.23808979339137
30
0
41
1
10
145.118883143148
20
-6.21249429165599
30
0
41
1
10
144.487197375641
20
-6.13241830459017
30
0
41
1
10
144.065934756253
20
-6.07465864234172
30
0
41
1
10
143.433880011293
20
-5.98138591559623
30
0
41
1
10
143.22316997043
20
-5.94918601418561
30
0
41
1
10
142.80170284782
20
-5.88254677546553
30
0
41
1
10
142.590955354811
20
-5.84809254096876
30
0
41
1
10
141.958489528187
20
-5.74155887444937
30
0
41
1
10
141.536432933041
20
-5.66648568799107
30
0
41
1
10
141.008344978366
20
-5.56762453741928
30
0
41
1
10
140.902680957174
20
-5.54759601195357
30
0
41
1
10
140.691461816114
20
-5.50706389044308
30
0
41
1
10
140.374763868792
20
-5.44554718366587
30
0
41
1
10
140.058460870683
20
-5.38187367938153
30
0
41
1
10
139.637084421659
20
-5.29504055252033
30
0
41
1
10
139.426577283652
20
-5.25065501016749
30
0
41
1
10
139.005924066492
20
-5.1599449516834
30
0
41
1
10
138.795778698282
20
-5.11361762543865
30
0
41
1
10
138.165658373913
20
-4.97220494348139
30
0
41
1
10
137.745994763943
20
-4.87470671501711
30
0
41
1
10
136.907548609925
20
-4.67324045201639
30
0
41
1
10
136.488760302963
20
-4.56928530429397
30
0
41
1
10
135.861284774989
20
-4.40839779866587
30
0
41
1
10
135.652248488213
20
-4.35393158713003
30
0
41
1
10
135.234387219006
20
-4.24339807535873
30
0
41
1
10
135.025552057315
20
-4.18735411005167
30
0
41
1
10
133.98150042814
20
-3.90411200101116
30
0
41
1
10
133.146882190117
20
-3.6673670955679
30
0
41
1
10
131.896239807647
20
-3.29622755347438
30
0
41
1
10
131.479628104755
20
-3.16967767107204
30
0
41
1
10
130.646062980751
20
-2.91323951424027
30
0
41
1
10
130.229182104241
20
-2.78316972173727
30
0
41
1
10
129.395270380655
20
-2.5192257271483
30
0
41
1
10
128.978242030081
20
-2.38534485458661
30
0
41
1
10
128.352636269933
20
-2.18149800649198
30
0
41
1
10
128.144097678252
20
-2.11302252284145
30
0
41
1
10
127.726887723044
20
-1.9753779334583
30
0
41
1
10
127.51819640505
20
-1.9062678552238
30
0
41
1
10
126.474276417136
20
-1.55938732618287
30
0
41
1
10
125.637729092062
20
-1.27746409281437
30
0
41
1
10
124.590517159314
20
-0.918636333510051
30
0
41
1
10
124.380995309972
20
-0.846554881451482
30
0
41
1
10
123.961637512077
20
-0.702249772217129
30
0
41
1
10
123.751800960412
20
-0.630029453562031
30
0
41
1
10
123.121838544534
20
-0.413105959840578
30
0
41
1
10
122.701257344352
20
-0.26815087198392
30
0
41
1
10
121.858921586566
20
0.0225938520907789
30
0
41
1
10
121.437188680457
20
0.168458027772999
30
0
41
1
10
120.803679006205
20
0.387855416984564
30
0
41
1
10
120.592509354136
20
0.460966969531768
30
0
41
1
10
120.170343645906
20
0.606619572417628
30
0
41
1
10
119.959313607147
20
0.679224378416848
30
0
41
1
10
119.326396325987
20
0.896426254190686
30
0
41
1
10
118.904676474423
20
1.04039623689522
30
0
41
1
10
118.272478107964
20
1.2552414840446
30
0
41
1
10
118.061810609716
20
1.32667618844977
30
0
41
1
10
117.640611794773
20
1.46919760308873
30
0
41
1
10
117.430090047744
20
1.54031128680984
30
0
41
1
10
117.009099354593
20
1.6819482689086
30
0
41
1
10
116.798606319548
20
1.75240328875753
30
0
41
1
10
116.377572339543
20
1.89244334906519
30
0
41
1
10
116.167041455766
20
1.96205700338103
30
0
41
1
10
115.535416886561
20
2.16971139922396
30
0
41
1
10
115.114287298776
20
2.30655622725331
30
0
41
1
10
114.482576639627
20
2.50957804236214
30
0
41
1
10
114.272005016707
20
2.57688085019908
30
0
41
1
10
113.85086000236
20
2.71074137163526
30
0
41
1
10
113.640291058594
20
2.77731028853745
30
0
41
1
10
113.008358467912
20
2.97529598044352
30
0
41
1
10
112.586725302667
20
3.10488003261145
30
0
41
1
10
111.742841552682
20
3.35944791922759
30
0
41
1
10
111.320584886371
20
3.4844160386582
30
0
41
1
10
110.686782755443
20
3.66851535632307
30
0
41
1
10
110.475717737932
20
3.72925302078937
30
0
41
1
10
110.053979296396
20
3.84939803058521
30
0
41
1
10
109.843296982965
20
3.9087830226965
30
0
41
1
10
108.790462034573
20
4.20133193718476
30
0
41
1
10
107.950223316636
20
4.4220155797382
30
0
41
1
10
106.69319968263
20
4.73420241574678
30
0
41
1
10
106.274807325231
20
4.83521221424564
30
0
41
1
10
105.438394412196
20
5.02929599431974
30
0
41
1
10
105.020440014098
20
5.12253722691838
30
0
41
1
10
104.185074911707
20
5.30159121190758
30
0
41
1
10
103.767666491083
20
5.38740875567157
30
0
41
1
10
103.142013853475
20
5.51062471761091
30
0
41
1
10
102.933547177155
20
5.55078824184412
30
0
41
1
10
102.516657423591
20
5.62908207017892
30
0
41
1
10
102.308213904202
20
5.667180343203
30
0
41
1
10
101.265964619394
20
5.85241029153113
30
0
41
1
10
100.43213141474
20
5.98395796828245
30
0
41
1
10
99.3900710905548
20
6.12785326351803
30
0
41
1
10
99.1816691544134
20
6.15559558680715
30
0
41
1
10
98.7647281575563
20
6.20882162012276
30
0
41
1
10
98.5561855345815
20
6.23430385071961
30
0
41
1
10
97.930361980272
20
6.30739920098975
30
0
41
1
10
97.5128828252807
20
6.35166229469345
30
0
41
1
10
96.6774443200641
20
6.43129461429731
30
0
41
1
10
96.2595039967078
20
6.46667778475185
30
0
41
1
10
95.6322308856967
20
6.51297577937029
30
0
41
1
10
95.4230646431535
20
6.52726620048574
30
0
41
1
10
95.0044369794826
20
6.55347470955869
30
0
41
1
10
94.7949887783416
20
6.56540284242791
30
0
41
1
10
94.1662583130655
20
6.59767784626632
30
0
41
1
10
93.7465859462426
20
6.6145179127455
30
0
41
1
10
93.1163339238471
20
6.63273463558227
30
0
41
1
10
92.9061272242075
20
6.63763207098887
30
0
41
1
10
92.4854720772391
20
6.64505603390236
30
0
41
1
10
92.2750310666258
20
6.64758241501397
30
0
41
1
10
91.9490341485812
20
6.64963228296898
30
0
41
1
10
91.8335781579171
20
6.64999655904595
30
0
41
1
10
91.7180649232836
20
6.64999979217433
30
0
0
SPLINE
5
C8
100
AcDbEntity
8
1
62
256
6
ByLayer
370
18
48
1
60
0
100
AcDbSpline
70
4
71
3
72
68
73
64
40
0
40
0
40
0
40
0
40
0.0101566617815025
40
0.0101566617815025
40
0.0316749952210349
40
0.0316749952210349
40
0.0531933286605679
40
0.0531933286605679
40
0.0962299955396314
40
0.0962299955396314
40
0.117748328979163
40
0.117748328979163
40
0.139266662418695
40
0.139266662418695
40
0.160784995858227
40
0.160784995858227
40
0.182303329297759
40
0.182303329297759
40
0.225339996176823
40
0.225339996176823
40
0.246858329616355
40
0.246858329616355
40
0.268376663055887
40
0.268376663055887
40
0.31141332993495
40
0.31141332993495
40
0.354449996814014
40
0.354449996814014
40
0.375968330253546
40
0.375968330253546
40
0.397486663693079
40
0.397486663693079
40
0.483559997451211
40
0.483559997451211
40
0.505078330890744
40
0.505078330890744
40
0.526596664330277
40
0.526596664330277
40
0.569633331209342
40
0.569633331209342
40
0.612669998088407
40
0.612669998088407
40
0.655706664967473
40
0.655706664967473
40
0.741779998725603
40
0.741779998725603
40
0.763298332165135
40
0.763298332165135
40
0.784816665604668
40
0.784816665604668
40
0.827853332483733
40
0.827853332483733
40
0.849371665923267
40
0.849371665923267
40
0.8708899993628
40
0.8708899993628
40
0.892408332802333
40
0.892408332802333
40
0.913926666241866
40
0.913926666241866
40
0.956963333120933
40
0.956963333120933
40
1
40
1
40
1
40
1
41
1
10
45.7070677216518
20
-4.86846863584319
30
0
41
1
10
45.6077121875941
20
-4.89190127451263
30
0
41
1
10
45.5083622384242
20
-4.91515154080807
30
0
41
1
10
45.1985419874131
20
-4.98708899768292
30
0
41
1
10
44.9880741164723
20
-5.03510238190594
30
0
41
1
10
44.5669982489165
20
-5.12912101333075
30
0
41
1
10
44.3564047494072
20
-5.17515559651858
30
0
41
1
10
43.7244756628287
20
-5.31038240189088
30
0
41
1
10
43.3029864306032
20
-5.3966921071783
30
0
41
1
10
42.670491123254
20
-5.52046093824074
30
0
41
1
10
42.4596172780647
20
-5.56076947132306
30
0
41
1
10
42.0377909982668
20
-5.63948714003288
30
0
41
1
10
41.8268473049389
20
-5.67790917866023
30
0
41
1
10
41.4048103474732
20
-5.75272683038688
30
0
41
1
10
41.1936926473815
20
-5.78908761070579
30
0
41
1
10
40.7711974836981
20
-5.85961474854128
30
0
41
1
10
40.5601110575746
20
-5.89375312151947
30
0
41
1
10
39.9273396065396
20
-5.99284102634198
30
0
41
1
10
39.5061379285489
20
-6.05446269998396
30
0
41
1
10
38.875342210985
20
-6.14035555956741
30
0
41
1
10
38.6652463109467
20
-6.16789694130082
30
0
41
1
10
38.2453954022202
20
-6.22079665978555
30
0
41
1
10
38.0356469067002
20
-6.24616018542912
30
0
41
1
10
37.4067308402757
20
-6.31876718017534
30
0
41
1
10
36.9878285381373
20
-6.36247391294179
30
0
41
1
10
36.1508098229299
20
-6.44070766378775
30
0
41
1
10
35.7326896081447
20
-6.47523191852972
30
0
41
1
10
35.1061461732511
20
-6.52018191061487
30
0
41
1
10
34.8974065474623
20
-6.53402537672113
30
0
41
1
10
34.4801335278234
20
-6.5594147294857
30
0
41
1
10
34.2715968515862
20
-6.57095629088124
30
0
41
1
10
33.2290145414911
20
-6.62272438390406
30
0
41
1
10
32.3953879793145
20
-6.64533457357985
30
0
41
1
10
31.3542019114573
20
-6.6503576695724
30
0
41
1
10
31.1460133933769
20
-6.65019316828881
30
0
41
1
10
30.72968731781
20
-6.64751125769934
30
0
41
1
10
30.5215362952462
20
-6.64499327613183
30
0
41
1
10
29.8969280943643
20
-6.63394543574859
30
0
41
1
10
29.4803788704857
20
-6.62192567170749
30
0
41
1
10
28.6470455333737
20
-6.58862603440232
30
0
41
1
10
28.2302605730671
20
-6.5673471106511
30
0
41
1
10
27.3965212021558
20
-6.51540928319935
30
0
41
1
10
26.979603715922
20
-6.48469865901049
30
0
41
1
10
25.7274220760127
20
-6.37915273184859
30
0
41
1
10
24.891049542194
20
-6.29087068461951
30
0
41
1
10
23.8438534713921
20
-6.15752120521105
30
0
41
1
10
23.6343326373745
20
-6.12968608783305
30
0
41
1
10
23.2149928671186
20
-6.07183743352311
30
0
41
1
10
23.0051584574683
20
-6.04184655599849
30
0
41
1
10
22.3751650597304
20
-5.94868425171123
30
0
41
1
10
21.9545237570323
20
-5.88231777629787
30
0
41
1
10
21.3226197897728
20
-5.77630312183803
30
0
41
1
10
21.1118284383582
20
-5.7398856296077
30
0
41
1
10
20.6899398538593
20
-5.66485538734662
30
0
41
1
10
20.4787996104628
20
-5.62623102430845
30
0
41
1
10
20.0563978976172
20
-5.54681316937211
30
0
41
1
10
19.8452608504409
20
-5.50604995740588
30
0
41
1
10
19.422942753304
20
-5.42269806283741
30
0
41
1
10
19.2117710420251
20
-5.38009625839058
30
0
41
1
10
18.5782382794324
20
-5.24949835962721
30
0
41
1
10
18.1558553488983
20
-5.15872057581046
30
0
41
1
10
17.3110778438378
20
-4.96967293603166
30
0
41
1
10
16.8886827331574
20
-4.87140528812537
30
0
41
1
10
16.466324592281
20
-4.76925137825853
30
0
0
SPLINE
5
C9
100
AcDbEntity
8
1
62
256
6
ByLayer
370
18
48
1
60
0
100
AcDbSpline
70
4
71
3
72
20
73
16
40
0
40
0
40
0
40
0
40
0.249999999999995
40
0.249999999999995
40
0.374999999999993
40
0.374999999999993
40
0.499999999999991
40
0.499999999999991
40
0.749999999999986
40
0.749999999999986
40
0.874999999999988
40
0.874999999999988
40
0.937499999999994
40
0.937499999999994
40
1
40
1
40
1
40
1
41
1
10
185.452208360156
20
-0.998300255408566
30
0
41
1
10
184.805366782077
20
-0.764708384045463
30
0
41
1
10
184.158867828463
20
-0.530873232358118
30
0
41
1
10
183.189832789238
20
-0.179181908722455
30
0
41
1
10
182.86694368215
20
-0.0617853058267031
30
0
41
1
10
182.221450424437
20
0.173448110284937
30
0
41
1
10
181.898866826217
20
0.291340993207911
30
0
41
1
10
180.93071542953
20
0.643388042519462
30
0
41
1
10
180.284931416283
20
0.876425246951413
30
0
41
1
10
179.315947384437
20
1.22409097762625
30
0
41
1
10
178.992915848668
20
1.33970371903374
30
0
41
1
10
178.508287000792
20
1.5126337619181
30
0
41
1
10
178.346723820407
20
1.57017734486792
30
0
41
1
10
178.023462576595
20
1.68480672520957
30
0
41
1
10
177.861763390604
20
1.74188952711921
30
0
41
1
10
177.7
20
1.79875254984148
30
0
0
SPLINE
5
CA
100
AcDbEntity
8
1
62
256
6
ByLayer
370
18
48
1
60
0
100
AcDbSpline
70
4
71
3
72
84
73
80
40
0
40
0
40
0
40
0
40
0.0312500000000058
40
0.0312500000000058
40
0.0625000000000117
40
0.0625000000000117
40
0.125000000000023
40
0.125000000000023
40
0.140625000000025
40
0.140625000000025
40
0.156250000000027
40
0.156250000000027
40
0.187500000000028
40
0.187500000000028
40
0.250000000000031
40
0.250000000000031
40
0.281250000000033
40
0.281250000000033
40
0.296875000000033
40
0.296875000000033
40
0.312500000000033
40
0.312500000000033
40
0.343750000000033
40
0.343750000000033
40
0.375000000000033
40
0.375000000000033
40
0.406250000000033
40
0.406250000000033
40
0.437500000000033
40
0.437500000000033
40
0.453125000000033
40
0.453125000000033
40
0.468750000000033
40
0.468750000000033
40
0.500000000000032
40
0.500000000000032
40
0.531250000000032
40
0.531250000000032
40
0.539062500000031
40
0.539062500000031
40
0.546875000000031
40
0.562500000000031
40
0.562500000000031
40
0.593750000000031
40
0.593750000000031
40
0.62500000000003
40
0.62500000000003
40
0.63281250000003
40
0.63281250000003
40
0.64062500000003
40
0.65625000000003
40
0.65625000000003
40
0.687500000000032
40
0.687500000000032
40
0.718750000000034
40
0.718750000000034
40
0.726562500000034
40
0.726562500000034
40
0.734375000000034
40
0.734375000000034
40
0.750000000000033
40
0.750000000000033
40
0.78125000000003
40
0.78125000000003
40
0.812500000000028
40
0.843750000000025
40
0.843750000000025
40
0.851562500000024
40
0.851562500000024
40
0.859375000000023
40
0.875000000000021
40
0.875000000000021
40
0.906250000000016
40
0.93750000000001
40
0.968750000000004
40
0.968750000000004
40
0.984375000000002
40
0.984375000000002
40
1
40
1
40
1
40
1
41
1
10
185.452208360156
20
6.77773435094701
30
0
41
1
10
185.495936659244
20
6.66928196264189
30
0
41
1
10
185.539733264489
20
6.55920598217128
30
0
41
1
10
185.627536602086
20
6.3360679430802
30
0
41
1
10
185.671543296258
20
6.22300480711681
30
0
41
1
10
185.803956299196
20
5.87961234329711
30
0
41
1
10
185.89276753463
20
5.64510375500737
30
0
41
1
10
186.004545448072
20
5.34551179957717
30
0
41
1
10
186.026938259539
20
5.28526869674002
30
0
41
1
10
186.0717963903
20
5.16413850256998
30
0
41
1
10
186.09427003473
20
5.10322802034887
30
0
41
1
10
186.161395169557
20
4.92062228142791
30
0
41
1
10
186.205885594064
20
4.7986956764465
30
0
41
1
10
186.338523144652
20
4.43234356397565
30
0
41
1
10
186.425881293642
20
4.18736298815423
30
0
41
1
10
186.554460902813
20
3.81850376672509
30
0
41
1
10
186.596901756669
20
3.69531561650368
30
0
41
1
10
186.659698224234
20
3.5100981150683
30
0
41
1
10
186.680485105992
20
3.44828597563696
30
0
41
1
10
186.721711889644
20
3.3244956331169
30
0
41
1
10
186.742162752398
20
3.26248238293641
30
0
41
1
10
186.802597828044
20
3.07705549124805
30
0
41
1
10
186.84177019936
20
2.95397321880506
30
0
41
1
10
186.917163427898
20
2.70867686831812
30
0
41
1
10
186.953389251355
20
2.5864635675236
30
0
41
1
10
187.021788527133
20
2.34265007152732
30
0
41
1
10
187.053967703807
20
2.22105042440091
30
0
41
1
10
187.112615549303
20
1.97813428291485
30
0
41
1
10
187.13908679966
20
1.85681678530307
30
0
41
1
10
187.172740074033
20
1.6747498298995
30
0
41
1
10
187.182948520595
20
1.6139678247155
30
0
41
1
10
187.200822321771
20
1.49353295515434
30
0
41
1
10
187.208514477428
20
1.43374524015428
30
0
41
1
10
187.227482258766
20
1.25571949065272
30
0
41
1
10
187.234608920004
20
1.13881252804202
30
0
41
1
10
187.236492059421
20
0.908964008284983
30
0
41
1
10
187.231237259547
20
0.796024481861565
30
0
41
1
10
187.216984607003
20
0.657697177594713
30
0
41
1
10
187.213748972153
20
0.630140341650815
30
0
41
1
10
187.206553064617
20
0.575479427357294
30
0
41
1
10
187.194700887584
20
0.494358123722577
30
0
41
1
10
187.179856867612
20
0.415815346122315
30
0
41
1
10
187.146676822022
20
0.262085666285344
30
0
41
1
10
187.119919855963
20
0.164067545390054
30
0
41
1
10
187.059540335317
20
-0.0233762726107045
30
0
41
1
10
187.02592289438
20
-0.11280452642518
30
0
41
1
10
186.980725268724
20
-0.219299159942835
30
0
41
1
10
186.971516584151
20
-0.240352135110214
30
0
41
1
10
186.952840787288
20
-0.281836040026008
30
0
41
1
10
186.924477316009
20
-0.343046925257738
30
0
41
1
10
186.895173017474
20
-0.401272429838428
30
0
41
1
10
186.83553739542
20
-0.513861935772525
30
0
41
1
10
186.794424512318
20
-0.583783653959017
30
0
41
1
10
186.710284244499
20
-0.713692172869344
30
0
41
1
10
186.667251185231
20
-0.773677131906908
30
0
41
1
10
186.612521987715
20
-0.842457443934308
30
0
41
1
10
186.601528558744
20
-0.855902734455896
30
0
41
1
10
186.579450605541
20
-0.882169167190227
30
0
41
1
10
186.568359586103
20
-0.894996839152043
30
0
41
1
10
186.535099671541
20
-0.932379732442797
30
0
41
1
10
186.512899801371
20
-0.955890218540389
30
0
41
1
10
186.446255142965
20
-1.02228207378906
30
0
41
1
10
186.401768616313
20
-1.06103237766962
30
0
41
1
10
186.312762865652
20
-1.12778775422524
30
0
41
1
10
186.223721645869
20
-1.18379569809352
30
0
41
1
10
186.134586788836
20
-1.21833695781387
30
0
41
1
10
186.078801362725
20
-1.23307152808184
30
0
41
1
10
186.067634786289
20
-1.23567544872986
30
0
41
1
10
186.045393979749
20
-1.24017327113469
30
0
41
1
10
186.012134633822
20
-1.24586565733276
30
0
41
1
10
185.979169987482
20
-1.24843005082064
30
0
41
1
10
185.913604739393
20
-1.24945871642654
30
0
41
1
10
185.827155001555
20
-1.2399104660756
30
0
41
1
10
185.699936317107
20
-1.19341807559991
30
0
41
1
10
185.616461825487
20
-1.14093318207532
30
0
41
1
10
185.554244941699
20
-1.09333416794357
30
0
41
1
10
185.533633280572
20
-1.07613963676835
30
0
41
1
10
185.49271515541
20
-1.0391685643794
30
0
41
1
10
185.472396879252
20
-1.01938303727653
30
0
41
1
10
185.452208360156
20
-0.998300255408708
30
0
0
SPLINE
5
CB
100
AcDbEntity
8
1
62
256
6
ByLayer
370
18
48
1
60
0
100
AcDbSpline
70
4
71
3
72
24
73
20
40
0
40
0
40
0
40
0
40
0.0026927113819606
40
0.0026927113819606
40
0.102423440243759
40
0.102423440243759
40
0.202154169105556
40
0.202154169105556
40
0.301884897967354
40
0.301884897967354
40
0.401615626829152
40
0.401615626829152
40
0.601077084552763
40
0.601077084552763
40
0.800538542276374
40
0.800538542276374
40
0.900269271138187
40
0.900269271138187
40
1
40
1
40
1
40
1
41
1
10
180.594909704968
20
6.9991256630413
30
0
41
1
10
180.599268207296
20
6.99912658072739
30
0
41
1
10
180.603626687084
20
6.99912696077135
30
0
41
1
10
180.769410579664
20
6.99912096557878
30
0
41
1
10
180.930805254512
20
6.99837689671631
30
0
41
1
10
181.253519482267
20
6.99540175386792
30
0
41
1
10
181.414829870532
20
6.99316901958261
30
0
41
1
10
181.737430266943
20
6.98721050923797
30
0
41
1
10
181.898728348007
20
6.98348536143183
30
0
41
1
10
182.221437340989
20
6.97457384019424
30
0
41
1
10
182.382836010734
20
6.9693866166422
30
0
41
1
10
182.867116205667
20
6.95163497044442
30
0
41
1
10
183.190084680129
20
6.93688265297098
30
0
41
1
10
183.836190947772
20
6.9015371548264
30
0
41
1
10
184.159327125148
20
6.88094396358659
30
0
41
1
10
184.644092120419
20
6.84559611067974
30
0
41
1
10
184.805688306534
20
6.83306834670543
30
0
41
1
10
185.128896233888
20
6.80650692573681
30
0
41
1
10
185.290513987181
20
6.7924755492877
30
0
41
1
10
185.452208360156
20
6.77773435094704
30
0
0
SPLINE
5
CC
100
AcDbEntity
8
1
62
256
6
ByLayer
370
18
48
1
60
0
100
AcDbSpline
70
4
71
3
72
188
73
184
40
0
40
0
40
0
40
0
40
0.0048596589672985
40
0.0048596589672985
40
0.0131243950050518
40
0.0131243950050518
40
0.0296538670805585
40
0.0296538670805585
40
0.0379186031183119
40
0.0379186031183119
40
0.0461833391560653
40
0.0461833391560653
40
0.0627128112315719
40
0.0627128112315719
40
0.0792422833070786
40
0.0792422833070786
40
0.0875070193448319
40
0.0875070193448319
40
0.0957717553825853
40
0.0957717553825853
40
0.112301227458092
40
0.112301227458092
40
0.120565963495846
40
0.120565963495846
40
0.128830699533599
40
0.128830699533599
40
0.137095435571353
40
0.137095435571353
40
0.145360171609106
40
0.145360171609106
40
0.161889643684614
40
0.161889643684614
40
0.170154379722368
40
0.170154379722368
40
0.178419115760122
40
0.178419115760122
40
0.186683851797876
40
0.186683851797876
40
0.194948587835629
40
0.194948587835629
40
0.211478059911137
40
0.211478059911137
40
0.219742795948892
40
0.219742795948892
40
0.228007531986646
40
0.228007531986646
40
0.2362722680244
40
0.2362722680244
40
0.244537004062154
40
0.244537004062154
40
0.261066476137661
40
0.261066476137661
40
0.269331212175415
40
0.269331212175415
40
0.277595948213169
40
0.277595948213169
40
0.294125420288677
40
0.294125420288677
40
0.310654892364184
40
0.310654892364184
40
0.318919628401938
40
0.318919628401938
40
0.327184364439693
40
0.327184364439693
40
0.343713836515201
40
0.343713836515201
40
0.360243308590709
40
0.360243308590709
40
0.368508044628462
40
0.368508044628462
40
0.376772780666216
40
0.376772780666216
40
0.393302252741724
40
0.393302252741724
40
0.401566988779477
40
0.401566988779477
40
0.405699356798354
40
0.405699356798354
40
0.40983172481723
40
0.40983172481723
40
0.418096460854983
40
0.418096460854983
40
0.426361196892736
40
0.426361196892736
40
0.442890668968242
40
0.442890668968242
40
0.459420141043747
40
0.459420141043747
40
0.4676848770815
40
0.4676848770815
40
0.475949613119252
40
0.475949613119252
40
0.492479085194757
40
0.492479085194757
40
0.509008557270262
40
0.509008557270262
40
0.517273293308014
40
0.517273293308014
40
0.525538029345766
40
0.525538029345766
40
0.54206750142127
40
0.54206750142127
40
0.558596973496774
40
0.558596973496774
40
0.566861709534525
40
0.566861709534525
40
0.575126445572277
40
0.575126445572277
40
0.591655917647779
40
0.591655917647779
40
0.608185389723282
40
0.608185389723282
40
0.616450125761033
40
0.616450125761033
40
0.624714861798785
40
0.624714861798785
40
0.641244333874287
40
0.641244333874287
40
0.65777380594979
40
0.65777380594979
40
0.666038541987542
40
0.666038541987542
40
0.674303278025294
40
0.674303278025294
40
0.690832750100799
40
0.690832750100799
40
0.69909748613855
40
0.69909748613855
40
0.707362222176302
40
0.707362222176302
40
0.715626958214054
40
0.715626958214054
40
0.723891694251806
40
0.723891694251806
40
0.740421166327309
40
0.740421166327309
40
0.74868590236506
40
0.74868590236506
40
0.756950638402811
40
0.756950638402811
40
0.765215374440561
40
0.765215374440561
40
0.773480110478312
40
0.773480110478312
40
0.790009582553812
40
0.790009582553812
40
0.798274318591563
40
0.798274318591563
40
0.806539054629314
40
0.806539054629314
40
0.823068526704816
40
0.823068526704816
40
0.839597998780318
40
0.839597998780318
40
0.847862734818069
40
0.847862734818069
40
0.85612747085582
40
0.85612747085582
40
0.872656942931323
40
0.872656942931323
40
0.889186415006826
40
0.889186415006826
40
0.897451151044577
40
0.897451151044577
40
0.905715887082329
40
0.905715887082329
40
0.922245359157831
40
0.922245359157831
40
0.938774831233334
40
0.938774831233334
40
0.94290719925221
40
0.94290719925221
40
0.947039567271086
40
0.947039567271086
40
0.955304303308838
40
0.955304303308838
40
0.971833775384341
40
0.971833775384341
40
0.988363247459843
40
0.988363247459843
40
0.996627983497595
40
0.996627983497595
40
1
40
1
40
1
40
1
41
1
10
45.7077257084572
20
4.87205498640949
30
0
41
1
10
45.829506144461
20
4.90067307956593
30
0
41
1
10
45.9513454552533
20
4.92899340128008
30
0
41
1
10
46.2805479105581
20
5.0046868779599
30
0
41
1
10
46.487980379131
20
5.05149387431789
30
0
41
1
10
47.1097715603085
20
5.18919953258492
30
0
41
1
10
47.5239384894732
20
5.27746305578188
30
0
41
1
10
48.1444989760043
20
5.40475175800464
30
0
41
1
10
48.3512305030275
20
5.44633674750037
30
0
41
1
10
48.7646915657883
20
5.52740344997869
30
0
41
1
10
48.971440319755
20
5.56685733132281
30
0
41
1
10
49.5916662217204
20
5.68214457465601
30
0
41
1
10
50.005114127857
20
5.75492187317414
30
0
41
1
10
50.8317975330801
20
5.89257258217117
30
0
41
1
10
51.2450261012312
20
5.95745644267166
30
0
41
1
10
51.8645760449442
20
6.04892942630016
30
0
41
1
10
52.0710575615171
20
6.07842237573019
30
0
41
1
10
52.484203430639
20
6.13511474161038
30
0
41
1
10
52.6908586345077
20
6.1623291919141
30
0
41
1
10
53.3109806856162
20
6.24070861264076
30
0
41
1
10
53.7246158661532
20
6.28860084039147
30
0
41
1
10
54.3452896730329
20
6.35400565621126
30
0
41
1
10
54.5522170111466
20
6.37473417749678
30
0
41
1
10
54.966122336292
20
6.41404551030232
30
0
41
1
10
55.1730895277576
20
6.43263616139723
30
0
41
1
10
55.5870996078671
20
6.46762376319921
30
0
41
1
10
55.7941664859918
20
6.48400080121877
30
0
41
1
10
56.2086307078976
20
6.51439196075452
30
0
41
1
10
56.4160353651824
20
6.52842728445685
30
0
41
1
10
57.0375386150051
20
6.56705374367553
30
0
41
1
10
57.4512862009733
20
6.58818940662044
30
0
41
1
10
58.0709332026464
20
6.61308441540902
30
0
41
1
10
58.277319223585
20
6.62024640189128
30
0
41
1
10
58.6897425451122
20
6.63229563514543
30
0
41
1
10
58.8957638827102
20
6.63718501077085
30
0
41
1
10
59.3075297250714
20
6.64465657977536
30
0
41
1
10
59.5133043534543
20
6.64723353754403
30
0
41
1
10
59.9247550936136
20
6.65008944816927
30
0
41
1
10
60.1304078107069
20
6.65037247785139
30
0
41
1
10
60.7471004603225
20
6.64782296083783
30
0
41
1
10
61.1578876209623
20
6.64159832426304
30
0
41
1
10
61.7734484586603
20
6.62548421964186
30
0
41
1
10
61.978531910658
20
6.61898162534095
30
0
41
1
10
62.3884665321121
20
6.60369184902069
30
0
41
1
10
62.593299758365
20
6.59489568998694
30
0
41
1
10
63.0028603395562
20
6.575050769477
30
0
41
1
10
63.2076208145452
20
6.56401807108324
30
0
41
1
10
63.6171509700478
20
6.53978554896722
30
0
41
1
10
63.8219028478914
20
6.52657754577959
30
0
41
1
10
64.4360808322096
20
6.48368086919254
30
0
41
1
10
64.845438520873
20
6.45073161884119
30
0
41
1
10
65.459217695013
20
6.39468977372118
30
0
41
1
10
65.6637679293904
20
6.37490462308025
30
0
41
1
10
66.072756620113
20
6.33308305873936
30
0
41
1
10
66.2771803669511
20
6.3110299822666
30
0
41
1
10
66.8905459315579
20
6.24171599909255
30
0
41
1
10
67.2997143875455
20
6.19145366133372
30
0
41
1
10
68.118332572115
20
6.08271568785514
30
0
41
1
10
68.5277920649192
20
6.02424916269121
30
0
41
1
10
69.1420898330236
20
5.93021345134378
30
0
41
1
10
69.346873969025
20
5.89781076812747
30
0
41
1
10
69.7564533832291
20
5.83082876547078
30
0
41
1
10
69.9612435856697
20
5.79623807214082
30
0
41
1
10
70.575956372007
20
5.68966515810479
30
0
41
1
10
70.9862818435221
20
5.61500274746732
30
0
41
1
10
71.8076787906144
20
5.45808675340962
30
0
41
1
10
72.2187713848591
20
5.3758660491504
30
0
41
1
10
72.8358901892316
20
5.2466071183951
30
0
41
1
10
73.0416747387859
20
5.2025275785756
30
0
41
1
10
73.4533880990992
20
5.11232352068177
30
0
41
1
10
73.6593251214978
20
5.06621142909862
30
0
41
1
10
74.2777212225111
20
4.92556311263547
30
0
41
1
10
74.690729365414
20
4.8286669360152
30
0
41
1
10
75.3111617875281
20
4.6782305860724
30
0
41
1
10
75.5181312435882
20
4.62724603661908
30
0
41
1
10
75.8288106684941
20
4.54946893047455
30
0
41
1
10
75.9324079763767
20
4.52332628394339
30
0
41
1
10
76.1396756264128
20
4.47059894923606
30
0
41
1
10
76.2433653878322
20
4.44400934047354
30
0
41
1
10
76.5542990689238
20
4.36362648145919
30
0
41
1
10
76.761452151098
20
4.30918558059827
30
0
41
1
10
77.1755166519918
20
4.19865900806701
30
0
41
1
10
77.3824494077371
20
4.14262109014223
30
0
41
1
10
78.0032827205594
20
3.97297471811967
30
0
41
1
10
78.4171039569755
20
3.85757665300497
30
0
41
1
10
79.2443847015346
20
3.62170198506104
30
0
41
1
10
79.6578601950027
20
3.50126354984639
30
0
41
1
10
80.2776880512529
20
3.31648626258027
30
0
41
1
10
80.4842161984728
20
3.25416275821536
30
0
41
1
10
80.8972121285252
20
3.12830316786753
30
0
41
1
10
81.1037118085876
20
3.06484866009529
30
0
41
1
10
81.7234336314116
20
2.87349092962279
30
0
41
1
10
82.1367566963534
20
2.74428390846776
30
0
41
1
10
82.9635628197226
20
2.48213074382042
30
0
41
1
10
83.377054489965
20
2.34920782169402
30
0
41
1
10
83.997287301221
20
2.14663202869539
30
0
41
1
10
84.2040112379134
20
2.07851810924984
30
0
41
1
10
84.6175911425075
20
1.9415877534469
30
0
41
1
10
84.8244824961621
20
1.87287224189117
30
0
41
1
10
85.4455316328569
20
1.66619329179181
30
0
41
1
10
85.859996636536
20
1.52746451786803
30
0
41
1
10
86.6895530726758
20
1.2477041790728
30
0
41
1
10
87.1039502932204
20
1.10691529138512
30
0
41
1
10
87.7248276729694
20
0.893938497820386
30
0
41
1
10
87.9316540463782
20
0.822609274034789
30
0
41
1
10
88.3452710739252
20
0.67995354591298
30
0
41
1
10
88.5520875568619
20
0.608702826757423
30
0
41
1
10
89.172512573394
20
0.395037783630613
30
0
41
1
10
89.5860714425526
20
0.252636188431211
30
0
41
1
10
90.4129331451067
20
-0.0324981798921442
30
0
41
1
10
90.8262333389937
20
-0.175238747191969
30
0
41
1
10
91.4458468420509
20
-0.390016371503833
30
0
41
1
10
91.6523352022914
20
-0.461700311632143
30
0
41
1
10
92.0654669473576
20
-0.604510105257845
30
0
41
1
10
92.2721118628583
20
-0.675631723391461
30
0
41
1
10
92.8921898243832
20
-0.888422049796958
30
0
41
1
10
93.3057746133593
20
-1.02949159352866
30
0
41
1
10
94.1331984933819
20
-1.31047028880593
30
0
41
1
10
94.5470192758232
20
-1.45043251784315
30
0
41
1
10
95.167851137633
20
-1.65975979546096
30
0
41
1
10
95.3748394533612
20
-1.72935281308008
30
0
41
1
10
95.7891330393904
20
-1.86751389167435
30
0
41
1
10
95.9964700214669
20
-1.93616356199422
30
0
41
1
10
96.6184501920456
20
-2.14088163721718
30
0
41
1
10
97.0324990861436
20
-2.27548818068789
30
0
41
1
10
97.6525761561265
20
-2.47493612359781
30
0
41
1
10
97.8591017455004
20
-2.54100930103562
30
0
41
1
10
98.271797453954
20
-2.67239792690589
30
0
41
1
10
98.4779532864499
20
-2.73775542830887
30
0
41
1
10
98.8899621775412
20
-2.86754117188053
30
0
41
1
10
99.0958426242632
20
-2.93188746994949
30
0
41
1
10
99.5075028180795
20
-3.05908135709586
30
0
41
1
10
99.7132579873299
20
-3.12200219071479
30
0
41
1
10
100.330245587709
20
-3.30891663469501
30
0
41
1
10
100.741213993336
20
-3.43102772165668
30
0
41
1
10
101.357026200869
20
-3.61075838645101
30
0
41
1
10
101.562189899969
20
-3.6700954679504
30
0
41
1
10
101.972278667569
20
-3.78767680627669
30
0
41
1
10
102.17718593814
20
-3.84596478268895
30
0
41
1
10
102.58686611892
20
-3.96117035142211
30
0
41
1
10
102.7916720437
20
-4.01800631681024
30
0
41
1
10
103.201293875116
20
-4.12997467793323
30
0
41
1
10
103.40608890338
20
-4.18515895748794
30
0
41
1
10
104.020383077456
20
-4.3484354481308
30
0
41
1
10
104.429802139318
20
-4.45423057342376
30
0
41
1
10
105.043650867974
20
-4.60859776330406
30
0
41
1
10
105.248220479328
20
-4.65933132275319
30
0
41
1
10
105.657240718911
20
-4.75939534608921
30
0
41
1
10
105.861674386899
20
-4.80875956020438
30
0
41
1
10
106.475026675541
20
-4.95424408325266
30
0
41
1
10
106.884157782096
20
-5.04743892175694
30
0
41
1
10
107.702688766088
20
-5.22673546441379
30
0
41
1
10
108.112089853666
20
-5.31283404791654
30
0
41
1
10
108.726278669769
20
-5.43684573098844
30
0
41
1
10
108.931022965579
20
-5.47732539855991
30
0
41
1
10
109.340515720173
20
-5.5565944277447
30
0
41
1
10
109.545253710802
20
-5.59539873932266
30
0
41
1
10
110.159769215807
20
-5.70876151420882
30
0
41
1
10
110.569943147621
20
-5.78013412652319
30
0
41
1
10
111.39101428862
20
-5.91498638949349
30
0
41
1
10
111.801928366583
20
-5.97843837925933
30
0
41
1
10
112.418755830661
20
-6.06775658739858
30
0
41
1
10
112.624440700931
20
-6.09655177746035
30
0
41
1
10
113.035941486552
20
-6.15218805213766
30
0
41
1
10
113.241760956534
20
-6.17902127834697
30
0
41
1
10
113.859767687634
20
-6.25614442655359
30
0
41
1
10
114.272508720636
20
-6.30307420924754
30
0
41
1
10
115.09918545889
20
-6.38832361305265
30
0
41
1
10
115.513143369837
20
-6.42661788682398
30
0
41
1
10
116.03128210649
20
-6.46907107782329
30
0
41
1
10
116.134960601773
20
-6.47729163849553
30
0
41
1
10
116.342213500211
20
-6.49317565649122
30
0
41
1
10
116.445803503268
20
-6.50084179089058
30
0
41
1
10
116.75648191886
20
-6.5229969275351
30
0
41
1
10
116.963486004671
20
-6.53663486049089
30
0
41
1
10
117.584511615889
20
-6.57397749840703
30
0
41
1
10
117.998450416466
20
-6.5941884366965
30
0
41
1
10
118.825929017555
20
-6.62549731144574
30
0
41
1
10
119.239487217423
20
-6.63658687961922
30
0
41
1
10
119.859416353935
20
-6.64635597504918
30
0
41
1
10
120.065976697801
20
-6.64846655011002
30
0
41
1
10
120.356751540874
20
-6.64980431364205
30
0
41
1
10
120.441007666756
20
-6.64999834047464
30
0
41
1
10
120.525267227004
20
-6.64999955962901
30
0
0
SPLINE
5
CD
100
AcDbEntity
8
1
62
256
6
ByLayer
370
18
48
1
60
0
100
AcDbSpline
70
4
71
3
72
34
73
30
40
0
40
0
40
0
40
0
40
0.0050851086783918
40
0.0050851086783918
40
0.0603581581962567
40
0.0603581581962567
40
0.115631207714122
40
0.115631207714122
40
0.226177306749859
40
0.226177306749859
40
0.336723405785597
40
0.336723405785597
40
0.391996455303465
40
0.391996455303465
40
0.447269504821333
40
0.447269504821333
40
0.557815603857061
40
0.557815603857061
40
0.668361702892791
40
0.668361702892791
40
0.723634752410658
40
0.723634752410658
40
0.778907801928526
40
0.778907801928526
40
0.889453900964264
40
0.889453900964264
40
0.944726950482132
40
0.944726950482132
40
1
40
1
40
1
40
1
41
1
10
166.545978451801
20
4.87071081895354
30
0
41
1
10
166.56477732543
20
4.87514109629711
30
0
41
1
10
166.583575850262
20
4.87956512175148
30
0
41
1
10
166.806702402839
20
4.93200245912445
30
0
41
1
10
167.010970338488
20
4.97931935259294
30
0
41
1
10
167.419525047871
20
5.07225073026976
30
0
41
1
10
167.623844764324
20
5.11780037132843
30
0
41
1
10
168.237052463658
20
5.25149137496891
30
0
41
1
10
168.646094023806
20
5.33686711206369
30
0
41
1
10
169.464489656321
20
5.50045253761567
30
0
41
1
10
169.873848477866
20
5.57865432099746
30
0
41
1
10
170.488000966724
20
5.69070591982168
30
0
41
1
10
170.69272016481
20
5.72720557913507
30
0
41
1
10
171.102343278677
20
5.7982001143676
30
0
41
1
10
171.307278525309
20
5.8326482345033
30
0
41
1
10
171.922485003842
20
5.93282600860692
30
0
41
1
10
172.333094863093
20
5.99548821794778
30
0
41
1
10
173.155120009187
20
6.11276896055119
30
0
41
1
10
173.56653668341
20
6.16738688478662
30
0
41
1
10
174.184151058486
20
6.24330982268319
30
0
41
1
10
174.390094255091
20
6.26762338077964
30
0
41
1
10
174.802334685787
20
6.31401362414519
30
0
41
1
10
175.008653453132
20
6.33607052139726
30
0
41
1
10
175.628153499104
20
6.39890344595764
30
0
41
1
10
176.041857738945
20
6.43636701940218
30
0
41
1
10
176.663382577301
20
6.48597870952446
30
0
41
1
10
176.870779410959
20
6.50142160730459
30
0
41
1
10
177.285453403218
20
6.53007306220584
30
0
41
1
10
177.492751240652
20
6.54328496761673
30
0
41
1
10
177.7
20
6.55537544878214
30
0
0
SPLINE
5
CE
100
AcDbEntity
8
1
62
256
6
ByLayer
370
18
48
1
60
0
100
AcDbSpline
70
4
71
3
72
58
73
54
40
0
40
0
40
0
40
0
40
0.0985901609629359
40
0.0985901609629359
40
0.12323770120367
40
0.12323770120367
40
0.147885241444404
40
0.147885241444404
40
0.197180321925872
40
0.197180321925872
40
0.221827862166604
40
0.221827862166604
40
0.246475402407337
40
0.246475402407337
40
0.271122942648069
40
0.271122942648069
40
0.295770482888802
40
0.295770482888802
40
0.34506556337027
40
0.34506556337027
40
0.369713103611005
40
0.369713103611005
40
0.394360643851741
40
0.394360643851741
40
0.443655724333211
40
0.443655724333211
40
0.492950804814682
40
0.492950804814682
40
0.517598345055418
40
0.517598345055418
40
0.542245885296153
40
0.542245885296153
40
0.591540965777624
40
0.591540965777624
40
0.640836046259095
40
0.640836046259095
40
0.665483586499831
40
0.665483586499831
40
0.690131126740568
40
0.690131126740568
40
0.788721287703515
40
0.788721287703515
40
0.838016368184987
40
0.838016368184987
40
0.88731144866646
40
0.88731144866646
40
0.936606529147932
40
0.936606529147932
40
0.961254069388669
40
0.961254069388669
40
0.985901609629407
40
0.985901609629407
40
1
40
1
40
1
40
1
41
1
10
177.7
20
1.59126650725861
30
0
41
1
10
176.854959286637
20
1.87490388819865
30
0
41
1
10
176.010896524147
20
2.15245390795454
30
0
41
1
10
174.957293835004
20
2.49249466144363
30
0
41
1
10
174.746638269283
20
2.5601296670383
30
0
41
1
10
174.325285806639
20
2.69419249463365
30
0
41
1
10
174.114596935154
20
2.76064323118681
30
0
41
1
10
173.482512185984
20
2.95831775541478
30
0
41
1
10
173.061093493468
20
3.08785364089763
30
0
41
1
10
172.428963292381
20
3.27889959216395
30
0
41
1
10
172.218254125139
20
3.34204124512547
30
0
41
1
10
171.796846164584
20
3.46725953117044
30
0
41
1
10
171.586154382259
20
3.52935326265808
30
0
41
1
10
171.164732744157
20
3.65234631098767
30
0
41
1
10
170.953984638521
20
3.71320019305008
30
0
41
1
10
170.532300275477
20
3.83334969268384
30
0
41
1
10
170.321379590309
20
3.89268397028314
30
0
41
1
10
169.688396431679
20
4.0685062206289
30
0
41
1
10
169.266105146798
20
4.18280578222706
30
0
41
1
10
168.632274230714
20
4.34997070815623
30
0
41
1
10
168.421177025485
20
4.40491701564673
30
0
41
1
10
167.999345660393
20
4.51326325218491
30
0
41
1
10
167.788620369916
20
4.56668276006073
30
0
41
1
10
167.156842517203
20
4.72426613029194
30
0
41
1
10
166.736086915615
20
4.82553076314204
30
0
41
1
10
165.895424349508
20
5.02063418624198
30
0
41
1
10
165.475520939969
20
5.11448244841949
30
0
41
1
10
164.846358325216
20
5.2498243742848
30
0
41
1
10
164.636754229924
20
5.29403438428537
30
0
41
1
10
164.217778055604
20
5.38063335756604
30
0
41
1
10
164.008406363221
20
5.42302054440168
30
0
41
1
10
163.380400934584
20
5.54702418466889
30
0
41
1
10
162.961874191836
20
5.62549382865336
30
0
41
1
10
162.125169411843
20
5.77425619707699
30
0
41
1
10
161.706985328722
20
5.84453967860534
30
0
41
1
10
161.080020131352
20
5.94388534563646
30
0
41
1
10
160.871087899375
20
5.97599134133785
30
0
41
1
10
160.453302008837
20
6.03812602787786
30
0
41
1
10
160.244438023766
20
6.06813973747518
30
0
41
1
10
159.199897462955
20
6.21250892540522
30
0
41
1
10
158.363797336444
20
6.31018499376484
30
0
41
1
10
157.109310518299
20
6.43031428442609
30
0
41
1
10
156.6911442343
20
6.46595520634625
30
0
41
1
10
155.853919680238
20
6.52775305900803
30
0
41
1
10
155.434936213495
20
6.55398746751902
30
0
41
1
10
154.596273728187
20
6.59716953518884
30
0
41
1
10
154.176597592781
20
6.61411917870853
30
0
41
1
10
153.546603709393
20
6.63249428288901
30
0
41
1
10
153.336532198725
20
6.63744248437345
30
0
41
1
10
152.916110418948
20
6.64494172980372
30
0
41
1
10
152.705742098683
20
6.64749192486619
30
0
41
1
10
152.374792160804
20
6.64962227328885
30
0
41
1
10
152.254319000028
20
6.65000698138337
30
0
41
1
10
152.133795085111
20
6.65000075292741
30
0
0
SPLINE
5
CF
100
AcDbEntity
8
1
62
256
6
ByLayer
370
18
48
1
60
0
100
AcDbSpline
70
4
71
3
72
170
73
166
40
0
40
0
40
0
40
0
40
0.0035675807798603
40
0.0035675807798603
40
0.020395798414923
40
0.020395798414923
40
0.0372240160499859
40
0.0372240160499859
40
0.0456381248675178
40
0.0456381248675178
40
0.0540522336850498
40
0.0540522336850498
40
0.0877086689551774
40
0.0877086689551774
40
0.096122777772709
40
0.096122777772709
40
0.104536886590241
40
0.104536886590241
40
0.121365104225304
40
0.121365104225304
40
0.138193321860368
40
0.138193321860368
40
0.146607430677899
40
0.146607430677899
40
0.155021539495431
40
0.155021539495431
40
0.171849757130494
40
0.171849757130494
40
0.180263865948025
40
0.180263865948025
40
0.188677974765556
40
0.188677974765556
40
0.197092083583087
40
0.197092083583087
40
0.205506192400618
40
0.205506192400618
40
0.222334410035681
40
0.222334410035681
40
0.230748518853212
40
0.230748518853212
40
0.239162627670743
40
0.239162627670743
40
0.255990845305805
40
0.255990845305805
40
0.272819062940867
40
0.272819062940867
40
0.281233171758398
40
0.281233171758398
40
0.289647280575929
40
0.289647280575929
40
0.323303715846052
40
0.323303715846052
40
0.331717824663583
40
0.331717824663583
40
0.335924879072349
40
0.335924879072349
40
0.340131933481114
40
0.340131933481114
40
0.356960151116178
40
0.356960151116178
40
0.373788368751241
40
0.373788368751241
40
0.382202477568773
40
0.382202477568773
40
0.390616586386305
40
0.390616586386305
40
0.424273021656436
40
0.424273021656436
40
0.432687130473968
40
0.432687130473968
40
0.441101239291501
40
0.441101239291501
40
0.457929456926566
40
0.457929456926566
40
0.474757674561631
40
0.474757674561631
40
0.483171783379164
40
0.483171783379164
40
0.491585892196696
40
0.491585892196696
40
0.508414109831761
40
0.508414109831761
40
0.516828218649293
40
0.516828218649293
40
0.525242327466826
40
0.525242327466826
40
0.533656436284358
40
0.533656436284358
40
0.54207054510189
40
0.54207054510189
40
0.558898762736955
40
0.558898762736955
40
0.567312871554487
40
0.567312871554487
40
0.575726980372019
40
0.575726980372019
40
0.592555198007084
40
0.592555198007084
40
0.600969306824616
40
0.600969306824616
40
0.609383415642148
40
0.609383415642148
40
0.61779752445968
40
0.61779752445968
40
0.626211633277212
40
0.626211633277212
40
0.659868068547339
40
0.659868068547339
40
0.668282177364871
40
0.668282177364871
40
0.676696286182403
40
0.676696286182403
40
0.693524503817468
40
0.693524503817468
40
0.710352721452533
40
0.710352721452533
40
0.718766830270065
40
0.718766830270065
40
0.727180939087597
40
0.727180939087597
40
0.735595047905129
40
0.735595047905129
40
0.744009156722661
40
0.744009156722661
40
0.760837374357725
40
0.760837374357725
40
0.769251483175257
40
0.769251483175257
40
0.77766559199279
40
0.77766559199279
40
0.794493809627855
40
0.794493809627855
40
0.811322027262919
40
0.811322027262919
40
0.819736136080452
40
0.819736136080452
40
0.828150244897985
40
0.828150244897985
40
0.84497846253305
40
0.84497846253305
40
0.853392571350583
40
0.853392571350583
40
0.861806680168116
40
0.861806680168116
40
0.870220788985648
40
0.870220788985648
40
0.878634897803181
40
0.878634897803181
40
0.895463115438247
40
0.895463115438247
40
0.90387722425578
40
0.90387722425578
40
0.912291333073313
40
0.912291333073313
40
0.929119550708379
40
0.929119550708379
40
0.945947768343445
40
0.945947768343445
40
0.954361877160978
40
0.954361877160978
40
0.962775985978511
40
0.962775985978511
40
0.996432421248644
40
0.996432421248644
40
1
40
1
40
1
40
1
41
1
10
106.122609232591
20
-4.87000920740749
30
0
41
1
10
106.033928693864
20
-4.89093002503597
30
0
41
1
10
105.945260603728
20
-4.91168123143035
30
0
41
1
10
105.438394412196
20
-5.02929599431974
30
0
41
1
10
105.020440014098
20
-5.12253722691835
30
0
41
1
10
104.185074911707
20
-5.30159121190758
30
0
41
1
10
103.767666491083
20
-5.38740875567154
30
0
41
1
10
103.142013853475
20
-5.51062471761091
30
0
41
1
10
102.933547177155
20
-5.55078824184412
30
0
41
1
10
102.516657423591
20
-5.62908207017892
30
0
41
1
10
102.308213904202
20
-5.667180343203
30
0
41
1
10
101.265964619394
20
-5.85241029153113
30
0
41
1
10
100.43213141474
20
-5.98395796828245
30
0
41
1
10
99.3900710905549
20
-6.12785326351803
30
0
41
1
10
99.1816691544134
20
-6.15559558680715
30
0
41
1
10
98.7647281575564
20
-6.20882162012276
30
0
41
1
10
98.5561855345816
20
-6.23430385071961
30
0
41
1
10
97.9303619802722
20
-6.30739920098975
30
0
41
1
10
97.5128828252807
20
-6.35166229469343
30
0
41
1
10
96.6774443200642
20
-6.43129461429734
30
0
41
1
10
96.259503996708
20
-6.46667778475185
30
0
41
1
10
95.6322308856968
20
-6.51297577937029
30
0
41
1
10
95.4230646431536
20
-6.52726620048574
30
0
41
1
10
95.0044369794826
20
-6.55347470955869
30
0
41
1
10
94.7949887783416
20
-6.56540284242791
30
0
41
1
10
94.1662583130655
20
-6.59767784626632
30
0
41
1
10
93.7465859462427
20
-6.6145179127455
30
0
41
1
10
93.1163339238472
20
-6.63273463558227
30
0
41
1
10
92.9061272242075
20
-6.63763207098887
30
0
41
1
10
92.485472077239
20
-6.64505603390236
30
0
41
1
10
92.2750310666258
20
-6.64758241501397
30
0
41
1
10
91.8538464013369
20
-6.65023082332928
30
0
41
1
10
91.6430828912341
20
-6.65035162093523
30
0
41
1
10
91.2211425575134
20
-6.64819059310346
30
0
41
1
10
91.0099064253238
20
-6.64590838552434
30
0
41
1
10
90.3761253205383
20
-6.63546822670858
30
0
41
1
10
89.9539239431955
20
-6.62373349824932
30
0
41
1
10
89.3211497559653
20
-6.59898052310149
30
0
41
1
10
89.1103146782841
20
-6.58953570412132
30
0
41
1
10
88.6888264683657
20
-6.56824628457039
30
0
41
1
10
88.4781811696734
20
-6.55639598821895
30
0
41
1
10
87.8463235217247
20
-6.51732871647479
30
0
41
1
10
87.4251125147129
20
-6.48665024701424
30
0
41
1
10
86.5827934182193
20
-6.4161179081438
30
0
41
1
10
86.1616821447202
20
-6.37626708154988
30
0
41
1
10
85.5301471012321
20
-6.3095443082444
30
0
41
1
10
85.3196596890192
20
-6.28614185825867
30
0
41
1
10
84.8987200401037
20
-6.23700959584846
30
0
41
1
10
84.6882633327539
20
-6.21128178554216
30
0
41
1
10
83.6356209530454
20
-6.0772807995445
30
0
41
1
10
82.7925175102118
20
-5.95289851706553
30
0
41
1
10
81.7377209590152
20
-5.77547828906646
30
0
41
1
10
81.5267230056867
20
-5.73887887124371
30
0
41
1
10
81.2101197932284
20
-5.68236375001632
30
0
41
1
10
81.1045659448497
20
-5.66325871804389
30
0
41
1
10
80.8933947995961
20
-5.62455412761526
30
0
41
1
10
80.7877624127121
20
-5.60495386058957
30
0
41
1
10
80.2598882306369
20
-5.50581192670973
30
0
41
1
10
79.8381921769172
20
-5.42278365584545
30
0
41
1
10
78.9960310925589
20
-5.24933293504418
30
0
41
1
10
78.5755673833982
20
-5.15890801344446
30
0
41
1
10
77.9458430421009
20
-5.01762527455307
30
0
41
1
10
77.736104665152
20
-4.96957174819843
30
0
41
1
10
77.3168524666033
20
-4.87179130044618
30
0
41
1
10
77.1073180122779
20
-4.82210986958967
30
0
41
1
10
76.0600485661721
20
-4.56989971391613
30
0
41
1
10
75.2235927288287
20
-4.35585941984741
30
0
41
1
10
74.1799838599372
20
-4.07241155815271
30
0
41
1
10
73.9713597203068
20
-4.01492376557562
30
0
41
1
10
73.5541506551024
20
-3.89873363323022
30
0
41
1
10
73.3455612306798
20
-3.84004369862484
30
0
41
1
10
72.7198572984404
20
-3.66215623634335
30
0
41
1
10
72.3028043843442
20
-3.54114998951073
30
0
41
1
10
71.4689107737541
20
-3.29421094339924
30
0
41
1
10
71.0520885936539
20
-3.16822888161912
30
0
41
1
10
70.4270228690694
20
-2.9755021843489
30
0
41
1
10
70.2186817139581
20
-2.91067010459841
30
0
41
1
10
69.801876870334
20
-2.78023886053364
30
0
41
1
10
69.5934260266245
20
-2.71460577551039
30
0
41
1
10
68.9679458674598
20
-2.51641449360724
30
0
41
1
10
68.5507842620734
20
-2.38257945786526
30
0
41
1
10
67.9248194360554
20
-2.17914945939157
30
0
41
1
10
67.7161287165087
20
-2.11088891285786
30
0
41
1
10
67.2986821256592
20
-1.97344045767932
30
0
41
1
10
67.089933567776
20
-1.90423056272002
30
0
41
1
10
66.6723169215443
20
-1.76503381975783
30
0
41
1
10
66.4634297131286
20
-1.69510361059977
30
0
41
1
10
66.0454061675382
20
-1.55485770423337
30
0
41
1
10
65.8362834461709
20
-1.48450168086836
30
0
41
1
10
65.2085950112723
20
-1.27270055653688
30
0
41
1
10
64.7897050655778
20
-1.13053715104155
30
0
41
1
10
64.1607643787179
20
-0.915697439390755
30
0
41
1
10
63.9510179519054
20
-0.843813201297564
30
0
41
1
10
63.5313267491826
20
-0.699488822298775
30
0
41
1
10
63.3213903152432
20
-0.627020709117176
30
0
41
1
10
62.6911314473654
20
-0.409260446717809
30
0
41
1
10
62.2702651263448
20
-0.263928053236469
30
0
41
1
10
61.6379354120126
20
-0.0456680310044248
30
0
41
1
10
61.4269882764143
20
0.0271332462808118
30
0
41
1
10
61.0047574428161
20
0.172852675603622
30
0
41
1
10
60.7934026717495
20
0.245795667036958
30
0
41
1
10
60.3710519867499
20
0.391598393126884
30
0
41
1
10
60.1599901350161
20
0.464483747943376
30
0
41
1
10
59.7380898270747
20
0.610208290353114
30
0
41
1
10
59.5272506930538
20
0.683044659520959
30
0
41
1
10
58.4731864142281
20
1.04584453131693
30
0
41
1
10
57.6303961384972
20
1.33182807247596
30
0
41
1
10
56.5778047211494
20
1.68497832685017
30
0
41
1
10
56.367337831736
20
1.75540836160533
30
0
41
1
10
55.9464594915409
20
1.89573010249256
30
0
41
1
10
55.7360336930158
20
1.96558104222925
30
0
41
1
10
55.1045930117236
20
2.17363975482846
30
0
41
1
10
54.6834819242357
20
2.31054437881795
30
0
41
1
10
53.8410142467933
20
2.58092303005861
30
0
41
1
10
53.4196573137693
20
2.71439630491324
30
0
41
1
10
52.7874895986047
20
2.91215220868423
30
0
41
1
10
52.5767535536078
20
2.9776838087495
30
0
41
1
10
52.1551463260311
20
3.10768058707416
30
0
41
1
10
51.9442513133247
20
3.17208304548871
30
0
41
1
10
51.5222348616334
20
3.29958503144167
30
0
41
1
10
51.3111224893886
20
3.3627085176397
30
0
41
1
10
50.888695871309
20
3.48771865068201
30
0
41
1
10
50.6773562115035
20
3.54961137428376
30
0
41
1
10
50.0437868136182
20
3.73323939430546
30
0
41
1
10
49.6217726659232
20
3.85301184988506
30
0
41
1
10
48.989343897995
20
4.02877854159678
30
0
41
1
10
48.7786345087696
20
4.08671926443535
30
0
41
1
10
48.3572546728288
20
4.20092735848769
30
0
41
1
10
48.1465759113092
20
4.25717761582928
30
0
41
1
10
47.5145924696381
20
4.42343357239082
30
0
41
1
10
47.0933385395945
20
4.53094309829365
30
0
41
1
10
46.2510164495507
20
4.7394442900848
30
0
41
1
10
45.8299689620083
20
4.84047737172787
30
0
41
1
10
45.198541987413
20
4.98708899768292
30
0
41
1
10
44.9880741164723
20
5.03510238190594
30
0
41
1
10
44.5669982489165
20
5.12912101333077
30
0
41
1
10
44.3564047494073
20
5.17515559651858
30
0
41
1
10
43.7244756628287
20
5.31038240189085
30
0
41
1
10
43.3029864306032
20
5.39669210717832
30
0
41
1
10
42.6704911232541
20
5.52046093824074
30
0
41
1
10
42.4596172780648
20
5.56076947132306
30
0
41
1
10
42.0377909982669
20
5.63948714003288
30
0
41
1
10
41.826847304939
20
5.67790917866023
30
0
41
1
10
41.4048103474732
20
5.75272683038685
30
0
41
1
10
41.1936926473814
20
5.78908761070582
30
0
41
1
10
40.7711974836981
20
5.85961474854128
30
0
41
1
10
40.5601110575747
20
5.89375312151947
30
0
41
1
10
39.9273396065397
20
5.99284102634201
30
0
41
1
10
39.5061379285489
20
6.05446269998396
30
0
41
1
10
38.875342210985
20
6.14035555956741
30
0
41
1
10
38.6652463109467
20
6.16789694130082
30
0
41
1
10
38.2453954022202
20
6.22079665978555
30
0
41
1
10
38.0356469067002
20
6.24616018542912
30
0
41
1
10
37.4067308402757
20
6.31876718017537
30
0
41
1
10
36.9878285381374
20
6.36247391294179
30
0
41
1
10
36.1508098229299
20
6.44070766378775
30
0
41
1
10
35.7326896081448
20
6.47523191852972
30
0
41
1
10
35.1061461732512
20
6.52018191061487
30
0
41
1
10
34.8974065474623
20
6.5340253767211
30
0
41
1
10
34.4801335278234
20
6.5594147294857
30
0
41
1
10
34.2715968515862
20
6.57095629088124
30
0
41
1
10
33.2290145414911
20
6.62272438390409
30
0
41
1
10
32.3953879793144
20
6.64533457357982
30
0
41
1
10
31.4741466303048
20
6.6497790085096
30
0
41
1
10
31.3858628898448
20
6.64999478724067
30
0
41
1
10
31.297586134075
20
6.64999982757024
30
0
0
SPLINE
5
D0
100
AcDbEntity
8
1
62
256
6
ByLayer
370
18
48
1
60
0
100
AcDbSpline
70
4
71
3
72
119
73
115
40
0
40
0
40
0
40
0
40
0.0624999999999924
40
0.0624999999999924
40
0.093749999999989
40
0.093749999999989
40
0.124999999999986
40
0.124999999999986
40
0.156249999999982
40
0.156249999999982
40
0.187499999999979
40
0.187499999999979
40
0.203124999999977
40
0.203124999999977
40
0.218749999999976
40
0.218749999999976
40
0.249999999999973
40
0.249999999999973
40
0.28124999999997
40
0.28124999999997
40
0.28906249999997
40
0.28906249999997
40
0.296874999999969
40
0.296874999999969
40
0.312499999999969
40
0.312499999999969
40
0.343749999999968
40
0.343749999999968
40
0.359374999999968
40
0.359374999999968
40
0.374999999999968
40
0.374999999999968
40
0.382812499999968
40
0.382812499999968
40
0.386718749999969
40
0.386718749999969
40
0.390624999999969
40
0.390624999999969
40
0.406249999999969
40
0.406249999999969
40
0.421874999999969
40
0.421874999999969
40
0.429687499999969
40
0.429687499999969
40
0.433593749999969
40
0.433593749999969
40
0.437499999999969
40
0.437499999999969
40
0.453124999999969
40
0.453124999999969
40
0.468749999999968
40
0.468749999999968
40
0.472656249999968
40
0.472656249999968
40
0.476562499999968
40
0.476562499999968
40
0.484374999999968
40
0.484374999999968
40
0.499999999999968
40
0.499999999999968
40
0.507812499999967
40
0.507812499999967
40
0.511718749999967
40
0.511718749999967
40
0.515624999999967
40
0.515624999999967
40
0.531249999999966
40
0.531249999999966
40
0.539062499999965
40
0.539062499999965
40
0.542968749999965
40
0.542968749999965
40
0.546874999999965
40
0.546874999999965
40
0.562499999999964
40
0.562499999999964
40
0.578124999999964
40
0.578124999999964
40
0.585937499999963
40
0.589843749999963
40
0.589843749999963
40
0.593749999999963
40
0.593749999999963
40
0.609374999999964
40
0.609374999999964
40
0.624999999999964
40
0.624999999999964
40
0.656249999999964
40
0.656249999999964
40
0.671874999999965
40
0.671874999999965
40
0.679687499999965
40
0.679687499999965
40
0.687499999999966
40
0.687499999999966
40
0.718749999999969
40
0.718749999999969
40
0.749999999999972
40
0.749999999999972
40
0.781249999999976
40
0.781249999999976
40
0.812499999999979
40
0.812499999999979
40
0.843749999999983
40
0.843749999999983
40
0.874999999999986
40
0.874999999999986
40
0.90624999999999
40
0.90624999999999
40
0.937499999999993
40
0.937499999999993
40
0.968749999999996
40
0.968749999999996
40
1
40
1
40
1
40
1
41
1
10
15.0000000000001
20
4.25331527670716
30
0
41
1
10
14.5270028344011
20
4.34224897159837
30
0
41
1
10
14.0568706430398
20
4.41497296997042
30
0
41
1
10
13.3562354212699
20
4.49693490690601
30
0
41
1
10
13.1234473763257
20
4.51971797827096
30
0
41
1
10
12.6593913189581
20
4.55549134127679
30
0
41
1
10
12.4281232329041
20
4.56848380258123
30
0
41
1
10
11.9670906107148
20
4.58373450678613
30
0
41
1
10
11.7373260341249
20
4.58599624859699
30
0
41
1
10
11.2792634578129
20
4.5785349247019
30
0
41
1
10
11.0509654771782
20
4.56881774180846
30
0
41
1
10
10.7095756683575
20
4.54398173294854
30
0
41
1
10
10.595932565738
20
4.53398666607816
30
0
41
1
10
10.3690809059606
20
4.5103047355172
30
0
41
1
10
10.2563724895935
20
4.49667025936873
30
0
41
1
10
9.92043518939653
20
4.45008094639178
30
0
41
1
10
9.6993889932736
20
4.41146531423092
30
0
41
1
10
9.26341466834626
20
4.31699270648642
30
0
41
1
10
9.04848270088584
20
4.26115337453825
30
0
41
1
10
8.78395490453534
20
4.17863366511574
30
0
41
1
10
8.7312569094899
20
4.16149037640838
30
0
41
1
10
8.62628722696434
20
4.1258608013737
30
0
41
1
10
8.57396700508565
20
4.10735649140886
30
0
41
1
10
8.41800822552193
20
4.0498481981416
30
0
41
1
10
8.31566374139931
20
4.00896580769066
30
0
41
1
10
8.01372511702334
20
3.87812203661983
30
0
41
1
10
7.819188919249
20
3.78003670454555
30
0
41
1
10
7.53888154367132
20
3.61334273150405
30
0
41
1
10
7.44736974643453
20
3.55450167885246
30
0
41
1
10
7.26855951350078
20
3.42944667399951
30
0
41
1
10
7.1812589245373
20
3.36323700985744
30
0
41
1
10
7.05385257061258
20
3.25755867861116
30
0
41
1
10
7.01197590129368
20
3.22126922923226
30
0
41
1
10
6.95011311046895
20
3.16510406053868
30
0
41
1
10
6.92965100869984
20
3.14609358777542
30
0
41
1
10
6.88905685236298
20
3.10746907018987
30
0
41
1
10
6.86890176177667
20
3.08783186388683
30
0
41
1
10
6.7692709679703
20
2.98835158759181
30
0
41
1
10
6.69356649845039
20
2.90500543212826
30
0
41
1
10
6.55093407423203
20
2.72991796231432
30
0
41
1
10
6.48400019440649
20
2.6381825620513
30
0
41
1
10
6.391051663333
20
2.49334701956104
30
0
41
1
10
6.3613144305628
20
2.44385958951301
30
0
41
1
10
6.31872851087957
20
2.36765583103249
30
0
41
1
10
6.30485531453382
20
2.34189358423194
30
0
41
1
10
6.27799735282156
20
2.29004842944843
30
0
41
1
10
6.26499036556194
20
2.26392799642136
30
0
41
1
10
6.20209321889635
20
2.13232088892659
30
0
41
1
10
6.15859494105285
20
2.02382899403349
30
0
41
1
10
6.08627207295191
20
1.79988816142963
30
0
41
1
10
6.05743868386441
20
1.68444333789364
30
0
41
1
10
6.03163058715336
20
1.53526125885875
30
0
41
1
10
6.02698272801882
20
1.50518009639447
30
0
41
1
10
6.01875054842898
20
1.44451077406342
30
0
41
1
10
6.01517126179732
20
1.41392927574313
30
0
41
1
10
6.00616372196345
20
1.32241727066102
30
0
41
1
10
6.00241580057082
20
1.26138771974413
30
0
41
1
10
5.99782471310328
20
1.0782352900525
30
0
41
1
10
6.00361702931787
20
0.956048544851996
30
0
41
1
10
6.02544353149096
20
0.772645918760702
30
0
41
1
10
6.03491311331953
20
0.711491314821387
30
0
41
1
10
6.05242920526115
20
0.619729665863076
30
0
41
1
10
6.05883678811668
20
0.589068194053027
30
0
41
1
10
6.07266073968501
20
0.528168951335005
30
0
41
1
10
6.08007562327018
20
0.497922199601476
30
0
41
1
10
6.1195833808672
20
0.347669588426612
30
0
41
1
10
6.15894965050126
20
0.230596479509217
30
0
41
1
10
6.22843689568163
20
0.0591860740885863
30
0
41
1
10
6.25334427945788
20
0.0027512885299359
30
0
41
1
10
6.29321197934945
20
-0.0808937881398322
30
0
41
1
10
6.30693606936998
20
-0.108640203611031
30
0
41
1
10
6.33512679899312
20
-0.163653515972669
30
0
41
1
10
6.34956020622485
20
-0.190858319908244
30
0
41
1
10
6.42333997637195
20
-0.325444339360331
30
0
41
1
10
6.48750118697595
20
-0.428532875608653
30
0
41
1
10
6.62453901398504
20
-0.626987041386542
30
0
41
1
10
6.69742348116836
20
-0.72234558533458
30
0
41
1
10
6.81246452838317
20
-0.860351322876767
30
0
41
1
10
6.87141775994454
20
-0.928092379681374
30
0
41
1
10
6.93239419599402
20
-0.994057025163329
30
0
41
1
10
6.97348239668676
20
-1.03765010569742
30
0
41
1
10
6.99425536447205
20
-1.05926475239698
30
0
41
1
10
7.09875585861388
20
-1.16597977163465
30
0
41
1
10
7.18470075112734
20
-1.24736785371707
30
0
41
1
10
7.36055447605031
20
-1.40346801542353
30
0
41
1
10
7.45046601480186
20
-1.47817524309585
30
0
41
1
10
7.72532605120577
20
-1.6937284038404
30
0
41
1
10
7.91536864748787
20
-1.82606639959354
30
0
41
1
10
8.20821096887366
20
-2.01169319736772
30
0
41
1
10
8.30713099232057
20
-2.07140392851576
30
0
41
1
10
8.45723091442073
20
-2.15811855281166
30
0
41
1
10
8.50759182766379
20
-2.1865692982924
30
0
41
1
10
8.60851457925227
20
-2.24239429628526
30
0
41
1
10
8.65910534135259
20
-2.26978631023852
30
0
41
1
10
8.91265339453815
20
-2.40434148551674
30
0
41
1
10
9.11738241715389
20
-2.50434761987535
30
0
41
1
10
9.52947366514996
20
-2.69309428558535
30
0
41
1
10
9.73683885778573
20
-2.78181799494834
30
0
41
1
10
10.153279905712
20
-2.95083578283405
30
0
41
1
10
10.3623562106657
20
-3.03112307159259
30
0
41
1
10
10.7814632554578
20
-3.18532230038795
30
0
41
1
10
10.9914930608088
20
-3.25923206219045
30
0
41
1
10
11.4119282480988
20
-3.40206556418641
30
0
41
1
10
11.6223319939204
20
-3.47098891821801
30
0
41
1
10
12.0431546976239
20
-3.60460252163705
30
0
41
1
10
12.2535719463903
20
-3.66929227554016
30
0
41
1
10
12.6743324544567
20
-3.79456149571709
30
0
41
1
10
12.8846745562667
20
-3.85513904475482
30
0
41
1
10
13.3055121171467
20
-3.97170824332545
30
0
41
1
10
13.5160074485435
20
-4.02769599765659
30
0
41
1
10
13.9377162508663
20
-4.13409744169644
30
0
41
1
10
14.1489307581181
20
-4.18450562509278
30
0
41
1
10
14.5729666082324
20
-4.278390539237
30
0
41
1
10
14.7857898549466
20
-4.32186128028849
30
0
41
1
10
15
20
-4.36109165931643
30
0
0
SPLINE
5
D1
100
AcDbEntity
8
1
62
256
6
ByLayer
370
18
48
1
60
0
100
AcDbSpline
70
4
71
3
72
10
73
6
40
0
40
0
40
0
40
0
40
0.5
40
0.5
40
1
40
1
40
1
40
1
41
1
10
16.4663245922811
20
-4.76925137825853
30
0
41
1
10
16.2198174021125
20
-4.70780378615441
30
0
41
1
10
15.9745703890434
20
-4.64284998984584
30
0
41
1
10
15.4859741507825
20
-4.50660431213623
30
0
41
1
10
15.2426226897737
20
-4.43531856505604
30
0
41
1
10
15
20
-4.36109165931643
30
0
0
SPLINE
5
D2
100
AcDbEntity
8
1
62
256
6
ByLayer
370
18
48
1
60
0
100
AcDbSpline
70
4
71
4
72
16
73
11
40
0
40
0
40
0
40
0
40
0
40
0.286598726703823
40
0.286598726703823
40
0.286598726703823
40
0.713401273296176
40
0.713401273296176
40
0.713401273296176
40
1
40
1
40
1
40
1
40
1
41
0.996506464969356
10
19.475456787031
20
3.42963918454332
30
0
41
0.994682564109616
10
19.3802328612814
20
3.27129447771778
30
0
41
0.994604295419906
10
19.219392333715
20
2.92738216045199
30
0
41
1
10
19.0009849057842
20
2.40587862438295
30
0
41
1
10
18.4233732025689
20
0.957452886469781
30
0
41
0.988033871712585
10
17.9708906896561
20
-0.235637580140013
30
0
41
1
10
17.5184081767432
20
-1.50827767294317
30
0
41
1
10
16.940796473528
20
-3.20745385874599
30
0
41
0.994604295419906
10
16.7223890455971
20
-3.87612641585897
30
0
41
0.994682564109616
10
16.5615485180307
20
-4.40868864223816
30
0
41
0.996506464969356
10
16.4663245922811
20
-4.76925137825855
30
0
0
SPLINE
5
D3
100
AcDbEntity
8
1
62
256
6
ByLayer
370
18
48
1
60
0
100
AcDbSpline
70
4
71
3
72
14
73
10
40
0
40
0
40
0
40
0
40
0.25
40
0.25
40
0.5
40
0.5
40
0.75
40
0.75
40
1
40
1
40
1
40
1
41
1
10
15.0000000000001
20
4.25331527670716
30
0
41
1
10
15.3867776443709
20
4.23558909312524
30
0
41
1
10
15.7692406745789
20
4.20309480106854
30
0
41
1
10
16.5268024871905
20
4.1117701729475
30
0
41
1
10
16.901894283199
20
4.0528991915655
30
0
41
1
10
17.6459915022253
20
3.911544116014
30
0
41
1
10
18.0149968421855
20
3.82904418054145
30
0
41
1
10
18.7483478688306
20
3.64366726380294
30
0
41
1
10
19.112701064349
20
3.5408072677061
30
0
41
1
10
19.4754567870311
20
3.42963918454336
30
0
0
SPLINE
5
D4
100
AcDbEntity
8
1
62
256
6
ByLayer
370
13
48
1
60
0
100
AcDbSpline
70
4
71
3
72
42
73
38
40
0
40
0
40
0
40
0
40
0.0625000000000001
40
0.0625000000000001
40
0.125
40
0.125
40
0.1875
40
0.1875
40
0.25
40
0.25
40
0.3125
40
0.3125
40
0.375
40
0.375
40
0.4375
40
0.4375
40
0.46875
40
0.46875
40
0.484375
40
0.484375
40
0.5
40
0.5
40
0.5625
40
0.5625
40
0.625
40
0.625
40
0.6875
40
0.6875
40
0.75
40
0.75
40
0.8125
40
0.8125
40
0.875
40
0.875
40
0.9375
40
0.9375
40
1
40
1
40
1
40
1
41
1
10
177.7
20
-6.97395603955869
30
0
41
1
10
177.778330385542
20
-6.93829620744398
30
0
41
1
10
177.856660771084
20
-6.86467059785582
30
0
41
1
10
178.013321542167
20
-6.63172461096096
30
0
41
1
10
178.091651927709
20
-6.47229916885593
30
0
41
1
10
178.248312698793
20
-6.0661141251357
30
0
41
1
10
178.326643084335
20
-5.81932327167237
30
0
41
1
10
178.483303855418
20
-5.24739063613683
30
0
41
1
10
178.56163424096
20
-4.92232244609451
30
0
41
1
10
178.718295012044
20
-4.21288304308487
30
0
41
1
10
178.796625397586
20
-3.82866936105606
30
0
41
1
10
178.953286168669
20
-3.02644929538226
30
0
41
1
10
179.031616554211
20
-2.60861985943333
30
0
41
1
10
179.188277325295
20
-1.76585135354029
30
0
41
1
10
179.266607710837
20
-1.34104274000546
30
0
41
1
10
179.384103289149
20
-0.715756809581364
30
0
41
1
10
179.42326848192
20
-0.509274957697897
30
0
41
1
10
179.482016271077
20
-0.204172600899284
30
0
41
1
10
179.501598867462
20
-0.103238557404495
30
0
41
1
10
179.540764060233
20
0.0968534922215269
30
0
41
1
10
179.560346656618
20
0.197714990332401
30
0
41
1
10
179.658259638546
20
0.706055742893597
30
0
41
1
10
179.736590024088
20
1.12529734277419
30
0
41
1
10
179.893250795171
20
1.96917845548913
30
0
41
1
10
179.971581180713
20
2.39372524795183
30
0
41
1
10
180.128241951797
20
3.22302116565177
30
0
41
1
10
180.206572337339
20
3.62761031939786
30
0
41
1
10
180.363233108422
20
4.39023894191402
30
0
41
1
10
180.441563493964
20
4.74810176514342
30
0
41
1
10
180.598224265048
20
5.39425145560273
30
0
41
1
10
180.67655465059
20
5.68241623379186
30
0
41
1
10
180.833215421673
20
6.17462323123831
30
0
41
1
10
180.911545807215
20
6.37864469032226
30
0
41
1
10
181.068206578299
20
6.69877634247976
30
0
41
1
10
181.146536963841
20
6.81496054203944
30
0
41
1
10
181.303197734924
20
6.96551161597992
30
0
41
1
10
181.381528120466
20
7
30
0
41
1
10
181.459858506008
20
7
30
0
0
SPLINE
5
D5
100
AcDbEntity
8
1
62
256
6
ByLayer
370
13
48
1
60
0
100
AcDbSpline
70
4
71
3
72
22
73
18
40
0
40
0
40
0
40
0
40
0.125
40
0.125
40
0.25
40
0.25
40
0.375
40
0.375
40
0.5
40
0.5
40
0.625
40
0.625
40
0.75
40
0.75
40
0.875
40
0.875
40
1
40
1
40
1
40
1
41
1
10
184.187569530437
20
7
30
0
41
1
10
184.240262815007
20
7
30
0
41
1
10
184.292956099578
20
6.98444268776146
30
0
41
1
10
184.39834266872
20
6.91813930520402
30
0
41
1
10
184.451035953291
20
6.86737583119267
30
0
41
1
10
184.556422522433
20
6.72766703278347
30
0
41
1
10
184.609115807003
20
6.63870614183583
30
0
41
1
10
184.714502376145
20
6.4212300637875
30
0
41
1
10
184.767195660716
20
6.29270468658834
30
0
41
1
10
184.872582229858
20
5.99674809341718
30
0
41
1
10
184.925275514428
20
5.82931516859537
30
0
41
1
10
185.03066208357
20
5.4584023814424
30
0
41
1
10
185.083355368141
20
5.25493080687238
30
0
41
1
10
185.188741937283
20
4.81691520314195
30
0
41
1
10
185.241435221853
20
4.58238860260576
30
0
41
1
10
185.346821790995
20
4.08896147413887
30
0
41
1
10
185.399515075566
20
3.83008434547864
30
0
41
1
10
185.452208360137
20
3.56291821018343
30
0
0
SPLINE
5
D6
100
AcDbEntity
8
1
62
256
6
ByLayer
370
13
48
1
60
0
100
AcDbSpline
70
4
71
3
72
40
73
36
40
0
40
0
40
0
40
0
40
0.0625
40
0.0625
40
0.125
40
0.125
40
0.1875
40
0.1875
40
0.25
40
0.25
40
0.3125
40
0.3125
40
0.375
40
0.375
40
0.40625
40
0.40625
40
0.4375
40
0.4375
40
0.5
40
0.5
40
0.5625
40
0.5625
40
0.625
40
0.625
40
0.6875
40
0.6875
40
0.75
40
0.75
40
0.8125
40
0.8125
40
0.875
40
0.875
40
0.9375
40
0.9375
40
1
40
1
40
1
40
1
41
1
10
177.7
20
-6.19187632404635
30
0
41
1
10
177.767933640121
20
-6.00648970760929
30
0
41
1
10
177.835867280241
20
-5.78852012752628
30
0
41
1
10
177.971734560483
20
-5.29371799778465
30
0
41
1
10
178.039668200603
20
-5.01692121656029
30
0
41
1
10
178.175535480845
20
-4.41645494189746
30
0
41
1
10
178.243469120965
20
-4.09285888691326
30
0
41
1
10
178.379336401206
20
-3.41480503757288
30
0
41
1
10
178.447270041327
20
-3.06043550879369
30
0
41
1
10
178.583137321568
20
-2.33834246465193
30
0
41
1
10
178.651070961689
20
-1.97069554857023
30
0
41
1
10
178.78693824193
20
-1.23848014999931
30
0
41
1
10
178.854871882051
20
-0.873958949603036
30
0
41
1
10
178.956772342232
20
-0.339568178455835
30
0
41
1
10
178.990739162292
20
-0.16367344490186
30
0
41
1
10
179.058672802413
20
0.183532345478767
30
0
41
1
10
179.092639622473
20
0.359806154349627
30
0
41
1
10
179.194540082654
20
0.894657710987701
30
0
41
1
10
179.262473722775
20
1.2593755526043
30
0
41
1
10
179.398341003016
20
1.9916954912517
30
0
41
1
10
179.466274643136
20
2.35924966958544
30
0
41
1
10
179.602141923378
20
3.08082677557832
30
0
41
1
10
179.670075563498
20
3.43477267394678
30
0
41
1
10
179.80594284374
20
4.11165124186633
30
0
41
1
10
179.87387648386
20
4.43449567003054
30
0
41
1
10
180.009743764102
20
5.03318421140807
30
0
41
1
10
180.077677404222
20
5.30895542500812
30
0
41
1
10
180.213544684463
20
5.80152811241706
30
0
41
1
10
180.281478324584
20
6.01829466972939
30
0
41
1
10
180.417345604825
20
6.38660048604459
30
0
41
1
10
180.485279244946
20
6.53815009053557
30
0
41
1
10
180.621146525187
20
6.77585532566809
30
0
41
1
10
180.689080165308
20
6.86205645932333
30
0
41
1
10
180.824947445549
20
6.97409831839266
30
0
41
1
10
180.89288108567
20
7
30
0
41
1
10
180.96081472579
20
7
30
0
0
SPLINE
5
D7
100
AcDbEntity
8
1
62
256
6
ByLayer
370
13
48
1
60
0
100
AcDbSpline
70
4
71
3
72
22
73
18
40
0
40
0
40
0
40
0
40
0.125
40
0.125
40
0.25
40
0.25
40
0.375
40
0.375
40
0.5
40
0.5
40
0.625
40
0.625
40
0.75
40
0.75
40
0.875
40
0.875
40
1
40
1
40
1
40
1
41
1
10
183.688525750219
20
7
30
0
41
1
10
183.762012525633
20
7
30
0
41
1
10
183.835499301046
20
6.96966740279632
30
0
41
1
10
183.982472851872
20
6.83780458294677
30
0
41
1
10
184.055959627285
20
6.73618503114668
30
0
41
1
10
184.202933178112
20
6.45601904583259
30
0
41
1
10
184.276419953525
20
6.27741214480952
30
0
41
1
10
184.423393504352
20
5.84489880643136
30
0
41
1
10
184.496880279765
20
5.59099306259037
30
0
41
1
10
184.643853830591
20
5.01787590848431
30
0
41
1
10
184.717340606004
20
4.69873696962065
30
0
41
1
10
184.864314156831
20
4.01242653468631
30
0
41
1
10
184.937800932244
20
3.6453768366267
30
0
41
1
10
185.08477448307
20
2.88476573796856
30
0
41
1
10
185.158261258484
20
2.49133107468481
30
0
41
1
10
185.30523480931
20
1.69981030729468
30
0
41
1
10
185.378721584723
20
1.30181543421725
30
0
41
1
10
185.452208360137
20
0.910889802071836
30
0
0
SPLINE
5
D8
100
AcDbEntity
8
1
62
256
6
ByLayer
370
13
48
1
60
0
100
AcDbSpline
70
4
71
3
72
42
73
38
40
0
40
0
40
0
40
0
40
0.0625000000000008
40
0.0625000000000008
40
0.125000000000002
40
0.125000000000002
40
0.187500000000002
40
0.187500000000002
40
0.250000000000003
40
0.250000000000003
40
0.281250000000004
40
0.281250000000004
40
0.296875000000004
40
0.296875000000004
40
0.312500000000004
40
0.312500000000004
40
0.375000000000004
40
0.375000000000004
40
0.437500000000003
40
0.437500000000003
40
0.500000000000003
40
0.500000000000003
40
0.562500000000002
40
0.562500000000002
40
0.625000000000002
40
0.625000000000002
40
0.687500000000002
40
0.687500000000002
40
0.750000000000001
40
0.750000000000001
40
0.812500000000001
40
0.812500000000001
40
0.875000000000001
40
0.875000000000001
40
0.9375
40
0.9375
40
1
40
1
40
1
40
1
41
1
10
177.7
20
-4.29918784923183
30
0
41
1
10
177.7575368947
20
-4.02850306836311
30
0
41
1
10
177.815073789399
20
-3.74352706743892
30
0
41
1
10
177.930147578798
20
-3.1551619718351
30
0
41
1
10
177.987684473497
20
-2.8518111100704
30
0
41
1
10
178.102758262896
20
-2.23729567486055
30
0
41
1
10
178.160295157595
20
-1.9261630901855
30
0
41
1
10
178.275368946994
20
-1.30595824513506
30
0
41
1
10
178.332905841694
20
-0.996906762948527
30
0
41
1
10
178.419211183743
20
-0.541130839608542
30
0
41
1
10
178.447979631093
20
-0.390491882973777
30
0
41
1
10
178.491132302117
20
-0.167106427649117
30
0
41
1
10
178.505516525792
20
-0.0930724536169691
30
0
41
1
10
178.534284973142
20
0.0540445338855591
30
0
41
1
10
178.548669196817
20
0.127769859975757
30
0
41
1
10
178.620590315191
20
0.499314704236411
30
0
41
1
10
178.678127209891
20
0.803613467910253
30
0
41
1
10
178.793200999289
20
1.41906593668074
30
0
41
1
10
178.850737893989
20
1.73020566440306
30
0
41
1
10
178.965811683388
20
2.35024732925103
30
0
41
1
10
179.023348578087
20
2.65912301046518
30
0
41
1
10
179.138422367486
20
3.2643305860351
30
0
41
1
10
179.195959262186
20
3.56062680883696
30
0
41
1
10
179.311033051584
20
4.13010019491526
30
0
41
1
10
179.368569946284
20
4.40323881439704
30
0
41
1
10
179.483643735683
20
4.91669421849952
30
0
41
1
10
179.541180630382
20
5.15697810710236
30
0
41
1
10
179.656254419781
20
5.59699902776677
30
0
41
1
10
179.71379131448
20
5.79671630138364
30
0
41
1
10
179.828865103879
20
6.15067305019409
30
0
41
1
10
179.886401998579
20
6.30490955558193
30
0
41
1
10
180.001475787978
20
6.56611840647807
30
0
41
1
10
180.059012682677
20
6.67310330596968
30
0
41
1
10
180.174086472076
20
6.84101401779697
30
0
41
1
10
180.231623366775
20
6.90196282334966
30
0
41
1
10
180.346697156174
20
6.98144235305088
30
0
41
1
10
180.404234050873
20
7
30
0
41
1
10
180.461770945573
20
7
30
0
0
SPLINE
5
D9
100
AcDbEntity
8
1
62
256
6
ByLayer
370
13
48
1
60
0
100
AcDbSpline
70
4
71
3
72
42
73
38
40
0
40
0
40
0
40
0
40
0.0625000000000002
40
0.0625000000000002
40
0.125
40
0.125
40
0.1875
40
0.1875
40
0.250000000000001
40
0.250000000000001
40
0.312500000000001
40
0.312500000000001
40
0.375000000000001
40
0.375000000000001
40
0.437500000000001
40
0.437500000000001
40
0.500000000000001
40
0.500000000000001
40
0.562500000000001
40
0.562500000000001
40
0.625000000000001
40
0.625000000000001
40
0.687500000000001
40
0.687500000000001
40
0.750000000000001
40
0.750000000000001
40
0.812500000000001
40
0.812500000000001
40
0.84375
40
0.84375
40
0.859375
40
0.859375
40
0.875
40
0.875
40
0.9375
40
0.9375
40
1
40
1
40
1
40
1
41
1
10
183.189481970002
20
7
30
0
41
1
10
183.23662210313
20
7
30
0
41
1
10
183.283762236258
20
6.98755488999669
30
0
41
1
10
183.378042502513
20
6.93482382280453
30
0
41
1
10
183.425182635641
20
6.89452787470861
30
0
41
1
10
183.519462901897
20
6.7838040917286
30
0
41
1
10
183.566603035024
20
6.71336693037952
30
0
41
1
10
183.66088330128
20
6.54104326759091
30
0
41
1
10
183.708023434408
20
6.43914971627044
30
0
41
1
10
183.802303700663
20
6.20382148172709
30
0
41
1
10
183.849443833791
20
6.07038358475313
30
0
41
1
10
183.943724100047
20
5.77326030126463
30
0
41
1
10
183.990864233175
20
5.60957661185711
30
0
41
1
10
184.08514449943
20
5.25466706711404
30
0
41
1
10
184.132284632558
20
5.06344803045312
30
0
41
1
10
184.226564898814
20
4.65745690279172
30
0
41
1
10
184.273705031941
20
4.44269593740464
30
0
41
1
10
184.367985298197
20
3.99462053255147
30
0
41
1
10
184.415125431325
20
3.76131983785388
30
0
41
1
10
184.50940569758
20
3.28179471789971
30
0
41
1
10
184.556545830708
20
3.03558452386309
30
0
41
1
10
184.650826096964
20
2.5360721944503
30
0
41
1
10
184.697966230092
20
2.28278274247538
30
0
41
1
10
184.792246496347
20
1.77473442651098
30
0
41
1
10
184.839386629475
20
1.51998521900049
30
0
41
1
10
184.933666895731
20
1.01409047427046
30
0
41
1
10
184.980807028859
20
0.762950871167504
30
0
41
1
10
185.05151722855
20
0.392160087812044
30
0
41
1
10
185.075087295114
20
0.269542930463814
30
0
41
1
10
185.11044239496
20
0.0874250260538076
30
0
41
1
10
185.122227428242
20
0.0271908594610011
30
0
41
1
10
185.145797494806
20
-0.0934381967168179
30
0
41
1
10
185.157582528088
20
-0.154069927138977
30
0
41
1
10
185.216507694497
20
-0.45868391834955
30
0
41
1
10
185.263647827625
20
-0.707067509984597
30
0
41
1
10
185.357928093881
20
-1.20930253539171
30
0
41
1
10
185.405068227009
20
-1.46314957453077
30
0
41
1
10
185.452208360137
20
-1.71734711376388
30
0
0
SPLINE
5
DA
100
AcDbEntity
8
1
62
256
6
ByLayer
370
13
48
1
60
0
100
AcDbSpline
70
4
71
3
72
42
73
38
40
0
40
0
40
0
40
0
40
0.0625000000000045
40
0.0625000000000045
40
0.125000000000009
40
0.125000000000009
40
0.14062500000001
40
0.14062500000001
40
0.156250000000011
40
0.156250000000011
40
0.187500000000011
40
0.187500000000011
40
0.25000000000001
40
0.25000000000001
40
0.312500000000009
40
0.312500000000009
40
0.375000000000008
40
0.375000000000008
40
0.437500000000008
40
0.437500000000008
40
0.500000000000007
40
0.500000000000007
40
0.562500000000006
40
0.562500000000006
40
0.625000000000005
40
0.625000000000005
40
0.687500000000005
40
0.687500000000005
40
0.750000000000004
40
0.750000000000004
40
0.812500000000003
40
0.812500000000003
40
0.875000000000002
40
0.875000000000002
40
0.937500000000001
40
0.937500000000001
40
1
40
1
40
1
40
1
41
1
10
177.7
20
-1.71735129404965
30
0
41
1
10
177.747140149278
20
-1.46315366422587
30
0
41
1
10
177.794280298556
20
-1.20930652067682
30
0
41
1
10
177.888560597113
20
-0.707071267764832
30
0
41
1
10
177.935700746391
20
-0.458687553061509
30
0
41
1
10
177.994625932989
20
-0.154073401673884
30
0
41
1
10
178.006410970309
20
-0.0934416388970476
30
0
41
1
10
178.029981044948
20
0.0271874825059513
30
0
41
1
10
178.041766082267
20
0.0874216470815838
30
0
41
1
10
178.077121194226
20
0.269539580506603
30
0
41
1
10
178.100691268865
20
0.392156759978036
30
0
41
1
10
178.171401492783
20
0.76294761813071
30
0
41
1
10
178.218541642061
20
1.01408728238943
30
0
41
1
10
178.312821940617
20
1.51998217129165
30
0
41
1
10
178.359962089895
20
1.77473146182402
30
0
41
1
10
178.454242388452
20
2.28277996318985
30
0
41
1
10
178.50138253773
20
2.53606951754099
30
0
41
1
10
178.595662836287
20
3.03558206671315
30
0
41
1
10
178.642802985565
20
3.28179237811943
30
0
41
1
10
178.737083284121
20
3.76131774186894
30
0
41
1
10
178.7842234334
20
3.99461856296969
30
0
41
1
10
178.878503731956
20
4.44269422267965
30
0
41
1
10
178.925643881234
20
4.65745531649259
30
0
41
1
10
179.019924179791
20
5.06344669576754
30
0
41
1
10
179.067064329069
20
5.2546658555886
30
0
41
1
10
179.161344627626
20
5.60957563469563
30
0
41
1
10
179.208484776904
20
5.77325943528527
30
0
41
1
10
179.30276507546
20
6.07038292379443
30
0
41
1
10
179.349905224739
20
6.20382091459513
30
0
41
1
10
179.444185523295
20
6.43914931590734
30
0
41
1
10
179.491325672573
20
6.54104294016932
30
0
41
1
10
179.58560597113
20
6.71336672645086
30
0
41
1
10
179.632746120408
20
6.78380393836025
30
0
41
1
10
179.727026418964
20
6.89452780046997
30
0
41
1
10
179.774166568243
20
6.93482377715026
30
0
41
1
10
179.868446866799
20
6.98755488145321
30
0
41
1
10
179.915587016078
20
7
30
0
41
1
10
179.962727165356
20
7
30
0
0
SPLINE
5
DB
100
AcDbEntity
8
1
62
256
6
ByLayer
370
13
48
1
60
0
100
AcDbSpline
70
4
71
3
72
42
73
38
40
0
40
0
40
0
40
0
40
0.0624999999999994
40
0.0624999999999994
40
0.124999999999999
40
0.124999999999999
40
0.187499999999998
40
0.187499999999998
40
0.249999999999998
40
0.249999999999998
40
0.312499999999997
40
0.312499999999997
40
0.374999999999997
40
0.374999999999997
40
0.437499999999996
40
0.437499999999996
40
0.499999999999995
40
0.499999999999995
40
0.562499999999995
40
0.562499999999995
40
0.624999999999994
40
0.624999999999994
40
0.687499999999993
40
0.687499999999993
40
0.703124999999993
40
0.703124999999993
40
0.718749999999994
40
0.718749999999994
40
0.749999999999994
40
0.749999999999994
40
0.812499999999995
40
0.812499999999995
40
0.874999999999997
40
0.874999999999997
40
0.937499999999998
40
0.937499999999998
40
1
40
1
40
1
40
1
41
1
10
182.690438189784
20
7
30
0
41
1
10
182.747975068333
20
7
30
0
41
1
10
182.805511946882
20
6.98144236350015
30
0
41
1
10
182.92058570398
20
6.9019628798294
30
0
41
1
10
182.978122582529
20
6.8410141098953
30
0
41
1
10
183.093196339627
20
6.67310349666349
30
0
41
1
10
183.150733218176
20
6.56611866017684
30
0
41
1
10
183.265806975275
20
6.30490996176795
30
0
41
1
10
183.323343853824
20
6.15067354586856
30
0
41
1
10
183.438417610921
20
5.79671699796418
30
0
41
1
10
183.49595448947
20
5.59699983574177
30
0
41
1
10
183.611028246568
20
5.15697915181542
30
0
41
1
10
183.668565125117
20
4.91669538850647
30
0
41
1
10
183.783638882215
20
4.4032402386469
30
0
41
1
10
183.841175760764
20
4.13010174805154
30
0
41
1
10
183.956249517862
20
3.56062861253932
30
0
41
1
10
184.013786396411
20
3.26433251136069
30
0
41
1
10
184.128860153509
20
2.65912516225825
30
0
41
1
10
184.186397032059
20
2.35024958585345
30
0
41
1
10
184.301470789157
20
1.73020810698418
30
0
41
1
10
184.359007667706
20
1.41906846042357
30
0
41
1
10
184.474081424804
20
0.803616126837483
30
0
41
1
10
184.531618303353
20
0.499317417201581
30
0
41
1
10
184.603539401539
20
0.127772623354986
30
0
41
1
10
184.617923621176
20
0.0540472886667942
30
0
41
1
10
184.646692060451
20
-0.0930696335335313
30
0
41
1
10
184.661076280088
20
-0.167103575223706
30
0
41
1
10
184.704228939
20
-0.390488934724601
30
0
41
1
10
184.732997378274
20
-0.54112782907626
30
0
41
1
10
184.819302696098
20
-0.996903572698301
30
0
41
1
10
184.876839574647
20
-1.30595494457063
30
0
41
1
10
184.991913331745
20
-1.92615960125406
30
0
41
1
10
185.049450210294
20
-2.23729210795068
30
0
41
1
10
185.164523967392
20
-2.85180743228901
30
0
41
1
10
185.22206084594
20
-3.15515826124218
30
0
41
1
10
185.337134603038
20
-3.74352334617654
30
0
41
1
10
185.394671481588
20
-4.02849936930721
30
0
41
1
10
185.452208360137
20
-4.29918420217146
30
0
0
SPLINE
5
DC
100
AcDbEntity
8
1
62
256
6
ByLayer
370
13
48
1
60
0
100
AcDbSpline
70
4
71
3
72
22
73
18
40
0
40
0
40
0
40
0
40
0.125
40
0.125
40
0.25
40
0.25
40
0.375
40
0.375
40
0.5
40
0.5
40
0.625
40
0.625
40
0.75
40
0.75
40
0.875
40
0.875
40
1
40
1
40
1
40
1
41
1
10
177.7
20
0.910885678150635
30
0
41
1
10
177.773486807714
20
1.30181143371018
30
0
41
1
10
177.846973615428
20
1.69980646549374
30
0
41
1
10
177.993947230856
20
2.4913276103689
30
0
41
1
10
178.06743403857
20
2.8847624923815
30
0
41
1
10
178.214407653999
20
3.64537406437981
30
0
41
1
10
178.287894461713
20
4.01242401682174
30
0
41
1
10
178.434868077141
20
4.69873496250253
30
0
41
1
10
178.508354884855
20
5.01787415740131
30
0
41
1
10
178.655328500283
20
5.59099179073189
30
0
41
1
10
178.728815307997
20
5.84489775748807
30
0
41
1
10
178.875788923425
20
6.27741148276422
30
0
41
1
10
178.94927573114
20
6.45601854767358
30
0
41
1
10
179.096249346568
20
6.73618479042935
30
0
41
1
10
179.169736154282
20
6.83780443587514
30
0
41
1
10
179.31670976971
20
6.96966737598834
30
0
41
1
10
179.390196577424
20
7
30
0
41
1
10
179.463683385138
20
7
30
0
0
SPLINE
5
DD
100
AcDbEntity
8
1
62
256
6
ByLayer
370
13
48
1
60
0
100
AcDbSpline
70
4
71
3
72
40
73
36
40
0
40
0
40
0
40
0
40
0.0625000000000007
40
0.0625000000000007
40
0.125000000000001
40
0.125000000000001
40
0.187500000000002
40
0.187500000000002
40
0.250000000000003
40
0.250000000000003
40
0.312500000000004
40
0.312500000000004
40
0.375000000000005
40
0.375000000000005
40
0.437500000000005
40
0.437500000000005
40
0.500000000000006
40
0.500000000000006
40
0.562500000000007
40
0.562500000000007
40
0.593750000000007
40
0.593750000000007
40
0.625000000000007
40
0.625000000000007
40
0.687500000000005
40
0.687500000000005
40
0.750000000000004
40
0.750000000000004
40
0.812500000000003
40
0.812500000000003
40
0.875000000000002
40
0.875000000000002
40
0.937500000000001
40
0.937500000000001
40
1
40
1
40
1
40
1
41
1
10
182.191394409567
20
7
30
0
41
1
10
182.259328033537
20
7
30
0
41
1
10
182.327261657507
20
6.97409833076293
30
0
41
1
10
182.463128905448
20
6.862056526863
30
0
41
1
10
182.531062529418
20
6.77585543607776
30
0
41
1
10
182.666929777358
20
6.53815031919581
30
0
41
1
10
182.734863401329
20
6.38660079012664
30
0
41
1
10
182.870730649269
20
6.01829515369113
30
0
41
1
10
182.938664273239
20
5.80152870081827
30
0
41
1
10
183.07453152118
20
5.30895624184799
30
0
41
1
10
183.14246514515
20
5.03318515216327
30
0
41
1
10
183.27833239309
20
4.43449686424387
30
0
41
1
10
183.34626601706
20
4.11165256550248
30
0
41
1
10
183.482133265001
20
3.43477424687075
30
0
41
1
10
183.550066888971
20
3.08082846826082
30
0
41
1
10
183.685934136911
20
2.3592515793809
30
0
41
1
10
183.753867760882
20
1.99169749834766
30
0
41
1
10
183.889735008822
20
1.25937772392177
30
0
41
1
10
183.957668632792
20
0.894659949232704
30
0
41
1
10
184.059569068748
20
0.35980846840539
30
0
41
1
10
184.093535880733
20
0.183534680750256
30
0
41
1
10
184.161469504703
20
-0.163671075156856
30
0
41
1
10
184.195436316688
20
-0.339565699177996
30
0
41
1
10
184.297336752643
20
-0.873956285447207
30
0
41
1
10
184.365270376613
20
-1.23847737233086
30
0
41
1
10
184.501137624554
20
-1.97069258174051
30
0
41
1
10
184.569071248524
20
-2.33833942231709
30
0
41
1
10
184.704938496465
20
-3.06043237103583
30
0
41
1
10
184.772872120435
20
-3.41480188005261
30
0
41
1
10
184.908739368375
20
-4.09285575765503
30
0
41
1
10
184.976672992345
20
-4.41645186076494
30
0
41
1
10
185.112540240286
20
-5.01691830202824
30
0
41
1
10
185.180473864256
20
-5.29371520172086
30
0
41
1
10
185.316341112196
20
-5.78851763008225
30
0
41
1
10
185.384274736167
20
-6.00648739020011
30
0
41
1
10
185.452208360137
20
-6.19187420851625
30
0
0
SPLINE
5
DE
100
AcDbEntity
8
1
62
256
6
ByLayer
370
13
48
1
60
0
100
AcDbSpline
70
4
71
3
72
22
73
18
40
0
40
0
40
0
40
0
40
0.125
40
0.125
40
0.25
40
0.25
40
0.375
40
0.375
40
0.5
40
0.5
40
0.625
40
0.625
40
0.75
40
0.75
40
0.875
40
0.875
40
1
40
1
40
1
40
1
41
1
10
177.7
20
3.56291427964871
30
0
41
1
10
177.752693316872
20
3.83008065974812
30
0
41
1
10
177.805386633743
20
4.08895804287002
30
0
41
1
10
177.910773267487
20
4.58238568200861
30
0
41
1
10
177.963466584359
20
4.81691253866697
30
0
41
1
10
178.068853218102
20
5.25492863829925
30
0
41
1
10
178.121546534974
20
5.45840045256665
30
0
41
1
10
178.226933168717
20
5.82931368693923
30
0
41
1
10
178.279626485589
20
5.99674681922721
30
0
41
1
10
178.385013119332
20
6.29270378372868
30
0
41
1
10
178.437706436204
20
6.42122932477358
30
0
41
1
10
178.543093069947
20
6.63870568103809
30
0
41
1
10
178.595786386819
20
6.72766668637416
30
0
41
1
10
178.701173020562
20
6.86737566375467
30
0
41
1
10
178.753866337434
20
6.91813920239201
30
0
41
1
10
178.859252971178
20
6.98444266864192
30
0
41
1
10
178.911946288049
20
7
30
0
41
1
10
178.964639604921
20
7
30
0
0
SPLINE
5
DF
100
AcDbEntity
8
1
62
256
6
ByLayer
370
13
48
1
60
0
100
AcDbSpline
70
4
71
3
72
42
73
38
40
0
40
0
40
0
40
0
40
0.0624999999999996
40
0.0624999999999996
40
0.124999999999999
40
0.124999999999999
40
0.187499999999999
40
0.187499999999999
40
0.249999999999998
40
0.249999999999998
40
0.312499999999998
40
0.312499999999998
40
0.374999999999998
40
0.374999999999998
40
0.437499999999997
40
0.437499999999997
40
0.499999999999997
40
0.499999999999997
40
0.515624999999997
40
0.515624999999997
40
0.531249999999997
40
0.531249999999997
40
0.562499999999997
40
0.562499999999997
40
0.624999999999998
40
0.624999999999998
40
0.687499999999998
40
0.687499999999998
40
0.749999999999998
40
0.749999999999998
40
0.812499999999999
40
0.812499999999999
40
0.874999999999999
40
0.874999999999999
40
0.9375
40
0.9375
40
1
40
1
40
1
40
1
41
1
10
181.69235062935
20
7
30
0
41
1
10
181.770680998741
20
7
30
0
41
1
10
181.849011368132
20
6.96551163029068
30
0
41
1
10
182.005672106915
20
6.81496062085211
30
0
41
1
10
182.084002476307
20
6.69877647160374
30
0
41
1
10
182.240663215089
20
6.37864495723343
30
0
41
1
10
182.318993584481
20
6.17462358566976
30
0
41
1
10
182.475654323264
20
5.68241679272501
30
0
41
1
10
182.553984692655
20
5.39425213142945
30
0
41
1
10
182.710645431438
20
4.7481026880215
30
0
41
1
10
182.788975800829
20
4.39023999475438
30
0
41
1
10
182.945636539612
20
3.62761162517904
30
0
41
1
10
183.023966909003
20
3.22302259421127
30
0
41
1
10
183.180627647786
20
2.39372689716083
30
0
41
1
10
183.258958017177
20
1.96918020246537
30
0
41
1
10
183.41561875596
20
1.12529924967976
30
0
41
1
10
183.493949125352
20
0.706057711978929
30
0
41
1
10
183.591862087091
20
0.197717013536732
30
0
41
1
10
183.611444679439
20
0.0968555016811763
30
0
41
1
10
183.650609864135
20
-0.103236482551978
30
0
41
1
10
183.670192456482
20
-0.204170493761836
30
0
41
1
10
183.728940233526
20
-0.509272755451491
30
0
41
1
10
183.768105418222
20
-0.715754546249656
30
0
41
1
10
183.885600972309
20
-1.34104030479216
30
0
41
1
10
183.9639313417
20
-1.76584881895559
30
0
41
1
10
184.120592080483
20
-2.60861718106892
30
0
41
1
10
184.198922449874
20
-3.02644657288579
30
0
41
1
10
184.355583188657
20
-3.82866662520189
30
0
41
1
10
184.433913558048
20
-4.2128803382254
30
0
41
1
10
184.590574296831
20
-4.9223198850635
30
0
41
1
10
184.668904666223
20
-5.24738818796206
30
0
41
1
10
184.825565405005
20
-5.81932112084544
30
0
41
1
10
184.903895774397
20
-6.06611215859729
30
0
41
1
10
185.06055651318
20
-6.4722976179485
30
0
41
1
10
185.138886882571
20
-6.63172329108616
30
0
41
1
10
185.295547621354
20
-6.86466975639527
30
0
41
1
10
185.373877990745
20
-6.93829561311154
30
0
41
1
10
185.452208360137
20
-6.97395568663893
30
0
0
SPLINE
5
E0
100
AcDbEntity
8
1
62
256
6
ByLayer
370
13
48
1
60
0
100
AcDbSpline
70
4
71
3
72
14
73
10
40
0
40
0
40
0
40
0
40
0.25
40
0.25
40
0.5
40
0.5
40
0.75
40
0.75
40
1
40
1
40
1
40
1
41
1
10
177.7
20
5.729823715225
30
0
41
1
10
177.763799652059
20
5.94749883677625
30
0
41
1
10
177.827599304117
20
6.13825334805875
30
0
41
1
10
177.955198608235
20
6.46186705351633
30
0
41
1
10
178.018998260293
20
6.59473941337626
30
0
41
1
10
178.14659756441
20
6.80317684514085
30
0
41
1
10
178.210397216469
20
6.87877744410278
30
0
41
1
10
178.337996520586
20
6.97716661366746
30
0
41
1
10
178.401796172645
20
7
30
0
41
1
10
178.465595824704
20
7
30
0
0
SPLINE
5
E1
100
AcDbEntity
8
1
62
256
6
ByLayer
370
13
48
1
60
0
100
AcDbSpline
70
4
71
3
72
77
73
73
40
0
40
0
40
0
40
0
40
0.0312500000000013
40
0.0312500000000013
40
0.0625000000000027
40
0.0625000000000027
40
0.093750000000004
40
0.093750000000004
40
0.125000000000005
40
0.125000000000005
40
0.156250000000007
40
0.156250000000007
40
0.187500000000008
40
0.187500000000008
40
0.218750000000009
40
0.218750000000009
40
0.25000000000001
40
0.25000000000001
40
0.281250000000012
40
0.281250000000012
40
0.312500000000013
40
0.312500000000013
40
0.343750000000014
40
0.343750000000014
40
0.375000000000016
40
0.375000000000016
40
0.406250000000017
40
0.406250000000017
40
0.437500000000018
40
0.437500000000018
40
0.453125000000019
40
0.453125000000019
40
0.460937500000018
40
0.460937500000018
40
0.468750000000018
40
0.468750000000018
40
0.500000000000017
40
0.500000000000017
40
0.531250000000015
40
0.531250000000015
40
0.562500000000014
40
0.562500000000014
40
0.593750000000012
40
0.593750000000012
40
0.625000000000011
40
0.625000000000011
40
0.656250000000009
40
0.656250000000009
40
0.687500000000007
40
0.687500000000007
40
0.718750000000006
40
0.718750000000006
40
0.750000000000004
40
0.750000000000004
40
0.781250000000003
40
0.781250000000003
40
0.812500000000001
40
0.812500000000001
40
0.84375
40
0.84375
40
0.874999999999998
40
0.874999999999998
40
0.906249999999997
40
0.906249999999997
40
0.914062499999997
40
0.914062499999997
40
0.921874999999997
40
0.937499999999997
40
0.937499999999997
40
0.968749999999999
40
0.968749999999999
40
1
40
1
40
1
40
1
41
1
10
181.193306849132
20
7
30
0
41
1
10
181.237670406539
20
7
30
0
41
1
10
181.282033963945
20
6.98898009982221
30
0
41
1
10
181.370761078757
20
6.9424275343884
30
0
41
1
10
181.415124636164
20
6.90688749308987
30
0
41
1
10
181.503851750976
20
6.80932615366766
30
0
41
1
10
181.548215308383
20
6.74729784678061
30
0
41
1
10
181.636942423195
20
6.59552909741944
30
0
41
1
10
181.681305980602
20
6.50578305828134
30
0
41
1
10
181.770033095414
20
6.29827885173253
30
0
41
1
10
181.81439665282
20
6.18051754961192
30
0
41
1
10
181.903123767633
20
5.91774866525199
30
0
41
1
10
181.947487325039
20
5.77274121723857
30
0
41
1
10
182.036214439852
20
5.45735951828769
30
0
41
1
10
182.080577997258
20
5.28698899629418
30
0
41
1
10
182.169305112071
20
4.92381701254146
30
0
41
1
10
182.213668669477
20
4.73102257802915
30
0
41
1
10
182.30239578429
20
4.32683189153715
30
0
41
1
10
182.346759341696
20
4.1154450683637
30
0
41
1
10
182.435486456509
20
3.67854113290258
30
0
41
1
10
182.479850013915
20
3.45303454565203
30
0
41
1
10
182.568577128727
20
2.99270035908901
30
0
41
1
10
182.612940686134
20
2.75788296786129
30
0
41
1
10
182.701667800946
20
2.28375774250938
30
0
41
1
10
182.746031358353
20
2.04445858593243
30
0
41
1
10
182.834758473165
20
1.56593398688258
30
0
41
1
10
182.879122030571
20
1.32671489540525
30
0
41
1
10
182.967849145384
20
0.85242009236427
30
0
41
1
10
183.01221270279
20
0.617348105125558
30
0
41
1
10
183.0787580389
20
0.270415157486354
30
0
41
1
10
183.100939817603
20
0.15571130072712
30
0
41
1
10
183.134212485658
20
-0.0146635126520493
30
0
41
1
10
183.145303375009
20
-0.0712857820397232
30
0
41
1
10
183.167485153712
20
-0.185422924104643
30
0
41
1
10
183.178576043064
20
-0.242760466975824
30
0
41
1
10
183.234030489822
20
-0.530680384503228
30
0
41
1
10
183.278394047228
20
-0.764986865035326
30
0
41
1
10
183.367121162041
20
-1.23821103937337
30
0
41
1
10
183.411484719447
20
-1.47712533182863
30
0
41
1
10
183.50021183426
20
-1.95557412352628
30
0
41
1
10
183.544575391666
20
-2.19510259059015
30
0
41
1
10
183.633302506478
20
-2.67027064984776
30
0
41
1
10
183.677666063885
20
-2.9059018192423
30
0
41
1
10
183.766393178697
20
-3.36846636851988
30
0
41
1
10
183.810756736104
20
-3.59538967088736
30
0
41
1
10
183.899483850916
20
-4.03571060211641
30
0
41
1
10
183.943847408322
20
-4.24909766986426
30
0
41
1
10
184.032574523135
20
-4.65781377939777
30
0
41
1
10
184.076938080541
20
-4.85313318059193
30
0
41
1
10
184.165665195354
20
-5.22178572991669
30
0
41
1
10
184.21002875276
20
-5.3951114941508
30
0
41
1
10
184.298755867573
20
-5.71671302258832
30
0
41
1
10
184.343119424979
20
-5.86498462035118
30
0
41
1
10
184.431846539792
20
-6.134455062683
30
0
41
1
10
184.476210097198
20
-6.25565333385305
30
0
41
1
10
184.564937212011
20
-6.47006731321736
30
0
41
1
10
184.609300769417
20
-6.56328578750956
30
0
41
1
10
184.69802788423
20
-6.72190886260674
30
0
41
1
10
184.742391441636
20
-6.78731880981192
30
0
41
1
10
184.831118556449
20
-6.89144699126834
30
0
41
1
10
184.875482113855
20
-6.93017211837622
30
0
41
1
10
184.964209228667
20
-6.98281853323834
30
0
41
1
10
185.008572786074
20
-6.99674720301326
30
0
41
1
10
185.064027232831
20
-7.00017777912751
30
0
41
1
10
185.075118122183
20
-7.00017114634929
30
0
41
1
10
185.097299900886
20
-6.99877178589259
30
0
41
1
10
185.130572568941
20
-6.99457861170228
30
0
41
1
10
185.163845236996
20
-6.98391906303436
30
0
41
1
10
185.230390573105
20
-6.95352339671908
30
0
41
1
10
185.274754130511
20
-6.92113800297744
30
0
41
1
10
185.363481245324
20
-6.83009396357929
30
0
41
1
10
185.40784480273
20
-6.77142820950252
30
0
41
1
10
185.452208360137
20
-6.69895907901827
30
0
0
SPLINE
5
E2
100
AcDbEntity
8
1
62
256
6
ByLayer
370
13
48
1
60
0
100
AcDbSpline
70
4
71
3
72
10
73
6
40
0
40
0
40
0
40
0
40
0.5
40
0.5
40
1
40
1
40
1
40
1
41
1
10
177.7
20
6.85769890657511
30
0
41
1
10
177.744425340748
20
6.90662122739855
30
0
41
1
10
177.788850681495
20
6.94226366180902
30
0
41
1
10
177.877701362991
20
6.98894933432243
30
0
41
1
10
177.922126703739
20
7
30
0
41
1
10
177.966552044486
20
7
30
0
0
SPLINE
5
E3
100
AcDbEntity
8
1
62
256
6
ByLayer
370
13
48
1
60
0
100
AcDbSpline
70
4
71
3
72
76
73
72
40
0
40
0
40
0
40
0
40
0.0312500000000011
40
0.0312500000000011
40
0.0625000000000021
40
0.0625000000000021
40
0.0937500000000031
40
0.0937500000000031
40
0.125000000000004
40
0.125000000000004
40
0.156250000000005
40
0.156250000000005
40
0.187500000000006
40
0.187500000000006
40
0.218750000000007
40
0.218750000000007
40
0.250000000000008
40
0.250000000000008
40
0.281250000000009
40
0.281250000000009
40
0.31250000000001
40
0.31250000000001
40
0.343750000000011
40
0.343750000000011
40
0.375000000000012
40
0.375000000000012
40
0.406250000000013
40
0.406250000000013
40
0.414062500000013
40
0.414062500000013
40
0.421875000000013
40
0.437500000000012
40
0.437500000000012
40
0.468750000000011
40
0.468750000000011
40
0.500000000000009
40
0.500000000000009
40
0.531250000000007
40
0.531250000000007
40
0.562500000000006
40
0.562500000000006
40
0.593750000000004
40
0.593750000000004
40
0.625000000000003
40
0.625000000000003
40
0.656250000000001
40
0.656250000000001
40
0.6875
40
0.6875
40
0.718749999999998
40
0.718749999999998
40
0.749999999999997
40
0.749999999999997
40
0.781249999999995
40
0.781249999999995
40
0.812499999999994
40
0.812499999999994
40
0.820312499999994
40
0.820312499999994
40
0.828124999999994
40
0.843749999999995
40
0.843749999999995
40
0.874999999999996
40
0.874999999999996
40
0.906249999999997
40
0.906249999999997
40
0.937499999999998
40
0.937499999999998
40
0.968749999999999
40
0.968749999999999
40
1
40
1
40
1
40
1
41
1
10
180.694263068915
20
7
30
0
41
1
10
180.743824999032
20
7
30
0
41
1
10
180.793386929149
20
6.98624058312546
30
0
41
1
10
180.892510789382
20
6.92779061250582
30
0
41
1
10
180.942072719499
20
6.88308723054843
30
0
41
1
10
181.041196579733
20
6.76016049139926
30
0
41
1
10
181.09075850985
20
6.6819253656281
30
0
41
1
10
181.189882370084
20
6.490570706413
30
0
41
1
10
181.239444300201
20
6.37744276425823
30
0
41
1
10
181.338568160435
20
6.11647422504475
30
0
41
1
10
181.388130090551
20
5.96863071977239
30
0
41
1
10
181.487253950785
20
5.64011659025877
30
0
41
1
10
181.536815880902
20
5.45944986223233
30
0
41
1
10
181.635939741136
20
5.06887771983304
30
0
41
1
10
181.685501671253
20
4.85898293464032
30
0
41
1
10
181.784625531487
20
4.41502634604652
30
0
41
1
10
181.834187461603
20
4.18098032659381
30
0
41
1
10
181.933311321837
20
3.69487246891245
30
0
41
1
10
181.982873251954
20
3.44282887076557
30
0
41
1
10
182.081997112188
20
2.92743496887297
30
0
41
1
10
182.131559042305
20
2.66410230847609
30
0
41
1
10
182.230682902539
20
2.13284724920868
30
0
41
1
10
182.280244832656
20
1.86493931605972
30
0
41
1
10
182.379368692889
20
1.33076762563618
30
0
41
1
10
182.428930623006
20
1.06451361293637
30
0
41
1
10
182.52805448324
20
0.539032573074167
30
0
41
1
10
182.577616413357
20
0.279810211175374
30
0
41
1
10
182.639568826003
20
-0.0371288688060645
30
0
41
1
10
182.651959308532
20
-0.100524069158809
30
0
41
1
10
182.676740273591
20
-0.228285985686995
30
0
41
1
10
182.713911721178
20
-0.420917686921285
30
0
41
1
10
182.751083168766
20
-0.616235869564264
30
0
41
1
10
182.825426063941
20
-1.0096096508631
30
0
41
1
10
182.874987994058
20
-1.27553936447367
30
0
41
1
10
182.974111854292
20
-1.80946439892489
30
0
41
1
10
183.023673784409
20
-2.07745032758291
30
0
41
1
10
183.122797644643
20
-2.6093120777378
30
0
41
1
10
183.172359574759
20
-2.87317372384067
30
0
41
1
10
183.271483434993
20
-3.39009530415578
30
0
41
1
10
183.32104536511
20
-3.64313774122641
30
0
41
1
10
183.420169225344
20
-4.131695382169
30
0
41
1
10
183.469731155461
20
-4.36719229013531
30
0
41
1
10
183.568855015695
20
-4.81444700890657
30
0
41
1
10
183.618416945812
20
-5.02618877041834
30
0
41
1
10
183.717540806045
20
-5.42076216211927
30
0
41
1
10
183.767102736162
20
-5.603582740071
30
0
41
1
10
183.866226596396
20
-5.93660008694894
30
0
41
1
10
183.915788526513
20
-6.08679247442032
30
0
41
1
10
184.014912386747
20
-6.35253381704601
30
0
41
1
10
184.064474316864
20
-6.46808523873452
30
0
41
1
10
184.163598177097
20
-6.66424702446048
30
0
41
1
10
184.213160107214
20
-6.74486548016617
30
0
41
1
10
184.312283967448
20
-6.87242144149988
30
0
41
1
10
184.361845897565
20
-6.91937055927264
30
0
41
1
10
184.460969757799
20
-6.98210142161923
30
0
41
1
10
184.510531687916
20
-6.9978959893059
30
0
41
1
10
184.572484100562
20
-7.00027935977951
30
0
41
1
10
184.584874583091
20
-6.99989801710643
30
0
41
1
10
184.60965554815
20
-6.99738349722719
30
0
41
1
10
184.646826995737
20
-6.99097506191072
30
0
41
1
10
184.683998443325
20
-6.97640255642551
30
0
41
1
10
184.7583413385
20
-6.93575393792321
30
0
41
1
10
184.807903268617
20
-6.89328378401703
30
0
41
1
10
184.907027128851
20
-6.77496712271699
30
0
41
1
10
184.956589058968
20
-6.69910870151688
30
0
41
1
10
185.055712919202
20
-6.51255530618025
30
0
41
1
10
185.105274849318
20
-6.40185161679363
30
0
41
1
10
185.204398709552
20
-6.14566568606196
30
0
41
1
10
185.253960639669
20
-6.00018010127837
30
0
41
1
10
185.353084499903
20
-5.6761954810099
30
0
41
1
10
185.40264643002
20
-5.49769985621742
30
0
41
1
10
185.452208360137
20
-5.30443524127247
30
0
0
SPLINE
5
E4
100
AcDbEntity
8
1
62
256
6
ByLayer
370
13
48
1
60
0
100
AcDbSpline
70
4
71
3
72
78
73
74
40
0
40
0
40
0
40
0
40
0.0312499999999991
40
0.0312499999999991
40
0.0624999999999982
40
0.0624999999999982
40
0.0937499999999973
40
0.0937499999999973
40
0.124999999999996
40
0.124999999999996
40
0.156249999999996
40
0.156249999999996
40
0.187499999999995
40
0.187499999999995
40
0.218749999999994
40
0.218749999999994
40
0.249999999999993
40
0.249999999999993
40
0.281249999999992
40
0.281249999999992
40
0.312499999999991
40
0.312499999999991
40
0.343749999999991
40
0.343749999999991
40
0.35937499999999
40
0.35937499999999
40
0.36718749999999
40
0.36718749999999
40
0.37499999999999
40
0.37499999999999
40
0.406249999999991
40
0.406249999999991
40
0.437499999999991
40
0.437499999999991
40
0.468749999999991
40
0.468749999999991
40
0.499999999999991
40
0.499999999999991
40
0.531249999999992
40
0.531249999999992
40
0.562499999999992
40
0.562499999999992
40
0.593749999999992
40
0.593749999999992
40
0.624999999999992
40
0.624999999999992
40
0.656249999999992
40
0.656249999999992
40
0.687499999999993
40
0.687499999999993
40
0.718749999999993
40
0.718749999999993
40
0.734374999999993
40
0.734374999999993
40
0.742187499999994
40
0.742187499999994
40
0.749999999999994
40
0.749999999999994
40
0.781249999999995
40
0.781249999999995
40
0.812499999999995
40
0.812499999999995
40
0.843749999999996
40
0.843749999999996
40
0.874999999999997
40
0.874999999999997
40
0.906249999999998
40
0.906249999999998
40
0.937499999999998
40
0.937499999999998
40
0.968749999999999
40
0.968749999999999
40
1
40
1
40
1
40
1
41
1
10
180.195219288697
20
7
30
0
41
1
10
180.249979591525
20
7
30
0
41
1
10
180.304739894353
20
6.98319491740008
30
0
41
1
10
180.414260500007
20
6.91142204498226
30
0
41
1
10
180.469020802835
20
6.85643318558485
30
0
41
1
10
180.57854140849
20
6.70502333189489
30
0
41
1
10
180.633301711317
20
6.60858383989552
30
0
41
1
10
180.742822316972
20
6.37293587661463
30
0
41
1
10
180.7975826198
20
6.23371610713824
30
0
41
1
10
180.907103225455
20
5.91356832619974
30
0
41
1
10
180.961863528282
20
5.73264009525212
30
0
41
1
10
181.071384133937
20
5.33271997306898
30
0
41
1
10
181.126144436765
20
5.113740473017
30
0
41
1
10
181.23566504242
20
4.64376664445712
30
0
41
1
10
181.290425345247
20
4.39279556056061
30
0
41
1
10
181.399945950902
20
3.86674698576334
30
0
41
1
10
181.45470625373
20
3.59169889221877
30
0
41
1
10
181.564226859385
20
3.0264541689024
30
0
41
1
10
181.618987162212
20
2.73628702263673
30
0
41
1
10
181.728507767867
20
2.14990440843505
30
0
41
1
10
181.783268070695
20
1.85371311031062
30
0
41
1
10
181.89278867635
20
1.26370046981606
30
0
41
1
10
181.947548979177
20
0.969894757884845
30
0
41
1
10
182.029689433418
20
0.536310575305748
30
0
41
1
10
182.057069584832
20
0.392958421670272
30
0
41
1
10
182.098139811953
20
0.180248562290615
30
0
41
1
10
182.11182988766
20
0.109730862279179
30
0
41
1
10
182.139210039073
20
-0.0304507659079434
30
0
41
1
10
182.15290011478
20
-0.10042064631844
30
0
41
1
10
182.221350493315
20
-0.453452336354701
30
0
41
1
10
182.276110796142
20
-0.742366933588755
30
0
41
1
10
182.385631401797
20
-1.32700664061926
30
0
41
1
10
182.440391704625
20
-1.62272164342704
30
0
41
1
10
182.54991231028
20
-2.21327255855252
30
0
41
1
10
182.604672613107
20
-2.50808915809378
30
0
41
1
10
182.714193218762
20
-3.08807581856971
30
0
41
1
10
182.76895352159
20
-3.37321902036419
30
0
41
1
10
182.878474127244
20
-3.92471527290013
30
0
41
1
10
182.933234430072
20
-4.19103814276988
30
0
41
1
10
183.042755035727
20
-4.69624829418117
30
0
41
1
10
183.097515338555
20
-4.93510797426353
30
0
41
1
10
183.20703594421
20
-5.37813502033524
30
0
41
1
10
183.261796247037
20
-5.58228311933379
30
0
41
1
10
183.371316852692
20
-5.9507432089483
30
0
41
1
10
183.426077155519
20
-6.11504790544632
30
0
41
1
10
183.535597761175
20
-6.40120007533716
30
0
41
1
10
183.590358064002
20
-6.52305261167939
30
0
41
1
10
183.699878669657
20
-6.72423375166261
30
0
41
1
10
183.754638972484
20
-6.8035771214978
30
0
41
1
10
183.864159578139
20
-6.92191750050307
30
0
41
1
10
183.918919880967
20
-6.96093459593027
30
0
41
1
10
184.001060335208
20
-6.9921113642549
30
0
41
1
10
184.028440486622
20
-6.9979567929567
30
0
41
1
10
184.069510713742
20
-7.00034660337306
30
0
41
1
10
184.08320078945
20
-7.00009202344822
30
0
41
1
10
184.110580940863
20
-6.99745273205409
30
0
41
1
10
184.12427101657
20
-6.99506107881319
30
0
41
1
10
184.192721395104
20
-6.97755631356031
30
0
41
1
10
184.247481697932
20
-6.94575592372584
30
0
41
1
10
184.357002303587
20
-6.84247075684544
30
0
41
1
10
184.411762606414
20
-6.77096541400161
30
0
41
1
10
184.521283212069
20
-6.58571628480053
30
0
41
1
10
184.576043514897
20
-6.47195636795377
30
0
41
1
10
184.685564120552
20
-6.20179073056843
30
0
41
1
10
184.740324423379
20
-6.04537783775118
30
0
41
1
10
184.849845029034
20
-5.69201213201342
30
0
41
1
10
184.904605331862
20
-5.49506420699046
30
0
41
1
10
185.014125937517
20
-5.06529165941404
30
0
41
1
10
185.068886240344
20
-4.83248423194786
30
0
41
1
10
185.178406845999
20
-4.33787968964543
30
0
41
1
10
185.233167148827
20
-4.07610900425209
30
0
41
1
10
185.342687754482
20
-3.53201941132482
30
0
41
1
10
185.397448057309
20
-3.2497306739703
30
0
41
1
10
185.452208360137
20
-2.96172985608905
30
0
0
SPLINE
5
E5
100
AcDbEntity
8
1
62
256
6
ByLayer
370
13
48
1
60
0
100
AcDbSpline
70
4
71
3
72
78
73
74
40
0
40
0
40
0
40
0
40
0.031249999999999
40
0.031249999999999
40
0.0624999999999979
40
0.0624999999999979
40
0.0937499999999969
40
0.0937499999999969
40
0.124999999999996
40
0.124999999999996
40
0.156249999999995
40
0.156249999999995
40
0.187499999999994
40
0.187499999999994
40
0.218749999999993
40
0.218749999999993
40
0.249999999999992
40
0.249999999999992
40
0.281249999999991
40
0.281249999999991
40
0.31249999999999
40
0.31249999999999
40
0.328124999999989
40
0.328124999999989
40
0.335937499999989
40
0.335937499999989
40
0.343749999999989
40
0.343749999999989
40
0.374999999999989
40
0.374999999999989
40
0.40624999999999
40
0.40624999999999
40
0.43749999999999
40
0.43749999999999
40
0.468749999999991
40
0.468749999999991
40
0.499999999999991
40
0.499999999999991
40
0.531249999999992
40
0.531249999999992
40
0.562499999999992
40
0.562499999999992
40
0.593749999999993
40
0.593749999999993
40
0.624999999999993
40
0.624999999999993
40
0.656249999999994
40
0.656249999999994
40
0.671874999999994
40
0.671874999999994
40
0.679687499999994
40
0.679687499999994
40
0.687499999999994
40
0.687499999999994
40
0.718749999999995
40
0.718749999999995
40
0.749999999999996
40
0.749999999999996
40
0.781249999999996
40
0.781249999999996
40
0.812499999999997
40
0.812499999999997
40
0.843749999999997
40
0.843749999999997
40
0.874999999999998
40
0.874999999999998
40
0.906249999999998
40
0.906249999999998
40
0.937499999999999
40
0.937499999999999
40
0.968749999999999
40
0.968749999999999
40
1
40
1
40
1
40
1
41
1
10
179.69617550848
20
7
30
0
41
1
10
179.756134184018
20
7
30
0
41
1
10
179.816092859556
20
6.97984204559037
30
0
41
1
10
179.936010210632
20
6.89330211957488
30
0
41
1
10
179.99596888617
20
6.8268871395727
30
0
41
1
10
180.115886237247
20
6.64384918069388
30
0
41
1
10
180.175844912785
20
6.52719875310655
30
0
41
1
10
180.295762263861
20
6.24263069525293
30
0
41
1
10
180.355720939399
20
6.07469979797028
30
0
41
1
10
180.475638290475
20
5.69008007344792
30
0
41
1
10
180.535596966013
20
5.47339842464751
30
0
41
1
10
180.655514317089
20
4.99746636056264
30
0
41
1
10
180.715472992628
20
4.73824417005486
30
0
41
1
10
180.835390343704
20
4.18656468618866
30
0
41
1
10
180.895349019242
20
3.89415051855249
30
0
41
1
10
181.015266370318
20
3.28746511157519
30
0
41
1
10
181.075225045856
20
2.97324119866914
30
0
41
1
10
181.195142396932
20
2.33495797903129
30
0
41
1
10
181.25510107247
20
2.01093928058202
30
0
41
1
10
181.375018423546
20
1.36437241014968
30
0
41
1
10
181.434977099085
20
1.0418509339863
30
0
41
1
10
181.524915112392
20
0.566339663260806
30
0
41
1
10
181.554894450161
20
0.409198296490643
30
0
41
1
10
181.599863456814
20
0.176263202761845
30
0
41
1
10
181.614853125699
20
0.0990798379458795
30
0
41
1
10
181.644832463468
20
-0.0542554322255455
30
0
41
1
10
181.659822132353
20
-0.131072572238679
30
0
41
1
10
181.734770476775
20
-0.518387510297998
30
0
41
1
10
181.794729152313
20
-0.835892269167431
30
0
41
1
10
181.914646503389
20
-1.47791683299411
30
0
41
1
10
181.974605178927
20
-1.80241870253678
30
0
41
1
10
182.094522530004
20
-2.44802293673717
30
0
41
1
10
182.154481205542
20
-2.76909177304904
30
0
41
1
10
182.274398556618
20
-3.39607106097779
30
0
41
1
10
182.334357232156
20
-3.7019366899533
30
0
41
1
10
182.454274583232
20
-4.28660379009025
30
0
41
1
10
182.51423325877
20
-4.56535838266302
30
0
41
1
10
182.634150609847
20
-5.08516608503979
30
0
41
1
10
182.694109285385
20
-5.32618165414061
30
0
41
1
10
182.814026636461
20
-5.7624529380347
30
0
41
1
10
182.873985311999
20
-5.95768955475532
30
0
41
1
10
182.993902663075
20
-6.29780403230166
30
0
41
1
10
183.053861338613
20
-6.44268441417483
30
0
41
1
10
183.173778689689
20
-6.68120134728755
30
0
41
1
10
183.233737365227
20
-6.77485856975261
30
0
41
1
10
183.353654716304
20
-6.9133910166488
30
0
41
1
10
183.413613391842
20
-6.95829727075778
30
0
41
1
10
183.503551405149
20
-6.99282063230416
30
0
41
1
10
183.533530742918
20
-6.99887246789123
30
0
41
1
10
183.578499749571
20
-7.00034820702046
30
0
41
1
10
183.593489418456
20
-6.99958670252192
30
0
41
1
10
183.623468756225
20
-6.99547601319659
30
0
41
1
10
183.638458425109
20
-6.99212366070785
30
0
41
1
10
183.713406769532
20
-6.96863562120816
30
0
41
1
10
183.77336544507
20
-6.92824780001123
30
0
41
1
10
183.893282796146
20
-6.7991445835228
30
0
41
1
10
183.953241471684
20
-6.71039762134262
30
0
41
1
10
184.073158822761
20
-6.48180719451264
30
0
41
1
10
184.133117498299
20
-6.34194166634774
30
0
41
1
10
184.253034849375
20
-6.01161272981014
30
0
41
1
10
184.312993524913
20
-5.8211447829369
30
0
41
1
10
184.432910875989
20
-5.39380515791296
30
0
41
1
10
184.492869551527
20
-5.15695049686141
30
0
41
1
10
184.612786902603
20
-4.6445499563485
30
0
41
1
10
184.672745578142
20
-4.36904014522867
30
0
41
1
10
184.792662929218
20
-3.78974736612065
30
0
41
1
10
184.852621604756
20
-3.48601086646912
30
0
41
1
10
184.972538955832
20
-2.86211203057027
30
0
41
1
10
185.03249763137
20
-2.54199518823444
30
0
41
1
10
185.152414982446
20
-1.8971883133579
30
0
41
1
10
185.212373657984
20
-1.5725331883279
30
0
41
1
10
185.332291009061
20
-0.929267929368336
30
0
41
1
10
185.392249684599
20
-0.610677289609214
30
0
41
1
10
185.452208360137
20
-0.299386159415491
30
0
0
SPLINE
5
E6
100
AcDbEntity
8
1
62
256
6
ByLayer
370
13
48
1
60
0
100
AcDbSpline
70
4
71
3
72
85
73
81
40
0
40
0
40
0
40
0
40
0.0312499999999997
40
0.0312499999999997
40
0.0624999999999993
40
0.0624999999999993
40
0.093749999999999
40
0.093749999999999
40
0.124999999999999
40
0.124999999999999
40
0.156249999999998
40
0.156249999999998
40
0.187499999999998
40
0.187499999999998
40
0.218749999999998
40
0.218749999999998
40
0.249999999999997
40
0.249999999999997
40
0.281249999999997
40
0.281249999999997
40
0.296874999999996
40
0.296874999999996
40
0.304687499999996
40
0.308593749999996
40
0.308593749999996
40
0.312499999999996
40
0.312499999999996
40
0.343749999999994
40
0.343749999999994
40
0.374999999999993
40
0.374999999999993
40
0.406249999999992
40
0.406249999999992
40
0.43749999999999
40
0.43749999999999
40
0.468749999999989
40
0.468749999999989
40
0.499999999999988
40
0.499999999999988
40
0.531249999999986
40
0.531249999999986
40
0.562499999999985
40
0.562499999999985
40
0.593749999999984
40
0.593749999999984
40
0.609374999999983
40
0.609374999999983
40
0.617187499999982
40
0.617187499999982
40
0.621093749999983
40
0.621093749999983
40
0.624999999999983
40
0.624999999999983
40
0.656249999999984
40
0.656249999999984
40
0.687499999999986
40
0.687499999999986
40
0.718749999999988
40
0.718749999999988
40
0.749999999999989
40
0.749999999999989
40
0.781249999999991
40
0.781249999999991
40
0.812499999999993
40
0.812499999999993
40
0.843749999999994
40
0.843749999999994
40
0.874999999999996
40
0.874999999999996
40
0.906249999999997
40
0.906249999999997
40
0.921874999999998
40
0.921874999999998
40
0.929687499999998
40
0.929687499999998
40
0.937499999999999
40
0.937499999999999
40
0.968749999999999
40
0.968749999999999
40
1
40
1
40
1
40
1
41
1
10
179.197131728263
20
7
30
0
41
1
10
179.262288776511
20
7
30
0
41
1
10
179.32744582476
20
6.97618075117776
30
0
41
1
10
179.457759921257
20
6.87341192959593
30
0
41
1
10
179.522916969506
20
6.79441266214286
30
0
41
1
10
179.653231066003
20
6.57658585070354
30
0
41
1
10
179.718388114252
20
6.43771964102498
30
0
41
1
10
179.84870221075
20
6.09973184961783
30
0
41
1
10
179.913859258998
20
5.9005976517015
30
0
41
1
10
180.044173355496
20
5.44674279625409
30
0
41
1
10
180.109330403744
20
5.19204448595909
30
0
41
1
10
180.239644500242
20
4.63670504782525
30
0
41
1
10
180.30480154849
20
4.33611804419718
30
0
41
1
10
180.435115644988
20
3.70244699120977
30
0
41
1
10
180.500272693236
20
3.36943366622393
30
0
41
1
10
180.630586789734
20
2.68621727911213
30
0
41
1
10
180.695743837982
20
2.33608135168916
30
0
41
1
10
180.82605793448
20
1.63364243812393
30
0
41
1
10
180.891214982729
20
1.28138700111472
30
0
41
1
10
180.988950555101
20
0.761101114987355
30
0
41
1
10
181.021529079226
20
0.589001518320714
30
0
41
1
10
181.070396865412
20
0.333842844623177
30
0
41
1
10
181.094830758506
20
0.207008818421713
30
0
41
1
10
181.119264651599
20
0.0814578050734838
30
0
41
1
10
181.135553913661
20
-0.0019409640184733
30
0
41
1
10
181.143698544692
20
-0.0434988886561882
30
0
41
1
10
181.217000223972
20
-0.419771608654031
30
0
41
1
10
181.282157272221
20
-0.763841058360498
30
0
41
1
10
181.412471368718
20
-1.46081995857915
30
0
41
1
10
181.477628416967
20
-1.81370333148618
30
0
41
1
10
181.607942513464
20
-2.51495023744116
30
0
41
1
10
181.673099561713
20
-2.86326214466968
30
0
41
1
10
181.80341365821
20
-3.54018805441149
30
0
41
1
10
181.868570706459
20
-3.86873296214
30
0
41
1
10
181.998884802956
20
-4.49098126727472
30
0
41
1
10
182.064041851205
20
-4.78461535950041
30
0
41
1
10
182.194355947702
20
-5.3240825820811
30
0
41
1
10
182.259512995951
20
-5.56986620526672
30
0
41
1
10
182.389827092448
20
-6.00471490044208
30
0
41
1
10
182.454984140697
20
-6.19376373437373
30
0
41
1
10
182.585298237194
20
-6.51129508885998
30
0
41
1
10
182.650455285443
20
-6.63979556156971
30
0
41
1
10
182.78076938194
20
-6.83741744413817
30
0
41
1
10
182.845926430189
20
-6.90658051246254
30
0
41
1
10
182.943662002562
20
-6.96975039695914
30
0
41
1
10
182.976240526687
20
-6.9840722275261
30
0
41
1
10
183.025108312873
20
-6.99614136242221
30
0
41
1
10
183.041397574935
20
-6.99859661248044
30
0
41
1
10
183.065831468029
20
-7.00002265155092
30
0
41
1
10
183.07397609906
20
-7.00012329437439
30
0
41
1
10
183.090265361122
20
-6.99958168180521
30
0
41
1
10
183.098409992153
20
-6.99893700525038
30
0
41
1
10
183.171711671433
20
-6.98969754201954
30
0
41
1
10
183.236868719681
20
-6.95694846656929
30
0
41
1
10
183.367182816179
20
-6.83527324591483
30
0
41
1
10
183.432339864427
20
-6.74629819719488
30
0
41
1
10
183.562653960925
20
-6.50811270924225
30
0
41
1
10
183.627811009174
20
-6.35886705207778
30
0
41
1
10
183.758125105671
20
-6.00054578310514
30
0
41
1
10
183.82328215392
20
-5.79146316594819
30
0
41
1
10
183.953596250417
20
-5.31902318195878
30
0
41
1
10
184.018753298666
20
-5.05569417903519
30
0
41
1
10
184.149067395163
20
-4.48516288406532
30
0
41
1
10
184.214224443412
20
-4.17801887421314
30
0
41
1
10
184.344538539909
20
-3.53377145569257
30
0
41
1
10
184.409695588157
20
-3.19673958018566
30
0
41
1
10
184.540009684655
20
-2.50812322576911
30
0
41
1
10
184.605166732904
20
-2.15660344308532
30
0
41
1
10
184.735480829401
20
-1.45379122019679
30
0
41
1
10
184.80063787765
20
-1.10254207121642
30
0
41
1
10
184.898373450023
20
-0.585202782195466
30
0
41
1
10
184.930951974147
20
-0.414323512713224
30
0
41
1
10
184.979819760334
20
-0.161300113751906
30
0
41
1
10
184.996109022396
20
-0.0775605586739516
30
0
41
1
10
185.02868754652
20
0.0889050569935534
30
0
41
1
10
185.044976808582
20
0.172751412405915
30
0
41
1
10
185.126423118893
20
0.594704928250422
30
0
41
1
10
185.191580167142
20
0.941103414370218
30
0
41
1
10
185.321894263639
20
1.64065206620711
30
0
41
1
10
185.387051311888
20
1.99377167958522
30
0
41
1
10
185.452208360137
20
2.34338016277374
30
0
0
SPLINE
5
E7
100
AcDbEntity
8
1
62
256
6
ByLayer
370
13
48
1
60
0
100
AcDbSpline
70
4
71
3
72
85
73
81
40
0
40
0
40
0
40
0
40
0.031249999999999
40
0.031249999999999
40
0.062499999999998
40
0.062499999999998
40
0.0937499999999969
40
0.0937499999999969
40
0.124999999999996
40
0.124999999999996
40
0.156249999999995
40
0.156249999999995
40
0.187499999999994
40
0.187499999999994
40
0.218749999999993
40
0.218749999999993
40
0.249999999999992
40
0.249999999999992
40
0.281249999999991
40
0.281249999999991
40
0.285156249999991
40
0.285156249999991
40
0.289062499999991
40
0.289062499999991
40
0.296874999999991
40
0.296874999999991
40
0.31249999999999
40
0.31249999999999
40
0.343749999999989
40
0.343749999999989
40
0.374999999999988
40
0.374999999999988
40
0.406249999999987
40
0.406249999999987
40
0.437499999999986
40
0.437499999999986
40
0.468749999999985
40
0.468749999999985
40
0.499999999999984
40
0.499999999999984
40
0.531249999999983
40
0.531249999999983
40
0.562499999999982
40
0.562499999999982
40
0.570312499999982
40
0.570312499999982
40
0.578124999999982
40
0.578124999999982
40
0.593749999999983
40
0.593749999999983
40
0.624999999999983
40
0.624999999999983
40
0.656249999999984
40
0.656249999999984
40
0.687499999999985
40
0.687499999999985
40
0.718749999999986
40
0.718749999999986
40
0.749999999999986
40
0.749999999999986
40
0.781249999999987
40
0.781249999999987
40
0.812499999999988
40
0.812499999999988
40
0.843749999999989
40
0.843749999999989
40
0.859374999999989
40
0.859374999999989
40
0.863281249999989
40
0.863281249999989
40
0.867187499999989
40
0.87499999999999
40
0.87499999999999
40
0.906249999999992
40
0.906249999999992
40
0.937499999999995
40
0.937499999999995
40
0.968749999999997
40
0.968749999999997
40
1
40
1
40
1
40
1
41
1
10
178.698087948045
20
7
30
0
41
1
10
178.768443369005
20
7
30
0
41
1
10
178.838798789964
20
6.97220964849166
30
0
41
1
10
178.979509631882
20
6.8517334130658
30
0
41
1
10
179.049865052842
20
6.75897522010951
30
0
41
1
10
179.19057589476
20
6.50319516170413
30
0
41
1
10
179.26093131572
20
6.34012143580813
30
0
41
1
10
179.401642157638
20
5.94438866708535
30
0
41
1
10
179.471997578597
20
5.71172284706404
30
0
41
1
10
179.612708420516
20
5.18449894467614
30
0
41
1
10
179.683063841475
20
4.88998992069378
30
0
41
1
10
179.823774683394
20
4.25317409665769
30
0
41
1
10
179.894130104353
20
3.91095963285599
30
0
41
1
10
180.034840946272
20
3.19703621580788
30
0
41
1
10
180.105196367231
20
2.82543192821444
30
0
41
1
10
180.245907209149
20
2.07215582750763
30
0
41
1
10
180.316262630109
20
1.69056843803296
30
0
41
1
10
180.456973472027
20
0.934922052998786
30
0
41
1
10
180.527328892987
20
0.560908712576719
30
0
41
1
10
180.606478741566
20
0.152118096581461
30
0
41
1
10
180.615273169186
20
0.106860400601619
30
0
41
1
10
180.632862024426
20
0.0166937438526418
30
0
41
1
10
180.641656452046
20
-0.0281428259268068
30
0
41
1
10
180.668039734905
20
-0.1634813196587
30
0
41
1
10
180.685628590145
20
-0.254401407361399
30
0
41
1
10
180.738395155865
20
-0.52897584956952
30
0
41
1
10
180.773572866344
20
-0.714453037081626
30
0
41
1
10
180.879105997783
20
-1.27569630854197
30
0
41
1
10
180.949461418742
20
-1.65638516974266
30
0
41
1
10
181.090172260661
20
-2.41459375200026
30
0
41
1
10
181.16052768162
20
-2.79204203910837
30
0
41
1
10
181.301238523539
20
-3.52476296932656
30
0
41
1
10
181.371593944498
20
-3.8799350453111
30
0
41
1
10
181.512304786417
20
-4.54901883307321
30
0
41
1
10
181.582660207376
20
-4.86282962957296
30
0
41
1
10
181.723371049294
20
-5.4331743929657
30
0
41
1
10
181.793726470254
20
-5.68964083846626
30
0
41
1
10
181.934437312172
20
-6.13500129360619
30
0
41
1
10
182.004792733132
20
-6.32388183238461
30
0
41
1
10
182.14550357505
20
-6.63077024856099
30
0
41
1
10
182.21585899601
20
-6.74881599696292
30
0
41
1
10
182.356569837928
20
-6.91733120365831
30
0
41
1
10
182.426925258887
20
-6.96786861914592
30
0
41
1
10
182.514869535086
20
-6.9939378693457
30
0
41
1
10
182.532458390326
20
-6.99730551576374
30
0
41
1
10
182.567636100806
20
-7.000505772174
30
0
41
1
10
182.585224956046
20
-7.00036072503858
30
0
41
1
10
182.637991521765
20
-6.99465903655894
30
0
41
1
10
182.673169232245
20
-6.98375511910479
30
0
41
1
10
182.778702363684
20
-6.92791919503725
30
0
41
1
10
182.849057784643
20
-6.85971858841063
30
0
41
1
10
182.989768626562
20
-6.65439958373219
30
0
41
1
10
183.060124047521
20
-6.51721876039645
30
0
41
1
10
183.200834889439
20
-6.17223326708057
30
0
41
1
10
183.271190310399
20
-5.96440310440292
30
0
41
1
10
183.411901152317
20
-5.48323623871758
30
0
41
1
10
183.482256573277
20
-5.2099284130758
30
0
41
1
10
183.622967415195
20
-4.60974728787201
30
0
41
1
10
183.693322836155
20
-4.2829534557778
30
0
41
1
10
183.834033678073
20
-3.59290124058717
30
0
41
1
10
183.904389099032
20
-3.22974713166027
30
0
41
1
10
184.045099940951
20
-2.48636288271209
30
0
41
1
10
184.11545536191
20
-2.10622765720743
30
0
41
1
10
184.256166203829
20
-1.34743870976146
30
0
41
1
10
184.326521624788
20
-0.968845701813081
30
0
41
1
10
184.432054756227
20
-0.413550815376197
30
0
41
1
10
184.467232466707
20
-0.23052070740448
30
0
41
1
10
184.511204604806
20
-0.0052523430693441
30
0
41
1
10
184.519999032426
20
0.0395995510419596
30
0
41
1
10
184.537587887666
20
0.129883912617316
30
0
41
1
10
184.563971170526
20
0.265827858093672
30
0
41
1
10
184.590354453385
20
0.403227144199974
30
0
41
1
10
184.678298729584
20
0.863986417962167
30
0
41
1
10
184.748654150544
20
1.24159426784078
30
0
41
1
10
184.889364992462
20
1.99999733376612
30
0
41
1
10
184.959720413422
20
2.38073564436465
30
0
41
1
10
185.10043125534
20
3.12713038882006
30
0
41
1
10
185.1707866763
20
3.49269430178242
30
0
41
1
10
185.311497518218
20
4.18932679399643
30
0
41
1
10
185.381852939177
20
4.52029055276287
30
0
41
1
10
185.452208360137
20
4.82526139376077
30
0
0
SPLINE
5
E8
100
AcDbEntity
8
1
62
256
6
ByLayer
370
13
48
1
60
0
100
AcDbSpline
70
4
71
3
72
85
73
81
40
0
40
0
40
0
40
0
40
0.0312500000000022
40
0.0312500000000022
40
0.0625000000000045
40
0.0625000000000045
40
0.0937500000000067
40
0.0937500000000067
40
0.125000000000009
40
0.125000000000009
40
0.156250000000011
40
0.156250000000011
40
0.187500000000013
40
0.187500000000013
40
0.218750000000016
40
0.218750000000016
40
0.250000000000018
40
0.250000000000018
40
0.265625000000019
40
0.265625000000019
40
0.269531250000019
40
0.269531250000019
40
0.273437500000019
40
0.28125000000002
40
0.28125000000002
40
0.31250000000002
40
0.31250000000002
40
0.34375000000002
40
0.34375000000002
40
0.37500000000002
40
0.37500000000002
40
0.406250000000021
40
0.406250000000021
40
0.437500000000021
40
0.437500000000021
40
0.468750000000021
40
0.468750000000021
40
0.500000000000022
40
0.500000000000022
40
0.531250000000022
40
0.531250000000022
40
0.539062500000022
40
0.539062500000022
40
0.546875000000022
40
0.546875000000022
40
0.562500000000021
40
0.562500000000021
40
0.593750000000021
40
0.593750000000021
40
0.62500000000002
40
0.62500000000002
40
0.65625000000002
40
0.65625000000002
40
0.687500000000019
40
0.687500000000019
40
0.718750000000018
40
0.718750000000018
40
0.750000000000018
40
0.750000000000018
40
0.781250000000017
40
0.781250000000017
40
0.796875000000017
40
0.796875000000017
40
0.800781250000016
40
0.800781250000016
40
0.804687500000016
40
0.804687500000016
40
0.812500000000016
40
0.812500000000016
40
0.843750000000013
40
0.843750000000013
40
0.875000000000011
40
0.875000000000011
40
0.906250000000008
40
0.906250000000008
40
0.937500000000005
40
0.937500000000005
40
0.968750000000003
40
0.968750000000003
40
1
40
1
40
1
40
1
41
1
10
178.199044167828
20
7
30
0
41
1
10
178.274597961498
20
7
30
0
41
1
10
178.350151755168
20
6.96792717316873
30
0
41
1
10
178.501259342507
20
6.82824939162177
30
0
41
1
10
178.576813136177
20
6.72054229379094
30
0
41
1
10
178.727920723517
20
6.42365358370333
30
0
41
1
10
178.803474517187
20
6.23440570314833
30
0
41
1
10
178.954582104527
20
5.77682425039734
30
0
41
1
10
179.030135898197
20
5.50849849596239
30
0
41
1
10
179.181243485536
20
4.90448959735244
30
0
41
1
10
179.256797279206
20
4.56889796277181
30
0
41
1
10
179.407904866546
20
3.8499327325429
30
0
41
1
10
179.483458660216
20
3.46670301893505
30
0
41
1
10
179.634566247556
20
2.67619624857122
30
0
41
1
10
179.710120041226
20
2.26906047892811
30
0
41
1
10
179.861227628565
20
1.45413955901665
30
0
41
1
10
179.936781422235
20
1.046447829361
30
0
41
1
10
180.05011211274
20
0.448965284180275
30
0
41
1
10
180.087889009575
20
0.252106986425332
30
0
41
1
10
180.135110130619
20
0.0100805082944078
30
0
41
1
10
180.144554354827
20
-0.0380716242901258
30
0
41
1
10
180.163442803245
20
-0.135036767360788
30
0
41
1
10
180.191775475871
20
-0.28108064960773
30
0
41
1
10
180.220108148497
20
-0.428792926908358
30
0
41
1
10
180.314550390584
20
-0.924285235443932
30
0
41
1
10
180.390104184254
20
-1.33087038447323
30
0
41
1
10
180.541211771594
20
-2.14575008049351
30
0
41
1
10
180.616765565264
20
-2.55395739718023
30
0
41
1
10
180.767873152604
20
-3.34904835319978
30
0
41
1
10
180.843426946274
20
-3.73579390713567
30
0
41
1
10
180.994534533613
20
-4.46407496009212
30
0
41
1
10
181.070088327283
20
-4.80546424180093
30
0
41
1
10
181.221195914623
20
-5.42274890059772
30
0
41
1
10
181.296749708293
20
-5.69854543905657
30
0
41
1
10
181.447857295633
20
-6.17184921910635
30
0
41
1
10
181.523411089303
20
-6.36933996271185
30
0
41
1
10
181.674518676643
20
-6.68255547687329
30
0
41
1
10
181.750072470312
20
-6.79834050600272
30
0
41
1
10
181.901180057652
20
-6.95327009844706
30
0
41
1
10
181.976733851322
20
-6.99251517145808
30
0
41
1
10
182.071176093409
20
-7.00064537227306
30
0
41
1
10
182.090064541827
20
-7.00026476544002
30
0
41
1
10
182.127841438662
20
-6.99543262508641
30
0
41
1
10
182.146729887079
20
-6.99096109365624
30
0
41
1
10
182.203395232332
20
-6.97109174823143
30
0
41
1
10
182.241172129167
20
-6.94922996287869
30
0
41
1
10
182.354502819671
20
-6.85577284014084
30
0
41
1
10
182.430056613341
20
-6.75608117685087
30
0
41
1
10
182.581164200681
20
-6.47548048706952
30
0
41
1
10
182.656717994351
20
-6.29449959678732
30
0
41
1
10
182.807825581691
20
-5.85278596960313
30
0
41
1
10
182.883379375361
20
-5.59205248051816
30
0
41
1
10
183.0344869627
20
-5.00164410978334
30
0
41
1
10
183.11004075637
20
-4.67205307376446
30
0
41
1
10
183.26114834371
20
-3.96285258463524
30
0
41
1
10
183.33670213738
20
-3.58338408724339
30
0
41
1
10
183.48780972472
20
-2.79794804843928
30
0
41
1
10
183.56336351839
20
-2.39212451623109
30
0
41
1
10
183.714471105729
20
-1.57760136293871
30
0
41
1
10
183.790024899399
20
-1.16900120943126
30
0
41
1
10
183.903355589904
20
-0.568877937636415
30
0
41
1
10
183.941132486739
20
-0.37092806369742
30
0
41
1
10
183.988353607783
20
-0.127320463418556
30
0
41
1
10
183.997797831991
20
-0.0787895109165504
30
0
41
1
10
184.016686280409
20
0.0178645719203701
30
0
41
1
10
184.026130504617
20
0.066108216905036
30
0
41
1
10
184.054463177244
20
0.211784791976584
30
0
41
1
10
184.073351625661
20
0.309688337112846
30
0
41
1
10
184.167793867749
20
0.802569239930079
30
0
41
1
10
184.243347661419
20
1.207855330846
30
0
41
1
10
184.394455248758
20
2.02226337573782
30
0
41
1
10
184.470009042428
20
2.43130439776021
30
0
41
1
10
184.621116629768
20
3.23049423730635
30
0
41
1
10
184.696670423438
20
3.62050862249419
30
0
41
1
10
184.847778010778
20
4.35764861181391
30
0
41
1
10
184.923331804447
20
4.70462625986383
30
0
41
1
10
185.074439391787
20
5.33484614475768
30
0
41
1
10
185.149993185457
20
5.61798258860026
30
0
41
1
10
185.301100772797
20
6.10684401912033
30
0
41
1
10
185.376654566467
20
6.31254376080167
30
0
41
1
10
185.452208360137
20
6.47732561778622
30
0
0
SPLINE
5
E9
100
AcDbEntity
8
1
62
256
6
ByLayer
370
13
48
1
60
0
100
AcDbSpline
70
4
71
3
72
70
73
66
40
0
40
0
40
0
40
0
40
0.03125
40
0.03125
40
0.0625
40
0.0625
40
0.09375
40
0.09375
40
0.125
40
0.125
40
0.15625
40
0.15625
40
0.1875
40
0.1875
40
0.21875
40
0.21875
40
0.25
40
0.25
40
0.28125
40
0.28125
40
0.3125
40
0.3125
40
0.34375
40
0.34375
40
0.375
40
0.375
40
0.40625
40
0.40625
40
0.4375
40
0.4375
40
0.46875
40
0.46875
40
0.5
40
0.5
40
0.53125
40
0.53125
40
0.5625
40
0.5625
40
0.59375
40
0.59375
40
0.625
40
0.625
40
0.65625
40
0.65625
40
0.6875
40
0.6875
40
0.71875
40
0.71875
40
0.75
40
0.75
40
0.78125
40
0.78125
40
0.8125
40
0.8125
40
0.84375
40
0.84375
40
0.875
40
0.875
40
0.90625
40
0.90625
40
0.9375
40
0.9375
40
0.96875
40
0.96875
40
1
40
1
40
1
40
1
41
1
10
177.70000038761
20
7
30
0
41
1
10
177.780752553991
20
7
30
0
41
1
10
177.861504720371
20
6.96333157279776
30
0
41
1
10
178.023009053133
20
6.80294360909249
30
0
41
1
10
178.103761219513
20
6.67908350125512
30
0
41
1
10
178.265265552274
20
6.33795281595812
30
0
41
1
10
178.346017718654
20
6.12060175034441
30
0
41
1
10
178.507522051415
20
5.59733564218647
30
0
41
1
10
178.588274217796
20
5.29145639737396
30
0
41
1
10
178.749778550557
20
4.60803894928819
30
0
41
1
10
178.830530716937
20
4.23065459997207
30
0
41
1
10
178.992035049698
20
3.43028254769899
30
0
41
1
10
179.072787216079
20
3.00750265464441
30
0
41
1
10
179.23429154884
20
2.14582405473257
30
0
41
1
10
179.31504371522
20
1.70710000498991
30
0
41
1
10
179.476548047981
20
0.840383638832293
30
0
41
1
10
179.557300214362
20
0.41247944212418
30
0
41
1
10
179.718804547122
20
-0.412478452174696
30
0
41
1
10
179.799556713503
20
-0.84038260699765
30
0
41
1
10
179.961061046264
20
-1.70709895670529
30
0
41
1
10
180.041813212644
20
-2.14582300779637
30
0
41
1
10
180.203317545405
20
-3.00750163355193
30
0
41
1
10
180.284069711786
20
-3.43028155115687
30
0
41
1
10
180.445574044547
20
-4.23065367562114
30
0
41
1
10
180.526326210927
20
-4.60803807257102
30
0
41
1
10
180.687830543688
20
-5.29145563388909
30
0
41
1
10
180.768582710069
20
-5.59733494422423
30
0
41
1
10
180.93008704283
20
-6.1206011924678
30
0
41
1
10
181.01083920921
20
-6.33795233254122
30
0
41
1
10
181.172343541971
20
-6.67908316595819
30
0
41
1
10
181.253095708352
20
-6.80294334738088
30
0
41
1
10
181.414600041113
20
-6.96333144957808
30
0
41
1
10
181.495352207493
20
-6.9999999416666
30
0
41
1
10
181.656856540254
20
-7.00000005833326
30
0
41
1
10
181.737608706634
20
-6.96333169601729
30
0
41
1
10
181.899113039396
20
-6.80294387080392
30
0
41
1
10
181.979865205776
20
-6.67908383655185
30
0
41
1
10
182.141369538537
20
-6.33795329937485
30
0
41
1
10
182.222121704917
20
-6.12060230822084
30
0
41
1
10
182.383626037678
20
-5.59733634014853
30
0
41
1
10
182.464378204059
20
-5.29145716085867
30
0
41
1
10
182.62588253682
20
-4.60803982600524
30
0
41
1
10
182.7066347032
20
-4.23065552432286
30
0
41
1
10
182.868139035961
20
-3.43028354424106
30
0
41
1
10
182.948891202342
20
-3.00750367573684
30
0
41
1
10
183.110395535103
20
-2.14582510166878
30
0
41
1
10
183.191147701483
20
-1.70710105327456
30
0
41
1
10
183.352652034244
20
-0.840384670666992
30
0
41
1
10
183.433404200625
20
-0.412480456236125
30
0
41
1
10
183.594908533386
20
0.412477486387616
30
0
41
1
10
183.675660699766
20
0.840381575163036
30
0
41
1
10
183.837165032527
20
1.70709790842068
30
0
41
1
10
183.917917198907
20
2.14582196086013
30
0
41
1
10
184.079421531668
20
3.00750061245938
30
0
41
1
10
184.160173698049
20
3.43028055461465
30
0
41
1
10
184.32167803081
20
4.23065275127013
30
0
41
1
10
184.40243019719
20
4.60803719585374
30
0
41
1
10
184.563934529951
20
5.2914548704041
30
0
41
1
10
184.644686696332
20
5.59733424626185
30
0
41
1
10
184.806191029093
20
6.12060063459103
30
0
41
1
10
184.886943195473
20
6.33795184912412
30
0
41
1
10
185.048447528234
20
6.67908283066109
30
0
41
1
10
185.129199694615
20
6.80294308566911
30
0
41
1
10
185.290704027376
20
6.96333132635823
30
0
41
1
10
185.371456193756
20
6.99999988333303
30
0
41
1
10
185.452208360136
20
6.99999999999972
30
0
0
SPLINE
5
EA
100
AcDbEntity
8
1
62
256
6
ByLayer
370
13
48
1
60
0
100
AcDbSpline
70
4
71
3
72
85
73
81
40
0
40
0
40
0
40
0
40
0.0312500000000027
40
0.0312500000000027
40
0.0625000000000053
40
0.0625000000000053
40
0.093750000000008
40
0.093750000000008
40
0.125000000000011
40
0.125000000000011
40
0.156250000000013
40
0.156250000000013
40
0.187500000000016
40
0.187500000000016
40
0.195312500000016
40
0.195312500000016
40
0.199218750000016
40
0.199218750000016
40
0.203125000000017
40
0.203125000000017
40
0.218750000000016
40
0.218750000000016
40
0.250000000000015
40
0.250000000000015
40
0.281250000000013
40
0.281250000000013
40
0.312500000000012
40
0.312500000000012
40
0.34375000000001
40
0.34375000000001
40
0.375000000000009
40
0.375000000000009
40
0.406250000000007
40
0.406250000000007
40
0.437500000000006
40
0.437500000000006
40
0.453125000000005
40
0.453125000000005
40
0.460937500000005
40
0.460937500000005
40
0.468750000000005
40
0.468750000000005
40
0.500000000000004
40
0.500000000000004
40
0.531250000000004
40
0.531250000000004
40
0.562500000000004
40
0.562500000000004
40
0.593750000000004
40
0.593750000000004
40
0.625000000000003
40
0.625000000000003
40
0.656250000000003
40
0.656250000000003
40
0.687500000000003
40
0.687500000000003
40
0.718750000000003
40
0.718750000000003
40
0.726562500000003
40
0.730468750000002
40
0.730468750000002
40
0.734375000000002
40
0.734375000000002
40
0.750000000000002
40
0.750000000000002
40
0.781250000000002
40
0.781250000000002
40
0.812500000000002
40
0.812500000000002
40
0.843750000000001
40
0.843750000000001
40
0.875000000000001
40
0.875000000000001
40
0.906250000000001
40
0.906250000000001
40
0.937500000000001
40
0.937500000000001
40
0.96875
40
0.96875
40
1
40
1
40
1
40
1
41
1
10
177.7
20
6.4773273085315
30
0
41
1
10
177.775553801745
20
6.31254571120536
30
0
41
1
10
177.85110760349
20
6.1068462207698
30
0
41
1
10
178.002215206981
20
5.61798524616918
30
0
41
1
10
178.077769008726
20
5.33484900672582
30
0
41
1
10
178.228876612216
20
4.70462946012543
30
0
41
1
10
178.304430413961
20
4.35765194581114
30
0
41
1
10
178.455538017451
20
3.62051214285941
30
0
41
1
10
178.531091819196
20
3.23049781033816
30
0
41
1
10
178.682199422686
20
2.43130799981469
30
0
41
1
10
178.757753224431
20
2.02226695433461
30
0
41
1
10
178.908860827922
20
1.20785880283174
30
0
41
1
10
178.984414629667
20
0.802572628987036
30
0
41
1
10
179.078856881848
20
0.309691598833553
30
0
41
1
10
179.097745332284
20
0.211788027049664
30
0
41
1
10
179.126078007939
20
0.0661114104881904
30
0
41
1
10
179.135522233157
20
0.0178677447576661
30
0
41
1
10
179.154410683593
20
-0.0787863305439771
30
0
41
1
10
179.163854908811
20
-0.127317279606132
30
0
41
1
10
179.211076034902
20
-0.370924864384847
30
0
41
1
10
179.248852935775
20
-0.568874731371409
30
0
41
1
10
179.362183638392
20
-1.16899800075285
30
0
41
1
10
179.437737440137
20
-1.57759817749152
30
0
41
1
10
179.588845043628
20
-2.39212143360803
30
0
41
1
10
179.664398845373
20
-2.79794504550782
30
0
41
1
10
179.815506448863
20
-3.58338129778383
30
0
41
1
10
179.891060250608
20
-3.96284992893982
30
0
41
1
10
180.042167854098
20
-4.67205072668509
30
0
41
1
10
180.117721655843
20
-5.00164193740611
30
0
41
1
10
180.268829259334
20
-5.59205067740152
30
0
41
1
10
180.344383061079
20
-5.85278436082643
30
0
41
1
10
180.495490664569
20
-6.29449837293217
30
0
41
1
10
180.571044466314
20
-6.47547945361609
30
0
41
1
10
180.722152069804
20
-6.75608050083324
30
0
41
1
10
180.797705871549
20
-6.85577233108691
30
0
41
1
10
180.911036574167
20
-6.94922967801358
30
0
41
1
10
180.948813475039
20
-6.97109153378773
30
0
41
1
10
181.005478826348
20
-6.99096097789504
30
0
41
1
10
181.024367276784
20
-6.99543254106504
30
0
41
1
10
181.062144177657
20
-7.0002647425533
30
0
41
1
10
181.081032628093
20
-7.00064537831045
30
0
41
1
10
181.175474880275
20
-6.99251532457441
30
0
41
1
10
181.25102868202
20
-6.95327037409632
30
0
41
1
10
181.40213628551
20
-6.79834102518146
30
0
41
1
10
181.477690087255
20
-6.68255611696392
30
0
41
1
10
181.628797690745
20
-6.36934082906703
30
0
41
1
10
181.70435149249
20
-6.17185019068367
30
0
41
1
10
181.855459095981
20
-5.69854659212771
30
0
41
1
10
181.931012897726
20
-5.42275012982003
30
0
41
1
10
182.082120501216
20
-4.80546558562699
30
0
41
1
10
182.157674302961
20
-4.46407634232472
30
0
41
1
10
182.308781906451
20
-3.73579532710483
30
0
41
1
10
182.384335708196
20
-3.34904977255056
30
0
41
1
10
182.535443311686
20
-2.55395878215649
30
0
41
1
10
182.610997113432
20
-2.14575143182694
30
0
41
1
10
182.762104716922
20
-1.33087164597893
30
0
41
1
10
182.837658518667
20
-0.924286440877495
30
0
41
1
10
182.932100770848
20
-0.428794055426721
30
0
41
1
10
182.960433446503
20
-0.281081754536842
30
0
41
1
10
182.988766122157
20
-0.135037848114422
30
0
41
1
10
183.007654572593
20
-0.038072688816186
30
0
41
1
10
183.017098797811
20
0.0100794506379316
30
0
41
1
10
183.064319923902
20
0.252105940004327
30
0
41
1
10
183.102096824775
20
0.448964248968878
30
0
41
1
10
183.215427527392
20
1.04644683454461
30
0
41
1
10
183.290981329138
20
1.45413860027111
30
0
41
1
10
183.442088932628
20
2.26905960859375
30
0
41
1
10
183.517642734373
20
2.67619543057285
30
0
41
1
10
183.668750337863
20
3.46670231611966
30
0
41
1
10
183.744304139608
20
3.84993209251826
30
0
41
1
10
183.895411743098
20
4.56889745014743
30
0
41
1
10
183.970965544843
20
4.90448914924727
30
0
41
1
10
184.122073148334
20
5.50849816938722
30
0
41
1
10
184.197626950079
20
5.77682398075265
30
0
41
1
10
184.348734553569
20
6.23440553263475
30
0
41
1
10
184.424288355314
20
6.4236534553587
30
0
41
1
10
184.575395958804
20
6.72054223174612
30
0
41
1
10
184.650949760549
20
6.82824935373051
30
0
41
1
10
184.80205736404
20
6.96792716627354
30
0
41
1
10
184.877611165784
20
7
30
0
41
1
10
184.95316496753
20
7
30
0
0
SPLINE
5
EB
100
AcDbEntity
8
1
62
256
6
ByLayer
370
13
48
1
60
0
100
AcDbSpline
70
4
71
3
72
85
73
81
40
0
40
0
40
0
40
0
40
0.0312499999999995
40
0.0312499999999995
40
0.0624999999999991
40
0.0624999999999991
40
0.0937499999999987
40
0.0937499999999987
40
0.124999999999998
40
0.124999999999998
40
0.132812499999998
40
0.136718749999998
40
0.136718749999998
40
0.140624999999998
40
0.140624999999998
40
0.156249999999999
40
0.156249999999999
40
0.1875
40
0.1875
40
0.218750000000001
40
0.218750000000001
40
0.250000000000003
40
0.250000000000003
40
0.281250000000004
40
0.281250000000004
40
0.312500000000006
40
0.312500000000006
40
0.343750000000007
40
0.343750000000007
40
0.375000000000008
40
0.375000000000008
40
0.40625000000001
40
0.40625000000001
40
0.421875000000011
40
0.421875000000011
40
0.429687500000011
40
0.429687500000011
40
0.437500000000011
40
0.437500000000011
40
0.468750000000011
40
0.468750000000011
40
0.50000000000001
40
0.50000000000001
40
0.53125000000001
40
0.53125000000001
40
0.56250000000001
40
0.56250000000001
40
0.593750000000009
40
0.593750000000009
40
0.625000000000009
40
0.625000000000009
40
0.656250000000009
40
0.656250000000009
40
0.687500000000008
40
0.687500000000008
40
0.703125000000008
40
0.703125000000008
40
0.710937500000007
40
0.710937500000007
40
0.714843750000007
40
0.714843750000007
40
0.718750000000007
40
0.718750000000007
40
0.750000000000006
40
0.750000000000006
40
0.781250000000006
40
0.781250000000006
40
0.812500000000005
40
0.812500000000005
40
0.843750000000004
40
0.843750000000004
40
0.875000000000003
40
0.875000000000003
40
0.906250000000002
40
0.906250000000002
40
0.937500000000002
40
0.937500000000002
40
0.968750000000001
40
0.968750000000001
40
1
40
1
40
1
40
1
41
1
10
177.7
20
4.8252647541226
30
0
41
1
10
177.770355429035
20
4.52029406789657
30
0
41
1
10
177.840710858069
20
4.18933042947347
30
0
41
1
10
177.981421716138
20
3.49269810237124
30
0
41
1
10
178.051777145173
20
3.12713423422218
30
0
41
1
10
178.192488003242
20
2.38073950919866
30
0
41
1
10
178.262843432276
20
2.00000117336401
30
0
41
1
10
178.403554290345
20
1.24159800138256
30
0
41
1
10
178.473909719379
20
0.86399007085339
30
0
41
1
10
178.561854005673
20
0.403230673299163
30
0
41
1
10
178.588237291561
20
0.265831348336746
30
0
41
1
10
178.614620577449
20
0.129887361756119
30
0
41
1
10
178.632209434707
20
0.0396029723143556
30
0
41
1
10
178.641003863337
20
-0.0052489337908526
30
0
41
1
10
178.684976006483
20
-0.230517279737228
30
0
41
1
10
178.720153721
20
-0.413547377913375
30
0
41
1
10
178.825686864552
20
-0.968842251614433
30
0
41
1
10
178.896042293587
20
-1.34743527345481
30
0
41
1
10
179.036753151656
20
-2.10622430034812
30
0
41
1
10
179.10710858069
20
-2.48635959149453
30
0
41
1
10
179.247819438759
20
-3.22974402359543
30
0
41
1
10
179.318174867794
20
-3.59289825004947
30
0
41
1
10
179.458885725863
20
-4.28295074373872
30
0
41
1
10
179.529241154897
20
-4.60974473672425
30
0
41
1
10
179.669952012966
20
-5.20992621100095
30
0
41
1
10
179.740307442001
20
-5.48323422467178
30
0
41
1
10
179.88101830007
20
-5.964401473458
30
0
41
1
10
179.951373729104
20
-6.17223183104798
30
0
41
1
10
180.092084587173
20
-6.51721770184452
30
0
41
1
10
180.162440016208
20
-6.65439870764646
30
0
41
1
10
180.303150874276
20
-6.85971805053558
30
0
41
1
10
180.373506303311
20
-6.92791881288687
30
0
41
1
10
180.479039446863
20
-6.98375494488309
30
0
41
1
10
180.51421716138
20
-6.99465892742518
30
0
41
1
10
180.566983733156
20
-7.00036070696368
30
0
41
1
10
180.584572590415
20
-7.00050578296577
30
0
41
1
10
180.619750304932
20
-6.9973055854137
30
0
41
1
10
180.637339162191
20
-6.99393796869785
30
0
41
1
10
180.725283448484
20
-6.96786886804247
30
0
41
1
10
180.795638877518
20
-6.9173315756068
30
0
41
1
10
180.936349735587
20
-6.74881661144283
30
0
41
1
10
181.006705164622
20
-6.63077098244898
30
0
41
1
10
181.147416022691
20
-6.32388278924191
30
0
41
1
10
181.217771451725
20
-6.13500235392468
30
0
41
1
10
181.358482309794
20
-5.68964207842768
30
0
41
1
10
181.428837738829
20
-5.43317570901908
30
0
41
1
10
181.569548596898
20
-4.86283106295363
30
0
41
1
10
181.639904025932
20
-4.54902030765186
30
0
41
1
10
181.780614884001
20
-3.87993656576606
30
0
41
1
10
181.850970313036
20
-3.52476449449171
30
0
41
1
10
181.991681171105
20
-2.79204354153774
30
0
41
1
10
182.062036600139
20
-2.41459522706441
30
0
41
1
10
182.202747458208
20
-1.65638656651205
30
0
41
1
10
182.273102887243
20
-1.27569765447089
30
0
41
1
10
182.378636030794
20
-0.714454296659596
30
0
41
1
10
182.413813745312
20
-0.528977078685074
30
0
41
1
10
182.466580317088
20
-0.254402589156314
30
0
41
1
10
182.484169174346
20
-0.163482485408252
30
0
41
1
10
182.510552460234
20
-0.0281439673049135
30
0
41
1
10
182.519346888864
20
0.0166926083728356
30
0
41
1
10
182.536935746122
20
0.106859269628558
30
0
41
1
10
182.545730174751
20
0.152116967990622
30
0
41
1
10
182.624880032415
20
0.560907606594355
30
0
41
1
10
182.69523546145
20
0.934920975529309
30
0
41
1
10
182.835946319519
20
1.69056743395421
30
0
41
1
10
182.906301748553
20
2.07215486831876
30
0
41
1
10
183.047012606622
20
2.82543107176176
30
0
41
1
10
183.117368035657
20
3.19703541717948
30
0
41
1
10
183.258078893726
20
3.91095895652262
30
0
41
1
10
183.32843432276
20
4.25317348473899
30
0
41
1
10
183.469145180829
20
4.88998943623085
30
0
41
1
10
183.539500609864
20
5.18449852318463
30
0
41
1
10
183.680211467933
20
5.71172254239443
30
0
41
1
10
183.750566896967
20
5.94438841621363
30
0
41
1
10
183.891277755036
20
6.34012127788895
30
0
41
1
10
183.961633184071
20
6.5031950429248
30
0
41
1
10
184.10234404214
20
6.75897516274208
30
0
41
1
10
184.172699471174
20
6.8517333779921
30
0
41
1
10
184.313410329243
20
6.97220964208148
30
0
41
1
10
184.383765758278
20
7
30
0
41
1
10
184.454121187312
20
7
30
0
0
SPLINE
5
EC
100
AcDbEntity
8
1
62
256
6
ByLayer
370
13
48
1
60
0
100
AcDbSpline
70
4
71
3
72
85
73
81
40
0
40
0
40
0
40
0
40
0.0312499999999986
40
0.0312499999999986
40
0.0624999999999972
40
0.0624999999999972
40
0.0703124999999969
40
0.0703124999999969
40
0.0781249999999967
40
0.0781249999999967
40
0.0937499999999962
40
0.0937499999999962
40
0.124999999999996
40
0.124999999999996
40
0.156249999999995
40
0.156249999999995
40
0.187499999999995
40
0.187499999999995
40
0.218749999999994
40
0.218749999999994
40
0.249999999999994
40
0.249999999999994
40
0.281249999999993
40
0.281249999999993
40
0.312499999999993
40
0.312499999999993
40
0.343749999999992
40
0.343749999999992
40
0.374999999999992
40
0.374999999999992
40
0.378906249999992
40
0.378906249999992
40
0.382812499999992
40
0.382812499999992
40
0.390624999999992
40
0.390624999999992
40
0.406249999999992
40
0.406249999999992
40
0.437499999999993
40
0.437499999999993
40
0.468749999999993
40
0.468749999999993
40
0.499999999999993
40
0.499999999999993
40
0.531249999999994
40
0.531249999999994
40
0.562499999999994
40
0.562499999999994
40
0.593749999999995
40
0.593749999999995
40
0.624999999999995
40
0.624999999999995
40
0.656249999999995
40
0.656249999999995
40
0.687499999999996
40
0.687499999999996
40
0.691406249999996
40
0.691406249999996
40
0.695312499999996
40
0.703124999999996
40
0.703124999999996
40
0.718749999999997
40
0.718749999999997
40
0.749999999999997
40
0.749999999999997
40
0.781249999999997
40
0.781249999999997
40
0.812499999999998
40
0.812499999999998
40
0.843749999999998
40
0.843749999999998
40
0.874999999999998
40
0.874999999999998
40
0.906249999999999
40
0.906249999999999
40
0.937499999999999
40
0.937499999999999
40
0.96875
40
0.96875
40
1
40
1
40
1
40
1
41
1
10
177.7
20
2.34338432232011
30
0
41
1
10
177.765157056324
20
1.99377582435929
30
0
41
1
10
177.830314112648
20
1.64065616596514
30
0
41
1
10
177.960628225296
20
0.941107377556904
30
0
41
1
10
178.02578528162
20
0.594708800001939
30
0
41
1
10
178.107231602025
20
0.172755150988536
30
0
41
1
10
178.123520866105
20
0.0889087679991007
30
0
41
1
10
178.156099394267
20
-0.0775569044616304
30
0
41
1
10
178.172388658348
20
-0.161296419013297
30
0
41
1
10
178.221256450591
20
-0.414319801328588
30
0
41
1
10
178.253834978753
20
-0.585199064486744
30
0
41
1
10
178.351570563239
20
-1.10253835040342
30
0
41
1
10
178.416727619563
20
-1.45378751862333
30
0
41
1
10
178.547041732211
20
-2.15659982802387
30
0
41
1
10
178.612198788535
20
-2.50811967804151
30
0
41
1
10
178.742512901182
20
-3.19673621509443
30
0
41
1
10
178.807669957506
20
-3.53376820591623
30
0
41
1
10
178.937984070154
20
-4.17801589611071
30
0
41
1
10
179.003141126478
20
-4.48516006226831
30
0
41
1
10
179.133455239126
20
-5.0556916976856
30
0
41
1
10
179.19861229545
20
-5.31902088464417
30
0
41
1
10
179.328926408098
20
-5.79146124753962
30
0
41
1
10
179.394083464422
20
-6.00054405944627
30
0
41
1
10
179.524397577069
20
-6.35886571155382
30
0
41
1
10
179.589554633393
20
-6.50811155701189
30
0
41
1
10
179.719868746041
20
-6.74629740114096
30
0
41
1
10
179.785025802365
20
-6.83527261770672
30
0
41
1
10
179.915339915013
20
-6.9569481447503
30
0
41
1
10
179.980496971337
20
-6.98969735875872
30
0
41
1
10
180.053798659701
20
-6.9989369594521
30
0
41
1
10
180.061943291742
20
-6.99958165102794
30
0
41
1
10
180.078232555823
20
-7.00012329313239
30
0
41
1
10
180.086377187863
20
-7.00002266480541
30
0
41
1
10
180.110811083984
20
-6.99859666974285
30
0
41
1
10
180.127100348066
20
-6.99614144928555
30
0
41
1
10
180.175968140308
20
-6.98407240381158
30
0
41
1
10
180.20854666847
20
-6.96975063369004
30
0
41
1
10
180.306282252956
20
-6.90658093149835
30
0
41
1
10
180.37143930928
20
-6.83741798605087
30
0
41
1
10
180.501753421928
20
-6.63979634223503
30
0
41
1
10
180.566910478252
20
-6.51129598533919
30
0
41
1
10
180.6972245909
20
-6.19376484490394
30
0
41
1
10
180.762381647224
20
-6.00471610913428
30
0
41
1
10
180.892695759871
20
-5.56986758342956
30
0
41
1
10
180.957852816195
20
-5.32408403149131
30
0
41
1
10
181.088166928843
20
-4.78461691873073
30
0
41
1
10
181.153323985167
20
-4.4909828650556
30
0
41
1
10
181.283638097815
20
-3.86873460332046
30
0
41
1
10
181.348795154139
20
-3.54018970046613
30
0
41
1
10
181.479109266787
20
-2.86326377050369
30
0
41
1
10
181.54426632311
20
-2.51495183823906
30
0
41
1
10
181.674580435758
20
-1.81370485940505
30
0
41
1
10
181.739737492082
20
-1.46082143872158
30
0
41
1
10
181.87005160473
20
-0.763842428753009
30
0
41
1
10
181.935208661054
20
-0.419772917124845
30
0
41
1
10
182.008510349418
20
-0.0435001240943791
30
0
41
1
10
182.016654981459
20
-0.0019421910456572
30
0
41
1
10
182.03294424554
20
0.0814565824691158
30
0
41
1
10
182.057378141661
20
0.207007602809057
30
0
41
1
10
182.081812037782
20
0.333841637082969
30
0
41
1
10
182.130679830026
20
0.589000328378745
30
0
41
1
10
182.163258358188
20
0.761099938719582
30
0
41
1
10
182.260993942673
20
1.28138587165168
30
0
41
1
10
182.326150998997
20
1.63364134765098
30
0
41
1
10
182.456465111645
20
2.33608035280534
30
0
41
1
10
182.521622167969
20
2.68621633282228
30
0
41
1
10
182.651936280617
20
3.36943283435568
30
0
41
1
10
182.717093336941
20
3.70244622113896
30
0
41
1
10
182.847407449589
20
4.33611740065933
30
0
41
1
10
182.912564505912
20
4.6367044689745
30
0
41
1
10
183.04287861856
20
5.1920440324227
30
0
41
1
10
183.108035674884
20
5.44674240329567
30
0
41
1
10
183.238349787532
20
5.9005973696797
30
0
41
1
10
183.303506843856
20
6.0997316179232
30
0
41
1
10
183.433820956504
20
6.43771949572394
30
0
41
1
10
183.498978012828
20
6.5765857414647
30
0
41
1
10
183.629292125475
20
6.79441260940393
30
0
41
1
10
183.694449181799
20
6.87341189731382
30
0
41
1
10
183.824763294447
20
6.97618074524999
30
0
41
1
10
183.889920350771
20
7
30
0
41
1
10
183.955077407095
20
7
30
0
0
SPLINE
5
ED
100
AcDbEntity
8
1
62
256
6
ByLayer
370
13
48
1
60
0
100
AcDbSpline
70
4
71
3
72
78
73
74
40
0
40
0
40
0
40
0
40
0.0312500000000004
40
0.0312500000000004
40
0.0625000000000007
40
0.0625000000000007
40
0.0937500000000011
40
0.0937500000000011
40
0.125000000000001
40
0.125000000000001
40
0.156250000000002
40
0.156250000000002
40
0.187500000000002
40
0.187500000000002
40
0.218750000000002
40
0.218750000000002
40
0.250000000000003
40
0.250000000000003
40
0.281250000000003
40
0.281250000000003
40
0.312500000000004
40
0.312500000000004
40
0.320312500000003
40
0.320312500000003
40
0.328125000000003
40
0.328125000000003
40
0.343750000000003
40
0.343750000000003
40
0.375000000000003
40
0.375000000000003
40
0.406250000000003
40
0.406250000000003
40
0.437500000000003
40
0.437500000000003
40
0.468750000000003
40
0.468750000000003
40
0.500000000000003
40
0.500000000000003
40
0.531250000000003
40
0.531250000000003
40
0.562500000000002
40
0.562500000000002
40
0.593750000000002
40
0.593750000000002
40
0.625000000000002
40
0.625000000000002
40
0.656250000000002
40
0.656250000000002
40
0.664062500000002
40
0.664062500000002
40
0.671875000000002
40
0.671875000000002
40
0.687500000000002
40
0.687500000000002
40
0.718750000000002
40
0.718750000000002
40
0.750000000000001
40
0.750000000000001
40
0.781250000000001
40
0.781250000000001
40
0.812500000000001
40
0.812500000000001
40
0.843750000000001
40
0.843750000000001
40
0.875000000000001
40
0.875000000000001
40
0.906250000000001
40
0.906250000000001
40
0.9375
40
0.9375
40
0.96875
40
0.96875
40
1
40
1
40
1
40
1
41
1
10
177.7
20
-0.299382134654451
30
0
41
1
10
177.759958683613
20
-0.610673244688002
30
0
41
1
10
177.819917367227
20
-0.929263882151872
30
0
41
1
10
177.939834734453
20
-1.57252917851042
30
0
41
1
10
177.999793418067
20
-1.89718434328839
30
0
41
1
10
178.119710785293
20
-2.54199134248762
30
0
41
1
10
178.179669468906
20
-2.86210826943099
30
0
41
1
10
178.299586836133
20
-3.48600731730104
30
0
41
1
10
178.359545519746
20
-3.78974394431077
30
0
41
1
10
178.479462886973
20
-4.36903701344289
30
0
41
1
10
178.539421570586
20
-4.6445469871795
30
0
41
1
10
178.659338937813
20
-5.15694787622257
30
0
41
1
10
178.719297621426
20
-5.3938027231068
30
0
41
1
10
178.839214988653
20
-5.82114272853124
30
0
41
1
10
178.899173672266
20
-6.01161086988563
30
0
41
1
10
179.019091039493
20
-6.3419401896252
30
0
41
1
10
179.079049723106
20
-6.48180590644495
30
0
41
1
10
179.198967090333
20
-6.7103966927813
30
0
41
1
10
179.258925773946
20
-6.79914382578295
30
0
41
1
10
179.378843141173
20
-6.92824735800642
30
0
41
1
10
179.438801824786
20
-6.96863532412237
30
0
41
1
10
179.513750179302
20
-6.99212352619668
30
0
41
1
10
179.528739850206
20
-6.9954759102815
30
0
41
1
10
179.558719192013
20
-6.99958666093943
30
0
41
1
10
179.573708862916
20
-7.00034819484767
30
0
41
1
10
179.618677875626
20
-6.9988725435133
30
0
41
1
10
179.648657217432
20
-6.99282076745243
30
0
41
1
10
179.738595242852
20
-6.95829758630882
30
0
41
1
10
179.798553926466
20
-6.9133914549509
30
0
41
1
10
179.918471293692
20
-6.77485925090005
30
0
41
1
10
179.978429977306
20
-6.68120214849253
30
0
41
1
10
180.098347344532
20
-6.44268544400214
30
0
41
1
10
180.158306028146
20
-6.29780517064242
30
0
41
1
10
180.278223395372
20
-5.95769088996568
30
0
41
1
10
180.338182078986
20
-5.76245436154895
30
0
41
1
10
180.458099446212
20
-5.32618322722701
30
0
41
1
10
180.518058129826
20
-5.08516771935868
30
0
41
1
10
180.637975497052
20
-4.56536010870596
30
0
41
1
10
180.697934180665
20
-4.28660554661835
30
0
41
1
10
180.817851547892
20
-3.70193847685061
30
0
41
1
10
180.877810231505
20
-3.39607284778325
30
0
41
1
10
180.997727598732
20
-2.76909353278168
30
0
41
1
10
181.057686282345
20
-2.44802466953277
30
0
41
1
10
181.177603649572
20
-1.80242036078295
30
0
41
1
10
181.237562333185
20
-1.47791844367555
30
0
41
1
10
181.357479700412
20
-0.835893771322532
30
0
41
1
10
181.417438384025
20
-0.518388951529289
30
0
41
1
10
181.492386738542
20
-0.131073933325183
30
0
41
1
10
181.507376409445
20
-0.0542567685813822
30
0
41
1
10
181.537355751252
20
0.0990785103035137
30
0
41
1
10
181.552345422155
20
0.17626187991462
30
0
41
1
10
181.597314434865
20
0.409196989359799
30
0
41
1
10
181.627293776672
20
0.566338368385487
30
0
41
1
10
181.717231802092
20
1.04184968123394
30
0
41
1
10
181.777190485705
20
1.36437119268018
30
0
41
1
10
181.897107852931
20
2.01093814690674
30
0
41
1
10
181.957066536545
20
2.33495689386848
30
0
41
1
10
182.076983903771
20
2.97324022070077
30
0
41
1
10
182.136942587385
20
3.28746419227355
30
0
41
1
10
182.256859954611
20
3.89414972198162
30
0
41
1
10
182.316818638225
20
4.18656395365159
30
0
41
1
10
182.436736005451
20
4.73824356519128
30
0
41
1
10
182.496694689065
20
4.99746581930177
30
0
41
1
10
182.616612056291
20
5.47339800443245
30
0
41
1
10
182.676570739904
20
5.69007971064426
30
0
41
1
10
182.796488107131
20
6.07469953916825
30
0
41
1
10
182.856446790744
20
6.24263048302447
30
0
41
1
10
182.976364157971
20
6.5271986204051
30
0
41
1
10
183.036322841584
20
6.6438490809474
30
0
41
1
10
183.156240208811
20
6.82688709141016
30
0
41
1
10
183.216198892424
20
6.89330209005695
30
0
41
1
10
183.336116259651
20
6.97984204014276
30
0
41
1
10
183.396074943264
20
7
30
0
41
1
10
183.456033626878
20
7
30
0
0
SPLINE
5
EE
100
AcDbEntity
8
1
62
256
6
ByLayer
370
13
48
1
60
0
100
AcDbSpline
70
4
71
3
72
77
73
73
40
0
40
0
40
0
40
0
40
0.0312499999999999
40
0.0312499999999999
40
0.0624999999999997
40
0.0624999999999997
40
0.0937499999999996
40
0.0937499999999996
40
0.125
40
0.125
40
0.156249999999999
40
0.156249999999999
40
0.187499999999999
40
0.187499999999999
40
0.218749999999999
40
0.218749999999999
40
0.249999999999999
40
0.249999999999999
40
0.257812499999999
40
0.257812499999999
40
0.265624999999999
40
0.265624999999999
40
0.281249999999999
40
0.281249999999999
40
0.312499999999997
40
0.312499999999997
40
0.343749999999996
40
0.343749999999996
40
0.374999999999995
40
0.374999999999995
40
0.406249999999994
40
0.406249999999994
40
0.437499999999993
40
0.437499999999993
40
0.468749999999992
40
0.468749999999992
40
0.499999999999991
40
0.499999999999991
40
0.53124999999999
40
0.53124999999999
40
0.562499999999988
40
0.562499999999988
40
0.593749999999987
40
0.593749999999987
40
0.624999999999986
40
0.624999999999986
40
0.632812499999986
40
0.632812499999986
40
0.640624999999987
40
0.656249999999987
40
0.656249999999987
40
0.687499999999988
40
0.687499999999988
40
0.718749999999989
40
0.718749999999989
40
0.74999999999999
40
0.74999999999999
40
0.781249999999992
40
0.781249999999992
40
0.812499999999993
40
0.812499999999993
40
0.843749999999994
40
0.843749999999994
40
0.874999999999995
40
0.874999999999995
40
0.906249999999996
40
0.906249999999996
40
0.937499999999998
40
0.937499999999998
40
0.968749999999999
40
0.968749999999999
40
1
40
1
40
1
40
1
41
1
10
177.7
20
-2.96172577897039
30
0
41
1
10
177.754760310903
20
-3.24972669317842
30
0
41
1
10
177.809520621805
20
-3.53201554678392
30
0
41
1
10
177.919041243611
20
-4.07610540702402
30
0
41
1
10
177.973801554514
20
-4.33787624345408
30
0
41
1
10
178.083322176319
20
-4.83248111382929
30
0
41
1
10
178.138082487222
20
-5.06528871828223
30
0
41
1
10
178.247603109027
20
-5.49506163438036
30
0
41
1
10
178.30236341993
20
-5.69200975087733
30
0
41
1
10
178.411884041735
20
-6.04537584172905
30
0
41
1
10
178.466644352638
20
-6.20178892813004
30
0
41
1
10
178.576164974443
20
-6.47195494335656
30
0
41
1
10
178.630925285346
20
-6.5857150444227
30
0
41
1
10
178.740445907151
20
-6.77096452359504
30
0
41
1
10
178.795206218054
20
-6.84247003217658
30
0
41
1
10
178.90472683986
20
-6.94575550607362
30
0
41
1
10
178.959487150762
20
-6.9775560371944
30
0
41
1
10
179.027937539391
20
-6.9950609620476
30
0
41
1
10
179.041627617116
20
-6.99745264636553
30
0
41
1
10
179.069007772568
20
-7.00009199821278
30
0
41
1
10
179.082697850294
20
-7.00034660716113
30
0
41
1
10
179.123768083471
20
-6.99795688475916
30
0
41
1
10
179.151148238922
20
-6.99211151561823
30
0
41
1
10
179.233288705276
20
-6.9609349276534
30
0
41
1
10
179.288049016178
20
-6.92191795474165
30
0
41
1
10
179.397569637984
20
-6.8035778190266
30
0
41
1
10
179.452329948887
20
-6.72423456994179
30
0
41
1
10
179.561850570692
20
-6.52305366242857
30
0
41
1
10
179.616610881595
20
-6.40120123777135
30
0
41
1
10
179.7261315034
20
-6.11504927485333
30
0
41
1
10
179.780891814303
20
-5.95074467360561
30
0
41
1
10
179.890412436108
20
-5.58228475176438
30
0
41
1
10
179.945172747011
20
-5.37813672525849
30
0
41
1
10
180.054693368816
20
-4.93510979720782
30
0
41
1
10
180.109453679719
20
-4.69625016263973
30
0
41
1
10
180.218974301525
20
-4.19104007384715
30
0
41
1
10
180.273734612427
20
-3.92471722108783
30
0
41
1
10
180.383255234233
20
-3.37322097583771
30
0
41
1
10
180.438015545136
20
-3.08807776424197
30
0
41
1
10
180.547536166941
20
-2.50809106116401
30
0
41
1
10
180.602296477844
20
-2.21327442885459
30
0
41
1
10
180.711817099649
20
-1.6227234307147
30
0
41
1
10
180.766577410552
20
-1.32700837769306
30
0
41
1
10
180.876098032357
20
-0.742368558852235
30
0
41
1
10
180.93085834326
20
-0.453453900046782
30
0
41
1
10
180.999308731888
20
-0.100422129546359
30
0
41
1
10
181.012998809614
20
-0.0304522276960597
30
0
41
1
10
181.040378965065
20
0.109729409335813
30
0
41
1
10
181.081449198242
20
0.321280906377467
30
0
41
1
10
181.122519431419
20
0.536309154950033
30
0
41
1
10
181.204659897773
20
0.969893378661794
30
0
41
1
10
181.259420208676
20
1.26369912458435
30
0
41
1
10
181.368940830482
20
1.85371184535953
30
0
41
1
10
181.423701141384
20
2.14990318977536
30
0
41
1
10
181.53322176319
20
2.73628590658498
30
0
41
1
10
181.587982074092
20
3.02645310915921
30
0
41
1
10
181.697502695898
20
3.59169795147318
30
0
41
1
10
181.7522630068
20
3.86674610768858
30
0
41
1
10
181.861783628606
20
4.39279480958874
30
0
41
1
10
181.916543939509
20
4.64376595789247
30
0
41
1
10
182.026064561314
20
5.11373991209885
30
0
41
1
10
182.080824872217
20
5.33271947336513
30
0
41
1
10
182.190345494022
20
5.73263971034382
30
0
41
1
10
182.245105804925
20
5.91356799485447
30
0
41
1
10
182.35462642673
20
6.23371587195712
30
0
41
1
10
182.409386737633
20
6.37293568402748
30
0
41
1
10
182.518907359438
20
6.60858371973464
30
0
41
1
10
182.573667670341
20
6.70502324157044
30
0
41
1
10
182.683188292147
20
6.85643314194354
30
0
41
1
10
182.737948603049
20
6.91142201819983
30
0
41
1
10
182.847469224855
20
6.98319491243058
30
0
41
1
10
182.902229535757
20
7
30
0
41
1
10
182.95698984666
20
7
30
0
0
SPLINE
5
EF
100
AcDbEntity
8
1
62
256
6
ByLayer
370
13
48
1
60
0
100
AcDbSpline
70
4
71
3
72
78
73
74
40
0
40
0
40
0
40
0
40
0.03125
40
0.03125
40
0.0625
40
0.0625
40
0.09375
40
0.09375
40
0.125
40
0.125
40
0.15625
40
0.15625
40
0.171875
40
0.171875
40
0.1796875
40
0.1796875
40
0.187500000000001
40
0.187500000000001
40
0.218750000000001
40
0.218750000000001
40
0.250000000000001
40
0.250000000000001
40
0.281250000000001
40
0.281250000000001
40
0.312500000000001
40
0.312500000000001
40
0.343750000000001
40
0.343750000000001
40
0.375000000000001
40
0.375000000000001
40
0.406250000000001
40
0.406250000000001
40
0.437500000000001
40
0.437500000000001
40
0.468750000000001
40
0.468750000000001
40
0.500000000000001
40
0.500000000000001
40
0.531250000000001
40
0.531250000000001
40
0.562500000000001
40
0.562500000000001
40
0.578125000000001
40
0.578125000000001
40
0.5859375
40
0.5859375
40
0.59375
40
0.59375
40
0.625
40
0.625
40
0.65625
40
0.65625
40
0.6875
40
0.6875
40
0.71875
40
0.71875
40
0.75
40
0.75
40
0.78125
40
0.78125
40
0.8125
40
0.8125
40
0.84375
40
0.84375
40
0.875
40
0.875
40
0.90625
40
0.90625
40
0.9375
40
0.9375
40
0.96875
40
0.96875
40
1
40
1
40
1
40
1
41
1
10
177.7
20
-5.30443221833102
30
0
41
1
10
177.749561938192
20
-5.49769701807222
30
0
41
1
10
177.799123876384
20
-5.6761928339815
30
0
41
1
10
177.898247752768
20
-6.00017783907484
30
0
41
1
10
177.947809690961
20
-6.14566361752821
30
0
41
1
10
178.046933567345
20
-6.40184992864863
30
0
41
1
10
178.096495505537
20
-6.51255380472634
30
0
41
1
10
178.195619381921
20
-6.69910755856085
30
0
41
1
10
178.245181320113
20
-6.7749661515542
30
0
41
1
10
178.344305196497
20
-6.89328313586333
30
0
41
1
10
178.39386713469
20
-6.93575344098582
30
0
41
1
10
178.468210041978
20
-6.97640226843356
30
0
41
1
10
178.492991011074
20
-6.98611733877783
30
0
41
1
10
178.530162464718
20
-6.99524698386199
30
0
41
1
10
178.542552949266
20
-6.99738340241777
30
0
41
1
10
178.567333918362
20
-6.99989798286026
30
0
41
1
10
178.57972440291
20
-7.00027935472892
30
0
41
1
10
178.64167682565
20
-6.99789613066264
30
0
41
1
10
178.691238763842
20
-6.98210168340643
30
0
41
1
10
178.790362640227
20
-6.91937106404805
30
0
41
1
10
178.839924578419
20
-6.872422068822
30
0
41
1
10
178.939048454803
20
-6.74486634921334
30
0
41
1
10
178.988610392995
20
-6.66424801266734
30
0
41
1
10
179.087734269379
20
-6.46808645583533
30
0
41
1
10
179.137296207571
20
-6.35253514385698
30
0
41
1
10
179.236420083955
20
-6.08679400525807
30
0
41
1
10
179.285982022148
20
-5.93660171207816
30
0
41
1
10
179.385105898532
20
-5.60358453326594
30
0
41
1
10
179.434667836724
20
-5.42076402906798
30
0
41
1
10
179.533791713108
20
-5.02619076078307
30
0
41
1
10
179.5833536513
20
-4.81444904892274
30
0
41
1
10
179.682477527685
20
-4.36719440382461
30
0
41
1
10
179.732039465877
20
-4.13169751988141
30
0
41
1
10
179.831163342261
20
-3.64313990199992
30
0
41
1
10
179.880725280453
20
-3.39009746398006
30
0
41
1
10
179.979849156837
20
-2.87317585938857
30
0
41
1
10
180.029411095029
20
-2.60931418997888
30
0
41
1
10
180.128534971413
20
-2.0774523748882
30
0
41
1
10
180.178096909606
20
-1.80946640462386
30
0
41
1
10
180.27722078599
20
-1.27554127347741
30
0
41
1
10
180.326782724182
20
-1.00961150479807
30
0
41
1
10
180.40112563147
20
-0.616237634507769
30
0
41
1
10
180.425906600566
20
-0.486025482016288
30
0
41
1
10
180.46307805421
20
-0.292498598210187
30
0
41
1
10
180.475468538758
20
-0.228287656701497
30
0
41
1
10
180.500249507854
20
-0.100525707965602
30
0
41
1
10
180.512639992402
20
-0.0371304843288556
30
0
41
1
10
180.574592415142
20
0.279808617509559
30
0
41
1
10
180.624154353334
20
0.539031002725352
30
0
41
1
10
180.723278229719
20
1.06451210105178
30
0
41
1
10
180.772840167911
20
1.33076614890461
30
0
41
1
10
180.871964044295
20
1.86493792068313
30
0
41
1
10
180.921525982487
20
2.13284590003522
30
0
41
1
10
181.020649858872
20
2.66410106089845
30
0
41
1
10
181.070211797064
20
2.92743377668305
30
0
41
1
10
181.169335673448
20
3.44282779565523
30
0
41
1
10
181.21889761164
20
3.69487145548271
30
0
41
1
10
181.318021488024
20
4.18097943916462
30
0
41
1
10
181.367583426216
20
4.41502552292135
30
0
41
1
10
181.4667073026
20
4.85898223873738
30
0
41
1
10
181.516269240793
20
5.06887708683107
30
0
41
1
10
181.615393117177
20
5.4594493497747
30
0
41
1
10
181.664955055369
20
5.64011613542988
30
0
41
1
10
181.764078931753
20
5.96863037172
30
0
41
1
10
181.813640869945
20
6.11647392613119
30
0
41
1
10
181.912764746329
20
6.37744255293069
30
0
41
1
10
181.962326684522
20
6.49057053353079
30
0
41
1
10
182.061450560906
20
6.68192525791036
30
0
41
1
10
182.111012499098
20
6.76016041040521
30
0
41
1
10
182.210136375482
20
6.88308719137035
30
0
41
1
10
182.259698313674
20
6.92779058842888
30
0
41
1
10
182.358822190059
20
6.98624057863233
30
0
41
1
10
182.408384128251
20
7
30
0
41
1
10
182.457946066443
20
7
30
0
0
SPLINE
5
F0
100
AcDbEntity
8
1
62
256
6
ByLayer
370
13
48
1
60
0
100
AcDbSpline
70
4
71
3
72
10
73
6
40
0
40
0
40
0
40
0
40
0.5
40
0.5
40
1
40
1
40
1
40
1
41
1
10
185.185657090871
20
7
30
0
41
1
10
185.230082302416
20
7
30
0
41
1
10
185.27450751396
20
6.98894939870527
30
0
41
1
10
185.363357937048
20
6.94226400475731
30
0
41
1
10
185.407783148592
20
6.90662178463742
30
0
41
1
10
185.452208360136
20
6.85769976026677
30
0
0
SPLINE
5
F1
100
AcDbEntity
8
1
62
256
6
ByLayer
370
13
48
1
60
0
100
AcDbSpline
70
4
71
3
72
78
73
74
40
0
40
0
40
0
40
0
40
0.0312500000000013
40
0.0312500000000013
40
0.0625000000000026
40
0.0625000000000026
40
0.0781250000000029
40
0.0781250000000029
40
0.0859375000000027
40
0.0859375000000027
40
0.0937500000000026
40
0.0937500000000026
40
0.125000000000001
40
0.125000000000001
40
0.15625
40
0.15625
40
0.187499999999998
40
0.187499999999998
40
0.218749999999997
40
0.218749999999997
40
0.249999999999995
40
0.249999999999995
40
0.281249999999994
40
0.281249999999994
40
0.312499999999992
40
0.312499999999992
40
0.343749999999991
40
0.343749999999991
40
0.374999999999989
40
0.374999999999989
40
0.406249999999988
40
0.406249999999988
40
0.437499999999986
40
0.437499999999986
40
0.468749999999985
40
0.468749999999985
40
0.499999999999983
40
0.499999999999983
40
0.531249999999982
40
0.531249999999982
40
0.539062499999982
40
0.539062499999982
40
0.546874999999981
40
0.546874999999981
40
0.562499999999982
40
0.562499999999982
40
0.593749999999983
40
0.593749999999983
40
0.624999999999984
40
0.624999999999984
40
0.656249999999986
40
0.656249999999986
40
0.687499999999987
40
0.687499999999987
40
0.718749999999988
40
0.718749999999988
40
0.74999999999999
40
0.74999999999999
40
0.781249999999991
40
0.781249999999991
40
0.812499999999992
40
0.812499999999992
40
0.843749999999994
40
0.843749999999994
40
0.874999999999995
40
0.874999999999995
40
0.906249999999996
40
0.906249999999996
40
0.937499999999997
40
0.937499999999997
40
0.968749999999999
40
0.968749999999999
40
1
40
1
40
1
40
1
41
1
10
177.7
20
-6.69895781267164
30
0
41
1
10
177.744363565482
20
-6.77142711674429
30
0
41
1
10
177.788727130963
20
-6.83009303672685
30
0
41
1
10
177.877454261926
20
-6.92113738861568
30
0
41
1
10
177.921817827408
20
-6.95352292894449
30
0
41
1
10
177.98836317563
20
-6.98391879897429
30
0
41
1
10
178.010544958371
20
-6.9910252299766
30
0
41
1
10
178.043817632482
20
-6.99737381051341
30
0
41
1
10
178.054908523852
20
-6.99877171132553
30
0
41
1
10
178.077090306593
20
-7.00017113150889
30
0
41
1
10
178.088181197963
20
-7.00017779323949
30
0
41
1
10
178.143635654815
20
-6.99674736386785
30
0
41
1
10
178.187999220297
20
-6.9828188143633
30
0
41
1
10
178.27672635126
20
-6.93017264221234
30
0
41
1
10
178.321089916741
20
-6.89144763753853
30
0
41
1
10
178.409817047704
20
-6.78731969879698
30
0
41
1
10
178.454180613186
20
-6.72190987186144
30
0
41
1
10
178.542907744149
20
-6.56328703035885
30
0
41
1
10
178.58727130963
20
-6.47006866937696
30
0
41
1
10
178.675998440593
20
-6.25565490482293
30
0
41
1
10
178.720362006075
20
-6.13445673513661
30
0
41
1
10
178.809089137038
20
-5.86498647949568
30
0
41
1
10
178.853452702519
20
-5.71671496692497
30
0
41
1
10
178.942179833482
20
-5.39511358900975
30
0
41
1
10
178.986543398964
20
-5.22178789009493
30
0
41
1
10
179.075270529927
20
-4.85313544924264
30
0
41
1
10
179.119634095408
20
-4.65781609119711
30
0
41
1
10
179.208361226371
20
-4.24910004501217
30
0
41
1
10
179.252724791853
20
-4.03571299746687
30
0
41
1
10
179.341451922816
20
-3.59539208446588
30
0
41
1
10
179.385815488298
20
-3.36846878013279
30
0
41
1
10
179.47454261926
20
-2.90590420689742
30
0
41
1
10
179.518906184742
20
-2.67027301552372
30
0
41
1
10
179.607633315705
20
-2.19510489547272
30
0
41
1
10
179.651996881187
20
-1.95557638960915
30
0
41
1
10
179.74072401215
20
-1.47712750728468
30
0
41
1
10
179.785087577631
20
-1.23821316301579
30
0
41
1
10
179.873814708594
20
-0.76498887601673
30
0
41
1
10
179.918178274076
20
-0.530682334647906
30
0
41
1
10
179.973632730928
20
-0.242762337810376
30
0
41
1
10
179.984723622298
20
-0.185424778913102
30
0
41
1
10
180.006905405039
20
-0.0712876045232349
30
0
41
1
10
180.017996296409
20
-0.0146653157941046
30
0
41
1
10
180.05126897052
20
0.155709510880627
30
0
41
1
10
180.073450753261
20
0.270413377803493
30
0
41
1
10
180.139996101483
20
0.617346359891201
30
0
41
1
10
180.184359666965
20
0.852418375394279
30
0
41
1
10
180.273086797928
20
1.32671324539325
30
0
41
1
10
180.317450363409
20
1.56593237556703
30
0
41
1
10
180.406177494372
20
2.04445706154729
30
0
41
1
10
180.450541059854
20
2.28375626635798
30
0
41
1
10
180.539268190817
20
2.75788159604642
30
0
41
1
10
180.583631756298
20
2.99269904337305
30
0
41
1
10
180.672358887261
20
3.45303334761655
30
0
41
1
10
180.716722452743
20
3.67853999644117
30
0
41
1
10
180.805449583706
20
4.11544405759997
30
0
41
1
10
180.849813149187
20
4.32683094488689
30
0
41
1
10
180.93854028015
20
4.73102175894491
30
0
41
1
10
180.982903845632
20
4.92381625689865
30
0
41
1
10
181.071630976595
20
5.28698836371316
30
0
41
1
10
181.115994542077
20
5.45735894531688
30
0
41
1
10
181.20472167304
20
5.77274075688453
30
0
41
1
10
181.249085238521
20
5.91774825789722
30
0
41
1
10
181.337812369484
20
6.18051723951433
30
0
41
1
10
181.382175934966
20
6.29827858588953
30
0
41
1
10
181.470903065929
20
6.50578287087617
30
0
41
1
10
181.51526663141
20
6.59552894419821
30
0
41
1
10
181.603993762373
20
6.74729775137229
30
0
41
1
10
181.648357327855
20
6.80932608189235
30
0
41
1
10
181.737084458818
20
6.90688745831434
30
0
41
1
10
181.781448024299
20
6.94242751298569
30
0
41
1
10
181.870175155262
20
6.98898009580393
30
0
41
1
10
181.914538720744
20
7
30
0
41
1
10
181.958902286225
20
7
30
0
0
SPLINE
5
F2
100
AcDbEntity
8
1
62
256
6
ByLayer
370
13
48
1
60
0
100
AcDbSpline
70
4
71
3
72
14
73
10
40
0
40
0
40
0
40
0
40
0.25
40
0.25
40
0.5
40
0.5
40
0.75
40
0.75
40
1
40
1
40
1
40
1
41
1
10
184.686613310654
20
7
30
0
41
1
10
184.750412898111
20
7
30
0
41
1
10
184.814212485568
20
6.97716666008475
30
0
41
1
10
184.941811660481
20
6.87877769656365
30
0
41
1
10
185.005611247938
20
6.80317725745093
30
0
41
1
10
185.133210422852
20
6.59474026741282
30
0
41
1
10
185.197010010309
20
6.46186818957617
30
0
41
1
10
185.324609185223
20
6.13825516113667
30
0
41
1
10
185.38840877268
20
5.94750104483026
30
0
41
1
10
185.452208360137
20
5.72982636016425
30
0
0
SPLINE
5
F3
100
AcDbEntity
8
1
62
256
6
ByLayer
370
13
48
1
60
0
100
AcDbSpline
70
4
71
3
72
8
73
4
40
0
40
0
40
0
40
0
40
1
40
1
40
1
40
1
41
1
10
185.452208360136
20
-6.4698743105036
30
0
41
1
10
186.301472240091
20
-4.31551895496585
30
0
41
1
10
187.150736120046
20
-2.15888718275957
30
0
41
1
10
188
20
2.274E-13
30
0
0
SPLINE
5
F4
100
AcDbEntity
8
1
62
256
6
ByLayer
370
13
48
1
60
0
100
AcDbSpline
70
4
71
3
72
8
73
4
40
0
40
0
40
0
40
0
40
1
40
1
40
1
40
1
41
1
10
185.452208360136
20
-6.83180909741228
30
0
41
1
10
186.301472240091
20
-4.55583473714276
30
0
41
1
10
187.150736120046
20
-2.27855764545302
30
0
41
1
10
188
20
8.527E-13
30
0
0
SPLINE
5
F5
100
AcDbEntity
8
1
62
256
6
ByLayer
370
13
48
1
60
0
100
AcDbSpline
70
4
71
3
72
8
73
4
40
0
40
0
40
0
40
0
40
1
40
1
40
1
40
1
41
1
10
185.452208360137
20
6.34288359697706
30
0
41
1
10
186.301472240091
20
4.2311037789793
30
0
41
1
10
187.150736120046
20
2.11680238173778
30
0
41
1
10
188
20
5.68E-14
30
0
0
SPLINE
5
F6
100
AcDbEntity
8
1
62
256
6
ByLayer
370
13
48
1
60
0
100
AcDbSpline
70
4
71
3
72
8
73
4
40
0
40
0
40
0
40
0
40
1
40
1
40
1
40
1
41
1
10
185.452208360137
20
1.89336113481198
30
0
41
1
10
186.301472240091
20
1.2679640127844
30
0
41
1
10
187.150736120046
20
0.636841579945383
30
0
41
1
10
188
20
2.84E-14
30
0
0
SPLINE
5
F7
100
AcDbEntity
8
1
62
256
6
ByLayer
370
13
48
1
60
0
100
AcDbSpline
70
4
71
3
72
8
73
4
40
0
40
0
40
0
40
0
40
1
40
1
40
1
40
1
41
1
10
185.452208360136
20
-6.94590400281265
30
0
41
1
10
186.301472240091
20
-4.62986502158563
30
0
41
1
10
187.150736120046
20
-2.31455617352586
30
0
41
1
10
188
20
2.274E-13
30
0
0
SPLINE
5
F8
100
AcDbEntity
8
1
62
256
6
ByLayer
370
13
48
1
60
0
100
AcDbSpline
70
4
71
3
72
8
73
4
40
0
40
0
40
0
40
0
40
1
40
1
40
1
40
1
41
1
10
185.452208360136
20
-6.2458542942606
30
0
41
1
10
186.301472240091
20
-4.16121869127437
30
0
41
1
10
187.150736120046
20
-2.07926050553598
30
0
41
1
10
188
20
7.674E-13
30
0
0
SPLINE
5
F9
100
AcDbEntity
8
1
62
256
6
ByLayer
370
13
48
1
60
0
100
AcDbSpline
70
4
71
3
72
8
73
4
40
0
40
0
40
0
40
0
40
1
40
1
40
1
40
1
41
1
10
185.452208360137
20
4.05555210961151
30
0
41
1
10
186.301472240091
20
2.70854686412153
30
0
41
1
10
187.150736120046
20
1.35669176808275
30
0
41
1
10
188
20
1.421E-13
30
0
0
SPLINE
5
FA
100
AcDbEntity
8
1
62
256
6
ByLayer
370
13
48
1
60
0
100
AcDbSpline
70
4
71
3
72
8
73
4
40
0
40
0
40
0
40
0
40
1
40
1
40
1
40
1
41
1
10
185.452208360137
20
5.74238294333986
30
0
41
1
10
186.301472240091
20
3.83165500803835
30
0
41
1
10
187.150736120046
20
1.9175211440506
30
0
41
1
10
188
20
5.68E-14
30
0
0
SPLINE
5
FB
100
AcDbEntity
8
1
62
256
6
ByLayer
370
13
48
1
60
0
100
AcDbSpline
70
4
71
3
72
8
73
4
40
0
40
0
40
0
40
0
40
1
40
1
40
1
40
1
41
1
10
185.452208360137
20
5.4184238429512
30
0
41
1
10
186.301472240091
20
3.60851881041904
30
0
41
1
10
187.150736120045
20
1.80237167146052
30
0
41
1
10
187.999999999999
20
1.279E-12
30
0
0
SPLINE
5
FC
100
AcDbEntity
8
1
62
256
6
ByLayer
370
13
48
1
60
0
100
AcDbSpline
70
4
71
3
72
8
73
4
40
0
40
0
40
0
40
0
40
1
40
1
40
1
40
1
41
1
10
185.452208360137
20
-1.02489329075198
30
0
41
1
10
186.301472240091
20
-0.689142976362973
30
0
41
1
10
187.150736120045
20
-0.347510764278951
30
0
41
1
10
187.999999999999
20
-2.558E-13
30
0
0
SPLINE
5
FD
100
AcDbEntity
8
1
62
256
6
ByLayer
370
13
48
1
60
0
100
AcDbSpline
70
4
71
3
72
8
73
4
40
0
40
0
40
0
40
0
40
1
40
1
40
1
40
1
41
1
10
185.452208360137
20
4.57980725432932
30
0
41
1
10
186.301472240091
20
3.04870891910403
30
0
41
1
10
187.150736120045
20
1.52210155108827
30
0
41
1
10
187.999999999999
20
1.08E-12
30
0
0
SPLINE
5
FE
100
AcDbEntity
8
1
62
256
6
ByLayer
370
13
48
1
60
0
100
AcDbSpline
70
4
71
3
72
8
73
4
40
0
40
0
40
0
40
0
40
1
40
1
40
1
40
1
41
1
10
185.452208360137
20
6.59575181616788
30
0
41
1
10
186.301472240091
20
4.39517689098699
30
0
41
1
10
187.150736120045
20
2.19658581865227
30
0
41
1
10
187.999999999999
20
1.5348E-12
30
0
0
SPLINE
5
FF
100
AcDbEntity
8
1
62
256
6
ByLayer
370
13
48
1
60
0
100
AcDbSpline
70
4
71
3
72
8
73
4
40
0
40
0
40
0
40
0
40
1
40
1
40
1
40
1
41
1
10
185.452208360137
20
2.52572169121063
30
0
41
1
10
186.301472240091
20
1.67827007944231
30
0
41
1
10
187.150736120045
20
0.836360122526855
30
0
41
1
10
187.999999999999
20
5.969E-13
30
0
0
SPLINE
5
100
100
AcDbEntity
8
1
62
256
6
ByLayer
370
13
48
1
60
0
100
AcDbSpline
70
4
71
3
72
8
73
4
40
0
40
0
40
0
40
0
40
1
40
1
40
1
40
1
41
1
10
185.452208360136
20
-5.189337884309
30
0
41
1
10
186.301472240091
20
-3.46354839222948
30
0
41
1
10
187.150736120046
20
-1.73376347893796
30
0
41
1
10
188
20
6.537E-13
30
0
0
SPLINE
5
101
100
AcDbEntity
8
1
62
256
6
ByLayer
370
13
48
1
60
0
100
AcDbSpline
70
4
71
3
72
8
73
4
40
0
40
0
40
0
40
0
40
1
40
1
40
1
40
1
41
1
10
185.452208360136
20
-6.99206260509246
30
0
41
1
10
186.301472240091
20
-4.66165809357486
30
0
41
1
10
187.150736120046
20
-2.33096299371337
30
0
41
1
10
188
20
-3.979E-13
30
0
0
SPLINE
5
102
100
AcDbEntity
8
1
62
256
6
ByLayer
370
13
48
1
60
0
100
AcDbSpline
70
4
71
3
72
8
73
4
40
0
40
0
40
0
40
0
40
1
40
1
40
1
40
1
41
1
10
185.452208360136
20
-5.91694289169487
30
0
41
1
10
186.301472240091
20
-3.94780508965132
30
0
41
1
10
187.150736120046
20
-1.97548438760177
30
0
41
1
10
188
20
-3.411E-13
30
0
0
SPLINE
5
103
100
AcDbEntity
8
1
62
256
6
ByLayer
370
13
48
1
60
0
100
AcDbSpline
70
4
71
3
72
8
73
4
40
0
40
0
40
0
40
0
40
1
40
1
40
1
40
1
41
1
10
185.452208360137
20
3.01901872500116
30
0
41
1
10
186.301472240091
20
2.01804267507234
30
0
41
1
10
187.150736120046
20
1.01169982807411
30
0
41
1
10
188
20
2.84E-14
30
0
0
SPLINE
5
104
100
AcDbEntity
8
1
62
256
6
ByLayer
370
13
48
1
60
0
100
AcDbSpline
70
4
71
3
72
8
73
4
40
0
40
0
40
0
40
0
40
1
40
1
40
1
40
1
41
1
10
185.452208360136
20
-5.61262929834524
30
0
41
1
10
186.301472240091
20
-3.7382003030514
30
0
41
1
10
187.150736120046
20
-1.86731780196021
30
0
41
1
10
188
20
1.99E-13
30
0
0
SPLINE
5
105
100
AcDbEntity
8
1
62
256
6
ByLayer
370
13
48
1
60
0
100
AcDbSpline
70
4
71
3
72
8
73
4
40
0
40
0
40
0
40
0
40
1
40
1
40
1
40
1
41
1
10
185.452208360137
20
1.37089120911131
30
0
41
1
10
186.301472240091
20
0.908097744321509
30
0
41
1
10
187.150736120045
20
0.451132531127854
30
0
41
1
10
187.999999999999
20
3.126E-13
30
0
0
SPLINE
5
106
100
AcDbEntity
8
1
62
256
6
ByLayer
370
13
48
1
60
0
100
AcDbSpline
70
4
71
3
72
8
73
4
40
0
40
0
40
0
40
0
40
1
40
1
40
1
40
1
41
1
10
185.452208360137
20
3.60599054923716
30
0
41
1
10
186.301472240091
20
2.39889834041114
30
0
41
1
10
187.150736120046
20
1.19689759495375
30
0
41
1
10
188
20
1.99E-13
30
0
0
SPLINE
5
107
100
AcDbEntity
8
1
62
256
6
ByLayer
370
13
48
1
60
0
100
AcDbSpline
70
4
71
3
72
8
73
4
40
0
40
0
40
0
40
0
40
1
40
1
40
1
40
1
41
1
10
185.452208360136
20
-6.69469593490652
30
0
41
1
10
186.301472240091
20
-4.46139408186156
30
0
41
1
10
187.150736120046
20
-2.2298215292933
30
0
41
1
10
188
20
-3.695E-13
30
0
0
SPLINE
5
108
100
AcDbEntity
8
1
62
256
6
ByLayer
370
13
48
1
60
0
100
AcDbSpline
70
4
71
3
72
8
73
4
40
0
40
0
40
0
40
0
40
1
40
1
40
1
40
1
41
1
10
185.452208360136
20
-4.81371433062515
30
0
41
1
10
186.301472240091
20
-3.2048268085334
30
0
41
1
10
187.150736120046
20
-1.60025016183306
30
0
41
1
10
188
20
-2.558E-13
30
0
0
SPLINE
5
109
100
AcDbEntity
8
1
62
256
6
ByLayer
370
13
48
1
60
0
100
AcDbSpline
70
4
71
3
72
8
73
4
40
0
40
0
40
0
40
0
40
1
40
1
40
1
40
1
41
1
10
185.452208360137
20
6.96994205075978
30
0
41
1
10
186.301472240091
20
4.6471783593301
30
0
41
1
10
187.150736120046
20
2.32385680122184
30
0
41
1
10
188
20
-2.84E-14
30
0
0
SPLINE
5
10A
100
AcDbEntity
8
1
62
256
6
ByLayer
370
13
48
1
60
0
100
AcDbSpline
70
4
71
3
72
8
73
4
40
0
40
0
40
0
40
0
40
1
40
1
40
1
40
1
41
1
10
185.452208360137
20
-2.19512154967245
30
0
41
1
10
186.301472240091
20
-1.46905934886669
30
0
41
1
10
187.150736120046
20
-0.737349784692412
30
0
41
1
10
188
20
-1.137E-13
30
0
0
SPLINE
5
10B
100
AcDbEntity
8
1
62
256
6
ByLayer
370
13
48
1
60
0
100
AcDbSpline
70
4
71
3
72
8
73
4
40
0
40
0
40
0
40
0
40
1
40
1
40
1
40
1
41
1
10
185.452208360137
20
4.97236187112557
30
0
41
1
10
186.301472240091
20
3.31909226207782
30
0
41
1
10
187.150736120046
20
1.66163292104437
30
0
41
1
10
188
20
5.68E-14
30
0
0
SPLINE
5
10C
100
AcDbEntity
8
1
62
256
6
ByLayer
370
13
48
1
60
0
100
AcDbSpline
70
4
71
3
72
8
73
4
40
0
40
0
40
0
40
0
40
1
40
1
40
1
40
1
41
1
10
185.452208360136
20
-4.30853885643259
30
0
41
1
10
186.301472240091
20
-2.87704456517446
30
0
41
1
10
187.150736120046
20
-1.44086028000211
30
0
41
1
10
188
20
5.4E-13
30
0
0
SPLINE
5
10D
100
AcDbEntity
8
1
62
256
6
ByLayer
370
13
48
1
60
0
100
AcDbSpline
70
4
71
3
72
8
73
4
40
0
40
0
40
0
40
0
40
1
40
1
40
1
40
1
41
1
10
185.452208360137
20
0.175590759424409
30
0
41
1
10
186.301472240091
20
0.111117529746224
30
0
41
1
10
187.150736120046
20
0.0525870930673875
30
0
41
1
10
188
20
0
30
0
0
SPLINE
5
10E
100
AcDbEntity
8
1
62
256
6
ByLayer
370
13
48
1
60
0
100
AcDbSpline
70
4
71
3
72
8
73
4
40
0
40
0
40
0
40
0
40
1
40
1
40
1
40
1
41
1
10
185.452208360137
20
6.89970739767685
30
0
41
1
10
186.301472240091
20
4.59880221119531
30
0
41
1
10
187.150736120046
20
2.29889228177999
30
0
41
1
10
188
20
3.695E-13
30
0
0
SPLINE
5
10F
100
AcDbEntity
8
1
62
256
6
ByLayer
370
13
48
1
60
0
100
AcDbSpline
70
4
71
3
72
8
73
4
40
0
40
0
40
0
40
0
40
1
40
1
40
1
40
1
41
1
10
185.452208360137
20
6.09708358317948
30
0
41
1
10
186.301472240091
20
4.06180191220719
30
0
41
1
10
187.150736120046
20
2.02943412470285
30
0
41
1
10
188
20
3.411E-13
30
0
0
SPLINE
5
110
100
AcDbEntity
8
1
62
256
6
ByLayer
370
13
48
1
60
0
100
AcDbSpline
70
4
71
3
72
8
73
4
40
0
40
0
40
0
40
0
40
1
40
1
40
1
40
1
41
1
10
185.452208360137
20
6.75613650121201
30
0
41
1
10
186.301472240091
20
4.50564648030886
30
0
41
1
10
187.150736120046
20
2.25359366893952
30
0
41
1
10
188
20
0
30
0
0
SPLINE
5
111
100
AcDbEntity
8
1
62
256
6
ByLayer
370
13
48
1
60
0
100
AcDbSpline
70
4
71
3
72
8
73
4
40
0
40
0
40
0
40
0
40
1
40
1
40
1
40
1
41
1
10
185.452208360137
20
-0.490754843493164
30
0
41
1
10
186.301472240091
20
-0.321239676283255
30
0
41
1
10
187.150736120046
20
-0.157654203933475
30
0
41
1
10
188
20
-2.84E-14
30
0
0
SPLINE
5
112
100
AcDbEntity
8
1
62
256
6
ByLayer
370
13
48
1
60
0
100
AcDbSpline
70
4
71
3
72
8
73
4
40
0
40
0
40
0
40
0
40
1
40
1
40
1
40
1
41
1
10
185.452208360137
20
0.711809784966249
30
0
41
1
10
186.301472240091
20
0.480453888277907
30
0
41
1
10
187.150736120046
20
0.243183183469739
30
0
41
1
10
188
20
0
30
0
0
SPLINE
5
113
100
AcDbEntity
8
1
62
256
6
ByLayer
370
13
48
1
60
0
100
AcDbSpline
70
4
71
3
72
8
73
4
40
0
40
0
40
0
40
0
40
1
40
1
40
1
40
1
41
1
10
185.452208360137
20
-3.3005478043379
30
0
41
1
10
186.301472240091
20
-2.20560774013481
30
0
41
1
10
187.150736120046
20
-1.10542156224321
30
0
41
1
10
188
20
-1.705E-13
30
0
0
SPLINE
5
114
100
AcDbEntity
8
1
62
256
6
ByLayer
370
13
48
1
60
0
100
AcDbSpline
70
4
71
3
72
8
73
4
40
0
40
0
40
0
40
0
40
1
40
1
40
1
40
1
41
1
10
185.452208360137
20
-1.67883193823903
30
0
41
1
10
186.301472240091
20
-1.11344995055808
30
0
41
1
10
187.150736120046
20
-0.553837494439108
30
0
41
1
10
188
20
-2.84E-14
30
0
0
SPLINE
5
115
100
AcDbEntity
8
1
62
256
6
ByLayer
370
13
48
1
60
0
100
AcDbSpline
70
4
71
3
72
8
73
4
40
0
40
0
40
0
40
0
40
1
40
1
40
1
40
1
41
1
10
185.452208360137
20
-2.81734837224545
30
0
41
1
10
186.301472240091
20
-1.87279015964469
30
0
41
1
10
187.150736120046
20
-0.933670993437119
30
0
41
1
10
188
20
-1.421E-13
30
0
0
SPLINE
5
116
100
AcDbEntity
8
1
62
256
6
ByLayer
370
13
48
1
60
0
100
AcDbSpline
70
4
71
3
72
8
73
4
40
0
40
0
40
0
40
0
40
1
40
1
40
1
40
1
41
1
10
185.452208360136
20
-3.8726940947106
30
0
41
1
10
186.301472240091
20
-2.57684388315505
30
0
41
1
10
187.150736120046
20
-1.2859416671788
30
0
41
1
10
188
20
1.421E-13
30
0
0
LINE
5
7D
100
AcDbEntity
8
80
62
256
6
ByLayer
370
18
48
1
60
0
100
AcDbLine
10
0
20
0
30
0
11
-5
21
0
31
0
39
0
210
0
220
0
230
1
0
LINE
5
7E
100
AcDbEntity
8
4
62
256
6
ByLayer
370
18
48
0.05
60
0
100
AcDbLine
10
-5
20
0
30
0
11
193
21
0
31
0
39
0
210
0
220
0
230
1
0
LINE
5
80
100
AcDbEntity
8
81
62
256
6
ByLayer
370
18
48
1
60
0
100
AcDbLine
10
188
20
0
30
0
11
193
21
0
31
0
39
0
210
0
220
0
230
1
0
LINE
5
81
100
AcDbEntity
8
SK4
62
256
6
ByLayer
370
18
48
0.05
60
0
100
AcDbLine
10
-53
20
0
30
0
11
193
21
0
31
0
39
0
210
0
220
0
230
1
0
LINE
5
83
100
AcDbEntity
8
1
62
256
6
ByLayer
370
18
48
1
60
0
100
AcDbLine
10
185.452208
20
7
30
0
11
185.452208
21
6.777734
31
0
39
0
210
0
220
0
230
1
0
LINE
5
84
100
AcDbEntity
8
1
62
256
6
ByLayer
370
18
48
1
60
0
100
AcDbLine
10
185.452208
20
-7
30
0
11
185.452208
21
-0.9983
31
0
39
0
210
0
220
0
230
1
0
LINE
5
85
100
AcDbEntity
8
1
62
256
6
ByLayer
370
18
48
1
60
0
100
AcDbLine
10
15
20
-6.65
30
0
11
15
21
-4.361092
31
0
39
0
210
0
220
0
230
1
0
LINE
5
86
100
AcDbEntity
8
1
62
256
6
ByLayer
370
18
48
1
60
0
100
AcDbLine
10
15
20
4.253315
30
0
11
15
21
6.65
31
0
39
0
210
0
220
0
230
1
0
LINE
5
87
100
AcDbEntity
8
1
62
256
6
ByLayer
370
18
48
1
60
0
100
AcDbLine
10
0
20
-10
30
0
11
0
21
10
31
0
39
0
210
0
220
0
230
1
0
LINE
5
88
100
AcDbEntity
8
1
62
256
6
ByLayer
370
18
48
1
60
0
100
AcDbLine
10
3
20
-10
30
0
11
3
21
10
31
0
39
0
210
0
220
0
230
1
0
LINE
5
89
100
AcDbEntity
8
SK1
62
256
6
ByLayer
370
18
48
1
60
0
100
AcDbLine
10
-48
20
-7
30
0
11
-48
21
7
31
0
39
0
210
0
220
0
230
1
0
LINE
5
8B
100
AcDbEntity
8
SK1
62
256
6
ByLayer
370
18
48
1
60
0
100
AcDbLine
10
-47
20
-8
30
0
11
-47
21
8
31
0
39
0
210
0
220
0
230
1
0
LINE
5
8C
100
AcDbEntity
8
1
62
256
6
ByLayer
370
18
48
1
60
0
100
AcDbLine
10
91.715789
20
6.65
30
0
11
60.108074
21
6.65
31
0
39
0
210
0
220
0
230
1
0
LINE
5
8D
100
AcDbEntity
8
1
62
256
6
ByLayer
370
18
48
1
60
0
100
AcDbLine
10
15
20
-6.65
30
0
11
31.295373
21
-6.65
31
0
39
0
210
0
220
0
230
1
0
LINE
5
8E
100
AcDbEntity
8
1
62
256
6
ByLayer
370
18
48
1
60
0
100
AcDbLine
10
120.525911
20
-6.65
30
0
11
152.135555
21
-6.65
31
0
39
0
210
0
220
0
230
1
0
LINE
5
8F
100
AcDbEntity
8
1
62
256
6
ByLayer
370
18
48
1
60
0
100
AcDbLine
10
152.135555
20
6.65
30
0
11
120.525911
21
6.65
31
0
39
0
210
0
220
0
230
1
0
LINE
5
90
100
AcDbEntity
8
1
62
256
6
ByLayer
370
18
48
1
60
0
100
AcDbLine
10
31.295373
20
6.65
30
0
11
15
21
6.65
31
0
39
0
210
0
220
0
230
1
0
LINE
5
91
100
AcDbEntity
8
1
62
256
6
ByLayer
370
18
48
1
60
0
100
AcDbLine
10
60.108074
20
-6.65
30
0
11
91.715789
21
-6.65
31
0
39
0
210
0
220
0
230
1
0
LINE
5
92
100
AcDbEntity
8
1
62
256
6
ByLayer
370
18
48
1
60
0
100
AcDbLine
10
188
20
0
30
0
11
185.452208
21
7
31
0
39
0
210
0
220
0
230
1
0
LINE
5
93
100
AcDbEntity
8
1
62
256
6
ByLayer
370
18
48
1
60
0
100
AcDbLine
10
185.452208
20
-7
30
0
11
188
21
0
31
0
39
0
210
0
220
0
230
1
0
LINE
5
94
100
AcDbEntity
8
1
62
256
6
ByLayer
370
18
48
1
60
0
100
AcDbLine
10
15
20
6.65
30
0
11
3
21
10
31
0
39
0
210
0
220
0
230
1
0
LINE
5
95
100
AcDbEntity
8
1
62
256
6
ByLayer
370
18
48
1
60
0
100
AcDbLine
10
3
20
-10
30
0
11
15
21
-6.65
31
0
39
0
210
0
220
0
230
1
0
LINE
5
96
100
AcDbEntity
8
1
62
256
6
ByLayer
370
18
48
1
60
0
100
AcDbLine
10
0
20
-10
30
0
11
3
21
-10
31
0
39
0
210
0
220
0
230
1
0
LINE
5
97
100
AcDbEntity
8
1
62
256
6
ByLayer
370
18
48
1
60
0
100
AcDbLine
10
3
20
10
30
0
11
0
21
10
31
0
39
0
210
0
220
0
230
1
0
LINE
5
98
100
AcDbEntity
8
SK1
62
256
6
ByLayer
370
18
48
1
60
0
100
AcDbLine
10
-48
20
-7
30
0
11
-47
21
-8
31
0
39
0
210
0
220
0
230
1
0
LINE
5
99
100
AcDbEntity
8
SK1
62
256
6
ByLayer
370
18
48
1
60
0
100
AcDbLine
10
-47
20
8
30
0
11
-48
21
7
31
0
39
0
210
0
220
0
230
1
0
LINE
5
9A
100
AcDbEntity
8
SK1
62
256
6
ByLayer
370
18
48
1
60
0
100
AcDbLine
10
-47
20
-8
30
0
11
0
21
-8
31
0
39
0
210
0
220
0
230
1
0
LINE
5
9B
100
AcDbEntity
8
SK1
62
256
6
ByLayer
370
18
48
1
60
0
100
AcDbLine
10
0
20
8
30
0
11
-47
21
8
31
0
39
0
210
0
220
0
230
1
0
LINE
5
9C
100
AcDbEntity
8
1
62
256
6
ByLayer
370
18
48
1
60
0
100
AcDbLine
10
188
20
0
30
0
11
185.452208
21
7
31
0
39
0
210
0
220
0
230
1
0
LINE
5
9D
100
AcDbEntity
8
1
62
256
6
ByLayer
370
18
48
1
60
0
100
AcDbLine
10
185.452208
20
-7
30
0
11
188
21
0
31
0
39
0
210
0
220
0
230
1
0
LINE
5
9E
100
AcDbEntity
8
1
62
256
6
ByLayer
370
18
48
1
60
0
100
AcDbLine
10
177.7
20
-7
30
0
11
185.452208
21
-7
31
0
39
0
210
0
220
0
230
1
0
LINE
5
9F
100
AcDbEntity
8
1
62
256
6
ByLayer
370
18
48
1
60
0
100
AcDbLine
10
185.452208
20
7
30
0
11
185.452208
21
-7
31
0
39
0
210
0
220
0
230
1
0
LINE
5
A0
100
AcDbEntity
8
1
62
256
6
ByLayer
370
18
48
1
60
0
100
AcDbLine
10
185.452208
20
7
30
0
11
185.452208
21
-7
31
0
39
0
210
0
220
0
230
1
0
LINE
5
A1
100
AcDbEntity
8
1
62
256
6
ByLayer
370
18
48
1
60
0
100
AcDbLine
10
185.452208
20
7
30
0
11
185.452208
21
-7
31
0
39
0
210
0
220
0
230
1
0
LINE
5
A2
100
AcDbEntity
8
1
62
256
6
ByLayer
370
18
48
1
60
0
100
AcDbLine
10
177.7
20
7
30
0
11
177.7
21
-7
31
0
39
0
210
0
220
0
230
1
0
LINE
5
A3
100
AcDbEntity
8
1
62
256
6
ByLayer
370
18
48
1
60
0
100
AcDbLine
10
177.7
20
7
30
0
11
177.7
21
-7
31
0
39
0
210
0
220
0
230
1
0
LINE
5
A4
100
AcDbEntity
8
1
62
256
6
ByLayer
370
18
48
1
60
0
100
AcDbLine
10
185.452208
20
7
30
0
11
185.452208
21
-7
31
0
39
0
210
0
220
0
230
1
0
LINE
5
A5
100
AcDbEntity
8
1
62
256
6
ByLayer
370
18
48
1
60
0
100
AcDbLine
10
177.7
20
7
30
0
11
177.7
21
-7
31
0
39
0
210
0
220
0
230
1
0
LINE
5
A6
100
AcDbEntity
8
1
62
256
6
ByLayer
370
18
48
1
60
0
100
AcDbLine
10
185.452208
20
7
30
0
11
185.452208
21
-7
31
0
39
0
210
0
220
0
230
1
0
LINE
5
A7
100
AcDbEntity
8
SK2
62
256
6
ByLayer
370
13
48
1
60
0
100
AcDbLine
10
-54.5
20
-8
30
0
11
-54.5
21
36.274683
31
0
39
0
210
0
220
0
230
1
0
LINE
5
A9
100
AcDbEntity
8
SK2
62
256
6
ByLayer
370
13
48
1
60
0
100
AcDbLine
10
-49.5875
20
8
30
0
11
-56.5
21
8
31
0
39
0
210
0
220
0
230
1
0
LINE
5
AA
100
AcDbEntity
8
SK2
62
256
6
ByLayer
370
13
48
1
60
0
100
AcDbLine
10
-49.5875
20
-8
30
0
11
-56.5
21
-8
31
0
39
0
210
0
220
0
230
1
0
LINE
5
AB
100
AcDbEntity
8
1
62
256
6
ByLayer
370
18
48
1
60
1
100
AcDbLine
10
-54.5
20
8
30
0
11
-54.039216
21
4.500002
31
0
39
0
210
0
220
0
230
1
0
LINE
5
AC
100
AcDbEntity
8
1
62
256
6
ByLayer
370
18
48
1
60
1
100
AcDbLine
10
-54.039216
20
4.500002
30
0
11
-54.960784
21
4.499998
31
0
39
0
210
0
220
0
230
1
0
LINE
5
AD
100
AcDbEntity
8
1
62
256
6
ByLayer
370
18
48
1
60
1
100
AcDbLine
10
-54.960784
20
4.499998
30
0
11
-54.5
21
8
31
0
39
0
210
0
220
0
230
1
0
LINE
5
AE
100
AcDbEntity
8
1
62
256
6
ByLayer
370
18
48
1
60
1
100
AcDbLine
10
-54.5
20
-8
30
0
11
-54.960784
21
-4.500002
31
0
39
0
210
0
220
0
230
1
0
LINE
5
AF
100
AcDbEntity
8
1
62
256
6
ByLayer
370
18
48
1
60
1
100
AcDbLine
10
-54.960784
20
-4.500002
30
0
11
-54.039216
21
-4.499998
31
0
39
0
210
0
220
0
230
1
0
LINE
5
B0
100
AcDbEntity
8
1
62
256
6
ByLayer
370
18
48
1
60
1
100
AcDbLine
10
-54.039216
20
-4.499998
30
0
11
-54.5
21
-8
31
0
39
0
210
0
220
0
230
1
0
LINE
5
B1
100
AcDbEntity
8
2
62
256
6
ByLayer
370
13
48
1
60
0
100
AcDbLine
10
195.5
20
-7
30
0
11
195.5
21
35.590569
31
0
39
0
210
0
220
0
230
1
0
LINE
5
B3
100
AcDbEntity
8
2
62
256
6
ByLayer
370
13
48
1
60
0
100
AcDbLine
10
187.039708
20
7
30
0
11
197.5
21
7
31
0
39
0
210
0
220
0
230
1
0
LINE
5
B4
100
AcDbEntity
8
2
62
256
6
ByLayer
370
13
48
1
60
0
100
AcDbLine
10
187.039708
20
-7
30
0
11
197.5
21
-7
31
0
39
0
210
0
220
0
230
1
0
LINE
5
B5
100
AcDbEntity
8
1
62
256
6
ByLayer
370
18
48
1
60
1
100
AcDbLine
10
195.5
20
7
30
0
11
195.960784
21
3.500002
31
0
39
0
210
0
220
0
230
1
0
LINE
5
B6
100
AcDbEntity
8
1
62
256
6
ByLayer
370
18
48
1
60
1
100
AcDbLine
10
195.960784
20
3.500002
30
0
11
195.039216
21
3.499998
31
0
39
0
210
0
220
0
230
1
0
LINE
5
B7
100
AcDbEntity
8
1
62
256
6
ByLayer
370
18
48
1
60
1
100
AcDbLine
10
195.039216
20
3.499998
30
0
11
195.5
21
7
31
0
39
0
210
0
220
0
230
1
0
LINE
5
B8
100
AcDbEntity
8
1
62
256
6
ByLayer
370
18
48
1
60
1
100
AcDbLine
10
195.5
20
-7
30
0
11
195.039216
21
-3.500002
31
0
39
0
210
0
220
0
230
1
0
LINE
5
B9
100
AcDbEntity
8
1
62
256
6
ByLayer
370
18
48
1
60
1
100
AcDbLine
10
195.039216
20
-3.500002
30
0
11
195.960784
21
-3.499998
31
0
39
0
210
0
220
0
230
1
0
LINE
5
BA
100
AcDbEntity
8
1
62
256
6
ByLayer
370
18
48
1
60
1
100
AcDbLine
10
195.960784
20
-3.499998
30
0
11
195.5
21
-7
31
0
39
0
210
0
220
0
230
1
0
LINE
5
BB
100
AcDbEntity
8
SK2
62
256
6
ByLayer
370
13
48
1
60
0
100
AcDbLine
10
188.542957
20
-1.491762
30
0
11
195.182423
21
-19.733545
31
0
39
0
210
0
220
0
230
1
0
LINE
5
BC
100
AcDbEntity
8
SK2
62
256
6
ByLayer
370
13
48
1
60
0
100
AcDbLine
10
188.542957
20
1.491762
30
0
11
195.182423
21
19.733545
31
0
39
0
210
0
220
0
230
1
0
LINE
5
BD
100
AcDbEntity
8
1
62
256
6
ByLayer
370
18
48
1
60
1
100
AcDbLine
10
194.498383
20
-17.85416
30
0
11
197.551575
21
-16.082064
31
0
39
0
210
0
220
0
230
1
0
LINE
5
BE
100
AcDbEntity
8
1
62
256
6
ByLayer
370
18
48
1
60
1
100
AcDbLine
10
197.551575
20
-16.082064
30
0
11
197.906196
21
-16.93267
31
0
39
0
210
0
220
0
230
1
0
LINE
5
BF
100
AcDbEntity
8
1
62
256
6
ByLayer
370
18
48
1
60
1
100
AcDbLine
10
197.906196
20
-16.93267
30
0
11
194.498383
21
-17.85416
31
0
39
0
210
0
220
0
230
1
0
LINE
5
C0
100
AcDbEntity
8
1
62
256
6
ByLayer
370
18
48
1
60
1
100
AcDbLine
10
194.498383
20
17.85416
30
0
11
197.906193
21
16.932671
31
0
39
0
210
0
220
0
230
1
0
LINE
5
C1
100
AcDbEntity
8
1
62
256
6
ByLayer
370
18
48
1
60
1
100
AcDbLine
10
197.906193
20
16.932671
30
0
11
197.551579
21
16.082063
31
0
39
0
210
0
220
0
230
1
0
LINE
5
C2
100
AcDbEntity
8
1
62
256
6
ByLayer
370
18
48
1
60
1
100
AcDbLine
10
197.551579
20
16.082063
30
0
11
194.498383
21
17.85416
31
0
39
0
210
0
220
0
230
1
0
LINE
5
11B
100
AcDbEntity
8
1
62
256
6
ByLayer
370
18
48
1
60
1
100
AcDbLine
10
-54.5
20
8
30
0
11
-54.039216
21
4.500002
31
0
39
0
210
0
220
0
230
1
0
LINE
5
11C
100
AcDbEntity
8
1
62
256
6
ByLayer
370
18
48
1
60
1
100
AcDbLine
10
-54.039216
20
4.500002
30
0
11
-54.960784
21
4.499998
31
0
39
0
210
0
220
0
230
1
0
LINE
5
11D
100
AcDbEntity
8
1
62
256
6
ByLayer
370
18
48
1
60
1
100
AcDbLine
10
-54.960784
20
4.499998
30
0
11
-54.5
21
8
31
0
39
0
210
0
220
0
230
1
0
LINE
5
11F
100
AcDbEntity
8
1
62
256
6
ByLayer
370
18
48
1
60
1
100
AcDbLine
10
-54.5
20
-8
30
0
11
-54.960784
21
-4.500002
31
0
39
0
210
0
220
0
230
1
0
LINE
5
120
100
AcDbEntity
8
1
62
256
6
ByLayer
370
18
48
1
60
1
100
AcDbLine
10
-54.960784
20
-4.500002
30
0
11
-54.039216
21
-4.499998
31
0
39
0
210
0
220
0
230
1
0
LINE
5
121
100
AcDbEntity
8
1
62
256
6
ByLayer
370
18
48
1
60
1
100
AcDbLine
10
-54.039216
20
-4.499998
30
0
11
-54.5
21
-8
31
0
39
0
210
0
220
0
230
1
0
LINE
5
125
100
AcDbEntity
8
1
62
256
6
ByLayer
370
18
48
1
60
1
100
AcDbLine
10
195.5
20
7
30
0
11
195.960784
21
3.500002
31
0
39
0
210
0
220
0
230
1
0
LINE
5
126
100
AcDbEntity
8
1
62
256
6
ByLayer
370
18
48
1
60
1
100
AcDbLine
10
195.960784
20
3.500002
30
0
11
195.039216
21
3.499998
31
0
39
0
210
0
220
0
230
1
0
LINE
5
127
100
AcDbEntity
8
1
62
256
6
ByLayer
370
18
48
1
60
1
100
AcDbLine
10
195.039216
20
3.499998
30
0
11
195.5
21
7
31
0
39
0
210
0
220
0
230
1
0
LINE
5
129
100
AcDbEntity
8
1
62
256
6
ByLayer
370
18
48
1
60
1
100
AcDbLine
10
195.5
20
-7
30
0
11
195.039216
21
-3.500002
31
0
39
0
210
0
220
0
230
1
0
LINE
5
12A
100
AcDbEntity
8
1
62
256
6
ByLayer
370
18
48
1
60
1
100
AcDbLine
10
195.039216
20
-3.500002
30
0
11
195.960784
21
-3.499998
31
0
39
0
210
0
220
0
230
1
0
LINE
5
12B
100
AcDbEntity
8
1
62
256
6
ByLayer
370
18
48
1
60
1
100
AcDbLine
10
195.960784
20
-3.499998
30
0
11
195.5
21
-7
31
0
39
0
210
0
220
0
230
1
0
LINE
5
12E
100
AcDbEntity
8
1
62
256
6
ByLayer
370
18
48
1
60
1
100
AcDbLine
10
194.498383
20
-17.85416
30
0
11
197.551575
21
-16.082064
31
0
39
0
210
0
220
0
230
1
0
LINE
5
12F
100
AcDbEntity
8
1
62
256
6
ByLayer
370
18
48
1
60
1
100
AcDbLine
10
197.551575
20
-16.082064
30
0
11
197.906196
21
-16.93267
31
0
39
0
210
0
220
0
230
1
0
LINE
5
130
100
AcDbEntity
8
1
62
256
6
ByLayer
370
18
48
1
60
1
100
AcDbLine
10
197.906196
20
-16.93267
30
0
11
194.498383
21
-17.85416
31
0
39
0
210
0
220
0
230
1
0
LINE
5
132
100
AcDbEntity
8
1
62
256
6
ByLayer
370
18
48
1
60
1
100
AcDbLine
10
194.498383
20
17.85416
30
0
11
197.906193
21
16.932671
31
0
39
0
210
0
220
0
230
1
0
LINE
5
133
100
AcDbEntity
8
1
62
256
6
ByLayer
370
18
48
1
60
1
100
AcDbLine
10
197.906193
20
16.932671
30
0
11
197.551579
21
16.082063
31
0
39
0
210
0
220
0
230
1
0
LINE
5
134
100
AcDbEntity
8
1
62
256
6
ByLayer
370
18
48
1
60
1
100
AcDbLine
10
197.551579
20
16.082063
30
0
11
194.498383
21
17.85416
31
0
39
0
210
0
220
0
230
1
0
MTEXT
5
117
100
AcDbEntity
8
SK2
62
256
6
ByLayer
370
18
48
1
60
0
100
AcDbMText
10
-55.841114
20
19.658438
30
0
210
0
220
0
230
1
1
%%c
40
3
41
0
44
1.084337
50
90
71
7
72
5
7
iso_b_vert
0
MTEXT
5
11A
100
AcDbEntity
8
SK2
62
256
6
ByLayer
370
18
48
1
60
0
100
AcDbMText
10
-55.841114
20
25.635
30
0
210
0
220
0
230
1
1
\W0.7022;16.000
40
3
41
0
44
1.084337
50
90
71
7
72
5
7
iso_b_vert
0
MTEXT
5
123
100
AcDbEntity
8
2
62
256
6
ByLayer
370
18
48
1
60
0
100
AcDbMText
10
194.158886
20
18.658438
30
0
210
0
220
0
230
1
1
%%c
40
3
41
0
44
1.084337
50
90
71
7
72
5
7
iso_b_vert
0
MTEXT
5
124
100
AcDbEntity
8
2
62
256
6
ByLayer
370
18
48
1
60
0
100
AcDbMText
10
194.158886
20
24.635
30
0
210
0
220
0
230
1
1
\W0.7237;14.000
40
3
41
0
44
1.084337
50
90
71
7
72
5
7
iso_b_vert
0
MTEXT
5
12D
100
AcDbEntity
8
SK2
62
256
6
ByLayer
370
18
48
1
60
0
100
AcDbMText
10
207.909114
20
3.734657
30
0
210
0
220
0
230
1
1
\W0.7071;140%%d
40
3
41
0
44
1.084337
50
270
71
7
72
5
7
iso_b_vert
0
MTEXT
5
136
100
AcDbEntity
8
SK6
62
256
6
ByLayer
370
18
48
1
60
0
100
AcDbMText
10
51.952003
20
-67.114886
30
0
210
0
220
0
230
1
1
\W0.7359;H851214.0
40
3
41
0
44
1.084337
50
0
71
7
72
5
7
iso_b_vert
0
HATCH
5
11E
100
AcDbEntity
8
SK2
62
256
6
ByLayer
370
13
48
1
60
0
100
AcDbHatch
10
0
20
0
30
0
210
0
220
0
230
1
2
ANSI31
70
0
71
0
91
1
92
5
93
3
72
1
10
-54.5
20
8
11
-54.0392162584472
21
4.50000169255318
72
1
10
-54.0392162584472
20
4.50000169255318
11
-54.9607837415528
21
4.49999830744682
72
1
10
-54.9607837415528
20
4.49999830744682
11
-54.5
21
8
97
0
75
0
76
1
52
0
41
0.0062
77
0
78
1
53
45
43
0
44
0
45
-0.0139193969876572
46
0.0139193969876572
79
0
47
0
98
1
10
0
20
0
0
HATCH
5
122
100
AcDbEntity
8
SK2
62
256
6
ByLayer
370
13
48
1
60
0
100
AcDbHatch
10
0
20
0
30
0
210
0
220
0
230
1
2
ANSI31
70
0
71
0
91
1
92
5
93
3
72
1
10
-54.5
20
-8
11
-54.9607837415528
21
-4.50000169255318
72
1
10
-54.9607837415528
20
-4.50000169255318
11
-54.0392162584472
21
-4.49999830744682
72
1
10
-54.0392162584472
20
-4.49999830744682
11
-54.5
21
-8
97
0
75
0
76
1
52
0
41
0.0062
77
0
78
1
53
45
43
0
44
0
45
-0.0139193969876572
46
0.0139193969876572
79
0
47
0
98
1
10
0
20
0
0
HATCH
5
128
100
AcDbEntity
8
2
62
256
6
ByLayer
370
13
48
1
60
0
100
AcDbHatch
10
0
20
0
30
0
210
0
220
0
230
1
2
ANSI31
70
0
71
0
91
1
92
5
93
3
72
1
10
195.5
20
7
11
195.960783741553
21
3.50000169255318
72
1
10
195.960783741553
20
3.50000169255318
11
195.039216258447
21
3.49999830744682
72
1
10
195.039216258447
20
3.49999830744682
11
195.5
21
7
97
0
75
0
76
1
52
0
41
0.0062
77
0
78
1
53
45
43
0
44
0
45
-0.0139193969876572
46
0.0139193969876572
79
0
47
0
98
1
10
0
20
0
0
HATCH
5
12C
100
AcDbEntity
8
2
62
256
6
ByLayer
370
13
48
1
60
0
100
AcDbHatch
10
0
20
0
30
0
210
0
220
0
230
1
2
ANSI31
70
0
71
0
91
1
92
5
93
3
72
1
10
195.5
20
-7
11
195.039216258447
21
-3.50000169255318
72
1
10
195.039216258447
20
-3.50000169255318
11
195.960783741553
21
-3.49999830744682
72
1
10
195.960783741553
20
-3.49999830744682
11
195.5
21
-7
97
0
75
0
76
1
52
0
41
0.0062
77
0
78
1
53
45
43
0
44
0
45
-0.0139193969876572
46
0.0139193969876572
79
0
47
0
98
1
10
0
20
0
0
HATCH
5
131
100
AcDbEntity
8
SK2
62
256
6
ByLayer
370
13
48
1
60
0
100
AcDbHatch
10
0
20
0
30
0
210
0
220
0
230
1
2
ANSI31
70
0
71
0
91
1
92
5
93
3
72
1
10
194.498382723188
20
-17.8541597949323
11
197.551575425693
21
-16.0820638240608
72
1
10
197.551575425693
20
-16.0820638240608
11
197.906195833975
21
-16.9326700737197
72
1
10
197.906195833975
20
-16.9326700737197
11
194.498382723188
21
-17.8541597949323
97
0
75
0
76
1
52
0
41
0.0062
77
0
78
1
53
45
43
0
44
0
45
-0.0139193969876572
46
0.0139193969876572
79
0
47
0
98
1
10
0
20
0
0
HATCH
5
135
100
AcDbEntity
8
SK2
62
256
6
ByLayer
370
13
48
1
60
0
100
AcDbHatch
10
0
20
0
30
0
210
0
220
0
230
1
2
ANSI31
70
0
71
0
91
1
92
5
93
3
72
1
10
194.498382723188
20
17.8541597949323
11
197.906192709519
21
16.9326713763017
72
1
10
197.906192709519
20
16.9326713763017
11
197.551578550149
21
16.0820625214788
72
1
10
197.551578550149
20
16.0820625214788
11
194.498382723188
21
17.8541597949323
97
0
75
0
76
1
52
0
41
0.0062
77
0
78
1
53
45
43
0
44
0
45
-0.0139193969876572
46
0.0139193969876572
79
0
47
0
98
1
10
0
20
0
0
DIMENSION
5
139
100
AcDbEntity
8
SK2
62
256
6
ByLayer
370
18
48
1
60
0
100
AcDbDimension
2
_U0
10
188
20
-42.788973
30
0
11
70
21
-42.788973
31
0
70
32
71
1
72
1
41
1
210
0
220
0
230
1
3
Standard
100
AcDbAlignedDimension
13
-48
23
-8
33
0
14
188
24
0
34
0
50
0
100
AcDbRotatedDimension
1001
ACAD
1000
DSTYLE
1002
{
1070
   371
1070
    13
1070
   372
1070
    13
1070
     3
1000

1070
   170
1070
     0
1070
   144
1040
1.0
1070
   277
1070
     2
1070
   284
1070
     8
1070
   278
1070
    46
1070
   146
1040
1.166667
1070
   345
1005
16
1070
   347
1005
16
1070
   346
1005
16
1070
   344
1005
0
1070
   343
1005
0
1070
   172
1070
     1
1070
    76
1070
     0
1070
    75
1070
     0
1070
   282
1070
     0
1070
   281
1070
     0
1070
    71
1070
     0
1070
    74
1070
     0
1070
   279
1070
     0
1070
   173
1070
     1
1070
   340
1005
118
1070
   271
1070
     2
1070
   272
1070
     3
1070
    77
1070
     1
1070
    73
1070
     1
1070
   171
1070
     3
1070
   274
1070
     4
1070
   177
1070
     2
1070
   176
1070
     2
1070
   178
1070
     2
1070
    78
1070
     8
1070
    48
1040
-0.1
1070
    41
1040
3.5
1070
   147
1040
1.5
1070
    42
1040
1.5875
1070
    44
1040
2.0
1070
   140
1040
3.0
1002
}
1001
ACAD_DSTYLE_DIM_LINETYPE
1070
   380
1005
16
1001
ACAD_DSTYLE_DIM_EXT1_LINETYPE
1070
   381
1005
16
1001
ACAD_DSTYLE_DIM_EXT2_LINETYPE
1070
   382
1005
16
0
DIMENSION
5
152
100
AcDbEntity
8
SK2
62
256
6
ByLayer
370
18
48
1
60
0
100
AcDbDimension
2
_U1
10
6
20
-32.788973
30
0
11
97
21
-32.788973
31
0
70
32
71
1
72
1
41
1
210
0
220
0
230
1
3
Standard
100
AcDbAlignedDimension
13
188
23
0
33
0
14
6
24
-7
34
0
50
0
100
AcDbRotatedDimension
1001
ACAD
1000
DSTYLE
1002
{
1070
   371
1070
    13
1070
   372
1070
    13
1070
     3
1000

1070
   170
1070
     0
1070
   144
1040
1.0
1070
   277
1070
     2
1070
   284
1070
     8
1070
   278
1070
    46
1070
   146
1040
1.166667
1070
   345
1005
16
1070
   347
1005
16
1070
   346
1005
16
1070
   344
1005
0
1070
   343
1005
0
1070
   172
1070
     1
1070
    76
1070
     0
1070
    75
1070
     0
1070
   282
1070
     0
1070
   281
1070
     0
1070
    71
1070
     0
1070
    74
1070
     0
1070
   279
1070
     0
1070
   173
1070
     1
1070
   340
1005
118
1070
   271
1070
     2
1070
   272
1070
     3
1070
    77
1070
     1
1070
    73
1070
     1
1070
   171
1070
     3
1070
   274
1070
     4
1070
   177
1070
     2
1070
   176
1070
     2
1070
   178
1070
     2
1070
    78
1070
     8
1070
    48
1040
-0.1
1070
    41
1040
3.5
1070
   147
1040
1.5
1070
    42
1040
1.5875
1070
    44
1040
2.0
1070
   140
1040
3.0
1002
}
1001
ACAD_DSTYLE_DIM_LINETYPE
1070
   380
1005
16
1001
ACAD_DSTYLE_DIM_EXT1_LINETYPE
1070
   381
1005
16
1001
ACAD_DSTYLE_DIM_EXT2_LINETYPE
1070
   382
1005
16
0
DIMENSION
5
16A
100
AcDbEntity
8
SK2
62
256
6
ByLayer
370
18
48
1
60
0
100
AcDbDimension
2
_U2
10
0
20
-32.788973
30
0
11
-24
21
-32.788973
31
0
70
32
71
1
72
1
41
1
210
0
220
0
230
1
3
Standard
100
AcDbAlignedDimension
13
-48
23
-8
33
0
14
0
24
-8
34
0
50
0
100
AcDbRotatedDimension
1001
ACAD
1000
DSTYLE
1002
{
1070
   371
1070
    13
1070
   372
1070
    13
1070
     3
1000

1070
   170
1070
     0
1070
   144
1040
1.0
1070
   277
1070
     2
1070
   284
1070
     8
1070
   278
1070
    46
1070
   146
1040
1.166667
1070
   345
1005
16
1070
   347
1005
16
1070
   346
1005
16
1070
   344
1005
0
1070
   343
1005
0
1070
   172
1070
     1
1070
    76
1070
     0
1070
    75
1070
     0
1070
   282
1070
     0
1070
   281
1070
     0
1070
    71
1070
     0
1070
    74
1070
     0
1070
   279
1070
     0
1070
   173
1070
     1
1070
   340
1005
118
1070
   271
1070
     2
1070
   272
1070
     3
1070
    77
1070
     1
1070
    73
1070
     1
1070
   171
1070
     3
1070
   274
1070
     4
1070
   177
1070
     2
1070
   176
1070
     2
1070
   178
1070
     2
1070
    78
1070
     8
1070
    48
1040
-0.1
1070
    41
1040
3.5
1070
   147
1040
1.5
1070
    42
1040
1.5875
1070
    44
1040
2.0
1070
   140
1040
3.0
1002
}
1001
ACAD_DSTYLE_DIM_LINETYPE
1070
   380
1005
16
1001
ACAD_DSTYLE_DIM_EXT1_LINETYPE
1070
   381
1005
16
1001
ACAD_DSTYLE_DIM_EXT2_LINETYPE
1070
   382
1005
16
0
DIMENSION
5
182
100
AcDbEntity
8
SK2
62
256
6
ByLayer
370
18
48
1
60
0
100
AcDbDimension
2
_U3
10
20
20
29.788973
30
0
11
104
21
29.788973
31
0
70
32
71
1
72
1
41
1
210
0
220
0
230
1
3
Standard
100
AcDbAlignedDimension
13
188
23
0
33
0
14
20
24
7
34
0
50
0
100
AcDbRotatedDimension
1001
ACAD
1000
DSTYLE
1002
{
1070
   371
1070
    13
1070
   372
1070
    13
1070
     3
1000

1070
   170
1070
     0
1070
   144
1040
1.0
1070
   277
1070
     2
1070
   284
1070
     8
1070
   278
1070
    46
1070
   146
1040
1.166667
1070
   345
1005
16
1070
   347
1005
16
1070
   346
1005
16
1070
   344
1005
0
1070
   343
1005
0
1070
   172
1070
     1
1070
    76
1070
     0
1070
    75
1070
     0
1070
   282
1070
     0
1070
   281
1070
     0
1070
    71
1070
     0
1070
    74
1070
     0
1070
   279
1070
     0
1070
   173
1070
     1
1070
   340
1005
118
1070
   271
1070
     2
1070
   272
1070
     3
1070
    77
1070
     1
1070
    73
1070
     1
1070
   171
1070
     3
1070
   274
1070
     4
1070
   177
1070
     2
1070
   176
1070
     2
1070
   178
1070
     2
1070
    78
1070
     8
1070
    48
1040
-0.1
1070
    41
1040
3.5
1070
   147
1040
1.5
1070
    42
1040
1.5875
1070
    44
1040
2.0
1070
   140
1040
3.0
1002
}
1001
ACAD_DSTYLE_DIM_LINETYPE
1070
   380
1005
16
1001
ACAD_DSTYLE_DIM_EXT1_LINETYPE
1070
   381
1005
16
1001
ACAD_DSTYLE_DIM_EXT2_LINETYPE
1070
   382
1005
16
0
ENDSEC
0
SECTION
2
OBJECTS
0
DICTIONARY
5
20a
330
0
100
AcDbDictionary
280
0
281
1
3
ACAD_GROUP
350
20b
3
ACAD_MLINESTYLE
350
20c
0
DICTIONARY
5
20b
330
0
100
AcDbDictionary
280
0
281
1
0
DICTIONARY
5
20c
330
0
100
AcDbDictionary
280
0
281
1
3
Standard
350
18
0
MLINESTYLE
5
18
330
20c
100
AcDbMlineStyle
2
Standard
70
0
3

62
256
51
90
52
90
71
2
49
-0.5
62
256
6
ByLayer
49
0.5
62
256
6
ByLayer
0
RASTERVARIABLES
5
1f8
330

100
AcDbRasterVariables
90
0
70
1
71
1
72
1
0
ENDSEC
0
EOF
