0
SECTION
2
HEADER
9
$ACADVER
1
AC1015
9
$DWGCODEPAGE
3
ANSI_1252
9
$HANDSEED
5
243
9
$ANGBASE
50
0
9
$ANGDIR
70
0
9
$ATTMODE
70
1
9
$AUNITS
70
0
9
$AUPREC
70
0
9
$CECOLOR
62
256
9
$CELTSCALE
40
1
9
$CELTYPE
6
ByLayer
9
$CELWEIGHT
370
18
9
$CLAYER
8
0
9
$CMLJUST
70
0
9
$CMLSCALE
40
1
9
$CMLSTYLE
2
Standard
9
$DIMSTYLE
2
Standard
9
$TEXTSIZE
40
0.2
9
$TEXTSTYLE
7
Standard
9
$LUNITS
70
2
9
$LUPREC
70
4
9
$EXTNAMES
290
1
9
$INSUNITS
70
4
9
$LTSCALE
40
1
9
$LWDISPLAY
290
1
9
$PDMODE
70
0
9
$PDSIZE
40
0
9
$PLINEGEN
70
0
0
ENDSEC
0
SECTION
2
CLASSES
0
CLASS
1
RASTERVARIABLES
2
AcDbRasterVariables
3
ISM
90
0
280
0
281
0
0
ENDSEC
0
SECTION
2
TABLES
0
TABLE
2
VPORT
5
239
100
AcDbSymbolTable
0
VPORT
5
1
100
AcDbSymbolTableRecord
100
AcDbViewportTableRecord
2
*Active
70
0
10
0
20
0
11
1
21
1
12
-1
22
1
13
0
23
0
14
0.5
24
0.5
15
10
25
10
16
0
26
0
36
1
17
0
27
0
37
0
0
ENDTAB
0
TABLE
2
LTYPE
5
23a
100
AcDbSymbolTable
0
LTYPE
5
14
100
AcDbSymbolTableRecord
100
AcDbLinetypeTableRecord
70
0
2
ByBlock
3

72
65
73
0
40
0
0
LTYPE
5
15
100
AcDbSymbolTableRecord
100
AcDbLinetypeTableRecord
70
0
2
ByLayer
3

72
65
73
0
40
0
0
LTYPE
5
16
100
AcDbSymbolTableRecord
100
AcDbLinetypeTableRecord
70
0
2
Continuous
3
Solid line
72
65
73
0
40
0
0
LTYPE
5
6E
100
AcDbSymbolTableRecord
100
AcDbLinetypeTableRecord
70
0
2
CENTER
3
____ _ ____ _ ____ _ ____
72
65
73
4
40
47.5
49
22
74
0
49
-8.5
74
0
49
8.5
74
0
49
-8.5
74
0
0
LTYPE
5
6F
100
AcDbSymbolTableRecord
100
AcDbLinetypeTableRecord
70
0
2
DASHED
3
__ __ __ __ __ __ __ __ __
72
65
73
2
40
25.72
49
12.86
74
0
49
-12.86
74
0
0
ENDTAB
0
TABLE
2
LAYER
5
23b
100
AcDbSymbolTable
0
LAYER
5
10
100
AcDbSymbolTableRecord
100
AcDbLayerTableRecord
2
0
70
0
62
7
6
Continuous
290
1
370
-3
390
0
0
LAYER
5
71
100
AcDbSymbolTableRecord
100
AcDbLayerTableRecord
2
81
70
0
62
-3
6
Continuous
290
1
370
-3
390
0
0
LAYER
5
73
100
AcDbSymbolTableRecord
100
AcDbLayerTableRecord
2
80
70
0
62
-6
6
Continuous
290
1
370
-3
390
0
0
LAYER
5
75
100
AcDbSymbolTableRecord
100
AcDbLayerTableRecord
2
1
70
0
62
4
6
Continuous
290
1
370
-3
390
0
0
LAYER
5
7F
100
AcDbSymbolTableRecord
100
AcDbLayerTableRecord
2
4
70
0
62
-2
6
CENTER
290
1
370
-3
390
0
0
LAYER
5
AC
100
AcDbSymbolTableRecord
100
AcDbLayerTableRecord
2
2
70
0
62
7
6
Continuous
290
1
370
-3
390
0
0
LAYER
5
168
100
AcDbSymbolTableRecord
100
AcDbLayerTableRecord
2
Defpoints
70
0
62
7
6
Continuous
290
0
370
-3
390
0
0
LAYER
5
225
100
AcDbSymbolTableRecord
100
AcDbLayerTableRecord
2
SK4
70
0
62
2
6
CENTER
290
1
370
-3
390
0
0
LAYER
5
226
100
AcDbSymbolTableRecord
100
AcDbLayerTableRecord
2
SK1
70
0
62
4
6
Continuous
290
1
370
-3
390
0
0
LAYER
5
227
100
AcDbSymbolTableRecord
100
AcDbLayerTableRecord
2
SK2
70
0
62
7
6
Continuous
290
1
370
-3
390
0
0
LAYER
5
228
100
AcDbSymbolTableRecord
100
AcDbLayerTableRecord
2
SK6
70
0
62
5
6
Continuous
290
1
370
-3
390
0
0
ENDTAB
0
TABLE
2
STYLE
5
23c
100
AcDbSymbolTable
0
STYLE
5
11
100
AcDbSymbolTableRecord
100
AcDbTextStyleTableRecord
2
Standard
3
txt
70
0
71
0
40
0
41
1
42
0
50
0
0
STYLE
5
144
100
AcDbSymbolTableRecord
100
AcDbTextStyleTableRecord
2
iso_b_vert
3
simplex.shx
70
0
71
0
40
0
41
1
42
0
50
0
0
STYLE
5
145
100
AcDbSymbolTableRecord
100
AcDbTextStyleTableRecord
2
DWGDirectTextStyle
3
simplex
70
0
71
0
40
0
41
1
42
0
50
0
0
ENDTAB
0
TABLE
2
DIMSTYLE
5
23d
100
AcDbSymbolTable
100
AcDbDimStyleTable
0
DIMSTYLE
105
27
100
AcDbSymbolTableRecord
100
AcDbDimStyleTableRecord
2
Standard
70
0
3
<>
41
0.18
42
0.0625
44
0.18
140
0.18
147
0.09
73
0
74
0
77
1
271
2
275
0
278
52
280
0
340
11
0
ENDTAB
0
TABLE
2
VIEW
5
23e
100
AcDbSymbolTable
0
ENDTAB
0
TABLE
2
UCS
5
23f
100
AcDbSymbolTable
0
ENDTAB
0
TABLE
2
APPID
5
240
100
AcDbSymbolTable
0
APPID
5
12
100
AcDbSymbolTableRecord
100
AcDbRegAppTableRecord
2
ACAD
70
0
0
APPID
5
164
100
AcDbSymbolTableRecord
100
AcDbRegAppTableRecord
2
ACAD_DSTYLE_DIMBREAK
70
0
0
APPID
5
1E4
100
AcDbSymbolTableRecord
100
AcDbRegAppTableRecord
2
ACAD_DSTYLE_DIM_LINETYPE
70
0
0
APPID
5
1E5
100
AcDbSymbolTableRecord
100
AcDbRegAppTableRecord
2
ACAD_DSTYLE_DIM_EXT1_LINETYPE
70
0
0
APPID
5
1E6
100
AcDbSymbolTableRecord
100
AcDbRegAppTableRecord
2
ACAD_DSTYLE_DIM_EXT2_LINETYPE
70
0
0
APPID
5
221
100
AcDbSymbolTableRecord
100
AcDbRegAppTableRecord
2
ACAD_MLEADERVER
70
0
0
ENDTAB
0
TABLE
2
BLOCK_RECORD
5
241
100
AcDbSymbolTable
0
BLOCK_RECORD
5
1F
100
AcDbSymbolTableRecord
100
AcDbBlockTableRecord
2
*Model_Space
340
0
70
0
0
BLOCK_RECORD
5
1B
100
AcDbSymbolTableRecord
100
AcDbBlockTableRecord
2
*Paper_Space
340
0
70
0
0
BLOCK_RECORD
5
23
100
AcDbSymbolTableRecord
100
AcDbBlockTableRecord
2
*Paper_Space0
340
0
70
0
0
BLOCK_RECORD
5
169
100
AcDbSymbolTableRecord
100
AcDbBlockTableRecord
2
*D1
340
0
70
0
0
BLOCK_RECORD
5
175
100
AcDbSymbolTableRecord
100
AcDbBlockTableRecord
2
_U0
340
0
70
0
0
BLOCK_RECORD
5
181
100
AcDbSymbolTableRecord
100
AcDbBlockTableRecord
2
*D3
340
0
70
0
0
BLOCK_RECORD
5
18D
100
AcDbSymbolTableRecord
100
AcDbBlockTableRecord
2
_U1
340
0
70
0
0
BLOCK_RECORD
5
199
100
AcDbSymbolTableRecord
100
AcDbBlockTableRecord
2
*D5
340
0
70
0
0
BLOCK_RECORD
5
1A5
100
AcDbSymbolTableRecord
100
AcDbBlockTableRecord
2
_U2
340
0
70
0
0
BLOCK_RECORD
5
1B1
100
AcDbSymbolTableRecord
100
AcDbBlockTableRecord
2
*D7
340
0
70
0
0
BLOCK_RECORD
5
1BD
100
AcDbSymbolTableRecord
100
AcDbBlockTableRecord
2
_U3
340
0
70
0
0
ENDTAB
0
ENDSEC
0
SECTION
2
BLOCKS
0
BLOCK
5
20
100
AcDbEntity
8
0
100
AcDbBlockBegin
2
*Model_Space
70
0
10
0
20
0
30
0
3
*Model_Space
0
ENDBLK
5
21
100
AcDbEntity
8
0
100
AcDbBlockEnd
0
BLOCK
5
1C
100
AcDbEntity
8
0
100
AcDbBlockBegin
2
*Paper_Space
70
0
10
0
20
0
30
0
3
*Paper_Space
0
ENDBLK
5
1D
100
AcDbEntity
8
0
100
AcDbBlockEnd
0
BLOCK
5
24
100
AcDbEntity
8
0
100
AcDbBlockBegin
2
*Paper_Space0
70
0
10
0
20
0
30
0
3
*Paper_Space0
0
ENDBLK
5
25
100
AcDbEntity
8
0
100
AcDbBlockEnd
0
BLOCK
5
16A
100
AcDbEntity
8
0
100
AcDbBlockBegin
2
*D1
70
1
10
0
20
0
30
0
3
*D1
0
LINE
5
16C
100
AcDbEntity
8
0
62
256
6
ByLayer
370
-2
48
1
60
0
100
AcDbLine
10
-60.3
20
-17.4625
30
0
11
-60.3
21
-48.518382
31
0
39
0
210
0
220
0
230
1
0
LINE
5
16D
100
AcDbEntity
8
0
62
256
6
ByLayer
370
-2
48
1
60
0
100
AcDbLine
10
67
20
-1.5875
30
0
11
67
21
-48.518382
31
0
39
0
210
0
220
0
230
1
0
LINE
5
16E
100
AcDbEntity
8
0
62
256
6
ByLayer
370
-2
48
1
60
0
100
AcDbLine
10
-56.8
20
-46.518382
30
0
11
63.5
21
-46.518382
31
0
39
0
210
0
220
0
230
1
0
SOLID
5
16F
100
AcDbEntity
8
0
62
256
6
ByLayer
370
-1
48
1
60
0
100
AcDbTrace
10
-56.8
20
-45.935049
30
0
11
-56.8
21
-47.101715
31
0
12
-60.3
22
-46.518382
32
0
13
-60.3
23
-46.518382
33
0
39
0
210
0
220
0
230
1
0
SOLID
5
170
100
AcDbEntity
8
0
62
256
6
ByLayer
370
-1
48
1
60
0
100
AcDbTrace
10
63.5
20
-47.101715
30
0
11
63.5
21
-45.935049
31
0
12
67
22
-46.518382
32
0
13
67
23
-46.518382
33
0
39
0
210
0
220
0
230
1
0
MTEXT
5
171
100
AcDbEntity
8
0
62
256
6
ByLayer
370
18
48
1
60
0
100
AcDbMText
10
3.35
20
-40.518382
30
0
210
0
220
0
230
1
1
\A1;127.3
40
3
41
0
44
1
50
0
71
5
72
5
7
iso_b_vert
0
POINT
5
172
100
AcDbEntity
8
Defpoints
62
0
6
ByLayer
370
-1
48
1
60
0
100
AcDbPoint
10
-60.3
20
-15.875
30
0
39
0
210
0
220
0
230
1
50
360
0
POINT
5
173
100
AcDbEntity
8
Defpoints
62
0
6
ByLayer
370
-1
48
1
60
0
100
AcDbPoint
10
67
20
0
30
0
39
0
210
0
220
0
230
1
50
360
0
POINT
5
174
100
AcDbEntity
8
Defpoints
62
0
6
ByLayer
370
-1
48
1
60
0
100
AcDbPoint
10
67
20
-46.518382
30
0
39
0
210
0
220
0
230
1
50
360
0
ENDBLK
5
16B
100
AcDbEntity
8
0
100
AcDbBlockEnd
0
BLOCK
5
17C
100
AcDbEntity
8
0
100
AcDbBlockBegin
2
_U0
70
0
10
0
20
0
30
0
3
_U0
0
MTEXT
5
176
100
AcDbEntity
8
SK2
62
256
6
ByLayer
370
18
48
1
60
0
100
AcDbMText
10
-1.878342
20
-45.633268
30
0
210
0
220
0
230
1
1
\W0.7022;127.30
40
3
41
0
44
1.084337
50
0
71
7
72
5
7
iso_b_vert
0
LINE
5
177
100
AcDbEntity
8
SK2
62
256
6
ByLayer
370
13
48
1
60
0
100
AcDbLine
10
-60.3
20
-17.4625
30
0
11
-60.3
21
-48.518382
31
0
39
0
210
0
220
0
230
1
0
LINE
5
178
100
AcDbEntity
8
SK2
62
256
6
ByLayer
370
13
48
1
60
0
100
AcDbLine
10
67
20
-1.5875
30
0
11
67
21
-48.518382
31
0
39
0
210
0
220
0
230
1
0
LINE
5
179
100
AcDbEntity
8
SK2
62
256
6
ByLayer
370
13
48
1
60
0
100
AcDbLine
10
-60.3
20
-46.518382
30
0
11
67
21
-46.518382
31
0
39
0
210
0
220
0
230
1
0
SOLID
5
17A
100
AcDbEntity
8
SK2
62
256
6
ByLayer
370
18
48
1
60
0
100
AcDbTrace
10
-60.3
20
-46.518382
30
0
11
-56.800002
21
-46.057598
31
0
12
-56.799998
22
-46.979166
32
0
13
-56.799998
23
-46.979166
33
0
39
0
210
0
220
0
230
1
0
SOLID
5
17B
100
AcDbEntity
8
SK2
62
256
6
ByLayer
370
18
48
1
60
0
100
AcDbTrace
10
67
20
-46.518382
30
0
11
63.500002
21
-46.979166
31
0
12
63.499998
22
-46.057598
32
0
13
63.499998
23
-46.057598
33
0
39
0
210
0
220
0
230
1
0
ENDBLK
5
17D
100
AcDbEntity
8
0
100
AcDbBlockEnd
0
BLOCK
5
182
100
AcDbEntity
8
0
100
AcDbBlockBegin
2
*D3
70
1
10
0
20
0
30
0
3
*D3
0
LINE
5
184
100
AcDbEntity
8
0
62
256
6
ByLayer
370
-2
48
1
60
0
100
AcDbLine
10
67
20
-1.5875
30
0
11
67
21
-38.518382
31
0
39
0
210
0
220
0
230
1
0
LINE
5
185
100
AcDbEntity
8
0
62
256
6
ByLayer
370
-2
48
1
60
0
100
AcDbLine
10
6
20
-14.883
30
0
11
6
21
-38.518382
31
0
39
0
210
0
220
0
230
1
0
LINE
5
186
100
AcDbEntity
8
0
62
256
6
ByLayer
370
-2
48
1
60
0
100
AcDbLine
10
63.5
20
-36.518382
30
0
11
9.5
21
-36.518382
31
0
39
0
210
0
220
0
230
1
0
SOLID
5
187
100
AcDbEntity
8
0
62
256
6
ByLayer
370
-1
48
1
60
0
100
AcDbTrace
10
63.5
20
-37.101715
30
0
11
63.5
21
-35.935049
31
0
12
67
22
-36.518382
32
0
13
67
23
-36.518382
33
0
39
0
210
0
220
0
230
1
0
SOLID
5
188
100
AcDbEntity
8
0
62
256
6
ByLayer
370
-1
48
1
60
0
100
AcDbTrace
10
9.5
20
-35.935049
30
0
11
9.5
21
-37.101715
31
0
12
6
22
-36.518382
32
0
13
6
23
-36.518382
33
0
39
0
210
0
220
0
230
1
0
MTEXT
5
189
100
AcDbEntity
8
0
62
256
6
ByLayer
370
18
48
1
60
0
100
AcDbMText
10
36.5
20
-30.518382
30
0
210
0
220
0
230
1
1
\A1;61
40
3
41
0
44
1
50
0
71
5
72
5
7
iso_b_vert
0
POINT
5
18A
100
AcDbEntity
8
Defpoints
62
0
6
ByLayer
370
-1
48
1
60
0
100
AcDbPoint
10
67
20
0
30
0
39
0
210
0
220
0
230
1
50
360
0
POINT
5
18B
100
AcDbEntity
8
Defpoints
62
0
6
ByLayer
370
-1
48
1
60
0
100
AcDbPoint
10
6
20
-13.2955
30
0
39
0
210
0
220
0
230
1
50
360
0
POINT
5
18C
100
AcDbEntity
8
Defpoints
62
0
6
ByLayer
370
-1
48
1
60
0
100
AcDbPoint
10
6
20
-36.518382
30
0
39
0
210
0
220
0
230
1
50
360
0
ENDBLK
5
183
100
AcDbEntity
8
0
100
AcDbBlockEnd
0
BLOCK
5
194
100
AcDbEntity
8
0
100
AcDbBlockBegin
2
_U1
70
0
10
0
20
0
30
0
3
_U1
0
MTEXT
5
18E
100
AcDbEntity
8
SK2
62
256
6
ByLayer
370
18
48
1
60
0
100
AcDbMText
10
32.392572
20
-35.633268
30
0
210
0
220
0
230
1
1
\W0.6864;61.00
40
3
41
0
44
1.084337
50
0
71
7
72
5
7
iso_b_vert
0
LINE
5
18F
100
AcDbEntity
8
SK2
62
256
6
ByLayer
370
13
48
1
60
0
100
AcDbLine
10
67
20
-1.5875
30
0
11
67
21
-38.518382
31
0
39
0
210
0
220
0
230
1
0
LINE
5
190
100
AcDbEntity
8
SK2
62
256
6
ByLayer
370
13
48
1
60
0
100
AcDbLine
10
6
20
-14.883
30
0
11
6
21
-38.518382
31
0
39
0
210
0
220
0
230
1
0
LINE
5
191
100
AcDbEntity
8
SK2
62
256
6
ByLayer
370
13
48
1
60
0
100
AcDbLine
10
67
20
-36.518382
30
0
11
6
21
-36.518382
31
0
39
0
210
0
220
0
230
1
0
SOLID
5
192
100
AcDbEntity
8
SK2
62
256
6
ByLayer
370
18
48
1
60
0
100
AcDbTrace
10
67
20
-36.518382
30
0
11
63.500002
21
-36.979166
31
0
12
63.499998
22
-36.057598
32
0
13
63.499998
23
-36.057598
33
0
39
0
210
0
220
0
230
1
0
SOLID
5
193
100
AcDbEntity
8
SK2
62
256
6
ByLayer
370
18
48
1
60
0
100
AcDbTrace
10
6
20
-36.518382
30
0
11
9.499998
21
-36.057598
31
0
12
9.500002
22
-36.979166
32
0
13
9.500002
23
-36.979166
33
0
39
0
210
0
220
0
230
1
0
ENDBLK
5
195
100
AcDbEntity
8
0
100
AcDbBlockEnd
0
BLOCK
5
19A
100
AcDbEntity
8
0
100
AcDbBlockBegin
2
*D5
70
1
10
0
20
0
30
0
3
*D5
0
LINE
5
19C
100
AcDbEntity
8
0
62
256
6
ByLayer
370
-2
48
1
60
0
100
AcDbLine
10
-60.3
20
-17.4625
30
0
11
-60.3
21
-38.518382
31
0
39
0
210
0
220
0
230
1
0
LINE
5
19D
100
AcDbEntity
8
0
62
256
6
ByLayer
370
-2
48
1
60
0
100
AcDbLine
10
0
20
-17.4625
30
0
11
0
21
-38.518382
31
0
39
0
210
0
220
0
230
1
0
LINE
5
19E
100
AcDbEntity
8
0
62
256
6
ByLayer
370
-2
48
1
60
0
100
AcDbLine
10
-56.8
20
-36.518382
30
0
11
-3.5
21
-36.518382
31
0
39
0
210
0
220
0
230
1
0
SOLID
5
19F
100
AcDbEntity
8
0
62
256
6
ByLayer
370
-1
48
1
60
0
100
AcDbTrace
10
-56.8
20
-35.935049
30
0
11
-56.8
21
-37.101715
31
0
12
-60.3
22
-36.518382
32
0
13
-60.3
23
-36.518382
33
0
39
0
210
0
220
0
230
1
0
SOLID
5
1A0
100
AcDbEntity
8
0
62
256
6
ByLayer
370
-1
48
1
60
0
100
AcDbTrace
10
-3.5
20
-37.101715
30
0
11
-3.5
21
-35.935049
31
0
12
0
22
-36.518382
32
0
13
0
23
-36.518382
33
0
39
0
210
0
220
0
230
1
0
MTEXT
5
1A1
100
AcDbEntity
8
0
62
256
6
ByLayer
370
18
48
1
60
0
100
AcDbMText
10
-30.15
20
-30.518382
30
0
210
0
220
0
230
1
1
\A1;60.3
40
3
41
0
44
1
50
0
71
5
72
5
7
iso_b_vert
0
POINT
5
1A2
100
AcDbEntity
8
Defpoints
62
0
6
ByLayer
370
-1
48
1
60
0
100
AcDbPoint
10
-60.3
20
-15.875
30
0
39
0
210
0
220
0
230
1
50
360
0
POINT
5
1A3
100
AcDbEntity
8
Defpoints
62
0
6
ByLayer
370
-1
48
1
60
0
100
AcDbPoint
10
0
20
-15.875
30
0
39
0
210
0
220
0
230
1
50
360
0
POINT
5
1A4
100
AcDbEntity
8
Defpoints
62
0
6
ByLayer
370
-1
48
1
60
0
100
AcDbPoint
10
0
20
-36.518382
30
0
39
0
210
0
220
0
230
1
50
360
0
ENDBLK
5
19B
100
AcDbEntity
8
0
100
AcDbBlockEnd
0
BLOCK
5
1AC
100
AcDbEntity
8
0
100
AcDbBlockBegin
2
_U2
70
0
10
0
20
0
30
0
3
_U2
0
MTEXT
5
1A6
100
AcDbEntity
8
SK2
62
256
6
ByLayer
370
18
48
1
60
0
100
AcDbMText
10
-34.63237
20
-35.633268
30
0
210
0
220
0
230
1
1
\W0.7468;60.30
40
3
41
0
44
1.084337
50
0
71
7
72
5
7
iso_b_vert
0
LINE
5
1A7
100
AcDbEntity
8
SK2
62
256
6
ByLayer
370
13
48
1
60
0
100
AcDbLine
10
-60.3
20
-17.4625
30
0
11
-60.3
21
-38.518382
31
0
39
0
210
0
220
0
230
1
0
LINE
5
1A8
100
AcDbEntity
8
SK2
62
256
6
ByLayer
370
13
48
1
60
0
100
AcDbLine
10
0
20
-17.4625
30
0
11
0
21
-38.518382
31
0
39
0
210
0
220
0
230
1
0
LINE
5
1A9
100
AcDbEntity
8
SK2
62
256
6
ByLayer
370
13
48
1
60
0
100
AcDbLine
10
-60.3
20
-36.518382
30
0
11
0
21
-36.518382
31
0
39
0
210
0
220
0
230
1
0
SOLID
5
1AA
100
AcDbEntity
8
SK2
62
256
6
ByLayer
370
18
48
1
60
0
100
AcDbTrace
10
-60.3
20
-36.518382
30
0
11
-56.800002
21
-36.057598
31
0
12
-56.799998
22
-36.979166
32
0
13
-56.799998
23
-36.979166
33
0
39
0
210
0
220
0
230
1
0
SOLID
5
1AB
100
AcDbEntity
8
SK2
62
256
6
ByLayer
370
18
48
1
60
0
100
AcDbTrace
10
0
20
-36.518382
30
0
11
-3.499998
21
-36.979166
31
0
12
-3.500002
22
-36.057598
32
0
13
-3.500002
23
-36.057598
33
0
39
0
210
0
220
0
230
1
0
ENDBLK
5
1AD
100
AcDbEntity
8
0
100
AcDbBlockEnd
0
BLOCK
5
1B2
100
AcDbEntity
8
0
100
AcDbBlockBegin
2
*D7
70
1
10
0
20
0
30
0
3
*D7
0
LINE
5
1B4
100
AcDbEntity
8
0
62
256
6
ByLayer
370
-2
48
1
60
0
100
AcDbLine
10
67
20
1.5875
30
0
11
67
21
35.518382
31
0
39
0
210
0
220
0
230
1
0
LINE
5
1B5
100
AcDbEntity
8
0
62
256
6
ByLayer
370
-2
48
1
60
0
100
AcDbLine
10
14.7
20
14.883
30
0
11
14.7
21
35.518382
31
0
39
0
210
0
220
0
230
1
0
LINE
5
1B6
100
AcDbEntity
8
0
62
256
6
ByLayer
370
-2
48
1
60
0
100
AcDbLine
10
63.5
20
33.518382
30
0
11
18.2
21
33.518382
31
0
39
0
210
0
220
0
230
1
0
SOLID
5
1B7
100
AcDbEntity
8
0
62
256
6
ByLayer
370
-1
48
1
60
0
100
AcDbTrace
10
63.5
20
32.935049
30
0
11
63.5
21
34.101715
31
0
12
67
22
33.518382
32
0
13
67
23
33.518382
33
0
39
0
210
0
220
0
230
1
0
SOLID
5
1B8
100
AcDbEntity
8
0
62
256
6
ByLayer
370
-1
48
1
60
0
100
AcDbTrace
10
18.2
20
34.101715
30
0
11
18.2
21
32.935049
31
0
12
14.7
22
33.518382
32
0
13
14.7
23
33.518382
33
0
39
0
210
0
220
0
230
1
0
MTEXT
5
1B9
100
AcDbEntity
8
0
62
256
6
ByLayer
370
18
48
1
60
0
100
AcDbMText
10
40.85
20
39.518382
30
0
210
0
220
0
230
1
1
\A1;52.3
40
3
41
0
44
1
50
0
71
5
72
5
7
iso_b_vert
0
POINT
5
1BA
100
AcDbEntity
8
Defpoints
62
0
6
ByLayer
370
-1
48
1
60
0
100
AcDbPoint
10
67
20
0
30
0
39
0
210
0
220
0
230
1
50
360
0
POINT
5
1BB
100
AcDbEntity
8
Defpoints
62
0
6
ByLayer
370
-1
48
1
60
0
100
AcDbPoint
10
14.7
20
13.2955
30
0
39
0
210
0
220
0
230
1
50
360
0
POINT
5
1BC
100
AcDbEntity
8
Defpoints
62
0
6
ByLayer
370
-1
48
1
60
0
100
AcDbPoint
10
14.7
20
33.518382
30
0
39
0
210
0
220
0
230
1
50
360
0
ENDBLK
5
1B3
100
AcDbEntity
8
0
100
AcDbBlockEnd
0
BLOCK
5
1C4
100
AcDbEntity
8
0
100
AcDbBlockBegin
2
_U3
70
0
10
0
20
0
30
0
3
_U3
0
MTEXT
5
1BE
100
AcDbEntity
8
SK2
62
256
6
ByLayer
370
18
48
1
60
0
100
AcDbMText
10
36.36763
20
34.403496
30
0
210
0
220
0
230
1
1
\W0.7468;52.30
40
3
41
0
44
1.084337
50
0
71
7
72
5
7
iso_b_vert
0
LINE
5
1BF
100
AcDbEntity
8
SK2
62
256
6
ByLayer
370
13
48
1
60
0
100
AcDbLine
10
67
20
1.5875
30
0
11
67
21
35.518382
31
0
39
0
210
0
220
0
230
1
0
LINE
5
1C0
100
AcDbEntity
8
SK2
62
256
6
ByLayer
370
13
48
1
60
0
100
AcDbLine
10
14.7
20
14.883
30
0
11
14.7
21
35.518382
31
0
39
0
210
0
220
0
230
1
0
LINE
5
1C1
100
AcDbEntity
8
SK2
62
256
6
ByLayer
370
13
48
1
60
0
100
AcDbLine
10
67
20
33.518382
30
0
11
14.7
21
33.518382
31
0
39
0
210
0
220
0
230
1
0
SOLID
5
1C2
100
AcDbEntity
8
SK2
62
256
6
ByLayer
370
18
48
1
60
0
100
AcDbTrace
10
67
20
33.518382
30
0
11
63.500002
21
33.057598
31
0
12
63.499998
22
33.979166
32
0
13
63.499998
23
33.979166
33
0
39
0
210
0
220
0
230
1
0
SOLID
5
1C3
100
AcDbEntity
8
SK2
62
256
6
ByLayer
370
18
48
1
60
0
100
AcDbTrace
10
14.7
20
33.518382
30
0
11
18.199998
21
33.979166
31
0
12
18.200002
22
33.057598
32
0
13
18.200002
23
33.057598
33
0
39
0
210
0
220
0
230
1
0
ENDBLK
5
1C5
100
AcDbEntity
8
0
100
AcDbBlockEnd
0
ENDSEC
0
SECTION
2
ENTITIES
0
ARC
5
BD
100
AcDbEntity
8
SK2
62
256
6
ByLayer
370
13
48
1
60
0
100
AcDbCircle
39
0
10
67
20
0
30
0
40
18.9999999999999
210
0
220
0
230
1
100
AcDbArc
50
290
51
70
0
POINT
5
70
100
AcDbEntity
8
81
62
256
6
ByLayer
370
18
48
1
60
0
100
AcDbPoint
10
67
20
0
30
0
39
0
210
0
220
0
230
1
50
360
0
POINT
5
72
100
AcDbEntity
8
80
62
256
6
ByLayer
370
18
48
1
60
0
100
AcDbPoint
10
0
20
0
30
0
39
0
210
0
220
0
230
1
50
360
0
POINT
5
74
100
AcDbEntity
8
1
62
256
6
ByLayer
370
18
48
1
60
1
100
AcDbPoint
10
-60.3
20
-15.875
30
0
39
0
210
0
220
0
230
1
50
360
0
POINT
5
76
100
AcDbEntity
8
1
62
256
6
ByLayer
370
18
48
1
60
1
100
AcDbPoint
10
67
20
0
30
0
39
0
210
0
220
0
230
1
50
360
0
POINT
5
77
100
AcDbEntity
8
1
62
256
6
ByLayer
370
18
48
1
60
1
100
AcDbPoint
10
67
20
0
30
0
39
0
210
0
220
0
230
1
50
360
0
POINT
5
78
100
AcDbEntity
8
1
62
256
6
ByLayer
370
18
48
1
60
1
100
AcDbPoint
10
6
20
-13.2955
30
0
39
0
210
0
220
0
230
1
50
360
0
POINT
5
79
100
AcDbEntity
8
1
62
256
6
ByLayer
370
18
48
1
60
1
100
AcDbPoint
10
-60.3
20
-15.875
30
0
39
0
210
0
220
0
230
1
50
360
0
POINT
5
7A
100
AcDbEntity
8
1
62
256
6
ByLayer
370
18
48
1
60
1
100
AcDbPoint
10
0
20
-15.875
30
0
39
0
210
0
220
0
230
1
50
360
0
POINT
5
7B
100
AcDbEntity
8
1
62
256
6
ByLayer
370
18
48
1
60
1
100
AcDbPoint
10
67
20
0
30
0
39
0
210
0
220
0
230
1
50
360
0
POINT
5
7C
100
AcDbEntity
8
1
62
256
6
ByLayer
370
18
48
1
60
1
100
AcDbPoint
10
14.7
20
13.2955
30
0
39
0
210
0
220
0
230
1
50
360
0
SPLINE
5
BE
100
AcDbEntity
8
1
62
256
6
ByLayer
370
18
48
1
60
0
100
AcDbSpline
70
4
71
3
72
18
73
14
40
0
40
0
40
0
40
0
40
0.067435991614688
40
0.067435991614688
40
0.300576993711014
40
0.300576993711014
40
0.417147494759176
40
0.417147494759176
40
0.53371799580734
40
0.53371799580734
40
0.766858997903669
40
0.766858997903669
40
1
40
1
40
1
40
1
41
1
10
26.2500568406167
20
-9.80368971464003
30
0
41
1
10
26.0554864578782
20
-9.85079476816088
30
0
41
1
10
25.860913685406
20
-9.89746886508675
30
0
41
1
10
24.9936144696416
20
-10.1035200396409
30
0
41
1
10
24.3208217610245
20
-10.2581178365562
30
0
41
1
10
23.3116086228335
20
-10.4823379893891
30
0
41
1
10
22.97520024588
20
-10.5557973429032
30
0
41
1
10
22.3023768534022
20
-10.7001452900206
30
0
41
1
10
21.9659585771324
20
-10.7710265494696
30
0
41
1
10
20.9563922048067
20
-10.9793177999151
30
0
41
1
10
20.2829938870207
20
-11.1124850517857
30
0
41
1
10
18.9355468500614
20
-11.367540321085
30
0
41
1
10
18.2615020781713
20
-11.4894356755728
30
0
41
1
10
17.5871957543739
20
-11.6057272997377
30
0
0
SPLINE
5
BF
100
AcDbEntity
8
1
62
256
6
ByLayer
370
18
48
1
60
0
100
AcDbSpline
70
4
71
3
72
14
73
10
40
0
40
0
40
0
40
0
40
0.25
40
0.25
40
0.5
40
0.5
40
0.75
40
0.75
40
1
40
1
40
1
40
1
41
1
10
17.5871957543739
20
11.6057272997378
30
0
41
1
10
17.3677500498424
20
11.6448085835892
30
0
41
1
10
17.1494115519407
20
11.6844511147943
30
0
41
1
10
16.7146738947791
20
11.7643016857388
30
0
41
1
10
16.4982739732548
20
11.8045094398569
30
0
41
1
10
16.0672341416279
20
11.8850625432987
30
0
41
1
10
15.8525938185713
20
11.9254082596665
30
0
41
1
10
15.4250098009142
20
12.0059392781102
30
0
41
1
10
15.2120661491179
20
12.0461255904182
30
0
41
1
10
15
20
12.0861371976139
30
0
0
SPLINE
5
C0
100
AcDbEntity
8
1
62
256
6
ByLayer
370
18
48
1
60
0
100
AcDbSpline
70
4
71
3
72
46
73
42
40
0
40
0
40
0
40
0
40
0.125000000000003
40
0.125000000000003
40
0.156250000000003
40
0.156250000000003
40
0.187500000000003
40
0.187500000000003
40
0.250000000000003
40
0.250000000000003
40
0.312500000000002
40
0.312500000000002
40
0.375000000000002
40
0.375000000000002
40
0.406250000000002
40
0.406250000000002
40
0.437500000000002
40
0.437500000000002
40
0.500000000000001
40
0.500000000000001
40
0.531250000000001
40
0.531250000000001
40
0.562500000000001
40
0.562500000000001
40
0.625000000000001
40
0.625000000000001
40
0.656250000000001
40
0.656250000000001
40
0.6875
40
0.6875
40
0.75
40
0.75
40
0.8125
40
0.8125
40
0.874999999999999
40
0.874999999999999
40
0.90625
40
0.90625
40
0.9375
40
0.9375
40
1
40
1
40
1
40
1
41
1
10
23.429140879598
20
-9.09705775697992
30
0
41
1
10
24.5334182825619
20
-9.38701020691539
30
0
41
1
10
25.6370997893218
20
-9.66265359665258
30
0
41
1
10
27.0153656229173
20
-9.99077245144434
30
0
41
1
10
27.2909521769943
20
-10.0555701716098
30
0
41
1
10
27.8419783687413
20
-10.1835325236677
30
0
41
1
10
28.1174074532667
20
-10.2467150737094
30
0
41
1
10
28.9436117957857
20
-10.4335596231876
30
0
41
1
10
29.4944349835214
20
-10.5542961273144
30
0
41
1
10
30.5960538826387
20
-10.7883061922163
30
0
41
1
10
31.1468322653483
20
-10.9016099432524
30
0
41
1
10
32.2481596515226
20
-11.1210609184896
30
0
41
1
10
32.7986947085178
20
-11.2272187803734
30
0
41
1
10
33.6246415087381
20
-11.3805799010358
30
0
41
1
10
33.8999827734567
20
-11.4307197067176
30
0
41
1
10
34.450781163794
20
-11.5289537466878
30
0
41
1
10
34.7262376298007
20
-11.5770497978212
30
0
41
1
10
35.5527216417054
20
-11.7183606382445
30
0
41
1
10
36.1038496617673
20
-11.8086187975845
30
0
41
1
10
36.9306749434294
20
-11.9381471584636
30
0
41
1
10
37.2063044210313
20
-11.9803473353013
30
0
41
1
10
37.7576129774024
20
-12.0627754401289
30
0
41
1
10
38.0332953075684
20
-12.1029981228369
30
0
41
1
10
38.8606767336952
20
-12.2204079371141
30
0
41
1
10
39.4126750335828
20
-12.2943868256308
30
0
41
1
10
40.2411536446807
20
-12.3990775639654
30
0
41
1
10
40.5173681789934
20
-12.4329232244042
30
0
41
1
10
41.0695980344375
20
-12.4984946420595
30
0
41
1
10
41.3456503523747
20
-12.530228202552
30
0
41
1
10
42.1736226521816
20
-12.6222587301158
30
0
41
1
10
42.7253763736022
20
-12.6793616755185
30
0
41
1
10
43.82890913558
20
-12.7846894525349
30
0
41
1
10
44.3807525846524
20
-12.8328802884415
30
0
41
1
10
45.4844302646999
20
-12.9204827670958
30
0
41
1
10
46.0362454868257
20
-12.9599041705749
30
0
41
1
10
46.8638779617004
20
-13.0124556798003
30
0
41
1
10
47.1397308605028
20
-13.0288790033524
30
0
41
1
10
47.6914780536391
20
-13.0594877161467
30
0
41
1
10
47.9673978319042
20
-13.0736626249798
30
0
41
1
10
48.795375542371
20
-13.112783199867
30
0
41
1
10
49.3476080240926
20
-13.1343482036372
30
0
41
1
10
49.9
20
-13.1514332903842
30
0
0
SPLINE
5
C1
100
AcDbEntity
8
1
62
256
6
ByLayer
370
18
48
1
60
0
100
AcDbSpline
70
4
71
3
72
10
73
6
40
0
40
0
40
0
40
0
40
0.505625122754634
40
0.505625122754634
40
1
40
1
40
1
40
1
41
1
10
49.9
20
-13.2474617604749
30
0
41
1
10
50.4115134112384
20
-13.2629804151644
30
0
41
1
10
50.9227703853226
20
-13.2746174748086
30
0
41
1
10
51.9334165144267
20
-13.2899213858824
30
0
41
1
10
52.432846429592
20
-13.2937493520498
30
0
41
1
10
52.9322534059416
20
-13.2938388469963
30
0
0
SPLINE
5
C2
100
AcDbEntity
8
1
62
256
6
ByLayer
370
18
48
1
60
0
100
AcDbSpline
70
4
71
3
72
25
73
21
40
0
40
0
40
0
40
0
40
0.124999999999997
40
0.124999999999997
40
0.187499999999997
40
0.187499999999997
40
0.249999999999997
40
0.374999999999997
40
0.374999999999997
40
0.499999999999997
40
0.499999999999997
40
0.624999999999997
40
0.624999999999997
40
0.749999999999997
40
0.749999999999997
40
0.874999999999997
40
0.874999999999997
40
0.937499999999998
40
0.937499999999998
40
1
40
1
40
1
40
1
41
1
10
62.16083375031
20
-1.89738064417023
30
0
41
1
10
61.6493642429894
20
-1.71327964304672
30
0
41
1
10
61.1381430257517
20
-1.52858976933817
30
0
41
1
10
60.3716678989345
20
-1.25071572591793
30
0
41
1
10
60.116227560788
20
-1.1579735715608
30
0
41
1
10
59.6053507405807
20
-0.972527912334471
30
0
41
1
10
58.8390692520177
20
-0.6943399808045
30
0
41
1
10
58.0729108356446
20
-0.41603226602561
30
0
41
1
10
57.0515311091216
20
-0.0446952427944609
30
0
41
1
10
56.54094593906
20
0.141164766732942
30
0
41
1
10
55.519850519662
20
0.512895733378627
30
0
41
1
10
55.0093296279775
20
0.69873723023909
30
0
41
1
10
53.9880272300018
20
1.06950575361441
30
0
41
1
10
53.477253338765
20
1.25445396317664
30
0
41
1
10
52.4555327219344
20
1.62367848063252
30
0
41
1
10
51.9445825287559
20
1.80794522165999
30
0
41
1
10
51.1780496167062
20
2.0839010593223
30
0
41
1
10
50.9225246711578
20
2.1758231610504
30
0
41
1
10
50.4113654429199
20
2.35931702866577
30
0
41
1
10
50.155717893024
20
2.45085233146159
30
0
41
1
10
49.8999999999999
20
2.54216944651662
30
0
0
SPLINE
5
C3
100
AcDbEntity
8
1
62
256
6
ByLayer
370
18
48
1
60
0
100
AcDbSpline
70
4
71
3
72
95
73
91
40
0
40
0
40
0
40
0
40
0.0312499999999994
40
0.0312499999999994
40
0.0624999999999988
40
0.0624999999999988
40
0.0937499999999981
40
0.0937499999999981
40
0.124999999999998
40
0.124999999999998
40
0.140624999999997
40
0.140624999999997
40
0.148437499999997
40
0.148437499999997
40
0.156249999999998
40
0.187499999999998
40
0.187499999999998
40
0.218749999999999
40
0.218749999999999
40
0.249999999999999
40
0.249999999999999
40
0.281249999999999
40
0.281249999999999
40
0.296874999999999
40
0.296874999999999
40
0.304687499999999
40
0.304687499999999
40
0.3125
40
0.3125
40
0.343750000000001
40
0.343750000000001
40
0.375000000000002
40
0.375000000000002
40
0.406250000000003
40
0.406250000000003
40
0.437500000000004
40
0.437500000000004
40
0.445312500000004
40
0.445312500000004
40
0.453125000000005
40
0.468750000000005
40
0.468750000000005
40
0.500000000000006
40
0.500000000000006
40
0.531250000000007
40
0.531250000000007
40
0.539062500000007
40
0.539062500000007
40
0.546875000000008
40
0.562500000000008
40
0.562500000000008
40
0.593750000000008
40
0.593750000000008
40
0.625000000000009
40
0.625000000000009
40
0.632812500000008
40
0.632812500000008
40
0.640625000000008
40
0.656250000000009
40
0.656250000000009
40
0.68750000000001
40
0.68750000000001
40
0.71875000000001
40
0.71875000000001
40
0.72656250000001
40
0.72656250000001
40
0.73437500000001
40
0.73437500000001
40
0.75000000000001
40
0.75000000000001
40
0.781250000000009
40
0.781250000000009
40
0.812500000000007
40
0.812500000000007
40
0.843750000000006
40
0.843750000000006
40
0.851562500000006
40
0.851562500000006
40
0.859375000000006
40
0.875000000000006
40
0.875000000000006
40
0.906250000000005
40
0.906250000000005
40
0.937500000000003
40
0.968750000000002
40
0.968750000000002
40
0.976562500000001
40
0.976562500000001
40
0.984375000000001
40
1
40
1
40
1
40
1
41
1
10
62.1608337503137
20
12.8733088453967
30
0
41
1
10
62.2438797739669
20
12.6673705736732
30
0
41
1
10
62.3270559753311
20
12.4583428140735
30
0
41
1
10
62.4938092624868
20
12.0346006774695
30
0
41
1
10
62.5773861980666
20
11.8198852155546
30
0
41
1
10
62.7450389492753
20
11.3851252675601
30
0
41
1
10
62.8291148253555
20
11.1650800642286
30
0
41
1
10
62.9978240007115
20
10.7199034448308
30
0
41
1
10
63.0824575914348
20
10.4947717673933
30
0
41
1
10
63.2098360326809
20
10.1533707286058
30
0
41
1
10
63.2523664752452
20
10.0389524099356
30
0
41
1
10
63.3162658400835
20
9.86640543378596
30
0
41
1
10
63.3375976178215
20
9.8086965127259
30
0
41
1
10
63.3802193420115
20
9.6931774841637
30
0
41
1
10
63.4866170122265
20
9.40426569198016
30
0
41
1
10
63.5922419107964
20
9.11479178191064
30
0
41
1
10
63.7601835672199
20
8.65090910048514
30
0
41
1
10
63.8436263433542
20
8.41860588690599
30
0
41
1
10
64.0092639895577
20
7.95322134496047
30
0
41
1
10
64.0914607568485
20
7.72014068024828
30
0
41
1
10
64.2542526338154
20
7.25308408613901
30
0
41
1
10
64.3348510211117
20
7.01910933188728
30
0
41
1
10
64.4541025879795
20
6.66732025074413
30
0
41
1
10
64.4935766074674
20
6.54991858743784
30
0
41
1
10
64.5522923367559
20
6.37357942922188
30
0
41
1
10
64.57179103086
20
6.3147312109067
30
0
41
1
10
64.6105614680587
20
6.19708814472349
30
0
41
1
10
64.629820325951
20
6.13833273619449
30
0
41
1
10
64.7254436006945
20
5.84487242844702
30
0
41
1
10
64.7998183466837
20
5.61112052631032
30
0
41
1
10
64.9429701782565
20
5.14525474675006
30
0
41
1
10
65.0117571126546
20
4.91314198304903
30
0
41
1
10
65.1416516336809
20
4.45006772861259
30
0
41
1
10
65.2027693649712
20
4.21910802363919
30
0
41
1
10
65.3141767646889
20
3.75772084069641
30
0
41
1
10
65.364471415361
20
3.52729146995688
30
0
41
1
10
65.4177705451368
20
3.23911195817263
30
0
41
1
10
65.4279548202736
20
3.18143125590734
30
0
41
1
10
65.4472497763593
20
3.0662064099028
30
0
41
1
10
65.4745172047637
20
2.89397509489672
30
0
41
1
10
65.4964663569185
20
2.7235851191318
30
0
41
1
10
65.5325593668763
20
2.38535523800459
30
0
41
1
10
65.546137476678
20
2.16325714449886
30
0
41
1
10
65.5497888810503
20
1.72662787999573
30
0
41
1
10
65.5398409063305
20
1.51210035852338
30
0
41
1
10
65.5128076334219
20
1.249368785044
30
0
41
1
10
65.506670995276
20
1.19704143438202
30
0
41
1
10
65.4930125237067
20
1.09318547782365
30
0
41
1
10
65.4705128490553
20
0.939058956067043
30
0
41
1
10
65.4423261418352
20
0.789843198180705
30
0
41
1
10
65.3793167524747
20
0.497800062806363
30
0
41
1
10
65.3284989342806
20
0.311610602146118
30
0
41
1
10
65.2138237184912
20
-0.0444243739317471
30
0
41
1
10
65.1499759584846
20
-0.214274701666398
30
0
41
1
10
65.0641375190702
20
-0.41652990801893
30
0
41
1
10
65.0466505549912
20
-0.456509293025419
30
0
41
1
10
65.0111750926741
20
-0.535310039488962
30
0
41
1
10
64.9572977422531
20
-0.651581583498313
30
0
41
1
10
64.9016342283561
20
-0.762178207282318
30
0
41
1
10
64.7883579859031
20
-0.976032519553172
30
0
41
1
10
64.710267323501
20
-1.10883721613962
30
0
41
1
10
64.5504547804968
20
-1.35557120830907
30
0
41
1
10
64.4687220969837
20
-1.46949695554989
30
0
41
1
10
64.3647784835119
20
-1.60012657266631
30
0
41
1
10
64.3438995511335
20
-1.62566223565852
30
0
41
1
10
64.3019690345632
20
-1.67554818523777
30
0
41
1
10
64.2809025624887
20
-1.69991388483714
30
0
41
1
10
64.2177243095945
20
-1.77092580596977
30
0
41
1
10
64.1755554986687
20
-1.81558585488059
30
0
41
1
10
64.0489650920315
20
-1.94170331542827
30
0
41
1
10
63.9644658040274
20
-2.01531425796676
30
0
41
1
10
63.7954092986228
20
-2.14213237782531
30
0
41
1
10
63.7108494455132
20
-2.19533744558717
30
0
41
1
10
63.5416457024593
20
-2.28137205957728
30
0
41
1
10
63.4570006073416
20
-2.31420161873183
30
0
41
1
10
63.3510532870086
20
-2.34223171612615
30
0
41
1
10
63.3298427181162
20
-2.34718763483571
30
0
41
1
10
63.2875944244919
20
-2.35575191963531
30
0
41
1
10
63.2244157213563
20
-2.36659661451819
30
0
41
1
10
63.1617975179165
20
-2.37150298659785
30
0
41
1
10
63.0372535336449
20
-2.37353269229362
30
0
41
1
10
62.9551472461973
20
-2.3645216561317
30
0
41
1
10
62.7924920618812
20
-2.32614822749517
30
0
41
1
10
62.6313942510265
20
-2.26742113196758
30
0
41
1
10
62.4728439296057
20
-2.16791385415021
30
0
41
1
10
62.3743676890828
20
-2.09269811602471
30
0
41
1
10
62.3547176563217
20
-2.07701282114104
30
0
41
1
10
62.3155794912873
20
-2.04442122480282
30
0
41
1
10
62.2570811432385
20
-1.9936762964148
30
0
41
1
10
62.1991847274003
20
-1.93737707917177
30
0
41
1
10
62.1608337503138
20
-1.89738064417162
30
0
0
SPLINE
5
C4
100
AcDbEntity
8
1
62
256
6
ByLayer
370
18
48
1
60
0
100
AcDbSpline
70
4
71
3
72
20
73
16
40
0
40
0
40
0
40
0
40
0.0036946474863431
40
0.0036946474863431
40
0.169745539571953
40
0.169745539571953
40
0.335796431657562
40
0.335796431657562
40
0.501847323743172
40
0.501847323743172
40
0.667898215828781
40
0.667898215828781
40
0.83394910791439
40
0.83394910791439
40
1
40
1
40
1
40
1
41
1
10
52.9322535284797
20
13.2938388470183
30
0
41
1
10
52.9436182461429
20
13.2938408835895
30
0
41
1
10
52.9549829519271
20
13.293840984175
30
0
41
1
10
53.477118413192
20
13.2937566589116
30
0
41
1
10
53.9879143902447
20
13.2897748116897
30
0
41
1
10
55.0093813861748
20
13.2740504385926
30
0
41
1
10
55.5200445575394
20
13.2623046944014
30
0
41
1
10
56.5411720856796
20
13.2309976086619
30
0
41
1
10
57.0515678160025
20
13.2114046409831
30
0
41
1
10
58.0727749592285
20
13.16455232357
30
0
41
1
10
58.5835547273961
20
13.1372991602884
30
0
41
1
10
59.6053224151692
20
13.0751157672164
30
0
41
1
10
60.1163071906653
20
13.0401834231781
30
0
41
1
10
61.1383714677207
20
12.9625297799939
30
0
41
1
10
61.6494739899996
20
12.9198124517812
30
0
41
1
10
62.16083375031
20
12.873308845397
30
0
0
SPLINE
5
C5
100
AcDbEntity
8
1
62
256
6
ByLayer
370
18
48
1
60
0
100
AcDbSpline
70
4
71
3
72
46
73
42
40
0
40
0
40
0
40
0
40
0.0206879803933721
40
0.0206879803933721
40
0.0556634096650366
40
0.0556634096650366
40
0.090638838936701
40
0.090638838936701
40
0.160589697480031
40
0.160589697480031
40
0.230540556023362
40
0.230540556023362
40
0.300491414566692
40
0.300491414566692
40
0.335466843838357
40
0.335466843838357
40
0.370442273110022
40
0.370442273110022
40
0.440393131653353
40
0.440393131653353
40
0.475368560925019
40
0.475368560925019
40
0.510343990196685
40
0.510343990196685
40
0.580294848740017
40
0.580294848740017
40
0.615270278011682
40
0.615270278011682
40
0.650245707283347
40
0.650245707283347
40
0.720196565826677
40
0.720196565826677
40
0.790147424370008
40
0.790147424370008
40
0.860098282913338
40
0.860098282913338
40
0.895073712185003
40
0.895073712185003
40
0.930049141456668
40
0.930049141456668
40
1
40
1
40
1
40
1
41
1
10
26.2504969935279
20
9.80783292303087
30
0
41
1
10
26.4135911672502
20
9.84722819238524
30
0
41
1
10
26.5766634979092
20
9.88633219373523
30
0
41
1
10
27.0153656229173
20
9.99077245144434
30
0
41
1
10
27.2909521769943
20
10.0555701716098
30
0
41
1
10
27.8419783687414
20
10.1835325236676
30
0
41
1
10
28.1174074532668
20
10.2467150737094
30
0
41
1
10
28.9436117957857
20
10.4335596231876
30
0
41
1
10
29.4944349835214
20
10.5542961273144
30
0
41
1
10
30.5960538826387
20
10.7883061922163
30
0
41
1
10
31.1468322653483
20
10.9016099432524
30
0
41
1
10
32.2481596515226
20
11.1210609184896
30
0
41
1
10
32.7986947085178
20
11.2272187803734
30
0
41
1
10
33.6246415087381
20
11.3805799010357
30
0
41
1
10
33.8999827734567
20
11.4307197067176
30
0
41
1
10
34.450781163794
20
11.5289537466878
30
0
41
1
10
34.7262376298007
20
11.5770497978212
30
0
41
1
10
35.5527216417054
20
11.7183606382445
30
0
41
1
10
36.1038496617673
20
11.8086187975845
30
0
41
1
10
36.9306749434294
20
11.9381471584636
30
0
41
1
10
37.2063044210312
20
11.9803473353013
30
0
41
1
10
37.7576129774024
20
12.0627754401288
30
0
41
1
10
38.0332953075684
20
12.1029981228369
30
0
41
1
10
38.8606767336952
20
12.2204079371141
30
0
41
1
10
39.4126750335828
20
12.2943868256307
30
0
41
1
10
40.2411536446806
20
12.3990775639654
30
0
41
1
10
40.5173681789934
20
12.4329232244042
30
0
41
1
10
41.0695980344376
20
12.4984946420595
30
0
41
1
10
41.3456503523747
20
12.530228202552
30
0
41
1
10
42.1736226521816
20
12.6222587301158
30
0
41
1
10
42.7253763736022
20
12.6793616755185
30
0
41
1
10
43.82890913558
20
12.7846894525348
30
0
41
1
10
44.3807525846524
20
12.8328802884415
30
0
41
1
10
45.4844302646998
20
12.9204827670958
30
0
41
1
10
46.0362454868257
20
12.9599041705749
30
0
41
1
10
46.8638779617004
20
13.0124556798003
30
0
41
1
10
47.1397308605028
20
13.0288790033524
30
0
41
1
10
47.6914780536391
20
13.0594877161467
30
0
41
1
10
47.9673978319042
20
13.0736626249798
30
0
41
1
10
48.795375542371
20
13.112783199867
30
0
41
1
10
49.3476080240926
20
13.1343482036372
30
0
41
1
10
49.9
20
13.1514332903842
30
0
0
SPLINE
5
C6
100
AcDbEntity
8
1
62
256
6
ByLayer
370
18
48
1
60
0
100
AcDbSpline
70
4
71
3
72
46
73
42
40
0
40
0
40
0
40
0
40
0.0625000000000009
40
0.0625000000000009
40
0.125000000000002
40
0.125000000000002
40
0.156250000000002
40
0.156250000000002
40
0.187500000000002
40
0.187500000000002
40
0.250000000000001
40
0.250000000000001
40
0.281250000000001
40
0.281250000000001
40
0.3125
40
0.3125
40
0.375
40
0.375
40
0.4375
40
0.4375
40
0.499999999999999
40
0.499999999999999
40
0.531249999999999
40
0.531249999999999
40
0.562499999999999
40
0.562499999999999
40
0.624999999999999
40
0.624999999999999
40
0.687499999999999
40
0.687499999999999
40
0.749999999999999
40
0.749999999999999
40
0.812499999999998
40
0.812499999999998
40
0.843749999999998
40
0.843749999999998
40
0.874999999999998
40
0.874999999999998
40
0.937499999999999
40
0.937499999999999
40
1
40
1
40
1
40
1
41
1
10
49.9
20
2.48874436765146
30
0
41
1
10
49.2255603973966
20
2.728092023752
30
0
41
1
10
48.5514971088359
20
2.9656841650027
30
0
41
1
10
47.2042367534579
20
3.43770408794816
30
0
41
1
10
46.5310899888494
20
3.67226394553711
30
0
41
1
10
45.5217487518371
20
4.0209827033128
30
0
41
1
10
45.1853570971742
20
4.1366817704089
30
0
41
1
10
44.5126030922455
20
4.36678644680632
30
0
41
1
10
44.1762472198549
20
4.4812097924424
30
0
41
1
10
43.1672756241085
20
4.82268451876197
30
0
41
1
10
42.4947564007255
20
5.04794374176319
30
0
41
1
10
41.4862280949014
20
5.38237880339955
30
0
41
1
10
41.1500985700004
20
5.49329218405794
30
0
41
1
10
40.4777226663298
20
5.71345517027927
30
0
41
1
10
40.1414872068724
20
5.82273354552643
30
0
41
1
10
39.1326564161678
20
6.14821171944246
30
0
41
1
10
38.4599368089408
20
6.36205752288367
30
0
41
1
10
37.1142896709437
20
6.78375757180027
30
0
41
1
10
36.4413609375908
20
6.99160104840129
30
0
41
1
10
35.0946744913227
20
7.39976857748616
30
0
41
1
10
34.4208606182128
20
7.59996725687162
30
0
41
1
10
33.4095135208485
20
7.89462383839759
30
0
41
1
10
33.0722202664008
20
7.99192264749379
30
0
41
1
10
32.3979765758081
20
8.18449858613332
30
0
41
1
10
32.0610020833739
20
8.27981129564529
30
0
41
1
10
31.0503892979576
20
8.56252535851922
30
0
41
1
10
30.3768742219945
20
8.74629858963718
30
0
41
1
10
29.0302744173524
20
9.10448379499917
30
0
41
1
10
28.3572326421883
20
9.27898443439332
30
0
41
1
10
27.0116404024857
20
9.61872815485464
30
0
41
1
10
26.3390468381286
20
9.78387496816964
30
0
41
1
10
24.9936144696416
20
10.103520039641
30
0
41
1
10
24.3208217610246
20
10.2581178365562
30
0
41
1
10
23.3116086228336
20
10.4823379893891
30
0
41
1
10
22.97520024588
20
10.5557973429032
30
0
41
1
10
22.3023768534022
20
10.7001452900207
30
0
41
1
10
21.9659585771324
20
10.7710265494698
30
0
41
1
10
20.9563922048067
20
10.9793177999152
30
0
41
1
10
20.2829938870207
20
11.1124850517857
30
0
41
1
10
18.9355468500614
20
11.367540321085
30
0
41
1
10
18.2615020781713
20
11.4894356755728
30
0
41
1
10
17.5871957543738
20
11.6057272997378
30
0
0
SPLINE
5
C7
100
AcDbEntity
8
1
62
256
6
ByLayer
370
18
48
1
60
0
100
AcDbSpline
70
4
71
3
72
14
73
10
40
0
40
0
40
0
40
0
40
0.25
40
0.25
40
0.5
40
0.5
40
0.75
40
0.75
40
1
40
1
40
1
40
1
41
1
10
17.5871957543739
20
-11.6057272997378
30
0
41
1
10
17.3677500498424
20
-11.6448085835892
30
0
41
1
10
17.1494115519407
20
-11.6844511147943
30
0
41
1
10
16.7146738947791
20
-11.7643016857388
30
0
41
1
10
16.4982739732547
20
-11.8045094398569
30
0
41
1
10
16.0672341416279
20
-11.8850625432987
30
0
41
1
10
15.8525938185713
20
-11.9254082596665
30
0
41
1
10
15.4250098009142
20
-12.0059392781101
30
0
41
1
10
15.2120661491179
20
-12.0461255904182
30
0
41
1
10
15
20
-12.0861371976138
30
0
0
SPLINE
5
C8
100
AcDbEntity
8
1
62
256
6
ByLayer
370
18
48
1
60
0
100
AcDbSpline
70
4
71
4
72
10
73
5
40
0
40
0
40
0
40
0
40
0
40
1
40
1
40
1
40
1
40
1
41
0.996270672055141
10
18.155807630002
20
-8.1821827702304
30
0
41
0.995332790511233
10
17.9592726574747
20
-8.96477380216043
30
0
41
0.995048823283169
10
17.7940843418198
20
-9.81789067975464
30
0
41
0.996030760342778
10
17.6698042794089
20
-10.7113559126059
30
0
41
0.997302691446341
10
17.5871957543739
20
-11.6057272997377
30
0
0
SPLINE
5
C9
100
AcDbEntity
8
1
62
256
6
ByLayer
370
18
48
1
60
0
100
AcDbSpline
70
4
71
3
72
25
73
21
40
0
40
0
40
0
40
0
40
0.124999999999998
40
0.124999999999998
40
0.249999999999997
40
0.249999999999997
40
0.374999999999995
40
0.374999999999995
40
0.499999999999993
40
0.499999999999993
40
0.531249999999991
40
0.531249999999991
40
0.56249999999999
40
0.624999999999991
40
0.624999999999991
40
0.749999999999994
40
0.749999999999994
40
0.874999999999997
40
0.874999999999997
40
1
40
1
40
1
40
1
41
1
10
15
20
-8.33866512430006
30
0
41
1
10
15.3550825758795
20
-8.28522891093559
30
0
41
1
10
15.7103840135596
20
-8.24428500332584
30
0
41
1
10
16.4213965410464
20
-8.18645559230038
30
0
41
1
10
16.7771077871555
20
-8.16957613785874
30
0
41
1
10
17.4889191115805
20
-8.15891770514867
30
0
41
1
10
17.8450193289892
20
-8.16514487012134
30
0
41
1
10
18.5575903062911
20
-8.19951632511894
30
0
41
1
10
18.9140612059036
20
-8.22766689348052
30
0
41
1
10
19.3598689852219
20
-8.27555575661427
30
0
41
1
10
19.4490886312446
20
-8.28577307403569
30
0
41
1
10
19.6273376615603
20
-8.30741876536882
30
0
41
1
10
19.8940756067197
20
-8.3416588485465
30
0
41
1
10
20.1589676220343
20
-8.38099526408695
30
0
41
1
10
20.6864541598015
20
-8.46586582201749
30
0
41
1
10
21.0350473394095
20
-8.53071370712547
30
0
41
1
10
21.7270016941515
20
-8.67364074820583
30
0
41
1
10
22.0703645366917
20
-8.75171205599997
30
0
41
1
10
22.7527741817577
20
-8.91774369707832
30
0
41
1
10
23.091825476932
20
-9.0056901807117
30
0
41
1
10
23.429140879598
20
-9.09705775697992
30
0
0
SPLINE
5
CA
100
AcDbEntity
8
1
62
256
6
ByLayer
370
18
48
1
60
0
100
AcDbSpline
70
4
71
3
72
35
73
31
40
0
40
0
40
0
40
0
40
0.0005904833868267
40
0.0005904833868267
40
0.0914458939880206
40
0.0914458939880206
40
0.182301304589214
40
0.182301304589214
40
0.205015157239515
40
0.205015157239515
40
0.227729009889815
40
0.273156715190416
40
0.273156715190416
40
0.364012125791614
40
0.364012125791614
40
0.454867536392812
40
0.454867536392812
40
0.545722946994009
40
0.545722946994009
40
0.636578357595207
40
0.636578357595207
40
0.682006062895806
40
0.682006062895806
40
0.727433768196405
40
0.727433768196405
40
0.818289178797604
40
0.818289178797604
40
0.909144589398802
40
0.909144589398802
40
1
40
1
40
1
40
1
41
1
10
7.43937404479729
20
16.5392764635548
30
0
41
1
10
7.4404731022685
20
16.5387910245632
30
0
41
1
10
7.44157259772072
20
16.5383051413993
30
0
41
1
10
7.61191500920958
20
16.4629895836248
30
0
41
1
10
7.79150161132827
20
16.377687117508
30
0
41
1
10
8.16940853123879
20
16.1893868299152
30
0
41
1
10
8.3677421483041
20
16.0863756533238
30
0
41
1
10
8.62640740751277
20
15.9480750108541
30
0
41
1
10
8.67871492004383
20
15.9199167733805
30
0
41
1
10
8.78422051707821
20
15.8627648144707
30
0
41
1
10
8.94348505785848
20
15.7759625602739
30
0
41
1
10
9.10564609556923
20
15.6861243705207
30
0
41
1
10
9.43352559810216
20
15.5028265681385
30
0
41
1
10
9.65685305228033
20
15.3758167499745
30
0
41
1
10
10.111468785605
20
15.1139473223151
30
0
41
1
10
10.3427586562207
20
14.9790829028371
30
0
41
1
10
10.8118354961025
20
14.702763364245
30
0
41
1
10
11.0496200095563
20
14.5613054846858
30
0
41
1
10
11.5302816923602
20
14.2726679229959
30
0
41
1
10
11.7731526067563
20
14.1254858512496
30
0
41
1
10
12.1403690376005
20
13.9008337493521
30
0
41
1
10
12.2631196751458
20
13.8253876223998
30
0
41
1
10
12.509030558232
20
13.6735258473902
30
0
41
1
10
12.6322214854668
20
13.5970911614825
30
0
41
1
10
13.0024108139096
20
13.3663186670356
30
0
41
1
10
13.250007403533
20
13.2105104744043
30
0
41
1
10
13.7467234167267
20
12.8951951024822
30
0
41
1
10
13.9958414312622
20
12.7356830207673
30
0
41
1
10
14.4961144475501
20
12.4132926708279
30
0
41
1
10
14.7472721274664
20
12.250411246483
30
0
41
1
10
15
20
12.0861371976139
30
0
0
SPLINE
5
CB
100
AcDbEntity
8
1
62
256
6
ByLayer
370
18
48
1
60
0
100
AcDbSpline
70
4
71
3
72
109
73
105
40
0
40
0
40
0
40
0
40
0.0312499999999959
40
0.0312499999999959
40
0.0624999999999918
40
0.0624999999999918
40
0.0937499999999877
40
0.0937499999999877
40
0.124999999999984
40
0.124999999999984
40
0.140624999999982
40
0.140624999999982
40
0.148437499999981
40
0.148437499999981
40
0.156249999999981
40
0.156249999999981
40
0.187499999999978
40
0.187499999999978
40
0.218749999999976
40
0.218749999999976
40
0.249999999999974
40
0.249999999999974
40
0.257812499999973
40
0.261718749999972
40
0.261718749999972
40
0.265624999999972
40
0.265624999999972
40
0.281249999999971
40
0.281249999999971
40
0.312499999999971
40
0.312499999999971
40
0.34374999999997
40
0.34374999999997
40
0.35156249999997
40
0.35156249999997
40
0.355468749999969
40
0.355468749999969
40
0.359374999999969
40
0.37499999999997
40
0.37499999999997
40
0.406249999999972
40
0.406249999999972
40
0.421874999999973
40
0.421874999999973
40
0.425781249999973
40
0.425781249999973
40
0.429687499999973
40
0.429687499999973
40
0.437499999999973
40
0.437499999999973
40
0.468749999999974
40
0.468749999999974
40
0.499999999999975
40
0.499999999999975
40
0.503906249999975
40
0.503906249999975
40
0.507812499999975
40
0.515624999999975
40
0.515624999999975
40
0.531249999999975
40
0.531249999999975
40
0.562499999999974
40
0.562499999999974
40
0.566406249999974
40
0.566406249999974
40
0.570312499999974
40
0.570312499999974
40
0.578124999999974
40
0.593749999999975
40
0.593749999999975
40
0.624999999999977
40
0.624999999999977
40
0.632812499999977
40
0.632812499999977
40
0.640624999999978
40
0.640624999999978
40
0.65624999999998
40
0.65624999999998
40
0.687499999999983
40
0.687499999999983
40
0.718749999999986
40
0.718749999999986
40
0.726562499999986
40
0.726562499999986
40
0.734374999999987
40
0.749999999999988
40
0.749999999999988
40
0.78124999999999
40
0.78124999999999
40
0.812499999999991
40
0.812499999999991
40
0.843749999999993
40
0.843749999999993
40
0.874999999999994
40
0.874999999999994
40
0.890624999999995
40
0.890624999999995
40
0.906249999999996
40
0.906249999999996
40
0.937499999999997
40
0.937499999999997
40
0.968749999999999
40
0.968749999999999
40
1
40
1
40
1
40
1
41
1
10
15
20
-8.33866512430006
30
0
41
1
10
14.7184391020604
20
-8.47675830529579
30
0
41
1
10
14.4399937677205
20
-8.62036880544846
30
0
41
1
10
13.8891536485686
20
-8.91837975445682
30
0
41
1
10
13.6167588084616
20
-9.07278001891515
30
0
41
1
10
13.0778727501663
20
-9.39219819908809
30
0
41
1
10
12.8113813449009
20
-9.55721563632227
30
0
41
1
10
12.2841923131775
20
-9.89777784836323
30
0
41
1
10
12.0234943237612
20
-10.0733217374906
30
0
41
1
10
11.6367441301895
20
-10.3445417644982
30
0
41
1
10
11.5085439162902
20
-10.4362666823525
30
0
41
1
10
11.3173163930755
20
-10.575841893651
30
0
41
1
10
11.2537527158902
20
-10.6226983411284
30
0
41
1
10
11.1269830961193
20
-10.7170766672509
30
0
41
1
10
11.0639245898411
20
-10.7644891255371
30
0
41
1
10
10.7506007054218
20
-11.0023831588945
30
0
41
1
10
10.5058776153105
20
-11.1956227991972
30
0
41
1
10
10.0282276808961
20
-11.5872609672553
30
0
41
1
10
9.79529888089263
20
-11.7856600074424
30
0
41
1
10
9.34139455145777
20
-12.1869626328231
30
0
41
1
10
9.12041532528571
20
-12.3898668323713
30
0
41
1
10
8.85195767834659
20
-12.6459147480817
30
0
41
1
10
8.77200429202566
20
-12.7229104729888
30
0
41
1
10
8.69293992217203
20
-12.8001670396186
30
0
41
1
10
8.64042959702209
20
-12.8517281358476
30
0
41
1
10
8.61427688843071
20
-12.8775344789192
30
0
41
1
10
8.4843693886954
20
-13.0063518529695
30
0
41
1
10
8.38289604413657
20
-13.108999408596
30
0
41
1
10
8.08584962653734
20
-13.4154860244996
30
0
41
1
10
7.89762635690209
20
-13.6178762543433
30
0
41
1
10
7.54138836863365
20
-14.0173939731178
30
0
41
1
10
7.37336203323551
20
-14.2145280367805
30
0
41
1
10
7.17688094257829
20
-14.4565988098265
30
0
41
1
10
7.13826507750565
20
-14.5047945609712
30
0
41
1
10
7.08138857196153
20
-14.576736933437
30
0
41
1
10
7.06260415927613
20
-14.6006597721816
30
0
41
1
10
7.02552108937641
20
-14.6482139108363
30
0
41
1
10
6.93394345021875
20
-14.7664773076825
30
0
41
1
10
6.84800621684218
20
-14.8816008341872
30
0
41
1
10
6.65266030221522
20
-15.15157489304
30
0
41
1
10
6.53691409418627
20
-15.3231546890189
30
0
41
1
10
6.38617584522572
20
-15.5663427727616
30
0
41
1
10
6.33975567411304
20
-15.6450358257197
30
0
41
1
10
6.28674627038598
20
-15.7402167651776
30
0
41
1
10
6.2763955323307
20
-15.7590934921876
30
0
41
1
10
6.25620366188684
20
-15.7965216245138
30
0
41
1
10
6.2463686309801
20
-15.8150625588082
30
0
41
1
10
6.21776514901546
20
-15.8699395454335
30
0
41
1
10
6.19985296596047
20
-15.9056128918193
30
0
41
1
10
6.11603341156814
20
-16.0794246621828
30
0
41
1
10
6.06726698697705
20
-16.203945399165
30
0
41
1
10
6.00654988257267
20
-16.4232264128473
30
0
41
1
10
5.9945855212913
20
-16.5179969532934
30
0
41
1
10
6.00324615586993
20
-16.6067310913365
30
0
41
1
10
6.00451840722781
20
-16.6163401965185
30
0
41
1
10
6.00766854589492
20
-16.6349628297105
30
0
41
1
10
6.01330523876578
20
-16.6620414801942
30
0
41
1
10
6.02165096649779
20
-16.6865813670937
30
0
41
1
10
6.04190069237904
20
-16.7323380827858
30
0
41
1
10
6.06014057458827
20
-16.7584149305216
30
0
41
1
10
6.12881631258262
20
-16.8237364099373
30
0
41
1
10
6.19314851838152
20
-16.8501130984795
30
0
41
1
10
6.28647070552518
20
-16.8609703265446
30
0
41
1
10
6.2971320351447
20
-16.861914485015
30
0
41
1
10
6.31904149004839
20
-16.8632786967484
30
0
41
1
10
6.33028563095831
20
-16.8636978117651
30
0
41
1
10
6.36475361892366
20
-16.8641722376675
30
0
41
1
10
6.43676483101984
20
-16.8619983445761
30
0
41
1
10
6.51776521906862
20
-16.8507940499723
30
0
41
1
10
6.69128643147778
20
-16.8170821777038
30
0
41
1
10
6.82229246493824
20
-16.7795706981898
30
0
41
1
10
7.00433958393108
20
-16.7156748586321
30
0
41
1
10
7.04166635886719
20
-16.7020425826942
30
0
41
1
10
7.11814336620003
20
-16.673106456662
30
0
41
1
10
7.15709856674647
20
-16.6578764779987
30
0
41
1
10
7.2760202540596
20
-16.6100225149048
30
0
41
1
10
7.35805129160002
20
-16.5752334301416
30
0
41
1
10
7.61191500920955
20
-16.4629895836248
30
0
41
1
10
7.79150161132827
20
-16.377687117508
30
0
41
1
10
8.16940853123884
20
-16.1893868299152
30
0
41
1
10
8.3677421483041
20
-16.0863756533238
30
0
41
1
10
8.62640740751274
20
-15.9480750108542
30
0
41
1
10
8.67871492004383
20
-15.9199167733805
30
0
41
1
10
8.78422051707827
20
-15.8627648144708
30
0
41
1
10
8.94348505785842
20
-15.7759625602739
30
0
41
1
10
9.10564609556923
20
-15.6861243705207
30
0
41
1
10
9.43352559810211
20
-15.5028265681385
30
0
41
1
10
9.65685305228033
20
-15.3758167499745
30
0
41
1
10
10.1114687856051
20
-15.1139473223151
30
0
41
1
10
10.3427586562207
20
-14.9790829028371
30
0
41
1
10
10.8118354961025
20
-14.702763364245
30
0
41
1
10
11.0496200095563
20
-14.5613054846857
30
0
41
1
10
11.5302816923602
20
-14.2726679229958
30
0
41
1
10
11.7731526067563
20
-14.1254858512496
30
0
41
1
10
12.1403690376005
20
-13.9008337493521
30
0
41
1
10
12.2631196751458
20
-13.8253876223997
30
0
41
1
10
12.509030558232
20
-13.6735258473902
30
0
41
1
10
12.6322214854667
20
-13.5970911614825
30
0
41
1
10
13.0024108139096
20
-13.3663186670356
30
0
41
1
10
13.250007403533
20
-13.2105104744042
30
0
41
1
10
13.7467234167267
20
-12.8951951024822
30
0
41
1
10
13.9958414312622
20
-12.7356830207672
30
0
41
1
10
14.4961144475501
20
-12.4132926708279
30
0
41
1
10
14.7472721274664
20
-12.250411246483
30
0
41
1
10
15
20
-12.0861371976139
30
0
0
SPLINE
5
CC
100
AcDbEntity
8
1
62
256
6
ByLayer
370
13
48
1
60
0
100
AcDbSpline
70
4
71
3
72
38
73
34
40
0
40
0
40
0
40
0
40
0.0625
40
0.0625
40
0.125
40
0.125
40
0.1875
40
0.1875
40
0.25
40
0.25
40
0.3125
40
0.3125
40
0.375
40
0.375
40
0.4375
40
0.4375
40
0.5
40
0.5
40
0.5625
40
0.5625
40
0.625
40
0.625
40
0.6875
40
0.6875
40
0.75
40
0.75
40
0.8125
40
0.8125
40
0.875
40
0.875
40
0.9375
40
0.9375
40
1
40
1
40
1
40
1
41
1
10
49.9
20
-2.77351156647328
30
0
41
1
10
49.9729841578011
20
-2.30181633882719
30
0
41
1
10
50.0459683156022
20
-1.83229800560886
30
0
41
1
10
50.1919366312044
20
-0.905630115086467
30
0
41
1
10
50.2649207890055
20
-0.448486085631203
30
0
41
1
10
50.4108891046077
20
0.446937910573553
30
0
41
1
10
50.4838732624088
20
0.904042046757098
30
0
41
1
10
50.6298415780111
20
1.83068169354033
30
0
41
1
10
50.7028257358122
20
2.30019010837668
30
0
41
1
10
50.8487940514144
20
3.24357078540456
30
0
41
1
10
50.9217782092155
20
3.71743127062214
30
0
41
1
10
51.0677465248177
20
4.66020699147657
30
0
41
1
10
51.1407306826188
20
5.12910438132442
30
0
41
1
10
51.286698998221
20
6.05180633377677
30
0
41
1
10
51.3596831560221
20
6.50558842760643
30
0
41
1
10
51.5056514716243
20
7.3876853855792
30
0
41
1
10
51.5786356294254
20
7.8159758176777
30
0
41
1
10
51.7246039450276
20
8.63720315863932
30
0
41
1
10
51.7975881028288
20
9.03011710149511
30
0
41
1
10
51.9435564184311
20
9.77191803872745
30
0
41
1
10
52.0165405762321
20
10.1207869660554
30
0
41
1
10
52.1625088918343
20
10.7676657707595
30
0
41
1
10
52.2354930496354
20
11.0656650696025
30
0
41
1
10
52.3814613652376
20
11.606252437402
30
0
41
1
10
52.4544455230387
20
11.8488385406152
30
0
41
1
10
52.6004138386409
20
12.2765182292642
30
0
41
1
10
52.673397996442
20
12.4616179455724
30
0
41
1
10
52.8193663120442
20
12.7746484855773
30
0
41
1
10
52.8923504698453
20
12.9025916807647
30
0
41
1
10
53.0383187854475
20
13.1037519389177
30
0
41
1
10
53.1113029432487
20
13.1769850326339
30
0
41
1
10
53.2572712588509
20
13.272850533375
30
0
41
1
10
53.3302554166519
20
13.2955
30
0
41
1
10
53.4032395744531
20
13.2955
30
0
0
SPLINE
5
CD
100
AcDbEntity
8
1
62
256
6
ByLayer
370
13
48
1
60
0
100
AcDbSpline
70
4
71
3
72
121
73
117
40
0
40
0
40
0
40
0
40
0.0312500000000005
40
0.0312500000000005
40
0.062500000000001
40
0.062500000000001
40
0.0781250000000012
40
0.0781250000000012
40
0.0937500000000014
40
0.0937500000000014
40
0.109375000000002
40
0.109375000000002
40
0.125000000000002
40
0.125000000000002
40
0.140625000000002
40
0.140625000000002
40
0.156250000000002
40
0.156250000000002
40
0.171875000000002
40
0.171875000000002
40
0.187500000000003
40
0.187500000000003
40
0.203125000000003
40
0.203125000000003
40
0.218750000000003
40
0.218750000000003
40
0.250000000000003
40
0.250000000000003
40
0.281250000000004
40
0.281250000000004
40
0.285156250000004
40
0.285156250000004
40
0.289062500000004
40
0.296875000000004
40
0.296875000000004
40
0.312500000000003
40
0.312500000000003
40
0.343750000000003
40
0.343750000000003
40
0.359375000000003
40
0.359375000000003
40
0.375000000000003
40
0.375000000000003
40
0.390625000000003
40
0.390625000000003
40
0.406250000000003
40
0.406250000000003
40
0.421875000000003
40
0.421875000000003
40
0.437500000000002
40
0.437500000000002
40
0.453125000000002
40
0.453125000000002
40
0.468750000000002
40
0.468750000000002
40
0.484375000000002
40
0.484375000000002
40
0.500000000000002
40
0.500000000000002
40
0.531250000000002
40
0.531250000000002
40
0.562500000000002
40
0.562500000000002
40
0.566406250000002
40
0.566406250000002
40
0.570312500000002
40
0.570312500000002
40
0.578125000000002
40
0.578125000000002
40
0.593750000000002
40
0.593750000000002
40
0.625000000000002
40
0.625000000000002
40
0.640625000000002
40
0.640625000000002
40
0.656250000000002
40
0.656250000000002
40
0.671875000000002
40
0.671875000000002
40
0.687500000000002
40
0.687500000000002
40
0.703125000000002
40
0.703125000000002
40
0.718750000000002
40
0.718750000000002
40
0.734375000000002
40
0.734375000000002
40
0.750000000000002
40
0.750000000000002
40
0.765625000000002
40
0.765625000000002
40
0.781250000000002
40
0.781250000000002
40
0.812500000000002
40
0.812500000000002
40
0.843750000000002
40
0.843750000000002
40
0.851562500000002
40
0.851562500000002
40
0.859375000000002
40
0.859375000000002
40
0.875000000000002
40
0.875000000000002
40
0.906250000000001
40
0.906250000000001
40
0.921875000000001
40
0.921875000000001
40
0.937500000000001
40
0.937500000000001
40
0.953125000000001
40
0.953125000000001
40
0.968750000000001
40
0.968750000000001
40
0.984375
40
0.984375
40
1
40
1
40
1
40
1
41
1
10
51.3595997445254
20
13.2955
30
0
41
1
10
51.4721125987524
20
13.2955
30
0
41
1
10
51.5846254529793
20
13.2415280997953
30
0
41
1
10
51.8096511614332
20
13.0073858382258
30
0
41
1
10
51.9221640156602
20
12.8270705352933
30
0
41
1
10
52.0909332970006
20
12.4541676799825
30
0
41
1
10
52.1471897241142
20
12.3128733298689
30
0
41
1
10
52.2597025783411
20
11.9961211803421
30
0
41
1
10
52.3159590054546
20
11.8206614157208
30
0
41
1
10
52.4284718596815
20
11.4362328568852
30
0
41
1
10
52.484728286795
20
11.2272637260883
30
0
41
1
10
52.597241141022
20
10.777344151806
30
0
41
1
10
52.6534975681355
20
10.5363951783765
30
0
41
1
10
52.7660104223624
20
10.0249004517807
30
0
41
1
10
52.8222668494759
20
9.75435795683461
30
0
41
1
10
52.9347797037028
20
9.18684633564197
30
0
41
1
10
52.9910361308163
20
8.88988202816583
30
0
41
1
10
53.1035489850433
20
8.27336030358995
30
0
41
1
10
53.1598054121569
20
7.9538088543365
30
0
41
1
10
53.2723182663838
20
7.29644617892643
30
0
41
1
10
53.3285746934973
20
6.95864153376851
30
0
41
1
10
53.4410875477242
20
6.26941519898608
30
0
41
1
10
53.4973439748377
20
5.91800012380622
30
0
41
1
10
53.6098568290646
20
5.20630486195586
30
0
41
1
10
53.6661132561781
20
4.84603078352495
30
0
41
1
10
53.8348825375186
20
3.75891326786197
30
0
41
1
10
53.9473953917455
20
3.02598621178393
30
0
41
1
10
54.1724211001995
20
1.57748392629637
30
0
41
1
10
54.2849339544264
20
0.861992914018913
30
0
41
1
10
54.4115109154317
20
0.0815591742078254
30
0
41
1
10
54.4255750222101
20
-0.0045900134782926
30
0
41
1
10
54.4537032357669
20
-0.17761878205701
30
0
41
1
10
54.4958955561019
20
-0.438183493536854
30
0
41
1
10
54.5380878764371
20
-0.701625374425021
30
0
41
1
10
54.6224725171073
20
-1.23179533408231
30
0
41
1
10
54.6787289442208
20
-1.58964044526184
30
0
41
1
10
54.8474982255612
20
-2.67134333822111
30
0
41
1
10
54.9600110797882
20
-3.4035765592777
30
0
41
1
10
55.1287803611286
20
-4.49407838963154
30
0
41
1
10
55.1850367882421
20
-4.85621379799952
30
0
41
1
10
55.2975496424691
20
-5.57316285022111
30
0
41
1
10
55.3538060695826
20
-5.9279706491229
30
0
41
1
10
55.4663189238095
20
-6.62552067337333
30
0
41
1
10
55.5225753509229
20
-6.96825639339127
30
0
41
1
10
55.6350882051499
20
-7.6369625064539
30
0
41
1
10
55.6913446322634
20
-7.96292624445326
30
0
41
1
10
55.8038574864904
20
-8.59363219670519
30
0
41
1
10
55.8601139136038
20
-8.89836818172409
30
0
41
1
10
55.9726267678308
20
-9.48260152862741
30
0
41
1
10
56.0288831949443
20
-9.76209364658777
30
0
41
1
10
56.1413960491713
20
-10.2924354851887
30
0
41
1
10
56.1976524762848
20
-10.5432814069095
30
0
41
1
10
56.3101653305117
20
-11.0136777105949
30
0
41
1
10
56.3664217576252
20
-11.2332260304666
30
0
41
1
10
56.4789346118522
20
-11.6392134903563
30
0
41
1
10
56.5351910389656
20
-11.8256523918098
30
0
41
1
10
56.6477038931926
20
-12.1644815232706
30
0
41
1
10
56.7039603203061
20
-12.3168732203801
30
0
41
1
10
56.8727296016465
20
-12.7228486815261
30
0
41
1
10
56.9852424558735
20
-12.92489897253
30
0
41
1
10
57.2102681643274
20
-13.200164948211
30
0
41
1
10
57.3227810185545
20
-13.2735224048223
30
0
41
1
10
57.4493579795597
20
-13.2934304198568
30
0
41
1
10
57.4634220863381
20
-13.2947767343573
30
0
41
1
10
57.4915502998948
20
-13.2957778316742
30
0
41
1
10
57.5056144066733
20
-13.2954385801703
30
0
41
1
10
57.5478067270083
20
-13.2918666409809
30
0
41
1
10
57.575934940565
20
-13.2860691061159
30
0
41
1
10
57.6603195812352
20
-13.2579616153018
30
0
41
1
10
57.7165760083487
20
-13.2249239277426
30
0
41
1
10
57.8853452896892
20
-13.0795759576478
30
0
41
1
10
57.9978581439162
20
-12.9207152217394
30
0
41
1
10
58.1666274252566
20
-12.5807056946281
30
0
41
1
10
58.22288385237
20
-12.4504889305896
30
0
41
1
10
58.335396706597
20
-12.1558626538465
30
0
41
1
10
58.3916531337105
20
-11.9914507130211
30
0
41
1
10
58.5041659879374
20
-11.6288106582421
30
0
41
1
10
58.5604224150509
20
-11.4305816516381
30
0
41
1
10
58.6729352692779
20
-11.0015511942161
30
0
41
1
10
58.7291916963914
20
-10.7707506195805
30
0
41
1
10
58.8417045506184
20
-10.2786889085114
30
0
41
1
10
58.8979609777319
20
-10.0174304654661
30
0
41
1
10
59.0104738319588
20
-9.46737950070474
30
0
41
1
10
59.0667302590723
20
-9.17859132886537
30
0
41
1
10
59.1792431132992
20
-8.57711550919049
30
0
41
1
10
59.2354995404127
20
-8.26443351081755
30
0
41
1
10
59.3480123946397
20
-7.61936120295036
30
0
41
1
10
59.4042688217532
20
-7.28697733878434
30
0
41
1
10
59.5167816759801
20
-6.60706552669308
30
0
41
1
10
59.5730381030936
20
-6.25954424503362
30
0
41
1
10
59.6855509573205
20
-5.55409593824302
30
0
41
1
10
59.741807384434
20
-5.19617523906351
30
0
41
1
10
59.9105766657745
20
-4.11387766743678
30
0
41
1
10
60.0230895200015
20
-3.38115769066982
30
0
41
1
10
60.2481152284554
20
-1.92801346255297
30
0
41
1
10
60.3606280826823
20
-1.20768711751018
30
0
41
1
10
60.501269150466
20
-0.332225979402011
30
0
41
1
10
60.5293973640228
20
-0.158505505578432
30
0
41
1
10
60.5856537911363
20
0.186735519053741
30
0
41
1
10
60.613782004693
20
0.360744363459645
30
0
41
1
10
60.6981666453632
20
0.886420114335948
30
0
41
1
10
60.7544230724766
20
1.24175355522155
30
0
41
1
10
60.9231923538171
20
2.31764171256037
30
0
41
1
10
61.0357052080441
20
3.04830951752461
30
0
41
1
10
61.2044744893846
20
4.14078857538297
30
0
41
1
10
61.260730916498
20
4.5043002091042
30
0
41
1
10
61.373243770725
20
5.22551761433726
30
0
41
1
10
61.4295001978385
20
5.58321784483428
30
0
41
1
10
61.5420130520655
20
6.28809550417267
30
0
41
1
10
61.5982694791789
20
6.63526659097928
30
0
41
1
10
61.7107823334059
20
7.31435036215657
30
0
41
1
10
61.7670387605193
20
7.64625637859516
30
0
41
1
10
61.8795516147463
20
8.2902528714929
30
0
41
1
10
61.9358080418598
20
8.60233691683078
30
0
41
1
10
62.0483208960868
20
9.20250953094541
30
0
41
1
10
62.1045773232003
20
9.49059247952457
30
0
41
1
10
62.1608337503138
20
9.76486781429472
30
0
0
SPLINE
5
CE
100
AcDbEntity
8
1
62
256
6
ByLayer
370
13
48
1
60
0
100
AcDbSpline
70
4
71
3
72
10
73
6
40
0
40
0
40
0
40
0
40
0.5
40
0.5
40
1
40
1
40
1
40
1
41
1
10
61.5767936649114
20
13.2955
30
0
41
1
10
61.6741336791451
20
13.2955
30
0
41
1
10
61.7714736933789
20
13.2551522085051
30
0
41
1
10
61.9661537218462
20
13.0816681639139
30
0
41
1
10
62.06349373608
20
12.9484605961847
30
0
41
1
10
62.1608337503137
20
12.764866522396
30
0
0
SPLINE
5
CF
100
AcDbEntity
8
1
62
256
6
ByLayer
370
13
48
1
60
0
100
AcDbSpline
70
4
71
3
72
38
73
34
40
0
40
0
40
0
40
0
40
0.0624999999999999
40
0.0624999999999999
40
0.125
40
0.125
40
0.1875
40
0.1875
40
0.25
40
0.25
40
0.3125
40
0.3125
40
0.375
40
0.375
40
0.4375
40
0.4375
40
0.5
40
0.5
40
0.5625
40
0.5625
40
0.625
40
0.625
40
0.6875
40
0.6875
40
0.75
40
0.75
40
0.8125
40
0.8125
40
0.875
40
0.875
40
0.9375
40
0.9375
40
1
40
1
40
1
40
1
41
1
10
49.9
20
0.298869117701003
30
0
41
1
10
49.9628480527214
20
0.687844163816123
30
0
41
1
10
50.0256961054427
20
1.08332038831381
30
0
41
1
10
50.1513922108854
20
1.88298026665729
30
0
41
1
10
50.2142402636068
20
2.28716107361737
30
0
41
1
10
50.3399363690495
20
3.09909390897943
30
0
41
1
10
50.4027844217709
20
3.50684052816624
30
0
41
1
10
50.5284805272136
20
4.32005165890283
30
0
41
1
10
50.591328579935
20
4.72550823844429
30
0
41
1
10
50.7170246853776
20
5.527769460771
30
0
41
1
10
50.779872738099
20
5.92456406701225
30
0
41
1
10
50.9055688435417
20
6.70288657084163
30
0
41
1
10
50.9684168962631
20
7.08440313315461
30
0
41
1
10
51.0941130017058
20
7.82563391905842
30
0
41
1
10
51.1569610544271
20
8.18533662087339
30
0
41
1
10
51.2826571598699
20
8.87683062990985
30
0
41
1
10
51.3455052125912
20
9.20861147957152
30
0
41
1
10
51.4712013180339
20
9.83891391018398
30
0
41
1
10
51.5340493707553
20
10.137427265859
30
0
41
1
10
51.659745476198
20
10.6968926288559
30
0
41
1
10
51.7225935289194
20
10.9578395108393
30
0
41
1
10
51.8482896343621
20
11.4391189093307
30
0
41
1
10
51.9111376870835
20
11.6594498134465
30
0
41
1
10
52.0368337925262
20
12.0577955007138
30
0
41
1
10
52.0996818452475
20
12.2358120930739
30
0
41
1
10
52.2253779506902
20
12.5491748845493
30
0
41
1
10
52.2882260034116
20
12.684525780331
30
0
41
1
10
52.4139221088543
20
12.913450353517
30
0
41
1
10
52.4767701615756
20
13.0070307833612
30
0
41
1
10
52.6024662670184
20
13.1543798643092
30
0
41
1
10
52.6653143197398
20
13.2081563752474
30
0
41
1
10
52.7910104251824
20
13.2787124083482
30
0
41
1
10
52.8538584779038
20
13.2955
30
0
41
1
10
52.9167065306252
20
13.2955
30
0
0
SPLINE
5
D0
100
AcDbEntity
8
1
62
256
6
ByLayer
370
13
48
1
60
0
100
AcDbSpline
70
4
71
3
72
143
73
139
40
0
40
0
40
0
40
0
40
0.0312499999999999
40
0.0312499999999999
40
0.0468749999999999
40
0.0468749999999999
40
0.0624999999999999
40
0.0624999999999999
40
0.0781249999999999
40
0.0781249999999999
40
0.0937499999999998
40
0.0937499999999998
40
0.109375
40
0.109375
40
0.125
40
0.125
40
0.140625
40
0.140625
40
0.15625
40
0.15625
40
0.171875
40
0.171875
40
0.1875
40
0.1875
40
0.203125
40
0.203125
40
0.21875
40
0.21875
40
0.234375
40
0.234375
40
0.25
40
0.25
40
0.265625
40
0.265625
40
0.26953125
40
0.26953125
40
0.2734375
40
0.2734375
40
0.28125
40
0.28125
40
0.296874999999999
40
0.296874999999999
40
0.312499999999999
40
0.312499999999999
40
0.328124999999999
40
0.328124999999999
40
0.343749999999999
40
0.343749999999999
40
0.359374999999999
40
0.359374999999999
40
0.374999999999999
40
0.374999999999999
40
0.390624999999999
40
0.390624999999999
40
0.406249999999999
40
0.406249999999999
40
0.421874999999999
40
0.421874999999999
40
0.437499999999999
40
0.437499999999999
40
0.453124999999999
40
0.453124999999999
40
0.468749999999999
40
0.468749999999999
40
0.484374999999999
40
0.484374999999999
40
0.499999999999999
40
0.499999999999999
40
0.515624999999999
40
0.515624999999999
40
0.531249999999999
40
0.531249999999999
40
0.539062499999999
40
0.539062499999999
40
0.542968749999999
40
0.542968749999999
40
0.546874999999999
40
0.546874999999999
40
0.562499999999999
40
0.562499999999999
40
0.578124999999999
40
0.578124999999999
40
0.59375
40
0.59375
40
0.609375
40
0.609375
40
0.625
40
0.625
40
0.640625
40
0.640625
40
0.65625
40
0.65625
40
0.671875
40
0.671875
40
0.6875
40
0.6875
40
0.703125
40
0.703125
40
0.71875
40
0.71875
40
0.734374999999999
40
0.734374999999999
40
0.749999999999999
40
0.749999999999999
40
0.765624999999999
40
0.765624999999999
40
0.781249999999999
40
0.781249999999999
40
0.796874999999999
40
0.796874999999999
40
0.812499999999999
40
0.812499999999999
40
0.816406249999999
40
0.816406249999999
40
0.820312499999999
40
0.828124999999999
40
0.828124999999999
40
0.843749999999999
40
0.843749999999999
40
0.859374999999999
40
0.859374999999999
40
0.874999999999999
40
0.874999999999999
40
0.890625
40
0.890625
40
0.90625
40
0.90625
40
0.921875
40
0.921875
40
0.9375
40
0.9375
40
0.953125
40
0.953125
40
0.96875
40
0.96875
40
0.984375
40
0.984375
40
1
40
1
40
1
40
1
41
1
10
50.8730667006975
20
13.2955
30
0
41
1
10
50.9906476074644
20
13.2955
30
0
41
1
10
51.1082285142312
20
13.2365292022869
30
0
41
1
10
51.2845998743815
20
13.0441159669127
30
0
41
1
10
51.3433903277648
20
12.9627043659832
30
0
41
1
10
51.4609712345317
20
12.7636102598472
30
0
41
1
10
51.5197616879151
20
12.6459227069072
30
0
41
1
10
51.6373425946819
20
12.3733309461632
30
0
41
1
10
51.6961330480653
20
12.218422927486
30
0
41
1
10
51.8137139548322
20
11.8713685198387
30
0
41
1
10
51.8725044082156
20
11.6792201099378
30
0
41
1
10
51.9900853149824
20
11.2586767860372
30
0
41
1
10
52.0488757683659
20
11.0302820494476
30
0
41
1
10
52.1664566751327
20
10.5392805788133
30
0
41
1
10
52.2252471285161
20
10.2766763943643
30
0
41
1
10
52.3428280352829
20
9.72029268503312
30
0
41
1
10
52.4016184886663
20
9.42651796645839
30
0
41
1
10
52.5191993954332
20
8.81172091359218
30
0
41
1
10
52.5779898488166
20
8.49070523628677
30
0
41
1
10
52.6955707555834
20
7.82607125831231
30
0
41
1
10
52.7543612089668
20
7.48246082579291
30
0
41
1
10
52.8719421157337
20
6.77777903936794
30
0
41
1
10
52.9307325691171
20
6.4167159953584
30
0
41
1
10
53.048313475884
20
5.68252165379002
30
0
41
1
10
53.1071039292674
20
5.30939833353301
30
0
41
1
10
53.2246848360343
20
4.55647979331647
30
0
41
1
10
53.2834752894177
20
4.17669155520258
30
0
41
1
10
53.4010561961844
20
3.41561639331985
30
0
41
1
10
53.4598466495679
20
3.03433498736416
30
0
41
1
10
53.5774275563347
20
2.27503444634326
30
0
41
1
10
53.6362180097182
20
1.89701912698476
30
0
41
1
10
53.753798916485
20
1.14845874393203
30
0
41
1
10
53.8125893698683
20
0.77791577678056
30
0
41
1
10
53.8860774365977
20
0.321635011059016
30
0
41
1
10
53.9007750499436
20
0.23072212306937
30
0
41
1
10
53.9301702766353
20
0.0496319548872179
30
0
41
1
10
53.9448678899811
20
-0.0403431021292988
30
0
41
1
10
53.9889607300186
20
-0.311902612759752
30
0
41
1
10
54.0183559567103
20
-0.494418102360697
30
0
41
1
10
54.1065416367855
20
-1.04578823835257
30
0
41
1
10
54.1653320901689
20
-1.41848696727791
30
0
41
1
10
54.2829129969358
20
-2.17040002170651
30
0
41
1
10
54.3417034503192
20
-2.54961184452489
30
0
41
1
10
54.459284357086
20
-3.31020297925767
30
0
41
1
10
54.5180748104694
20
-3.69157805511969
30
0
41
1
10
54.6356557172362
20
-4.45162370886709
30
0
41
1
10
54.6944461706197
20
-4.83028838479174
30
0
41
1
10
54.8120270773865
20
-5.57966991858078
30
0
41
1
10
54.8708175307699
20
-5.950379503031
30
0
41
1
10
54.9883984375368
20
-6.67843521471812
30
0
41
1
10
55.0471888909201
20
-7.03577321773616
30
0
41
1
10
55.164769797687
20
-7.73173101614773
30
0
41
1
10
55.2235602510704
20
-8.07034253547093
30
0
41
1
10
55.3411411578372
20
-8.72380237781567
30
0
41
1
10
55.3999316112207
20
-9.03864305753643
30
0
41
1
10
55.5175125179875
20
-9.64006787867461
30
0
41
1
10
55.5763029713709
20
-9.92664575874744
30
0
41
1
10
55.6938838781378
20
-10.4678146869463
30
0
41
1
10
55.7526743315212
20
-10.7224014468948
30
0
41
1
10
55.870255238288
20
-11.196781237765
30
0
41
1
10
55.9290456916714
20
-11.4165722926515
30
0
41
1
10
56.0466265984383
20
-11.8195721876537
30
0
41
1
10
56.1054170518217
20
-12.0027814071584
30
0
41
1
10
56.2229979585885
20
-12.331871390566
30
0
41
1
10
56.2817884119719
20
-12.4777546520813
30
0
41
1
10
56.3993693187388
20
-12.7324443985998
30
0
41
1
10
56.4581597721222
20
-12.8412550470622
30
0
41
1
10
56.575740678889
20
-13.0229473203364
30
0
41
1
10
56.6345311322725
20
-13.0958342016062
30
0
41
1
10
56.7521120390393
20
-13.2075791634099
30
0
41
1
10
56.8109024924227
20
-13.2464429993456
30
0
41
1
10
56.8990881724978
20
-13.2810810643382
30
0
41
1
10
56.9284833991895
20
-13.2886881565619
30
0
41
1
10
56.9725762392271
20
-13.2944530032378
30
0
41
1
10
56.987273852573
20
-13.2954338370759
30
0
41
1
10
57.0166690792647
20
-13.2955596899058
30
0
41
1
10
57.0313666926106
20
-13.2947061922268
30
0
41
1
10
57.1048547593398
20
-13.2857428078973
30
0
41
1
10
57.1636452127232
20
-13.2635289197585
30
0
41
1
10
57.28122611949
20
-13.186307149523
30
0
41
1
10
57.3400165728735
20
-13.1312934692965
30
0
41
1
10
57.4575974796403
20
-12.9862472320354
30
0
41
1
10
57.5163879330237
20
-12.8962090886004
30
0
41
1
10
57.6339688397905
20
-12.6795556096654
30
0
41
1
10
57.692759293174
20
-12.5529354703909
30
0
41
1
10
57.8103401999408
20
-12.2623844013332
30
0
41
1
10
57.8691306533242
20
-12.0984500459734
30
0
41
1
10
57.9867115600911
20
-11.7334874136582
30
0
41
1
10
58.0455020134745
20
-11.5324576166844
30
0
41
1
10
58.1630829202413
20
-11.094547565769
30
0
41
1
10
58.2218733736247
20
-10.8576680564312
30
0
41
1
10
58.3394542803916
20
-10.350341464498
30
0
41
1
10
58.398244733775
20
-10.0798974983372
30
0
41
1
10
58.5158256405419
20
-9.50870652282035
30
0
41
1
10
58.5746160939252
20
-9.20796481396695
30
0
41
1
10
58.6921970006921
20
-8.5802972503987
30
0
41
1
10
58.7509874540755
20
-8.25337841054645
30
0
41
1
10
58.8685683608424
20
-7.57814303509386
30
0
41
1
10
58.9273588142257
20
-7.22983454705457
30
0
41
1
10
59.0449397209926
20
-6.51704512192151
30
0
41
1
10
59.1037301743759
20
-6.15257248286756
30
0
41
1
10
59.2213110811429
20
-5.41287052162426
30
0
41
1
10
59.2801015345262
20
-5.0376489907969
30
0
41
1
10
59.397682441293
20
-4.28181131195674
30
0
41
1
10
59.4564728946765
20
-3.90120182674457
30
0
41
1
10
59.5740538014433
20
-3.13967753204605
30
0
41
1
10
59.6328442548268
20
-2.75876784239983
30
0
41
1
10
59.7504251615936
20
-2.00128151465
30
0
41
1
10
59.809215614977
20
-1.6247082711229
30
0
41
1
10
59.9267965217438
20
-0.879954080850325
30
0
41
1
10
59.9855869751273
20
-0.511774834145143
30
0
41
1
10
60.0590750418565
20
-0.0589234583759435
30
0
41
1
10
60.0737726552024
20
0.0310569057660359
30
0
41
1
10
60.1031678818941
20
0.212045973003285
30
0
41
1
10
60.1472607219316
20
0.484637229698507
30
0
41
1
10
60.1913535619692
20
0.760336037451367
30
0
41
1
10
60.2795392420443
20
1.31524303914665
30
0
41
1
10
60.3383296954278
20
1.68988018153993
30
0
41
1
10
60.4559106021946
20
2.44467456723828
30
0
41
1
10
60.514701055578
20
2.82482889428246
30
0
41
1
10
60.6322819623448
20
3.58617184823282
30
0
41
1
10
60.6910724157283
20
3.9673558224946
30
0
41
1
10
60.8086533224952
20
4.72578056442848
30
0
41
1
10
60.8674437758785
20
5.10301506315247
30
0
41
1
10
60.9850246826454
20
5.84823615625655
30
0
41
1
10
61.0438151360288
20
6.2162152162212
30
0
41
1
10
61.1613960427957
20
6.93750219542719
30
0
41
1
10
61.2201864961791
20
7.2908018847063
30
0
41
1
10
61.3377674029459
20
7.97742723603179
30
0
41
1
10
61.3965578563293
20
8.31074470213758
30
0
41
1
10
61.5141387630961
20
8.95247242375143
30
0
41
1
10
61.5729292164796
20
9.26087530505467
30
0
41
1
10
61.6905101232464
20
9.84844700586112
30
0
41
1
10
61.7493005766298
20
10.1276099945665
30
0
41
1
10
61.8668814833966
20
10.6531821617994
30
0
41
1
10
61.92567193678
20
10.8995875902408
30
0
41
1
10
62.0432528435468
20
11.3570775783462
30
0
41
1
10
62.1020432969303
20
11.568160737983
30
0
41
1
10
62.1608337503137
20
11.760815290272
30
0
0
SPLINE
5
D1
100
AcDbEntity
8
1
62
256
6
ByLayer
370
13
48
1
60
0
100
AcDbSpline
70
4
71
3
72
14
73
10
40
0
40
0
40
0
40
0
40
0.25
40
0.25
40
0.5
40
0.5
40
0.75
40
0.75
40
1
40
1
40
1
40
1
41
1
10
61.0902606210835
20
13.2955
30
0
41
1
10
61.1794750485194
20
13.2955
30
0
41
1
10
61.2686894759552
20
13.2616259176385
30
0
41
1
10
61.4471183308269
20
13.116712099133
30
0
41
1
10
61.5363327582628
20
13.0056260066587
30
0
41
1
10
61.7147616131344
20
12.6996523680427
30
0
41
1
10
61.8039760405703
20
12.5047247701946
30
0
41
1
10
61.982404895442
20
12.02863586075
30
0
41
1
10
62.0716193228778
20
11.7474515917171
30
0
41
1
10
62.1608337503137
20
11.4245296029849
30
0
0
SPLINE
5
D2
100
AcDbEntity
8
1
62
256
6
ByLayer
370
13
48
1
60
0
100
AcDbSpline
70
4
71
3
72
22
73
18
40
0
40
0
40
0
40
0
40
0.125
40
0.125
40
0.25
40
0.25
40
0.375
40
0.375
40
0.5
40
0.5
40
0.625
40
0.625
40
0.75
40
0.75
40
0.875
40
0.875
40
1
40
1
40
1
40
1
41
1
10
49.9
20
3.40130823361935
30
0
41
1
10
50.0054238952832
20
4.08411215783104
30
0
41
1
10
50.1108477905664
20
4.76733560618291
30
0
41
1
10
50.3216955811329
20
6.10483961636308
30
0
41
1
10
50.4271194764161
20
6.7589822508524
30
0
41
1
10
50.6379672669825
20
8.00703175270618
30
0
41
1
10
50.7433911622657
20
8.60078670583238
30
0
41
1
10
50.9542389528322
20
9.69993343931279
30
0
41
1
10
51.0596628481154
20
10.2052040217029
30
0
41
1
10
51.2705106386819
20
11.1066920977013
30
0
41
1
10
51.3759345339651
20
11.5028551015369
30
0
41
1
10
51.5867823245315
20
12.1756310810072
30
0
41
1
10
51.6922062198148
20
12.4522660923571
30
0
41
1
10
51.9030540103811
20
12.8861778209019
30
0
41
1
10
52.0084779056644
20
13.0435348673205
30
0
41
1
10
52.2193256962308
20
13.2481431969372
30
0
41
1
10
52.324749591514
20
13.2955
30
0
41
1
10
52.4301734867972
20
13.2955
30
0
0
SPLINE
5
D3
100
AcDbEntity
8
1
62
256
6
ByLayer
370
13
48
1
60
0
100
AcDbSpline
70
4
71
3
72
144
73
140
40
0
40
0
40
0
40
0
40
0.0156249999999998
40
0.0156249999999998
40
0.0312499999999995
40
0.0312499999999995
40
0.0468749999999993
40
0.0468749999999993
40
0.0624999999999991
40
0.0624999999999991
40
0.0781249999999989
40
0.0781249999999989
40
0.0937499999999986
40
0.0937499999999986
40
0.109374999999998
40
0.109374999999998
40
0.124999999999998
40
0.124999999999998
40
0.140624999999998
40
0.140624999999998
40
0.156249999999998
40
0.156249999999998
40
0.171874999999998
40
0.171874999999998
40
0.187499999999997
40
0.187499999999997
40
0.203124999999997
40
0.203124999999997
40
0.218749999999997
40
0.218749999999997
40
0.234374999999997
40
0.234374999999997
40
0.249999999999997
40
0.249999999999997
40
0.257812499999997
40
0.257812499999997
40
0.261718749999997
40
0.261718749999997
40
0.265624999999996
40
0.265624999999996
40
0.281249999999996
40
0.281249999999996
40
0.296874999999996
40
0.296874999999996
40
0.312499999999996
40
0.312499999999996
40
0.328124999999996
40
0.328124999999996
40
0.343749999999996
40
0.343749999999996
40
0.359374999999996
40
0.359374999999996
40
0.374999999999996
40
0.374999999999996
40
0.390624999999996
40
0.390624999999996
40
0.406249999999996
40
0.406249999999996
40
0.421874999999996
40
0.421874999999996
40
0.437499999999996
40
0.437499999999996
40
0.453124999999996
40
0.453124999999996
40
0.468749999999996
40
0.468749999999996
40
0.484374999999995
40
0.484374999999995
40
0.499999999999995
40
0.499999999999995
40
0.515624999999995
40
0.515624999999995
40
0.519531249999995
40
0.519531249999995
40
0.523437499999995
40
0.523437499999995
40
0.531249999999995
40
0.531249999999995
40
0.546874999999996
40
0.546874999999996
40
0.562499999999996
40
0.562499999999996
40
0.578124999999996
40
0.578124999999996
40
0.593749999999996
40
0.593749999999996
40
0.609374999999996
40
0.609374999999996
40
0.624999999999997
40
0.624999999999997
40
0.640624999999997
40
0.640624999999997
40
0.656249999999997
40
0.656249999999997
40
0.671874999999997
40
0.671874999999997
40
0.687499999999997
40
0.687499999999997
40
0.703124999999998
40
0.703124999999998
40
0.718749999999998
40
0.718749999999998
40
0.734374999999998
40
0.734374999999998
40
0.749999999999998
40
0.749999999999998
40
0.765624999999998
40
0.765624999999998
40
0.773437499999999
40
0.773437499999999
40
0.781249999999999
40
0.781249999999999
40
0.796874999999999
40
0.796874999999999
40
0.812499999999999
40
0.812499999999999
40
0.828124999999999
40
0.828124999999999
40
0.843749999999999
40
0.843749999999999
40
0.859374999999999
40
0.859374999999999
40
0.874999999999999
40
0.874999999999999
40
0.890624999999999
40
0.890624999999999
40
0.906249999999999
40
0.906249999999999
40
0.921875
40
0.921875
40
0.9375
40
0.9375
40
0.953125
40
0.953125
40
0.96875
40
0.96875
40
0.984375
40
0.984375
40
1
40
1
40
1
40
1
41
1
10
50.3865336568696
20
13.2955
30
0
41
1
10
50.4478581365229
20
13.2955
30
0
41
1
10
50.5091826161763
20
13.2795174434837
30
0
41
1
10
50.631831575483
20
13.2124175544594
30
0
41
1
10
50.6931560551363
20
13.1612930870684
30
0
41
1
10
50.8158050144431
20
13.021269996386
30
0
41
1
10
50.8771294940964
20
12.9323643926261
30
0
41
1
10
50.9997784534031
20
12.7148975781767
30
0
41
1
10
51.0611029330565
20
12.5863302930699
30
0
41
1
10
51.1837518923632
20
12.2886154593446
30
0
41
1
10
51.2450763720165
20
12.1194635432257
30
0
41
1
10
51.3677253313232
20
11.7407713326884
30
0
41
1
10
51.4290498109766
20
11.5312290953891
30
0
41
1
10
51.5516987702833
20
11.0731619751323
30
0
41
1
10
51.6130232499367
20
10.8246380624774
30
0
41
1
10
51.7356722092434
20
10.2912433760992
30
0
41
1
10
51.7969966888967
20
10.0063766227164
30
0
41
1
10
51.9196456482035
20
9.40408737882376
30
0
41
1
10
51.9809701278568
20
9.08667168251705
30
0
41
1
10
52.1036190871635
20
8.42406731292076
30
0
41
1
10
52.1649435668169
20
8.07888754276789
30
0
41
1
10
52.2875925261236
20
7.36629102747085
30
0
41
1
10
52.348917005777
20
6.99888435024477
30
0
41
1
10
52.4715659650836
20
6.24783481571146
30
0
41
1
10
52.532890444737
20
5.86420213556775
30
0
41
1
10
52.6555394040437
20
5.08685836515232
30
0
41
1
10
52.7168638836971
20
4.69315657612032
30
0
41
1
10
52.8395128430038
20
3.90169345489878
30
0
41
1
10
52.9008373226571
20
3.50393978319698
30
0
41
1
10
53.0234862819638
20
2.70999570815067
30
0
41
1
10
53.0848107616172
20
2.31381086678954
30
0
41
1
10
53.2074597209239
20
1.52803139032576
30
0
41
1
10
53.2687842005773
20
1.13844008241529
30
0
41
1
10
53.3607709200573
20
0.56221888666613
30
0
41
1
10
53.391433159884
20
0.371500121125535
30
0
41
1
10
53.4374265196239
20
0.0878012592797859
30
0
41
1
10
53.4527576395373
20
-0.0060945750590236
30
0
41
1
10
53.483419879364
20
-0.194764527217501
30
0
41
1
10
53.4987509992773
20
-0.289503495420092
30
0
41
1
10
53.575406598844
20
-0.765079987942386
30
0
41
1
10
53.6367310784974
20
-1.15159338962377
30
0
41
1
10
53.7593800378041
20
-1.93268490510431
30
0
41
1
10
53.8207045174574
20
-2.32726039349305
30
0
41
1
10
53.9433534767641
20
-3.11967734618497
30
0
41
1
10
54.0046779564175
20
-3.51751396851793
30
0
41
1
10
54.1273269157243
20
-4.3110080545996
30
0
41
1
10
54.1886513953776
20
-4.70665850003817
30
0
41
1
10
54.3113003546843
20
-5.48986704876171
30
0
41
1
10
54.3726248343376
20
-5.87741630980062
30
0
41
1
10
54.4952737936444
20
-6.63828086725951
30
0
41
1
10
54.5565982732977
20
-7.01158616931085
30
0
41
1
10
54.6792472326045
20
-7.7378782190074
30
0
41
1
10
54.7405717122578
20
-8.09085474809098
30
0
41
1
10
54.8632206715645
20
-8.77076871188461
30
0
41
1
10
54.9245451512179
20
-9.09769675586068
30
0
41
1
10
55.0471941105246
20
-9.72045554875444
30
0
41
1
10
55.1085185901779
20
-10.016278734798
30
0
41
1
10
55.2311675494846
20
-10.5726900209008
30
0
41
1
10
55.292492029138
20
-10.8332731564012
30
0
41
1
10
55.4151409884447
20
-11.3161775846142
30
0
41
1
10
55.476465468098
20
-11.5384969195775
30
0
41
1
10
55.5991144274048
20
-11.9430630660122
30
0
41
1
10
55.6604389070582
20
-12.1253109199367
30
0
41
1
10
55.7830878663648
20
-12.4491528092999
30
0
41
1
10
55.8444123460182
20
-12.590750501048
30
0
41
1
10
55.9670613053249
20
-12.8338678463142
30
0
41
1
10
56.0283857849782
20
-12.9353931105175
30
0
41
1
10
56.151034744285
20
-13.0999566811412
30
0
41
1
10
56.2123592239383
20
-13.1630017627967
30
0
41
1
10
56.335008183245
20
-13.2530224204857
30
0
41
1
10
56.3963326628983
20
-13.2800051563712
30
0
41
1
10
56.472988262465
20
-13.2930850203812
30
0
41
1
10
56.4883193823784
20
-13.2946697665069
30
0
41
1
10
56.5189816222051
20
-13.2958283298614
30
0
41
1
10
56.5343127421184
20
-13.2954098401981
30
0
41
1
10
56.5803061018584
20
-13.2911145176831
30
0
41
1
10
56.6109683416851
20
-13.2841844744572
30
0
41
1
10
56.7029550611651
20
-13.2505939780258
30
0
41
1
10
56.7642795408185
20
-13.2111142963928
30
0
41
1
10
56.8869285001252
20
-13.0951588732019
30
0
41
1
10
56.9482529797785
20
-13.0186760247521
30
0
41
1
10
57.0709019390852
20
-12.8265656195444
30
0
41
1
10
57.1322264187386
20
-12.7109316088782
30
0
41
1
10
57.2548753780453
20
-12.4392660339012
30
0
41
1
10
57.3161998576987
20
-12.2832294666203
30
0
41
1
10
57.4388488170054
20
-11.9305767381264
30
0
41
1
10
57.5001732966588
20
-11.7339577853446
30
0
41
1
10
57.6228222559655
20
-11.3011488332767
30
0
41
1
10
57.6841467356188
20
-11.064958831564
30
0
41
1
10
57.8067956949255
20
-10.5552508327758
30
0
41
1
10
57.8681201745789
20
-10.2817358829469
30
0
41
1
10
57.9907691338856
20
-9.70081052415179
30
0
41
1
10
58.0520936135389
20
-9.39340607077128
30
0
41
1
10
58.1747425728456
20
-8.74918772186464
30
0
41
1
10
58.236067052499
20
-8.41238214245661
30
0
41
1
10
58.3587160118057
20
-7.71468445540097
30
0
41
1
10
58.4200404914591
20
-7.35380215392775
30
0
41
1
10
58.5426894507658
20
-6.61383535219966
30
0
41
1
10
58.6040139304191
20
-6.2347611083743
30
0
41
1
10
58.7266628897258
20
-5.46455108986615
30
0
41
1
10
58.7879873693792
20
-5.07342499529005
30
0
41
1
10
58.9106363286859
20
-4.28520532072943
30
0
41
1
10
58.9719608083392
20
-3.88811999576387
30
0
41
1
10
59.0946097676459
20
-3.09375717217847
30
0
41
1
10
59.1559342472993
20
-2.6964859417829
30
0
41
1
10
59.2785832066061
20
-1.90698814247881
30
0
41
1
10
59.3399076862594
20
-1.51476561765108
30
0
41
1
10
59.4318944057395
20
-0.933622611654386
30
0
41
1
10
59.4625566455661
20
-0.741100955258048
30
0
41
1
10
59.5238811252195
20
-0.358937646161081
30
0
41
1
10
59.5545433650461
20
-0.169504163780346
30
0
41
1
10
59.6465300845262
20
0.395090859795601
30
0
41
1
10
59.7078545641796
20
0.778106043641685
30
0
41
1
10
59.8305035234862
20
1.55358975749383
30
0
41
1
10
59.8918280031396
20
1.94605634122718
30
0
41
1
10
60.0144769624463
20
2.7358793967139
30
0
41
1
10
60.0758014420997
20
3.13323175018817
30
0
41
1
10
60.1984504014064
20
3.92757325923773
30
0
41
1
10
60.2597748810597
20
4.32455607521089
30
0
41
1
10
60.3824238403665
20
5.11237273679222
30
0
41
1
10
60.4437483200198
20
5.50319826942305
30
0
41
1
10
60.5663972793265
20
6.27260298191703
30
0
41
1
10
60.6277217589798
20
6.65117244764295
30
0
41
1
10
60.7503707182865
20
7.38992899069476
30
0
41
1
10
60.8116951979399
20
7.75010580950303
30
0
41
1
10
60.9343441572466
20
8.44620554457177
30
0
41
1
10
60.9956686369
20
8.78211868780477
30
0
41
1
10
61.1183175962067
20
9.42438867117644
30
0
41
1
10
61.17964207586
20
9.73073726086267
30
0
41
1
10
61.3022910351667
20
10.3094191713792
30
0
41
1
10
61.3636155148201
20
10.5817466262854
30
0
41
1
10
61.4862644741269
20
11.0889855972761
30
0
41
1
10
61.5475889537802
20
11.3238941671847
30
0
41
1
10
61.6702379130869
20
11.7540868984962
30
0
41
1
10
61.7315623927403
20
11.9493711609286
30
0
41
1
10
61.854211352047
20
12.2993417812201
30
0
41
1
10
61.9155358317004
20
12.4540310145468
30
0
41
1
10
62.038184791007
20
12.7230269901296
30
0
41
1
10
62.0995092706604
20
12.8373387961786
30
0
41
1
10
62.1608337503137
20
12.9321007100468
30
0
0
SPLINE
5
D4
100
AcDbEntity
8
1
62
256
6
ByLayer
370
13
48
1
60
0
100
AcDbSpline
70
4
71
3
72
22
73
18
40
0
40
0
40
0
40
0
40
0.125
40
0.125
40
0.25
40
0.25
40
0.375
40
0.375
40
0.5
40
0.5
40
0.625
40
0.625
40
0.75
40
0.75
40
0.875
40
0.875
40
1
40
1
40
1
40
1
41
1
10
60.6037275772556
20
13.2955
30
0
41
1
10
60.6686070011331
20
13.2955
30
0
41
1
10
60.7334864250105
20
13.2776081608088
30
0
41
1
10
60.8632452727653
20
13.2023032234222
30
0
41
1
10
60.9281246966427
20
13.1448806605422
30
0
41
1
10
61.0578835443975
20
12.9874555709902
30
0
41
1
10
61.122762968275
20
12.8874438834045
30
0
41
1
10
61.2525218160298
20
12.6427616541702
30
0
41
1
10
61.3174012399073
20
12.4980833850764
30
0
41
1
10
61.4471600876622
20
12.1632268007418
30
0
41
1
10
61.5120395115395
20
11.9730433702657
30
0
41
1
10
61.6417983592943
20
11.547770157633
30
0
41
1
10
61.7066777831718
20
11.3126788739544
30
0
41
1
10
61.8364366309266
20
10.7997214021254
30
0
41
1
10
61.901316054804
20
10.521857912829
30
0
41
1
10
62.0310749025588
20
9.9270090482739
30
0
41
1
10
62.0959543264363
20
9.61003056564013
30
0
41
1
10
62.1608337503137
20
9.27600616971972
30
0
0
SPLINE
5
D5
100
AcDbEntity
8
1
62
256
6
ByLayer
370
13
48
1
60
0
100
AcDbSpline
70
4
71
3
72
22
73
18
40
0
40
0
40
0
40
0
40
0.125
40
0.125
40
0.25
40
0.25
40
0.375
40
0.375
40
0.5
40
0.5
40
0.625
40
0.625
40
0.75
40
0.75
40
0.875
40
0.875
40
1
40
1
40
1
40
1
41
1
10
49.9
20
6.50101922397641
30
0
41
1
10
49.9851516851237
20
7.02484086259358
30
0
41
1
10
50.0703033702474
20
7.53362579315379
30
0
41
1
10
50.2406067404949
20
8.50520443691633
30
0
41
1
10
50.3257584256186
20
8.96794756520652
30
0
41
1
10
50.4960617958661
20
9.83344705372321
30
0
41
1
10
50.5812134809898
20
10.2361644502257
30
0
41
1
10
50.7515168512372
20
10.9710250263417
30
0
41
1
10
50.836668536361
20
11.3031483957945
30
0
41
1
10
51.0069719066084
20
11.8905484563158
30
0
41
1
10
51.0921235917321
20
12.1458269787076
30
0
41
1
10
51.2624269619796
20
12.577853823632
30
0
41
1
10
51.3475786471033
20
12.7546226908687
30
0
41
1
10
51.5178820173508
20
13.0321840011471
30
0
41
1
10
51.6030337024745
20
13.1330090154252
30
0
41
1
10
51.773337072722
20
13.2646486218183
30
0
41
1
10
51.8584887578456
20
13.2955
30
0
41
1
10
51.9436404429693
20
13.2955
30
0
0
SPLINE
5
D6
100
AcDbEntity
8
1
62
256
6
ByLayer
370
13
48
1
60
0
100
AcDbSpline
70
4
71
3
72
134
73
130
40
0
40
0
40
0
40
0
40
0.015625
40
0.015625
40
0.03125
40
0.03125
40
0.046875
40
0.046875
40
0.0625
40
0.0625
40
0.078125
40
0.078125
40
0.09375
40
0.09375
40
0.109375
40
0.109375
40
0.125
40
0.125
40
0.140625
40
0.140625
40
0.15625
40
0.15625
40
0.171875
40
0.171875
40
0.1875
40
0.1875
40
0.203125
40
0.203125
40
0.21875
40
0.21875
40
0.234375
40
0.234375
40
0.25
40
0.25
40
0.265625
40
0.265625
40
0.28125
40
0.28125
40
0.296875
40
0.296875
40
0.3125
40
0.3125
40
0.328125
40
0.328125
40
0.34375
40
0.34375
40
0.359375
40
0.359375
40
0.375
40
0.375
40
0.390625
40
0.390625
40
0.40625
40
0.40625
40
0.421875
40
0.421875
40
0.4375
40
0.4375
40
0.453125
40
0.453125
40
0.46875
40
0.46875
40
0.484375
40
0.484375
40
0.5
40
0.5
40
0.515625
40
0.515625
40
0.53125
40
0.53125
40
0.546875
40
0.546875
40
0.5625
40
0.5625
40
0.578125
40
0.578125
40
0.59375
40
0.59375
40
0.609375
40
0.609375
40
0.625
40
0.625
40
0.640625
40
0.640625
40
0.65625
40
0.65625
40
0.671875
40
0.671875
40
0.6875
40
0.6875
40
0.703125
40
0.703125
40
0.71875
40
0.71875
40
0.734375
40
0.734375
40
0.75
40
0.75
40
0.765625
40
0.765625
40
0.78125
40
0.78125
40
0.796875
40
0.796875
40
0.8125
40
0.8125
40
0.828125
40
0.828125
40
0.84375
40
0.84375
40
0.859375
40
0.859375
40
0.875
40
0.875
40
0.890625
40
0.890625
40
0.90625
40
0.90625
40
0.921875
40
0.921875
40
0.9375
40
0.9375
40
0.953125
40
0.953125
40
0.96875
40
0.96875
40
0.984375
40
0.984375
40
1
40
1
40
1
40
1
41
1
10
49.9000006130417
20
13.2955
30
0
41
1
10
49.963859118965
20
13.2955
30
0
41
1
10
50.0277176248882
20
13.2781675439051
30
0
41
1
10
50.1554346367348
20
13.2052694419547
30
0
41
1
10
50.2192931426582
20
13.1496950547531
30
0
41
1
10
50.3470101545047
20
12.9973780425071
30
0
41
1
10
50.410868660428
20
12.9006269293992
30
0
41
1
10
50.5385856722746
20
12.6639328742645
30
0
41
1
10
50.6024441781979
20
12.5239827049065
30
0
41
1
10
50.7301611900445
20
12.2000182030233
30
0
41
1
10
50.7940196959678
20
12.0159989617913
30
0
41
1
10
50.9217367078143
20
11.6043613725468
30
0
41
1
10
50.9855952137377
20
11.3767413480644
30
0
41
1
10
51.1133122255843
20
10.8798067379919
30
0
41
1
10
51.1771707315075
20
10.6104942699849
30
0
41
1
10
51.3048877433541
20
10.0335139466471
30
0
41
1
10
51.3687462492774
20
9.72585205157563
30
0
41
1
10
51.4964632611239
20
9.07682514578818
30
0
41
1
10
51.5603217670472
20
8.73546941414244
30
0
41
1
10
51.6880387788938
20
8.02478902435803
30
0
41
1
10
51.7518972848172
20
7.65547593981134
30
0
41
1
10
51.8796142966638
20
6.89537975259731
30
0
41
1
10
51.9434728025871
20
6.50460918378133
30
0
41
1
10
52.0711898144336
20
5.70849465375986
30
0
41
1
10
52.1350483203569
20
5.30316279836325
30
0
41
1
10
52.2627653322035
20
4.48484509656839
30
0
41
1
10
52.3266238381268
20
4.07186973447247
30
0
41
1
10
52.4543408499733
20
3.24486396914202
30
0
41
1
10
52.5181993558966
20
2.8308416078259
30
0
41
1
10
52.6459163677433
20
2.00773964737957
30
0
41
1
10
52.7097748736665
20
1.59866527234845
30
0
41
1
10
52.8374918855131
20
0.790655903810489
30
0
41
1
10
52.9013503914364
20
0.391723357407045
30
0
41
1
10
53.0290674032831
20
-0.391721477139441
30
0
41
1
10
53.0929259092063
20
-0.790653980693946
30
0
41
1
10
53.2206429210528
20
-1.59866331702006
30
0
41
1
10
53.2845014269762
20
-2.00773767974596
30
0
41
1
10
53.4122184388228
20
-2.8308396245701
30
0
41
1
10
53.476076944746
20
-3.24486198257381
30
0
41
1
10
53.6037939565926
20
-4.07186775141295
30
0
41
1
10
53.6676524625159
20
-4.48484312033426
30
0
41
1
10
53.7953694743625
20
-5.30316084667231
30
0
41
1
10
53.8592279802858
20
-5.70849271979017
30
0
41
1
10
53.9869449921324
20
-6.50460729640113
30
0
41
1
10
54.0508034980557
20
-6.89537789408712
30
0
41
1
10
54.1785205099022
20
-7.65547414985963
30
0
41
1
10
54.2423790158255
20
-8.02478727409436
30
0
41
1
10
54.3700960276721
20
-8.73546775314003
30
0
41
1
10
54.4339545335954
20
-9.07682353435629
30
0
41
1
10
54.561671545442
20
-9.72585054767805
30
0
41
1
10
54.6255300513652
20
-10.0335125007086
30
0
41
1
10
54.7532470632118
20
-10.6104929464175
30
0
41
1
10
54.8171055691352
20
-10.8798054788305
30
0
41
1
10
54.9448225809818
20
-11.3767402219393
30
0
41
1
10
55.008681086905
20
-11.6043603150458
30
0
41
1
10
55.1363980987516
20
-12.0159980434316
30
0
41
1
10
55.2002566046749
20
-12.2000173551751
30
0
41
1
10
55.3279736165215
20
-12.5239819977248
30
0
41
1
10
55.3918321224448
20
-12.6639322372331
30
0
41
1
10
55.5195491342914
20
-12.9006264302988
30
0
41
1
10
55.5834076402147
20
-12.9973776111847
30
0
41
1
10
55.7111246520612
20
-13.1496947549535
30
0
41
1
10
55.7749831579845
20
-13.2052692058988
30
0
41
1
10
55.9027001698311
20
-13.2781674300498
30
0
41
1
10
55.9665586757545
20
-13.295499944602
30
0
41
1
10
56.0942756876011
20
-13.2955000553978
30
0
41
1
10
56.1581341935243
20
-13.2781676577601
30
0
41
1
10
56.2858512053709
20
-13.2052696780103
30
0
41
1
10
56.3497097112942
20
-13.1496953545524
30
0
41
1
10
56.4774267231408
20
-12.9973784738292
30
0
41
1
10
56.541285229064
20
-12.9006274284991
30
0
41
1
10
56.6690022409106
20
-12.6639335112957
30
0
41
1
10
56.7328607468339
20
-12.523983412088
30
0
41
1
10
56.8605777586805
20
-12.2000190508711
30
0
41
1
10
56.9244362646038
20
-12.0159998801507
30
0
41
1
10
57.0521532764504
20
-11.6043624300476
30
0
41
1
10
57.1160117823737
20
-11.3767424741891
30
0
41
1
10
57.2437287942203
20
-10.879807997153
30
0
41
1
10
57.3075873001436
20
-10.6104955935521
30
0
41
1
10
57.4353043119902
20
-10.0335153925852
30
0
41
1
10
57.4991628179134
20
-9.72585355547292
30
0
41
1
10
57.62687982976
20
-9.07682675721981
30
0
41
1
10
57.6907383356833
20
-8.73547107514466
30
0
41
1
10
57.8184553475299
20
-8.02479077462155
30
0
41
1
10
57.8823138534531
20
-7.65547772976288
30
0
41
1
10
58.0100308652998
20
-6.89538161110733
30
0
41
1
10
58.073889371223
20
-6.50461107116138
30
0
41
1
10
58.2016063830697
20
-5.70849658772948
30
0
41
1
10
58.2654648889929
20
-5.30316475005409
30
0
41
1
10
58.3931819008395
20
-4.48484707280252
30
0
41
1
10
58.4570404067628
20
-4.07187171753196
30
0
41
1
10
58.5847574186093
20
-3.24486595571023
30
0
41
1
10
58.6486159245327
20
-2.83084359108173
30
0
41
1
10
58.7763329363793
20
-2.00774161501323
30
0
41
1
10
58.8401914423025
20
-1.59866722767691
30
0
41
1
10
58.9679084541492
20
-0.790657826927117
30
0
41
1
10
59.0317669600724
20
-0.391725260621257
30
0
41
1
10
59.159483971919
20
0.391719619818304
30
0
41
1
10
59.2233424778423
20
0.790652057577489
30
0
41
1
10
59.3510594896889
20
1.59866136169174
30
0
41
1
10
59.4149179956121
20
2.00773571211238
30
0
41
1
10
59.5426350074587
20
2.83083764131433
30
0
41
1
10
59.606493513382
20
3.24485999600563
30
0
41
1
10
59.7342105252286
20
4.07186576835338
30
0
41
1
10
59.7980690311519
20
4.48484114410007
30
0
41
1
10
59.9257860429985
20
5.30315889498132
30
0
41
1
10
59.9896445489218
20
5.70849078582037
30
0
41
1
10
60.1173615607684
20
6.5046054090208
30
0
41
1
10
60.1812200666917
20
6.89537603557679
30
0
41
1
10
60.3089370785383
20
7.65547235990769
30
0
41
1
10
60.3727955844615
20
8.02478552383047
30
0
41
1
10
60.5005125963081
20
8.73546609213736
30
0
41
1
10
60.5643711022314
20
9.07682192292421
30
0
41
1
10
60.692088114078
20
9.72584904378022
30
0
41
1
10
60.7559466200013
20
10.0335110547699
30
0
41
1
10
60.8836636318479
20
10.6104916228498
30
0
41
1
10
60.9475221377712
20
10.8798042196688
30
0
41
1
10
61.0752391496177
20
11.3767390958139
30
0
41
1
10
61.139097655541
20
11.6043592575444
30
0
41
1
10
61.2668146673876
20
12.0159971250715
30
0
41
1
10
61.330673173311
20
12.2000165073266
30
0
41
1
10
61.4583901851575
20
12.5239812905426
30
0
41
1
10
61.5222486910808
20
12.6639316002013
30
0
41
1
10
61.6499657029274
20
12.9006259311981
30
0
41
1
10
61.7138242088507
20
12.997377179862
30
0
41
1
10
61.8415412206972
20
13.1496944551536
30
0
41
1
10
61.9053997266205
20
13.2052689698426
30
0
41
1
10
62.0331167384671
20
13.2781673161942
30
0
41
1
10
62.0969752443904
20
13.2954998892036
30
0
41
1
10
62.1608337503137
20
13.2954999999995
30
0
0
SPLINE
5
D7
100
AcDbEntity
8
1
62
256
6
ByLayer
370
13
48
1
60
0
100
AcDbSpline
70
4
71
3
72
22
73
18
40
0
40
0
40
0
40
0
40
0.125
40
0.125
40
0.25
40
0.25
40
0.375
40
0.375
40
0.5
40
0.5
40
0.625
40
0.625
40
0.75
40
0.75
40
0.875
40
0.875
40
1
40
1
40
1
40
1
41
1
10
60.1171945334277
20
13.2955
30
0
41
1
10
60.2023461674646
20
13.2955
30
0
41
1
10
60.2874978015016
20
13.2646486589314
30
0
41
1
10
60.4578010695753
20
13.1330092152438
30
0
41
1
10
60.5429527036123
20
13.0321843266675
30
0
41
1
10
60.7132559716861
20
12.7546233644864
30
0
41
1
10
60.798407605723
20
12.5778547197326
30
0
41
1
10
60.9687108737969
20
12.1458284153592
30
0
41
1
10
61.0538625078338
20
11.8905502110683
30
0
41
1
10
61.2241657759076
20
11.3031508699731
30
0
41
1
10
61.3093174099446
20
10.9710279018003
30
0
41
1
10
61.4796206780184
20
10.2361681879661
30
0
41
1
10
61.5647723120553
20
9.83345125234192
30
0
41
1
10
61.7350755801291
20
8.96795271321071
30
0
41
1
10
61.820227214166
20
8.50521007325335
30
0
41
1
10
61.9905304822399
20
7.53363239769777
30
0
41
1
10
62.0756821162768
20
7.02484794683244
30
0
41
1
10
62.1608337503137
20
6.50102676638622
30
0
0
SPLINE
5
D8
100
AcDbEntity
8
1
62
256
6
ByLayer
370
13
48
1
60
0
100
AcDbSpline
70
4
71
3
72
22
73
18
40
0
40
0
40
0
40
0
40
0.125
40
0.125
40
0.25
40
0.25
40
0.375
40
0.375
40
0.5
40
0.5
40
0.625
40
0.625
40
0.75
40
0.75
40
0.875
40
0.875
40
1
40
1
40
1
40
1
41
1
10
49.9
20
9.27599985736583
30
0
41
1
10
49.9648794749642
20
9.61002473041012
30
0
41
1
10
50.0297589499285
20
9.92700368100225
30
0
41
1
10
50.1595178998569
20
10.5218534438891
30
0
41
1
10
50.2243973748212
20
10.7997173635099
30
0
41
1
10
50.3541563247496
20
11.3126756422116
30
0
41
1
10
50.4190357997139
20
11.5477673024076
30
0
41
1
10
50.5487947496423
20
11.9730412025135
30
0
41
1
10
50.6136742246065
20
12.1632249439357
30
0
41
1
10
50.7434331745349
20
12.4980820778419
30
0
41
1
10
50.8083126494992
20
12.6427605855714
30
0
41
1
10
50.9380715994276
20
12.887443218012
30
0
41
1
10
51.0029510743919
20
12.9874550701939
30
0
41
1
10
51.1327100243204
20
13.1448804175882
30
0
41
1
10
51.1975894992846
20
13.2023030737491
30
0
41
1
10
51.327348449213
20
13.2776081325939
30
0
41
1
10
51.3922279241772
20
13.2955
30
0
41
1
10
51.4571073991414
20
13.2955
30
0
0
SPLINE
5
D9
100
AcDbEntity
8
1
62
256
6
ByLayer
370
13
48
1
60
0
100
AcDbSpline
70
4
71
3
72
144
73
140
40
0
40
0
40
0
40
0
40
0.0156249999999998
40
0.0156249999999998
40
0.0312499999999996
40
0.0312499999999996
40
0.0468749999999995
40
0.0468749999999995
40
0.0624999999999993
40
0.0624999999999993
40
0.0781249999999991
40
0.0781249999999991
40
0.0937499999999989
40
0.0937499999999989
40
0.109374999999999
40
0.109374999999999
40
0.124999999999999
40
0.124999999999999
40
0.140624999999999
40
0.140624999999999
40
0.156249999999998
40
0.156249999999998
40
0.171874999999998
40
0.171874999999998
40
0.187499999999998
40
0.187499999999998
40
0.203124999999998
40
0.203124999999998
40
0.218749999999998
40
0.218749999999998
40
0.226562499999998
40
0.226562499999998
40
0.234374999999998
40
0.234374999999998
40
0.249999999999998
40
0.249999999999998
40
0.265624999999998
40
0.265624999999998
40
0.281249999999997
40
0.281249999999997
40
0.296874999999997
40
0.296874999999997
40
0.312499999999997
40
0.312499999999997
40
0.328124999999997
40
0.328124999999997
40
0.343749999999997
40
0.343749999999997
40
0.359374999999997
40
0.359374999999997
40
0.374999999999997
40
0.374999999999997
40
0.390624999999997
40
0.390624999999997
40
0.406249999999997
40
0.406249999999997
40
0.421874999999997
40
0.421874999999997
40
0.437499999999997
40
0.437499999999997
40
0.453124999999997
40
0.453124999999997
40
0.468749999999996
40
0.468749999999996
40
0.476562499999996
40
0.476562499999996
40
0.480468749999996
40
0.480468749999996
40
0.484374999999996
40
0.484374999999996
40
0.499999999999996
40
0.499999999999996
40
0.515624999999996
40
0.515624999999996
40
0.531249999999996
40
0.531249999999996
40
0.546874999999996
40
0.546874999999996
40
0.562499999999996
40
0.562499999999996
40
0.578124999999996
40
0.578124999999996
40
0.593749999999996
40
0.593749999999996
40
0.609374999999996
40
0.609374999999996
40
0.624999999999996
40
0.624999999999996
40
0.640624999999996
40
0.640624999999996
40
0.656249999999996
40
0.656249999999996
40
0.671874999999996
40
0.671874999999996
40
0.687499999999995
40
0.687499999999995
40
0.703124999999995
40
0.703124999999995
40
0.718749999999995
40
0.718749999999995
40
0.734374999999995
40
0.734374999999995
40
0.738281249999995
40
0.738281249999995
40
0.742187499999995
40
0.742187499999995
40
0.749999999999996
40
0.749999999999996
40
0.765624999999996
40
0.765624999999996
40
0.781249999999996
40
0.781249999999996
40
0.796874999999996
40
0.796874999999996
40
0.812499999999997
40
0.812499999999997
40
0.828124999999997
40
0.828124999999997
40
0.843749999999997
40
0.843749999999997
40
0.859374999999997
40
0.859374999999997
40
0.874999999999998
40
0.874999999999998
40
0.890624999999998
40
0.890624999999998
40
0.906249999999998
40
0.906249999999998
40
0.921874999999999
40
0.921874999999999
40
0.937499999999999
40
0.937499999999999
40
0.953124999999999
40
0.953124999999999
40
0.968749999999999
40
0.968749999999999
40
0.984375
40
0.984375
40
1
40
1
40
1
40
1
41
1
10
49.9
20
12.9321026046548
30
0
41
1
10
49.9613244860392
20
12.8373409409617
30
0
41
1
10
50.0226489720784
20
12.7230293868757
30
0
41
1
10
50.1452979441568
20
12.4540339118997
30
0
41
1
10
50.206622430196
20
12.2993449272025
30
0
41
1
10
50.3292714022744
20
11.949374793376
30
0
41
1
10
50.3905958883137
20
11.7540907687614
30
0
41
1
10
50.5132448603921
20
11.3238984947474
30
0
41
1
10
50.5745693464313
20
11.0889901442995
30
0
41
1
10
50.6972183185096
20
10.5817515868381
30
0
41
1
10
50.7585428045488
20
10.3094243259828
30
0
41
1
10
50.8811917766273
20
9.73074277216901
30
0
41
1
10
50.9425162626665
20
9.42439434512096
30
0
41
1
10
51.0651652347449
20
8.78212465114464
30
0
41
1
10
51.1264897207841
20
8.44621163466101
30
0
41
1
10
51.2491386928625
20
7.75011211458082
30
0
41
1
10
51.3104631789017
20
7.38993538401073
30
0
41
1
10
51.4331121509802
20
6.65117897828245
30
0
41
1
10
51.4944366370193
20
6.27260956164747
30
0
41
1
10
51.6170856090977
20
5.50320490945475
30
0
41
1
10
51.6784100951369
20
5.11237938804513
30
0
41
1
10
51.8010590672154
20
4.32456271396015
30
0
41
1
10
51.8623835532546
20
3.92757987427623
30
0
41
1
10
51.985032525333
20
3.13323828707323
30
0
41
1
10
52.0463570113722
20
2.73588587917141
30
0
41
1
10
52.1690059834506
20
1.94606268914362
30
0
41
1
10
52.2303304694898
20
1.55359602531101
30
0
41
1
10
52.3529794415682
20
0.778112131003269
30
0
41
1
10
52.4143039276074
20
0.395096846812805
30
0
41
1
10
52.5062906566662
20
-0.169498338412893
30
0
41
1
10
52.5369528996858
20
-0.358931746280689
30
0
41
1
10
52.598277385725
20
-0.741095035878146
30
0
41
1
10
52.6289396287447
20
-0.933616685246733
30
0
41
1
10
52.7209263578035
20
-1.51475967885787
30
0
41
1
10
52.7822508438426
20
-1.90698220704974
30
0
41
1
10
52.904899815921
20
-2.69648003866789
30
0
41
1
10
52.9662243019602
20
-3.09375129802243
30
0
41
1
10
53.0888732740387
20
-3.88811420658041
30
0
41
1
10
53.1501977600779
20
-4.28519958756678
30
0
41
1
10
53.2728467321563
20
-5.07341940154745
30
0
41
1
10
53.3341712181955
20
-5.46454557952688
30
0
41
1
10
53.4568201902739
20
-6.23475579122191
30
0
41
1
10
53.5181446763131
20
-6.61383014483067
30
0
41
1
10
53.6407936483915
20
-7.35379719012212
30
0
41
1
10
53.7021181344307
20
-7.71467962537031
30
0
41
1
10
53.8247671065092
20
-8.41237760027849
30
0
41
1
10
53.8860915925484
20
-8.74918333375456
30
0
41
1
10
54.0087405646268
20
-9.39340200631449
30
0
41
1
10
54.070065050666
20
-9.70080662926728
30
0
41
1
10
54.1927140227444
20
-10.2817323371887
30
0
41
1
10
54.2540385087837
20
-10.5552474665571
30
0
41
1
10
54.376687480862
20
-11.0649558285411
30
0
41
1
10
54.4380119669012
20
-11.3011460138959
30
0
41
1
10
54.5606609389797
20
-11.7339553316116
30
0
41
1
10
54.6219854250189
20
-11.9305744663871
30
0
41
1
10
54.7446343970973
20
-12.2832275519937
30
0
41
1
10
54.8059588831364
20
-12.439264294385
30
0
41
1
10
54.9286078552148
20
-12.7109302082999
30
0
41
1
10
54.989932341254
20
-12.8265643827889
30
0
41
1
10
55.1125813133324
20
-13.0186751009797
30
0
41
1
10
55.1739057993717
20
-13.0951580985892
30
0
41
1
10
55.2965547714501
20
-13.2111138031616
30
0
41
1
10
55.3578792574893
20
-13.250593617019
30
0
41
1
10
55.4498659865481
20
-13.2841842981789
30
0
41
1
10
55.4805282295677
20
-13.2911144007209
30
0
41
1
10
55.5265215940971
20
-13.2954098087747
30
0
41
1
10
55.5418527156069
20
-13.2958283261407
30
0
41
1
10
55.5725149586265
20
-13.2946698183633
30
0
41
1
10
55.5878460801363
20
-13.2930851001785
30
0
41
1
10
55.6645016876853
20
-13.2800053765447
30
0
41
1
10
55.7258261737245
20
-13.2530227551287
30
0
41
1
10
55.8484751458029
20
-13.1630023280609
30
0
41
1
10
55.9097996318422
20
-13.0999573625532
30
0
41
1
10
56.0324486039206
20
-12.9353940227858
30
0
41
1
10
56.0937730899598
20
-12.8338688732849
30
0
41
1
10
56.2164220620382
20
-12.5907517525463
30
0
41
1
10
56.2777465480774
20
-12.4491541706156
30
0
41
1
10
56.4003955201557
20
-12.1253124924649
30
0
41
1
10
56.461720006195
20
-11.9430647399266
30
0
41
1
10
56.5843689782734
20
-11.5384987844433
30
0
41
1
10
56.6456934643126
20
-11.3161795390364
30
0
41
1
10
56.768342436391
20
-10.8332752751346
30
0
41
1
10
56.8296669224302
20
-10.5726922143814
30
0
41
1
10
56.9523158945087
20
-10.0162810606609
30
0
41
1
10
57.0136403805478
20
-9.72045793224746
30
0
41
1
10
57.1362893526263
20
-9.09769923605856
30
0
41
1
10
57.1976138386655
20
-8.77077123115532
30
0
41
1
10
57.3202628107439
20
-8.09085732648549
30
0
41
1
10
57.3815872967832
20
-7.73788081745437
30
0
41
1
10
57.5042362688615
20
-7.01158878935857
30
0
41
1
10
57.5655607549007
20
-6.63828348886008
30
0
41
1
10
57.6882097269791
20
-5.87741891741103
30
0
41
1
10
57.7495342130183
20
-5.48986964083593
30
0
41
1
10
57.8721831850967
20
-4.7066610460675
30
0
41
1
10
57.933507671136
20
-4.31101057012825
30
0
41
1
10
58.0561566432144
20
-3.51751641068466
30
0
41
1
10
58.1174811292536
20
-3.11967974549839
30
0
41
1
10
58.2401301013319
20
-2.32726269759692
30
0
41
1
10
58.3014545873711
20
-1.93268715685897
30
0
41
1
10
58.4241035594496
20
-1.1515955300537
30
0
41
1
10
58.4854280454888
20
-0.765082069402212
30
0
41
1
10
58.5620836530378
20
-0.289505500718491
30
0
41
1
10
58.5774147745476
20
-0.194766517160559
30
0
41
1
10
58.6080770175672
20
-0.0060965340847758
30
0
41
1
10
58.6234081390771
20
0.0877993050923465
30
0
41
1
10
58.6694015036064
20
0.371498180149672
30
0
41
1
10
58.700063746626
20
0.562216955580197
30
0
41
1
10
58.7920504756848
20
1.13843818428393
30
0
41
1
10
58.853374961724
20
1.52802951855759
30
0
41
1
10
58.9760239338024
20
2.31380905643647
30
0
41
1
10
59.0373484198416
20
2.70999393285121
30
0
41
1
10
59.15999739192
20
3.5039380861416
30
0
41
1
10
59.2213218779592
20
3.90169180103422
30
0
41
1
10
59.3439708500377
20
4.69315501573092
30
0
41
1
10
59.4052953360768
20
5.08685685504591
30
0
41
1
10
59.5279443081552
20
5.8642007316005
30
0
41
1
10
59.5892687941944
20
6.24783346759725
30
0
41
1
10
59.7119177662729
20
6.99888311748123
30
0
41
1
10
59.7732422523121
20
7.36628985420018
30
0
41
1
10
59.8958912243905
20
8.07888648991198
30
0
41
1
10
59.9572157104297
20
8.42406632098093
30
0
41
1
10
60.0798646825082
20
9.08667081149929
30
0
41
1
10
60.1411891685474
20
9.40408656780582
30
0
41
1
10
60.2638381406258
20
10.0063759285099
30
0
41
1
10
60.325162626665
20
10.2912427386986
30
0
41
1
10
60.4478115987433
20
10.8246375334635
30
0
41
1
10
60.5091360847825
20
11.073161497695
30
0
41
1
10
60.631785056861
20
11.5312287142351
30
0
41
1
10
60.6931095429002
20
11.7407709962387
30
0
41
1
10
60.8157585149786
20
12.1194632881648
30
0
41
1
10
60.8770830010178
20
12.2886152409675
30
0
41
1
10
60.9997319730962
20
12.5863301394267
30
0
41
1
10
61.0610564591354
20
12.7148974525849
30
0
41
1
10
61.1837054312139
20
12.9323643144103
30
0
41
1
10
61.245029917253
20
13.0212699374976
30
0
41
1
10
61.3676788893315
20
13.1612930584714
30
0
41
1
10
61.4290033753707
20
13.2124175368302
30
0
41
1
10
61.5516523474491
20
13.2795174401511
30
0
41
1
10
61.6129768334883
20
13.2955
30
0
41
1
10
61.6743013195274
20
13.2955
30
0
0
SPLINE
5
DA
100
AcDbEntity
8
1
62
256
6
ByLayer
370
13
48
1
60
0
100
AcDbSpline
70
4
71
3
72
22
73
18
40
0
40
0
40
0
40
0
40
0.125
40
0.125
40
0.25
40
0.25
40
0.375
40
0.375
40
0.5
40
0.5
40
0.625
40
0.625
40
0.75
40
0.75
40
0.875
40
0.875
40
1
40
1
40
1
40
1
41
1
10
59.6306614895998
20
13.2955
30
0
41
1
10
59.7360853337961
20
13.2955
30
0
41
1
10
59.8415091779926
20
13.2481432430284
30
0
41
1
10
60.0523568663854
20
13.0435351186794
30
0
41
1
10
60.1577807105818
20
12.8861782316876
30
0
41
1
10
60.3686283989746
20
12.452266943173
30
0
41
1
10
60.4740522431711
20
12.175632212578
30
0
41
1
10
60.6848999315639
20
11.5028569041178
30
0
41
1
10
60.7903237757603
20
11.1066942904861
30
0
41
1
10
61.0011714641532
20
10.2052070710849
30
0
41
1
10
61.1065953083496
20
9.69993695480775
30
0
41
1
10
61.3174429967424
20
8.60079117978117
30
0
41
1
10
61.4228668409388
20
8.00703671857795
30
0
41
1
10
61.6337145293317
20
6.75898817112159
30
0
41
1
10
61.7391383735281
20
6.10484599871788
30
0
41
1
10
61.9499860619209
20
4.76734283464066
30
0
41
1
10
62.0554099061173
20
4.08411977008774
30
0
41
1
10
62.1608337503138
20
3.40131617465138
30
0
0
SPLINE
5
DB
100
AcDbEntity
8
1
62
256
6
ByLayer
370
13
48
1
60
0
100
AcDbSpline
70
4
71
3
72
14
73
10
40
0
40
0
40
0
40
0
40
0.25
40
0.25
40
0.5
40
0.5
40
0.75
40
0.75
40
1
40
1
40
1
40
1
41
1
10
49.9
20
11.4245251650311
30
0
41
1
10
49.9892145296094
20
11.7474479039064
30
0
41
1
10
50.0784290592189
20
12.0286328396343
30
0
41
1
10
50.2568581184378
20
12.5047228841019
30
0
41
1
10
50.3460726480473
20
12.6996509503325
30
0
41
1
10
50.5245017072662
20
13.0056253218535
30
0
41
1
10
50.6137162368757
20
13.1167116790516
30
0
41
1
10
50.7921452960947
20
13.2616258398282
30
0
41
1
10
50.8813598257041
20
13.2955
30
0
41
1
10
50.9705743553135
20
13.2955
30
0
0
SPLINE
5
DC
100
AcDbEntity
8
1
62
256
6
ByLayer
370
13
48
1
60
0
100
AcDbSpline
70
4
71
3
72
143
73
139
40
0
40
0
40
0
40
0
40
0.0156249999999998
40
0.0156249999999998
40
0.0312499999999996
40
0.0312499999999996
40
0.0468749999999994
40
0.0468749999999994
40
0.0624999999999991
40
0.0624999999999991
40
0.0781249999999989
40
0.0781249999999989
40
0.0937499999999987
40
0.0937499999999987
40
0.109374999999999
40
0.109374999999999
40
0.124999999999998
40
0.124999999999998
40
0.140624999999998
40
0.140624999999998
40
0.156249999999998
40
0.156249999999998
40
0.171874999999998
40
0.171874999999998
40
0.179687499999998
40
0.179687499999998
40
0.183593749999998
40
0.183593749999998
40
0.187499999999998
40
0.187499999999998
40
0.203124999999998
40
0.203124999999998
40
0.218749999999998
40
0.218749999999998
40
0.234374999999998
40
0.234374999999998
40
0.249999999999998
40
0.249999999999998
40
0.265624999999999
40
0.265624999999999
40
0.281249999999999
40
0.281249999999999
40
0.296874999999999
40
0.296874999999999
40
0.312499999999999
40
0.312499999999999
40
0.328124999999999
40
0.328124999999999
40
0.343749999999999
40
0.343749999999999
40
0.359374999999999
40
0.359374999999999
40
0.375
40
0.375
40
0.390625
40
0.390625
40
0.40625
40
0.40625
40
0.421875
40
0.421875
40
0.4375
40
0.4375
40
0.453125
40
0.453125
40
0.45703125
40
0.45703125
40
0.4609375
40
0.46875
40
0.46875
40
0.484375
40
0.484375
40
0.5
40
0.5
40
0.515625
40
0.515625
40
0.53125
40
0.53125
40
0.546875
40
0.546875
40
0.5625
40
0.5625
40
0.578125
40
0.578125
40
0.59375
40
0.59375
40
0.609375
40
0.609375
40
0.625
40
0.625
40
0.640625
40
0.640625
40
0.65625
40
0.65625
40
0.671875
40
0.671875
40
0.6875
40
0.6875
40
0.703125
40
0.703125
40
0.71875
40
0.71875
40
0.7265625
40
0.7265625
40
0.73046875
40
0.73046875
40
0.734375
40
0.734375
40
0.75
40
0.75
40
0.765625
40
0.765625
40
0.78125
40
0.78125
40
0.796875
40
0.796875
40
0.8125
40
0.8125
40
0.828125
40
0.828125
40
0.84375
40
0.84375
40
0.859375
40
0.859375
40
0.875
40
0.875
40
0.890625
40
0.890625
40
0.90625
40
0.90625
40
0.921875
40
0.921875
40
0.9375
40
0.9375
40
0.953125
40
0.953125
40
0.96875
40
0.96875
40
1
40
1
40
1
40
1
41
1
10
49.9
20
11.7608193081078
30
0
41
1
10
49.9587904597693
20
11.56816499051
30
0
41
1
10
50.0175809195385
20
11.3570820580307
30
0
41
1
10
50.1351618390771
20
10.8995925024924
30
0
41
1
10
50.1939522988463
20
10.6531872794448
30
0
41
1
10
50.3115332183849
20
10.127615495272
30
0
41
1
10
50.3703236781541
20
9.84845268421944
30
0
41
1
10
50.4879045976927
20
9.26088130618351
30
0
41
1
10
50.5466950574619
20
8.95247856998878
30
0
41
1
10
50.6642759770005
20
8.31075110276313
30
0
41
1
10
50.7230664367698
20
7.97743374593315
30
0
41
1
10
50.8406473563083
20
7.29080857574857
30
0
41
1
10
50.8994378160776
20
6.93750895833622
30
0
41
1
10
51.0170187356161
20
6.2162220856155
30
0
41
1
10
51.0758091953854
20
5.84824306027602
30
0
41
1
10
51.1933901149239
20
5.10302200095222
30
0
41
1
10
51.2521805746932
20
4.72578750139365
30
0
41
1
10
51.3697614942317
20
3.96736272545377
30
0
41
1
10
51.428551954001
20
3.58617871803287
30
0
41
1
10
51.5461328735395
20
2.82483566956714
30
0
41
1
10
51.6049233333088
20
2.44468128117941
30
0
41
1
10
51.7225042528473
20
1.68988674935946
30
0
41
1
10
51.7812947126166
20
1.31524952219979
30
0
41
1
10
51.8694804022705
20
0.760342379538912
30
0
41
1
10
51.8988756321551
20
0.576543125079979
30
0
41
1
10
51.9429684769821
20
0.302916160650966
30
0
41
1
10
51.9576660919244
20
0.21205216273944
30
0
41
1
10
51.987061321809
20
0.031063042305675
30
0
41
1
10
52.0017589367513
20
-0.0589173263340115
30
0
41
1
10
52.0752470114629
20
-0.511768668404102
30
0
41
1
10
52.1340374712321
20
-0.879947898089
30
0
41
1
10
52.2516183907707
20
-1.62470207685783
30
0
41
1
10
52.31040885054
20
-2.00127532590955
30
0
41
1
10
52.4279897700785
20
-2.75876168935463
30
0
41
1
10
52.4867802298479
20
-3.1396714091791
30
0
41
1
10
52.6043611493864
20
-3.90119579018602
30
0
41
1
10
52.6631516091556
20
-4.28180533153451
30
0
41
1
10
52.7807325286941
20
-5.03764314889119
30
0
41
1
10
52.8395229884634
20
-5.41286476210229
30
0
41
1
10
52.957103908002
20
-6.15256691348614
30
0
41
1
10
53.0158943677713
20
-6.51703966029697
30
0
41
1
10
53.1334752873098
20
-7.22982932422494
30
0
41
1
10
53.192265747079
20
-7.57813794329849
30
0
41
1
10
53.3098466666176
20
-8.25337360084211
30
0
41
1
10
53.3686371263869
20
-8.58029259174364
30
0
41
1
10
53.4862180459254
20
-9.20796047317845
30
0
41
1
10
53.5450085056946
20
-9.5087023488386
30
0
41
1
10
53.6625894252333
20
-10.0798936687606
30
0
41
1
10
53.7213798850025
20
-10.3503378125077
30
0
41
1
10
53.838960804541
20
-10.8576647650523
30
0
41
1
10
53.8977512643102
20
-11.0945444574029
30
0
41
1
10
54.0153321838488
20
-11.5324548744272
30
0
41
1
10
54.0741226436181
20
-11.7334848544861
30
0
41
1
10
54.1917035631566
20
-12.0984478480508
30
0
41
1
10
54.2504940229259
20
-12.2623823815666
30
0
41
1
10
54.3680749424644
20
-12.5529337976573
30
0
41
1
10
54.4268654022337
20
-12.6795541058035
30
0
41
1
10
54.5444463217723
20
-12.8962079096963
30
0
41
1
10
54.6032367815415
20
-12.9862462092155
30
0
41
1
10
54.72081770108
20
-13.1312927433096
30
0
41
1
10
54.7796081608493
20
-13.1863065642861
30
0
41
1
10
54.8971890803879
20
-13.2635285991039
30
0
41
1
10
54.9559795401572
20
-13.2857426110786
30
0
41
1
10
55.0294676148687
20
-13.2947061392018
30
0
41
1
10
55.044165229811
20
-13.2955596650461
30
0
41
1
10
55.0735604596956
20
-13.2954338676348
30
0
41
1
10
55.1176533045227
20
-13.2924918168112
30
0
41
1
10
55.1617461493495
20
-13.2810812632623
30
0
41
1
10
55.2499318390035
20
-13.2464433690261
30
0
41
1
10
55.3087222987728
20
-13.2075796485187
30
0
41
1
10
55.4263032183113
20
-13.0958349181381
30
0
41
1
10
55.4850936780806
20
-13.0229481528594
30
0
41
1
10
55.6026745976191
20
-12.8412561091472
30
0
41
1
10
55.6614650573883
20
-12.7324455742503
30
0
41
1
10
55.7790459769269
20
-12.4777560492315
30
0
41
1
10
55.8378364366962
20
-12.3318728956436
30
0
41
1
10
55.9554173562347
20
-12.0027831192134
30
0
41
1
10
56.014207816004
20
-11.8195739987512
30
0
41
1
10
56.1317887355424
20
-11.4165742898967
30
0
41
1
10
56.1905791953117
20
-11.1967833221081
30
0
41
1
10
56.3081601148502
20
-10.7224036908515
30
0
41
1
10
56.3669505746196
20
-10.4678170034124
30
0
41
1
10
56.4845314941581
20
-9.92664820362742
30
0
41
1
10
56.5433219539273
20
-9.64007037945484
30
0
41
1
10
56.6609028734658
20
-9.03864565226846
30
0
41
1
10
56.7196933332352
20
-8.72380501059777
30
0
41
1
10
56.8372742527737
20
-8.07034522612537
30
0
41
1
10
56.896064712543
20
-7.73173372662578
30
0
41
1
10
57.0136456320815
20
-7.03577595012018
30
0
41
1
10
57.0724360918508
20
-6.67843794918841
30
0
41
1
10
57.1900170113893
20
-5.95038222520498
30
0
41
1
10
57.2488074711586
20
-5.57967262637783
30
0
41
1
10
57.3663883906972
20
-4.83029104927749
30
0
41
1
10
57.4251788504664
20
-4.45162634442511
30
0
41
1
10
57.542759770005
20
-3.6915806206255
30
0
41
1
10
57.6015502297742
20
-3.31020550364576
30
0
41
1
10
57.7191311493127
20
-2.54961427708602
30
0
41
1
10
57.777921609082
20
-2.17040240356445
30
0
41
1
10
57.8955025286206
20
-1.41848924079255
30
0
41
1
10
57.9542929883898
20
-1.04579045423188
30
0
41
1
10
58.0424786780437
20
-0.494420228487712
30
0
41
1
10
58.0718739079283
20
-0.311904708418098
30
0
41
1
10
58.1159667527552
20
-0.0403451514790163
30
0
41
1
10
58.1306643676976
20
0.0496299147072534
30
0
41
1
10
58.1600595975822
20
0.230720091536313
30
0
41
1
10
58.1747572125245
20
0.321632984108305
30
0
41
1
10
58.2482452872361
20
0.77791377404526
30
0
41
1
10
58.3070357470054
20
1.14845676475503
30
0
41
1
10
58.4246166665439
20
1.89701720332826
30
0
41
1
10
58.4834071263132
20
2.27503255465075
30
0
41
1
10
58.6009880458517
20
3.03433316765313
30
0
41
1
10
58.659778505621
20
3.41561461362704
30
0
41
1
10
58.7773594251596
20
4.1766898628228
30
0
41
1
10
58.8361498849288
20
4.55647814823089
30
0
41
1
10
58.9537308044673
20
5.30939678910423
30
0
41
1
10
59.0125212642366
20
5.68252016272177
30
0
41
1
10
59.1301021837752
20
6.4167146154775
30
0
41
1
10
59.1888926435445
20
6.77777771731039
30
0
41
1
10
59.306473563083
20
7.48245962193417
30
0
41
1
10
59.3652640228522
20
7.82607011482443
30
0
41
1
10
59.4828449423908
20
8.49070421398756
30
0
41
1
10
59.5416354021601
20
8.81171995210556
30
0
41
1
10
59.6592163216986
20
9.42651712489607
30
0
41
1
10
59.7180067814679
20
9.72029190257732
30
0
41
1
10
59.8355877010064
20
10.2766757263872
30
0
41
1
10
59.8943781607757
20
10.5392799662041
30
0
41
1
10
60.0119590803142
20
11.030281542067
30
0
41
1
10
60.0707495400835
20
11.2586763285143
30
0
41
1
10
60.188330459622
20
11.6792197452271
30
0
41
1
10
60.2471209193913
20
11.8713681980811
30
0
41
1
10
60.3647018389298
20
12.2184226837851
30
0
41
1
10
60.4234922986991
20
12.3733307375659
30
0
41
1
10
60.5410732182376
20
12.6459225601956
30
0
41
1
10
60.5998636780068
20
12.7636101399191
30
0
41
1
10
60.7174445975454
20
12.9627042912799
30
0
41
1
10
60.7762350573147
20
13.0441159106533
30
0
41
1
10
60.9526064366226
20
13.2365291894055
30
0
41
1
10
61.0701873561611
20
13.2955
30
0
41
1
10
61.1877682756996
20
13.2955
30
0
0
SPLINE
5
DD
100
AcDbEntity
8
1
62
256
6
ByLayer
370
13
48
1
60
0
100
AcDbSpline
70
4
71
3
72
38
73
34
40
0
40
0
40
0
40
0
40
0.0625
40
0.0625
40
0.125
40
0.125
40
0.1875
40
0.1875
40
0.25
40
0.25
40
0.3125
40
0.3125
40
0.375
40
0.375
40
0.4375
40
0.4375
40
0.5
40
0.5
40
0.5625
40
0.5625
40
0.625
40
0.625
40
0.6875
40
0.6875
40
0.75
40
0.75
40
0.8125
40
0.8125
40
0.875
40
0.875
40
0.9375
40
0.9375
40
1
40
1
40
1
40
1
41
1
10
59.1441284457719
20
13.2955
30
0
41
1
10
59.2069764729499
20
13.2955
30
0
41
1
10
59.2698245001277
20
13.2787124220114
30
0
41
1
10
59.3955205544837
20
13.2081564476126
30
0
41
1
10
59.4583685816616
20
13.1543799817296
30
0
41
1
10
59.5840646360175
20
13.0070310252643
30
0
41
1
10
59.6469126631955
20
12.9134506748631
30
0
41
1
10
59.7726087175514
20
12.6845262963633
30
0
41
1
10
59.8354567447294
20
12.5491755158365
30
0
41
1
10
59.9611527990853
20
12.235812990111
30
0
41
1
10
60.0240008262632
20
12.0577965482514
30
0
41
1
10
60.1496968806192
20
11.6594511944096
30
0
41
1
10
60.2125449077972
20
11.439120473216
30
0
41
1
10
60.3382409621531
20
10.9578414678777
30
0
41
1
10
60.401088989331
20
10.6968947961133
30
0
41
1
10
60.5267850436869
20
10.1374298736673
30
0
41
1
10
60.5896330708649
20
9.8389167483042
30
0
41
1
10
60.7153291252207
20
9.20861478963849
30
0
41
1
10
60.7781771523987
20
8.8768341815861
30
0
41
1
10
60.9038732067546
20
8.18534065740215
30
0
41
1
10
60.9667212339326
20
7.82563819880306
30
0
41
1
10
61.0924172882885
20
7.08440789118623
30
0
41
1
10
61.1552653154665
20
6.70289156391925
30
0
41
1
10
61.2809613698224
20
5.92456951297132
30
0
41
1
10
61.3438093970003
20
5.52777512454603
30
0
41
1
10
61.4695054513562
20
4.72551431296949
30
0
41
1
10
61.5323534785342
20
4.32005792635044
30
0
41
1
10
61.6580495328901
20
3.50684715077594
30
0
41
1
10
61.7208975600681
20
3.09910069382522
30
0
41
1
10
61.846593614424
20
2.28716814855167
30
0
41
1
10
61.9094416416019
20
1.88298746944778
30
0
41
1
10
62.0351376959578
20
1.08332781082328
30
0
41
1
10
62.0979857231358
20
0.68785167819766
30
0
41
1
10
62.1608337503138
20
0.298876706096536
30
0
0
SPLINE
5
DE
100
AcDbEntity
8
1
62
256
6
ByLayer
370
13
48
1
60
0
100
AcDbSpline
70
4
71
3
72
10
73
6
40
0
40
0
40
0
40
0
40
0.5
40
0.5
40
1
40
1
40
1
40
1
41
1
10
49.9
20
12.764864209864
30
0
41
1
10
49.9973402185809
20
12.9484590902556
30
0
41
1
10
50.0946804371619
20
13.0816672413193
30
0
41
1
10
50.2893608743237
20
13.2551520385062
30
0
41
1
10
50.3867010929047
20
13.2955
30
0
41
1
10
50.4840413114856
20
13.2955
30
0
0
SPLINE
5
DF
100
AcDbEntity
8
1
62
256
6
ByLayer
370
13
48
1
60
0
100
AcDbSpline
70
4
71
3
72
122
73
118
40
0
40
0
40
0
40
0
40
0.015625
40
0.015625
40
0.0312499999999999
40
0.0312499999999999
40
0.0468749999999999
40
0.0468749999999999
40
0.0624999999999998
40
0.0624999999999998
40
0.0781249999999998
40
0.0781249999999998
40
0.0937499999999997
40
0.0937499999999997
40
0.125
40
0.125
40
0.140624999999999
40
0.140624999999999
40
0.148437499999999
40
0.148437499999999
40
0.156249999999999
40
0.156249999999999
40
0.187499999999999
40
0.187499999999999
40
0.218749999999999
40
0.218749999999999
40
0.234374999999999
40
0.234374999999999
40
0.249999999999999
40
0.249999999999999
40
0.265624999999999
40
0.265624999999999
40
0.281249999999999
40
0.281249999999999
40
0.296874999999999
40
0.296874999999999
40
0.312499999999999
40
0.312499999999999
40
0.328124999999998
40
0.328124999999998
40
0.343749999999998
40
0.343749999999998
40
0.359374999999998
40
0.359374999999998
40
0.374999999999998
40
0.374999999999998
40
0.406249999999998
40
0.406249999999998
40
0.421874999999998
40
0.421874999999998
40
0.429687499999998
40
0.429687499999998
40
0.433593749999998
40
0.433593749999998
40
0.437499999999998
40
0.437499999999998
40
0.468749999999998
40
0.468749999999998
40
0.499999999999998
40
0.499999999999998
40
0.515624999999998
40
0.515624999999998
40
0.531249999999998
40
0.531249999999998
40
0.546874999999998
40
0.546874999999998
40
0.562499999999998
40
0.562499999999998
40
0.578124999999999
40
0.578124999999999
40
0.593749999999999
40
0.593749999999999
40
0.609374999999999
40
0.609374999999999
40
0.624999999999999
40
0.624999999999999
40
0.640624999999999
40
0.640624999999999
40
0.656249999999999
40
0.656249999999999
40
0.687499999999999
40
0.687499999999999
40
0.703124999999999
40
0.703124999999999
40
0.710937499999999
40
0.710937499999999
40
0.714843749999999
40
0.714843749999999
40
0.718749999999999
40
0.718749999999999
40
0.749999999999999
40
0.749999999999999
40
0.781249999999999
40
0.781249999999999
40
0.796874999999999
40
0.796874999999999
40
0.812499999999999
40
0.812499999999999
40
0.828124999999999
40
0.828124999999999
40
0.843749999999999
40
0.843749999999999
40
0.859374999999999
40
0.859374999999999
40
0.874999999999999
40
0.874999999999999
40
0.890625
40
0.890625
40
0.90625
40
0.90625
40
0.921875
40
0.921875
40
0.9375
40
0.9375
40
0.96875
40
0.96875
40
1
40
1
40
1
40
1
41
1
10
49.9
20
9.76487379199924
30
0
41
1
10
49.9562564334993
20
9.49059862631916
30
0
41
1
10
50.0125128669987
20
9.20251583175337
30
0
41
1
10
50.1250257339973
20
8.60234349212678
30
0
41
1
10
50.1812821674967
20
8.290259567259
30
0
41
1
10
50.2937950344954
20
7.64626327982512
30
0
41
1
10
50.3500514679946
20
7.31435734838024
30
0
41
1
10
50.4625643349933
20
6.63527371131153
30
0
41
1
10
50.5188207684927
20
6.288102673624
30
0
41
1
10
50.6313336354914
20
5.58322507771527
30
0
41
1
10
50.6875900689906
20
5.2255248615364
30
0
41
1
10
50.8001029359893
20
4.50430745249483
30
0
41
1
10
50.8563593694886
20
4.14079580065669
30
0
41
1
10
51.0251286699867
20
3.04831664486758
30
0
41
1
10
51.1376415369853
20
2.31764871634508
30
0
41
1
10
51.3064108374833
20
1.24176031204641
30
0
41
1
10
51.3626672709826
20
0.886426778626259
30
0
41
1
10
51.4470519212316
20
0.360750877058621
30
0
41
1
10
51.4751801379813
20
0.186741980440587
30
0
41
1
10
51.5314365714806
20
-0.158499152018322
30
0
41
1
10
51.5595647882303
20
-0.332219549962673
30
0
41
1
10
51.7002058719786
20
-1.2076806372994
30
0
41
1
10
51.8127187389773
20
-1.92800698179886
30
0
41
1
10
52.0377444729746
20
-3.38115130523474
30
0
41
1
10
52.1502573399733
20
-4.11387137805775
30
0
41
1
10
52.3190266404713
20
-5.19616916961769
30
0
41
1
10
52.3752830739706
20
-5.55408995463659
30
0
41
1
10
52.4877959409692
20
-6.25953845721111
30
0
41
1
10
52.5440523744686
20
-6.6070598488148
30
0
41
1
10
52.6565652414673
20
-7.28697190288375
30
0
41
1
10
52.7128216749665
20
-7.61935589907984
30
0
41
1
10
52.8253345419652
20
-8.26442849006511
30
0
41
1
10
52.8815909754646
20
-8.5771106395197
30
0
41
1
10
52.9941038424633
20
-9.17858677651731
30
0
41
1
10
53.0503602759626
20
-9.46737511458898
30
0
41
1
10
53.1628731429613
20
-10.0174264224387
30
0
41
1
10
53.2191295764606
20
-10.2786850423298
30
0
41
1
10
53.3316424434593
20
-10.7707471128296
30
0
41
1
10
53.3878988769586
20
-11.0015478700396
30
0
41
1
10
53.5004117439573
20
-11.4305786934286
30
0
41
1
10
53.5566681774566
20
-11.6288078834157
30
0
41
1
10
53.6691810444553
20
-11.9914483011236
30
0
41
1
10
53.7254374779546
20
-12.1558604214872
30
0
41
1
10
53.8379503449532
20
-12.4504870493359
30
0
41
1
10
53.8942067784525
20
-12.5807039849369
30
0
41
1
10
54.0629760789506
20
-12.9207140096477
30
0
41
1
10
54.1754889459492
20
-13.0795750540716
30
0
41
1
10
54.3442582464472
20
-13.2249234390908
30
0
41
1
10
54.4005146799465
20
-13.2579612570914
30
0
41
1
10
54.4848993301955
20
-13.2860689310664
30
0
41
1
10
54.5130275469452
20
-13.2918665249076
30
0
41
1
10
54.5552198720697
20
-13.2954385494096
30
0
41
1
10
54.5692839804445
20
-13.2957778286063
30
0
41
1
10
54.5974121971943
20
-13.2947767868563
30
0
41
1
10
54.6114763055691
20
-13.2934305002793
30
0
41
1
10
54.7380532809426
20
-13.2735227376802
30
0
41
1
10
54.8505661479412
20
-13.2001655136946
30
0
41
1
10
55.0755918819385
20
-12.9249000006082
30
0
41
1
10
55.1881047489372
20
-12.7228499394471
30
0
41
1
10
55.3568740494351
20
-12.3168748034314
30
0
41
1
10
55.4131304829345
20
-12.1644832114054
30
0
41
1
10
55.5256433499331
20
-11.8256542806027
30
0
41
1
10
55.5818997834325
20
-11.6392154747173
30
0
41
1
10
55.6944126504312
20
-11.2332281937511
30
0
41
1
10
55.7506690839305
20
-11.0136799572289
30
0
41
1
10
55.8631819509292
20
-10.5432838057457
30
0
41
1
10
55.9194383844285
20
-10.292437952873
30
0
41
1
10
56.0319512514272
20
-9.76209623577262
30
0
41
1
10
56.0882076849265
20
-9.48260417046163
30
0
41
1
10
56.2007205519251
20
-8.89837091166623
30
0
41
1
10
56.2569769854245
20
-8.59363496210503
30
0
41
1
10
56.3694898524231
20
-7.96292906334526
30
0
41
1
10
56.4257462859225
20
-7.6369653433818
30
0
41
1
10
56.5382591529212
20
-6.96825924948905
30
0
41
1
10
56.5945155864204
20
-6.62552353060852
30
0
41
1
10
56.7070284534191
20
-5.9279734929325
30
0
41
1
10
56.7632848869184
20
-5.57316567947262
30
0
41
1
10
56.8757977539171
20
-4.85621658419063
30
0
41
1
10
56.9320541874165
20
-4.49408114732594
30
0
41
1
10
57.1008234879144
20
-3.40357921379282
30
0
41
1
10
57.2133363549131
20
-2.67134590035224
30
0
41
1
10
57.3821056554111
20
-1.58964284782519
30
0
41
1
10
57.4383620889104
20
-1.23179767996817
30
0
41
1
10
57.5227467391594
20
-0.701627631817644
30
0
41
1
10
57.5508749559091
20
-0.525999681147255
30
0
41
1
10
57.5930672810336
20
-0.264476051851716
30
0
41
1
10
57.6071313894084
20
-0.177620948218703
30
0
41
1
10
57.6352596061581
20
-0.0045921487090652
30
0
41
1
10
57.6493237145329
20
0.0815570436808741
30
0
41
1
10
57.7759006899064
20
0.861990822885076
30
0
41
1
10
57.8884135569051
20
1.57748188625169
30
0
41
1
10
58.1134392909025
20
3.02598430564726
30
0
41
1
10
58.2259521579011
20
3.75891144457285
30
0
41
1
10
58.3947214583991
20
4.84602910372203
30
0
41
1
10
58.4509778918984
20
5.20630323313571
30
0
41
1
10
58.563490758897
20
5.91799860193902
30
0
41
1
10
58.6197471923964
20
6.26941373308674
30
0
41
1
10
58.732260059395
20
6.95864018315982
30
0
41
1
10
58.7885164928944
20
7.29644488763711
30
0
41
1
10
58.9010293598931
20
7.95380768318608
30
0
41
1
10
58.9572857933924
20
8.27335919325486
30
0
41
1
10
59.069798660391
20
8.88988103899899
30
0
41
1
10
59.1260550938904
20
9.18684540682361
30
0
41
1
10
59.2385679608891
20
9.75435714631024
30
0
41
1
10
59.2948243943883
20
10.0248996991977
30
0
41
1
10
59.407337261387
20
10.5363945374849
30
0
41
1
10
59.4635936948864
20
10.7773435646611
30
0
41
1
10
59.576106561885
20
11.2272632407245
30
0
41
1
10
59.6323629953844
20
11.4362324195534
30
0
41
1
10
59.7448758623831
20
11.8206610675732
30
0
41
1
10
59.8011322958824
20
11.9961208733458
30
0
41
1
10
59.913645162881
20
12.3128730975316
30
0
41
1
10
59.9699015963803
20
12.4541674811532
30
0
41
1
10
60.1386708968784
20
12.8270704249988
30
0
41
1
10
60.251183763877
20
13.0073857708048
30
0
41
1
10
60.4762094978744
20
13.2415280874816
30
0
41
1
10
60.588722364873
20
13.2955
30
0
41
1
10
60.7012352318716
20
13.2955
30
0
0
SPLINE
5
E0
100
AcDbEntity
8
1
62
256
6
ByLayer
370
13
48
1
60
0
100
AcDbSpline
70
4
71
3
72
38
73
34
40
0
40
0
40
0
40
0
40
0.0625
40
0.0625
40
0.125
40
0.125
40
0.1875
40
0.1875
40
0.25
40
0.25
40
0.3125
40
0.3125
40
0.375
40
0.375
40
0.4375
40
0.4375
40
0.5
40
0.5
40
0.5625
40
0.5625
40
0.625
40
0.625
40
0.6875
40
0.6875
40
0.75
40
0.75
40
0.8125
40
0.8125
40
0.875
40
0.875
40
0.9375
40
0.9375
40
1
40
1
40
1
40
1
41
1
10
58.657595401944
20
13.2955
30
0
41
1
10
58.7305795342017
20
13.2955
30
0
41
1
10
58.8035636664594
20
13.2728505492572
30
0
41
1
10
58.9495319309748
20
13.1769851174062
30
0
41
1
10
59.0225160632325
20
13.1037520767277
30
0
41
1
10
59.1684843277479
20
12.9025919653737
30
0
41
1
10
59.2414684600055
20
12.7746488639739
30
0
41
1
10
59.387436724521
20
12.4616185531812
30
0
41
1
10
59.4604208567787
20
12.2765189723138
30
0
41
1
10
59.6063891212941
20
11.8488395937461
30
0
41
1
10
59.6793732535518
20
11.6062536651737
30
0
41
1
10
59.8253415180673
20
11.065666679797
30
0
41
1
10
59.8983256503249
20
10.7676675887174
30
0
41
1
10
60.0442939148404
20
10.1207892232654
30
0
41
1
10
60.117278047098
20
9.77192052739017
30
0
41
1
10
60.2632463116134
20
9.03012006484394
30
0
41
1
10
60.3362304438712
20
8.63720636517428
30
0
41
1
10
60.4821987083865
20
7.81597950916748
30
0
41
1
10
60.5551828406443
20
7.38768931878849
30
0
41
1
10
60.7011511051596
20
6.50559282986933
30
0
41
1
10
60.7741352374173
20
6.0518109633322
30
0
41
1
10
60.9201035019328
20
5.12910943973992
30
0
41
1
10
60.9930876341905
20
4.66021225143257
30
0
41
1
10
61.1390558987058
20
3.71743689927706
30
0
41
1
10
61.2120400309636
20
3.2435765812082
30
0
41
1
10
61.358008295479
20
2.30019619868028
30
0
41
1
10
61.4309924277368
20
1.8306879112013
30
0
41
1
10
61.5769606922522
20
0.904048477207169
30
0
41
1
10
61.6499448245098
20
0.446944243201415
30
0
41
1
10
61.7959130890252
20
-0.448479256069731
30
0
41
1
10
61.8688972212829
20
-0.90562304433351
30
0
41
1
10
62.0148654857983
20
-1.8322904819446
30
0
41
1
10
62.087849618056
20
-2.30180860348432
30
0
41
1
10
62.1608337503137
20
-2.77350364232001
30
0
0
SPLINE
5
E1
100
AcDbEntity
8
1
62
256
6
ByLayer
370
13
48
1
60
0
100
AcDbSpline
70
4
71
3
72
8
73
4
40
0
40
0
40
0
40
0
40
1
40
1
40
1
40
1
41
1
10
49.9
20
13.2817982970982
30
0
41
1
10
49.9325027558859
20
13.2910139238179
30
0
41
1
10
49.9650055117718
20
13.2955
30
0
41
1
10
49.9975082676577
20
13.2955
30
0
0
SPLINE
5
E2
100
AcDbEntity
8
1
62
256
6
ByLayer
370
13
48
1
60
0
100
AcDbSpline
70
4
71
3
72
86
73
82
40
0
40
0
40
0
40
0
40
0.03125
40
0.03125
40
0.0625
40
0.0625
40
0.09375
40
0.09375
40
0.1015625
40
0.1015625
40
0.10546875
40
0.10546875
40
0.109375
40
0.109375
40
0.125
40
0.125
40
0.15625
40
0.15625
40
0.1875
40
0.1875
40
0.21875
40
0.21875
40
0.25
40
0.25
40
0.28125
40
0.28125
40
0.3125
40
0.3125
40
0.34375
40
0.34375
40
0.375
40
0.375
40
0.390625
40
0.390625
40
0.3984375
40
0.3984375
40
0.40234375
40
0.40234375
40
0.40625
40
0.40625
40
0.4375
40
0.4375
40
0.46875
40
0.46875
40
0.5
40
0.5
40
0.53125
40
0.53125
40
0.5625
40
0.5625
40
0.59375
40
0.59375
40
0.625
40
0.625
40
0.65625
40
0.65625
40
0.6875
40
0.6875
40
0.6953125
40
0.6953125
40
0.703125
40
0.703125
40
0.71875
40
0.71875
40
0.75
40
0.75
40
0.78125
40
0.78125
40
0.8125
40
0.8125
40
0.84375
40
0.84375
40
0.875
40
0.875
40
0.90625
40
0.90625
40
0.9375
40
0.9375
40
0.96875
40
0.96875
40
1
40
1
40
1
40
1
41
1
10
49.9
20
7.09385103080123
30
0
41
1
10
50.0074448144587
20
6.44882999867488
30
0
41
1
10
50.1148896289176
20
5.77497185012868
30
0
41
1
10
50.3297792578352
20
4.40250526997824
30
0
41
1
10
50.4372240722939
20
3.70404152726641
30
0
41
1
10
50.6521137012116
20
2.31349807280728
30
0
41
1
10
50.7595585156703
20
1.62150698775957
30
0
41
1
10
50.8938645337439
20
0.776386456556253
30
0
41
1
10
50.9207257373585
20
0.608338876098884
30
0
41
1
10
50.9610175427806
20
0.357975396965486
30
0
41
1
10
50.9744481445879
20
0.274805323099145
30
0
41
1
10
51.0013093482026
20
0.109071760907341
30
0
41
1
10
51.0147399500099
20
0.02669767791852
30
0
41
1
10
51.0818929590466
20
-0.385945312228188
30
0
41
1
10
51.1356153662761
20
-0.721090223520036
30
0
41
1
10
51.2967825879643
20
-1.73782421586608
30
0
41
1
10
51.4042274024231
20
-2.43092028545641
30
0
41
1
10
51.6191170313406
20
-3.82205107378576
30
0
41
1
10
51.7265618457994
20
-4.51999358833987
30
0
41
1
10
51.941451474717
20
-5.88956063543719
30
0
41
1
10
52.0488962891758
20
-6.56103806270465
30
0
41
1
10
52.2637859180934
20
-7.84447534789396
30
0
41
1
10
52.3712307325521
20
-8.45626765612519
30
0
41
1
10
52.5861203614698
20
-9.59006988579216
30
0
41
1
10
52.6935651759285
20
-10.1119423569675
30
0
41
1
10
52.908454804846
20
-11.0433504804507
30
0
41
1
10
53.0158996193048
20
-11.452821405562
30
0
41
1
10
53.2307892482225
20
-12.1477593408817
30
0
41
1
10
53.3382340626812
20
-12.4332475206117
30
0
41
1
10
53.5531236915988
20
-12.8801108472369
30
0
41
1
10
53.6605685060576
20
-13.0415733460921
30
0
41
1
10
53.8217357277458
20
-13.1979714289717
30
0
41
1
10
53.8754581349752
20
-13.2358723709487
30
0
41
1
10
53.9560417458193
20
-13.2727697883886
30
0
41
1
10
53.982902949434
20
-13.281746130122
30
0
41
1
10
54.023194754856
20
-13.2904229661154
30
0
41
1
10
54.0366253566634
20
-13.2925174347248
30
0
41
1
10
54.0634865602781
20
-13.2951449951188
30
0
41
1
10
54.0769171620854
20
-13.2956787707765
30
0
41
1
10
54.1977925783516
20
-13.2936012080852
30
0
41
1
10
54.3052373928103
20
-13.2423837746781
30
0
41
1
10
54.5201270217279
20
-13.0252779895274
30
0
41
1
10
54.6275718361868
20
-12.8592740441276
30
0
41
1
10
54.8424614651043
20
-12.4031334911718
30
0
41
1
10
54.9499062795632
20
-12.1129113873982
30
0
41
1
10
55.1647959084807
20
-11.4087252199005
30
0
41
1
10
55.2722407229395
20
-10.9947430375012
30
0
41
1
10
55.487130351857
20
-10.0549700802237
30
0
41
1
10
55.5945751663158
20
-9.52924722947839
30
0
41
1
10
55.8094647952334
20
-8.3887657343254
30
0
41
1
10
55.9169096096922
20
-7.7741465750473
30
0
41
1
10
56.1317992386097
20
-6.48628327768404
30
0
41
1
10
56.2392440530686
20
-5.81320679863472
30
0
41
1
10
56.4541336819862
20
-4.4416836731896
30
0
41
1
10
56.5615784964449
20
-3.74338253336569
30
0
41
1
10
56.7764681253625
20
-2.35262308225214
30
0
41
1
10
56.8839129398213
20
-1.6602545924035
30
0
41
1
10
57.0182189578948
20
-0.814405126526736
30
0
41
1
10
57.0450801615095
20
-0.646198972855728
30
0
41
1
10
57.0988025687389
20
-0.312040491087117
30
0
41
1
10
57.1256637723536
20
-0.146268306193377
30
0
41
1
10
57.2062473831976
20
0.348335399404647
30
0
41
1
10
57.2599697904271
20
0.683144661834632
30
0
41
1
10
57.4211370121153
20
1.69902716387585
30
0
41
1
10
57.528581826574
20
2.39176399748439
30
0
41
1
10
57.7434714554916
20
3.78271925169943
30
0
41
1
10
57.8509162699504
20
4.48084665830987
30
0
41
1
10
58.065805898868
20
5.85140328180015
30
0
41
1
10
58.1732507133268
20
6.52368618658863
30
0
41
1
10
58.3881403422444
20
7.8093478783378
30
0
41
1
10
58.4955851567032
20
8.42255905162619
30
0
41
1
10
58.7104747856207
20
9.55971041895734
30
0
41
1
10
58.8179196000795
20
10.0835121373403
30
0
41
1
10
59.0328092289971
20
11.019108834621
30
0
41
1
10
59.1402540434558
20
11.4308374853509
30
0
41
1
10
59.3551436723735
20
12.1304016471179
30
0
41
1
10
59.4625884868323
20
12.4182568058979
30
0
41
1
10
59.6774781157498
20
12.8697570102104
30
0
41
1
10
59.7849229302087
20
13.0334884867779
30
0
41
1
10
59.9998125591262
20
13.2463020889706
30
0
41
1
10
60.107257373585
20
13.2955
30
0
41
1
10
60.2147021880438
20
13.2955
30
0
0
SPLINE
5
E3
100
AcDbEntity
8
1
62
256
6
ByLayer
370
13
48
1
60
0
100
AcDbSpline
70
4
71
3
72
43
73
39
40
0
40
0
40
0
40
0
40
0.0625000000000003
40
0.0625000000000003
40
0.125000000000001
40
0.125000000000001
40
0.187500000000001
40
0.187500000000001
40
0.250000000000001
40
0.250000000000001
40
0.312500000000002
40
0.312500000000002
40
0.375000000000002
40
0.375000000000002
40
0.437500000000002
40
0.437500000000002
40
0.500000000000003
40
0.500000000000003
40
0.562500000000003
40
0.562500000000003
40
0.625000000000003
40
0.625000000000003
40
0.687500000000004
40
0.687500000000004
40
0.750000000000004
40
0.750000000000004
40
0.765625000000004
40
0.765625000000004
40
0.773437500000004
40
0.773437500000004
40
0.781250000000004
40
0.812500000000003
40
0.812500000000003
40
0.875000000000002
40
0.875000000000002
40
0.937500000000001
40
0.937500000000001
40
1
40
1
40
1
40
1
41
1
10
58.1710623581161
20
13.2955
30
0
41
1
10
58.2541825954536
20
13.2955
30
0
41
1
10
58.3373028327909
20
13.2661066191565
30
0
41
1
10
58.5035433074659
20
13.1408534766633
30
0
41
1
10
58.5866635448033
20
13.0449610890034
30
0
41
1
10
58.7529040194782
20
12.7810596938642
30
0
41
1
10
58.8360242568157
20
12.6130214695703
30
0
41
1
10
59.0022647314906
20
12.2022194982092
30
0
41
1
10
59.0853849688281
20
11.9594365432663
30
0
41
1
10
59.251625443503
20
11.4003298573755
30
0
41
1
10
59.3347456808404
20
11.0840027335243
30
0
41
1
10
59.5009861555153
20
10.3831458232297
30
0
41
1
10
59.5841063928527
20
9.99863132648844
30
0
41
1
10
59.7503468675276
20
9.17072001350996
30
0
41
1
10
59.8334671048651
20
8.72735563524265
30
0
41
1
10
59.9997075795401
20
7.7943206652364
30
0
41
1
10
60.0828278168774
20
7.30469380499426
30
0
41
1
10
60.2490682915524
20
6.29379684573493
30
0
41
1
10
60.3321885288898
20
5.77257335541444
30
0
41
1
10
60.4984290035647
20
4.71384391559298
30
0
41
1
10
60.5815492409022
20
4.1763791321653
30
0
41
1
10
60.747789715577
20
3.09987806897595
30
0
41
1
10
60.8309099529145
20
2.56087162590751
30
0
41
1
10
60.9971504275894
20
1.49426350317512
30
0
41
1
10
61.0802706649268
20
0.966677981594955
30
0
41
1
10
61.1841709615987
20
0.320915219753658
30
0
41
1
10
61.204951020933
20
0.192442193073958
30
0
41
1
10
61.2361211099345
20
0.00085556563414
30
0
41
1
10
61.2465111396018
20
-0.0628159868266494
30
0
41
1
10
61.2672911989362
20
-0.19078085992885
30
0
41
1
10
61.3192413472719
20
-0.511613214514654
30
0
41
1
10
61.3711914956079
20
-0.836850123116477
30
0
41
1
10
61.4958718516141
20
-1.6240707307671
30
0
41
1
10
61.5789920889516
20
-2.15783023523693
30
0
41
1
10
61.7452325636265
20
-3.2316714005853
30
0
41
1
10
61.8283528009639
20
-3.77173116419692
30
0
41
1
10
61.9945932756388
20
-4.84439382064411
30
0
41
1
10
62.0777135129763
20
-5.37696167428183
30
0
41
1
10
62.1608337503137
20
-5.89824447788851
30
0
0
SPLINE
5
E4
100
AcDbEntity
8
1
62
256
6
ByLayer
370
13
48
1
60
0
100
AcDbSpline
70
4
71
3
72
85
73
81
40
0
40
0
40
0
40
0
40
0.0312499999999995
40
0.0312499999999995
40
0.0624999999999991
40
0.0624999999999991
40
0.0664062499999991
40
0.0664062499999991
40
0.070312499999999
40
0.078124999999999
40
0.078124999999999
40
0.0937499999999989
40
0.0937499999999989
40
0.124999999999999
40
0.124999999999999
40
0.156249999999999
40
0.156249999999999
40
0.187499999999999
40
0.187499999999999
40
0.218749999999999
40
0.218749999999999
40
0.249999999999999
40
0.249999999999999
40
0.281249999999999
40
0.281249999999999
40
0.312499999999999
40
0.312499999999999
40
0.343749999999999
40
0.343749999999999
40
0.374999999999999
40
0.374999999999999
40
0.378906249999999
40
0.378906249999999
40
0.382812499999999
40
0.390624999999999
40
0.390624999999999
40
0.406249999999999
40
0.406249999999999
40
0.437499999999999
40
0.437499999999999
40
0.468749999999999
40
0.468749999999999
40
0.5
40
0.5
40
0.53125
40
0.53125
40
0.5625
40
0.5625
40
0.59375
40
0.59375
40
0.625
40
0.625
40
0.65625
40
0.65625
40
0.6875
40
0.6875
40
0.69140625
40
0.69140625
40
0.6953125
40
0.703125
40
0.703125
40
0.71875
40
0.71875
40
0.75
40
0.75
40
0.78125
40
0.78125
40
0.8125
40
0.8125
40
0.84375
40
0.84375
40
0.875
40
0.875
40
0.90625
40
0.90625
40
0.9375
40
0.9375
40
0.96875
40
0.96875
40
1
40
1
40
1
40
1
41
1
10
49.9
20
4.03251276984182
30
0
41
1
10
50.0023767619189
20
3.37058861478835
30
0
41
1
10
50.1047535238378
20
2.70495772547415
30
0
41
1
10
50.3095070476756
20
1.39089835230473
30
0
41
1
10
50.4118838095946
20
0.742516229982442
30
0
41
1
10
50.5270576667533
20
0.033576851780623
30
0
41
1
10
50.5398547619932
20
-0.0447842481842997
30
0
41
1
10
50.5654489524729
20
-0.202379609744526
30
0
41
1
10
50.6038402381925
20
-0.439612025334469
30
0
41
1
10
50.6422315239122
20
-0.679220434839834
30
0
41
1
10
50.7190140953513
20
-1.16119195692772
30
0
41
1
10
50.7702024763108
20
-1.48619089543499
30
0
41
1
10
50.9237676191891
20
-2.46850350358724
30
0
41
1
10
51.026144381108
20
-3.133283717957
30
0
41
1
10
51.2308979049459
20
-4.4586088860909
30
0
41
1
10
51.3332746668648
20
-5.1190658558904
30
0
41
1
10
51.5380281907027
20
-6.40781883216644
30
0
41
1
10
51.6404049526216
20
-7.03599127704516
30
0
41
1
10
51.8451584764594
20
-8.2316882973098
30
0
41
1
10
51.9475352383783
20
-8.79908285928505
30
0
41
1
10
52.1522887622161
20
-9.84810671041964
30
0
41
1
10
52.254665524135
20
-10.3296361882964
30
0
41
1
10
52.4594190479729
20
-11.1887707852155
30
0
41
1
10
52.5617958098918
20
-11.5663339618659
30
0
41
1
10
52.7665493337296
20
-12.2085520310345
30
0
41
1
10
52.8689260956485
20
-12.4732289500504
30
0
41
1
10
53.0736796194863
20
-12.8901649631484
30
0
41
1
10
53.1760563814053
20
-13.0424942162608
30
0
41
1
10
53.3808099052431
20
-13.243238821031
30
0
41
1
10
53.483186667162
20
-13.2917453053236
30
0
41
1
10
53.5983605243208
20
-13.2957322700491
30
0
41
1
10
53.6111576195606
20
-13.2954796928625
30
0
41
1
10
53.6367518100404
20
-13.2935674979206
30
0
41
1
10
53.6751430957601
20
-13.2885825377911
30
0
41
1
10
53.7135343814796
20
-13.2771119699704
30
0
41
1
10
53.7903169529187
20
-13.2451799931578
30
0
41
1
10
53.8415053338782
20
-13.2118950887352
30
0
41
1
10
53.9950704767566
20
-13.0735887066704
30
0
41
1
10
54.0974472386755
20
-12.929900910911
30
0
41
1
10
54.3022007625133
20
-12.5306641758368
30
0
41
1
10
54.4045775244323
20
-12.2750423677077
30
0
41
1
10
54.6093310482701
20
-11.6506459817021
30
0
41
1
10
54.711707810189
20
-11.2818447432454
30
0
41
1
10
54.9164613340268
20
-10.4391795451082
30
0
41
1
10
55.0188380959457
20
-9.96535235088805
30
0
41
1
10
55.2235916197836
20
-8.9300050481306
30
0
41
1
10
55.3259683817025
20
-8.36858093862429
30
0
41
1
10
55.5307219055403
20
-7.18265787821383
30
0
41
1
10
55.6330986674592
20
-6.55828787364678
30
0
41
1
10
55.8378521912971
20
-5.27484602391621
30
0
41
1
10
55.940228953216
20
-4.61589950583465
30
0
41
1
10
56.1449824770538
20
-3.29147531451196
30
0
41
1
10
56.2473592389727
20
-2.62608912712875
30
0
41
1
10
56.4521127628105
20
-1.31339754069978
30
0
41
1
10
56.5544895247295
20
-0.666136618016253
30
0
41
1
10
56.6696633818883
20
0.0411850468018429
30
0
41
1
10
56.6824604771281
20
0.119744630545995
30
0
41
1
10
56.7080546676079
20
0.27769221266567
30
0
41
1
10
56.7464459533275
20
0.515437886534983
30
0
41
1
10
56.784837239047
20
0.755512143290872
30
0
41
1
10
56.8616198104863
20
1.23834636525024
30
0
41
1
10
56.9128081914457
20
1.56382837017446
30
0
41
1
10
57.0663733343241
20
2.54726957590077
30
0
41
1
10
57.168750096243
20
3.21237210062907
30
0
41
1
10
57.3735036200808
20
4.53728842655403
30
0
41
1
10
57.4758803819997
20
5.19701248311725
30
0
41
1
10
57.6806339058376
20
6.48315489335292
30
0
41
1
10
57.7830106677565
20
7.10944877859467
30
0
41
1
10
57.9877641915943
20
8.30030133784953
30
0
41
1
10
58.0901409535132
20
8.86473050195255
30
0
41
1
10
58.2948944773511
20
9.90695006469656
30
0
41
1
10
58.3972712392699
20
10.384642536047
30
0
41
1
10
58.6020247631078
20
11.2355633067483
30
0
41
1
10
58.7044015250267
20
11.6087522481502
30
0
41
1
10
58.9091550488645
20
12.2420653852813
30
0
41
1
10
59.0115318107835
20
12.5022139383753
30
0
41
1
10
59.2162853346213
20
12.9102923795746
30
0
41
1
10
59.3186620965402
20
13.0582938040439
30
0
41
1
10
59.5234156203781
20
13.2508519176991
30
0
41
1
10
59.6257923822969
20
13.2955
30
0
41
1
10
59.7281691442158
20
13.2955
30
0
0
SPLINE
5
E5
100
AcDbEntity
8
1
62
256
6
ByLayer
370
13
48
1
60
0
100
AcDbSpline
70
4
71
3
72
43
73
39
40
0
40
0
40
0
40
0
40
0.0624999999999998
40
0.0624999999999998
40
0.125
40
0.125
40
0.187499999999999
40
0.187499999999999
40
0.249999999999999
40
0.249999999999999
40
0.312499999999999
40
0.312499999999999
40
0.374999999999999
40
0.374999999999999
40
0.437499999999999
40
0.437499999999999
40
0.499999999999999
40
0.499999999999999
40
0.562499999999998
40
0.562499999999998
40
0.624999999999998
40
0.624999999999998
40
0.656249999999998
40
0.656249999999998
40
0.671874999999998
40
0.679687499999998
40
0.679687499999998
40
0.687499999999998
40
0.687499999999998
40
0.749999999999999
40
0.749999999999999
40
0.812499999999999
40
0.812499999999999
40
0.874999999999999
40
0.874999999999999
40
0.9375
40
0.9375
40
1
40
1
40
1
40
1
41
1
10
57.6845293142882
20
13.2955
30
0
41
1
10
57.7777856567054
20
13.2955
30
0
41
1
10
57.8710419991226
20
13.2584771596748
30
0
41
1
10
58.0575546839569
20
13.0996898857136
30
0
41
1
10
58.1508110263741
20
12.9778677310489
30
0
41
1
10
58.3373237112086
20
12.6421767808922
30
0
41
1
10
58.4305800536258
20
12.4282594426739
30
0
41
1
10
58.6170927384602
20
11.9062197614362
30
0
41
1
10
58.7103490808774
20
11.5980726707013
30
0
41
1
10
58.8968617657118
20
10.8917172857046
30
0
41
1
10
58.990118108129
20
10.493518993413
30
0
41
1
10
59.1766307929634
20
9.61776416052257
30
0
41
1
10
59.2698871353805
20
9.14025414693518
30
0
41
1
10
59.4563998202149
20
8.12228596572785
30
0
41
1
10
59.5496561626321
20
7.58190133212361
30
0
41
1
10
59.7361688474666
20
6.45845293805849
30
0
41
1
10
59.8294251898838
20
5.87547207573087
30
0
41
1
10
60.0159378747181
20
4.68853945575273
30
0
41
1
10
60.1091942171353
20
4.0846611310653
30
0
41
1
10
60.2957069019698
20
2.87666549883923
30
0
41
1
10
60.388963244387
20
2.27259889774311
30
0
41
1
10
60.5288477580127
20
1.3797069015879
30
0
41
1
10
60.5754759292213
20
1.08425035972502
30
0
41
1
10
60.6454181860342
20
0.645719381870123
30
0
41
1
10
60.6803893144408
20
0.427614321283869
30
0
41
1
10
60.7153604428472
20
0.211483064572349
30
0
41
1
10
60.7386745284514
20
0.0678581219183059
30
0
41
1
10
60.7503315712536
20
-0.0035641058198337
30
0
41
1
10
60.8552449564729
20
-0.648620245342158
30
0
41
1
10
60.9485012988902
20
-1.23721171391725
30
0
41
1
10
61.1350139837246
20
-2.4306431473382
30
0
41
1
10
61.2282703261417
20
-3.03545729266119
30
0
41
1
10
61.4147830109761
20
-4.24322952787187
30
0
41
1
10
61.5080393533934
20
-4.84613461045677
30
0
41
1
10
61.6945520382278
20
-6.02922887134952
30
0
41
1
10
61.7878083806449
20
-6.60934314203357
30
0
41
1
10
61.9743210654793
20
-7.72518893942748
30
0
41
1
10
62.0675774078965
20
-8.26083759958593
30
0
41
1
10
62.1608337503137
20
-8.76427215376958
30
0
0
SPLINE
5
E6
100
AcDbEntity
8
1
62
256
6
ByLayer
370
13
48
1
60
0
100
AcDbSpline
70
4
71
3
72
74
73
70
40
0
40
0
40
0
40
0
40
0.015625
40
0.015625
40
0.0312499999999999
40
0.0312499999999999
40
0.0624999999999999
40
0.0624999999999999
40
0.0937499999999998
40
0.0937499999999998
40
0.125
40
0.125
40
0.15625
40
0.15625
40
0.1875
40
0.1875
40
0.21875
40
0.21875
40
0.25
40
0.25
40
0.28125
40
0.28125
40
0.3125
40
0.3125
40
0.343749999999999
40
0.343749999999999
40
0.374999999999999
40
0.374999999999999
40
0.406249999999999
40
0.406249999999999
40
0.437499999999999
40
0.437499999999999
40
0.468749999999999
40
0.468749999999999
40
0.499999999999999
40
0.499999999999999
40
0.531249999999999
40
0.531249999999999
40
0.562499999999999
40
0.562499999999999
40
0.593749999999999
40
0.593749999999999
40
0.624999999999999
40
0.624999999999999
40
0.656249999999999
40
0.656249999999999
40
0.671874999999999
40
0.671874999999999
40
0.687499999999999
40
0.687499999999999
40
0.718749999999999
40
0.718749999999999
40
0.749999999999999
40
0.749999999999999
40
0.78125
40
0.78125
40
0.8125
40
0.8125
40
0.84375
40
0.84375
40
0.875
40
0.875
40
0.90625
40
0.90625
40
0.9375
40
0.9375
40
0.96875
40
0.96875
40
1
40
1
40
1
40
1
41
1
10
49.9
20
0.907277298847703
30
0
41
1
10
49.9486543546895
20
0.601387357758256
30
0
41
1
10
49.9973087093791
20
0.298752200628172
30
0
41
1
10
50.0946174187581
20
-0.298166703609098
30
0
41
1
10
50.1432717734476
20
-0.600791525351241
30
0
41
1
10
50.2892348375161
20
-1.51844862919896
30
0
41
1
10
50.3865435468952
20
-2.14338630318207
30
0
41
1
10
50.5811609656533
20
-3.40118519466247
30
0
41
1
10
50.6784696750323
20
-4.03399681123599
30
0
41
1
10
50.8730870937904
20
-5.28504657154394
30
0
41
1
10
50.9703958031694
20
-5.90320237454847
30
0
41
1
10
51.1650132219275
20
-7.10038294395588
30
0
41
1
10
51.2623219313066
20
-7.67930654115924
30
0
41
1
10
51.4569393500647
20
-8.77422352967895
30
0
41
1
10
51.5542480594438
20
-9.29012070753373
30
0
41
1
10
51.7488654782018
20
-10.2390034124799
30
0
41
1
10
51.8461741875808
20
-10.6719227343161
30
0
41
1
10
52.040791606339
20
-11.4412151840357
30
0
41
1
10
52.1381003157179
20
-11.7775678453037
30
0
41
1
10
52.332717734476
20
-12.3477871283947
30
0
41
1
10
52.4300264438551
20
-12.5816792839909
30
0
41
1
10
52.6246438626131
20
-12.9486421921111
30
0
41
1
10
52.7219525719922
20
-13.0817710569636
30
0
41
1
10
52.9165699907502
20
-13.2551599784408
30
0
41
1
10
53.0138787001293
20
-13.2954912363888
30
0
41
1
10
53.2084961188874
20
-13.2955087607464
30
0
41
1
10
53.3058048282664
20
-13.2551965125991
30
0
41
1
10
53.5004222470245
20
-13.0818478909263
30
0
41
1
10
53.5977309564036
20
-12.9487403151547
30
0
41
1
10
53.7923483751616
20
-12.5818211085331
30
0
41
1
10
53.8896570845407
20
-12.3479513603214
30
0
41
1
10
54.0842745032988
20
-11.777776472754
30
0
41
1
10
54.1815832126778
20
-11.441445790678
30
0
41
1
10
54.3762006314359
20
-10.6721951644549
30
0
41
1
10
54.4735093408149
20
-10.239295676337
30
0
41
1
10
54.6681267595731
20
-9.29044891881
30
0
41
1
10
54.7654354689521
20
-8.77456784589668
30
0
41
1
10
54.9600528877102
20
-7.67967819662897
30
0
41
1
10
55.0573615970892
20
-7.10076582976927
30
0
41
1
10
55.2519790158473
20
-5.90360233527974
30
0
41
1
10
55.3492877252263
20
-5.28545237859993
30
0
41
1
10
55.5439051439843
20
-4.03440907996748
30
0
41
1
10
55.6412138533634
20
-3.40159808481738
30
0
41
1
10
55.8358312721215
20
-2.14379590534799
30
0
41
1
10
55.9331399815006
20
-1.51885432968331
30
0
41
1
10
56.0791030455692
20
-0.601188745936724
30
0
41
1
10
56.1277574002586
20
-0.298555220048314
30
0
41
1
10
56.2250661096377
20
0.298360054968583
30
0
41
1
10
56.2737204643272
20
0.600990135134367
30
0
41
1
10
56.4196835283958
20
1.51865147907407
30
0
41
1
10
56.5169922377748
20
2.14359110400815
30
0
41
1
10
56.7116096565329
20
3.40139163972805
30
0
41
1
10
56.808918365912
20
4.03420294572467
30
0
41
1
10
57.00353578467
20
5.28524947547717
30
0
41
1
10
57.1008444940491
20
5.90340235546674
30
0
41
1
10
57.2954619128072
20
7.10057438770562
30
0
41
1
10
57.3927706221862
20
7.67949236988005
30
0
41
1
10
57.5873880409442
20
8.77439568903657
30
0
41
1
10
57.6846967503233
20
9.2902848145404
30
0
41
1
10
57.8793141690814
20
10.2391495459782
30
0
41
1
10
57.9766228784604
20
10.6720589510366
30
0
41
1
10
58.1712402972185
20
11.4413304891243
30
0
41
1
10
58.2685490065975
20
11.7776721608312
30
0
41
1
10
58.4631664253556
20
12.3478692461845
30
0
41
1
10
58.5604751347347
20
12.5817501980777
30
0
41
1
10
58.7550925534927
20
12.9486912553894
30
0
41
1
10
58.8524012628717
20
13.081809475653
30
0
41
1
10
59.0470186816298
20
13.255178247106
30
0
41
1
10
59.1443273910089
20
13.2955
30
0
41
1
10
59.241636100388
20
13.2955
30
0
0
SPLINE
5
E7
100
AcDbEntity
8
1
62
256
6
ByLayer
370
13
48
1
60
0
100
AcDbSpline
70
4
71
3
72
42
73
38
40
0
40
0
40
0
40
0
40
0.0625000000000002
40
0.0625000000000002
40
0.125
40
0.125
40
0.187500000000001
40
0.187500000000001
40
0.250000000000001
40
0.250000000000001
40
0.312500000000001
40
0.312500000000001
40
0.375000000000001
40
0.375000000000001
40
0.437500000000001
40
0.437500000000001
40
0.500000000000001
40
0.500000000000001
40
0.562500000000001
40
0.562500000000001
40
0.593750000000001
40
0.593750000000001
40
0.609375000000001
40
0.609375000000001
40
0.625000000000001
40
0.625000000000001
40
0.687500000000001
40
0.687500000000001
40
0.750000000000001
40
0.750000000000001
40
0.812500000000001
40
0.812500000000001
40
0.875
40
0.875
40
0.9375
40
0.9375
40
1
40
1
40
1
40
1
41
1
10
57.1979962704603
20
13.2955
30
0
41
1
10
57.3013887179573
20
13.2955
30
0
41
1
10
57.4047811654542
20
13.2499580173221
30
0
41
1
10
57.611566060448
20
13.0534261663112
30
0
41
1
10
57.7149585079451
20
12.9023403706307
30
0
41
1
10
57.921743402939
20
12.4857428016405
30
0
41
1
10
58.0251358504359
20
12.2201566183068
30
0
41
1
10
58.2319207454297
20
11.5738145422619
30
0
41
1
10
58.3353131929266
20
11.1930349106179
30
0
41
1
10
58.5420980879205
20
10.3253772074716
30
0
41
1
10
58.6454905354175
20
9.83854319438638
30
0
41
1
10
58.8522754304114
20
8.77740522980451
30
0
41
1
10
58.9556678779084
20
8.20320659827129
30
0
41
1
10
59.1624527729023
20
6.99323344585019
30
0
41
1
10
59.2658452203992
20
6.35759571956362
30
0
41
1
10
59.4726301153931
20
5.05413943616429
30
0
41
1
10
59.57602256289
20
4.38644991618241
30
0
41
1
10
59.7828074578838
20
3.04764689997938
30
0
41
1
10
59.8861999053809
20
2.37662396019857
30
0
41
1
10
60.0412885766264
20
1.38606214518646
30
0
41
1
10
60.0929848003748
20
1.05849702668701
30
0
41
1
10
60.1705291359975
20
0.572977529557249
30
0
41
1
10
60.1963772478717
20
0.412106006491825
30
0
41
1
10
60.2480734716202
20
0.0925779644985028
30
0
41
1
10
60.2739215834945
20
-0.0654305228102317
30
0
41
1
10
60.4031621428657
20
-0.863618614500808
30
0
41
1
10
60.5065545903626
20
-1.52025689713088
30
0
41
1
10
60.7133394853565
20
-2.84960087173417
30
0
41
1
10
60.8167319328534
20
-3.52225437192098
30
0
41
1
10
61.0235168278474
20
-4.85781808810896
30
0
41
1
10
61.1269092753442
20
-5.52062685235435
30
0
41
1
10
61.3336941703381
20
-6.80731036681627
30
0
41
1
10
61.4370866178351
20
-7.4310509106019
30
0
41
1
10
61.643871512829
20
-8.61064659655898
30
0
41
1
10
61.747263960326
20
-9.166368872959
30
0
41
1
10
61.9540488553199
20
-10.1853668717176
30
0
41
1
10
62.0574413028168
20
-10.6485497514129
30
0
41
1
10
62.1608337503138
20
-11.0571892492521
30
0
0
SPLINE
5
E8
100
AcDbEntity
8
1
62
256
6
ByLayer
370
13
48
1
60
0
100
AcDbSpline
70
4
71
3
72
81
73
77
40
0
40
0
40
0
40
0
40
0.0312499999999999
40
0.0312499999999999
40
0.0624999999999999
40
0.0624999999999999
40
0.0937499999999998
40
0.0937499999999998
40
0.125
40
0.125
40
0.15625
40
0.15625
40
0.1875
40
0.1875
40
0.21875
40
0.21875
40
0.25
40
0.25
40
0.28125
40
0.28125
40
0.296875
40
0.296875
40
0.3046875
40
0.3046875
40
0.30859375
40
0.30859375
40
0.312499999999999
40
0.312499999999999
40
0.343749999999999
40
0.343749999999999
40
0.374999999999999
40
0.374999999999999
40
0.406249999999999
40
0.406249999999999
40
0.437499999999999
40
0.437499999999999
40
0.468749999999999
40
0.468749999999999
40
0.499999999999999
40
0.499999999999999
40
0.531249999999999
40
0.531249999999999
40
0.562499999999999
40
0.562499999999999
40
0.593749999999999
40
0.593749999999999
40
0.624999999999999
40
0.624999999999999
40
0.640624999999999
40
0.640624999999999
40
0.648437499999999
40
0.652343749999999
40
0.652343749999999
40
0.656249999999999
40
0.656249999999999
40
0.687499999999999
40
0.687499999999999
40
0.71875
40
0.71875
40
0.75
40
0.75
40
0.78125
40
0.78125
40
0.8125
40
0.8125
40
0.84375
40
0.84375
40
0.875
40
0.875
40
0.90625
40
0.90625
40
0.9375
40
0.9375
40
0.96875
40
0.96875
40
1
40
1
40
1
40
1
41
1
10
49.9
20
-2.14495179526207
30
0
41
1
10
49.9922406568392
20
-2.73765063299768
30
0
41
1
10
50.0844813136783
20
-3.33685672424335
30
0
41
1
10
50.2689626273567
20
-4.5302728176722
30
0
41
1
10
50.3612032841958
20
-5.12442869392234
30
0
41
1
10
50.5456845978742
20
-6.28729583505756
30
0
41
1
10
50.6379252547134
20
-6.85593399951861
30
0
41
1
10
50.8224065683917
20
-7.94687810690843
30
0
41
1
10
50.9146472252308
20
-8.46910592641021
30
0
41
1
10
51.0991285389092
20
-9.44823160605426
30
0
41
1
10
51.1913691957483
20
-9.90506414946967
30
0
41
1
10
51.3758505094267
20
-10.7385130365687
30
0
41
1
10
51.4680911662659
20
-11.1150920679688
30
0
41
1
10
51.6525724799442
20
-11.7788517362241
30
0
41
1
10
51.7448131367833
20
-12.066029804681
30
0
41
1
10
51.9292944504617
20
-12.548123878915
30
0
41
1
10
52.0215351073008
20
-12.7430684503279
30
0
41
1
10
52.2060164209792
20
-13.0437372425491
30
0
41
1
10
52.2982570778183
20
-13.1495099470581
30
0
41
1
10
52.4366180630771
20
-13.2470610017103
30
0
41
1
10
52.4827383914967
20
-13.2694251829755
30
0
41
1
10
52.5519188841261
20
-13.2886933816254
30
0
41
1
10
52.5749790483359
20
-13.2927377798635
30
0
41
1
10
52.6095692946505
20
-13.2953662605675
30
0
41
1
10
52.6210993767554
20
-13.295670374859
30
0
41
1
10
52.6441595409651
20
-13.2951507820487
30
0
41
1
10
52.6556896230702
20
-13.2943240234825
30
0
41
1
10
52.7594603620142
20
-13.2816812413867
30
0
41
1
10
52.8517010188534
20
-13.2333442565361
30
0
41
1
10
53.0361823325317
20
-13.0525135386245
30
0
41
1
10
53.1284229893709
20
-12.9199655554583
30
0
41
1
10
53.3129043030492
20
-12.5642338151972
30
0
41
1
10
53.4051449598884
20
-12.3410062531711
30
0
41
1
10
53.5896262735667
20
-11.8025427968905
30
0
41
1
10
53.6818669304059
20
-11.4872869736115
30
0
41
1
10
53.8663482440842
20
-10.7695077983821
30
0
41
1
10
53.9585889009234
20
-10.3669977751168
30
0
41
1
10
54.1430702146017
20
-9.48569301623016
30
0
41
1
10
54.2353108714409
20
-9.00694539357161
30
0
41
1
10
54.4197921851192
20
-7.98947543942342
30
0
41
1
10
54.5120328419584
20
-7.45082423822657
30
0
41
1
10
54.6965141556367
20
-6.33336358625294
30
0
41
1
10
54.7887548124759
20
-5.75463254725108
30
0
41
1
10
54.9732361261542
20
-4.57802323066605
30
0
41
1
10
55.0654767829934
20
-3.98021338774655
30
0
41
1
10
55.2499580966717
20
-2.785385103641
30
0
41
1
10
55.3421987535108
20
-2.18841331128118
30
0
41
1
10
55.4805597387696
20
-1.30637508351612
30
0
41
1
10
55.5266800671892
20
-1.01457246124087
30
0
41
1
10
55.5958605598186
20
-0.581516115557548
30
0
41
1
10
55.6304508061333
20
-0.366146924327268
30
0
41
1
10
55.6650410524479
20
-0.152739182355447
30
0
41
1
10
55.6881012166578
20
-0.0109261208738474
30
0
41
1
10
55.6996312987626
20
0.0597062737957117
30
0
41
1
10
55.8034020377067
20
0.698807956440703
30
0
41
1
10
55.8956426945459
20
1.2815822257044
30
0
41
1
10
56.0801240082242
20
2.46267939614739
30
0
41
1
10
56.1723646650634
20
3.06097731140207
30
0
41
1
10
56.3568459787417
20
4.25554913538153
30
0
41
1
10
56.4490866355808
20
4.85177259868723
30
0
41
1
10
56.6335679492592
20
6.02200162823328
30
0
41
1
10
56.7258086060984
20
6.59593627111818
30
0
41
1
10
56.9102899197767
20
7.70062070170104
30
0
41
1
10
57.0025305766158
20
8.23129200715411
30
0
41
1
10
57.1870118902942
20
9.2300079853095
30
0
41
1
10
57.2792525471334
20
9.69798423854189
30
0
41
1
10
57.4637338608117
20
10.5556672831033
30
0
41
1
10
57.5559745176509
20
10.9453317612502
30
0
41
1
10
57.7404558313292
20
11.6362657023457
30
0
41
1
10
57.8326964881684
20
11.9375272438047
30
0
41
1
10
58.0171778018467
20
12.4478231507808
30
0
41
1
10
58.1094184586859
20
12.6568818913397
30
0
41
1
10
58.2938997723642
20
12.9849689092026
30
0
41
1
10
58.3861404292034
20
13.1040434961106
30
0
41
1
10
58.5706217428817
20
13.2592817018341
30
0
41
1
10
58.6628623997208
20
13.2955
30
0
41
1
10
58.75510305656
20
13.2955
30
0
0
SPLINE
5
E9
100
AcDbEntity
8
1
62
256
6
ByLayer
370
13
48
1
60
0
100
AcDbSpline
70
4
71
3
72
58
73
54
40
0
40
0
40
0
40
0
40
0.0624999999999999
40
0.0624999999999999
40
0.125
40
0.125
40
0.15625
40
0.15625
40
0.1875
40
0.1875
40
0.21875
40
0.21875
40
0.25
40
0.25
40
0.28125
40
0.28125
40
0.3125
40
0.3125
40
0.34375
40
0.34375
40
0.375
40
0.375
40
0.40625
40
0.40625
40
0.4375
40
0.4375
40
0.499999999999999
40
0.499999999999999
40
0.562499999999999
40
0.562499999999999
40
0.624999999999999
40
0.624999999999999
40
0.687499999999999
40
0.687499999999999
40
0.718749999999999
40
0.718749999999999
40
0.749999999999999
40
0.749999999999999
40
0.78125
40
0.78125
40
0.8125
40
0.8125
40
0.84375
40
0.84375
40
0.875
40
0.875
40
0.90625
40
0.90625
40
0.9375
40
0.9375
40
0.96875
40
0.96875
40
1
40
1
40
1
40
1
41
1
10
56.7114632266324
20
13.2955
30
0
41
1
10
56.824991779209
20
13.2955
30
0
41
1
10
56.9385203317858
20
13.240544304556
30
0
41
1
10
57.1655774369392
20
13.0019978136872
30
0
41
1
10
57.2791059895159
20
12.8182556087542
30
0
41
1
10
57.4493988183809
20
12.4382775520324
30
0
41
1
10
57.5061630946692
20
12.2943056387119
30
0
41
1
10
57.6196916472459
20
11.9715887804528
30
0
41
1
10
57.6764559235343
20
11.7928418507053
30
0
41
1
10
57.789984476111
20
11.4012912917081
30
0
41
1
10
57.8467487523993
20
11.188487409841
30
0
41
1
10
57.960277304976
20
10.730445043188
30
0
41
1
10
58.0170415812643
20
10.485208217064
30
0
41
1
10
58.130570133841
20
9.96480724180532
30
0
41
1
10
58.1873344101294
20
9.68964662882325
30
0
41
1
10
58.300862962706
20
9.11271226866975
30
0
41
1
10
58.3576272389945
20
8.81094367729409
30
0
41
1
10
58.4711557915712
20
8.1847828608079
30
0
41
1
10
58.5279200678595
20
7.86039695956089
30
0
41
1
10
58.6414486204362
20
7.19349221479322
30
0
41
1
10
58.6982128967246
20
6.85098028476273
30
0
41
1
10
58.8117414493013
20
6.15261446148875
30
0
41
1
10
58.8685057255896
20
5.79676745459184
30
0
41
1
10
58.9820342781663
20
5.07661334306604
30
0
41
1
10
59.0387985544547
20
4.71231253260103
30
0
41
1
10
59.2090913833197
20
3.61387933904564
30
0
41
1
10
59.3226199358963
20
2.87444346737854
30
0
41
1
10
59.5496770410497
20
1.4154719405735
30
0
41
1
10
59.6632055936265
20
0.696034652902711
30
0
41
1
10
59.8902626987798
20
-0.696801214604363
30
0
41
1
10
60.0037912513566
20
-1.41626782646486
30
0
41
1
10
60.2308483565099
20
-2.87525351917046
30
0
41
1
10
60.3443769090866
20
-3.61469082689672
30
0
41
1
10
60.5146697379516
20
-4.71311585966095
30
0
41
1
10
60.57143401424
20
-5.07741224096529
30
0
41
1
10
60.6849625668166
20
-5.79755392969639
30
0
41
1
10
60.7417268431051
20
-6.15339294234448
30
0
41
1
10
60.8552553956818
20
-6.85173920312167
30
0
41
1
10
60.91201967197
20
-7.19423956466579
30
0
41
1
10
61.0255482245468
20
-7.86111774105123
30
0
41
1
10
61.0823125008352
20
-8.18548864260794
30
0
41
1
10
61.1958410534119
20
-8.81161632371467
30
0
41
1
10
61.2526053297002
20
-9.11336678005665
30
0
41
1
10
61.3661338822769
20
-9.69026216941839
30
0
41
1
10
61.4228981585652
20
-9.96540194768562
30
0
41
1
10
61.5364267111418
20
-10.4857591021393
30
0
41
1
10
61.5931909874302
20
-10.7309729434829
30
0
41
1
10
61.7067195400069
20
-11.1889678168051
30
0
41
1
10
61.7634838162953
20
-11.4017471915394
30
0
41
1
10
61.877012368872
20
-11.7932478768079
30
0
41
1
10
61.9337766451603
20
-11.97196944132
30
0
41
1
10
62.047305197737
20
-12.2946353683382
30
0
41
1
10
62.1040694740253
20
-12.4385817168139
30
0
41
1
10
62.1608337503137
20
-12.5652157111913
30
0
0
SPLINE
5
EA
100
AcDbEntity
8
1
62
256
6
ByLayer
370
13
48
1
60
0
100
AcDbSpline
70
4
71
3
72
80
73
76
40
0
40
0
40
0
40
0
40
0.0312500000000004
40
0.0312500000000004
40
0.0625000000000007
40
0.0625000000000007
40
0.0937500000000011
40
0.0937500000000011
40
0.125000000000002
40
0.125000000000002
40
0.156250000000002
40
0.156250000000002
40
0.187500000000002
40
0.187500000000002
40
0.218750000000003
40
0.218750000000003
40
0.250000000000003
40
0.250000000000003
40
0.265625000000003
40
0.265625000000003
40
0.269531250000004
40
0.269531250000004
40
0.273437500000004
40
0.281250000000004
40
0.281250000000004
40
0.312500000000004
40
0.312500000000004
40
0.343750000000004
40
0.343750000000004
40
0.375000000000004
40
0.375000000000004
40
0.406250000000004
40
0.406250000000004
40
0.437500000000005
40
0.437500000000005
40
0.468750000000005
40
0.468750000000005
40
0.500000000000005
40
0.500000000000005
40
0.531250000000005
40
0.531250000000005
40
0.562500000000006
40
0.562500000000006
40
0.593750000000006
40
0.593750000000006
40
0.625000000000006
40
0.625000000000006
40
0.632812500000006
40
0.632812500000006
40
0.636718750000006
40
0.636718750000006
40
0.640625000000006
40
0.656250000000006
40
0.656250000000006
40
0.687500000000005
40
0.687500000000005
40
0.718750000000005
40
0.718750000000005
40
0.750000000000004
40
0.750000000000004
40
0.781250000000004
40
0.781250000000004
40
0.812500000000003
40
0.812500000000003
40
0.843750000000003
40
0.843750000000003
40
0.875000000000002
40
0.875000000000002
40
0.906250000000002
40
0.906250000000002
40
0.937500000000001
40
0.937500000000001
40
0.968750000000001
40
0.968750000000001
40
1
40
1
40
1
40
1
41
1
10
49.9
20
-5.28199991381376
30
0
41
1
10
49.9871726042993
20
-5.83675049135906
30
0
41
1
10
50.0743452085986
20
-6.3823408398429
30
0
41
1
10
50.2486904171972
20
-7.43759558462094
30
0
41
1
10
50.3358630214964
20
-7.94720078716441
30
0
41
1
10
50.5102082300951
20
-8.91372226963298
30
0
41
1
10
50.5973808343944
20
-9.37058432826817
30
0
41
1
10
50.771726042993
20
-10.2175524812064
30
0
41
1
10
50.8588986472923
20
-10.6076207744866
30
0
41
1
10
51.0332438558908
20
-11.3110527834222
30
0
41
1
10
51.1204164601901
20
-11.6244023471064
30
0
41
1
10
51.2947616687887
20
-12.1693684815473
30
0
41
1
10
51.381934273088
20
-12.4009952712592
30
0
41
1
10
51.5562794816865
20
-12.7824629767309
30
0
41
1
10
51.6434520859858
20
-12.9323331482611
30
0
41
1
10
51.8177972945844
20
-13.1545927131087
30
0
41
1
10
51.9049698988837
20
-13.2270216584744
30
0
41
1
10
52.0357288053327
20
-13.2832510248476
30
0
41
1
10
52.0793151074823
20
-13.2932802566518
30
0
41
1
10
52.1337979851694
20
-13.2956422741541
30
0
41
1
10
52.1446945607068
20
-13.2956087184346
30
0
41
1
10
52.1664877117816
20
-13.2945278073229
30
0
41
1
10
52.1991774383938
20
-13.2913792643025
30
0
41
1
10
52.2318671650061
20
-13.2835650529514
30
0
41
1
10
52.3408329203803
20
-13.2467908354309
30
0
41
1
10
52.4280055246795
20
-13.1829503894351
30
0
41
1
10
52.6023507332781
20
-12.9786087119102
30
0
41
1
10
52.6895233375774
20
-12.8380673329425
30
0
41
1
10
52.8638685461759
20
-12.4755556638854
30
0
41
1
10
52.9510411504753
20
-12.2535544356951
30
0
41
1
10
53.1253863590738
20
-11.7275885223232
30
0
41
1
10
53.2125589633731
20
-11.4236110280609
30
0
41
1
10
53.3869041719717
20
-10.7380811661985
30
0
41
1
10
53.474076776271
20
-10.3565400142583
30
0
41
1
10
53.6484219848697
20
-9.5252367366148
30
0
41
1
10
53.7355945891689
20
-9.0755099120091
30
0
41
1
10
53.9099397977674
20
-8.12145040238511
30
0
41
1
10
53.9971124020668
20
-7.61717056506967
30
0
41
1
10
54.1714576106654
20
-6.57052781627334
30
0
41
1
10
54.2586302149647
20
-6.02822415441108
30
0
41
1
10
54.4329754235633
20
-4.92323672467828
30
0
41
1
10
54.5201480278626
20
-4.36060672546708
30
0
41
1
10
54.6944932364611
20
-3.23210962308656
30
0
41
1
10
54.7816658407604
20
-2.6662819736529
30
0
41
1
10
54.9560110493589
20
-1.5465441421749
30
0
41
1
10
55.0431836536584
20
-0.992655322397724
30
0
41
1
10
55.1521494090325
20
-0.315395314569429
30
0
41
1
10
55.1739425601073
20
-0.180690601725729
30
0
41
1
10
55.2066322867195
20
0.020126209528172
30
0
41
1
10
55.2175288622568
20
0.0869546902738421
30
0
41
1
10
55.2393220133316
20
0.221267875990605
30
0
41
1
10
55.2938048910187
20
0.558056162620034
30
0
41
1
10
55.3482877687059
20
0.899643999398165
30
0
41
1
10
55.4790466751548
20
1.72656728569911
30
0
41
1
10
55.5662192794541
20
2.28742380871566
30
0
41
1
10
55.7405644880527
20
3.41473689859714
30
0
41
1
10
55.827737092352
20
3.98116398479121
30
0
41
1
10
56.0020823009505
20
5.10347324482655
30
0
41
1
10
56.0892549052498
20
5.65930885837017
30
0
41
1
10
56.2636001138484
20
6.74286593346423
30
0
41
1
10
56.3507727181477
20
7.27052986358541
30
0
41
1
10
56.5251179267462
20
8.28034040080954
30
0
41
1
10
56.6122905310456
20
8.7624290658886
30
0
41
1
10
56.7866357396442
20
9.66562841483457
30
0
41
1
10
56.8738083439435
20
10.0866928235168
30
0
41
1
10
57.048153552542
20
10.8559352244192
30
0
41
1
10
57.1353261568413
20
11.2040881231211
30
0
41
1
10
57.3096713654399
20
11.8202544053308
30
0
41
1
10
57.3968439697392
20
12.0882675851959
30
0
41
1
10
57.5711891783379
20
12.5419440934536
30
0
41
1
10
57.6583617826371
20
12.7276292222472
30
0
41
1
10
57.8327069912357
20
13.0191411420177
30
0
41
1
10
57.919879595535
20
13.1250040948031
30
0
41
1
10
58.0942248041336
20
13.2631628593413
30
0
41
1
10
58.1813974084329
20
13.2955
30
0
41
1
10
58.2685700127321
20
13.2955
30
0
0
SPLINE
5
EB
100
AcDbEntity
8
1
62
256
6
ByLayer
370
13
48
1
60
0
100
AcDbSpline
70
4
71
3
72
74
73
70
40
0
40
0
40
0
40
0
40
0.0312500000000001
40
0.0312500000000001
40
0.0625000000000002
40
0.0625000000000002
40
0.0937500000000003
40
0.0937500000000003
40
0.125
40
0.125
40
0.156250000000001
40
0.156250000000001
40
0.187500000000001
40
0.187500000000001
40
0.218750000000001
40
0.218750000000001
40
0.250000000000001
40
0.250000000000001
40
0.281250000000001
40
0.281250000000001
40
0.312500000000001
40
0.312500000000001
40
0.343750000000001
40
0.343750000000001
40
0.375000000000001
40
0.375000000000001
40
0.406250000000001
40
0.406250000000001
40
0.437500000000001
40
0.437500000000001
40
0.468750000000001
40
0.468750000000001
40
0.500000000000001
40
0.500000000000001
40
0.515625000000001
40
0.515625000000001
40
0.523437500000002
40
0.523437500000002
40
0.531250000000002
40
0.531250000000002
40
0.562500000000001
40
0.562500000000001
40
0.593750000000001
40
0.593750000000001
40
0.625000000000001
40
0.625000000000001
40
0.656250000000001
40
0.656250000000001
40
0.687500000000001
40
0.687500000000001
40
0.718750000000001
40
0.718750000000001
40
0.750000000000001
40
0.750000000000001
40
0.781250000000001
40
0.781250000000001
40
0.8125
40
0.8125
40
0.84375
40
0.84375
40
0.875
40
0.875
40
0.90625
40
0.90625
40
0.9375
40
0.9375
40
0.96875
40
0.96875
40
1
40
1
40
1
40
1
41
1
10
56.2249301828045
20
13.2955
30
0
41
1
10
56.2867625116327
20
13.2955
30
0
41
1
10
56.3485948404609
20
13.2792513094436
30
0
41
1
10
56.4722594981174
20
13.2110094340103
30
0
41
1
10
56.5340918269456
20
13.159008812867
30
0
41
1
10
56.657756484602
20
13.016565742348
30
0
41
1
10
56.7195888134302
20
12.9261160282242
30
0
41
1
10
56.8432534710867
20
12.7048643679117
30
0
41
1
10
56.905085799915
20
12.5740561263878
30
0
41
1
10
57.0287504575713
20
12.2711705669564
30
0
41
1
10
57.0905827863995
20
12.0990887709123
30
0
41
1
10
57.214247444056
20
11.7138977169707
30
0
41
1
10
57.2760797728842
20
11.5007865525592
30
0
41
1
10
57.3997444305406
20
11.0350353823825
30
0
41
1
10
57.4615767593689
20
10.782396545865
30
0
41
1
10
57.5852414170253
20
10.240358368112
30
0
41
1
10
57.6470737458535
20
9.95096339584561
30
0
41
1
10
57.7707384035099
20
9.33936799330155
30
0
41
1
10
57.8325707323382
20
9.01717481368865
30
0
41
1
10
57.9562353899946
20
8.34494878456101
30
0
41
1
10
58.0180677188228
20
7.99492533915745
30
0
41
1
10
58.1417323764793
20
7.27276229013606
30
0
41
1
10
58.2035647053075
20
6.90063322880167
30
0
41
1
10
58.327229362964
20
6.14043682686309
30
0
41
1
10
58.3890616917922
20
5.75238004790282
30
0
41
1
10
58.5127263494486
20
4.96663952401846
30
0
41
1
10
58.5745586782768
20
4.56896533224466
30
0
41
1
10
58.6982233359333
20
3.77012916385075
30
0
41
1
10
58.7600556647615
20
3.36897495127155
30
0
41
1
10
58.8837203224179
20
2.56888327027141
30
0
41
1
10
58.9455526512462
20
2.1699513290792
30
0
41
1
10
59.0692173089027
20
1.37937327862687
30
0
41
1
10
59.1310496377309
20
0.987730352584663
30
0
41
1
10
59.2237981309732
20
0.408957491564848
30
0
41
1
10
59.2547142953873
20
0.217475525562946
30
0
41
1
10
59.3010885420085
20
-0.0672388280327709
30
0
41
1
10
59.3165466242156
20
-0.162263596947156
30
0
41
1
10
59.3474627886296
20
-0.353382877067418
30
0
41
1
10
59.3629208708368
20
-0.449337824631016
30
0
41
1
10
59.440211281872
20
-0.930942814272782
30
0
41
1
10
59.5020436107002
20
-1.32211529427636
30
0
41
1
10
59.6257082683567
20
-2.11197985640354
30
0
41
1
10
59.6875405971849
20
-2.51066886667184
30
0
41
1
10
59.8112052548413
20
-3.31053687771154
30
0
41
1
10
59.8730375836695
20
-3.71171046531291
30
0
41
1
10
59.996702241326
20
-4.5108743951655
30
0
41
1
10
60.0585345701542
20
-4.90885707458961
30
0
41
1
10
60.1821992278107
20
-5.69551914346451
30
0
41
1
10
60.2440315566389
20
-6.08418905115968
30
0
41
1
10
60.3676962142953
20
-6.84591792211339
30
0
41
1
10
60.4295285431235
20
-7.21896635045965
30
0
41
1
10
60.55319320078
20
-7.94326054472205
30
0
41
1
10
60.6150255296081
20
-8.29449574153895
30
0
41
1
10
60.7386901872646
20
-8.96940841634452
30
0
41
1
10
60.8005225160929
20
-9.29307640980409
30
0
41
1
10
60.9241871737493
20
-9.90784146423107
30
0
41
1
10
60.9860195025775
20
-10.1989311500876
30
0
41
1
10
61.1096841602339
20
-10.7445249294981
30
0
41
1
10
61.1715164890622
20
-10.9990245030603
30
0
41
1
10
61.2951811467186
20
-11.4686029471681
30
0
41
1
10
61.3570134755469
20
-11.6836804923381
30
0
41
1
10
61.4806781332033
20
-12.0728479006984
30
0
41
1
10
61.5425104620315
20
-12.2469395299175
30
0
41
1
10
61.6661751196879
20
-12.5538288366053
30
0
41
1
10
61.7280074485162
20
-12.6866308832446
30
0
41
1
10
61.8516721061726
20
-12.9118012152403
30
0
41
1
10
61.9135044350009
20
-13.0041757270674
30
0
41
1
10
62.0371690926573
20
-13.150355621118
30
0
41
1
10
62.0990014214855
20
-13.2041682403045
30
0
41
1
10
62.1608337503137
20
-13.2400281899709
30
0
0
SPLINE
5
EC
100
AcDbEntity
8
1
62
256
6
ByLayer
370
13
48
1
60
0
100
AcDbSpline
70
4
71
3
72
79
73
75
40
0
40
0
40
0
40
0
40
0.0312499999999993
40
0.0312499999999993
40
0.0624999999999986
40
0.0624999999999986
40
0.093749999999998
40
0.093749999999998
40
0.124999999999997
40
0.124999999999997
40
0.156249999999997
40
0.156249999999997
40
0.187499999999996
40
0.187499999999996
40
0.218749999999995
40
0.218749999999995
40
0.226562499999995
40
0.226562499999995
40
0.234374999999995
40
0.234374999999995
40
0.249999999999994
40
0.249999999999994
40
0.281249999999994
40
0.281249999999994
40
0.312499999999993
40
0.312499999999993
40
0.343749999999993
40
0.343749999999993
40
0.374999999999992
40
0.374999999999992
40
0.406249999999992
40
0.406249999999992
40
0.437499999999991
40
0.437499999999991
40
0.468749999999991
40
0.468749999999991
40
0.49999999999999
40
0.49999999999999
40
0.531249999999989
40
0.531249999999989
40
0.562499999999989
40
0.562499999999989
40
0.593749999999988
40
0.593749999999988
40
0.609374999999988
40
0.609374999999988
40
0.613281249999988
40
0.613281249999988
40
0.617187499999988
40
0.624999999999988
40
0.624999999999988
40
0.656249999999989
40
0.656249999999989
40
0.68749999999999
40
0.68749999999999
40
0.718749999999991
40
0.718749999999991
40
0.749999999999992
40
0.749999999999992
40
0.781249999999993
40
0.781249999999993
40
0.812499999999994
40
0.812499999999994
40
0.843749999999995
40
0.843749999999995
40
0.874999999999996
40
0.874999999999996
40
0.906249999999997
40
0.906249999999997
40
0.937499999999998
40
0.937499999999998
40
0.968749999999999
40
0.968749999999999
40
1
40
1
40
1
40
1
41
1
10
49.9
20
-8.22658776365199
30
0
41
1
10
49.9821045517594
20
-8.68851342576164
30
0
41
1
10
50.0642091035188
20
-9.12801647015058
30
0
41
1
10
50.2284182070377
20
-9.95003949776512
30
0
41
1
10
50.3105227587971
20
-10.3325284624361
30
0
41
1
10
50.4747318623159
20
-11.031356886085
30
0
41
1
10
50.5568364140753
20
-11.3476811071287
30
0
41
1
10
50.7210455175942
20
-11.9087796346544
30
0
41
1
10
50.8031500693536
20
-12.1535561010723
30
0
41
1
10
50.9673591728724
20
-12.5701231460983
30
0
41
1
10
51.0494637246319
20
-12.7419308666649
30
0
41
1
10
51.2136728281508
20
-13.0147865391198
30
0
41
1
10
51.2957773799101
20
-13.1158614138921
30
0
41
1
10
51.459986483429
20
-13.2524566504098
30
0
41
1
10
51.5420910351884
20
-13.2880076419462
30
0
41
1
10
51.6447217248876
20
-13.2960357736793
30
0
41
1
10
51.6652478628274
20
-13.2958419837958
30
0
41
1
10
51.7063001387071
20
-13.2918351901388
30
0
41
1
10
51.7268262766471
20
-13.2880082662239
30
0
41
1
10
51.7884046904666
20
-13.2708748692179
30
0
41
1
10
51.8294569663464
20
-13.2519124626073
30
0
41
1
10
51.9526137939854
20
-13.1710531717817
30
0
41
1
10
52.0347183457449
20
-13.08510815802
30
0
41
1
10
52.1989274492638
20
-12.8434455583298
30
0
41
1
10
52.2810320010232
20
-12.6876997051809
30
0
41
1
10
52.445241104542
20
-12.3034598073108
30
0
41
1
10
52.5273456563015
20
-12.0749459306108
30
0
41
1
10
52.6915547598202
20
-11.5457204207831
30
0
41
1
10
52.7736593115796
20
-11.245002957022
30
0
41
1
10
52.9378684150985
20
-10.5758519536299
30
0
41
1
10
53.0199729668579
20
-10.2074297666046
30
0
41
1
10
53.1841820703768
20
-9.41120854192727
30
0
41
1
10
53.2662866221362
20
-8.98343736430826
30
0
41
1
10
53.430495725655
20
-8.0801199581195
30
0
41
1
10
53.5126002774144
20
-7.60461336661552
30
0
41
1
10
53.6768093809333
20
-6.61965511753848
30
0
41
1
10
53.7589139326927
20
-6.11024742214019
30
0
41
1
10
53.9231230362115
20
-5.07226057291774
30
0
41
1
10
54.0052275879709
20
-4.5437218442124
30
0
41
1
10
54.1694366914897
20
-3.48189454841673
30
0
41
1
10
54.2515412432492
20
-2.94863683908534
30
0
41
1
10
54.4157503467681
20
-1.89035104712542
30
0
41
1
10
54.4978548985274
20
-1.36534132646187
30
0
41
1
10
54.6210117261666
20
-0.592092002842918
30
0
41
1
10
54.6620640020463
20
-0.33670103408835
30
0
41
1
10
54.713379346896
20
-0.0211041796919744
30
0
41
1
10
54.7236424158659
20
0.0417644636559373
30
0
41
1
10
54.7441685538057
20
0.168082426939151
30
0
41
1
10
54.7749577607155
20
0.358101669295365
30
0
41
1
10
54.8057469676253
20
0.54967485770743
30
0
41
1
10
54.9083776573245
20
1.19135747078198
30
0
41
1
10
54.990482209084
20
1.71473705474227
30
0
41
1
10
55.1546913126028
20
2.77107936717763
30
0
41
1
10
55.2367958643623
20
3.30402516400696
30
0
41
1
10
55.401004967881
20
4.3667594697416
30
0
41
1
10
55.4831095196405
20
4.89651842859615
30
0
41
1
10
55.6473186231594
20
5.93858964656479
30
0
41
1
10
55.7294231749187
20
6.45086229798005
30
0
41
1
10
55.8936322784376
20
7.44317315831182
30
0
41
1
10
55.9757368301971
20
7.92316742642407
30
0
41
1
10
56.1399459337159
20
8.83691375993456
30
0
41
1
10
56.2220504854753
20
9.27062530879869
30
0
41
1
10
56.3862595889941
20
10.0798765261037
30
0
41
1
10
56.4683641407536
20
10.4553867226815
30
0
41
1
10
56.6325732442724
20
11.1394617614939
30
0
41
1
10
56.7146777960318
20
11.44801330138
30
0
41
1
10
56.8788868995506
20
11.9932119479958
30
0
41
1
10
56.96099145131
20
12.22986306817
30
0
41
1
10
57.1252005548289
20
12.6302559227987
30
0
41
1
10
57.2073051065883
20
12.7940161787155
30
0
41
1
10
57.3715142101071
20
13.0512242652881
30
0
41
1
10
57.4536187618666
20
13.1446997293958
30
0
41
1
10
57.6178278653854
20
13.2668222515267
30
0
41
1
10
57.6999324171448
20
13.2955
30
0
41
1
10
57.7820369689042
20
13.2955
30
0
0
SPLINE
5
ED
100
AcDbEntity
8
1
62
256
6
ByLayer
370
13
48
1
60
0
100
AcDbSpline
70
4
71
3
72
78
73
74
40
0
40
0
40
0
40
0
40
0.0312499999999998
40
0.0312499999999998
40
0.0624999999999997
40
0.0624999999999997
40
0.0937499999999995
40
0.0937499999999995
40
0.124999999999999
40
0.124999999999999
40
0.156249999999999
40
0.156249999999999
40
0.187499999999999
40
0.187499999999999
40
0.218749999999999
40
0.218749999999999
40
0.249999999999999
40
0.249999999999999
40
0.281249999999999
40
0.281249999999999
40
0.312499999999998
40
0.312499999999998
40
0.343749999999998
40
0.343749999999998
40
0.374999999999998
40
0.374999999999998
40
0.406249999999998
40
0.406249999999998
40
0.437499999999998
40
0.437499999999998
40
0.468749999999998
40
0.468749999999998
40
0.476562499999998
40
0.476562499999998
40
0.484374999999997
40
0.484374999999997
40
0.499999999999997
40
0.499999999999997
40
0.531249999999998
40
0.531249999999998
40
0.562499999999998
40
0.562499999999998
40
0.593749999999998
40
0.593749999999998
40
0.624999999999998
40
0.624999999999998
40
0.656249999999998
40
0.656249999999998
40
0.687499999999998
40
0.687499999999998
40
0.718749999999999
40
0.718749999999999
40
0.749999999999999
40
0.749999999999999
40
0.781249999999999
40
0.781249999999999
40
0.812499999999999
40
0.812499999999999
40
0.843749999999999
40
0.843749999999999
40
0.875
40
0.875
40
0.90625
40
0.90625
40
0.9375
40
0.9375
40
0.953125
40
0.953125
40
0.9609375
40
0.9609375
40
0.96875
40
0.96875
40
1
40
1
40
1
40
1
41
1
10
55.7383971389766
20
13.2955
30
0
41
1
10
55.8052975203446
20
13.2955
30
0
41
1
10
55.8721979017128
20
13.2764745135939
30
0
41
1
10
56.005998664449
20
13.1962847488399
30
0
41
1
10
56.0728990458171
20
13.1351094335173
30
0
41
1
10
56.2066998085532
20
12.9673090232105
30
0
41
1
10
56.2736001899213
20
12.8606733167778
30
0
41
1
10
56.4074009526574
20
12.5997681434869
30
0
41
1
10
56.4743013340256
20
12.4454898999573
30
0
41
1
10
56.6081020967618
20
12.0885391751803
30
0
41
1
10
56.6750024781299
20
11.8858612028323
30
0
41
1
10
56.8088032408661
20
11.4329936281389
30
0
41
1
10
56.8757036222341
20
11.1828030105386
30
0
41
1
10
57.0095043849703
20
10.6375376631612
30
0
41
1
10
57.0764047663385
20
10.3424670163367
30
0
41
1
10
57.2102055290746
20
9.71176976396177
30
0
41
1
10
57.2771059104427
20
9.37615218057965
30
0
41
1
10
57.4109066731789
20
8.67019183040674
30
0
41
1
10
57.477807054547
20
8.29986205021967
30
0
41
1
10
57.6116078172832
20
7.53147602569729
30
0
41
1
10
57.6785081986513
20
7.13343511604953
30
0
41
1
10
57.8123089613875
20
6.31736189203306
30
0
41
1
10
57.8792093427556
20
5.89934533987307
30
0
41
1
10
58.0130101054918
20
5.05131818046257
30
0
41
1
10
58.0799104868599
20
4.62132193397429
30
0
41
1
10
58.213711249596
20
3.75713630880063
30
0
41
1
10
58.2806116309642
20
3.32295848706346
30
0
41
1
10
58.4144123937004
20
2.45762048944783
30
0
41
1
10
58.4813127750685
20
2.02646827993272
30
0
41
1
10
58.6151135378047
20
1.17350683329872
30
0
41
1
10
58.6820139191728
20
0.751701819818322
30
0
41
1
10
58.7656393958829
20
0.233570527251175
30
0
41
1
10
58.7823644912249
20
0.130397780230055
30
0
41
1
10
58.815814681909
20
-0.0749697299894194
30
0
41
1
10
58.832539777251
20
-0.177818359442597
30
0
41
1
10
58.882715063277
20
-0.488203975849189
30
0
41
1
10
58.9161652539611
20
-0.696970187762588
30
0
41
1
10
59.0165158260132
20
-1.32787417714971
30
0
41
1
10
59.0834162073813
20
-1.75465064484339
30
0
41
1
10
59.2172169701175
20
-2.61480446551275
30
0
41
1
10
59.2841173514856
20
-3.04817590999716
30
0
41
1
10
59.4179181142218
20
-3.91476944009324
30
0
41
1
10
59.4848184955899
20
-4.3479818700518
30
0
41
1
10
59.6186192583261
20
-5.20674162511312
30
0
41
1
10
59.6855196396942
20
-5.6322759806346
30
0
41
1
10
59.8193204024304
20
-6.46774004551224
30
0
41
1
10
59.8862207837985
20
-6.87765455059309
30
0
41
1
10
60.0200215465347
20
-7.67394302257725
30
0
41
1
10
60.0869219279028
20
-8.0603011805035
30
0
41
1
10
60.220722690639
20
-8.80201671714033
30
0
41
1
10
60.2876230720071
20
-9.15735960057899
30
0
41
1
10
60.4214238347432
20
-9.83052215984603
30
0
41
1
10
60.4883242161113
20
-10.1483304846761
30
0
41
1
10
60.6221249788475
20
-10.7412338678212
30
0
41
1
10
60.6890253602156
20
-11.0163220777918
30
0
41
1
10
60.8228261229518
20
-11.5202052169189
30
0
41
1
10
60.8897265043199
20
-11.7489984132237
30
0
41
1
10
61.0235272670561
20
-12.1584518745407
30
0
41
1
10
61.0904276484242
20
-12.3391153091461
30
0
41
1
10
61.2242284111604
20
-12.652186818095
30
0
41
1
10
61.2911287925285
20
-12.7846020492457
30
0
41
1
10
61.4249295552647
20
-13.0026129212168
30
0
41
1
10
61.4918299366328
20
-13.0882183572773
30
0
41
1
10
61.625630699369
20
-13.215343803778
30
0
41
1
10
61.6925310807371
20
-13.256874782092
30
0
41
1
10
61.7928816527893
20
-13.2888937465995
30
0
41
1
10
61.8263318434733
20
-13.2945270930348
30
0
41
1
10
61.8765071294994
20
-13.2958129972517
30
0
41
1
10
61.8932322248414
20
-13.2950561610606
30
0
41
1
10
61.9266824155254
20
-13.2911155294759
30
0
41
1
10
61.9434075108675
20
-13.2879299084309
30
0
41
1
10
62.0270329875776
20
-13.2657612738031
30
0
41
1
10
62.0939333689456
20
-13.2280269276918
30
0
41
1
10
62.1608337503138
20
-13.1684104593574
30
0
0
SPLINE
5
EE
100
AcDbEntity
8
1
62
256
6
ByLayer
370
13
48
1
60
0
100
AcDbSpline
70
4
71
3
72
78
73
74
40
0
40
0
40
0
40
0
40
0.03125
40
0.03125
40
0.0625000000000001
40
0.0625000000000001
40
0.0937500000000001
40
0.0937500000000001
40
0.125
40
0.125
40
0.15625
40
0.15625
40
0.1640625
40
0.1640625
40
0.171875
40
0.171875
40
0.1875
40
0.1875
40
0.21875
40
0.21875
40
0.249999999999999
40
0.249999999999999
40
0.281249999999999
40
0.281249999999999
40
0.312499999999999
40
0.312499999999999
40
0.343749999999999
40
0.343749999999999
40
0.374999999999998
40
0.374999999999998
40
0.406249999999998
40
0.406249999999998
40
0.437499999999998
40
0.437499999999998
40
0.468749999999998
40
0.468749999999998
40
0.499999999999997
40
0.499999999999997
40
0.531249999999997
40
0.531249999999997
40
0.562499999999997
40
0.562499999999997
40
0.578124999999997
40
0.578124999999997
40
0.585937499999997
40
0.585937499999997
40
0.593749999999997
40
0.593749999999997
40
0.624999999999997
40
0.624999999999997
40
0.656249999999997
40
0.656249999999997
40
0.687499999999997
40
0.687499999999997
40
0.718749999999998
40
0.718749999999998
40
0.749999999999998
40
0.749999999999998
40
0.781249999999998
40
0.781249999999998
40
0.812499999999998
40
0.812499999999998
40
0.843749999999999
40
0.843749999999999
40
0.874999999999999
40
0.874999999999999
40
0.906249999999999
40
0.906249999999999
40
0.937499999999999
40
0.937499999999999
40
0.96875
40
0.96875
40
1
40
1
40
1
40
1
41
1
10
49.9
20
-10.65594674916
30
0
41
1
10
49.9770364992196
20
-10.9853194281174
30
0
41
1
10
50.0540729984391
20
-11.2856586798561
30
0
41
1
10
50.2081459968782
20
-11.823654373595
30
0
41
1
10
50.2851824960977
20
-12.0613113327759
30
0
41
1
10
50.4392554945368
20
-12.4723790364726
30
0
41
1
10
50.5162919937564
20
-12.6458008575165
30
0
41
1
10
50.6703649921955
20
-12.9297289094328
30
0
41
1
10
50.747401491415
20
-13.0402536173033
30
0
41
1
10
50.9014744898541
20
-13.2021552681123
30
0
41
1
10
50.9785109890736
20
-13.2535541964054
30
0
41
1
10
51.074806613098
20
-13.2843247311595
30
0
41
1
10
51.094065737903
20
-13.2888084233397
30
0
41
1
10
51.1325839875127
20
-13.2945341274514
30
0
41
1
10
51.1518431123176
20
-13.2957771733846
30
0
41
1
10
51.2096204867323
20
-13.2947918722063
30
0
41
1
10
51.2481387363421
20
-13.28781224368
30
0
41
1
10
51.3636934851713
20
-13.2467017060829
30
0
41
1
10
51.4407299843909
20
-13.1923498935103
30
0
41
1
10
51.59480298283
20
-13.0242956029415
30
0
41
1
10
51.6718394820496
20
-12.9105712273131
30
0
41
1
10
51.8259124804886
20
-12.6201090037302
30
0
41
1
10
51.9029489797082
20
-12.44335296957
30
0
41
1
10
52.0570219781472
20
-12.0256229550654
30
0
41
1
10
52.1340584773668
20
-11.7846383813217
30
0
41
1
10
52.2881314758059
20
-11.2401517356954
30
0
41
1
10
52.3651679750254
20
-10.9366497530737
30
0
41
1
10
52.5192409734645
20
-10.2719019132121
30
0
41
1
10
52.5962774726841
20
-9.91066806733912
30
0
41
1
10
52.7503504711232
20
-9.13812437357049
30
0
41
1
10
52.8273869703427
20
-8.72683722243681
30
0
41
1
10
52.9814599687818
20
-7.86422110626549
30
0
41
1
10
53.0584964680013
20
-7.41292196016218
30
0
41
1
10
53.2125694664404
20
-6.48187883111606
30
0
41
1
10
53.28960596566
20
-6.00216683451791
30
0
41
1
10
53.443678964099
20
-5.02651068563932
30
0
41
1
10
53.5207154633186
20
-4.53059569807058
30
0
41
1
10
53.6747884617577
20
-3.5344258779489
30
0
41
1
10
53.7518249609773
20
-3.0341936011647
30
0
41
1
10
53.9058979594163
20
-2.04017215477975
30
0
41
1
10
53.9829344586359
20
-1.54639703121978
30
0
41
1
10
54.0984892074652
20
-0.817405953194452
30
0
41
1
10
54.137007457075
20
-0.576339933283634
30
0
41
1
10
54.1947848314897
20
-0.218354823476119
30
0
41
1
10
54.2140439562946
20
-0.0997530070423522
30
0
41
1
10
54.2525622059043
20
0.136662104666925
30
0
41
1
10
54.2718213307092
20
0.255519501306793
30
0
41
1
10
54.3681169547337
20
0.852784038340417
30
0
41
1
10
54.4451534539531
20
1.34020034202842
30
0
41
1
10
54.5992264523923
20
2.32604944050917
30
0
41
1
10
54.6762629516118
20
2.82447232549598
30
0
41
1
10
54.8303359500509
20
3.82230469453722
30
0
41
1
10
54.9073724492704
20
4.32169554236069
30
0
41
1
10
55.0614454477095
20
5.31002749985075
30
0
41
1
10
55.1384819469291
20
5.798942212713
30
0
41
1
10
55.2925549453682
20
6.7541603113975
30
0
41
1
10
55.3695914445877
20
7.22043247595309
30
0
41
1
10
55.5236644430268
20
8.11835625283678
30
0
41
1
10
55.6007009422463
20
8.54997636618208
30
0
41
1
10
55.7547739406854
20
9.36769888453205
30
0
41
1
10
55.831810439905
20
9.75377465839188
30
0
41
1
10
55.985883438344
20
10.4715153406481
30
0
41
1
10
56.0629199375637
20
10.8031628629064
30
0
41
1
10
56.2169929360027
20
11.4058337844174
30
0
41
1
10
56.2940294352223
20
11.6768514532024
30
0
41
1
10
56.4481024336614
20
12.1550831521729
30
0
41
1
10
56.5251389328809
20
12.3623030062771
30
0
41
1
10
56.67921193132
20
12.7127891119746
30
0
41
1
10
56.7562484305396
20
12.8560704129871
30
0
41
1
10
56.9103214289786
20
13.0812350826654
30
0
41
1
10
56.9873579281982
20
13.1631390792089
30
0
41
1
10
57.1414309266373
20
13.2702603663726
30
0
41
1
10
57.2184674258568
20
13.2955
30
0
41
1
10
57.2955039250763
20
13.2955
30
0
0
SPLINE
5
EF
100
AcDbEntity
8
1
62
256
6
ByLayer
370
13
48
1
60
0
100
AcDbSpline
70
4
71
3
72
79
73
75
40
0
40
0
40
0
40
0
40
0.0312500000000001
40
0.0312500000000001
40
0.0625000000000002
40
0.0625000000000002
40
0.0937500000000002
40
0.0937500000000002
40
0.125
40
0.125
40
0.15625
40
0.15625
40
0.187500000000001
40
0.187500000000001
40
0.218750000000001
40
0.218750000000001
40
0.250000000000001
40
0.250000000000001
40
0.281250000000001
40
0.281250000000001
40
0.312500000000001
40
0.312500000000001
40
0.343750000000001
40
0.343750000000001
40
0.375000000000001
40
0.375000000000001
40
0.406250000000001
40
0.406250000000001
40
0.437500000000001
40
0.437500000000001
40
0.441406250000001
40
0.441406250000001
40
0.445312500000001
40
0.445312500000001
40
0.453125000000001
40
0.468750000000001
40
0.468750000000001
40
0.500000000000001
40
0.500000000000001
40
0.531250000000001
40
0.531250000000001
40
0.562500000000001
40
0.562500000000001
40
0.593750000000001
40
0.593750000000001
40
0.625000000000001
40
0.625000000000001
40
0.656250000000001
40
0.656250000000001
40
0.687500000000001
40
0.687500000000001
40
0.718750000000002
40
0.718750000000002
40
0.750000000000002
40
0.750000000000002
40
0.781250000000002
40
0.781250000000002
40
0.812500000000002
40
0.812500000000002
40
0.843750000000002
40
0.843750000000002
40
0.875000000000002
40
0.875000000000002
40
0.882812500000002
40
0.882812500000002
40
0.890625000000002
40
0.890625000000002
40
0.906250000000002
40
0.906250000000002
40
0.937500000000001
40
0.937500000000001
40
0.968750000000001
40
0.968750000000001
40
1
40
1
40
1
40
1
41
1
10
55.2518640951486
20
13.2955
30
0
41
1
10
55.3238325290566
20
13.2955
30
0
41
1
10
55.3958009629646
20
13.2734776574274
30
0
41
1
10
55.5397378307805
20
13.1803310803356
30
0
41
1
10
55.6117062646885
20
13.1091909403326
30
0
41
1
10
55.7556431325044
20
12.9138232572335
30
0
41
1
10
55.8276115664124
20
12.7895807062478
30
0
41
1
10
55.9715484342283
20
12.4855959915667
30
0
41
1
10
56.0435168681362
20
12.3058420974025
30
0
41
1
10
56.1874537359522
20
11.8904063894796
30
0
41
1
10
56.2594221698602
20
11.6547184787999
30
0
41
1
10
56.4033590376762
20
11.1292466270305
30
0
41
1
10
56.4753274715841
20
10.8394639600981
30
0
41
1
10
56.6192643394
20
10.209972886928
30
0
41
1
10
56.6912327733081
20
9.87027369277402
30
0
41
1
10
56.835169641124
20
9.14730181901936
30
0
41
1
10
56.9071380750319
20
8.76404539420855
30
0
41
1
10
57.0510749428479
20
7.96210633753114
30
0
41
1
10
57.1230433767559
20
7.54344476365378
30
0
41
1
10
57.2669802445718
20
6.68006818014086
30
0
41
1
10
57.3389486784798
20
6.23537596522237
30
0
41
1
10
57.4828855462957
20
5.32986616304296
30
0
41
1
10
57.5548539802037
20
4.86906995313498
30
0
41
1
10
57.6987908480197
20
3.94116091717518
30
0
41
1
10
57.7707592819276
20
3.4740655089094
30
0
41
1
10
57.9146961497435
20
2.54265652849074
30
0
41
1
10
57.9866645836514
20
2.07835492365669
30
0
41
1
10
58.1306014514674
20
1.16047619505167
30
0
41
1
10
58.2025698853755
20
0.706905239741104
30
0
41
1
10
58.283534373522
20
0.206334814322105
30
0
41
1
10
58.2925304277603
20
0.150849592781754
30
0
41
1
10
58.3105225362373
20
0.0401576137028883
30
0
41
1
10
58.3195185904758
20
-0.0149612913199064
30
0
41
1
10
58.3465067531913
20
-0.180871865183633
30
0
41
1
10
58.4004830786223
20
-0.514372754432543
30
0
41
1
10
58.4544594040533
20
-0.852521256643712
30
0
41
1
10
58.5624120549152
20
-1.53383719256158
30
0
41
1
10
58.6343804888232
20
-1.99478333176941
30
0
41
1
10
58.7783173566391
20
-2.92276327667432
30
0
41
1
10
58.8502857905471
20
-3.38978741728712
30
0
41
1
10
58.994222658363
20
-4.32124792269101
30
0
41
1
10
59.066191092271
20
-4.78566890424159
30
0
41
1
10
59.210127960087
20
-5.70234006131807
30
0
41
1
10
59.2820963939949
20
-6.15457016828611
30
0
41
1
10
59.4260332618109
20
-7.03690592540838
30
0
41
1
10
59.4980016957188
20
-7.46698898311249
30
0
41
1
10
59.6419385635347
20
-8.29535574534643
30
0
41
1
10
59.7139069974427
20
-8.69361731936891
30
0
41
1
10
59.8578438652587
20
-9.44962801133676
30
0
41
1
10
59.9298122991667
20
-9.80735865373492
30
0
41
1
10
60.0737491669826
20
-10.475177549302
30
0
41
1
10
60.1457176008906
20
-10.7852536267114
30
0
41
1
10
60.2896544687064
20
-11.3526858277172
30
0
41
1
10
60.3616229026144
20
-11.6100375386364
30
0
41
1
10
60.5055597704304
20
-12.0692489956197
30
0
41
1
10
60.5775282043384
20
-12.2711120873146
30
0
41
1
10
60.7214650721543
20
-12.6188944318302
30
0
41
1
10
60.7934335060623
20
-12.7648234562336
30
0
41
1
10
60.9373703738783
20
-13.0024029026515
30
0
41
1
10
61.0093388077862
20
-13.0940673362921
30
0
41
1
10
61.1532756756021
20
-13.226534155026
30
0
41
1
10
61.2252441095101
20
-13.2673523561375
30
0
41
1
10
61.3152046518951
20
-13.2895307000851
30
0
41
1
10
61.3331967603721
20
-13.2925266400055
30
0
41
1
10
61.3691809773261
20
-13.29572118071
30
0
41
1
10
61.387173085803
20
-13.2959286021905
30
0
41
1
10
61.4411494112341
20
-13.2924099045622
30
0
41
1
10
61.477133628188
20
-13.2844933695549
30
0
41
1
10
61.58508627905
20
-13.2430592237387
30
0
41
1
10
61.657054712958
20
-13.1918195396205
30
0
41
1
10
61.8009915807739
20
-13.0376608460368
30
0
41
1
10
61.8729600146818
20
-12.9347262069614
30
0
41
1
10
62.0168968824978
20
-12.6740914650266
30
0
41
1
10
62.0888653164057
20
-12.5163780453541
30
0
41
1
10
62.1608337503138
20
-12.3306558839187
30
0
0
SPLINE
5
F0
100
AcDbEntity
8
1
62
256
6
ByLayer
370
13
48
1
60
0
100
AcDbSpline
70
4
71
3
72
80
73
76
40
0
40
0
40
0
40
0
40
0.03125
40
0.03125
40
0.0625
40
0.0625
40
0.0937499999999999
40
0.0937499999999999
40
0.109375
40
0.109375
40
0.1171875
40
0.1171875
40
0.125
40
0.125
40
0.15625
40
0.15625
40
0.1875
40
0.1875
40
0.21875
40
0.21875
40
0.25
40
0.25
40
0.28125
40
0.28125
40
0.3125
40
0.3125
40
0.34375
40
0.34375
40
0.375
40
0.375
40
0.40625
40
0.40625
40
0.4375
40
0.4375
40
0.46875
40
0.46875
40
0.5
40
0.5
40
0.53125
40
0.53125
40
0.546875
40
0.546875
40
0.5546875
40
0.5546875
40
0.55859375
40
0.55859375
40
0.5625
40
0.5625
40
0.59375
40
0.59375
40
0.625
40
0.625
40
0.65625
40
0.65625
40
0.6875
40
0.6875
40
0.71875
40
0.71875
40
0.75
40
0.75
40
0.781249999999999
40
0.781249999999999
40
0.812499999999999
40
0.812499999999999
40
0.84375
40
0.84375
40
0.875
40
0.875
40
0.90625
40
0.90625
40
0.9375
40
0.9375
40
0.96875
40
0.96875
40
1
40
1
40
1
40
1
41
1
10
49.9
20
-12.3306527198782
30
0
41
1
10
49.9719684466797
20
-12.5163752314126
30
0
41
1
10
50.0439368933593
20
-12.6740889906179
30
0
41
1
10
50.1878737867186
20
-12.934724379845
30
0
41
1
10
50.2598422333984
20
-13.037659326672
30
0
41
1
10
50.4037791267578
20
-13.1918185968154
30
0
41
1
10
50.4757475734373
20
-13.2430585497496
30
0
41
1
10
50.5837002434569
20
-13.2844930668349
30
0
41
1
10
50.6196844667967
20
-13.292409720299
30
0
41
1
10
50.6736608018064
20
-13.2959285875407
30
0
41
1
10
50.6916529134764
20
-13.2957212209923
30
0
41
1
10
50.7276371368162
20
-13.2925267919027
30
0
41
1
10
50.7456292484861
20
-13.2895309081315
30
0
41
1
10
50.8355898068357
20
-13.2673528463809
30
0
41
1
10
50.9075582535153
20
-13.2265348757341
30
0
41
1
10
51.0514951468747
20
-13.0940685197203
30
0
41
1
10
51.1234635935544
20
-13.0024043183179
30
0
41
1
10
51.2674004869138
20
-12.7648253291571
30
0
41
1
10
51.3393689335934
20
-12.6188965297464
30
0
41
1
10
51.4833058269527
20
-12.2711146182707
30
0
41
1
10
51.5552742736324
20
-12.0692517345904
30
0
41
1
10
51.6992111669917
20
-11.6100406671469
30
0
41
1
10
51.7711796136715
20
-11.352689137719
30
0
41
1
10
51.9151165070308
20
-10.7852572648665
30
0
41
1
10
51.9870849537105
20
-10.4751813340905
30
0
41
1
10
52.1310218470699
20
-9.80736269079182
30
0
41
1
10
52.2029902937495
20
-9.44963215401111
30
0
41
1
10
52.3469271871088
20
-8.69362162899859
30
0
41
1
10
52.4188956337885
20
-8.29536011631117
30
0
41
1
10
52.5628325271479
20
-7.46699343239104
30
0
41
1
10
52.6348009738275
20
-7.03691039167779
30
0
41
1
10
52.7787378671868
20
-6.15457462716435
30
0
41
1
10
52.8507063138665
20
-5.70234449583799
30
0
41
1
10
52.9946432072259
20
-4.78567325416037
30
0
41
1
10
53.0666116539055
20
-4.32125221239681
30
0
41
1
10
53.2105485472649
20
-3.38979155784827
30
0
41
1
10
53.2825169939446
20
-2.92276732833375
30
0
41
1
10
53.4264538873039
20
-1.99478718483098
30
0
41
1
10
53.4984223339836
20
-1.53384093595224
30
0
41
1
10
53.606375004003
20
-0.852524825811372
30
0
41
1
10
53.6423592273429
20
-0.627092431307119
30
0
41
1
10
53.6963355623527
20
-0.29204273801011
30
0
41
1
10
53.7143276740225
20
-0.180875252636866
30
0
41
1
10
53.7413158415274
20
-0.0149646323316972
30
0
41
1
10
53.7503118973624
20
0.0401542798608716
30
0
41
1
10
53.7683040090323
20
0.150846267416426
30
0
41
1
10
53.7773000648673
20
0.206331493353304
30
0
41
1
10
53.858264567382
20
0.706901959771983
30
0
41
1
10
53.9302330140616
20
1.16047296175435
30
0
41
1
10
54.0741699074209
20
2.07835180427944
30
0
41
1
10
54.1461383541005
20
2.54265347636928
30
0
41
1
10
54.2900752474599
20
3.47406261058333
30
0
41
1
10
54.3620436941396
20
3.94115810539037
30
0
41
1
10
54.505980587499
20
4.86906733083936
30
0
41
1
10
54.5779490341786
20
5.32986364368935
30
0
41
1
10
54.7218859275379
20
6.23537366375353
30
0
41
1
10
54.7938543742176
20
6.68006599360092
30
0
41
1
10
54.937791267577
20
7.54344281333431
30
0
41
1
10
55.0097597142567
20
7.96210450848292
30
0
41
1
10
55.153696607616
20
8.76404380771697
30
0
41
1
10
55.2256650542957
20
9.1473003537898
30
0
41
1
10
55.369601947655
20
9.87027246369431
30
0
41
1
10
55.4415703943346
20
10.2099717727142
30
0
41
1
10
55.585507287694
20
10.8394630635122
30
0
41
1
10
55.6574757343737
20
11.12924583319
30
0
41
1
10
55.801412627733
20
11.6547178738665
30
0
41
1
10
55.8733810744126
20
11.8904058706996
30
0
41
1
10
56.017317967772
20
12.3058417314911
30
0
41
1
10
56.0892864144517
20
12.4855956923711
30
0
41
1
10
56.233223307811
20
12.7895805199302
30
0
41
1
10
56.3051917544908
20
12.913823117086
30
0
41
1
10
56.4491286478501
20
13.1091908724575
30
0
41
1
10
56.5210970945298
20
13.1803310385753
30
0
41
1
10
56.6650339878891
20
13.2734776495976
30
0
41
1
10
56.7370024345688
20
13.2955
30
0
41
1
10
56.8089708812484
20
13.2955
30
0
0
SPLINE
5
F1
100
AcDbEntity
8
1
62
256
6
ByLayer
370
13
48
1
60
0
100
AcDbSpline
70
4
71
3
72
78
73
74
40
0
40
0
40
0
40
0
40
0.0312499999999998
40
0.0312499999999998
40
0.0624999999999996
40
0.0624999999999996
40
0.0937499999999994
40
0.0937499999999994
40
0.124999999999999
40
0.124999999999999
40
0.156249999999999
40
0.156249999999999
40
0.187499999999999
40
0.187499999999999
40
0.218749999999999
40
0.218749999999999
40
0.249999999999998
40
0.249999999999998
40
0.281249999999998
40
0.281249999999998
40
0.312499999999998
40
0.312499999999998
40
0.343749999999998
40
0.343749999999998
40
0.374999999999998
40
0.374999999999998
40
0.406249999999997
40
0.406249999999997
40
0.414062499999998
40
0.414062499999998
40
0.421874999999998
40
0.421874999999998
40
0.437499999999997
40
0.437499999999997
40
0.468749999999997
40
0.468749999999997
40
0.499999999999998
40
0.499999999999998
40
0.531249999999998
40
0.531249999999998
40
0.562499999999998
40
0.562499999999998
40
0.593749999999998
40
0.593749999999998
40
0.624999999999998
40
0.624999999999998
40
0.656249999999998
40
0.656249999999998
40
0.687499999999998
40
0.687499999999998
40
0.718749999999998
40
0.718749999999998
40
0.749999999999998
40
0.749999999999998
40
0.781249999999998
40
0.781249999999998
40
0.812499999999998
40
0.812499999999998
40
0.828124999999998
40
0.828124999999998
40
0.835937499999998
40
0.835937499999998
40
0.843749999999998
40
0.843749999999998
40
0.874999999999999
40
0.874999999999999
40
0.906249999999999
40
0.906249999999999
40
0.937499999999999
40
0.937499999999999
40
0.96875
40
0.96875
40
1
40
1
40
1
40
1
41
1
10
54.7653310513207
20
13.2955
30
0
41
1
10
54.8423675377686
20
13.2955
30
0
41
1
10
54.9194040242165
20
13.2702603747583
30
0
41
1
10
55.0734769971122
20
13.1631391241013
30
0
41
1
10
55.15051348356
20
13.0812351556972
30
0
41
1
10
55.3045864564558
20
12.8560705639325
30
0
41
1
10
55.3816229429035
20
12.71278931271
30
0
41
1
10
55.5356959157992
20
12.3623033284981
30
0
41
1
10
55.612732402247
20
12.1550835460979
30
0
41
1
10
55.7668053751428
20
11.6768520106963
30
0
41
1
10
55.8438418615906
20
11.405834433774
30
0
41
1
10
55.9979148344863
20
10.8031637122809
30
0
41
1
10
56.0749513209341
20
10.4715162981633
30
0
41
1
10
56.2290242938298
20
9.75377584274256
30
0
41
1
10
56.3060607802776
20
9.3677001875524
30
0
41
1
10
56.4601337531733
20
8.54997791009606
30
0
41
1
10
56.5371702396211
20
8.11835791894427
30
0
41
1
10
56.6912432125168
20
7.22043438259797
30
0
41
1
10
56.7682796989647
20
6.75416233635715
30
0
41
1
10
56.9223526718604
20
5.79894446356448
30
0
41
1
10
56.9993891583082
20
5.31002985825756
30
0
41
1
10
57.1534621312039
20
4.32169809955133
30
0
41
1
10
57.2304986176517
20
3.82230734294549
30
0
41
1
10
57.3845715905474
20
2.82447513622165
30
0
41
1
10
57.4616080769953
20
2.32605232233485
30
0
41
1
10
57.615681049891
20
1.34020334410133
30
0
41
1
10
57.6927175363388
20
0.852787089569432
30
0
41
1
10
57.7890131443986
20
0.255522600244404
30
0
41
1
10
57.8082722660106
20
0.136665212463413
30
0
41
1
10
57.8467905092345
20
-0.0997498828795926
30
0
41
1
10
57.8660496308464
20
-0.218351649146911
30
0
41
1
10
57.9238269956823
20
-0.576336667320817
30
0
41
1
10
57.9623452389063
20
-0.817402627343768
30
0
41
1
10
58.077899968578
20
-1.54639353087208
30
0
41
1
10
58.1549364550258
20
-2.04016854497516
30
0
41
1
10
58.3090094279215
20
-3.03418979512699
30
0
41
1
10
58.3860459143693
20
-3.53442198516853
30
0
41
1
10
58.5401188872651
20
-4.53059166352264
30
0
41
1
10
58.6171553737129
20
-5.02650659610615
30
0
41
1
10
58.7712283466086
20
-6.00216267471103
30
0
41
1
10
58.8482648330564
20
-6.48187465605898
30
0
41
1
10
59.0023378059521
20
-7.41291780002319
30
0
41
1
10
59.0793742924
20
-7.86421697632258
30
0
41
1
10
59.2334472652957
20
-8.72683320074501
30
0
41
1
10
59.3104837517435
20
-9.13812042994329
30
0
41
1
10
59.4645567246392
20
-9.91066432627161
30
0
41
1
10
59.541593211087
20
-10.2718982966278
30
0
41
1
10
59.6956661839827
20
-10.9366464266152
30
0
41
1
10
59.7727026704306
20
-11.2401485748486
30
0
41
1
10
59.9267756433262
20
-11.7846355844007
30
0
41
1
10
60.0038121297741
20
-12.025620356416
30
0
41
1
10
60.1578851026698
20
-12.4433507896573
30
0
41
1
10
60.2349215891176
20
-12.6201070442382
30
0
41
1
10
60.3889945620133
20
-12.9105697196383
30
0
41
1
10
60.4660310484612
20
-13.0242943266255
30
0
41
1
10
60.6201040213568
20
-13.1923490802236
30
0
41
1
10
60.6971405078047
20
-13.2467011244413
30
0
41
1
10
60.8126952374764
20
-13.2878120028802
30
0
41
1
10
60.8512134807004
20
-13.2947917439303
30
0
41
1
10
60.9089908455363
20
-13.2957772115476
30
0
41
1
10
60.9282499671482
20
-13.294534221831
30
0
41
1
10
60.9667682103722
20
-13.2888086336666
30
0
41
1
10
60.9860273319841
20
-13.2843250008952
30
0
41
1
10
61.0823229400439
20
-13.2535547703
30
0
41
1
10
61.1593594264918
20
-13.202156108258
30
0
41
1
10
61.3134323993875
20
-13.0402550318228
30
0
41
1
10
61.3904688858353
20
-12.9297306320857
30
0
41
1
10
61.544541858731
20
-12.6458032301032
30
0
41
1
10
61.6215783451788
20
-12.4723817508484
30
0
41
1
10
61.7756513180745
20
-12.0613147518914
30
0
41
1
10
61.8526878045223
20
-11.8236581556244
30
0
41
1
10
62.006760777418
20
-11.2856631927755
30
0
41
1
10
62.0837972638659
20
-10.9853243089539
30
0
41
1
10
62.1608337503137
20
-10.6559519913267
30
0
0
SPLINE
5
F2
100
AcDbEntity
8
1
62
256
6
ByLayer
370
13
48
1
60
0
100
AcDbSpline
70
4
71
3
72
78
73
74
40
0
40
0
40
0
40
0
40
0.0312499999999993
40
0.0312499999999993
40
0.0390624999999992
40
0.0390624999999992
40
0.0468749999999991
40
0.0468749999999991
40
0.062499999999999
40
0.062499999999999
40
0.0937499999999987
40
0.0937499999999987
40
0.124999999999998
40
0.124999999999998
40
0.156249999999998
40
0.156249999999998
40
0.187499999999998
40
0.187499999999998
40
0.218749999999997
40
0.218749999999997
40
0.249999999999997
40
0.249999999999997
40
0.281249999999997
40
0.281249999999997
40
0.312499999999996
40
0.312499999999996
40
0.343749999999996
40
0.343749999999996
40
0.374999999999996
40
0.374999999999996
40
0.406249999999995
40
0.406249999999995
40
0.437499999999995
40
0.437499999999995
40
0.468749999999995
40
0.468749999999995
40
0.499999999999994
40
0.499999999999994
40
0.515624999999994
40
0.515624999999994
40
0.523437499999994
40
0.523437499999994
40
0.531249999999994
40
0.531249999999994
40
0.562499999999994
40
0.562499999999994
40
0.593749999999995
40
0.593749999999995
40
0.624999999999995
40
0.624999999999995
40
0.656249999999995
40
0.656249999999995
40
0.687499999999996
40
0.687499999999996
40
0.718749999999996
40
0.718749999999996
40
0.749999999999996
40
0.749999999999996
40
0.781249999999997
40
0.781249999999997
40
0.812499999999997
40
0.812499999999997
40
0.843749999999998
40
0.843749999999998
40
0.874999999999998
40
0.874999999999998
40
0.906249999999999
40
0.906249999999999
40
0.937499999999999
40
0.937499999999999
40
0.96875
40
0.96875
40
1
40
1
40
1
40
1
41
1
10
49.9
20
-13.1684093667639
30
0
41
1
10
49.9669003941398
20
-13.2280261134194
30
0
41
1
10
50.0338007882796
20
-13.2657607191976
30
0
41
1
10
50.1174262809544
20
-13.2879296534914
30
0
41
1
10
50.1341513794893
20
-13.29111533323
30
0
41
1
10
50.1676015765592
20
-13.295056079707
30
0
41
1
10
50.1843266750941
20
-13.295812971679
30
0
41
1
10
50.2345019706989
20
-13.2945272340227
30
0
41
1
10
50.2679521677689
20
-13.2888939999753
30
0
41
1
10
50.3683027589786
20
-13.2568753756063
30
0
41
1
10
50.4352031531184
20
-13.2153446280567
30
0
41
1
10
50.569003941398
20
-13.0882196444013
30
0
41
1
10
50.6359043355378
20
-13.0026144404087
30
0
41
1
10
50.7697051238174
20
-12.7846040260996
30
0
41
1
10
50.8366055179571
20
-12.6521890205233
30
0
41
1
10
50.9704063062368
20
-12.339117947866
30
0
41
1
10
51.0373067003765
20
-12.1584547239536
30
0
41
1
10
51.1711074886562
20
-11.7490016608511
30
0
41
1
10
51.238007882796
20
-11.5202086520421
30
0
41
1
10
51.3718086710756
20
-11.0163258572489
30
0
41
1
10
51.4387090652153
20
-10.7412378040936
30
0
41
1
10
51.572509853495
20
-10.1483346980067
30
0
41
1
10
51.6394102476347
20
-9.83052649340337
30
0
41
1
10
51.7732110359144
20
-9.15736413427479
30
0
41
1
10
51.8401114300541
20
-8.80202133074135
30
0
41
1
10
51.9739122183338
20
-8.060305912378
30
0
41
1
10
52.0408126124735
20
-7.67394779282418
30
0
41
1
10
52.1746134007531
20
-6.87765935738162
30
0
41
1
10
52.2415137948929
20
-6.4677448504836
30
0
41
1
10
52.3753145831725
20
-5.63228074538176
30
0
41
1
10
52.4422149773123
20
-5.20674635147341
30
0
41
1
10
52.5760157655919
20
-4.34798648842013
30
0
41
1
10
52.6429161597317
20
-3.91477398887929
30
0
41
1
10
52.7767169480113
20
-3.04818029487009
30
0
41
1
10
52.843617342151
20
-2.61480875607649
30
0
41
1
10
52.9774181304306
20
-1.75465472892606
30
0
41
1
10
53.0443185245704
20
-1.32787814907832
30
0
41
1
10
53.1446691157801
20
-0.69697398308756
30
0
41
1
10
53.1781193128501
20
-0.488207710907716
30
0
41
1
10
53.2282946084549
20
-0.177822002587447
30
0
41
1
10
53.2450197069898
20
-0.07497332555144
30
0
41
1
10
53.2784699040598
20
0.130394201104849
30
0
41
1
10
53.2951950025947
20
0.233566956931298
30
0
41
1
10
53.3788204952695
20
0.751698296487348
30
0
41
1
10
53.4457208894093
20
1.1735033570784
30
0
41
1
10
53.5795216776888
20
2.02646491705468
30
0
41
1
10
53.6464220718286
20
2.45761719280711
30
0
41
1
10
53.7802228601083
20
3.32295534096505
30
0
41
1
10
53.8471232542481
20
3.75713324700894
30
0
41
1
10
53.9809240425276
20
4.62131905654186
30
0
41
1
10
54.0478244366674
20
5.05131540307926
30
0
41
1
10
54.181625224947
20
5.89934277476436
30
0
41
1
10
54.2485256190868
20
6.31735943914083
30
0
41
1
10
54.3823264073664
20
7.13343289513691
30
0
41
1
10
54.4492268015062
20
7.53147392453386
30
0
41
1
10
54.5830275897858
20
8.29986019076094
30
0
41
1
10
54.6499279839256
20
8.67019009288649
30
0
41
1
10
54.7837287722052
20
9.37615068356561
30
0
41
1
10
54.850629166345
20
9.71176838549815
30
0
41
1
10
54.9844299546246
20
10.342465866315
30
0
41
1
10
55.0513303487644
20
10.6375366230163
30
0
41
1
10
55.185131137044
20
11.1828021769811
30
0
41
1
10
55.2520315311837
20
11.4329928912821
30
0
41
1
10
55.3858323194633
20
11.8858606428601
30
0
41
1
10
55.4527327136031
20
12.0885386953881
30
0
41
1
10
55.5865335018827
20
12.44548956202
30
0
41
1
10
55.6534338960225
20
12.5997678672266
30
0
41
1
10
55.7872346843021
20
12.8606731447622
30
0
41
1
10
55.8541350784419
20
12.9673088937694
30
0
41
1
10
55.9879358667215
20
13.1351093707535
30
0
41
1
10
56.0548362608614
20
13.1962847101885
30
0
41
1
10
56.1886370491409
20
13.2764745063191
30
0
41
1
10
56.2555374432807
20
13.2955
30
0
41
1
10
56.3224378374205
20
13.2955
30
0
0
SPLINE
5
F3
100
AcDbEntity
8
1
62
256
6
ByLayer
370
13
48
1
60
0
100
AcDbSpline
70
4
71
3
72
79
73
75
40
0
40
0
40
0
40
0
40
0.03125
40
0.03125
40
0.0624999999999999
40
0.0624999999999999
40
0.0937499999999999
40
0.0937499999999999
40
0.125
40
0.125
40
0.15625
40
0.15625
40
0.1875
40
0.1875
40
0.21875
40
0.21875
40
0.25
40
0.25
40
0.28125
40
0.28125
40
0.3125
40
0.3125
40
0.34375
40
0.34375
40
0.375
40
0.375
40
0.3828125
40
0.38671875
40
0.38671875
40
0.390625
40
0.390625
40
0.40625
40
0.40625
40
0.4375
40
0.4375
40
0.46875
40
0.46875
40
0.5
40
0.5
40
0.53125
40
0.53125
40
0.5625
40
0.5625
40
0.59375
40
0.59375
40
0.625
40
0.625
40
0.65625
40
0.65625
40
0.6875
40
0.6875
40
0.71875
40
0.71875
40
0.749999999999999
40
0.749999999999999
40
0.765625
40
0.765625
40
0.7734375
40
0.7734375
40
0.78125
40
0.78125
40
0.8125
40
0.8125
40
0.84375
40
0.84375
40
0.875
40
0.875
40
0.90625
40
0.90625
40
0.9375
40
0.9375
40
0.96875
40
0.96875
40
1
40
1
40
1
40
1
41
1
10
54.2787980074928
20
13.2955
30
0
41
1
10
54.3609025464806
20
13.2955
30
0
41
1
10
54.4430070854683
20
13.2668222604695
30
0
41
1
10
54.6072161634437
20
13.144699777443
30
0
41
1
10
54.6893207024314
20
13.0512243435206
30
0
41
1
10
54.8535297804068
20
12.7940163405417
30
0
41
1
10
54.9356343193946
20
12.6302561380528
30
0
41
1
10
55.09984339737
20
12.2298634134607
30
0
41
1
10
55.1819479363577
20
11.993212369904
30
0
41
1
10
55.3461570143331
20
11.4480138971665
30
0
41
1
10
55.4282615533209
20
11.1394624545343
30
0
41
1
10
55.5924706312964
20
10.4553876258014
30
0
41
1
10
55.674575170284
20
10.0798775420255
30
0
41
1
10
55.8387842482595
20
9.27062655875915
30
0
41
1
10
55.9208887872472
20
8.83691513109557
30
0
41
1
10
56.0850978652227
20
7.9231690401401
30
0
41
1
10
56.1672024042104
20
7.44317489334284
30
0
41
1
10
56.3314114821858
20
6.45086426754199
30
0
41
1
10
56.4135160211735
20
5.93859172930939
30
0
41
1
10
56.577725099149
20
4.89652072251025
30
0
41
1
10
56.6598296381366
20
4.36676186162254
30
0
41
1
10
56.8240387161121
20
3.30402773150709
30
0
41
1
10
56.9061432550998
20
2.77108201232571
30
0
41
1
10
57.0703523330752
20
1.71473983210157
30
0
41
1
10
57.152456872063
20
1.19136030271338
30
0
41
1
10
57.2550875457977
20
0.549677743114273
30
0
41
1
10
57.285876747918
20
0.358104569646883
30
0
41
1
10
57.3166659500384
20
0.168085340601038
30
0
41
1
10
57.3371920847853
20
0.0417673858304397
30
0
41
1
10
57.3474551521588
20
-0.0211012496190506
30
0
41
1
10
57.3987704890261
20
-0.336698026663214
30
0
41
1
10
57.4398227585199
20
-0.592088934627611
30
0
41
1
10
57.5629795670015
20
-1.36533808088745
30
0
41
1
10
57.6450841059893
20
-1.89034768997257
30
0
41
1
10
57.8092931839647
20
-2.94863328216812
30
0
41
1
10
57.8913977229524
20
-3.48189090335595
30
0
41
1
10
58.0556068009278
20
-4.54371805655049
30
0
41
1
10
58.1377113399155
20
-5.07225673084932
30
0
41
1
10
58.301920417891
20
-6.11024351397782
30
0
41
1
10
58.3840249568787
20
-6.61965119773748
30
0
41
1
10
58.5482340348541
20
-7.60460947248563
30
0
41
1
10
58.6303385738419
20
-8.08011610133275
30
0
41
1
10
58.7945476518174
20
-8.98343363329755
30
0
41
1
10
58.876652190805
20
-9.41120489935687
30
0
41
1
10
59.0408612687805
20
-10.2074263494103
30
0
41
1
10
59.1229658077682
20
-10.5758486733493
30
0
41
1
10
59.2871748857436
20
-11.2449999919488
30
0
41
1
10
59.3692794247313
20
-11.5457176339578
30
0
41
1
10
59.5334885027068
20
-12.0749435310717
30
0
41
1
10
59.6155930416945
20
-12.3034576167528
30
0
41
1
10
59.7798021196699
20
-12.6876979509098
30
0
41
1
10
59.8619066586576
20
-12.84344403131
30
0
41
1
10
60.0261157366331
20
-13.0851070912158
30
0
41
1
10
60.1082202756208
20
-13.1710523379006
30
0
41
1
10
60.2313770841024
20
-13.2519119739301
30
0
41
1
10
60.2724293535962
20
-13.270874494926
30
0
41
1
10
60.334007757837
20
-13.2880080615878
30
0
41
1
10
60.3545338925839
20
-13.2918350417354
30
0
41
1
10
60.3955861620778
20
-13.2958419470845
30
0
41
1
10
60.4161122968248
20
-13.2960357918428
30
0
41
1
10
60.5187429705593
20
-13.2880079439284
30
0
41
1
10
60.6008475095471
20
-13.2524572041516
30
0
41
1
10
60.7650565875225
20
-13.1158625174874
30
0
41
1
10
60.8471611265103
20
-13.0147879408293
30
0
41
1
10
61.0113702044856
20
-12.7419329029015
30
0
41
1
10
61.0934747434735
20
-12.5701255187404
30
0
41
1
10
61.2576838214488
20
-12.1535591715186
30
0
41
1
10
61.3397883604366
20
-11.9087830664574
30
0
41
1
10
61.503997438412
20
-11.3476852687848
30
0
41
1
10
61.5861019773997
20
-11.0313614161634
30
0
41
1
10
61.7503110553752
20
-10.3325337158611
30
0
41
1
10
61.8324155943628
20
-9.9500451060218
30
0
41
1
10
61.9966246723383
20
-9.12802275371357
30
0
41
1
10
62.0787292113259
20
-8.68852002970974
30
0
41
1
10
62.1608337503137
20
-8.2265946616767
30
0
0
SPLINE
5
F4
100
AcDbEntity
8
1
62
256
6
ByLayer
370
13
48
1
60
0
100
AcDbSpline
70
4
71
3
72
74
73
70
40
0
40
0
40
0
40
0
40
0.03125
40
0.03125
40
0.0625
40
0.0625
40
0.0937500000000001
40
0.0937500000000001
40
0.125
40
0.125
40
0.15625
40
0.15625
40
0.1875
40
0.1875
40
0.21875
40
0.21875
40
0.25
40
0.25
40
0.28125
40
0.28125
40
0.3125
40
0.3125
40
0.34375
40
0.34375
40
0.375
40
0.375
40
0.40625
40
0.40625
40
0.4375
40
0.4375
40
0.46875
40
0.46875
40
0.4765625
40
0.4765625
40
0.484375
40
0.484375
40
0.5
40
0.5
40
0.53125
40
0.53125
40
0.5625
40
0.5625
40
0.59375
40
0.59375
40
0.625
40
0.625
40
0.65625
40
0.65625
40
0.6875
40
0.6875
40
0.71875
40
0.71875
40
0.75
40
0.75
40
0.78125
40
0.78125
40
0.8125
40
0.8125
40
0.84375
40
0.84375
40
0.875
40
0.875
40
0.90625
40
0.90625
40
0.9375
40
0.9375
40
0.96875
40
0.96875
40
1
40
1
40
1
40
1
41
1
10
49.9
20
-13.2400289010414
30
0
41
1
10
49.9618323415999
20
-13.204169180926
30
0
41
1
10
50.0236646831998
20
-13.1503567937409
30
0
41
1
10
50.1473293663997
20
-13.0041773624827
30
0
41
1
10
50.2091617079996
20
-12.9118030814354
30
0
41
1
10
50.3328263911995
20
-12.6866332029256
30
0
41
1
10
50.3946587327994
20
-12.553831378977
30
0
41
1
10
50.5183234159992
20
-12.2469425023972
30
0
41
1
10
50.5801557575991
20
-12.0728510805773
30
0
41
1
10
50.703820440799
20
-11.6836840647113
30
0
41
1
10
50.7656527823989
20
-11.4686067046177
30
0
41
1
10
50.8893174655988
20
-10.9990286020566
30
0
41
1
10
50.9511498071987
20
-10.7445291849481
30
0
41
1
10
51.0748144903985
20
-10.1989356848023
30
0
41
1
10
51.1366468319984
20
-9.907846121745
30
0
41
1
10
51.2603115151983
20
-9.29308127594123
30
0
41
1
10
51.3221438567982
20
-8.96941336830017
30
0
41
1
10
51.4458085399981
20
-8.29450082679656
30
0
41
1
10
51.507640881598
20
-7.94326567746475
30
0
41
1
10
51.6313055647978
20
-7.2189715405093
30
0
41
1
10
51.6931379063978
20
-6.84592312199325
30
0
41
1
10
51.8168025895977
20
-6.08419423558561
30
0
41
1
10
51.8786349311975
20
-5.69552430261979
30
0
41
1
10
52.0022996143974
20
-4.90886215217958
30
0
41
1
10
52.0641319559973
20
-4.51087941647714
30
0
41
1
10
52.1877966391971
20
-3.71171534822119
30
0
41
1
10
52.2496289807971
20
-3.31054167851136
30
0
41
1
10
52.3732936639969
20
-2.51067348317076
30
0
41
1
10
52.4351260055968
20
-2.11198437072491
30
0
41
1
10
52.5587906887967
20
-1.32211959002913
30
0
41
1
10
52.6206230303966
20
-0.930946993646188
30
0
41
1
10
52.6979134573965
20
-0.449341853131955
30
0
41
1
10
52.7133715427965
20
-0.353386875122794
30
0
41
1
10
52.7442877135964
20
-0.162267533650805
30
0
41
1
10
52.7597457989965
20
-0.067242717633377
30
0
41
1
10
52.8061200551964
20
0.217471660617008
30
0
41
1
10
52.8370362259963
20
0.408953645226603
30
0
41
1
10
52.9297847383963
20
0.987726568680046
30
0
41
1
10
52.9916170799962
20
1.37936954518614
30
0
41
1
10
53.115281763196
20
2.16994771416014
30
0
41
1
10
53.177114104796
20
2.568879723414
30
0
41
1
10
53.3007787879957
20
3.36897155712649
30
0
41
1
10
53.3626111295956
20
3.7701258543575
30
0
41
1
10
53.4862758127955
20
4.56896220663506
30
0
41
1
10
53.5481081543954
20
4.96663649763832
30
0
41
1
10
53.6717728375953
20
5.75237723156633
30
0
41
1
10
53.7336051791952
20
6.14043412133455
30
0
41
1
10
53.8572698623951
20
6.90063075262231
30
0
41
1
10
53.919102203995
20
7.27275993248821
30
0
41
1
10
54.0427668871948
20
7.99492322183968
30
0
41
1
10
54.1045992287948
20
8.34494678902965
30
0
41
1
10
54.2282639119947
20
9.01717306024727
30
0
41
1
10
54.2900962535946
20
9.33936636015088
30
0
41
1
10
54.4137609367943
20
9.95096199713973
30
0
41
1
10
54.4755932783943
20
10.2403570835484
30
0
41
1
10
54.5992579615942
20
10.7823954792675
30
0
41
1
10
54.6610903031941
20
11.0350344195997
30
0
41
1
10
54.784754986394
20
11.5007857836938
30
0
41
1
10
54.8465873279939
20
11.7138970382029
30
0
41
1
10
54.9702520111937
20
12.0990882562399
30
0
41
1
10
55.0320843527936
20
12.2711701262809
30
0
41
1
10
55.1557490359934
20
12.5740558163174
30
0
41
1
10
55.2175813775934
20
12.7048641144523
30
0
41
1
10
55.3412460607932
20
12.9261158703802
30
0
41
1
10
55.4030784023932
20
13.0165656235139
30
0
41
1
10
55.5267430855931
20
13.1590087551681
30
0
41
1
10
55.5885754271929
20
13.2110093984441
30
0
41
1
10
55.7122401103928
20
13.2792513027229
30
0
41
1
10
55.7740724519927
20
13.2955
30
0
41
1
10
55.8359047935926
20
13.2955
30
0
0
SPLINE
5
F5
100
AcDbEntity
8
1
62
256
6
ByLayer
370
13
48
1
60
0
100
AcDbSpline
70
4
71
3
72
81
73
77
40
0
40
0
40
0
40
0
40
0.0312500000000001
40
0.0312500000000001
40
0.0625000000000001
40
0.0625000000000001
40
0.0937500000000002
40
0.0937500000000002
40
0.125
40
0.125
40
0.15625
40
0.15625
40
0.1875
40
0.1875
40
0.218750000000001
40
0.218750000000001
40
0.250000000000001
40
0.250000000000001
40
0.281250000000001
40
0.281250000000001
40
0.312500000000001
40
0.312500000000001
40
0.343750000000001
40
0.343750000000001
40
0.359375000000001
40
0.359375000000001
40
0.363281250000001
40
0.363281250000001
40
0.367187500000001
40
0.367187500000001
40
0.375000000000001
40
0.375000000000001
40
0.406250000000001
40
0.406250000000001
40
0.4375
40
0.4375
40
0.46875
40
0.46875
40
0.499999999999999
40
0.499999999999999
40
0.531249999999999
40
0.531249999999999
40
0.562499999999999
40
0.562499999999999
40
0.593749999999998
40
0.593749999999998
40
0.624999999999998
40
0.624999999999998
40
0.656249999999998
40
0.656249999999998
40
0.687499999999997
40
0.687499999999997
40
0.718749999999997
40
0.718749999999997
40
0.726562499999997
40
0.730468749999997
40
0.730468749999997
40
0.734374999999997
40
0.734374999999997
40
0.749999999999997
40
0.749999999999997
40
0.781249999999997
40
0.781249999999997
40
0.812499999999998
40
0.812499999999998
40
0.843749999999998
40
0.843749999999998
40
0.874999999999999
40
0.874999999999999
40
0.906249999999999
40
0.906249999999999
40
0.937499999999999
40
0.937499999999999
40
0.96875
40
0.96875
40
1
40
1
40
1
40
1
41
1
10
53.7922649636649
20
13.2955
30
0
41
1
10
53.8794375551925
20
13.2955
30
0
41
1
10
53.9666101467201
20
13.2631628688423
30
0
41
1
10
54.1409553297753
20
13.1250041460272
30
0
41
1
10
54.2281279213029
20
13.0191412254939
30
0
41
1
10
54.4024731043581
20
12.7276293950284
30
0
41
1
10
54.4896456958856
20
12.5419443233112
30
0
41
1
10
54.6639908789409
20
12.0882679535536
30
0
41
1
10
54.7511634704684
20
11.8202548551197
30
0
41
1
10
54.9255086535237
20
11.20408875663
30
0
41
1
10
55.0126812450512
20
10.8559359602024
30
0
41
1
10
55.1870264281064
20
10.0866937782648
30
0
41
1
10
55.2741990196339
20
9.66562948623715
30
0
41
1
10
55.4485442026891
20
8.76243037639318
30
0
41
1
10
55.5357167942167
20
8.2803418337127
30
0
41
1
10
55.7100619772719
20
7.27053153758681
30
0
41
1
10
55.7972345687995
20
6.74286772611714
30
0
41
1
10
55.9715797518547
20
5.65931087577678
30
0
41
1
10
56.0587523433823
20
5.10347536830065
30
0
41
1
10
56.2330975264375
20
3.98116630092937
30
0
41
1
10
56.320270117965
20
3.41473930131747
30
0
41
1
10
56.4946153010202
20
2.28742636089137
30
0
41
1
10
56.5817878925478
20
1.72656990075339
30
0
41
1
10
56.7125467798392
20
0.8996466899182
30
0
41
1
10
56.756133075603
20
0.626376442530159
30
0
41
1
10
56.8106159453078
20
0.288628667188675
30
0
41
1
10
56.8215125192487
20
0.221270616762382
30
0
41
1
10
56.8433056671306
20
0.0869574397456745
30
0
41
1
10
56.8542022410716
20
0.0201289596773506
30
0
41
1
10
56.8868919628945
20
-0.180687805085057
30
0
41
1
10
56.9086851107763
20
-0.315392487217594
30
0
41
1
10
57.0176508501858
20
-0.992652343304798
30
0
41
1
10
57.1048234417134
20
-1.54654104744725
30
0
41
1
10
57.2791686247686
20
-2.66627867030019
30
0
41
1
10
57.3663412162962
20
-3.23210622679392
30
0
41
1
10
57.5406863993513
20
-4.36060317761948
30
0
41
1
10
57.627858990879
20
-4.9232331182796
30
0
41
1
10
57.8022041739341
20
-6.02822047565789
30
0
41
1
10
57.8893767654617
20
-6.57052412377934
30
0
41
1
10
58.0637219485169
20
-7.61716689704386
30
0
41
1
10
58.1508945400445
20
-8.12144677261097
30
0
41
1
10
58.3252397230997
20
-9.07550641301583
30
0
41
1
10
58.4124123146273
20
-9.52523333015833
30
0
41
1
10
58.5867574976825
20
-10.3565368438019
30
0
41
1
10
58.6739300892101
20
-10.7380781391736
30
0
41
1
10
58.8482752722652
20
-11.4236083301567
30
0
41
1
10
58.9354478637929
20
-11.7275860100464
30
0
41
1
10
59.109793046848
20
-12.2535523243982
30
0
41
1
10
59.1969656383756
20
-12.4755537678676
30
0
41
1
10
59.3713108214308
20
-12.8380658829168
30
0
41
1
10
59.4584834129583
20
-12.9786074925324
30
0
41
1
10
59.6328285960136
20
-13.1829496328893
30
0
41
1
10
59.7200011875412
20
-13.2467903110252
30
0
41
1
10
59.8289669269506
20
-13.2835648122925
30
0
41
1
10
59.8616566487734
20
-13.2913791082955
30
0
41
1
10
59.8943463705963
20
-13.2945277350846
30
0
41
1
10
59.9161395184782
20
-13.2956087018279
30
0
41
1
10
59.9270360924192
20
-13.2956422851098
30
0
41
1
10
59.9815189621239
20
-13.2932804080017
30
0
41
1
10
60.0251052578878
20
-13.2832512950383
30
0
41
1
10
60.1558641451791
20
-13.2270223043887
30
0
41
1
10
60.2430367367067
20
-13.154593635299
30
0
41
1
10
60.4173819197619
20
-12.9323346683196
30
0
41
1
10
60.5045545112895
20
-12.7824648183898
30
0
41
1
10
60.6788996943447
20
-12.4009977889405
30
0
41
1
10
60.7660722858723
20
-12.1693713536149
30
0
41
1
10
60.9404174689275
20
-11.624405942339
30
0
41
1
10
61.027590060455
20
-11.3110567473519
30
0
41
1
10
61.2019352435102
20
-10.6076254676076
30
0
41
1
10
61.2891078350378
20
-10.2175575347082
30
0
41
1
10
61.463453018093
20
-9.37059007056888
30
0
41
1
10
61.5506256096206
20
-8.913728340235
30
0
41
1
10
61.7249707926758
20
-7.94720746105818
30
0
41
1
10
61.8121433842034
20
-7.43760253341682
30
0
41
1
10
61.9864885672585
20
-6.38234826939319
30
0
41
1
10
62.0736611587862
20
-5.83675812672382
30
0
41
1
10
62.1608337503138
20
-5.28200771638427
30
0
0
SPLINE
5
F6
100
AcDbEntity
8
1
62
256
6
ByLayer
370
13
48
1
60
0
100
AcDbSpline
70
4
71
3
72
58
73
54
40
0
40
0
40
0
40
0
40
0.03125
40
0.03125
40
0.0625
40
0.0625
40
0.09375
40
0.09375
40
0.125
40
0.125
40
0.15625
40
0.15625
40
0.1875
40
0.1875
40
0.21875
40
0.21875
40
0.25
40
0.25
40
0.28125
40
0.28125
40
0.3125
40
0.3125
40
0.375
40
0.375
40
0.4375
40
0.4375
40
0.5
40
0.5
40
0.5625
40
0.5625
40
0.59375
40
0.59375
40
0.625
40
0.625
40
0.65625
40
0.65625
40
0.6875
40
0.6875
40
0.71875
40
0.71875
40
0.75
40
0.75
40
0.78125
40
0.78125
40
0.8125
40
0.8125
40
0.84375
40
0.84375
40
0.875
40
0.875
40
0.9375
40
0.9375
40
1
40
1
40
1
40
1
41
1
10
49.9
20
-12.565218446427
30
0
41
1
10
49.9567642890601
20
-12.4385846723547
30
0
41
1
10
50.0135285781201
20
-12.2946385384097
30
0
41
1
10
50.1270571562402
20
-11.9719730228903
30
0
41
1
10
50.1838214453003
20
-11.793251655333
30
0
41
1
10
50.2973500234204
20
-11.4017513407369
30
0
41
1
10
50.3541143124804
20
-11.1889721397073
30
0
41
1
10
50.4676428906005
20
-10.7309775856433
30
0
41
1
10
50.5244071796606
20
-10.4857638898424
30
0
41
1
10
50.6379357577807
20
-9.96540699452854
30
0
41
1
10
50.6947000468407
20
-9.6902673298512
30
0
41
1
10
50.8082286249608
20
-9.11337213332487
30
0
41
1
10
50.8649929140208
20
-8.81162175622555
30
0
41
1
10
50.978521492141
20
-8.18549419841136
30
0
41
1
10
51.035285781201
20
-7.86112334090637
30
0
41
1
10
51.1488143593211
20
-7.19424521814858
30
0
41
1
10
51.2055786483811
20
-6.85174486618655
30
0
41
1
10
51.3191072265012
20
-6.15339859225705
30
0
41
1
10
51.3758715155612
20
-5.79755955688404
30
0
41
1
10
51.4894000936813
20
-5.07741779374859
30
0
41
1
10
51.5461643827414
20
-4.71312136077623
30
0
41
1
10
51.7164572499216
20
-3.61469613594471
30
0
41
1
10
51.8299858280417
20
-2.87525865070072
30
0
41
1
10
52.0570429842819
20
-1.41627254288744
30
0
41
1
10
52.1705715624019
20
-0.696805693728294
30
0
41
1
10
52.3976287186422
20
0.696030670720802
30
0
41
1
10
52.5111572967623
20
1.41546787205715
30
0
41
1
10
52.7382144530025
20
2.87443965760954
30
0
41
1
10
52.8517430311225
20
3.61387569094717
30
0
41
1
10
53.0220358983027
20
4.71230916665925
30
0
41
1
10
53.0788001873628
20
5.07661007768561
30
0
41
1
10
53.1923287654829
20
5.79676440074863
30
0
41
1
10
53.2490930545429
20
6.15261151861677
30
0
41
1
10
53.362621632663
20
6.85097757098669
30
0
41
1
10
53.419385921723
20
7.19348961913511
30
0
41
1
10
53.5329144998431
20
7.86039460355201
30
0
41
1
10
53.5896787889032
20
8.1847806263219
30
0
41
1
10
53.7032073670233
20
8.81094168528045
30
0
41
1
10
53.7599716560833
20
9.11271039759654
30
0
41
1
10
53.8735002342034
20
9.68964499509141
30
0
41
1
10
53.9302645232635
20
9.96480572446578
30
0
41
1
10
54.0437931013835
20
10.4852069242953
30
0
41
1
10
54.1005573904436
20
10.7304438585907
30
0
41
1
10
54.2140859685637
20
11.1884864302321
30
0
41
1
10
54.2708502576237
20
11.4012904089111
30
0
41
1
10
54.3843788357439
20
11.7928411477547
30
0
41
1
10
54.4411431248039
20
11.9715881605344
30
0
41
1
10
54.554671702924
20
12.294305169483
30
0
41
1
10
54.6114359919841
20
12.4382771504613
30
0
41
1
10
54.7817288591642
20
12.8182553859764
30
0
41
1
10
54.8952574372843
20
13.0019976775263
30
0
41
1
10
55.1223145935245
20
13.2405442797013
30
0
41
1
10
55.2358431716447
20
13.2955
30
0
41
1
10
55.3493717497647
20
13.2955
30
0
0
SPLINE
5
F7
100
AcDbEntity
8
1
62
256
6
ByLayer
370
13
48
1
60
0
100
AcDbSpline
70
4
71
3
72
81
73
77
40
0
40
0
40
0
40
0
40
0.0312499999999996
40
0.0312499999999996
40
0.0624999999999992
40
0.0624999999999992
40
0.0937499999999988
40
0.0937499999999988
40
0.124999999999998
40
0.124999999999998
40
0.156249999999998
40
0.156249999999998
40
0.187499999999998
40
0.187499999999998
40
0.218749999999997
40
0.218749999999997
40
0.249999999999997
40
0.249999999999997
40
0.281249999999996
40
0.281249999999996
40
0.312499999999996
40
0.312499999999996
40
0.343749999999996
40
0.343749999999996
40
0.347656249999996
40
0.347656249999996
40
0.351562499999995
40
0.359374999999995
40
0.359374999999995
40
0.374999999999995
40
0.374999999999995
40
0.406249999999996
40
0.406249999999996
40
0.437499999999996
40
0.437499999999996
40
0.468749999999996
40
0.468749999999996
40
0.499999999999996
40
0.499999999999996
40
0.531249999999996
40
0.531249999999996
40
0.562499999999996
40
0.562499999999996
40
0.593749999999996
40
0.593749999999996
40
0.624999999999996
40
0.624999999999996
40
0.656249999999996
40
0.656249999999996
40
0.687499999999996
40
0.687499999999996
40
0.691406249999996
40
0.691406249999996
40
0.695312499999996
40
0.695312499999996
40
0.703124999999996
40
0.703124999999996
40
0.718749999999996
40
0.718749999999996
40
0.749999999999997
40
0.749999999999997
40
0.781249999999997
40
0.781249999999997
40
0.812499999999997
40
0.812499999999997
40
0.843749999999998
40
0.843749999999998
40
0.874999999999998
40
0.874999999999998
40
0.906249999999998
40
0.906249999999998
40
0.937499999999999
40
0.937499999999999
40
0.968749999999999
40
0.968749999999999
40
1
40
1
40
1
40
1
41
1
10
53.305731919837
20
13.2955
30
0
41
1
10
53.3979725639045
20
13.2955
30
0
41
1
10
53.490213207972
20
13.2592817118947
30
0
41
1
10
53.6746944961069
20
13.1040435505332
30
0
41
1
10
53.7669351401743
20
12.9849689979642
30
0
41
1
10
53.9514164283093
20
12.656882075141
30
0
41
1
10
54.0436570723768
20
12.4478233953105
30
0
41
1
10
54.2281383605117
20
11.9375276351781
30
0
41
1
10
54.3203790045792
20
11.6362661798394
30
0
41
1
10
54.5048602927141
20
10.9453324317624
30
0
41
1
10
54.5971009367815
20
10.5556680604886
30
0
41
1
10
54.7815822249165
20
9.69798524248671
30
0
41
1
10
54.8738228689839
20
9.23000910888931
30
0
41
1
10
55.0583041571188
20
8.23129337266579
30
0
41
1
10
55.1505448011863
20
7.7006221894467
30
0
41
1
10
55.3350260893213
20
6.59593799543427
30
0
41
1
10
55.4272667333887
20
6.02200346683082
30
0
41
1
10
55.6117480215237
20
4.85177464882582
30
0
41
1
10
55.7039886655911
20
4.25555128274758
30
0
41
1
10
55.888469953726
20
3.06097962986826
30
0
41
1
10
55.9807105977935
20
2.46268178848169
30
0
41
1
10
56.1651918859284
20
1.28158473943472
30
0
41
1
10
56.257432529996
20
0.698810517716652
30
0
41
1
10
56.3612032545718
20
0.0597088738207106
30
0
41
1
10
56.3727333350802
20
-0.0109235150029861
30
0
41
1
10
56.395793496097
20
-0.15273654554025
30
0
41
1
10
56.4303837376225
20
-0.366144241325998
30
0
41
1
10
56.4649739791477
20
-0.581513387160413
30
0
41
1
10
56.5341544621983
20
-1.01456964338092
30
0
41
1
10
56.580274784232
20
-1.30637220778331
30
0
41
1
10
56.7186357503332
20
-2.18841026956065
30
0
41
1
10
56.8108763944007
20
-2.78538196143683
30
0
41
1
10
56.9953576825356
20
-3.98021007791925
30
0
41
1
10
57.0875983266031
20
-4.57801985377654
30
0
41
1
10
57.2720796147381
20
-5.75462908174842
30
0
41
1
10
57.3643202588055
20
-6.33336009927976
30
0
41
1
10
57.5488015469404
20
-7.45082076260428
30
0
41
1
10
57.6410421910079
20
-7.98947199668035
30
0
41
1
10
57.8255234791428
20
-9.00694207409518
30
0
41
1
10
57.9177641232103
20
-9.485689787154
30
0
41
1
10
58.1022454113452
20
-10.3669947808641
30
0
41
1
10
58.1944860554127
20
-10.7695049485131
30
0
41
1
10
58.3789673435476
20
-11.4872844567336
30
0
41
1
10
58.4712079876151
20
-11.8025404685412
30
0
41
1
10
58.65568927575
20
-12.3410043318264
30
0
41
1
10
58.7479299198174
20
-12.5642321122367
30
0
41
1
10
58.9324112079524
20
-12.9199643031258
30
0
41
1
10
59.0246518520199
20
-13.0525125184578
30
0
41
1
10
59.2091331401548
20
-13.2333436993105
30
0
41
1
10
59.3013737842223
20
-13.2816809148883
30
0
41
1
10
59.4051445087982
20
-13.2943239487588
30
0
41
1
10
59.4166745893066
20
-13.2951507351939
30
0
41
1
10
59.4397347503235
20
-13.2956703835099
30
0
41
1
10
59.4512648308319
20
-13.2953662969854
30
0
41
1
10
59.4858550723572
20
-13.292737901369
30
0
41
1
10
59.5089152333741
20
-13.2886935615783
30
0
41
1
10
59.5780957164246
20
-13.2694255433958
30
0
41
1
10
59.6242160384584
20
-13.2470614892886
30
0
41
1
10
59.7625770045596
20
-13.1495108358612
30
0
41
1
10
59.8548176486271
20
-13.0437384254052
30
0
41
1
10
60.039298936762
20
-12.7430702648863
30
0
41
1
10
60.1315395808294
20
-12.5481260311128
30
0
41
1
10
60.3160208689644
20
-12.0660326588096
30
0
41
1
10
60.4082615130319
20
-11.7788549545723
30
0
41
1
10
60.5927428011668
20
-11.1150960181758
30
0
41
1
10
60.6849834452343
20
-10.7385173542885
30
0
41
1
10
60.8694647333692
20
-9.90506917913655
30
0
41
1
10
60.9617053774367
20
-9.44823698000579
30
0
41
1
10
61.1461866655716
20
-8.46911194036775
30
0
41
1
10
61.2384273096391
20
-7.94688441645931
30
0
41
1
10
61.422908597774
20
-6.85594083156201
30
0
41
1
10
61.5151492418415
20
-6.28730289393124
30
0
41
1
10
61.6996305299764
20
-5.12443612606825
30
0
41
1
10
61.7918711740439
20
-4.53028039626398
30
0
41
1
10
61.9763524621789
20
-3.33686451308023
30
0
41
1
10
62.0685931062463
20
-2.73765848569732
30
0
41
1
10
62.1608337503138
20
-2.14495967354739
30
0
0
SPLINE
5
F8
100
AcDbEntity
8
1
62
256
6
ByLayer
370
13
48
1
60
0
100
AcDbSpline
70
4
71
3
72
42
73
38
40
0
40
0
40
0
40
0
40
0.0625000000000001
40
0.0625000000000001
40
0.125
40
0.125
40
0.1875
40
0.1875
40
0.25
40
0.25
40
0.3125
40
0.3125
40
0.375
40
0.375
40
0.390625
40
0.390625
40
0.40625
40
0.40625
40
0.437500000000001
40
0.437500000000001
40
0.5
40
0.5
40
0.5625
40
0.5625
40
0.625
40
0.625
40
0.6875
40
0.6875
40
0.75
40
0.75
40
0.8125
40
0.8125
40
0.875
40
0.875
40
0.9375
40
0.9375
40
1
40
1
40
1
40
1
41
1
10
49.9
20
-11.0571940951169
30
0
41
1
10
50.0033924730404
20
-10.6485549244711
30
0
41
1
10
50.1067849460807
20
-10.1853723213549
30
0
41
1
10
50.3135698921614
20
-9.16637475190615
30
0
41
1
10
50.4169623652018
20
-8.61065262814273
30
0
41
1
10
50.6237473112825
20
-7.43105711876183
30
0
41
1
10
50.7271397843228
20
-6.80731659900468
30
0
41
1
10
50.9339247304035
20
-5.52063301744121
30
0
41
1
10
51.0373172034438
20
-4.85782416228827
30
0
41
1
10
51.2441021495245
20
-3.52226017611707
30
0
41
1
10
51.3474946225649
20
-2.84960649711135
30
0
41
1
10
51.5542795686456
20
-1.52026210955711
30
0
41
1
10
51.6576720416859
20
-0.863623592997385
30
0
41
1
10
51.7869126329864
20
-0.0654351940268043
30
0
41
1
10
51.8127607512464
20
0.0925733283408476
30
0
41
1
10
51.8644569877666
20
0.412101406631848
30
0
41
1
10
51.8903051060267
20
0.572972949673868
30
0
41
1
10
51.967849460807
20
1.058492512269
30
0
41
1
10
52.0195456973272
20
1.38605768180892
30
0
41
1
10
52.1746344068877
20
2.37661967201134
30
0
41
1
10
52.278026879928
20
3.04764275830752
30
0
41
1
10
52.4848118260087
20
4.38644611973041
30
0
41
1
10
52.5882042990491
20
5.05413583839967
30
0
41
1
10
52.7949892451298
20
6.3575925548524
30
0
41
1
10
52.8983817181701
20
6.99323051539099
30
0
41
1
10
53.1051666642509
20
8.20320414803746
30
0
41
1
10
53.2085591372912
20
8.77740302535847
30
0
41
1
10
53.4153440833719
20
9.83854146647397
30
0
41
1
10
53.5187365564122
20
10.3253757101146
30
0
41
1
10
53.725521502493
20
11.1930338356864
30
0
41
1
10
53.8289139755333
20
11.5738136590778
30
0
41
1
10
54.035698921614
20
12.2201560643645
30
0
41
1
10
54.1390913946543
20
12.4857423851751
30
0
41
1
10
54.345876340735
20
12.9023401695661
30
0
41
1
10
54.4492688137754
20
13.0534260432435
30
0
41
1
10
54.6560537598561
20
13.2499579947285
30
0
41
1
10
54.7594462328965
20
13.2955
30
0
41
1
10
54.8628387059368
20
13.2955
30
0
0
SPLINE
5
F9
100
AcDbEntity
8
1
62
256
6
ByLayer
370
13
48
1
60
0
100
AcDbSpline
70
4
71
3
72
74
73
70
40
0
40
0
40
0
40
0
40
0.0312500000000001
40
0.0312500000000001
40
0.0625000000000002
40
0.0625000000000002
40
0.0937500000000003
40
0.0937500000000003
40
0.125
40
0.125
40
0.156250000000001
40
0.156250000000001
40
0.187500000000001
40
0.187500000000001
40
0.218750000000001
40
0.218750000000001
40
0.250000000000001
40
0.250000000000001
40
0.281250000000001
40
0.281250000000001
40
0.312500000000001
40
0.312500000000001
40
0.328125000000001
40
0.328125000000001
40
0.343750000000001
40
0.343750000000001
40
0.375000000000001
40
0.375000000000001
40
0.406250000000001
40
0.406250000000001
40
0.437500000000001
40
0.437500000000001
40
0.468750000000001
40
0.468750000000001
40
0.500000000000001
40
0.500000000000001
40
0.531250000000001
40
0.531250000000001
40
0.562500000000001
40
0.562500000000001
40
0.593750000000001
40
0.593750000000001
40
0.625000000000001
40
0.625000000000001
40
0.656250000000001
40
0.656250000000001
40
0.687500000000001
40
0.687500000000001
40
0.718750000000001
40
0.718750000000001
40
0.750000000000001
40
0.750000000000001
40
0.781250000000001
40
0.781250000000001
40
0.812500000000001
40
0.812500000000001
40
0.843750000000001
40
0.843750000000001
40
0.875000000000001
40
0.875000000000001
40
0.906250000000001
40
0.906250000000001
40
0.9375
40
0.9375
40
0.96875
40
0.96875
40
0.984375
40
0.984375
40
1
40
1
40
1
40
1
41
1
10
52.8191988760091
20
13.2955
30
0
41
1
10
52.9165075726165
20
13.2955
30
0
41
1
10
53.0138162692238
20
13.2551782577274
30
0
41
1
10
53.2084336624384
20
13.0818095332951
30
0
41
1
10
53.3057423590458
20
12.9486913494768
30
0
41
1
10
53.5003597522605
20
12.5817503929548
30
0
41
1
10
53.5976684488678
20
12.3478695054378
30
0
41
1
10
53.7922858420825
20
11.7776725751197
30
0
41
1
10
53.8895945386898
20
11.441330994072
30
0
41
1
10
54.0842119319045
20
10.6720596576852
30
0
41
1
10
54.1815206285119
20
10.2391503636296
30
0
41
1
10
54.3761380217265
20
9.29028586495667
30
0
41
1
10
54.4734467183339
20
8.77439686114539
30
0
41
1
10
54.6680641115485
20
7.6794937844667
30
0
41
1
10
54.7653728081559
20
7.10057592300041
30
0
41
1
10
54.9599902013706
20
5.90340411986008
30
0
41
1
10
55.057298897978
20
5.28525134820228
30
0
41
1
10
55.2519162911926
20
4.03420501377553
30
0
41
1
10
55.3492249878
20
3.40139379474826
30
0
41
1
10
55.5438423810147
20
2.14359340629537
30
0
41
1
10
55.641151077622
20
1.51865384166828
30
0
41
1
10
55.787114122533
20
0.600992567110097
30
0
41
1
10
55.8357684708367
20
0.298362460708688
30
0
41
1
10
55.933077167444
20
-0.298552690071119
30
0
41
1
10
55.9817315157477
20
-0.601186155059992
30
0
41
1
10
56.1276945606586
20
-1.51885156220032
30
0
41
1
10
56.2250032572661
20
-2.14379302822417
30
0
41
1
10
56.4196206504807
20
-3.40159501885691
30
0
41
1
10
56.516929347088
20
-4.03440593489958
30
0
41
1
10
56.7115467403027
20
-5.28544911992316
30
0
41
1
10
56.8088554369101
20
-5.90359904220287
30
0
41
1
10
57.0034728301247
20
-7.10076252351632
30
0
41
1
10
57.1007815267321
20
-7.67967491168088
30
0
41
1
10
57.2953989199468
20
-8.77456466418573
30
0
41
1
10
57.392707616554
20
-9.29044581905833
30
0
41
1
10
57.5873250097687
20
-10.2392927983841
30
0
41
1
10
57.6846337063761
20
-10.6721924263004
30
0
41
1
10
57.8792510995908
20
-11.4414433796865
30
0
41
1
10
57.9765597961981
20
-11.7777742490321
30
0
41
1
10
58.1711771894128
20
-12.3479495429481
30
0
41
1
10
58.2684858860201
20
-12.5818195101251
30
0
41
1
10
58.4631032792348
20
-12.9487391685609
30
0
41
1
10
58.5604119758422
20
-13.0818469770859
30
0
41
1
10
58.7550293690569
20
-13.2551960613243
30
0
41
1
10
58.8523380656642
20
-13.29550853922
30
0
41
1
10
59.0469554588788
20
-13.2954914580582
30
0
41
1
10
59.1442641554862
20
-13.255160451117
30
0
41
1
10
59.3388815487008
20
-13.0817720862589
30
0
41
1
10
59.4361902453082
20
-12.9486435270553
30
0
41
1
10
59.6308076385229
20
-12.5816812723346
30
0
41
1
10
59.7281163351303
20
-12.3477894644571
30
0
41
1
10
59.922733728345
20
-11.7775708977824
30
0
41
1
10
60.0200424249522
20
-11.4412186050991
30
0
41
1
10
60.2146598181669
20
-10.6719268859327
30
0
41
1
10
60.3119685147743
20
-10.2390079258923
30
0
41
1
10
60.5065859079889
20
-9.29012590825462
30
0
41
1
10
60.6038946045963
20
-8.77422905573229
30
0
41
1
10
60.798511997811
20
-7.67931265537914
30
0
41
1
10
60.8958206944183
20
-7.10038932088256
30
0
41
1
10
61.090438087633
20
-5.90320919646723
30
0
41
1
10
61.1877467842403
20
-5.28505357571143
30
0
41
1
10
61.382364177455
20
-4.03400409241792
30
0
41
1
10
61.4796728740623
20
-3.4011925706622
30
0
41
1
10
61.674290267277
20
-2.14339378485468
30
0
41
1
10
61.7715989638843
20
-1.51845612183371
30
0
41
1
10
61.9175620087954
20
-0.600798980128502
30
0
41
1
10
61.966216357099
20
-0.298173999221291
30
0
41
1
10
62.0635250537064
20
0.298744688999648
30
0
41
1
10
62.1121794020101
20
0.601379743978157
30
0
41
1
10
62.1608337503138
20
0.90726959046205
30
0
0
SPLINE
5
FA
100
AcDbEntity
8
1
62
256
6
ByLayer
370
13
48
1
60
0
100
AcDbSpline
70
4
71
3
72
43
73
39
40
0
40
0
40
0
40
0
40
0.0624999999999988
40
0.0624999999999988
40
0.124999999999998
40
0.124999999999998
40
0.187499999999996
40
0.187499999999996
40
0.249999999999995
40
0.249999999999995
40
0.312499999999994
40
0.312499999999994
40
0.320312499999994
40
0.320312499999994
40
0.328124999999994
40
0.343749999999994
40
0.343749999999994
40
0.374999999999995
40
0.374999999999995
40
0.437499999999995
40
0.437499999999995
40
0.499999999999996
40
0.499999999999996
40
0.562499999999996
40
0.562499999999996
40
0.624999999999997
40
0.624999999999997
40
0.687499999999997
40
0.687499999999997
40
0.749999999999998
40
0.749999999999998
40
0.812499999999998
40
0.812499999999998
40
0.874999999999999
40
0.874999999999999
40
0.937499999999999
40
0.937499999999999
40
1
40
1
40
1
40
1
41
1
10
49.9
20
-8.76427877264973
30
0
41
1
10
49.9932563679606
20
-8.26084436179181
30
0
41
1
10
50.0865127359212
20
-7.72519578692473
30
0
41
1
10
50.2730254718424
20
-6.60935004815585
30
0
41
1
10
50.366281839803
20
-6.02923575091339
30
0
41
1
10
50.5527945757242
20
-4.84614134123328
30
0
41
1
10
50.6460509436848
20
-4.24323613658379
30
0
41
1
10
50.832563679606
20
-3.03546358574101
30
0
41
1
10
50.9258200475666
20
-2.43064924701574
30
0
41
1
10
51.1123327834878
20
-1.23721738217776
30
0
41
1
10
51.2055891514484
20
-0.648625675711912
30
0
41
1
10
51.310502565404
20
-0.0035692576050792
30
0
41
1
10
51.3221596113992
20
0.0678529794522547
30
0
41
1
10
51.3454737033893
20
0.211477939396303
30
0
41
1
10
51.3804448413745
20
0.427609223274203
30
0
41
1
10
51.4154159793598
20
0.645714314745589
30
0
41
1
10
51.4853582553302
20
1.08424535936612
30
0
41
1
10
51.5319864393105
20
1.37970195241166
30
0
41
1
10
51.6718709912514
20
2.27259412202704
30
0
41
1
10
51.765127359212
20
2.87666086552875
30
0
41
1
10
51.9516400951333
20
4.08465683071398
30
0
41
1
10
52.0448964630939
20
4.68853534595092
30
0
41
1
10
52.2314091990151
20
5.87546838296214
30
0
41
1
10
52.3246655669757
20
6.45844947171125
30
0
41
1
10
52.5111783028968
20
7.58189833638332
30
0
41
1
10
52.6044346708575
20
8.12228321406093
30
0
41
1
10
52.7909474067787
20
9.14025187971839
30
0
41
1
10
52.8842037747393
20
9.61776213355111
30
0
41
1
10
53.0707165106605
20
10.4935174222761
30
0
41
1
10
53.1639728786211
20
10.8917159300475
30
0
41
1
10
53.3504856145423
20
11.5980717046646
30
0
41
1
10
53.4437419825029
20
11.9062189694851
30
0
41
1
10
53.6302547184241
20
12.42825894772
30
0
41
1
10
53.7235110863847
20
12.6421764088585
30
0
41
1
10
53.9100238223059
20
12.9778675513975
30
0
41
1
10
54.0032801902665
20
13.0996897755813
30
0
41
1
10
54.1897929261877
20
13.2584771393291
30
0
41
1
10
54.2830492941482
20
13.2955
30
0
41
1
10
54.3763056621089
20
13.2955
30
0
0
SPLINE
5
FB
100
AcDbEntity
8
1
62
256
6
ByLayer
370
13
48
1
60
0
100
AcDbSpline
70
4
71
3
72
85
73
81
40
0
40
0
40
0
40
0
40
0.0312499999999997
40
0.0312499999999997
40
0.0624999999999994
40
0.0624999999999994
40
0.0937499999999991
40
0.0937499999999991
40
0.124999999999999
40
0.124999999999999
40
0.156249999999998
40
0.156249999999998
40
0.187499999999998
40
0.187499999999998
40
0.218749999999998
40
0.218749999999998
40
0.249999999999997
40
0.249999999999997
40
0.281249999999997
40
0.281249999999997
40
0.296874999999997
40
0.296874999999997
40
0.304687499999997
40
0.308593749999997
40
0.308593749999997
40
0.312499999999997
40
0.312499999999997
40
0.343749999999997
40
0.343749999999997
40
0.374999999999996
40
0.374999999999996
40
0.406249999999996
40
0.406249999999996
40
0.437499999999996
40
0.437499999999996
40
0.468749999999995
40
0.468749999999995
40
0.499999999999995
40
0.499999999999995
40
0.531249999999995
40
0.531249999999995
40
0.562499999999995
40
0.562499999999995
40
0.593749999999994
40
0.593749999999994
40
0.609374999999994
40
0.609374999999994
40
0.617187499999994
40
0.621093749999994
40
0.621093749999994
40
0.624999999999994
40
0.624999999999994
40
0.656249999999994
40
0.656249999999994
40
0.687499999999995
40
0.687499999999995
40
0.718749999999995
40
0.718749999999995
40
0.749999999999996
40
0.749999999999996
40
0.781249999999996
40
0.781249999999996
40
0.812499999999997
40
0.812499999999997
40
0.843749999999997
40
0.843749999999997
40
0.874999999999998
40
0.874999999999998
40
0.906249999999998
40
0.906249999999998
40
0.921874999999998
40
0.921874999999998
40
0.929687499999999
40
0.933593749999999
40
0.933593749999999
40
0.937499999999999
40
0.937499999999999
40
0.968749999999999
40
0.968749999999999
40
1
40
1
40
1
40
1
41
1
10
52.3326658321812
20
13.2955
30
0
41
1
10
52.4350425813285
20
13.2955
30
0
41
1
10
52.5374193304756
20
13.250851928883
30
0
41
1
10
52.7421728287701
20
13.058293864926
30
0
41
1
10
52.8445495779173
20
12.9102924790271
30
0
41
1
10
53.0493030762117
20
12.5022141443743
30
0
41
1
10
53.1516798253589
20
12.2420656592922
30
0
41
1
10
53.3564333236533
20
11.6087526852027
30
0
41
1
10
53.4588100728005
20
11.2355638388234
30
0
41
1
10
53.663563571095
20
10.3846432778203
30
0
41
1
10
53.7659403202422
20
9.90695092108828
30
0
41
1
10
53.9706938185366
20
8.86473159584466
30
0
41
1
10
54.0730705676838
20
8.30030255453283
30
0
41
1
10
54.2778240659783
20
7.10945023601266
30
0
41
1
10
54.3802008151255
20
6.483156468624
30
0
41
1
10
54.5849543134199
20
5.19701427727054
30
0
41
1
10
54.6873310625672
20
4.53729032167851
30
0
41
1
10
54.8920845608616
20
3.21237417236628
30
0
41
1
10
54.9944613100088
20
2.54727172326773
30
0
41
1
10
55.1480264337296
20
1.56383060901888
30
0
41
1
10
55.1992148083032
20
1.23834863096212
30
0
41
1
10
55.2759973701636
20
0.755514443802355
30
0
41
1
10
55.3143886510939
20
0.515440203073865
30
0
41
1
10
55.352779932024
20
0.277694543186755
30
0
41
1
10
55.3783741193108
20
0.119746969937125
30
0
41
1
10
55.3911712129542
20
0.0411873843583237
30
0
41
1
10
55.5063450557449
20
-0.666134140925692
30
0
41
1
10
55.6087218048921
20
-1.31339494477129
30
0
41
1
10
55.8134753031865
20
-2.62608631894943
30
0
41
1
10
55.9158520523337
20
-3.29147241301263
30
0
41
1
10
56.1206055506281
20
-4.6158964592515
30
0
41
1
10
56.2229822997753
20
-5.2748429256915
30
0
41
1
10
56.4277357980698
20
-6.55828472750775
30
0
41
1
10
56.530112547217
20
-7.18265473591401
30
0
41
1
10
56.7348660455114
20
-8.36857786718213
30
0
41
1
10
56.8372427946586
20
-8.93000204376074
30
0
41
1
10
57.0419962929531
20
-9.96534954298485
30
0
41
1
10
57.1443730421003
20
-10.4391768665669
30
0
41
1
10
57.3491265403947
20
-11.281842375827
30
0
41
1
10
57.4515032895419
20
-11.650643795937
30
0
41
1
10
57.6562567878364
20
-12.275040580843
30
0
41
1
10
57.7586335369835
20
-12.5306626060804
30
0
41
1
10
57.963387035278
20
-12.9298997911652
30
0
41
1
10
58.0657637844252
20
-13.0735878197075
30
0
41
1
10
58.219328908146
20
-13.2118945487378
30
0
41
1
10
58.2705172827196
20
-13.2451795684673
30
0
41
1
10
58.3472998445801
20
-13.2771117162359
30
0
41
1
10
58.3856911255102
20
-13.2885823690367
30
0
41
1
10
58.4240824064404
20
-13.2935674131529
30
0
41
1
10
58.4496765937271
20
-13.2954796638401
30
0
41
1
10
58.4624736873706
20
-13.2957322685727
30
0
41
1
10
58.5776475301613
20
-13.2917455558705
30
0
41
1
10
58.6800242793084
20
-13.2432393265646
30
0
41
1
10
58.8847777776028
20
-13.0424952884519
30
0
41
1
10
58.9871545267502
20
-12.8901663470483
30
0
41
1
10
59.1919080250445
20
-12.4732309990445
30
0
41
1
10
59.2942847741917
20
-12.2085544333605
30
0
41
1
10
59.4990382724861
20
-11.5663370876765
30
0
41
1
10
59.6014150216333
20
-11.1887742810229
30
0
41
1
10
59.8061685199278
20
-10.3296404093543
30
0
41
1
10
59.908545269075
20
-9.84811128651077
30
0
41
1
10
60.1132987673694
20
-8.79908809827492
30
0
41
1
10
60.2156755165166
20
-8.23169384395706
30
0
41
1
10
60.4204290148111
20
-7.03599736530848
30
0
41
1
10
60.5228057639583
20
-6.40782515426906
30
0
41
1
10
60.7275592622527
20
-5.11907255651772
30
0
41
1
10
60.8299360113999
20
-4.4586157314059
30
0
41
1
10
61.0346895096944
20
-3.13329076094229
30
0
41
1
10
61.1370662588416
20
-2.46851059965618
30
0
41
1
10
61.2906313825624
20
-1.48619800885277
30
0
41
1
10
61.341819757136
20
-1.16119906582563
30
0
41
1
10
61.4186023189964
20
-0.679227522851534
30
0
41
1
10
61.4569935999266
20
-0.439619099381133
30
0
41
1
10
61.4953848808568
20
-0.202386664831465
30
0
41
1
10
61.5209790681436
20
-0.0447912895554339
30
0
41
1
10
61.5337761617871
20
0.0335698030847027
30
0
41
1
10
61.6489500045776
20
0.742508941621878
30
0
41
1
10
61.7513267537249
20
1.39089087641173
30
0
41
1
10
61.9560802520193
20
2.70494995574026
30
0
41
1
10
62.0584570011665
20
3.37058073895898
30
0
41
1
10
62.1608337503137
20
4.03250484251348
30
0
0
SPLINE
5
FC
100
AcDbEntity
8
1
62
256
6
ByLayer
370
13
48
1
60
0
100
AcDbSpline
70
4
71
3
72
44
73
40
40
0
40
0
40
0
40
0
40
0.0625000000000016
40
0.0625000000000016
40
0.125000000000003
40
0.125000000000003
40
0.187500000000005
40
0.187500000000005
40
0.218750000000006
40
0.218750000000006
40
0.226562500000006
40
0.226562500000006
40
0.234375000000006
40
0.234375000000006
40
0.250000000000006
40
0.250000000000006
40
0.312500000000005
40
0.312500000000005
40
0.375000000000005
40
0.375000000000005
40
0.437500000000004
40
0.437500000000004
40
0.500000000000004
40
0.500000000000004
40
0.562500000000003
40
0.562500000000003
40
0.625000000000003
40
0.625000000000003
40
0.687500000000002
40
0.687500000000002
40
0.750000000000002
40
0.750000000000002
40
0.812500000000001
40
0.812500000000001
40
0.875000000000001
40
0.875000000000001
40
0.9375
40
0.9375
40
1
40
1
40
1
40
1
41
1
10
49.9
20
-5.89825216718441
30
0
41
1
10
49.9831202628808
20
-5.37696931461838
30
0
41
1
10
50.0662405257617
20
-4.84440136724803
30
0
41
1
10
50.2324810515234
20
-3.77173845122991
30
0
41
1
10
50.3156013144043
20
-3.23167852188823
30
0
41
1
10
50.481841840166
20
-2.15783697387349
30
0
41
1
10
50.5649621030469
20
-1.62407725256057
30
0
41
1
10
50.6896424973681
20
-0.836856297027907
30
0
41
1
10
50.7312026288085
20
-0.576666650408555
30
0
41
1
10
50.7831527931091
20
-0.254953561488776
30
0
41
1
10
50.7935428259691
20
-0.190786730489975
30
0
41
1
10
50.8143228916894
20
-0.062821795630839
30
0
41
1
10
50.8247129245495
20
0.0008497874421494
30
0
41
1
10
50.8558830231298
20
0.192436439960119
30
0
41
1
10
50.8766630888501
20
0.320909484819168
30
0
41
1
10
50.9805634174512
20
0.96667234493799
30
0
41
1
10
51.063683680332
20
1.49425796892092
30
0
41
1
10
51.2299242060936
20
2.56086634356109
30
0
41
1
10
51.3130444689745
20
3.099872936156
30
0
41
1
10
51.4792849947362
20
4.17637434050653
30
0
41
1
10
51.5624052576171
20
4.71383931556349
30
0
41
1
10
51.7286457833788
20
5.77256917086891
30
0
41
1
10
51.8117660462597
20
6.29379288500573
30
0
41
1
10
51.9780065720214
20
7.30469030999387
30
0
41
1
10
52.0611268349022
20
7.79431741208089
30
0
41
1
10
52.2273673606639
20
8.7273528671123
30
0
41
1
10
52.3104876235448
20
9.17071748847727
30
0
41
1
10
52.4767281493064
20
9.99862927191253
30
0
41
1
10
52.5598484121873
20
10.383143995936
30
0
41
1
10
52.7260889379491
20
11.0840013301475
30
0
41
1
10
52.8092092008299
20
11.4003286505813
30
0
41
1
10
52.9754497265915
20
11.9594356882536
30
0
41
1
10
53.0585699894725
20
12.2022187983784
30
0
41
1
10
53.2248105152342
20
12.6130210332213
30
0
41
1
10
53.307930778115
20
12.7810593658321
30
0
41
1
10
53.4741713038767
20
13.0449609304435
30
0
41
1
10
53.5572915667576
20
13.1408533792991
30
0
41
1
10
53.7235320925192
20
13.2661066010473
30
0
41
1
10
53.8066523554001
20
13.2955
30
0
41
1
10
53.889772618281
20
13.2955
30
0
0
SPLINE
5
FD
100
AcDbEntity
8
1
62
256
6
ByLayer
370
13
48
1
60
0
100
AcDbSpline
70
4
71
3
72
84
73
80
40
0
40
0
40
0
40
0
40
0.0312499999999998
40
0.0312499999999998
40
0.0624999999999997
40
0.0624999999999997
40
0.0937499999999995
40
0.0937499999999995
40
0.124999999999999
40
0.124999999999999
40
0.156249999999999
40
0.156249999999999
40
0.187499999999999
40
0.187499999999999
40
0.218749999999999
40
0.218749999999999
40
0.249999999999999
40
0.249999999999999
40
0.281249999999999
40
0.281249999999999
40
0.296874999999999
40
0.296874999999999
40
0.304687499999999
40
0.304687499999999
40
0.312499999999999
40
0.312499999999999
40
0.343749999999998
40
0.343749999999998
40
0.374999999999998
40
0.374999999999998
40
0.406249999999998
40
0.406249999999998
40
0.437499999999998
40
0.437499999999998
40
0.468749999999998
40
0.468749999999998
40
0.499999999999998
40
0.499999999999998
40
0.531249999999998
40
0.531249999999998
40
0.562499999999997
40
0.562499999999997
40
0.593749999999997
40
0.593749999999997
40
0.597656249999997
40
0.597656249999997
40
0.601562499999997
40
0.609374999999997
40
0.609374999999997
40
0.624999999999997
40
0.624999999999997
40
0.656249999999998
40
0.656249999999998
40
0.687499999999998
40
0.687499999999998
40
0.718749999999998
40
0.718749999999998
40
0.749999999999998
40
0.749999999999998
40
0.781249999999999
40
0.781249999999999
40
0.812499999999999
40
0.812499999999999
40
0.843749999999999
40
0.843749999999999
40
0.875
40
0.875
40
0.890625
40
0.890625
40
0.89453125
40
0.89453125
40
0.8984375
40
0.90625
40
0.90625
40
0.9375
40
0.9375
40
0.96875
40
0.96875
40
1
40
1
40
1
40
1
41
1
10
51.8461327883533
20
13.2955
30
0
41
1
10
51.9535775900404
20
13.2955
30
0
41
1
10
52.0610223917275
20
13.2463021007186
30
0
41
1
10
52.2759119951016
20
13.0334885509199
30
0
41
1
10
52.3833567967888
20
12.8697571150657
30
0
41
1
10
52.5982464001629
20
12.4182570230549
30
0
41
1
10
52.70569120185
20
12.1304019359025
30
0
41
1
10
52.9205808052242
20
11.4308379449656
30
0
41
1
10
53.0280256069112
20
11.0191093934208
30
0
41
1
10
53.2429152102854
20
10.0835129130855
30
0
41
1
10
53.3503600119725
20
9.559711312383
30
0
41
1
10
53.5652496153467
20
8.42256018575631
30
0
41
1
10
53.6726944170338
20
7.80934913537791
30
0
41
1
10
53.887584020408
20
6.52368768037056
30
0
41
1
10
53.995028822095
20
5.85140488931282
30
0
41
1
10
54.2099184254692
20
4.48084847200596
30
0
41
1
10
54.3173632271563
20
3.78272115779706
30
0
41
1
10
54.5322528305305
20
2.39176605953335
30
0
41
1
10
54.6396976322176
20
1.69902928948082
30
0
41
1
10
54.8008648347481
20
0.683146859429712
30
0
41
1
10
54.8545872355917
20
0.348337617145859
30
0
41
1
10
54.935170836857
20
-0.146266063901095
30
0
41
1
10
54.9620320372789
20
-0.312038197729436
30
0
41
1
10
55.0157544381224
20
-0.646196618903446
30
0
41
1
10
55.0426156385441
20
-0.814402742731374
30
0
41
1
10
55.1769216406531
20
-1.66025206229915
30
0
41
1
10
55.2843664423401
20
-2.35262044435115
30
0
41
1
10
55.4992560457143
20
-3.7433797158333
30
0
41
1
10
55.6067008474014
20
-4.44168078395876
30
0
41
1
10
55.8215904507756
20
-5.81320381880019
30
0
41
1
10
55.9290352524626
20
-6.48628027909191
30
0
41
1
10
56.1439248558368
20
-7.77414360331809
30
0
41
1
10
56.2513696575239
20
-8.38876280831275
30
0
41
1
10
56.4662592608981
20
-9.52924446170832
30
0
41
1
10
56.5737040625852
20
-10.0549674249734
30
0
41
1
10
56.7885936659593
20
-10.9947406658677
30
0
41
1
10
56.8960384676464
20
-11.4087230192533
30
0
41
1
10
57.1109280710206
20
-12.1129095702097
30
0
41
1
10
57.2183728727077
20
-12.4031318862903
30
0
41
1
10
57.433262476082
20
-12.8592728837718
30
0
41
1
10
57.540707277769
20
-13.0252770612391
30
0
41
1
10
57.7555968811431
20
-13.2423833093959
30
0
41
1
10
57.8630416828302
20
-13.2936009736508
30
0
41
1
10
57.9839170847282
20
-13.2956787860035
30
0
41
1
10
57.997347684939
20
-13.295145038247
30
0
41
1
10
58.0242088853608
20
-13.2925175349553
30
0
41
1
10
58.0645006859935
20
-13.2862344883752
30
0
41
1
10
58.1047924866262
20
-13.2727700674242
30
0
41
1
10
58.1853760878915
20
-13.235872839177
30
0
41
1
10
58.2390984887351
20
-13.1979720312102
30
0
41
1
10
58.4002656912657
20
-13.041574372491
30
0
41
1
10
58.5077104929528
20
-12.8801121862913
30
0
41
1
10
58.7226000963269
20
-12.4332495279605
30
0
41
1
10
58.830044898014
20
-12.1477617037995
30
0
41
1
10
59.0449345013882
20
-11.4528244946092
30
0
41
1
10
59.1523793030753
20
-11.0433539398594
30
0
41
1
10
59.3672689064495
20
-10.1119465368361
30
0
41
1
10
59.4747137081366
20
-9.59007441548766
30
0
41
1
10
59.6896033115107
20
-8.45627283003239
30
0
41
1
10
59.7970481131978
20
-7.84448081594797
30
0
41
1
10
60.0119377165719
20
-6.56104403657724
30
0
41
1
10
60.1193825182591
20
-5.88956682087095
30
0
41
1
10
60.3342721216332
20
-4.52000010107722
30
0
41
1
10
60.4417169233203
20
-3.82205770230777
30
0
41
1
10
60.6566065266945
20
-2.4309270511192
30
0
41
1
10
60.7640513283816
20
-1.73783100303314
30
0
41
1
10
60.9252185309122
20
-0.721096981898029
30
0
41
1
10
60.9789409317557
20
-0.385952050910674
30
0
41
1
10
61.0460939328102
20
0.0266909750621949
30
0
41
1
10
61.0595245330211
20
0.109065020198159
30
0
41
1
10
61.0863857334429
20
0.274798529674683
30
0
41
1
10
61.1266775340754
20
0.524308214659925
30
0
41
1
10
61.1669693347081
20
0.776379511709166
30
0
41
1
10
61.301275336817
20
1.62149980797389
30
0
41
1
10
61.4087201385041
20
2.31349073881228
30
0
41
1
10
61.6236097418783
20
3.7040339851176
30
0
41
1
10
61.7310545435654
20
4.40249767416424
30
0
41
1
10
61.9459441469396
20
5.77496427376022
30
0
41
1
10
62.0533889486267
20
6.44882249566413
30
0
41
1
10
62.1608337503137
20
7.09384367028147
30
0
0
SPLINE
5
FE
100
AcDbEntity
8
1
62
256
6
ByLayer
370
13
48
1
60
0
100
AcDbSpline
70
4
71
3
72
8
73
4
40
0
40
0
40
0
40
0
40
1
40
1
40
1
40
1
41
1
10
62.1608337503136
20
-13.1927764180814
30
0
41
1
10
63.7738891668757
20
-8.79252348495069
30
0
41
1
10
65.3869445834378
20
-4.39487986570276
30
0
41
1
10
66.9999999999999
20
-3.126E-13
30
0
0
SPLINE
5
FF
100
AcDbEntity
8
1
62
256
6
ByLayer
370
13
48
1
60
0
100
AcDbSpline
70
4
71
3
72
8
73
4
40
0
40
0
40
0
40
0
40
1
40
1
40
1
40
1
41
1
10
62.1608337503138
20
11.4016323749224
30
0
41
1
10
63.7738891668758
20
7.5900564249815
30
0
41
1
10
65.3869445834379
20
3.78946784347258
30
0
41
1
10
66.9999999999999
20
2.842E-13
30
0
0
SPLINE
5
100
100
AcDbEntity
8
1
62
256
6
ByLayer
370
13
48
1
60
0
100
AcDbSpline
70
4
71
3
72
8
73
4
40
0
40
0
40
0
40
0
40
1
40
1
40
1
40
1
41
1
10
62.1608337503138
20
-6.53755722569051
30
0
41
1
10
63.7738891668758
20
-4.37704608667676
30
0
41
1
10
65.3869445834379
20
-2.19783475637061
30
0
41
1
10
66.9999999999999
20
-1.705E-13
30
0
0
SPLINE
5
101
100
AcDbEntity
8
1
62
256
6
ByLayer
370
13
48
1
60
0
100
AcDbSpline
70
4
71
3
72
8
73
4
40
0
40
0
40
0
40
0
40
1
40
1
40
1
40
1
41
1
10
62.1608337503138
20
9.97799506454086
30
0
41
1
10
63.7738891668758
20
6.63782292339474
30
0
41
1
10
65.3869445834379
20
3.31178568060986
30
0
41
1
10
66.9999999999999
20
2.558E-13
30
0
0
SPLINE
5
102
100
AcDbEntity
8
1
62
256
6
ByLayer
370
13
48
1
60
0
100
AcDbSpline
70
4
71
3
72
8
73
4
40
0
40
0
40
0
40
0
40
1
40
1
40
1
40
1
41
1
10
62.1608337503137
20
13.2931119641966
30
0
41
1
10
63.7738891668758
20
8.86248110254024
30
0
41
1
10
65.3869445834379
20
4.43139189768158
30
0
41
1
10
67
20
0
30
0
0
SPLINE
5
103
100
AcDbEntity
8
1
62
256
6
ByLayer
370
13
48
1
60
0
100
AcDbSpline
70
4
71
3
72
8
73
4
40
0
40
0
40
0
40
0
40
1
40
1
40
1
40
1
41
1
10
62.1608337503136
20
-13.2880261418385
30
0
41
1
10
63.7738891668758
20
-8.85796509602099
30
0
41
1
10
65.3869445834381
20
-4.42857118952347
30
0
41
1
10
67.0000000000003
20
9.379E-13
30
0
0
SPLINE
5
104
100
AcDbEntity
8
1
62
256
6
ByLayer
370
13
48
1
60
0
100
AcDbSpline
70
4
71
3
72
8
73
4
40
0
40
0
40
0
40
0
40
1
40
1
40
1
40
1
41
1
10
62.1608337503136
20
-10.4252264764479
30
0
41
1
10
63.7738891668758
20
-6.93684108029561
30
0
41
1
10
65.386944583438
20
-3.46172495133081
30
0
41
1
10
67.0000000000001
20
2.274E-13
30
0
0
SPLINE
5
105
100
AcDbEntity
8
1
62
256
6
ByLayer
370
13
48
1
60
0
100
AcDbSpline
70
4
71
3
72
8
73
4
40
0
40
0
40
0
40
0
40
1
40
1
40
1
40
1
41
1
10
62.1608337503137
20
11.8343110837344
30
0
41
1
10
63.7738891668758
20
7.89931527950787
30
0
41
1
10
65.3869445834379
20
3.95449869181479
30
0
41
1
10
67
20
0
30
0
0
SPLINE
5
106
100
AcDbEntity
8
1
62
256
6
ByLayer
370
13
48
1
60
0
100
AcDbSpline
70
4
71
3
72
8
73
4
40
0
40
0
40
0
40
0
40
1
40
1
40
1
40
1
41
1
10
62.1608337503136
20
-7.81904037953279
30
0
41
1
10
63.7738891668758
20
-5.1953479575279
30
0
41
1
10
65.3869445834381
20
-2.58897071500613
30
0
41
1
10
67.0000000000003
20
5.4E-13
30
0
0
SPLINE
5
107
100
AcDbEntity
8
1
62
256
6
ByLayer
370
13
48
1
60
0
100
AcDbSpline
70
4
71
3
72
8
73
4
40
0
40
0
40
0
40
0
40
1
40
1
40
1
40
1
41
1
10
62.1608337503137
20
-5.74703970528628
30
0
41
1
10
63.7738891668758
20
-3.8120204964078
30
0
41
1
10
65.3869445834379
20
-1.89631823992343
30
0
41
1
10
67
20
0
30
0
0
SPLINE
5
108
100
AcDbEntity
8
1
62
256
6
ByLayer
370
13
48
1
60
0
100
AcDbSpline
70
4
71
3
72
8
73
4
40
0
40
0
40
0
40
0
40
1
40
1
40
1
40
1
41
1
10
62.1608337503137
20
7.97496718393364
30
0
41
1
10
63.7738891668758
20
5.33380471349838
30
0
41
1
10
65.3869445834379
20
2.67545112626863
30
0
41
1
10
66.9999999999999
20
1.137E-13
30
0
0
SPLINE
5
109
100
AcDbEntity
8
1
62
256
6
ByLayer
370
13
48
1
60
0
100
AcDbSpline
70
4
71
3
72
8
73
4
40
0
40
0
40
0
40
0
40
1
40
1
40
1
40
1
41
1
10
62.1608337503138
20
5.11015714382225
30
0
41
1
10
63.7738891668758
20
3.38697242311778
30
0
41
1
10
65.3869445834379
20
1.68356684128017
30
0
41
1
10
66.9999999999999
20
1.137E-13
30
0
0
SPLINE
5
10A
100
AcDbEntity
8
1
62
256
6
ByLayer
370
13
48
1
60
0
100
AcDbSpline
70
4
71
3
72
8
73
4
40
0
40
0
40
0
40
0
40
1
40
1
40
1
40
1
41
1
10
62.1608337503138
20
-5.46018336591462
30
0
41
1
10
63.7738891668758
20
-3.65967662210602
30
0
41
1
10
65.3869445834379
20
-1.83959411318904
30
0
41
1
10
66.9999999999999
20
-1.421E-13
30
0
0
SPLINE
5
10B
100
AcDbEntity
8
1
62
256
6
ByLayer
370
13
48
1
60
0
100
AcDbSpline
70
4
71
3
72
8
73
4
40
0
40
0
40
0
40
0
40
1
40
1
40
1
40
1
41
1
10
62.1608337503138
20
-4.33776761128476
30
0
41
1
10
63.7738891668758
20
-2.9121179205508
30
0
41
1
10
65.3869445834379
20
-1.46617837439854
30
0
41
1
10
66.9999999999999
20
-1.137E-13
30
0
0
SPLINE
5
10C
100
AcDbEntity
8
1
62
256
6
ByLayer
370
13
48
1
60
0
100
AcDbSpline
70
4
71
3
72
8
73
4
40
0
40
0
40
0
40
0
40
1
40
1
40
1
40
1
41
1
10
62.1608337503138
20
12.8218363005601
30
0
41
1
10
63.7738891668758
20
8.54221739681753
30
0
41
1
10
65.3869445834379
20
4.26822194291566
30
0
41
1
10
66.9999999999999
20
3.126E-13
30
0
0
SPLINE
5
10D
100
AcDbEntity
8
1
62
256
6
ByLayer
370
13
48
1
60
0
100
AcDbSpline
70
4
71
3
72
8
73
4
40
0
40
0
40
0
40
0
40
1
40
1
40
1
40
1
41
1
10
62.1608337503138
20
11.9751236349456
30
0
41
1
10
63.7738891668758
20
7.97409811208823
30
0
41
1
10
65.3869445834379
20
3.98234353226084
30
0
41
1
10
66.9999999999999
20
2.842E-13
30
0
0
SPLINE
5
10E
100
AcDbEntity
8
1
62
256
6
ByLayer
370
13
48
1
60
0
100
AcDbSpline
70
4
71
3
72
8
73
4
40
0
40
0
40
0
40
0
40
1
40
1
40
1
40
1
41
1
10
62.1608337503136
20
-11.1308824043382
30
0
41
1
10
63.7738891668758
20
-7.40885904081534
30
0
41
1
10
65.386944583438
20
-3.69852150893678
30
0
41
1
10
67.0000000000001
20
2.558E-13
30
0
0
SPLINE
5
10F
100
AcDbEntity
8
1
62
256
6
ByLayer
370
13
48
1
60
0
100
AcDbSpline
70
4
71
3
72
8
73
4
40
0
40
0
40
0
40
0
40
1
40
1
40
1
40
1
41
1
10
62.1608337503136
20
-11.7447179662647
30
0
41
1
10
63.7738891668758
20
-7.81976018024292
30
0
41
1
10
65.3869445834381
20
-3.90480839209434
30
0
41
1
10
67.0000000000003
20
8.242E-13
30
0
0
SPLINE
5
110
100
AcDbEntity
8
1
62
256
6
ByLayer
370
13
48
1
60
0
100
AcDbSpline
70
4
71
3
72
8
73
4
40
0
40
0
40
0
40
0
40
1
40
1
40
1
40
1
41
1
10
62.1608337503138
20
1.61721092030123
30
0
41
1
10
63.7738891668758
20
1.05685347933016
30
0
41
1
10
65.3869445834379
20
0.517776943809793
30
0
41
1
10
66.9999999999999
20
2.84E-14
30
0
0
SPLINE
5
111
100
AcDbEntity
8
1
62
256
6
ByLayer
370
13
48
1
60
0
100
AcDbSpline
70
4
71
3
72
8
73
4
40
0
40
0
40
0
40
0
40
1
40
1
40
1
40
1
41
1
10
62.1608337503138
20
-0.794255865427402
30
0
41
1
10
63.7738891668758
20
-0.550911986398148
30
0
41
1
10
65.3869445834379
20
-0.286156847789357
30
0
41
1
10
66.9999999999999
20
-2.84E-14
30
0
0
SPLINE
5
112
100
AcDbEntity
8
1
62
256
6
ByLayer
370
13
48
1
60
0
100
AcDbSpline
70
4
71
3
72
8
73
4
40
0
40
0
40
0
40
0
40
1
40
1
40
1
40
1
41
1
10
62.1608337503137
20
12.3352989102003
30
0
41
1
10
63.7738891668758
20
8.23153484466931
30
0
41
1
10
65.3869445834379
20
4.11972036642572
30
0
41
1
10
67
20
0
30
0
0
SPLINE
5
113
100
AcDbEntity
8
1
62
256
6
ByLayer
370
13
48
1
60
0
100
AcDbSpline
70
4
71
3
72
8
73
4
40
0
40
0
40
0
40
0
40
1
40
1
40
1
40
1
41
1
10
62.1608337503138
20
13.246344251514
30
0
41
1
10
63.7738891668758
20
8.82905369102588
30
0
41
1
10
65.3869445834379
20
4.41355391503592
30
0
41
1
10
66.9999999999999
20
3.126E-13
30
0
0
SPLINE
5
114
100
AcDbEntity
8
1
62
256
6
ByLayer
370
13
48
1
60
0
100
AcDbSpline
70
4
71
3
72
8
73
4
40
0
40
0
40
0
40
0
40
1
40
1
40
1
40
1
41
1
10
62.1608337503137
20
4.81670109890737
30
0
41
1
10
63.7738891668758
20
3.23112357237406
30
0
41
1
10
65.3869445834379
20
1.62553766221717
30
0
41
1
10
67
20
0
30
0
0
SPLINE
5
115
100
AcDbEntity
8
1
62
256
6
ByLayer
370
13
48
1
60
0
100
AcDbSpline
70
4
71
3
72
8
73
4
40
0
40
0
40
0
40
0
40
1
40
1
40
1
40
1
41
1
10
62.1608337503137
20
6.97686227313997
30
0
41
1
10
63.7738891668758
20
4.66949783356483
30
0
41
1
10
65.3869445834379
20
2.34384977450486
30
0
41
1
10
66.9999999999999
20
8.53E-14
30
0
0
SPLINE
5
116
100
AcDbEntity
8
1
62
256
6
ByLayer
370
13
48
1
60
0
100
AcDbSpline
70
4
71
3
72
8
73
4
40
0
40
0
40
0
40
0
40
1
40
1
40
1
40
1
41
1
10
62.1608337503138
20
2.80789949091638
30
0
41
1
10
63.7738891668758
20
1.85097034606508
30
0
41
1
10
65.3869445834379
20
0.914992971918082
30
0
41
1
10
66.9999999999999
20
5.68E-14
30
0
0
SPLINE
5
117
100
AcDbEntity
8
1
62
256
6
ByLayer
370
13
48
1
60
0
100
AcDbSpline
70
4
71
3
72
8
73
4
40
0
40
0
40
0
40
0
40
1
40
1
40
1
40
1
41
1
10
62.1608337503137
20
-4.63553810737184
30
0
41
1
10
63.7738891668758
20
-3.07025809317534
30
0
41
1
10
65.3869445834379
20
-1.52506071039579
30
0
41
1
10
66.9999999999999
20
-1.137E-13
30
0
0
SPLINE
5
118
100
AcDbEntity
8
1
62
256
6
ByLayer
370
13
48
1
60
0
100
AcDbSpline
70
4
71
3
72
8
73
4
40
0
40
0
40
0
40
0
40
1
40
1
40
1
40
1
41
1
10
62.1608337503136
20
-10.9547410578093
30
0
41
1
10
63.7738891668758
20
-7.31531376580497
30
0
41
1
10
65.3869445834381
20
-3.66369061035644
30
0
41
1
10
67.0000000000003
20
7.674E-13
30
0
0
SPLINE
5
119
100
AcDbEntity
8
1
62
256
6
ByLayer
370
13
48
1
60
0
100
AcDbSpline
70
4
71
3
72
8
73
4
40
0
40
0
40
0
40
0
40
1
40
1
40
1
40
1
41
1
10
62.1608337503138
20
-7.5610017674513
30
0
41
1
10
63.7738891668758
20
-5.05830862289091
30
0
41
1
10
65.3869445834379
20
-2.53794512161667
30
0
41
1
10
66.9999999999999
20
-1.99E-13
30
0
0
SPLINE
5
11A
100
AcDbEntity
8
1
62
256
6
ByLayer
370
13
48
1
60
0
100
AcDbSpline
70
4
71
3
72
8
73
4
40
0
40
0
40
0
40
0
40
1
40
1
40
1
40
1
41
1
10
62.1608337503137
20
13.2154209480287
30
0
41
1
10
63.7738891668758
20
8.81263092041704
30
0
41
1
10
65.3869445834379
20
4.40743901658243
30
0
41
1
10
67
20
0
30
0
0
SPLINE
5
11B
100
AcDbEntity
8
1
62
256
6
ByLayer
370
13
48
1
60
0
100
AcDbSpline
70
4
71
3
72
8
73
4
40
0
40
0
40
0
40
0
40
1
40
1
40
1
40
1
41
1
10
62.1608337503136
20
-9.63357124719491
30
0
41
1
10
63.7738891668758
20
-6.40760004765201
30
0
41
1
10
65.386944583438
20
-3.19637209060792
30
0
41
1
10
67.0000000000001
20
2.274E-13
30
0
0
SPLINE
5
11C
100
AcDbEntity
8
1
62
256
6
ByLayer
370
13
48
1
60
0
100
AcDbSpline
70
4
71
3
72
8
73
4
40
0
40
0
40
0
40
0
40
1
40
1
40
1
40
1
41
1
10
62.1608337503137
20
-1.10977246266742
30
0
41
1
10
63.7738891668758
20
-0.718476771388964
30
0
41
1
10
65.3869445834379
20
-0.34854836923131
30
0
41
1
10
66.9999999999999
20
-2.84E-14
30
0
0
SPLINE
5
11D
100
AcDbEntity
8
1
62
256
6
ByLayer
370
13
48
1
60
0
100
AcDbSpline
70
4
71
3
72
8
73
4
40
0
40
0
40
0
40
0
40
1
40
1
40
1
40
1
41
1
10
62.1608337503138
20
12.4498302528641
30
0
41
1
10
63.7738891668758
20
8.29236023381227
30
0
41
1
10
65.3869445834379
20
4.1423682549493
30
0
41
1
10
66.9999999999999
20
3.126E-13
30
0
0
SPLINE
5
11E
100
AcDbEntity
8
1
62
256
6
ByLayer
370
13
48
1
60
0
100
AcDbSpline
70
4
71
3
72
8
73
4
40
0
40
0
40
0
40
0
40
1
40
1
40
1
40
1
41
1
10
62.1608337503136
20
-12.5785681127255
30
0
41
1
10
63.7738891668758
20
-8.39265944780547
30
0
41
1
10
65.386944583438
20
-4.19975429004498
30
0
41
1
10
67.0000000000001
20
2.842E-13
30
0
0
SPLINE
5
11F
100
AcDbEntity
8
1
62
256
6
ByLayer
370
13
48
1
60
0
100
AcDbSpline
70
4
71
3
72
8
73
4
40
0
40
0
40
0
40
0
40
1
40
1
40
1
40
1
41
1
10
62.1608337503136
20
-6.81113308615406
30
0
41
1
10
63.7738891668758
20
-4.52233695453674
30
0
41
1
10
65.386944583438
20
-2.25193274777064
30
0
41
1
10
67.0000000000001
20
1.421E-13
30
0
0
SPLINE
5
120
100
AcDbEntity
8
1
62
256
6
ByLayer
370
13
48
1
60
0
100
AcDbSpline
70
4
71
3
72
8
73
4
40
0
40
0
40
0
40
0
40
1
40
1
40
1
40
1
41
1
10
62.1608337503137
20
2.4979328526924
30
0
41
1
10
63.7738891668758
20
1.68635303736352
30
0
41
1
10
65.3869445834379
20
0.85369892170263
30
0
41
1
10
66.9999999999999
20
5.68E-14
30
0
0
SPLINE
5
121
100
AcDbEntity
8
1
62
256
6
ByLayer
370
13
48
1
60
0
100
AcDbSpline
70
4
71
3
72
8
73
4
40
0
40
0
40
0
40
0
40
1
40
1
40
1
40
1
41
1
10
62.1608337503136
20
-10.2259719411433
30
0
41
1
10
63.7738891668758
20
-6.83102083610285
30
0
41
1
10
65.3869445834381
20
-3.42232355780442
30
0
41
1
10
67.0000000000003
20
7.105E-13
30
0
0
SPLINE
5
122
100
AcDbEntity
8
1
62
256
6
ByLayer
370
13
48
1
60
0
100
AcDbSpline
70
4
71
3
72
8
73
4
40
0
40
0
40
0
40
0
40
1
40
1
40
1
40
1
41
1
10
62.1608337503136
20
-8.76244720268332
30
0
41
1
10
63.7738891668758
20
-5.82550173380167
30
0
41
1
10
65.386944583438
20
-2.90465186344858
30
0
41
1
10
67.0000000000001
20
1.99E-13
30
0
0
SPLINE
5
123
100
AcDbEntity
8
1
62
256
6
ByLayer
370
13
48
1
60
0
100
AcDbSpline
70
4
71
3
72
8
73
4
40
0
40
0
40
0
40
0
40
1
40
1
40
1
40
1
41
1
10
62.1608337503137
20
-2.30730149458017
30
0
41
1
10
63.7738891668758
20
-1.51708002794197
30
0
41
1
10
65.3869445834379
20
-0.747970606982534
30
0
41
1
10
67
20
0
30
0
0
SPLINE
5
124
100
AcDbEntity
8
1
62
256
6
ByLayer
370
13
48
1
60
0
100
AcDbSpline
70
4
71
3
72
8
73
4
40
0
40
0
40
0
40
0
40
1
40
1
40
1
40
1
41
1
10
62.1608337503137
20
5.92120414922911
30
0
41
1
10
63.7738891668758
20
3.96667154570201
30
0
41
1
10
65.3869445834379
20
1.99291364439719
30
0
41
1
10
67
20
0
30
0
0
SPLINE
5
125
100
AcDbEntity
8
1
62
256
6
ByLayer
370
13
48
1
60
0
100
AcDbSpline
70
4
71
3
72
8
73
4
40
0
40
0
40
0
40
0
40
1
40
1
40
1
40
1
41
1
10
62.1608337503138
20
10.7340872906631
30
0
41
1
10
63.7738891668758
20
7.14340319160993
30
0
41
1
10
65.3869445834379
20
3.56533224989366
30
0
41
1
10
66.9999999999999
20
2.558E-13
30
0
0
SPLINE
5
126
100
AcDbEntity
8
1
62
256
6
ByLayer
370
13
48
1
60
0
100
AcDbSpline
70
4
71
3
72
8
73
4
40
0
40
0
40
0
40
0
40
1
40
1
40
1
40
1
41
1
10
62.1608337503138
20
0.413181727339293
30
0
41
1
10
63.7738891668758
20
0.254018465217797
30
0
41
1
10
65.3869445834379
20
0.116289693821614
30
0
41
1
10
66.9999999999999
20
0
30
0
0
SPLINE
5
127
100
AcDbEntity
8
1
62
256
6
ByLayer
370
13
48
1
60
0
100
AcDbSpline
70
4
71
3
72
8
73
4
40
0
40
0
40
0
40
0
40
1
40
1
40
1
40
1
41
1
10
62.1608337503138
20
-3.17956894250079
30
0
41
1
10
63.7738891668758
20
-2.14053670905599
30
0
41
1
10
65.3869445834379
20
-1.08066790403012
30
0
41
1
10
66.9999999999999
20
-8.53E-14
30
0
0
SPLINE
5
128
100
AcDbEntity
8
1
62
256
6
ByLayer
370
13
48
1
60
0
100
AcDbSpline
70
4
71
3
72
8
73
4
40
0
40
0
40
0
40
0
40
1
40
1
40
1
40
1
41
1
10
62.1608337503136
20
-9.41284720451262
30
0
41
1
10
63.7738891668757
20
-6.29037776179496
30
0
41
1
10
65.3869445834378
20
-3.15272523030916
30
0
41
1
10
66.9999999999999
20
-2.274E-13
30
0
0
SPLINE
5
129
100
AcDbEntity
8
1
62
256
6
ByLayer
370
13
48
1
60
0
100
AcDbSpline
70
4
71
3
72
8
73
4
40
0
40
0
40
0
40
0
40
1
40
1
40
1
40
1
41
1
10
62.1608337503136
20
-13.2736608881878
30
0
41
1
10
63.7738891668758
20
-8.85033598661639
30
0
41
1
10
65.3869445834381
20
-4.42573054646695
30
0
41
1
10
67.0000000000003
20
9.095E-13
30
0
0
SPLINE
5
12A
100
AcDbEntity
8
1
62
256
6
ByLayer
370
13
48
1
60
0
100
AcDbSpline
70
4
71
3
72
8
73
4
40
0
40
0
40
0
40
0
40
1
40
1
40
1
40
1
41
1
10
62.1608337503136
20
-8.52207443929953
30
0
41
1
10
63.7738891668758
20
-5.69784439099809
30
0
41
1
10
65.3869445834381
20
-2.85711958605972
30
0
41
1
10
67.0000000000003
20
5.969E-13
30
0
0
SPLINE
5
12B
100
AcDbEntity
8
1
62
256
6
ByLayer
370
13
48
1
60
0
100
AcDbSpline
70
4
71
3
72
8
73
4
40
0
40
0
40
0
40
0
40
1
40
1
40
1
40
1
41
1
10
62.1608337503136
20
-12.261669537989
30
0
41
1
10
63.7738891668758
20
-8.1661549116954
30
0
41
1
10
65.3869445834381
20
-4.07888390848399
30
0
41
1
10
67.0000000000003
20
8.527E-13
30
0
0
SPLINE
5
12C
100
AcDbEntity
8
1
62
256
6
ByLayer
370
13
48
1
60
0
100
AcDbSpline
70
4
71
3
72
8
73
4
40
0
40
0
40
0
40
0
40
1
40
1
40
1
40
1
41
1
10
62.1608337503137
20
-3.48579724054798
30
0
41
1
10
63.7738891668758
20
-2.30316865732507
30
0
41
1
10
65.3869445834379
20
-1.14122271981751
30
0
41
1
10
67
20
0
30
0
0
SPLINE
5
12D
100
AcDbEntity
8
1
62
256
6
ByLayer
370
13
48
1
60
0
100
AcDbSpline
70
4
71
3
72
8
73
4
40
0
40
0
40
0
40
0
40
1
40
1
40
1
40
1
41
1
10
62.1608337503138
20
8.2257966603849
30
0
41
1
10
63.7738891668758
20
5.4670154151178
30
0
41
1
10
65.3869445834379
20
2.72505115617258
30
0
41
1
10
66.9999999999999
20
1.99E-13
30
0
0
SPLINE
5
12E
100
AcDbEntity
8
1
62
256
6
ByLayer
370
13
48
1
60
0
100
AcDbSpline
70
4
71
3
72
8
73
4
40
0
40
0
40
0
40
0
40
1
40
1
40
1
40
1
41
1
10
62.1608337503137
20
12.7345309531565
30
0
41
1
10
63.7738891668758
20
8.49585120912971
30
0
41
1
10
65.3869445834379
20
4.25095783224057
30
0
41
1
10
67
20
0
30
0
0
SPLINE
5
12F
100
AcDbEntity
8
1
62
256
6
ByLayer
370
13
48
1
60
0
100
AcDbSpline
70
4
71
3
72
8
73
4
40
0
40
0
40
0
40
0
40
1
40
1
40
1
40
1
41
1
10
62.1608337503136
20
-12.1359109700048
30
0
41
1
10
63.7738891668757
20
-8.09936695952672
30
0
41
1
10
65.3869445834378
20
-4.05401590325295
30
0
41
1
10
66.9999999999999
20
-2.842E-13
30
0
0
SPLINE
5
130
100
AcDbEntity
8
1
62
256
6
ByLayer
370
13
48
1
60
0
100
AcDbSpline
70
4
71
3
72
8
73
4
40
0
40
0
40
0
40
0
40
1
40
1
40
1
40
1
41
1
10
62.1608337503138
20
-1.99514151904111
30
0
41
1
10
63.7738891668758
20
-1.35129788005656
30
0
41
1
10
65.3869445834379
20
-0.686242837421389
30
0
41
1
10
66.9999999999999
20
-5.68E-14
30
0
0
SPLINE
5
131
100
AcDbEntity
8
1
62
256
6
ByLayer
370
13
48
1
60
0
100
AcDbSpline
70
4
71
3
72
8
73
4
40
0
40
0
40
0
40
0
40
1
40
1
40
1
40
1
41
1
10
62.1608337503137
20
13.0287138858965
30
0
41
1
10
63.7738891668758
20
8.69008398642615
30
0
41
1
10
65.3869445834379
20
4.34712849115959
30
0
41
1
10
67
20
0
30
0
0
SPLINE
5
132
100
AcDbEntity
8
1
62
256
6
ByLayer
370
13
48
1
60
0
100
AcDbSpline
70
4
71
3
72
8
73
4
40
0
40
0
40
0
40
0
40
1
40
1
40
1
40
1
41
1
10
62.1608337503136
20
-12.6774727062527
30
0
41
1
10
63.7738891668758
20
-8.4451857715994
30
0
41
1
10
65.386944583438
20
-4.21931208231879
30
0
41
1
10
67.0000000000001
20
2.842E-13
30
0
0
SPLINE
5
133
100
AcDbEntity
8
1
62
256
6
ByLayer
370
13
48
1
60
0
100
AcDbSpline
70
4
71
3
72
8
73
4
40
0
40
0
40
0
40
0
40
1
40
1
40
1
40
1
41
1
10
62.1608337503137
20
3.6724643382135
30
0
41
1
10
63.7738891668758
20
2.46892156227591
30
0
41
1
10
65.3869445834379
20
1.24475236911181
30
0
41
1
10
67
20
0
30
0
0
SPLINE
5
134
100
AcDbEntity
8
1
62
256
6
ByLayer
370
13
48
1
60
0
100
AcDbSpline
70
4
71
3
72
8
73
4
40
0
40
0
40
0
40
0
40
1
40
1
40
1
40
1
41
1
10
62.1608337503136
20
-11.59314282565
30
0
41
1
10
63.7738891668757
20
-7.739261543819
30
0
41
1
10
65.3869445834378
20
-3.87483531391646
30
0
41
1
10
66.9999999999999
20
-2.842E-13
30
0
0
SPLINE
5
135
100
AcDbEntity
8
1
62
256
6
ByLayer
370
13
48
1
60
0
100
AcDbSpline
70
4
71
3
72
8
73
4
40
0
40
0
40
0
40
0
40
1
40
1
40
1
40
1
41
1
10
62.1608337503137
20
11.23570019962
30
0
41
1
10
63.7738891668758
20
7.50193304408543
30
0
41
1
10
65.3869445834379
20
3.75665574748814
30
0
41
1
10
67
20
0
30
0
0
SPLINE
5
136
100
AcDbEntity
8
1
62
256
6
ByLayer
370
13
48
1
60
0
100
AcDbSpline
70
4
71
3
72
8
73
4
40
0
40
0
40
0
40
0
40
1
40
1
40
1
40
1
41
1
10
62.1608337503138
20
3.97542526549435
30
0
41
1
10
63.7738891668758
20
2.62981827289119
30
0
41
1
10
65.3869445834379
20
1.30466108185743
30
0
41
1
10
66.9999999999999
20
8.53E-14
30
0
0
SPLINE
5
137
100
AcDbEntity
8
1
62
256
6
ByLayer
370
13
48
1
60
0
100
AcDbSpline
70
4
71
3
72
8
73
4
40
0
40
0
40
0
40
0
40
1
40
1
40
1
40
1
41
1
10
62.1608337503137
20
1.30279553374717
30
0
41
1
10
63.7738891668758
20
0.889873526115025
30
0
41
1
10
65.3869445834379
20
0.455603180199688
30
0
41
1
10
67
20
0
30
0
0
SPLINE
5
138
100
AcDbEntity
8
1
62
256
6
ByLayer
370
13
48
1
60
0
100
AcDbSpline
70
4
71
3
72
8
73
4
40
0
40
0
40
0
40
0
40
1
40
1
40
1
40
1
41
1
10
62.1608337503137
20
0.0969112534794476
30
0
41
1
10
63.7738891668758
20
0.0860533108808852
30
0
41
1
10
65.3869445834379
20
0.053749097783566
30
0
41
1
10
67
20
0
30
0
0
SPLINE
5
139
100
AcDbEntity
8
1
62
256
6
ByLayer
370
13
48
1
60
0
100
AcDbSpline
70
4
71
3
72
8
73
4
40
0
40
0
40
0
40
0
40
1
40
1
40
1
40
1
41
1
10
62.1608337503137
20
10.5444042913797
30
0
41
1
10
63.7738891668758
20
7.04266620576075
30
0
41
1
10
65.3869445834379
20
3.52782357041207
30
0
41
1
10
67
20
0
30
0
0
SPLINE
5
13A
100
AcDbEntity
8
1
62
256
6
ByLayer
370
13
48
1
60
0
100
AcDbSpline
70
4
71
3
72
8
73
4
40
0
40
0
40
0
40
0
40
1
40
1
40
1
40
1
41
1
10
62.1608337503138
20
6.20273454759607
30
0
41
1
10
63.773889166876
20
4.11618691536353
30
0
41
1
10
65.3869445834382
20
2.04858459812775
30
0
41
1
10
67.0000000000003
20
-4.263E-13
30
0
0
SPLINE
5
13B
100
AcDbEntity
8
1
62
256
6
ByLayer
370
13
48
1
60
0
100
AcDbSpline
70
4
71
3
72
8
73
4
40
0
40
0
40
0
40
0
40
1
40
1
40
1
40
1
41
1
10
62.1608337503136
20
-13.1497991583226
30
0
41
1
10
63.7738891668757
20
-8.76969909043714
30
0
41
1
10
65.3869445834378
20
-4.38638136943598
30
0
41
1
10
66.9999999999999
20
-3.126E-13
30
0
0
SPLINE
5
13C
100
AcDbEntity
8
1
62
256
6
ByLayer
370
13
48
1
60
0
100
AcDbSpline
70
4
71
3
72
8
73
4
40
0
40
0
40
0
40
0
40
1
40
1
40
1
40
1
41
1
10
62.1608337503138
20
7.24414463727496
30
0
41
1
10
63.7738891668758
20
4.81144634679646
30
0
41
1
10
65.3869445834379
20
2.39670326461874
30
0
41
1
10
66.9999999999999
20
1.705E-13
30
0
0
SPLINE
5
13D
100
AcDbEntity
8
1
62
256
6
ByLayer
370
13
48
1
60
0
100
AcDbSpline
70
4
71
3
72
8
73
4
40
0
40
0
40
0
40
0
40
1
40
1
40
1
40
1
41
1
10
62.1608337503136
20
-12.9886974465807
30
0
41
1
10
63.7738891668757
20
-8.65455099134914
30
0
41
1
10
65.3869445834378
20
-4.32493449993046
30
0
41
1
10
66.9999999999999
20
-3.126E-13
30
0
0
SPLINE
5
13E
100
AcDbEntity
8
1
62
256
6
ByLayer
370
13
48
1
60
0
100
AcDbSpline
70
4
71
3
72
8
73
4
40
0
40
0
40
0
40
0
40
1
40
1
40
1
40
1
41
1
10
62.1608337503136
20
-12.9174627067591
30
0
41
1
10
63.7738891668758
20
-8.61671959367743
30
0
41
1
10
65.3869445834381
20
-4.31084825585924
30
0
41
1
10
67.0000000000003
20
9.095E-13
30
0
0
SPLINE
5
13F
100
AcDbEntity
8
1
62
256
6
ByLayer
370
13
48
1
60
0
100
AcDbSpline
70
4
71
3
72
8
73
4
40
0
40
0
40
0
40
0
40
1
40
1
40
1
40
1
41
1
10
62.1608337503137
20
9.76612596559738
30
0
41
1
10
63.7738891668758
20
6.52530332752809
30
0
41
1
10
65.3869445834379
20
3.2698898325142
30
0
41
1
10
66.9999999999999
20
1.137E-13
30
0
0
SPLINE
5
140
100
AcDbEntity
8
1
62
256
6
ByLayer
370
13
48
1
60
0
100
AcDbSpline
70
4
71
3
72
8
73
4
40
0
40
0
40
0
40
0
40
1
40
1
40
1
40
1
41
1
10
62.1608337503138
20
9.13959281796113
30
0
41
1
10
63.7738891668758
20
6.07748622995746
30
0
41
1
10
65.3869445834379
20
3.03091968038243
30
0
41
1
10
66.9999999999999
20
2.274E-13
30
0
0
SPLINE
5
141
100
AcDbEntity
8
1
62
256
6
ByLayer
370
13
48
1
60
0
100
AcDbSpline
70
4
71
3
72
8
73
4
40
0
40
0
40
0
40
0
40
1
40
1
40
1
40
1
41
1
10
62.1608337503137
20
8.90728536023693
30
0
41
1
10
63.7738891668758
20
5.95411221557646
30
0
41
1
10
65.3869445834379
20
2.98498226898616
30
0
41
1
10
67
20
0
30
0
0
SPLINE
5
142
100
AcDbEntity
8
1
62
256
6
ByLayer
370
13
48
1
60
0
100
AcDbSpline
70
4
71
3
72
8
73
4
40
0
40
0
40
0
40
0
40
1
40
1
40
1
40
1
41
1
10
62.1608337503138
20
13.0880730427618
30
0
41
1
10
63.7738891668758
20
8.72160849082428
30
0
41
1
10
65.3869445834379
20
4.35886640967414
30
0
41
1
10
66.9999999999999
20
3.126E-13
30
0
0
LINE
5
7D
100
AcDbEntity
8
80
62
256
6
ByLayer
370
18
48
1
60
0
100
AcDbLine
10
0
20
0
30
0
11
-5
21
0
31
0
39
0
210
0
220
0
230
1
0
LINE
5
7E
100
AcDbEntity
8
4
62
256
6
ByLayer
370
18
48
0.05
60
0
100
AcDbLine
10
-5
20
0
30
0
11
72
21
0
31
0
39
0
210
0
220
0
230
1
0
LINE
5
80
100
AcDbEntity
8
81
62
256
6
ByLayer
370
18
48
1
60
0
100
AcDbLine
10
67
20
0
30
0
11
72
21
0
31
0
39
0
210
0
220
0
230
1
0
LINE
5
81
100
AcDbEntity
8
SK4
62
256
6
ByLayer
370
18
48
0.05
60
0
100
AcDbLine
10
-65.3
20
0
30
0
11
72
21
0
31
0
39
0
210
0
220
0
230
1
0
LINE
5
83
100
AcDbEntity
8
1
62
256
6
ByLayer
370
18
48
1
60
0
100
AcDbLine
10
62.160834
20
13.2955
30
0
11
62.160834
21
12.873309
31
0
39
0
210
0
220
0
230
1
0
LINE
5
84
100
AcDbEntity
8
1
62
256
6
ByLayer
370
18
48
1
60
0
100
AcDbLine
10
62.160834
20
-13.2955
30
0
11
62.160834
21
-1.897381
31
0
39
0
210
0
220
0
230
1
0
LINE
5
85
100
AcDbEntity
8
1
62
256
6
ByLayer
370
18
48
1
60
0
100
AcDbLine
10
15
20
-8.338665
30
0
11
15
21
12.086137
31
0
39
0
210
0
220
0
230
1
0
LINE
5
86
100
AcDbEntity
8
1
62
256
6
ByLayer
370
18
48
1
60
0
100
AcDbLine
10
0
20
-18.5
30
0
11
0
21
18.5
31
0
39
0
210
0
220
0
230
1
0
LINE
5
87
100
AcDbEntity
8
1
62
256
6
ByLayer
370
18
48
1
60
0
100
AcDbLine
10
3
20
-18.5
30
0
11
3
21
18.5
31
0
39
0
210
0
220
0
230
1
0
LINE
5
88
100
AcDbEntity
8
SK1
62
256
6
ByLayer
370
18
48
1
60
0
100
AcDbLine
10
-60.3
20
-14.875
30
0
11
-60.3
21
14.875
31
0
39
0
210
0
220
0
230
1
0
LINE
5
8A
100
AcDbEntity
8
SK1
62
256
6
ByLayer
370
18
48
1
60
0
100
AcDbLine
10
-59.3
20
-15.875
30
0
11
-59.3
21
15.875
31
0
39
0
210
0
220
0
230
1
0
LINE
5
8B
100
AcDbEntity
8
1
62
256
6
ByLayer
370
18
48
1
60
0
100
AcDbLine
10
67
20
0
30
0
11
62.160834
21
13.2955
31
0
39
0
210
0
220
0
230
1
0
LINE
5
8C
100
AcDbEntity
8
1
62
256
6
ByLayer
370
18
48
1
60
0
100
AcDbLine
10
62.160834
20
-13.2955
30
0
11
67
21
0
31
0
39
0
210
0
220
0
230
1
0
LINE
5
8D
100
AcDbEntity
8
1
62
256
6
ByLayer
370
18
48
1
60
0
100
AcDbLine
10
7.439911
20
16.539039
30
0
11
3
21
18.5
31
0
39
0
210
0
220
0
230
1
0
LINE
5
8E
100
AcDbEntity
8
1
62
256
6
ByLayer
370
18
48
1
60
0
100
AcDbLine
10
3
20
-18.5
30
0
11
7.439911
21
-16.539039
31
0
39
0
210
0
220
0
230
1
0
LINE
5
8F
100
AcDbEntity
8
1
62
256
6
ByLayer
370
18
48
1
60
0
100
AcDbLine
10
0
20
-18.5
30
0
11
3
21
-18.5
31
0
39
0
210
0
220
0
230
1
0
LINE
5
90
100
AcDbEntity
8
1
62
256
6
ByLayer
370
18
48
1
60
0
100
AcDbLine
10
3
20
18.5
30
0
11
0
21
18.5
31
0
39
0
210
0
220
0
230
1
0
LINE
5
91
100
AcDbEntity
8
SK1
62
256
6
ByLayer
370
18
48
1
60
0
100
AcDbLine
10
-60.3
20
-14.875
30
0
11
-59.3
21
-15.875
31
0
39
0
210
0
220
0
230
1
0
LINE
5
92
100
AcDbEntity
8
SK1
62
256
6
ByLayer
370
18
48
1
60
0
100
AcDbLine
10
-59.3
20
15.875
30
0
11
-60.3
21
14.875
31
0
39
0
210
0
220
0
230
1
0
LINE
5
93
100
AcDbEntity
8
SK1
62
256
6
ByLayer
370
18
48
1
60
0
100
AcDbLine
10
-59.3
20
-15.875
30
0
11
0
21
-15.875
31
0
39
0
210
0
220
0
230
1
0
LINE
5
94
100
AcDbEntity
8
SK1
62
256
6
ByLayer
370
18
48
1
60
0
100
AcDbLine
10
0
20
15.875
30
0
11
-59.3
21
15.875
31
0
39
0
210
0
220
0
230
1
0
LINE
5
95
100
AcDbEntity
8
1
62
256
6
ByLayer
370
18
48
1
60
0
100
AcDbLine
10
67
20
0
30
0
11
62.160834
21
13.2955
31
0
39
0
210
0
220
0
230
1
0
LINE
5
96
100
AcDbEntity
8
1
62
256
6
ByLayer
370
18
48
1
60
0
100
AcDbLine
10
62.160834
20
-13.2955
30
0
11
67
21
0
31
0
39
0
210
0
220
0
230
1
0
LINE
5
97
100
AcDbEntity
8
1
62
256
6
ByLayer
370
18
48
1
60
0
100
AcDbLine
10
62.160834
20
13.2955
30
0
11
49.9
21
13.2955
31
0
39
0
210
0
220
0
230
1
0
LINE
5
98
100
AcDbEntity
8
1
62
256
6
ByLayer
370
18
48
1
60
0
100
AcDbLine
10
49.9
20
-13.2955
30
0
11
62.160834
21
-13.2955
31
0
39
0
210
0
220
0
230
1
0
LINE
5
99
100
AcDbEntity
8
1
62
256
6
ByLayer
370
18
48
1
60
0
100
AcDbLine
10
62.160834
20
13.2955
30
0
11
62.160834
21
-13.2955
31
0
39
0
210
0
220
0
230
1
0
LINE
5
9A
100
AcDbEntity
8
1
62
256
6
ByLayer
370
18
48
1
60
0
100
AcDbLine
10
62.160834
20
13.2955
30
0
11
62.160834
21
-13.2955
31
0
39
0
210
0
220
0
230
1
0
LINE
5
9B
100
AcDbEntity
8
1
62
256
6
ByLayer
370
18
48
1
60
0
100
AcDbLine
10
62.160834
20
13.2955
30
0
11
62.160834
21
-13.2955
31
0
39
0
210
0
220
0
230
1
0
LINE
5
9C
100
AcDbEntity
8
1
62
256
6
ByLayer
370
18
48
1
60
0
100
AcDbLine
10
49.9
20
13.2955
30
0
11
49.9
21
-13.2955
31
0
39
0
210
0
220
0
230
1
0
LINE
5
9D
100
AcDbEntity
8
1
62
256
6
ByLayer
370
18
48
1
60
0
100
AcDbLine
10
49.9
20
13.2955
30
0
11
49.9
21
-13.2955
31
0
39
0
210
0
220
0
230
1
0
LINE
5
9E
100
AcDbEntity
8
1
62
256
6
ByLayer
370
18
48
1
60
0
100
AcDbLine
10
62.160834
20
13.2955
30
0
11
62.160834
21
-13.2955
31
0
39
0
210
0
220
0
230
1
0
LINE
5
9F
100
AcDbEntity
8
1
62
256
6
ByLayer
370
18
48
1
60
0
100
AcDbLine
10
49.9
20
13.2955
30
0
11
49.9
21
-13.2955
31
0
39
0
210
0
220
0
230
1
0
LINE
5
A0
100
AcDbEntity
8
1
62
256
6
ByLayer
370
18
48
1
60
0
100
AcDbLine
10
62.160834
20
13.2955
30
0
11
62.160834
21
-13.2955
31
0
39
0
210
0
220
0
230
1
0
LINE
5
A1
100
AcDbEntity
8
SK2
62
256
6
ByLayer
370
13
48
1
60
0
100
AcDbLine
10
-66.8
20
-15.875
30
0
11
-66.8
21
44.149683
31
0
39
0
210
0
220
0
230
1
0
LINE
5
A3
100
AcDbEntity
8
SK2
62
256
6
ByLayer
370
13
48
1
60
0
100
AcDbLine
10
-61.8875
20
15.875
30
0
11
-68.8
21
15.875
31
0
39
0
210
0
220
0
230
1
0
LINE
5
A4
100
AcDbEntity
8
SK2
62
256
6
ByLayer
370
13
48
1
60
0
100
AcDbLine
10
-61.8875
20
-15.875
30
0
11
-68.8
21
-15.875
31
0
39
0
210
0
220
0
230
1
0
LINE
5
A5
100
AcDbEntity
8
1
62
256
6
ByLayer
370
18
48
1
60
1
100
AcDbLine
10
-66.8
20
15.875
30
0
11
-66.339216
21
12.375002
31
0
39
0
210
0
220
0
230
1
0
LINE
5
A6
100
AcDbEntity
8
1
62
256
6
ByLayer
370
18
48
1
60
1
100
AcDbLine
10
-66.339216
20
12.375002
30
0
11
-67.260784
21
12.374998
31
0
39
0
210
0
220
0
230
1
0
LINE
5
A7
100
AcDbEntity
8
1
62
256
6
ByLayer
370
18
48
1
60
1
100
AcDbLine
10
-67.260784
20
12.374998
30
0
11
-66.8
21
15.875
31
0
39
0
210
0
220
0
230
1
0
LINE
5
A8
100
AcDbEntity
8
1
62
256
6
ByLayer
370
18
48
1
60
1
100
AcDbLine
10
-66.8
20
-15.875
30
0
11
-67.260784
21
-12.375002
31
0
39
0
210
0
220
0
230
1
0
LINE
5
A9
100
AcDbEntity
8
1
62
256
6
ByLayer
370
18
48
1
60
1
100
AcDbLine
10
-67.260784
20
-12.375002
30
0
11
-66.339216
21
-12.374998
31
0
39
0
210
0
220
0
230
1
0
LINE
5
AA
100
AcDbEntity
8
1
62
256
6
ByLayer
370
18
48
1
60
1
100
AcDbLine
10
-66.339216
20
-12.374998
30
0
11
-66.8
21
-15.875
31
0
39
0
210
0
220
0
230
1
0
LINE
5
AB
100
AcDbEntity
8
2
62
256
6
ByLayer
370
13
48
1
60
0
100
AcDbLine
10
74.5
20
-13.2955
30
0
11
74.5
21
41.570183
31
0
39
0
210
0
220
0
230
1
0
LINE
5
AD
100
AcDbEntity
8
2
62
256
6
ByLayer
370
13
48
1
60
0
100
AcDbLine
10
63.748334
20
13.2955
30
0
11
76.5
21
13.2955
31
0
39
0
210
0
220
0
230
1
0
LINE
5
AE
100
AcDbEntity
8
2
62
256
6
ByLayer
370
13
48
1
60
0
100
AcDbLine
10
63.748334
20
-13.2955
30
0
11
76.5
21
-13.2955
31
0
39
0
210
0
220
0
230
1
0
LINE
5
AF
100
AcDbEntity
8
1
62
256
6
ByLayer
370
18
48
1
60
1
100
AcDbLine
10
74.5
20
13.2955
30
0
11
74.960784
21
9.795502
31
0
39
0
210
0
220
0
230
1
0
LINE
5
B0
100
AcDbEntity
8
1
62
256
6
ByLayer
370
18
48
1
60
1
100
AcDbLine
10
74.960784
20
9.795502
30
0
11
74.039216
21
9.795498
31
0
39
0
210
0
220
0
230
1
0
LINE
5
B1
100
AcDbEntity
8
1
62
256
6
ByLayer
370
18
48
1
60
1
100
AcDbLine
10
74.039216
20
9.795498
30
0
11
74.5
21
13.2955
31
0
39
0
210
0
220
0
230
1
0
LINE
5
B2
100
AcDbEntity
8
1
62
256
6
ByLayer
370
18
48
1
60
1
100
AcDbLine
10
74.5
20
-13.2955
30
0
11
74.039216
21
-9.795502
31
0
39
0
210
0
220
0
230
1
0
LINE
5
B3
100
AcDbEntity
8
1
62
256
6
ByLayer
370
18
48
1
60
1
100
AcDbLine
10
74.039216
20
-9.795502
30
0
11
74.960784
21
-9.795498
31
0
39
0
210
0
220
0
230
1
0
LINE
5
B4
100
AcDbEntity
8
1
62
256
6
ByLayer
370
18
48
1
60
1
100
AcDbLine
10
74.960784
20
-9.795498
30
0
11
74.5
21
-13.2955
31
0
39
0
210
0
220
0
230
1
0
LINE
5
B5
100
AcDbEntity
8
SK2
62
256
6
ByLayer
370
13
48
1
60
0
100
AcDbLine
10
67.542957
20
-1.491762
30
0
11
74.182423
21
-19.733545
31
0
39
0
210
0
220
0
230
1
0
LINE
5
B6
100
AcDbEntity
8
SK2
62
256
6
ByLayer
370
13
48
1
60
0
100
AcDbLine
10
67.542957
20
1.491762
30
0
11
74.182423
21
19.733545
31
0
39
0
210
0
220
0
230
1
0
LINE
5
B7
100
AcDbEntity
8
1
62
256
6
ByLayer
370
18
48
1
60
1
100
AcDbLine
10
73.498383
20
-17.85416
30
0
11
76.551575
21
-16.082064
31
0
39
0
210
0
220
0
230
1
0
LINE
5
B8
100
AcDbEntity
8
1
62
256
6
ByLayer
370
18
48
1
60
1
100
AcDbLine
10
76.551575
20
-16.082064
30
0
11
76.906196
21
-16.93267
31
0
39
0
210
0
220
0
230
1
0
LINE
5
B9
100
AcDbEntity
8
1
62
256
6
ByLayer
370
18
48
1
60
1
100
AcDbLine
10
76.906196
20
-16.93267
30
0
11
73.498383
21
-17.85416
31
0
39
0
210
0
220
0
230
1
0
LINE
5
BA
100
AcDbEntity
8
1
62
256
6
ByLayer
370
18
48
1
60
1
100
AcDbLine
10
73.498383
20
17.85416
30
0
11
76.906193
21
16.932671
31
0
39
0
210
0
220
0
230
1
0
LINE
5
BB
100
AcDbEntity
8
1
62
256
6
ByLayer
370
18
48
1
60
1
100
AcDbLine
10
76.906193
20
16.932671
30
0
11
76.551579
21
16.082063
31
0
39
0
210
0
220
0
230
1
0
LINE
5
BC
100
AcDbEntity
8
1
62
256
6
ByLayer
370
18
48
1
60
1
100
AcDbLine
10
76.551579
20
16.082063
30
0
11
73.498383
21
17.85416
31
0
39
0
210
0
220
0
230
1
0
LINE
5
147
100
AcDbEntity
8
1
62
256
6
ByLayer
370
18
48
1
60
1
100
AcDbLine
10
-66.8
20
15.875
30
0
11
-66.339216
21
12.375002
31
0
39
0
210
0
220
0
230
1
0
LINE
5
148
100
AcDbEntity
8
1
62
256
6
ByLayer
370
18
48
1
60
1
100
AcDbLine
10
-66.339216
20
12.375002
30
0
11
-67.260784
21
12.374998
31
0
39
0
210
0
220
0
230
1
0
LINE
5
149
100
AcDbEntity
8
1
62
256
6
ByLayer
370
18
48
1
60
1
100
AcDbLine
10
-67.260784
20
12.374998
30
0
11
-66.8
21
15.875
31
0
39
0
210
0
220
0
230
1
0
LINE
5
14B
100
AcDbEntity
8
1
62
256
6
ByLayer
370
18
48
1
60
1
100
AcDbLine
10
-66.8
20
-15.875
30
0
11
-67.260784
21
-12.375002
31
0
39
0
210
0
220
0
230
1
0
LINE
5
14C
100
AcDbEntity
8
1
62
256
6
ByLayer
370
18
48
1
60
1
100
AcDbLine
10
-67.260784
20
-12.375002
30
0
11
-66.339216
21
-12.374998
31
0
39
0
210
0
220
0
230
1
0
LINE
5
14D
100
AcDbEntity
8
1
62
256
6
ByLayer
370
18
48
1
60
1
100
AcDbLine
10
-66.339216
20
-12.374998
30
0
11
-66.8
21
-15.875
31
0
39
0
210
0
220
0
230
1
0
LINE
5
151
100
AcDbEntity
8
1
62
256
6
ByLayer
370
18
48
1
60
1
100
AcDbLine
10
74.5
20
13.2955
30
0
11
74.960784
21
9.795502
31
0
39
0
210
0
220
0
230
1
0
LINE
5
152
100
AcDbEntity
8
1
62
256
6
ByLayer
370
18
48
1
60
1
100
AcDbLine
10
74.960784
20
9.795502
30
0
11
74.039216
21
9.795498
31
0
39
0
210
0
220
0
230
1
0
LINE
5
153
100
AcDbEntity
8
1
62
256
6
ByLayer
370
18
48
1
60
1
100
AcDbLine
10
74.039216
20
9.795498
30
0
11
74.5
21
13.2955
31
0
39
0
210
0
220
0
230
1
0
LINE
5
155
100
AcDbEntity
8
1
62
256
6
ByLayer
370
18
48
1
60
1
100
AcDbLine
10
74.5
20
-13.2955
30
0
11
74.039216
21
-9.795502
31
0
39
0
210
0
220
0
230
1
0
LINE
5
156
100
AcDbEntity
8
1
62
256
6
ByLayer
370
18
48
1
60
1
100
AcDbLine
10
74.039216
20
-9.795502
30
0
11
74.960784
21
-9.795498
31
0
39
0
210
0
220
0
230
1
0
LINE
5
157
100
AcDbEntity
8
1
62
256
6
ByLayer
370
18
48
1
60
1
100
AcDbLine
10
74.960784
20
-9.795498
30
0
11
74.5
21
-13.2955
31
0
39
0
210
0
220
0
230
1
0
LINE
5
15A
100
AcDbEntity
8
1
62
256
6
ByLayer
370
18
48
1
60
1
100
AcDbLine
10
73.498383
20
-17.85416
30
0
11
76.551575
21
-16.082064
31
0
39
0
210
0
220
0
230
1
0
LINE
5
15B
100
AcDbEntity
8
1
62
256
6
ByLayer
370
18
48
1
60
1
100
AcDbLine
10
76.551575
20
-16.082064
30
0
11
76.906196
21
-16.93267
31
0
39
0
210
0
220
0
230
1
0
LINE
5
15C
100
AcDbEntity
8
1
62
256
6
ByLayer
370
18
48
1
60
1
100
AcDbLine
10
76.906196
20
-16.93267
30
0
11
73.498383
21
-17.85416
31
0
39
0
210
0
220
0
230
1
0
LINE
5
15E
100
AcDbEntity
8
1
62
256
6
ByLayer
370
18
48
1
60
1
100
AcDbLine
10
73.498383
20
17.85416
30
0
11
76.906193
21
16.932671
31
0
39
0
210
0
220
0
230
1
0
LINE
5
15F
100
AcDbEntity
8
1
62
256
6
ByLayer
370
18
48
1
60
1
100
AcDbLine
10
76.906193
20
16.932671
30
0
11
76.551579
21
16.082063
31
0
39
0
210
0
220
0
230
1
0
LINE
5
160
100
AcDbEntity
8
1
62
256
6
ByLayer
370
18
48
1
60
1
100
AcDbLine
10
76.551579
20
16.082063
30
0
11
73.498383
21
17.85416
31
0
39
0
210
0
220
0
230
1
0
MTEXT
5
143
100
AcDbEntity
8
SK2
62
256
6
ByLayer
370
18
48
1
60
0
100
AcDbMText
10
-68.141114
20
27.533438
30
0
210
0
220
0
230
1
1
%%c
40
3
41
0
44
1.084337
50
90
71
7
72
5
7
iso_b_vert
0
MTEXT
5
146
100
AcDbEntity
8
SK2
62
256
6
ByLayer
370
18
48
1
60
0
100
AcDbMText
10
-68.141114
20
33.51
30
0
210
0
220
0
230
1
1
\W0.7022;31.750
40
3
41
0
44
1.084337
50
90
71
7
72
5
7
iso_b_vert
0
MTEXT
5
14F
100
AcDbEntity
8
2
62
256
6
ByLayer
370
18
48
1
60
0
100
AcDbMText
10
73.158886
20
24.953938
30
0
210
0
220
0
230
1
1
%%c
40
3
41
0
44
1.084337
50
90
71
7
72
5
7
iso_b_vert
0
MTEXT
5
150
100
AcDbEntity
8
2
62
256
6
ByLayer
370
18
48
1
60
0
100
AcDbMText
10
73.158886
20
30.9305
30
0
210
0
220
0
230
1
1
\W0.7440;26.591
40
3
41
0
44
1.084337
50
90
71
7
72
5
7
iso_b_vert
0
MTEXT
5
159
100
AcDbEntity
8
SK2
62
256
6
ByLayer
370
18
48
1
60
0
100
AcDbMText
10
86.909114
20
3.734657
30
0
210
0
220
0
230
1
1
\W0.7071;140%%d
40
3
41
0
44
1.084337
50
270
71
7
72
5
7
iso_b_vert
0
MTEXT
5
162
100
AcDbEntity
8
SK6
62
256
6
ByLayer
370
18
48
1
60
0
100
AcDbMText
10
-18.731882
20
-67.114886
30
0
210
0
220
0
230
1
1
\W0.7568;H8511.3/64
40
3
41
0
44
1.084337
50
0
71
7
72
5
7
iso_b_vert
0
HATCH
5
14A
100
AcDbEntity
8
SK2
62
256
6
ByLayer
370
13
48
1
60
0
100
AcDbHatch
10
0
20
0
30
0
210
0
220
0
230
1
2
ANSI31
70
0
71
0
91
1
92
5
93
3
72
1
10
-66.8
20
15.875
11
-66.3392162584472
21
12.3750016925532
72
1
10
-66.3392162584472
20
12.3750016925532
11
-67.2607837415528
21
12.3749983074468
72
1
10
-67.2607837415528
20
12.3749983074468
11
-66.8
21
15.875
97
0
75
0
76
1
52
0
41
0.0062
77
0
78
1
53
45
43
0
44
0
45
-0.0139193969876572
46
0.0139193969876572
79
0
47
0
98
1
10
0
20
0
0
HATCH
5
14E
100
AcDbEntity
8
SK2
62
256
6
ByLayer
370
13
48
1
60
0
100
AcDbHatch
10
0
20
0
30
0
210
0
220
0
230
1
2
ANSI31
70
0
71
0
91
1
92
5
93
3
72
1
10
-66.8
20
-15.875
11
-67.2607837415528
21
-12.3750016925532
72
1
10
-67.2607837415528
20
-12.3750016925532
11
-66.3392162584472
21
-12.3749983074468
72
1
10
-66.3392162584472
20
-12.3749983074468
11
-66.8
21
-15.875
97
0
75
0
76
1
52
0
41
0.0062
77
0
78
1
53
45
43
0
44
0
45
-0.0139193969876572
46
0.0139193969876572
79
0
47
0
98
1
10
0
20
0
0
HATCH
5
154
100
AcDbEntity
8
2
62
256
6
ByLayer
370
13
48
1
60
0
100
AcDbHatch
10
0
20
0
30
0
210
0
220
0
230
1
2
ANSI31
70
0
71
0
91
1
92
5
93
3
72
1
10
74.5
20
13.2955
11
74.9607837415528
21
9.79550169255319
72
1
10
74.9607837415528
20
9.79550169255319
11
74.0392162584472
21
9.79549830744682
72
1
10
74.0392162584472
20
9.79549830744682
11
74.5
21
13.2955
97
0
75
0
76
1
52
0
41
0.0062
77
0
78
1
53
45
43
0
44
0
45
-0.0139193969876572
46
0.0139193969876572
79
0
47
0
98
1
10
0
20
0
0
HATCH
5
158
100
AcDbEntity
8
2
62
256
6
ByLayer
370
13
48
1
60
0
100
AcDbHatch
10
0
20
0
30
0
210
0
220
0
230
1
2
ANSI31
70
0
71
0
91
1
92
5
93
3
72
1
10
74.5
20
-13.2955
11
74.0392162584472
21
-9.79550169255319
72
1
10
74.0392162584472
20
-9.79550169255319
11
74.9607837415528
21
-9.79549830744682
72
1
10
74.9607837415528
20
-9.79549830744682
11
74.5
21
-13.2955
97
0
75
0
76
1
52
0
41
0.0062
77
0
78
1
53
45
43
0
44
0
45
-0.0139193969876572
46
0.0139193969876572
79
0
47
0
98
1
10
0
20
0
0
HATCH
5
15D
100
AcDbEntity
8
SK2
62
256
6
ByLayer
370
13
48
1
60
0
100
AcDbHatch
10
0
20
0
30
0
210
0
220
0
230
1
2
ANSI31
70
0
71
0
91
1
92
5
93
3
72
1
10
73.4983827231877
20
-17.8541597949322
11
76.5515754256929
21
-16.0820638240607
72
1
10
76.5515754256929
20
-16.0820638240607
11
76.9061958339751
21
-16.9326700737196
72
1
10
76.9061958339751
20
-16.9326700737196
11
73.4983827231877
21
-17.8541597949322
97
0
75
0
76
1
52
0
41
0.0062
77
0
78
1
53
45
43
0
44
0
45
-0.0139193969876572
46
0.0139193969876572
79
0
47
0
98
1
10
0
20
0
0
HATCH
5
161
100
AcDbEntity
8
SK2
62
256
6
ByLayer
370
13
48
1
60
0
100
AcDbHatch
10
0
20
0
30
0
210
0
220
0
230
1
2
ANSI31
70
0
71
0
91
1
92
5
93
3
72
1
10
73.4983827231877
20
17.8541597949322
11
76.9061927095191
21
16.9326713763016
72
1
10
76.9061927095191
20
16.9326713763016
11
76.5515785501489
21
16.0820625214787
72
1
10
76.5515785501489
20
16.0820625214787
11
73.4983827231877
21
17.8541597949322
97
0
75
0
76
1
52
0
41
0.0062
77
0
78
1
53
45
43
0
44
0
45
-0.0139193969876572
46
0.0139193969876572
79
0
47
0
98
1
10
0
20
0
0
DIMENSION
5
165
100
AcDbEntity
8
SK2
62
256
6
ByLayer
370
18
48
1
60
0
100
AcDbDimension
2
_U0
10
67
20
-46.518382
30
0
11
3.35
21
-46.518382
31
0
70
32
71
1
72
1
41
1
210
0
220
0
230
1
3
Standard
100
AcDbAlignedDimension
13
-60.3
23
-15.875
33
0
14
67
24
0
34
0
50
0
100
AcDbRotatedDimension
1001
ACAD
1000
DSTYLE
1002
{
1070
   371
1070
    13
1070
   372
1070
    13
1070
     3
1000

1070
   170
1070
     0
1070
   144
1040
1.0
1070
   277
1070
     2
1070
   284
1070
     8
1070
   278
1070
    46
1070
   146
1040
1.166667
1070
   345
1005
16
1070
   347
1005
16
1070
   346
1005
16
1070
   344
1005
0
1070
   343
1005
0
1070
   172
1070
     1
1070
    76
1070
     0
1070
    75
1070
     0
1070
   282
1070
     0
1070
   281
1070
     0
1070
    71
1070
     0
1070
    74
1070
     0
1070
   279
1070
     0
1070
   173
1070
     1
1070
   340
1005
144
1070
   271
1070
     2
1070
   272
1070
     3
1070
    77
1070
     1
1070
    73
1070
     1
1070
   171
1070
     3
1070
   274
1070
     4
1070
   177
1070
     2
1070
   176
1070
     2
1070
   178
1070
     2
1070
    78
1070
     8
1070
    48
1040
-0.1
1070
    41
1040
3.5
1070
   147
1040
1.5
1070
    42
1040
1.5875
1070
    44
1040
2.0
1070
   140
1040
3.0
1002
}
1001
ACAD_DSTYLE_DIM_LINETYPE
1070
   380
1005
16
1001
ACAD_DSTYLE_DIM_EXT1_LINETYPE
1070
   381
1005
16
1001
ACAD_DSTYLE_DIM_EXT2_LINETYPE
1070
   382
1005
16
0
DIMENSION
5
17E
100
AcDbEntity
8
SK2
62
256
6
ByLayer
370
18
48
1
60
0
100
AcDbDimension
2
_U1
10
6
20
-36.518382
30
0
11
36.5
21
-36.518382
31
0
70
32
71
1
72
1
41
1
210
0
220
0
230
1
3
Standard
100
AcDbAlignedDimension
13
67
23
0
33
0
14
6
24
-13.2955
34
0
50
0
100
AcDbRotatedDimension
1001
ACAD
1000
DSTYLE
1002
{
1070
   371
1070
    13
1070
   372
1070
    13
1070
     3
1000

1070
   170
1070
     0
1070
   144
1040
1.0
1070
   277
1070
     2
1070
   284
1070
     8
1070
   278
1070
    46
1070
   146
1040
1.166667
1070
   345
1005
16
1070
   347
1005
16
1070
   346
1005
16
1070
   344
1005
0
1070
   343
1005
0
1070
   172
1070
     1
1070
    76
1070
     0
1070
    75
1070
     0
1070
   282
1070
     0
1070
   281
1070
     0
1070
    71
1070
     0
1070
    74
1070
     0
1070
   279
1070
     0
1070
   173
1070
     1
1070
   340
1005
144
1070
   271
1070
     2
1070
   272
1070
     3
1070
    77
1070
     1
1070
    73
1070
     1
1070
   171
1070
     3
1070
   274
1070
     4
1070
   177
1070
     2
1070
   176
1070
     2
1070
   178
1070
     2
1070
    78
1070
     8
1070
    48
1040
-0.1
1070
    41
1040
3.5
1070
   147
1040
1.5
1070
    42
1040
1.5875
1070
    44
1040
2.0
1070
   140
1040
3.0
1002
}
1001
ACAD_DSTYLE_DIM_LINETYPE
1070
   380
1005
16
1001
ACAD_DSTYLE_DIM_EXT1_LINETYPE
1070
   381
1005
16
1001
ACAD_DSTYLE_DIM_EXT2_LINETYPE
1070
   382
1005
16
0
DIMENSION
5
196
100
AcDbEntity
8
SK2
62
256
6
ByLayer
370
18
48
1
60
0
100
AcDbDimension
2
_U2
10
0
20
-36.518382
30
0
11
-30.15
21
-36.518382
31
0
70
32
71
1
72
1
41
1
210
0
220
0
230
1
3
Standard
100
AcDbAlignedDimension
13
-60.3
23
-15.875
33
0
14
0
24
-15.875
34
0
50
0
100
AcDbRotatedDimension
1001
ACAD
1000
DSTYLE
1002
{
1070
   371
1070
    13
1070
   372
1070
    13
1070
     3
1000

1070
   170
1070
     0
1070
   144
1040
1.0
1070
   277
1070
     2
1070
   284
1070
     8
1070
   278
1070
    46
1070
   146
1040
1.166667
1070
   345
1005
16
1070
   347
1005
16
1070
   346
1005
16
1070
   344
1005
0
1070
   343
1005
0
1070
   172
1070
     1
1070
    76
1070
     0
1070
    75
1070
     0
1070
   282
1070
     0
1070
   281
1070
     0
1070
    71
1070
     0
1070
    74
1070
     0
1070
   279
1070
     0
1070
   173
1070
     1
1070
   340
1005
144
1070
   271
1070
     2
1070
   272
1070
     3
1070
    77
1070
     1
1070
    73
1070
     1
1070
   171
1070
     3
1070
   274
1070
     4
1070
   177
1070
     2
1070
   176
1070
     2
1070
   178
1070
     2
1070
    78
1070
     8
1070
    48
1040
-0.1
1070
    41
1040
3.5
1070
   147
1040
1.5
1070
    42
1040
1.5875
1070
    44
1040
2.0
1070
   140
1040
3.0
1002
}
1001
ACAD_DSTYLE_DIM_LINETYPE
1070
   380
1005
16
1001
ACAD_DSTYLE_DIM_EXT1_LINETYPE
1070
   381
1005
16
1001
ACAD_DSTYLE_DIM_EXT2_LINETYPE
1070
   382
1005
16
0
DIMENSION
5
1AE
100
AcDbEntity
8
SK2
62
256
6
ByLayer
370
18
48
1
60
0
100
AcDbDimension
2
_U3
10
14.7
20
33.518382
30
0
11
40.85
21
33.518382
31
0
70
32
71
1
72
1
41
1
210
0
220
0
230
1
3
Standard
100
AcDbAlignedDimension
13
67
23
0
33
0
14
14.7
24
13.2955
34
0
50
0
100
AcDbRotatedDimension
1001
ACAD
1000
DSTYLE
1002
{
1070
   371
1070
    13
1070
   372
1070
    13
1070
     3
1000

1070
   170
1070
     0
1070
   144
1040
1.0
1070
   277
1070
     2
1070
   284
1070
     8
1070
   278
1070
    46
1070
   146
1040
1.166667
1070
   345
1005
16
1070
   347
1005
16
1070
   346
1005
16
1070
   344
1005
0
1070
   343
1005
0
1070
   172
1070
     1
1070
    76
1070
     0
1070
    75
1070
     0
1070
   282
1070
     0
1070
   281
1070
     0
1070
    71
1070
     0
1070
    74
1070
     0
1070
   279
1070
     0
1070
   173
1070
     1
1070
   340
1005
144
1070
   271
1070
     2
1070
   272
1070
     3
1070
    77
1070
     1
1070
    73
1070
     1
1070
   171
1070
     3
1070
   274
1070
     4
1070
   177
1070
     2
1070
   176
1070
     2
1070
   178
1070
     2
1070
    78
1070
     8
1070
    48
1040
-0.1
1070
    41
1040
3.5
1070
   147
1040
1.5
1070
    42
1040
1.5875
1070
    44
1040
2.0
1070
   140
1040
3.0
1002
}
1001
ACAD_DSTYLE_DIM_LINETYPE
1070
   380
1005
16
1001
ACAD_DSTYLE_DIM_EXT1_LINETYPE
1070
   381
1005
16
1001
ACAD_DSTYLE_DIM_EXT2_LINETYPE
1070
   382
1005
16
0
ENDSEC
0
SECTION
2
OBJECTS
0
DICTIONARY
5
236
330
0
100
AcDbDictionary
280
0
281
1
3
ACAD_GROUP
350
237
3
ACAD_MLINESTYLE
350
238
0
DICTIONARY
5
237
330
0
100
AcDbDictionary
280
0
281
1
0
DICTIONARY
5
238
330
0
100
AcDbDictionary
280
0
281
1
3
Standard
350
18
0
MLINESTYLE
5
18
330
238
100
AcDbMlineStyle
2
Standard
70
0
3

62
256
51
90
52
90
71
2
49
-0.5
62
256
6
ByLayer
49
0.5
62
256
6
ByLayer
0
RASTERVARIABLES
5
224
330

100
AcDbRasterVariables
90
0
70
1
71
1
72
1
0
ENDSEC
0
EOF
