0
SECTION
2
HEADER
9
$ACADVER
1
AC1015
9
$DWGCODEPAGE
3
ANSI_1252
9
$HANDSEED
5
215
9
$ANGBASE
50
0
9
$ANGDIR
70
0
9
$ATTMODE
70
1
9
$AUNITS
70
0
9
$AUPREC
70
0
9
$CECOLOR
62
256
9
$CELTSCALE
40
1
9
$CELTYPE
6
ByLayer
9
$CELWEIGHT
370
18
9
$CLAYER
8
0
9
$CMLJUST
70
0
9
$CMLSCALE
40
1
9
$CMLSTYLE
2
Standard
9
$DIMSTYLE
2
Standard
9
$TEXTSIZE
40
0.2
9
$TEXTSTYLE
7
Standard
9
$LUNITS
70
2
9
$LUPREC
70
4
9
$EXTNAMES
290
1
9
$INSUNITS
70
4
9
$LTSCALE
40
1
9
$LWDISPLAY
290
1
9
$PDMODE
70
0
9
$PDSIZE
40
0
9
$PLINEGEN
70
0
0
ENDSEC
0
SECTION
2
CLASSES
0
CLASS
1
RASTERVARIABLES
2
AcDbRasterVariables
3
ISM
90
0
280
0
281
0
0
ENDSEC
0
SECTION
2
TABLES
0
TABLE
2
VPORT
5
20b
100
AcDbSymbolTable
0
VPORT
5
1
100
AcDbSymbolTableRecord
100
AcDbViewportTableRecord
2
*Active
70
0
10
0
20
0
11
1
21
1
12
-1
22
1
13
0
23
0
14
0.5
24
0.5
15
10
25
10
16
0
26
0
36
1
17
0
27
0
37
0
0
ENDTAB
0
TABLE
2
LTYPE
5
20c
100
AcDbSymbolTable
0
LTYPE
5
14
100
AcDbSymbolTableRecord
100
AcDbLinetypeTableRecord
70
0
2
ByBlock
3

72
65
73
0
40
0
0
LTYPE
5
15
100
AcDbSymbolTableRecord
100
AcDbLinetypeTableRecord
70
0
2
ByLayer
3

72
65
73
0
40
0
0
LTYPE
5
16
100
AcDbSymbolTableRecord
100
AcDbLinetypeTableRecord
70
0
2
Continuous
3
Solid line
72
65
73
0
40
0
0
LTYPE
5
6E
100
AcDbSymbolTableRecord
100
AcDbLinetypeTableRecord
70
0
2
CENTER
3
____ _ ____ _ ____ _ ____
72
65
73
4
40
47.5
49
22
74
0
49
-8.5
74
0
49
8.5
74
0
49
-8.5
74
0
0
LTYPE
5
6F
100
AcDbSymbolTableRecord
100
AcDbLinetypeTableRecord
70
0
2
DASHED
3
__ __ __ __ __ __ __ __ __
72
65
73
2
40
25.72
49
12.86
74
0
49
-12.86
74
0
0
ENDTAB
0
TABLE
2
LAYER
5
20d
100
AcDbSymbolTable
0
LAYER
5
10
100
AcDbSymbolTableRecord
100
AcDbLayerTableRecord
2
0
70
0
62
7
6
Continuous
290
1
370
-3
390
0
0
LAYER
5
71
100
AcDbSymbolTableRecord
100
AcDbLayerTableRecord
2
81
70
0
62
-3
6
Continuous
290
1
370
-3
390
0
0
LAYER
5
73
100
AcDbSymbolTableRecord
100
AcDbLayerTableRecord
2
80
70
0
62
-6
6
Continuous
290
1
370
-3
390
0
0
LAYER
5
75
100
AcDbSymbolTableRecord
100
AcDbLayerTableRecord
2
1
70
0
62
4
6
Continuous
290
1
370
-3
390
0
0
LAYER
5
7F
100
AcDbSymbolTableRecord
100
AcDbLayerTableRecord
2
4
70
0
62
-2
6
CENTER
290
1
370
-3
390
0
0
LAYER
5
AF
100
AcDbSymbolTableRecord
100
AcDbLayerTableRecord
2
2
70
0
62
7
6
Continuous
290
1
370
-3
390
0
0
LAYER
5
13A
100
AcDbSymbolTableRecord
100
AcDbLayerTableRecord
2
Defpoints
70
0
62
7
6
Continuous
290
0
370
-3
390
0
0
LAYER
5
1f7
100
AcDbSymbolTableRecord
100
AcDbLayerTableRecord
2
SK4
70
0
62
2
6
CENTER
290
1
370
-3
390
0
0
LAYER
5
1f8
100
AcDbSymbolTableRecord
100
AcDbLayerTableRecord
2
SK1
70
0
62
4
6
Continuous
290
1
370
-3
390
0
0
LAYER
5
1f9
100
AcDbSymbolTableRecord
100
AcDbLayerTableRecord
2
SK2
70
0
62
7
6
Continuous
290
1
370
-3
390
0
0
LAYER
5
1fa
100
AcDbSymbolTableRecord
100
AcDbLayerTableRecord
2
SK6
70
0
62
5
6
Continuous
290
1
370
-3
390
0
0
ENDTAB
0
TABLE
2
STYLE
5
20e
100
AcDbSymbolTable
0
STYLE
5
11
100
AcDbSymbolTableRecord
100
AcDbTextStyleTableRecord
2
Standard
3
txt
70
0
71
0
40
0
41
1
42
0
50
0
0
STYLE
5
116
100
AcDbSymbolTableRecord
100
AcDbTextStyleTableRecord
2
iso_b_vert
3
simplex.shx
70
0
71
0
40
0
41
1
42
0
50
0
0
STYLE
5
117
100
AcDbSymbolTableRecord
100
AcDbTextStyleTableRecord
2
DWGDirectTextStyle
3
simplex
70
0
71
0
40
0
41
1
42
0
50
0
0
ENDTAB
0
TABLE
2
DIMSTYLE
5
20f
100
AcDbSymbolTable
100
AcDbDimStyleTable
0
DIMSTYLE
105
27
100
AcDbSymbolTableRecord
100
AcDbDimStyleTableRecord
2
Standard
70
0
3
<>
41
0.18
42
0.0625
44
0.18
140
0.18
147
0.09
73
0
74
0
77
1
271
2
275
0
278
52
280
0
340
11
0
ENDTAB
0
TABLE
2
VIEW
5
210
100
AcDbSymbolTable
0
ENDTAB
0
TABLE
2
UCS
5
211
100
AcDbSymbolTable
0
ENDTAB
0
TABLE
2
APPID
5
212
100
AcDbSymbolTable
0
APPID
5
12
100
AcDbSymbolTableRecord
100
AcDbRegAppTableRecord
2
ACAD
70
0
0
APPID
5
136
100
AcDbSymbolTableRecord
100
AcDbRegAppTableRecord
2
ACAD_DSTYLE_DIMBREAK
70
0
0
APPID
5
1B6
100
AcDbSymbolTableRecord
100
AcDbRegAppTableRecord
2
ACAD_DSTYLE_DIM_LINETYPE
70
0
0
APPID
5
1B7
100
AcDbSymbolTableRecord
100
AcDbRegAppTableRecord
2
ACAD_DSTYLE_DIM_EXT1_LINETYPE
70
0
0
APPID
5
1B8
100
AcDbSymbolTableRecord
100
AcDbRegAppTableRecord
2
ACAD_DSTYLE_DIM_EXT2_LINETYPE
70
0
0
APPID
5
1F3
100
AcDbSymbolTableRecord
100
AcDbRegAppTableRecord
2
ACAD_MLEADERVER
70
0
0
ENDTAB
0
TABLE
2
BLOCK_RECORD
5
213
100
AcDbSymbolTable
0
BLOCK_RECORD
5
1F
100
AcDbSymbolTableRecord
100
AcDbBlockTableRecord
2
*Model_Space
340
0
70
0
0
BLOCK_RECORD
5
1B
100
AcDbSymbolTableRecord
100
AcDbBlockTableRecord
2
*Paper_Space
340
0
70
0
0
BLOCK_RECORD
5
23
100
AcDbSymbolTableRecord
100
AcDbBlockTableRecord
2
*Paper_Space0
340
0
70
0
0
BLOCK_RECORD
5
13B
100
AcDbSymbolTableRecord
100
AcDbBlockTableRecord
2
*D1
340
0
70
0
0
BLOCK_RECORD
5
147
100
AcDbSymbolTableRecord
100
AcDbBlockTableRecord
2
_U0
340
0
70
0
0
BLOCK_RECORD
5
153
100
AcDbSymbolTableRecord
100
AcDbBlockTableRecord
2
*D3
340
0
70
0
0
BLOCK_RECORD
5
15F
100
AcDbSymbolTableRecord
100
AcDbBlockTableRecord
2
_U1
340
0
70
0
0
BLOCK_RECORD
5
16B
100
AcDbSymbolTableRecord
100
AcDbBlockTableRecord
2
*D5
340
0
70
0
0
BLOCK_RECORD
5
177
100
AcDbSymbolTableRecord
100
AcDbBlockTableRecord
2
_U2
340
0
70
0
0
BLOCK_RECORD
5
183
100
AcDbSymbolTableRecord
100
AcDbBlockTableRecord
2
*D7
340
0
70
0
0
BLOCK_RECORD
5
18F
100
AcDbSymbolTableRecord
100
AcDbBlockTableRecord
2
_U3
340
0
70
0
0
ENDTAB
0
ENDSEC
0
SECTION
2
BLOCKS
0
BLOCK
5
20
100
AcDbEntity
8
0
100
AcDbBlockBegin
2
*Model_Space
70
0
10
0
20
0
30
0
3
*Model_Space
0
ENDBLK
5
21
100
AcDbEntity
8
0
100
AcDbBlockEnd
0
BLOCK
5
1C
100
AcDbEntity
8
0
100
AcDbBlockBegin
2
*Paper_Space
70
0
10
0
20
0
30
0
3
*Paper_Space
0
ENDBLK
5
1D
100
AcDbEntity
8
0
100
AcDbBlockEnd
0
BLOCK
5
24
100
AcDbEntity
8
0
100
AcDbBlockBegin
2
*Paper_Space0
70
0
10
0
20
0
30
0
3
*Paper_Space0
0
ENDBLK
5
25
100
AcDbEntity
8
0
100
AcDbBlockEnd
0
BLOCK
5
13C
100
AcDbEntity
8
0
100
AcDbBlockBegin
2
*D1
70
1
10
0
20
0
30
0
3
*D1
0
LINE
5
13E
100
AcDbEntity
8
0
62
256
6
ByLayer
370
-2
48
1
60
0
100
AcDbLine
10
-48
20
-9.5875
30
0
11
-48
21
-47.952229
31
0
39
0
210
0
220
0
230
1
0
LINE
5
13F
100
AcDbEntity
8
0
62
256
6
ByLayer
370
-2
48
1
60
0
100
AcDbLine
10
42
20
-1.5875
30
0
11
42
21
-47.952229
31
0
39
0
210
0
220
0
230
1
0
LINE
5
140
100
AcDbEntity
8
0
62
256
6
ByLayer
370
-2
48
1
60
0
100
AcDbLine
10
-44.5
20
-45.952229
30
0
11
38.5
21
-45.952229
31
0
39
0
210
0
220
0
230
1
0
SOLID
5
141
100
AcDbEntity
8
0
62
256
6
ByLayer
370
-1
48
1
60
0
100
AcDbTrace
10
-44.5
20
-45.368896
30
0
11
-44.5
21
-46.535563
31
0
12
-48
22
-45.952229
32
0
13
-48
23
-45.952229
33
0
39
0
210
0
220
0
230
1
0
SOLID
5
142
100
AcDbEntity
8
0
62
256
6
ByLayer
370
-1
48
1
60
0
100
AcDbTrace
10
38.5
20
-46.535563
30
0
11
38.5
21
-45.368896
31
0
12
42
22
-45.952229
32
0
13
42
23
-45.952229
33
0
39
0
210
0
220
0
230
1
0
MTEXT
5
143
100
AcDbEntity
8
0
62
256
6
ByLayer
370
18
48
1
60
0
100
AcDbMText
10
-3
20
-39.952229
30
0
210
0
220
0
230
1
1
\A1;90
40
3
41
0
44
1
50
0
71
5
72
5
7
iso_b_vert
0
POINT
5
144
100
AcDbEntity
8
Defpoints
62
0
6
ByLayer
370
-1
48
1
60
0
100
AcDbPoint
10
-48
20
-8
30
0
39
0
210
0
220
0
230
1
50
360
0
POINT
5
145
100
AcDbEntity
8
Defpoints
62
0
6
ByLayer
370
-1
48
1
60
0
100
AcDbPoint
10
42
20
0
30
0
39
0
210
0
220
0
230
1
50
360
0
POINT
5
146
100
AcDbEntity
8
Defpoints
62
0
6
ByLayer
370
-1
48
1
60
0
100
AcDbPoint
10
42
20
-45.952229
30
0
39
0
210
0
220
0
230
1
50
360
0
ENDBLK
5
13D
100
AcDbEntity
8
0
100
AcDbBlockEnd
0
BLOCK
5
14E
100
AcDbEntity
8
0
100
AcDbBlockBegin
2
_U0
70
0
10
0
20
0
30
0
3
_U0
0
MTEXT
5
148
100
AcDbEntity
8
SK2
62
256
6
ByLayer
370
18
48
1
60
0
100
AcDbMText
10
-7.48237
20
-45.067115
30
0
210
0
220
0
230
1
1
\W0.7468;90.00
40
3
41
0
44
1.084337
50
0
71
7
72
5
7
iso_b_vert
0
LINE
5
149
100
AcDbEntity
8
SK2
62
256
6
ByLayer
370
13
48
1
60
0
100
AcDbLine
10
-48
20
-9.5875
30
0
11
-48
21
-47.952229
31
0
39
0
210
0
220
0
230
1
0
LINE
5
14A
100
AcDbEntity
8
SK2
62
256
6
ByLayer
370
13
48
1
60
0
100
AcDbLine
10
42
20
-1.5875
30
0
11
42
21
-47.952229
31
0
39
0
210
0
220
0
230
1
0
LINE
5
14B
100
AcDbEntity
8
SK2
62
256
6
ByLayer
370
13
48
1
60
0
100
AcDbLine
10
-48
20
-45.952229
30
0
11
42
21
-45.952229
31
0
39
0
210
0
220
0
230
1
0
SOLID
5
14C
100
AcDbEntity
8
SK2
62
256
6
ByLayer
370
18
48
1
60
0
100
AcDbTrace
10
-48
20
-45.952229
30
0
11
-44.500002
21
-45.491446
31
0
12
-44.499998
22
-46.413013
32
0
13
-44.499998
23
-46.413013
33
0
39
0
210
0
220
0
230
1
0
SOLID
5
14D
100
AcDbEntity
8
SK2
62
256
6
ByLayer
370
18
48
1
60
0
100
AcDbTrace
10
42
20
-45.952229
30
0
11
38.500002
21
-46.413013
31
0
12
38.499998
22
-45.491446
32
0
13
38.499998
23
-45.491446
33
0
39
0
210
0
220
0
230
1
0
ENDBLK
5
14F
100
AcDbEntity
8
0
100
AcDbBlockEnd
0
BLOCK
5
154
100
AcDbEntity
8
0
100
AcDbBlockBegin
2
*D3
70
1
10
0
20
0
30
0
3
*D3
0
LINE
5
156
100
AcDbEntity
8
0
62
256
6
ByLayer
370
-2
48
1
60
0
100
AcDbLine
10
42
20
-1.5875
30
0
11
42
21
-37.952229
31
0
39
0
210
0
220
0
230
1
0
LINE
5
157
100
AcDbEntity
8
0
62
256
6
ByLayer
370
-2
48
1
60
0
100
AcDbLine
10
6
20
-8.0875
30
0
11
6
21
-37.952229
31
0
39
0
210
0
220
0
230
1
0
LINE
5
158
100
AcDbEntity
8
0
62
256
6
ByLayer
370
-2
48
1
60
0
100
AcDbLine
10
38.5
20
-35.952229
30
0
11
9.5
21
-35.952229
31
0
39
0
210
0
220
0
230
1
0
SOLID
5
159
100
AcDbEntity
8
0
62
256
6
ByLayer
370
-1
48
1
60
0
100
AcDbTrace
10
38.5
20
-36.535563
30
0
11
38.5
21
-35.368896
31
0
12
42
22
-35.952229
32
0
13
42
23
-35.952229
33
0
39
0
210
0
220
0
230
1
0
SOLID
5
15A
100
AcDbEntity
8
0
62
256
6
ByLayer
370
-1
48
1
60
0
100
AcDbTrace
10
9.5
20
-35.368896
30
0
11
9.5
21
-36.535563
31
0
12
6
22
-35.952229
32
0
13
6
23
-35.952229
33
0
39
0
210
0
220
0
230
1
0
MTEXT
5
15B
100
AcDbEntity
8
0
62
256
6
ByLayer
370
18
48
1
60
0
100
AcDbMText
10
24
20
-29.952229
30
0
210
0
220
0
230
1
1
\A1;36
40
3
41
0
44
1
50
0
71
5
72
5
7
iso_b_vert
0
POINT
5
15C
100
AcDbEntity
8
Defpoints
62
0
6
ByLayer
370
-1
48
1
60
0
100
AcDbPoint
10
42
20
0
30
0
39
0
210
0
220
0
230
1
50
360
0
POINT
5
15D
100
AcDbEntity
8
Defpoints
62
0
6
ByLayer
370
-1
48
1
60
0
100
AcDbPoint
10
6
20
-6.5
30
0
39
0
210
0
220
0
230
1
50
360
0
POINT
5
15E
100
AcDbEntity
8
Defpoints
62
0
6
ByLayer
370
-1
48
1
60
0
100
AcDbPoint
10
6
20
-35.952229
30
0
39
0
210
0
220
0
230
1
50
360
0
ENDBLK
5
155
100
AcDbEntity
8
0
100
AcDbBlockEnd
0
BLOCK
5
166
100
AcDbEntity
8
0
100
AcDbBlockBegin
2
_U1
70
0
10
0
20
0
30
0
3
_U1
0
MTEXT
5
160
100
AcDbEntity
8
SK2
62
256
6
ByLayer
370
18
48
1
60
0
100
AcDbMText
10
19.51763
20
-35.067115
30
0
210
0
220
0
230
1
1
\W0.7468;36.00
40
3
41
0
44
1.084337
50
0
71
7
72
5
7
iso_b_vert
0
LINE
5
161
100
AcDbEntity
8
SK2
62
256
6
ByLayer
370
13
48
1
60
0
100
AcDbLine
10
42
20
-1.5875
30
0
11
42
21
-37.952229
31
0
39
0
210
0
220
0
230
1
0
LINE
5
162
100
AcDbEntity
8
SK2
62
256
6
ByLayer
370
13
48
1
60
0
100
AcDbLine
10
6
20
-8.0875
30
0
11
6
21
-37.952229
31
0
39
0
210
0
220
0
230
1
0
LINE
5
163
100
AcDbEntity
8
SK2
62
256
6
ByLayer
370
13
48
1
60
0
100
AcDbLine
10
42
20
-35.952229
30
0
11
6
21
-35.952229
31
0
39
0
210
0
220
0
230
1
0
SOLID
5
164
100
AcDbEntity
8
SK2
62
256
6
ByLayer
370
18
48
1
60
0
100
AcDbTrace
10
42
20
-35.952229
30
0
11
38.500002
21
-36.413013
31
0
12
38.499998
22
-35.491446
32
0
13
38.499998
23
-35.491446
33
0
39
0
210
0
220
0
230
1
0
SOLID
5
165
100
AcDbEntity
8
SK2
62
256
6
ByLayer
370
18
48
1
60
0
100
AcDbTrace
10
6
20
-35.952229
30
0
11
9.499998
21
-35.491446
31
0
12
9.500002
22
-36.413013
32
0
13
9.500002
23
-36.413013
33
0
39
0
210
0
220
0
230
1
0
ENDBLK
5
167
100
AcDbEntity
8
0
100
AcDbBlockEnd
0
BLOCK
5
16C
100
AcDbEntity
8
0
100
AcDbBlockBegin
2
*D5
70
1
10
0
20
0
30
0
3
*D5
0
LINE
5
16E
100
AcDbEntity
8
0
62
256
6
ByLayer
370
-2
48
1
60
0
100
AcDbLine
10
-48
20
-9.5875
30
0
11
-48
21
-37.952229
31
0
39
0
210
0
220
0
230
1
0
LINE
5
16F
100
AcDbEntity
8
0
62
256
6
ByLayer
370
-2
48
1
60
0
100
AcDbLine
10
0
20
-9.5875
30
0
11
0
21
-37.952229
31
0
39
0
210
0
220
0
230
1
0
LINE
5
170
100
AcDbEntity
8
0
62
256
6
ByLayer
370
-2
48
1
60
0
100
AcDbLine
10
-44.5
20
-35.952229
30
0
11
-3.5
21
-35.952229
31
0
39
0
210
0
220
0
230
1
0
SOLID
5
171
100
AcDbEntity
8
0
62
256
6
ByLayer
370
-1
48
1
60
0
100
AcDbTrace
10
-44.5
20
-35.368896
30
0
11
-44.5
21
-36.535563
31
0
12
-48
22
-35.952229
32
0
13
-48
23
-35.952229
33
0
39
0
210
0
220
0
230
1
0
SOLID
5
172
100
AcDbEntity
8
0
62
256
6
ByLayer
370
-1
48
1
60
0
100
AcDbTrace
10
-3.5
20
-36.535563
30
0
11
-3.5
21
-35.368896
31
0
12
0
22
-35.952229
32
0
13
0
23
-35.952229
33
0
39
0
210
0
220
0
230
1
0
MTEXT
5
173
100
AcDbEntity
8
0
62
256
6
ByLayer
370
18
48
1
60
0
100
AcDbMText
10
-24
20
-29.952229
30
0
210
0
220
0
230
1
1
\A1;48
40
3
41
0
44
1
50
0
71
5
72
5
7
iso_b_vert
0
POINT
5
174
100
AcDbEntity
8
Defpoints
62
0
6
ByLayer
370
-1
48
1
60
0
100
AcDbPoint
10
-48
20
-8
30
0
39
0
210
0
220
0
230
1
50
360
0
POINT
5
175
100
AcDbEntity
8
Defpoints
62
0
6
ByLayer
370
-1
48
1
60
0
100
AcDbPoint
10
0
20
-8
30
0
39
0
210
0
220
0
230
1
50
360
0
POINT
5
176
100
AcDbEntity
8
Defpoints
62
0
6
ByLayer
370
-1
48
1
60
0
100
AcDbPoint
10
0
20
-35.952229
30
0
39
0
210
0
220
0
230
1
50
360
0
ENDBLK
5
16D
100
AcDbEntity
8
0
100
AcDbBlockEnd
0
BLOCK
5
17E
100
AcDbEntity
8
0
100
AcDbBlockBegin
2
_U2
70
0
10
0
20
0
30
0
3
_U2
0
MTEXT
5
178
100
AcDbEntity
8
SK2
62
256
6
ByLayer
370
18
48
1
60
0
100
AcDbMText
10
-28.640313
20
-35.067115
30
0
210
0
220
0
230
1
1
\W0.7694;48.00
40
3
41
0
44
1.084337
50
0
71
7
72
5
7
iso_b_vert
0
LINE
5
179
100
AcDbEntity
8
SK2
62
256
6
ByLayer
370
13
48
1
60
0
100
AcDbLine
10
-48
20
-9.5875
30
0
11
-48
21
-37.952229
31
0
39
0
210
0
220
0
230
1
0
LINE
5
17A
100
AcDbEntity
8
SK2
62
256
6
ByLayer
370
13
48
1
60
0
100
AcDbLine
10
0
20
-9.5875
30
0
11
0
21
-37.952229
31
0
39
0
210
0
220
0
230
1
0
LINE
5
17B
100
AcDbEntity
8
SK2
62
256
6
ByLayer
370
13
48
1
60
0
100
AcDbLine
10
-48
20
-35.952229
30
0
11
0
21
-35.952229
31
0
39
0
210
0
220
0
230
1
0
SOLID
5
17C
100
AcDbEntity
8
SK2
62
256
6
ByLayer
370
18
48
1
60
0
100
AcDbTrace
10
-48
20
-35.952229
30
0
11
-44.500002
21
-35.491446
31
0
12
-44.499998
22
-36.413013
32
0
13
-44.499998
23
-36.413013
33
0
39
0
210
0
220
0
230
1
0
SOLID
5
17D
100
AcDbEntity
8
SK2
62
256
6
ByLayer
370
18
48
1
60
0
100
AcDbTrace
10
0
20
-35.952229
30
0
11
-3.499998
21
-36.413013
31
0
12
-3.500002
22
-35.491446
32
0
13
-3.500002
23
-35.491446
33
0
39
0
210
0
220
0
230
1
0
ENDBLK
5
17F
100
AcDbEntity
8
0
100
AcDbBlockEnd
0
BLOCK
5
184
100
AcDbEntity
8
0
100
AcDbBlockBegin
2
*D7
70
1
10
0
20
0
30
0
3
*D7
0
LINE
5
186
100
AcDbEntity
8
0
62
256
6
ByLayer
370
-2
48
1
60
0
100
AcDbLine
10
42
20
1.5875
30
0
11
42
21
34.952229
31
0
39
0
210
0
220
0
230
1
0
LINE
5
187
100
AcDbEntity
8
0
62
256
6
ByLayer
370
-2
48
1
60
0
100
AcDbLine
10
15
20
8.0875
30
0
11
15
21
34.952229
31
0
39
0
210
0
220
0
230
1
0
LINE
5
188
100
AcDbEntity
8
0
62
256
6
ByLayer
370
-2
48
1
60
0
100
AcDbLine
10
38.5
20
32.952229
30
0
11
18.5
21
32.952229
31
0
39
0
210
0
220
0
230
1
0
SOLID
5
189
100
AcDbEntity
8
0
62
256
6
ByLayer
370
-1
48
1
60
0
100
AcDbTrace
10
38.5
20
32.368896
30
0
11
38.5
21
33.535563
31
0
12
42
22
32.952229
32
0
13
42
23
32.952229
33
0
39
0
210
0
220
0
230
1
0
SOLID
5
18A
100
AcDbEntity
8
0
62
256
6
ByLayer
370
-1
48
1
60
0
100
AcDbTrace
10
18.5
20
33.535563
30
0
11
18.5
21
32.368896
31
0
12
15
22
32.952229
32
0
13
15
23
32.952229
33
0
39
0
210
0
220
0
230
1
0
MTEXT
5
18B
100
AcDbEntity
8
0
62
256
6
ByLayer
370
18
48
1
60
0
100
AcDbMText
10
28.5
20
38.952229
30
0
210
0
220
0
230
1
1
\A1;27
40
3
41
0
44
1
50
0
71
5
72
5
7
iso_b_vert
0
POINT
5
18C
100
AcDbEntity
8
Defpoints
62
0
6
ByLayer
370
-1
48
1
60
0
100
AcDbPoint
10
42
20
0
30
0
39
0
210
0
220
0
230
1
50
360
0
POINT
5
18D
100
AcDbEntity
8
Defpoints
62
0
6
ByLayer
370
-1
48
1
60
0
100
AcDbPoint
10
15
20
6.5
30
0
39
0
210
0
220
0
230
1
50
360
0
POINT
5
18E
100
AcDbEntity
8
Defpoints
62
0
6
ByLayer
370
-1
48
1
60
0
100
AcDbPoint
10
15
20
32.952229
30
0
39
0
210
0
220
0
230
1
50
360
0
ENDBLK
5
185
100
AcDbEntity
8
0
100
AcDbBlockEnd
0
BLOCK
5
196
100
AcDbEntity
8
0
100
AcDbBlockBegin
2
_U3
70
0
10
0
20
0
30
0
3
_U3
0
MTEXT
5
190
100
AcDbEntity
8
SK2
62
256
6
ByLayer
370
18
48
1
60
0
100
AcDbMText
10
24.01763
20
33.837344
30
0
210
0
220
0
230
1
1
\W0.7468;27.00
40
3
41
0
44
1.084337
50
0
71
7
72
5
7
iso_b_vert
0
LINE
5
191
100
AcDbEntity
8
SK2
62
256
6
ByLayer
370
13
48
1
60
0
100
AcDbLine
10
42
20
1.5875
30
0
11
42
21
34.952229
31
0
39
0
210
0
220
0
230
1
0
LINE
5
192
100
AcDbEntity
8
SK2
62
256
6
ByLayer
370
13
48
1
60
0
100
AcDbLine
10
15
20
8.0875
30
0
11
15
21
34.952229
31
0
39
0
210
0
220
0
230
1
0
LINE
5
193
100
AcDbEntity
8
SK2
62
256
6
ByLayer
370
13
48
1
60
0
100
AcDbLine
10
42
20
32.952229
30
0
11
15
21
32.952229
31
0
39
0
210
0
220
0
230
1
0
SOLID
5
194
100
AcDbEntity
8
SK2
62
256
6
ByLayer
370
18
48
1
60
0
100
AcDbTrace
10
42
20
32.952229
30
0
11
38.500002
21
32.491446
31
0
12
38.499998
22
33.413013
32
0
13
38.499998
23
33.413013
33
0
39
0
210
0
220
0
230
1
0
SOLID
5
195
100
AcDbEntity
8
SK2
62
256
6
ByLayer
370
18
48
1
60
0
100
AcDbTrace
10
15
20
32.952229
30
0
11
18.499998
21
33.413013
31
0
12
18.500002
22
32.491446
32
0
13
18.500002
23
32.491446
33
0
39
0
210
0
220
0
230
1
0
ENDBLK
5
197
100
AcDbEntity
8
0
100
AcDbBlockEnd
0
ENDSEC
0
SECTION
2
ENTITIES
0
ARC
5
C0
100
AcDbEntity
8
SK2
62
256
6
ByLayer
370
13
48
1
60
0
100
AcDbCircle
39
0
10
42
20
0
30
0
40
19
210
0
220
0
230
1
100
AcDbArc
50
290
51
70
0
ELLIPSE
5
C1
100
AcDbEntity
8
SK1
62
256
6
ByLayer
370
18
48
1
60
0
100
AcDbEllipse
10
153.54477
20
0
30
0
11
229.090026261202
21
-2.59581837845095E-13
31
0
210
0
220
0
230
1
40
0.034921
41
2.39723378988983
42
2.57876881051445
0
ELLIPSE
5
C2
100
AcDbEntity
8
SK1
62
256
6
ByLayer
370
18
48
1
60
0
100
AcDbEllipse
10
153.54477
20
0
30
0
11
229.090026264126
21
-2.59581837848408E-13
31
0
210
0
220
0
230
1
40
0.034921
41
-2.57876881051488
42
-2.39723378989224
0
ELLIPSE
5
C3
100
AcDbEntity
8
SK1
62
256
6
ByLayer
370
18
48
1
60
0
100
AcDbEllipse
10
-20.57895
20
0
30
0
11
8.57894968019762
21
-9.72080522714331E-15
31
0
210
0
220
0
230
1
40
0.932515
41
-0.661405283579246
42
0.661405283579253
0
ELLIPSE
5
C4
100
AcDbEntity
8
SK1
62
256
6
ByLayer
370
18
48
1
60
0
100
AcDbEllipse
10
-34.539879
20
0
30
0
11
-1.46952762458688E-15
21
-8.00000000000015
31
0
210
0
220
0
230
1
40
0.932515
41
-2.00016141679846
42
-1.14143123679134
0
POINT
5
70
100
AcDbEntity
8
81
62
256
6
ByLayer
370
18
48
1
60
0
100
AcDbPoint
10
42
20
0
30
0
39
0
210
0
220
0
230
1
50
360
0
POINT
5
72
100
AcDbEntity
8
80
62
256
6
ByLayer
370
18
48
1
60
0
100
AcDbPoint
10
0
20
0
30
0
39
0
210
0
220
0
230
1
50
360
0
POINT
5
74
100
AcDbEntity
8
1
62
256
6
ByLayer
370
18
48
1
60
1
100
AcDbPoint
10
-48
20
-8
30
0
39
0
210
0
220
0
230
1
50
360
0
POINT
5
76
100
AcDbEntity
8
1
62
256
6
ByLayer
370
18
48
1
60
1
100
AcDbPoint
10
42
20
0
30
0
39
0
210
0
220
0
230
1
50
360
0
POINT
5
77
100
AcDbEntity
8
1
62
256
6
ByLayer
370
18
48
1
60
1
100
AcDbPoint
10
42
20
0
30
0
39
0
210
0
220
0
230
1
50
360
0
POINT
5
78
100
AcDbEntity
8
1
62
256
6
ByLayer
370
18
48
1
60
1
100
AcDbPoint
10
6
20
-6.5
30
0
39
0
210
0
220
0
230
1
50
360
0
POINT
5
79
100
AcDbEntity
8
1
62
256
6
ByLayer
370
18
48
1
60
1
100
AcDbPoint
10
-48
20
-8
30
0
39
0
210
0
220
0
230
1
50
360
0
POINT
5
7A
100
AcDbEntity
8
1
62
256
6
ByLayer
370
18
48
1
60
1
100
AcDbPoint
10
0
20
-8
30
0
39
0
210
0
220
0
230
1
50
360
0
POINT
5
7B
100
AcDbEntity
8
1
62
256
6
ByLayer
370
18
48
1
60
1
100
AcDbPoint
10
42
20
0
30
0
39
0
210
0
220
0
230
1
50
360
0
POINT
5
7C
100
AcDbEntity
8
1
62
256
6
ByLayer
370
18
48
1
60
1
100
AcDbPoint
10
15
20
6.5
30
0
39
0
210
0
220
0
230
1
50
360
0
SPLINE
5
C5
100
AcDbEntity
8
1
62
256
6
ByLayer
370
18
48
1
60
0
100
AcDbSpline
70
4
71
3
72
18
73
14
40
0
40
0
40
0
40
0
40
0.0190395012249904
40
0.0190395012249904
40
0.108217728386355
40
0.108217728386355
40
0.286574182709084
40
0.286574182709084
40
0.464930637031813
40
0.464930637031813
40
0.643287091354542
40
0.643287091354542
40
1
40
1
40
1
40
1
41
1
10
22.0779310457329
20
-4.73824125392176
30
0
41
1
10
22.0429577560667
20
-4.74670574049111
30
0
41
1
10
22.0079862466933
20
-4.75514628482506
30
0
41
1
10
21.8092236554812
20
-4.80298505711724
30
0
41
1
10
21.6454921239774
20
-4.84191995482774
30
0
41
1
10
21.1541358129107
20
-4.95662143353533
30
0
41
1
10
20.8263538246619
20
-5.03030355205397
30
0
41
1
10
20.1703951284597
20
-5.17222843885833
30
0
41
1
10
19.8423271830641
20
-5.24045019039735
30
0
41
1
10
19.1863419337584
20
-5.37141877218929
30
0
41
1
10
18.8583753386463
20
-5.43417538272774
30
0
41
1
10
17.8745843647897
20
-5.61431432390654
30
0
41
1
10
17.2188582279418
20
-5.72359620986063
30
0
41
1
10
16.5635051242325
20
-5.82198616172028
30
0
0
SPLINE
5
C6
100
AcDbEntity
8
1
62
256
6
ByLayer
370
18
48
1
60
0
100
AcDbSpline
70
4
71
3
72
10
73
6
40
0
40
0
40
0
40
0
40
0.5
40
0.5
40
1
40
1
40
1
40
1
41
1
10
16.5635051242324
20
5.8219861617203
30
0
41
1
10
16.3009241412108
20
5.86241386319003
30
0
41
1
10
16.0396217860811
20
5.90211726212846
30
0
41
1
10
15.5186963738568
20
5.97850355570267
30
0
41
1
10
15.259069581474
20
6.0151882515992
30
0
41
1
10
15
20
6.04986590425088
30
0
0
SPLINE
5
C7
100
AcDbEntity
8
1
62
256
6
ByLayer
370
18
48
1
60
0
100
AcDbSpline
70
4
71
3
72
34
73
30
40
0
40
0
40
0
40
0
40
0.124999999999996
40
0.124999999999996
40
0.249999999999993
40
0.249999999999993
40
0.312499999999992
40
0.312499999999992
40
0.374999999999992
40
0.374999999999992
40
0.406249999999992
40
0.406249999999992
40
0.437499999999992
40
0.437499999999992
40
0.499999999999991
40
0.499999999999991
40
0.624999999999993
40
0.624999999999993
40
0.687499999999995
40
0.687499999999995
40
0.749999999999996
40
0.749999999999996
40
0.781249999999995
40
0.781249999999995
40
0.812499999999994
40
0.812499999999994
40
0.874999999999995
40
0.874999999999995
40
1
40
1
40
1
40
1
41
1
10
19.4086878804321
20
-4.04987826683251
30
0
41
1
10
19.9453265529077
20
-4.20074056476213
30
0
41
1
10
20.4824279465893
20
-4.34420414557147
30
0
41
1
10
21.5570033842406
20
-4.61808120815954
30
0
41
1
10
22.0944823749447
20
-4.74847966182111
30
0
41
1
10
22.9006687290498
20
-4.93489264785671
30
0
41
1
10
23.1693902208649
20
-4.99549826840908
30
0
41
1
10
23.706772145275
20
-5.11368016421835
30
0
41
1
10
23.9753131371784
20
-5.17122666133272
30
0
41
1
10
24.377789140449
20
-5.25518061071438
30
0
41
1
10
24.5118813478305
20
-5.28279560696777
30
0
41
1
10
24.7800740483492
20
-5.33705580259391
30
0
41
1
10
24.9142043518491
20
-5.36365562443672
30
0
41
1
10
25.3167069467505
20
-5.4418712407354
30
0
41
1
10
25.5851783034536
20
-5.49192484977436
30
0
41
1
10
26.3908644824751
20
-5.63613484895066
30
0
41
1
10
26.9283508629042
20
-5.72436102488194
30
0
41
1
10
27.7348026426476
20
-5.84532895161402
30
0
41
1
10
28.0037006557759
20
-5.88375751048847
30
0
41
1
10
28.5411004581426
20
-5.95677151747424
30
0
41
1
10
28.8096408026605
20
-5.99136379373388
30
0
41
1
10
29.2121905868955
20
-6.04034413032966
30
0
41
1
10
29.3463304899017
20
-6.05618582614753
30
0
41
1
10
29.614520906827
20
-6.08688866025869
30
0
41
1
10
29.7485581675016
20
-6.10175931062571
30
0
41
1
10
30.1508176549191
20
-6.14465448889004
30
0
41
1
10
30.4191762401516
20
-6.17098314958642
30
0
41
1
10
31.2246610394508
20
-6.2434436566962
30
0
41
1
10
31.7621807560587
20
-6.28308373562365
30
0
41
1
10
32.2999999999999
20
-6.31431550943989
30
0
0
SPLINE
5
C8
100
AcDbEntity
8
1
62
256
6
ByLayer
370
18
48
1
60
0
100
AcDbSpline
70
4
71
3
72
14
73
10
40
0
40
0
40
0
40
0
40
0.65040646985597
40
0.65040646985597
40
0.813008087319962
40
0.813008087319962
40
0.975609704783955
40
0.975609704783955
40
1
40
1
40
1
40
1
41
1
10
32.2999999999999
20
-6.41779040351204
30
0
41
1
10
32.9118671226382
20
-6.45270538841419
30
0
41
1
10
33.5233056341773
20
-6.47651723353275
30
0
41
1
10
34.2867246433816
20
-6.49213018099022
30
0
41
1
10
34.4393661356062
20
-6.49454161734653
30
0
41
1
10
34.7445609289217
20
-6.49792281444482
30
0
41
1
10
34.8970912671653
20
-6.49889091744424
30
0
41
1
10
35.072592867349
20
-6.4991646870395
30
0
41
1
10
35.095486122115
20
-6.49918407676586
30
0
41
1
10
35.1183810401076
20
-6.49918717780915
30
0
0
SPLINE
5
C9
100
AcDbEntity
8
1
62
256
6
ByLayer
370
18
48
1
60
0
100
AcDbSpline
70
4
71
3
72
18
73
14
40
0
40
0
40
0
40
0
40
0.250000000000014
40
0.250000000000014
40
0.312500000000013
40
0.312500000000013
40
0.375000000000013
40
0.375000000000013
40
0.500000000000013
40
0.500000000000013
40
0.750000000000006
40
0.750000000000006
40
1
40
1
40
1
40
1
41
1
10
39.6341934772711
20
-0.928650450379166
30
0
41
1
10
39.0224869899334
20
-0.709268964201357
30
0
41
1
10
38.4111265347926
20
-0.488482570657993
30
0
41
1
10
37.6475429188698
20
-0.210228943816134
30
0
41
1
10
37.4948577707313
20
-0.154462586123771
30
0
41
1
10
37.1895572137546
20
-0.042679866076611
30
0
41
1
10
37.0369575170245
20
0.013379815065008
30
0
41
1
10
36.5789882827418
20
0.18117825079193
30
0
41
1
10
36.2734709832405
20
0.292608753612882
30
0
41
1
10
35.3563705716946
20
0.625666283082921
30
0
41
1
10
34.7449676186893
20
0.845818763401894
30
0
41
1
10
33.5223088188667
20
1.2828191359676
30
0
41
1
10
32.9110397876778
20
1.49963267631782
30
0
41
1
10
32.3000000000002
20
1.71516524040962
30
0
0
SPLINE
5
CA
100
AcDbEntity
8
1
62
256
6
ByLayer
370
18
48
1
60
0
100
AcDbSpline
70
4
71
3
72
81
73
77
40
0
40
0
40
0
40
0
40
0.062500000000008
40
0.062500000000008
40
0.125000000000016
40
0.125000000000016
40
0.140625000000017
40
0.140625000000017
40
0.156250000000018
40
0.156250000000018
40
0.18750000000002
40
0.18750000000002
40
0.250000000000022
40
0.250000000000022
40
0.281250000000022
40
0.281250000000022
40
0.296875000000023
40
0.296875000000023
40
0.312500000000023
40
0.312500000000023
40
0.343750000000024
40
0.343750000000024
40
0.375000000000024
40
0.375000000000024
40
0.406250000000025
40
0.406250000000025
40
0.437500000000025
40
0.437500000000025
40
0.445312500000026
40
0.445312500000026
40
0.453125000000026
40
0.468750000000027
40
0.468750000000027
40
0.500000000000029
40
0.500000000000029
40
0.53125000000003
40
0.53125000000003
40
0.539062500000031
40
0.539062500000031
40
0.546875000000031
40
0.562500000000031
40
0.562500000000031
40
0.593750000000031
40
0.593750000000031
40
0.625000000000031
40
0.625000000000031
40
0.632812500000032
40
0.632812500000032
40
0.640625000000032
40
0.656250000000031
40
0.656250000000031
40
0.687500000000028
40
0.687500000000028
40
0.718750000000026
40
0.718750000000026
40
0.726562500000025
40
0.726562500000025
40
0.734375000000024
40
0.734375000000024
40
0.750000000000023
40
0.750000000000023
40
0.781250000000023
40
0.781250000000023
40
0.812500000000022
40
0.843750000000022
40
0.843750000000022
40
0.851562500000021
40
0.851562500000021
40
0.85937500000002
40
0.875000000000019
40
0.875000000000019
40
0.937500000000009
40
0.937500000000009
40
0.968750000000005
40
0.968750000000005
40
1
40
1
40
1
40
1
41
1
10
39.6341934772697
20
6.29360093406515
30
0
41
1
10
39.715414409235
20
6.0921284924224
30
0
41
1
10
39.7968960243235
20
5.88463266048655
30
0
41
1
10
39.9608479172366
20
5.45926766014907
30
0
41
1
10
40.0433169822313
20
5.24140748500511
30
0
41
1
10
40.1470953218922
20
4.96316114756735
30
0
41
1
10
40.1678847712047
20
4.90721330101596
30
0
41
1
10
40.2095293017162
20
4.79472563279478
30
0
41
1
10
40.2303924506173
20
4.73816318344652
30
0
41
1
10
40.2927090125839
20
4.56858975578535
30
0
41
1
10
40.3340129512316
20
4.45536559959038
30
0
41
1
10
40.4571517231381
20
4.1151634739667
30
0
41
1
10
40.5382548438402
20
3.88767176323512
30
0
41
1
10
40.6576289485145
20
3.54514819188879
30
0
41
1
10
40.697031527822
20
3.43075593138252
30
0
41
1
10
40.7553332309617
20
3.25876429923966
30
0
41
1
10
40.7746323841404
20
3.20136615345015
30
0
41
1
10
40.8129089106992
20
3.08641600747683
30
0
41
1
10
40.8318940942444
20
3.02883862686491
30
0
41
1
10
40.8880002943402
20
2.85667138895087
30
0
41
1
10
40.9243714993
20
2.74238046172786
30
0
41
1
10
40.9943826458988
20
2.51458689348695
30
0
41
1
10
41.0280272060712
20
2.40108500308281
30
0
41
1
10
41.09156197559
20
2.17463472111817
30
0
41
1
10
41.12145758671
20
2.0616868293948
30
0
41
1
10
41.1759526193931
20
1.83603919020123
30
0
41
1
10
41.200554528874
20
1.72333854306072
30
0
41
1
10
41.2266227967929
20
1.58238306138583
30
0
41
1
10
41.2316057428925
20
1.55415663140241
30
0
41
1
10
41.2410334087415
20
1.4978465483494
30
0
41
1
10
41.2543564973642
20
1.41367481660012
30
0
41
1
10
41.2650805514115
20
1.3303944511494
30
0
41
1
10
41.2827125695657
20
1.16506783053245
30
0
41
1
10
41.2893416706223
20
1.05648974606407
30
0
41
1
10
41.2910981067698
20
0.842995625182397
30
0
41
1
10
41.2862148758933
20
0.738081314892156
30
0
41
1
10
41.2729605024611
20
0.609569177978642
30
0
41
1
10
41.2699497808928
20
0.58395673714918
30
0
41
1
10
41.2632642996156
20
0.533224967946552
30
0
41
1
10
41.2522533651768
20
0.457933245842128
30
0
41
1
10
41.2384640018458
20
0.385029920445277
30
0
41
1
10
41.2076415624341
20
0.242331721539557
30
0
41
1
10
41.1827859981135
20
0.151338416983464
30
0
41
1
10
41.1266933719992
20
-0.0226877050735084
30
0
41
1
10
41.095461074287
20
-0.105722873769452
30
0
41
1
10
41.0534662664305
20
-0.20461311877753
30
0
41
1
10
41.0449078303086
20
-0.22416772239427
30
0
41
1
10
41.0275693802498
20
-0.262658983517298
30
0
41
1
10
41.0012366486084
20
-0.319456224009457
30
0
41
1
10
40.9740291586681
20
-0.373489258050114
30
0
41
1
10
40.9186583192511
20
-0.477978905882708
30
0
41
1
10
40.8804825086991
20
-0.542880038275513
30
0
41
1
10
40.802344864866
20
-0.663475438042042
30
0
41
1
10
40.7623777904668
20
-0.719168013473364
30
0
41
1
10
40.7115419572185
20
-0.783033773870216
30
0
41
1
10
40.7013302958559
20
-0.795518753107103
30
0
41
1
10
40.6808217538108
20
-0.819909860817802
30
0
41
1
10
40.6705290425978
20
-0.831810131721994
30
0
41
1
10
40.63966423378
20
-0.866490779325204
30
0
41
1
10
40.6190615192911
20
-0.888304895074384
30
0
41
1
10
40.5572070437959
20
-0.949914390516312
30
0
41
1
10
40.5159120211006
20
-0.985884796009458
30
0
41
1
10
40.4332795465402
20
-1.04786900907484
30
0
41
1
10
40.3506026708512
20
-1.09989460182516
30
0
41
1
10
40.2678134687211
20
-1.13201525492198
30
0
41
1
10
40.2159921417204
20
-1.14573121138906
30
0
41
1
10
40.2056310351335
20
-1.14815313632531
30
0
41
1
10
40.1849932988684
20
-1.15234010815567
30
0
41
1
10
40.1541297719067
20
-1.15764432488388
30
0
41
1
10
40.1235355006874
20
-1.16005163886814
30
0
41
1
10
40.0221087630066
20
-1.16174470553946
30
0
41
1
10
39.9427395499337
20
-1.14296603956032
30
0
41
1
10
39.8255103599412
20
-1.08503469438082
30
0
41
1
10
39.7867370682258
20
-1.06073784308154
30
0
41
1
10
39.7096651671899
20
-1.00194895959584
30
0
41
1
10
39.6716905148263
20
-0.967704387508292
30
0
41
1
10
39.6341934772697
20
-0.928650450378569
30
0
0
SPLINE
5
CB
100
AcDbEntity
8
1
62
256
6
ByLayer
370
18
48
1
60
0
100
AcDbSpline
70
4
71
3
72
12
73
8
40
0
40
0
40
0
40
0
40
0.187817225818826
40
0.187817225818826
40
0.593908612909413
40
0.593908612909413
40
1
40
1
40
1
40
1
41
1
10
35.1183810756089
20
6.49918717781392
30
0
41
1
10
35.4007510607477
20
6.49922542371601
30
0
41
1
10
35.6833740399108
20
6.4967859917007
30
0
41
1
10
36.5776629992712
20
6.48141962045972
30
0
41
1
10
37.1892794014545
20
6.4596487799611
30
0
41
1
10
38.412153147296
20
6.39372302540357
30
0
41
1
10
39.0233807632733
20
6.34954678994342
30
0
41
1
10
39.6341934772711
20
6.29360093406501
30
0
0
SPLINE
5
CC
100
AcDbEntity
8
1
62
256
6
ByLayer
370
18
48
1
60
0
100
AcDbSpline
70
4
71
3
72
32
73
28
40
0
40
0
40
0
40
0
40
0.0541499533720344
40
0.0541499533720344
40
0.132970790591035
40
0.132970790591035
40
0.211791627810035
40
0.211791627810035
40
0.251202046419536
40
0.251202046419536
40
0.290612465029036
40
0.290612465029036
40
0.369433302248036
40
0.369433302248036
40
0.527074976686034
40
0.527074976686034
40
0.605895813905032
40
0.605895813905032
40
0.684716651124031
40
0.684716651124031
40
0.724127069733528
40
0.724127069733528
40
0.763537488343026
40
0.763537488343026
40
0.842358325562017
40
0.842358325562017
40
1
40
1
40
1
40
1
41
1
10
22.0780905662301
20
4.74250482642225
30
0
41
1
10
22.262703806124
20
4.78665529514478
30
0
41
1
10
22.4473231390116
20
4.830066381926
30
0
41
1
10
22.9006687290497
20
4.93489264785671
30
0
41
1
10
23.169390220865
20
4.99549826840905
30
0
41
1
10
23.706772145275
20
5.11368016421835
30
0
41
1
10
23.9753131371784
20
5.17122666133272
30
0
41
1
10
24.377789140449
20
5.25518061071438
30
0
41
1
10
24.5118813478305
20
5.28279560696777
30
0
41
1
10
24.7800740483492
20
5.33705580259391
30
0
41
1
10
24.914204351849
20
5.36365562443669
30
0
41
1
10
25.3167069467505
20
5.44187124073537
30
0
41
1
10
25.5851783034536
20
5.49192484977436
30
0
41
1
10
26.3908644824751
20
5.63613484895066
30
0
41
1
10
26.9283508629042
20
5.72436102488192
30
0
41
1
10
27.7348026426475
20
5.84532895161399
30
0
41
1
10
28.0037006557759
20
5.88375751048847
30
0
41
1
10
28.5411004581426
20
5.95677151747421
30
0
41
1
10
28.8096408026604
20
5.99136379373388
30
0
41
1
10
29.2121905868955
20
6.04034413032966
30
0
41
1
10
29.3463304899017
20
6.05618582614753
30
0
41
1
10
29.614520906827
20
6.08688866025867
30
0
41
1
10
29.7485581675015
20
6.10175931062571
30
0
41
1
10
30.1508176549191
20
6.14465448889004
30
0
41
1
10
30.4191762401515
20
6.17098314958642
30
0
41
1
10
31.2246610394507
20
6.2434436566962
30
0
41
1
10
31.7621807560587
20
6.28308373562362
30
0
41
1
10
32.2999999999999
20
6.31431550943989
30
0
0
SPLINE
5
CD
100
AcDbEntity
8
1
62
256
6
ByLayer
370
18
48
1
60
0
100
AcDbSpline
70
4
71
3
72
37
73
33
40
0
40
0
40
0
40
0
40
0.0312500000000021
40
0.0312500000000021
40
0.0625000000000041
40
0.125000000000006
40
0.125000000000006
40
0.250000000000007
40
0.250000000000007
40
0.312500000000008
40
0.312500000000008
40
0.343750000000007
40
0.343750000000007
40
0.375000000000006
40
0.375000000000006
40
0.500000000000005
40
0.500000000000005
40
0.562500000000004
40
0.562500000000004
40
0.625000000000003
40
0.625000000000003
40
0.656250000000003
40
0.656250000000003
40
0.687500000000003
40
0.687500000000003
40
0.750000000000002
40
0.750000000000002
40
0.812500000000002
40
0.812500000000002
40
0.875000000000001
40
0.875000000000001
40
1
40
1
40
1
40
1
41
1
10
32.3
20
1.65288840232873
30
0
41
1
10
32.1360968269529
20
1.70993151671871
30
0
41
1
10
31.9722880622364
20
1.76692889668431
30
0
41
1
10
31.6446612782332
20
1.88029354778328
30
0
41
1
10
31.1531616759214
20
2.04927519056707
30
0
41
1
10
30.6614884195583
20
2.21510779944796
30
0
41
1
10
29.6779496975571
20
2.54273265932011
30
0
41
1
10
29.022001531215
20
2.75577645665476
30
0
41
1
10
28.0378245524399
20
3.06760029967191
30
0
41
1
10
27.7098319974972
20
3.17021761825814
30
0
41
1
10
27.2182565069205
20
3.32213776546126
30
0
41
1
10
27.0544574143111
20
3.37245742636998
30
0
41
1
10
26.7269591649223
20
3.47240066818566
30
0
41
1
10
26.5632268129809
20
3.52194491428938
30
0
41
1
10
25.7442939655536
20
3.76671581273652
30
0
41
1
10
25.0885817130176
20
3.95383405429965
30
0
41
1
10
24.1043181169268
20
4.22205680898031
30
0
41
1
10
23.7761275898223
20
4.30937751913973
30
0
41
1
10
23.1201298157216
20
4.47972529426985
30
0
41
1
10
22.7922486691576
20
4.56277413766034
30
0
41
1
10
22.3006422308431
20
4.68419347552197
30
0
41
1
10
22.1368094544922
20
4.72414073158564
30
0
41
1
10
21.8092236554813
20
4.80298505711724
30
0
41
1
10
21.6454921239774
20
4.84191995482777
30
0
41
1
10
21.1541358129107
20
4.95662143353536
30
0
41
1
10
20.8263538246619
20
5.03030355205397
30
0
41
1
10
20.1703951284597
20
5.17222843885833
30
0
41
1
10
19.8423271830641
20
5.24045019039735
30
0
41
1
10
19.1863419337584
20
5.37141877218929
30
0
41
1
10
18.8583753386463
20
5.43417538272774
30
0
41
1
10
17.8745843647897
20
5.61431432390654
30
0
41
1
10
17.2188582279417
20
5.72359620986063
30
0
41
1
10
16.5635051242325
20
5.82198616172028
30
0
0
SPLINE
5
CE
100
AcDbEntity
8
1
62
256
6
ByLayer
370
18
48
1
60
0
100
AcDbSpline
70
4
71
3
72
10
73
6
40
0
40
0
40
0
40
0
40
0.5
40
0.5
40
1
40
1
40
1
40
1
41
1
10
16.5635051242324
20
-5.82198616172028
30
0
41
1
10
16.3009241412108
20
-5.86241386319
30
0
41
1
10
16.0396217860811
20
-5.90211726212843
30
0
41
1
10
15.5186963738568
20
-5.97850355570267
30
0
41
1
10
15.259069581474
20
-6.01518825159917
30
0
41
1
10
15
20
-6.04986590425085
30
0
0
SPLINE
5
CF
100
AcDbEntity
8
1
62
256
6
ByLayer
370
18
48
1
60
0
100
AcDbSpline
70
4
71
4
72
10
73
5
40
0
40
0
40
0
40
0
40
0
40
1
40
1
40
1
40
1
40
1
41
0.998664417683997
10
17.0429319398826
20
-3.45157582466155
30
0
41
0.996811462089351
10
16.8760819304894
20
-3.94747746723995
30
0
41
0.994273413206912
10
16.7301428403612
20
-4.53672026543471
30
0
41
0.995332012601538
10
16.6252597271841
20
-5.18172742297888
30
0
41
0.997137491136724
10
16.5635051242325
20
-5.82198616172032
30
0
0
SPLINE
5
D0
100
AcDbEntity
8
1
62
256
6
ByLayer
370
18
48
1
60
0
100
AcDbSpline
70
4
71
3
72
14
73
10
40
0
40
0
40
0
40
0
40
0.25
40
0.25
40
0.5
40
0.5
40
0.75
40
0.75
40
1
40
1
40
1
40
1
41
1
10
15.0000000000001
20
-3.1637684512468
30
0
41
1
10
15.382073520918
20
-3.18932086054872
30
0
41
1
10
15.7594707102345
20
-3.23152801985498
30
0
41
1
10
16.5063623930541
20
-3.34275470460525
30
0
41
1
10
16.875848805006
20
-3.41178412674307
30
0
41
1
10
17.6084433407925
20
-3.56944728235425
30
0
41
1
10
17.971552332958
20
-3.65806020494966
30
0
41
1
10
18.6931368194799
20
-3.84704918860473
30
0
41
1
10
19.0516230749311
20
-3.94737832735549
30
0
41
1
10
19.4086878804321
20
-4.04987826683248
30
0
0
SPLINE
5
D1
100
AcDbEntity
8
1
62
256
6
ByLayer
370
18
48
1
60
0
100
AcDbSpline
70
4
71
3
72
24
73
20
40
0
40
0
40
0
40
0
40
0.0495586703291773
40
0.0495586703291773
40
0.185336003139292
40
0.185336003139292
40
0.25322466954435
40
0.25322466954435
40
0.321113335949408
40
0.321113335949408
40
0.456890668759526
40
0.456890668759526
40
0.592668001569645
40
0.592668001569645
40
0.728445334379763
40
0.728445334379763
40
0.864222667189881
40
0.864222667189881
40
1
40
1
40
1
40
1
41
1
10
10.3751850205295
20
7.78744558413203
30
0
41
1
10
10.4516075910073
20
7.76449658463704
30
0
41
1
10
10.5281229840191
20
7.74123812076024
30
0
41
1
10
10.8145300608819
20
7.65315484882055
30
0
41
1
10
11.0248731328753
20
7.58640818869654
30
0
41
1
10
11.3406036321178
20
7.48314373652926
30
0
41
1
10
11.4458848115822
20
7.44819566459142
30
0
41
1
10
11.6564513540989
20
7.37724996532828
30
0
41
1
10
11.7617510081312
20
7.34124704405659
30
0
41
1
10
12.0773068008359
20
7.23174291736476
30
0
41
1
10
12.2872933071222
20
7.15672139811505
30
0
41
1
10
12.7063352600492
20
7.00247410204369
30
0
41
1
10
12.9153888497534
20
6.92324369698008
30
0
41
1
10
13.3327159357975
20
6.76038497705835
30
0
41
1
10
13.5409886847621
20
6.67675174878303
30
0
41
1
10
13.9572651225987
20
6.50501995708697
30
0
41
1
10
14.1652695137888
20
6.41691705214137
30
0
41
1
10
14.58188185571
20
6.23644708529551
30
0
41
1
10
14.7904917497029
20
6.14407710228807
30
0
41
1
10
15
20
6.04986590425088
30
0
0
SPLINE
5
D2
100
AcDbEntity
8
1
62
256
6
ByLayer
370
18
48
1
60
0
100
AcDbSpline
70
4
71
3
72
118
73
114
40
0
40
0
40
0
40
0
40
0.0625000000000034
40
0.0625000000000034
40
0.0937500000000051
40
0.0937500000000051
40
0.125000000000007
40
0.125000000000007
40
0.156250000000009
40
0.156250000000009
40
0.18750000000001
40
0.18750000000001
40
0.195312500000011
40
0.195312500000011
40
0.203125000000012
40
0.218750000000013
40
0.218750000000013
40
0.250000000000017
40
0.250000000000017
40
0.28125000000002
40
0.28125000000002
40
0.289062500000021
40
0.289062500000021
40
0.296875000000022
40
0.312500000000024
40
0.312500000000024
40
0.343750000000027
40
0.343750000000027
40
0.359375000000028
40
0.359375000000028
40
0.37500000000003
40
0.37500000000003
40
0.38281250000003
40
0.38281250000003
40
0.38671875000003
40
0.38671875000003
40
0.39062500000003
40
0.39062500000003
40
0.406250000000031
40
0.406250000000031
40
0.421875000000031
40
0.421875000000031
40
0.425781250000031
40
0.425781250000031
40
0.429687500000031
40
0.429687500000031
40
0.437500000000031
40
0.437500000000031
40
0.45312500000003
40
0.45312500000003
40
0.468750000000029
40
0.468750000000029
40
0.472656250000029
40
0.472656250000029
40
0.476562500000029
40
0.484375000000029
40
0.484375000000029
40
0.500000000000028
40
0.500000000000028
40
0.507812500000028
40
0.507812500000028
40
0.515625000000028
40
0.523437500000028
40
0.523437500000028
40
0.527343750000027
40
0.527343750000027
40
0.531250000000027
40
0.531250000000027
40
0.546875000000025
40
0.546875000000025
40
0.562500000000024
40
0.562500000000024
40
0.570312500000023
40
0.570312500000023
40
0.574218750000022
40
0.574218750000022
40
0.578125000000022
40
0.578125000000022
40
0.59375000000002
40
0.59375000000002
40
0.609375000000019
40
0.609375000000019
40
0.625000000000018
40
0.625000000000018
40
0.632812500000017
40
0.632812500000017
40
0.640625000000017
40
0.640625000000017
40
0.656250000000016
40
0.656250000000016
40
0.687500000000014
40
0.687500000000014
40
0.718750000000011
40
0.718750000000011
40
0.750000000000009
40
0.750000000000009
40
0.781250000000007
40
0.781250000000007
40
0.812500000000005
40
0.812500000000005
40
0.828125000000004
40
0.828125000000004
40
0.843750000000003
40
0.843750000000003
40
0.875000000000002
40
0.875000000000002
40
0.906250000000002
40
0.906250000000002
40
0.937500000000001
40
0.937500000000001
40
0.968750000000001
40
0.968750000000001
40
1
40
1
40
1
40
1
41
1
10
15.0000000000001
20
-3.1637684512468
30
0
41
1
10
14.5332168407812
20
-3.22603279619088
30
0
41
1
10
14.0687097869894
20
-3.30484985776724
30
0
41
1
10
13.3756181444803
20
-3.4505258269738
30
0
41
1
10
13.1451953835914
20
-3.50365848635221
30
0
41
1
10
12.6855650276396
20
-3.61952809552986
30
0
41
1
10
12.4563574204795
20
-3.68226368760801
30
0
41
1
10
11.9991295004014
20
-3.81784631342231
30
0
41
1
10
11.7711092320576
20
-3.89069133986888
30
0
41
1
10
11.316200378457
20
-4.04710214540677
30
0
41
1
10
11.0893119454068
20
-4.13066478296901
30
0
41
1
10
10.806354911014
20
-4.24231004408645
30
0
41
1
10
10.7498463888296
20
-4.26497987039468
30
0
41
1
10
10.6371862188232
20
-4.31093077099123
30
0
41
1
10
10.468645796755
20
-4.38080781421539
30
0
41
1
10
10.3014633372818
20
-4.45355695668198
30
0
41
1
10
9.96893862925748
20
-4.60295368744727
30
0
41
1
10
9.74970500835045
20
-4.70774039182319
30
0
41
1
10
9.31637447114582
20
-4.92823602298819
30
0
41
1
10
9.10227438038305
20
-5.04393797979776
30
0
41
1
10
8.83811031453396
20
-5.19595717922542
30
0
41
1
10
8.78539934008427
20
-5.22676274323996
30
0
41
1
10
8.68059127801843
20
-5.2889819724515
30
0
41
1
10
8.52444266679112
20
-5.38313582271056
30
0
41
1
10
8.3715387927343
20
-5.47976602250051
30
0
41
1
10
8.07025548395981
20
-5.67636004085659
30
0
41
1
10
7.87539845703145
20
-5.81184986907215
30
0
41
1
10
7.59338086548431
20
-6.0221022828139
30
0
41
1
10
7.50109351544978
20
-6.09335977477892
30
0
41
1
10
7.32029637460414
20
-6.23835088926199
30
0
41
1
10
7.23178447358194
20
-6.31208342764162
30
0
41
1
10
7.10220976534828
20
-6.42469024850925
30
0
41
1
10
7.05955167989885
20
-6.46256118992284
30
0
41
1
10
6.99642512202774
20
-6.51989737110108
30
0
41
1
10
6.97552648635144
20
-6.5390977891324
30
0
41
1
10
6.93402803819765
20
-6.57768066011974
30
0
41
1
10
6.9134461291502
20
-6.59704712744698
30
0
41
1
10
6.81182128375525
20
-6.69385761962283
30
0
41
1
10
6.73423755767942
20
-6.77158984006698
30
0
41
1
10
6.58732124692636
20
-6.92750110266434
30
0
41
1
10
6.51798176505713
20
-7.00568016148725
30
0
41
1
10
6.4372337611884
20
-7.10361040838251
30
0
41
1
10
6.42138184120086
20
-7.12320678889259
30
0
41
1
10
6.39029896271381
20
-7.16241843161743
30
0
41
1
10
6.37504265396367
20
-7.18206745964957
30
0
41
1
10
6.33046405274666
20
-7.24075374327634
30
0
41
1
10
6.30234652314806
20
-7.27950277971647
30
0
41
1
10
6.22297577199737
20
-7.39454871069631
30
0
41
1
10
6.17668195915292
20
-7.46964902295659
30
0
41
1
10
6.0987359963855
20
-7.61616162965078
30
0
41
1
10
6.06706959419606
20
-7.68757724065765
30
0
41
1
10
6.03805308873763
20
-7.77411993102476
30
0
41
1
10
6.03278553718988
20
-7.79128845870659
30
0
41
1
10
6.02344603421133
20
-7.82497927900835
30
0
41
1
10
6.01118165031903
20
-7.87468524749042
30
0
41
1
10
6.00414150672094
20
-7.92190210664847
30
0
41
1
10
5.99705985455705
20
-8.01300054181161
30
0
41
1
10
6.00164761920331
20
-8.06929374820245
30
0
41
1
10
6.02302188482693
20
-8.14687041094462
30
0
41
1
10
6.03247911634955
20
-8.17124693853171
30
0
41
1
10
6.05576928524857
20
-8.2170744069289
30
0
41
1
10
6.08344841400952
20
-8.26002264117946
30
0
41
1
10
6.11951596110313
20
-8.29750804746658
30
0
41
1
10
6.14959846033369
20
-8.32366494197638
30
0
41
1
10
6.16013157679498
20
-8.33205752634862
30
0
41
1
10
6.18219345620201
20
-8.34820312990928
30
0
41
1
10
6.19374384936799
20
-8.35596917815681
30
0
41
1
10
6.25368352460197
20
-8.39306847363716
30
0
41
1
10
6.3082476969027
20
-8.41706752216373
30
0
41
1
10
6.42849252891543
20
-8.45572720535418
30
0
41
1
10
6.49418592592724
20
-8.47037664414518
30
0
41
1
10
6.60000567004693
20
-8.48638490340153
30
0
41
1
10
6.63649623706056
20
-8.49072292475043
30
0
41
1
10
6.69295290317854
20
-8.49583704529311
30
0
41
1
10
6.71205881770257
20
-8.49730858860687
30
0
41
1
10
6.75062313922444
20
-8.49979284039301
30
0
41
1
10
6.77010668116495
20
-8.50080804105102
30
0
41
1
10
6.86848366598133
20
-8.5048106684041
30
0
41
1
10
6.95024178324559
20
-8.50459542226898
30
0
41
1
10
7.11888937759352
20
-8.49858456110115
30
0
41
1
10
7.20578316223947
20
-8.4927835066776
30
0
41
1
10
7.38398338249954
20
-8.47650155903398
30
0
41
1
10
7.47529221419748
20
-8.46601764597099
30
0
41
1
10
7.61514038631617
20
-8.44729641277036
30
0
41
1
10
7.66223825775316
20
-8.44055534931215
30
0
41
1
10
7.75733624163109
20
-8.42614377181914
30
0
41
1
10
7.80539973569182
20
-8.4184622308648
30
0
41
1
10
7.95024829934729
20
-8.39422399869065
30
0
41
1
10
8.04774022932943
20
-8.37647563488434
30
0
41
1
10
8.34256668554059
20
-8.31923948555141
30
0
41
1
10
8.54223752995432
20
-8.27579951261311
30
0
41
1
10
8.94606356820103
20
-8.18115900755197
30
0
41
1
10
9.15022701245101
20
-8.12993904271181
30
0
41
1
10
9.56168720509623
20
-8.021432769722
30
0
41
1
10
9.768986880211
20
-7.9641375699677
30
0
41
1
10
10.185586087423
20
-7.84453082027866
30
0
41
1
10
10.3948858650895
20
-7.78221462702425
30
0
41
1
10
10.8145300608819
20
-7.65315484882055
30
0
41
1
10
11.0248731328753
20
-7.58640818869654
30
0
41
1
10
11.3406036321178
20
-7.48314373652926
30
0
41
1
10
11.4458848115822
20
-7.44819566459142
30
0
41
1
10
11.6564513540989
20
-7.37724996532828
30
0
41
1
10
11.7617510081312
20
-7.34124704405659
30
0
41
1
10
12.0773068008359
20
-7.23174291736478
30
0
41
1
10
12.2872933071223
20
-7.15672139811505
30
0
41
1
10
12.7063352600492
20
-7.00247410204372
30
0
41
1
10
12.9153888497534
20
-6.92324369698005
30
0
41
1
10
13.3327159357975
20
-6.76038497705832
30
0
41
1
10
13.5409886847621
20
-6.67675174878303
30
0
41
1
10
13.9572651225987
20
-6.50501995708697
30
0
41
1
10
14.1652695137888
20
-6.41691705214134
30
0
41
1
10
14.58188185571
20
-6.23644708529551
30
0
41
1
10
14.7904917497029
20
-6.14407710228804
30
0
41
1
10
15
20
-6.04986590425085
30
0
0
SPLINE
5
D3
100
AcDbEntity
8
SK1
62
256
6
ByLayer
370
18
48
1
60
0
100
AcDbSpline
70
4
71
3
72
31
73
27
40
0
40
0
40
0
40
0
40
0.125000000000001
40
0.125000000000001
40
0.250000000000003
40
0.250000000000003
40
0.375000000000004
40
0.375000000000004
40
0.500000000000005
40
0.500000000000005
40
0.562500000000006
40
0.562500000000006
40
0.625000000000007
40
0.687500000000007
40
0.687500000000007
40
0.718750000000008
40
0.718750000000008
40
0.750000000000008
40
0.750000000000008
40
0.875000000000003
40
0.875000000000003
40
0.937500000000001
40
0.937500000000001
40
0.96875
40
0.96875
40
1
40
1
40
1
40
1
41
1
10
-41.322846649578
20
-3.33034885603652
30
0
41
1
10
-41.2982183123488
20
-3.38803258877206
30
0
41
1
10
-41.2717267680571
20
-3.44436940557552
30
0
41
1
10
-41.2144104214618
20
-3.55410223850021
30
0
41
1
10
-41.1835888583784
20
-3.60749982049498
30
0
41
1
10
-41.1168132306847
20
-3.71101722712197
30
0
41
1
10
-41.0808655609651
20
-3.76114016706765
30
0
41
1
10
-41.0027064087883
20
-3.85761356828161
30
0
41
1
10
-40.9605092263353
20
-3.90397104557275
30
0
41
1
10
-40.8912034928284
20
-3.97008360471079
30
0
41
1
10
-40.8672955191393
20
-3.99134752800094
30
0
41
1
10
-40.8179396702517
20
-4.0320451182069
30
0
41
1
10
-40.7669822244289
20
-4.07097190163014
30
0
41
1
10
-40.7125214515213
20
-4.10609739988001
30
0
41
1
10
-40.670214663531
20
-4.13088316998613
30
0
41
1
10
-40.655868463324
20
-4.13888495820467
30
0
41
1
10
-40.6266576666279
20
-4.15434007152678
30
0
41
1
10
-40.6118286726114
20
-4.16177231338193
30
0
41
1
10
-40.5371050103957
20
-4.19714033207811
30
0
41
1
10
-40.4749740708276
20
-4.22001118907693
30
0
41
1
10
-40.3778268407505
20
-4.24538536593542
30
0
41
1
10
-40.3447830766741
20
-4.25234770684881
30
0
41
1
10
-40.2941359057272
20
-4.26035999417425
30
0
41
1
10
-40.2770624559109
20
-4.2626233218524
30
0
41
1
10
-40.2428795071773
20
-4.26626974627274
30
0
41
1
10
-40.22572940542
20
-4.26766016692457
30
0
41
1
10
-40.2085199217113
20
-4.26861273885882
30
0
0
SPLINE
5
D4
100
AcDbEntity
8
SK1
62
256
6
ByLayer
370
18
48
1
60
0
100
AcDbSpline
70
4
71
3
72
28
73
24
40
0
40
0
40
0
40
0
40
0.125000000000001
40
0.125000000000001
40
0.187500000000002
40
0.187500000000002
40
0.250000000000004
40
0.250000000000004
40
0.375000000000006
40
0.375000000000006
40
0.437500000000007
40
0.437500000000007
40
0.500000000000008
40
0.500000000000008
40
0.625000000000008
40
0.625000000000008
40
0.687500000000007
40
0.687500000000007
40
0.750000000000006
40
0.750000000000006
40
0.875000000000003
40
0.875000000000003
40
1
40
1
40
1
40
1
41
1
10
-40.2085199217113
20
4.26861273885839
30
0
41
1
10
-40.2770078954797
20
4.26482182201573
30
0
41
1
10
-40.3435159701705
20
4.25421034005257
30
0
41
1
10
-40.4406186748427
20
4.22904991330012
30
0
41
1
10
-40.4725401749683
20
4.21911183367274
30
0
41
1
10
-40.5355147747093
20
4.19619029939315
30
0
41
1
10
-40.566119882014
20
4.18336793011164
30
0
41
1
10
-40.6552476470727
20
4.1412976123425
30
0
41
1
10
-40.7112423032074
20
4.10841569067671
30
0
41
1
10
-40.7908488886551
20
4.05271054233145
30
0
41
1
10
-40.8163780326975
20
4.03326066129199
30
0
41
1
10
-40.8655003190458
20
3.99289517941517
30
0
41
1
10
-40.8891220708721
20
3.97195852720529
30
0
41
1
10
-40.9574656057434
20
3.90707900711414
30
0
41
1
10
-40.9996786915665
20
3.86107582099058
30
0
41
1
10
-41.0588219892095
20
3.78847288665983
30
0
41
1
10
-41.0778365663648
20
3.76366951078927
30
0
41
1
10
-41.1145716668491
20
3.71292056409152
30
0
41
1
10
-41.1321793223817
20
3.68713127494576
30
0
41
1
10
-41.1829286385602
20
3.60864716973444
30
0
41
1
10
-41.2140187173667
20
3.55482217194611
30
0
41
1
10
-41.2716651020537
20
3.44451721966016
30
0
41
1
10
-41.2982170704349
20
3.38803549754442
30
0
41
1
10
-41.322846649578
20
3.33034885603652
30
0
0
SPLINE
5
D5
100
AcDbEntity
8
SK1
62
256
6
ByLayer
370
18
48
1
60
0
100
AcDbSpline
70
4
71
3
72
28
73
24
40
0
40
0
40
0
40
0
40
0.250000000000005
40
0.250000000000005
40
0.312500000000006
40
0.312500000000006
40
0.375000000000007
40
0.375000000000007
40
0.5
40
0.5
40
0.624999999999992
40
0.624999999999992
40
0.65624999999999
40
0.65624999999999
40
0.687499999999989
40
0.687499999999989
40
0.749999999999985
40
0.749999999999985
40
0.874999999999993
40
0.874999999999993
40
0.937499999999996
40
0.937499999999996
40
1
40
1
40
1
40
1
41
1
10
-13.8090444171455
20
4.91381127456395
30
0
41
1
10
-13.8730250304025
20
4.99046340860016
30
0
41
1
10
-13.9444892601168
20
5.06075108627354
30
0
41
1
10
-14.0453442110783
20
5.13975030164355
30
0
41
1
10
-14.0660970839937
20
5.15510348386371
30
0
41
1
10
-14.108849096648
20
5.18487572838717
30
0
41
1
10
-14.1308767716723
20
5.19931243837365
30
0
41
1
10
-14.1987969608565
20
5.24103142381006
30
0
41
1
10
-14.2458698834865
20
5.2663349057469
30
0
41
1
10
-14.3438356225248
20
5.3117780788902
30
0
41
1
10
-14.3947259977568
20
5.33192086270162
30
0
41
1
10
-14.4609718435402
20
5.35364247707062
30
0
41
1
10
-14.4743531694453
20
5.35781325453198
30
0
41
1
10
-14.5013886431665
20
5.36579875975136
30
0
41
1
10
-14.5150720561229
20
5.36962082906823
30
0
41
1
10
-14.5562656757263
20
5.38046558406404
30
0
41
1
10
-14.5839366053628
20
5.38687714356516
30
0
41
1
10
-14.6675758493674
20
5.40367498823224
30
0
41
1
10
-14.7241681343673
20
5.41163572791979
30
0
41
1
10
-14.8103509838265
20
5.4186001914598
30
0
41
1
10
-14.839294928931
20
5.42008953290443
30
0
41
1
10
-14.8976311188396
20
5.42134736085288
30
0
41
1
10
-14.9268902583505
20
5.42110969918963
30
0
41
1
10
-14.9560809879695
20
5.42000303685279
30
0
0
SPLINE
5
D6
100
AcDbEntity
8
SK1
62
256
6
ByLayer
370
18
48
1
60
0
100
AcDbSpline
70
4
71
3
72
29
73
25
40
0
40
0
40
0
40
0
40
0.125000000000023
40
0.125000000000023
40
0.250000000000046
40
0.250000000000046
40
0.312500000000058
40
0.312500000000058
40
0.375000000000069
40
0.375000000000069
40
0.500000000000078
40
0.500000000000078
40
0.562500000000082
40
0.562500000000082
40
0.593750000000078
40
0.593750000000078
40
0.625000000000073
40
0.750000000000046
40
0.750000000000046
40
0.875000000000019
40
0.875000000000019
40
0.937500000000009
40
0.937500000000009
40
1
40
1
40
1
40
1
41
1
10
-14.9560809879695
20
-5.42000303685279
30
0
41
1
10
-14.8976517734494
20
-5.42221817199751
30
0
41
1
10
-14.8398504554356
20
-5.42094359808488
30
0
41
1
10
-14.7254362798095
20
-5.41177794727187
30
0
41
1
10
-14.6688237697278
20
-5.40388482792244
30
0
41
1
10
-14.5847891358201
20
-5.38706822462967
30
0
41
1
10
-14.5568094402394
20
-5.38059638684285
30
0
41
1
10
-14.5019506989544
20
-5.36617855475819
30
0
41
1
10
-14.4750261228712
20
-5.35823183005425
30
0
41
1
10
-14.395685497739
20
-5.33227249172961
30
0
41
1
10
-14.3446977675387
20
-5.31214836042813
30
0
41
1
10
-14.2708592175646
20
-5.27794120061839
30
0
41
1
10
-14.2466881934933
20
-5.26586656540695
30
0
41
1
10
-14.2110774186189
20
-5.24675579357759
30
0
41
1
10
-14.1993109081088
20
-5.24021577958535
30
0
41
1
10
-14.1761490644524
20
-5.22689762154863
30
0
41
1
10
-14.1190707984856
20
-5.19295097150575
30
0
41
1
10
-14.0659423088902
20
-5.15585567198329
30
0
41
1
10
-13.9853722790436
20
-5.09280324282167
30
0
41
1
10
-13.9473081932622
20
-5.05942484453377
30
0
41
1
10
-13.8932201680201
20
-5.0067258138026
30
0
41
1
10
-13.8756933478446
20
-4.98872006168716
30
0
41
1
10
-13.8416025059636
20
-4.95184585609991
30
0
41
1
10
-13.8250535884703
20
-4.9329911023857
30
0
41
1
10
-13.8090444171455
20
-4.91381127456395
30
0
0
SPLINE
5
D7
100
AcDbEntity
8
1
62
256
6
ByLayer
370
13
48
1
60
0
100
AcDbSpline
70
4
71
3
72
42
73
38
40
0
40
0
40
0
40
0
40
0.0625
40
0.0625
40
0.125
40
0.125
40
0.1875
40
0.1875
40
0.25
40
0.25
40
0.3125
40
0.3125
40
0.34375
40
0.34375
40
0.359375
40
0.359375
40
0.375
40
0.375
40
0.4375
40
0.4375
40
0.5
40
0.5
40
0.5625
40
0.5625
40
0.625
40
0.625
40
0.6875
40
0.6875
40
0.75
40
0.75
40
0.8125
40
0.8125
40
0.875
40
0.875
40
0.9375
40
0.9375
40
1
40
1
40
1
40
1
41
1
10
32.3
20
-4.91521741531787
30
0
41
1
10
32.3589606520416
20
-4.68890044953238
30
0
41
1
10
32.417921304083
20
-4.4409308582276
30
0
41
1
10
32.535842608166
20
-3.91118527711947
30
0
41
1
10
32.5948032602077
20
-3.62945733472816
30
0
41
1
10
32.7127245642907
20
-3.04403025045019
30
0
41
1
10
32.7716852163323
20
-2.74038437832797
30
0
41
1
10
32.8896065204153
20
-2.12366021908298
30
0
41
1
10
32.9485671724569
20
-1.81062718159231
30
0
41
1
10
33.06648847654
20
-1.18684441376627
30
0
41
1
10
33.1254491285814
20
-0.876123399254908
30
0
41
1
10
33.2138901066438
20
-0.419071478314265
30
0
41
1
10
33.2433704326645
20
-0.268207852560579
30
0
41
1
10
33.2875909216957
20
-0.0448783793579537
30
0
41
1
10
33.302331084706
20
0.0287772293972068
30
0
41
1
10
33.3318114107268
20
0.177520189440088
30
0
41
1
10
33.3465515737372
20
0.252388781436252
30
0
41
1
10
33.4202523887891
20
0.628925453298336
30
0
41
1
10
33.4792130408306
20
0.937271551698245
30
0
41
1
10
33.5971343449137
20
1.55913705824656
30
0
41
1
10
33.6560949969552
20
1.87263276083698
30
0
41
1
10
33.7740163010383
20
2.49355262113804
30
0
41
1
10
33.8329769530798
20
2.80093540020346
30
0
41
1
10
33.9508982571629
20
3.39719461429573
30
0
41
1
10
34.0098589092044
20
3.68601875416635
30
0
41
1
10
34.1277802132875
20
4.23297404708507
30
0
41
1
10
34.186740865329
20
4.49105436584426
30
0
41
1
10
34.3046621694121
20
4.9661823240466
30
0
41
1
10
34.3636228214537
20
5.18319412712989
30
0
41
1
10
34.4815441255367
20
5.5690430081487
30
0
41
1
10
34.5405047775782
20
5.7378681109752
30
0
41
1
10
34.6584260816613
20
6.02414375821326
30
0
41
1
10
34.7173867337028
20
6.14160677187203
30
0
41
1
10
34.8353080377859
20
6.3258871788457
30
0
41
1
10
34.8942686898274
20
6.39273454045471
30
0
41
1
10
35.0121899939104
20
6.47977240975425
30
0
41
1
10
35.071150645952
20
6.5
30
0
41
1
10
35.1301112979935
20
6.5
30
0
0
SPLINE
5
D8
100
AcDbEntity
8
1
62
256
6
ByLayer
370
13
48
1
60
0
100
AcDbSpline
70
4
71
3
72
22
73
18
40
0
40
0
40
0
40
0
40
0.125
40
0.125
40
0.25
40
0.25
40
0.375
40
0.375
40
0.5
40
0.5
40
0.625
40
0.625
40
0.75
40
0.75
40
0.875
40
0.875
40
1
40
1
40
1
40
1
41
1
10
38.3054437613574
20
6.5
30
0
41
1
10
38.3608083328538
20
6.5
30
0
41
1
10
38.4161729043501
20
6.48217209699138
30
0
41
1
10
38.5269020473428
20
6.40574344682196
30
0
41
1
10
38.5822666188391
20
6.34711551423447
30
0
41
1
10
38.6929957618318
20
6.18557246906917
30
0
41
1
10
38.7483603333282
20
6.08263438199509
30
0
41
1
10
38.8590894763209
20
5.83138758212422
30
0
41
1
10
38.9144540478172
20
5.68306689323228
30
0
41
1
10
39.0251831908099
20
5.34295270434046
30
0
41
1
10
39.0805477623062
20
5.15116338143523
30
0
41
1
10
39.1912769052989
20
4.72912496461078
30
0
41
1
10
39.2466414767953
20
4.49889718028314
30
0
41
1
10
39.357370619788
20
4.0077265860188
30
0
41
1
10
39.4127351912843
20
3.74681798724154
30
0
41
1
10
39.523464334277
20
3.20390815505132
30
0
41
1
10
39.5788289057734
20
2.92194595424351
30
0
41
1
10
39.6341934772697
20
2.63462127028836
30
0
0
SPLINE
5
D9
100
AcDbEntity
8
1
62
256
6
ByLayer
370
13
48
1
60
0
100
AcDbSpline
70
4
71
3
72
42
73
38
40
0
40
0
40
0
40
0
40
0.0625
40
0.0625
40
0.125
40
0.125
40
0.1875
40
0.1875
40
0.203125
40
0.203125
40
0.218750000000001
40
0.218750000000001
40
0.250000000000001
40
0.250000000000001
40
0.312500000000001
40
0.312500000000001
40
0.375000000000001
40
0.375000000000001
40
0.437500000000001
40
0.437500000000001
40
0.500000000000001
40
0.500000000000001
40
0.562500000000001
40
0.562500000000001
40
0.625000000000001
40
0.625000000000001
40
0.687500000000001
40
0.687500000000001
40
0.75
40
0.75
40
0.8125
40
0.8125
40
0.875
40
0.875
40
0.9375
40
0.9375
40
1
40
1
40
1
40
1
41
1
10
32.3
20
-2.58948304398498
30
0
41
1
10
32.3485345350369
20
-2.33712466186387
30
0
41
1
10
32.3970690700739
20
-2.0808722155013
30
0
41
1
10
32.4941381401477
20
-1.56725676448087
30
0
41
1
10
32.5426726751847
20
-1.30990701513147
30
0
41
1
10
32.6397417452586
20
-0.800063691140508
30
0
41
1
10
32.6882762802955
20
-0.547577600858034
30
0
41
1
10
32.7489444490916
20
-0.238071421694428
30
0
41
1
10
32.7610780828509
20
-0.176472430913662
30
0
41
1
10
32.7853453503694
20
-0.0539438584689549
30
0
41
1
10
32.7974789841286
20
0.006752974059026
30
0
41
1
10
32.8338798854062
20
0.190021646872594
30
0
41
1
10
32.8581471529247
20
0.313573908277107
30
0
41
1
10
32.9309489554802
20
0.687557488751594
30
0
41
1
10
32.9794834905171
20
0.941350408903105
30
0
41
1
10
33.0765525605909
20
1.45277600204977
30
0
41
1
10
33.1250870956279
20
1.71040010638234
30
0
41
1
10
33.2221561657017
20
2.22336522740025
30
0
41
1
10
33.2706907007387
20
2.47869199011237
30
0
41
1
10
33.3677597708126
20
2.98026729874462
30
0
41
1
10
33.4162943058495
20
3.22649723270448
30
0
41
1
10
33.5133633759233
20
3.70291110050249
30
0
41
1
10
33.5618979109603
20
3.93307477317418
30
0
41
1
10
33.6589669810342
20
4.37081051296698
30
0
41
1
10
33.7075015160711
20
4.57836420414284
30
0
41
1
10
33.804570586145
20
4.96535024075271
30
0
41
1
10
33.8531051211819
20
5.14476947278521
30
0
41
1
10
33.9501741912558
20
5.47145751002722
30
0
41
1
10
33.9987087262927
20
5.61872066054332
30
0
41
1
10
34.0957777963666
20
5.87885664033098
30
0
41
1
10
34.1443123314036
20
5.99173167706633
30
0
41
1
10
34.2413814014774
20
6.18269219516927
30
0
41
1
10
34.2899159365143
20
6.26078640843107
30
0
41
1
10
34.3869850065882
20
6.3834559859261
30
0
41
1
10
34.4355195416252
20
6.42804415021604
30
0
41
1
10
34.532588611699
20
6.48630908501522
30
0
41
1
10
34.581123146736
20
6.5
30
0
41
1
10
34.6296576817729
20
6.5
30
0
0
SPLINE
5
DA
100
AcDbEntity
8
1
62
256
6
ByLayer
370
13
48
1
60
0
100
AcDbSpline
70
4
71
3
72
22
73
18
40
0
40
0
40
0
40
0
40
0.125
40
0.125
40
0.25
40
0.25
40
0.375
40
0.375
40
0.5
40
0.5
40
0.625
40
0.625
40
0.75
40
0.75
40
0.875
40
0.875
40
1
40
1
40
1
40
1
41
1
10
37.8049901451367
20
6.5
30
0
41
1
10
37.8812069506423
20
6.5
30
0
41
1
10
37.9574237561478
20
6.46611300676858
30
0
41
1
10
38.1098573671589
20
6.31791421793358
30
0
41
1
10
38.1860741726645
20
6.20347336205936
30
0
41
1
10
38.3385077836756
20
5.88827265676898
30
0
41
1
10
38.4147245891811
20
5.68743853007896
30
0
41
1
10
38.5671582001921
20
5.20385369218136
30
0
41
1
10
38.6433750056977
20
4.92113498673399
30
0
41
1
10
38.7958086167087
20
4.28928155555005
30
0
41
1
10
38.8720254222143
20
3.94028719517141
30
0
41
1
10
39.0244590332254
20
3.19983989187321
30
0
41
1
10
39.1006758387309
20
2.80857755625215
30
0
41
1
10
39.253109449742
20
2.01077433753167
30
0
41
1
10
39.3293262552476
20
1.60439462781642
30
0
41
1
10
39.4817598662586
20
0.801183777950854
30
0
41
1
10
39.5579766717642
20
0.404434937625183
30
0
41
1
10
39.6341934772697
20
0.0217986601200266
30
0
0
SPLINE
5
DB
100
AcDbEntity
8
1
62
256
6
ByLayer
370
13
48
1
60
0
100
AcDbSpline
70
4
71
3
72
22
73
18
40
0
40
0
40
0
40
0
40
0.125
40
0.125
40
0.25
40
0.25
40
0.375
40
0.375
40
0.5
40
0.5
40
0.625
40
0.625
40
0.75
40
0.75
40
0.875
40
0.875
40
1
40
1
40
1
40
1
41
1
10
32.3
20
0.0217949780867741
30
0
41
1
10
32.3762168360647
20
0.404431320380752
30
0
41
1
10
32.4524336721294
20
0.801180261077747
30
0
41
1
10
32.6048673442587
20
1.60439138169218
30
0
41
1
10
32.6810841803234
20
2.01077126186297
30
0
41
1
10
32.8335178524527
20
2.80857487409298
30
0
41
1
10
32.9097346885174
20
3.1998374325967
30
0
41
1
10
33.0621683606468
20
3.94028520121066
30
0
41
1
10
33.1383851967114
20
4.28927980362516
30
0
41
1
10
33.2908188688408
20
4.92113369855767
30
0
41
1
10
33.3670357049055
20
5.20385262529842
30
0
41
1
10
33.5194693770349
20
5.68743785192086
30
0
41
1
10
33.5956862130995
20
5.88827214583588
30
0
41
1
10
33.7481198852289
20
6.20347311471363
30
0
41
1
10
33.8243367212935
20
6.31791406702843
30
0
41
1
10
33.9767703934228
20
6.46611297941271
30
0
41
1
10
34.0529872294875
20
6.5
30
0
41
1
10
34.1292040655522
20
6.5
30
0
0
SPLINE
5
DC
100
AcDbEntity
8
1
62
256
6
ByLayer
370
13
48
1
60
0
100
AcDbSpline
70
4
71
3
72
42
73
38
40
0
40
0
40
0
40
0
40
0.0625000000000007
40
0.0625000000000007
40
0.125000000000001
40
0.125000000000001
40
0.187500000000002
40
0.187500000000002
40
0.250000000000003
40
0.250000000000003
40
0.312500000000003
40
0.312500000000003
40
0.375000000000004
40
0.375000000000004
40
0.437500000000005
40
0.437500000000005
40
0.500000000000005
40
0.500000000000005
40
0.562500000000006
40
0.562500000000006
40
0.625000000000007
40
0.625000000000007
40
0.687500000000008
40
0.687500000000008
40
0.750000000000008
40
0.750000000000008
40
0.781250000000008
40
0.781250000000008
40
0.796875000000008
40
0.796875000000008
40
0.812500000000008
40
0.812500000000008
40
0.875000000000005
40
0.875000000000005
40
0.937500000000003
40
0.937500000000003
40
1
40
1
40
1
40
1
41
1
10
37.3045365289161
20
6.5
30
0
41
1
10
37.3530710486735
20
6.5
30
0
41
1
10
37.4016055684309
20
6.48630909365519
30
0
41
1
10
37.4986746079456
20
6.4280441966047
30
0
41
1
10
37.547209127703
20
6.38345606144563
30
0
41
1
10
37.6442781672177
20
6.2607865646234
30
0
41
1
10
37.6928126869751
20
6.18269240292187
30
0
41
1
10
37.7898817264898
20
5.99173201037476
30
0
41
1
10
37.8384162462471
20
5.87885704764346
30
0
41
1
10
37.9354852857619
20
5.61872123597809
30
0
41
1
10
37.9840198055192
20
5.4714581795742
30
0
41
1
10
38.081088845034
20
5.14477034594955
30
0
41
1
10
38.1296233647914
20
4.96535122340069
30
0
41
1
10
38.2266924043061
20
4.57836541444112
30
0
41
1
10
38.2752269240634
20
4.37081184139882
30
0
41
1
10
38.3722959635782
20
3.93307633869549
30
0
41
1
10
38.4208304833355
20
3.70291278494281
30
0
41
1
10
38.5178995228503
20
3.22649914787743
30
0
41
1
10
38.5664340426076
20
2.98026932569931
30
0
41
1
10
38.6635030821224
20
2.47869422659747
30
0
41
1
10
38.7120376018797
20
2.22336756161391
30
0
41
1
10
38.8091066413945
20
1.71040261689589
30
0
41
1
10
38.8576411611518
20
1.45277859112886
30
0
41
1
10
38.9547102006666
20
0.941353133029992
30
0
41
1
10
39.0032447204239
20
0.687560269367594
30
0
41
1
10
39.07604650006
20
0.313576756499572
30
0
41
1
10
39.1003137599386
20
0.190024514792213
30
0
41
1
10
39.1367146497566
20
0.0067558673272288
30
0
41
1
10
39.148848279696
20
-0.0539409375669209
30
0
41
1
10
39.1731155395747
20
-0.176469449954254
30
0
41
1
10
39.1852491695141
20
-0.238068410997727
30
0
41
1
10
39.2459173192108
20
-0.547574443275892
30
0
41
1
10
39.2944518389681
20
-0.80006042177763
30
0
41
1
10
39.3915208784829
20
-1.30990354315398
30
0
41
1
10
39.4400553982402
20
-1.56725320170693
30
0
41
1
10
39.537124437755
20
-2.08086850197111
30
0
41
1
10
39.5856589575124
20
-2.3371208884206
30
0
41
1
10
39.6341934772697
20
-2.58947923052449
30
0
0
SPLINE
5
DD
100
AcDbEntity
8
1
62
256
6
ByLayer
370
13
48
1
60
0
100
AcDbSpline
70
4
71
3
72
22
73
18
40
0
40
0
40
0
40
0
40
0.125
40
0.125
40
0.25
40
0.25
40
0.375
40
0.375
40
0.5
40
0.5
40
0.625
40
0.625
40
0.75
40
0.75
40
0.875
40
0.875
40
1
40
1
40
1
40
1
41
1
10
32.3
20
2.63461746407276
30
0
41
1
10
32.3553646020555
20
2.92194235396462
30
0
41
1
10
32.410729204111
20
3.20390477762066
30
0
41
1
10
32.5214584082219
20
3.74681507169387
30
0
41
1
10
32.5768230102775
20
4.0077239093977
30
0
41
1
10
32.6875522143884
20
4.49889497696824
30
0
41
1
10
32.7429168164439
20
4.72912299555088
30
0
41
1
10
32.8536460205549
20
5.15116185625681
30
0
41
1
10
32.9090106226103
20
5.34295138868629
30
0
41
1
10
33.0197398267213
20
5.68306595612458
30
0
41
1
10
33.0751044287768
20
5.83138681398856
30
0
41
1
10
33.1858336328878
20
6.08263390202222
30
0
41
1
10
33.2411982349432
20
6.1855721082965
30
0
41
1
10
33.3519274390542
20
6.34711534001326
30
0
41
1
10
33.4072920411097
20
6.40574334000664
30
0
41
1
10
33.5180212452207
20
6.48217207724954
30
0
41
1
10
33.5733858472761
20
6.5
30
0
41
1
10
33.6287504493316
20
6.5
30
0
0
SPLINE
5
DE
100
AcDbEntity
8
1
62
256
6
ByLayer
370
13
48
1
60
0
100
AcDbSpline
70
4
71
3
72
42
73
38
40
0
40
0
40
0
40
0
40
0.0624999999999997
40
0.0624999999999997
40
0.124999999999999
40
0.124999999999999
40
0.187499999999999
40
0.187499999999999
40
0.249999999999999
40
0.249999999999999
40
0.312499999999999
40
0.312499999999999
40
0.374999999999998
40
0.374999999999998
40
0.437499999999998
40
0.437499999999998
40
0.499999999999997
40
0.499999999999997
40
0.562499999999997
40
0.562499999999997
40
0.624999999999997
40
0.624999999999997
40
0.640624999999997
40
0.640624999999997
40
0.656249999999997
40
0.656249999999997
40
0.687499999999997
40
0.687499999999997
40
0.749999999999997
40
0.749999999999997
40
0.812499999999998
40
0.812499999999998
40
0.874999999999999
40
0.874999999999999
40
0.937499999999999
40
0.937499999999999
40
1
40
1
40
1
40
1
41
1
10
36.8040829126955
20
6.5
30
0
41
1
10
36.8630435494575
20
6.5
30
0
41
1
10
36.9220041862194
20
6.47977242027596
30
0
41
1
10
37.0399254597433
20
6.3927345976002
30
0
41
1
10
37.0988860965053
20
6.32588727214051
30
0
41
1
10
37.2168073700292
20
6.14160696511323
30
0
41
1
10
37.2757680067911
20
6.02414401528364
30
0
41
1
10
37.3936892803151
20
5.73786852159608
30
0
41
1
10
37.4526499170771
20
5.56904350848981
30
0
41
1
10
37.570571190601
20
5.18319482669491
30
0
41
1
10
37.629531827363
20
4.96618313307323
30
0
41
1
10
37.7474531008868
20
4.49105540374848
30
0
41
1
10
37.8064137376488
20
4.23297520433235
30
0
41
1
10
37.9243350111727
20
3.68602014828727
30
0
41
1
10
37.9832956479348
20
3.39719612586848
30
0
41
1
10
38.1012169214586
20
2.80093713354489
30
0
41
1
10
38.1601775582206
20
2.49355445873871
30
0
41
1
10
38.2780988317445
20
1.87263478508828
30
0
41
1
10
38.3370594685065
20
1.55913916486779
30
0
41
1
10
38.4549807420304
20
0.937273796277339
30
0
41
1
10
38.5139413787924
20
0.628927753478393
30
0
41
1
10
38.5876421747448
20
0.252391133759772
30
0
41
1
10
38.6023823339354
20
0.177522551333055
30
0
41
1
10
38.6318626523163
20
0.028779608727433
30
0
41
1
10
38.6466028115069
20
-0.0448759786020503
30
0
41
1
10
38.6908232890783
20
-0.268205361757822
30
0
41
1
10
38.7203036074592
20
-0.419068928898753
30
0
41
1
10
38.8087445626022
20
-0.87612068075876
30
0
41
1
10
38.8677051993641
20
-1.18684159154446
30
0
41
1
10
38.9856264728881
20
-1.81062418432705
30
0
41
1
10
39.0445871096501
20
-2.12365715059471
30
0
41
1
10
39.162508383174
20
-2.7403812137114
30
0
41
1
10
39.221469019936
20
-3.04402706103167
30
0
41
1
10
39.3393902934599
20
-3.6294541522166
30
0
41
1
10
39.3983509302218
20
-3.91118212639213
30
0
41
1
10
39.5162722037458
20
-4.44092783122665
30
0
41
1
10
39.5752328405077
20
-4.68889751448799
30
0
41
1
10
39.6341934772697
20
-4.91521460013016
30
0
0
SPLINE
5
DF
100
AcDbEntity
8
1
62
256
6
ByLayer
370
13
48
1
60
0
100
AcDbSpline
70
4
71
3
72
14
73
10
40
0
40
0
40
0
40
0
40
0.25
40
0.25
40
0.5
40
0.5
40
0.75
40
0.75
40
1
40
1
40
1
40
1
41
1
10
32.3
20
4.94841183809095
30
0
41
1
10
32.3690247360926
20
5.21087241168911
30
0
41
1
10
32.4380494721852
20
5.44326836739214
30
0
41
1
10
32.5760989443703
20
5.83903479831292
30
0
41
1
10
32.6451236804629
20
6.00240604130255
30
0
41
1
10
32.783173152648
20
6.25866796546529
30
0
41
1
10
32.8521978887406
20
6.35161342786537
30
0
41
1
10
32.9902473609258
20
6.47223939426297
30
0
41
1
10
33.0592720970184
20
6.5
30
0
41
1
10
33.1282968331109
20
6.5
30
0
0
SPLINE
5
E0
100
AcDbEntity
8
1
62
256
6
ByLayer
370
13
48
1
60
0
100
AcDbSpline
70
4
71
3
72
44
73
40
40
0
40
0
40
0
40
0
40
0.0624999999999998
40
0.0624999999999998
40
0.125
40
0.125
40
0.187499999999999
40
0.187499999999999
40
0.249999999999999
40
0.249999999999999
40
0.312499999999999
40
0.312499999999999
40
0.374999999999999
40
0.374999999999999
40
0.437499999999998
40
0.437499999999998
40
0.499999999999998
40
0.499999999999998
40
0.531249999999998
40
0.531249999999998
40
0.546874999999998
40
0.546874999999998
40
0.554687499999998
40
0.554687499999998
40
0.562499999999998
40
0.562499999999998
40
0.624999999999998
40
0.624999999999998
40
0.687499999999999
40
0.687499999999999
40
0.749999999999999
40
0.749999999999999
40
0.812499999999999
40
0.812499999999999
40
0.875
40
0.875
40
0.9375
40
0.9375
40
1
40
1
40
1
40
1
41
1
10
36.3036292964748
20
6.5
30
0
41
1
10
36.3730160502414
20
6.5
30
0
41
1
10
36.4424028040079
20
6.471945880975
30
0
41
1
10
36.5811763115411
20
6.35000363146051
30
0
41
1
10
36.6505630653076
20
6.25603334355878
30
0
41
1
10
36.7893365728407
20
5.99695341085544
30
0
41
1
10
36.8587233266073
20
5.83178799447225
30
0
41
1
10
36.9974968341405
20
5.43178310962853
30
0
41
1
10
37.066883587907
20
5.19694388598481
30
0
41
1
10
37.2056570954401
20
4.6667643252319
30
0
41
1
10
37.2750438492067
20
4.37149014429841
30
0
41
1
10
37.4138173567398
20
3.73633533924993
30
0
41
1
10
37.4832041105063
20
3.39656644397644
30
0
41
1
10
37.6219776180394
20
2.69226358126315
30
0
41
1
10
37.691364371806
20
2.32784634176659
30
0
41
1
10
37.8301378793392
20
1.59444293378254
30
0
41
1
10
37.8995246331057
20
1.22554126639849
30
0
41
1
10
38.0036047637555
20
0.68181440177375
30
0
41
1
10
38.0382981406388
20
0.502146618732183
30
0
41
1
10
38.0903382059637
20
0.236312496913428
30
0
41
1
10
38.1076848944054
20
0.148310014637104
30
0
41
1
10
38.1337049270679
20
0.0173610641259074
30
0
41
1
10
38.1423782712887
20
-0.0260358106044123
30
0
41
1
10
38.1597249597303
20
-0.113381652769306
30
0
41
1
10
38.1683983039511
20
-0.157229472376599
30
0
41
1
10
38.2464584019385
20
-0.553330260094498
30
0
41
1
10
38.3158451557051
20
-0.916073409117473
30
0
41
1
10
38.4546186632382
20
-1.64831470178962
30
0
41
1
10
38.5240054170047
20
-2.01775780346523
30
0
41
1
10
38.6627789245379
20
-2.74471545193921
30
0
41
1
10
38.7321656783044
20
-3.10212988722003
30
0
41
1
10
38.8709391858375
20
-3.78458772093322
30
0
41
1
10
38.9403259396041
20
-4.10951118374788
30
0
41
1
10
39.0790994471372
20
-4.70820715324621
30
0
41
1
10
39.1484862009038
20
-4.98188124874773
30
0
41
1
10
39.2872597084369
20
-5.46440219125066
30
0
41
1
10
39.3566464622035
20
-5.67320740151811
30
0
41
1
10
39.4954199697365
20
-6.01963630417342
30
0
41
1
10
39.5648067235031
20
-6.15728387382157
30
0
41
1
10
39.6341934772697
20
-6.25995956946647
30
0
0
SPLINE
5
E1
100
AcDbEntity
8
1
62
256
6
ByLayer
370
13
48
1
60
0
100
AcDbSpline
70
4
71
3
72
10
73
6
40
0
40
0
40
0
40
0
40
0.5
40
0.5
40
1
40
1
40
1
40
1
41
1
10
32.3
20
6.27263653360706
30
0
41
1
10
32.3546405361484
20
6.35121397063699
30
0
41
1
10
32.4092810722968
20
6.40825646041569
30
0
41
1
10
32.5185621445935
20
6.48263673920539
30
0
41
1
10
32.5732026807419
20
6.5
30
0
41
1
10
32.6278432168903
20
6.5
30
0
0
SPLINE
5
E2
100
AcDbEntity
8
1
62
256
6
ByLayer
370
13
48
1
60
0
100
AcDbSpline
70
4
71
3
72
64
73
60
40
0
40
0
40
0
40
0
40
0.0624999999999993
40
0.0624999999999993
40
0.124999999999999
40
0.124999999999999
40
0.156249999999998
40
0.156249999999998
40
0.187499999999998
40
0.187499999999998
40
0.218749999999998
40
0.218749999999998
40
0.249999999999997
40
0.249999999999997
40
0.281249999999997
40
0.281249999999997
40
0.312499999999997
40
0.312499999999997
40
0.343749999999996
40
0.343749999999996
40
0.374999999999996
40
0.374999999999996
40
0.437499999999995
40
0.437499999999995
40
0.468749999999995
40
0.468749999999995
40
0.476562499999995
40
0.476562499999995
40
0.484374999999995
40
0.484374999999995
40
0.499999999999995
40
0.499999999999995
40
0.562499999999996
40
0.562499999999996
40
0.624999999999996
40
0.624999999999996
40
0.656249999999996
40
0.656249999999996
40
0.687499999999997
40
0.687499999999997
40
0.718749999999997
40
0.718749999999997
40
0.749999999999998
40
0.749999999999998
40
0.781249999999998
40
0.781249999999998
40
0.812499999999999
40
0.812499999999999
40
0.874999999999999
40
0.874999999999999
40
0.9375
40
0.9375
40
0.953124999999999
40
0.953124999999999
40
0.9609375
40
0.9609375
40
0.96875
40
0.96875
40
1
40
1
40
1
40
1
41
1
10
35.8031756802542
20
6.5
30
0
41
1
10
35.8829885510253
20
6.5
30
0
41
1
10
35.9628014217965
20
6.46281557613725
30
0
41
1
10
36.1224271633388
20
6.29969958418761
30
0
41
1
10
36.20224003411
20
6.17360731719637
30
0
41
1
10
36.3219593402667
20
5.91336823293693
30
0
41
1
10
36.3618657756523
20
5.81485581706278
30
0
41
1
10
36.4416786464235
20
5.59472163820303
30
0
41
1
10
36.481585081809
20
5.47309935262336
30
0
41
1
10
36.5613979525802
20
5.20800618697257
30
0
41
1
10
36.6013043879657
20
5.06453723342639
30
0
41
1
10
36.6811172587369
20
4.75783460909381
30
0
41
1
10
36.7210236941225
20
4.59460524445777
30
0
41
1
10
36.8008365648936
20
4.25119464839935
30
0
41
1
10
36.8407430002792
20
4.07101964257754
30
0
41
1
10
36.9205558710504
20
3.69709945909986
30
0
41
1
10
36.9604623064359
20
3.50336165685593
30
0
41
1
10
37.0402751772071
20
3.10605916968802
30
0
41
1
10
37.0801816125927
20
2.90250209049827
30
0
41
1
10
37.1599944833638
20
2.48943757391729
30
0
41
1
10
37.1999009187494
20
2.27993709201519
30
0
41
1
10
37.3196202249062
20
1.64819215002459
30
0
41
1
10
37.3994330956773
20
1.22293296865095
30
0
41
1
10
37.519152401834
20
0.598657430847254
30
0
41
1
10
37.5590588372196
20
0.392783039991969
30
0
41
1
10
37.6089418814516
20
0.139815855446329
30
0
41
1
10
37.618918490298
20
0.0894398887680836
30
0
41
1
10
37.6388717079908
20
-0.0108423359191931
30
0
41
1
10
37.6488483168372
20
-0.0608247485320419
30
0
41
1
10
37.6787781433763
20
-0.211908157282238
30
0
41
1
10
37.6987313610692
20
-0.313538300683234
30
0
41
1
10
37.798497449533
20
-0.825490956720529
30
0
41
1
10
37.8783103203042
20
-1.24752860242069
30
0
41
1
10
38.0379360618466
20
-2.09249261346477
30
0
41
1
10
38.1177489326178
20
-2.51527373547046
30
0
41
1
10
38.2374682387744
20
-3.1274906488668
30
0
41
1
10
38.2773746741601
20
-3.32787162846256
30
0
41
1
10
38.3571875449312
20
-3.71741211121116
30
0
41
1
10
38.3970939803168
20
-3.90656398504427
30
0
41
1
10
38.4769068510879
20
-4.27000924187806
30
0
41
1
10
38.5168132864735
20
-4.4442955708279
30
0
41
1
10
38.5966261572447
20
-4.77481300285766
30
0
41
1
10
38.6365325926302
20
-4.93103851301521
30
0
41
1
10
38.7163454634014
20
-5.22287089059014
30
0
41
1
10
38.756251898787
20
-5.35847429686388
30
0
41
1
10
38.8360647695581
20
-5.607270510116
30
0
41
1
10
38.8759712049437
20
-5.72046230792253
30
0
41
1
10
38.9956905111004
20
-6.02499295156608
30
0
41
1
10
39.0755033818716
20
-6.18091062724898
30
0
41
1
10
39.2351291234139
20
-6.40063330936908
30
0
41
1
10
39.3149419941851
20
-6.46458382680896
30
0
41
1
10
39.414708082649
20
-6.49474495515869
30
0
41
1
10
39.4346613003418
20
-6.49830649069833
30
0
41
1
10
39.464591126881
20
-6.50013218217723
30
0
41
1
10
39.4745677357274
20
-6.50015872773116
30
0
41
1
10
39.4945209534201
20
-6.49905005997394
30
0
41
1
10
39.5044975622666
20
-6.49791051965079
30
0
41
1
10
39.5543806064986
20
-6.48920635352508
30
0
41
1
10
39.5942870418842
20
-6.47260850487564
30
0
41
1
10
39.6341934772697
20
-6.44544697420179
30
0
0
SPLINE
5
E3
100
AcDbEntity
8
1
62
256
6
ByLayer
370
13
48
1
60
0
100
AcDbSpline
70
4
71
3
72
77
73
73
40
0
40
0
40
0
40
0
40
0.0312499999999991
40
0.0312499999999991
40
0.0624999999999983
40
0.0624999999999983
40
0.0937499999999974
40
0.0937499999999974
40
0.124999999999997
40
0.124999999999997
40
0.156249999999996
40
0.156249999999996
40
0.187499999999995
40
0.187499999999995
40
0.218749999999994
40
0.218749999999994
40
0.249999999999993
40
0.249999999999993
40
0.281249999999992
40
0.281249999999992
40
0.312499999999991
40
0.312499999999991
40
0.343749999999991
40
0.343749999999991
40
0.37499999999999
40
0.37499999999999
40
0.406249999999989
40
0.406249999999989
40
0.421874999999988
40
0.421874999999988
40
0.429687499999988
40
0.429687499999988
40
0.437499999999988
40
0.437499999999988
40
0.468749999999989
40
0.468749999999989
40
0.499999999999989
40
0.499999999999989
40
0.53124999999999
40
0.53124999999999
40
0.56249999999999
40
0.56249999999999
40
0.593749999999991
40
0.593749999999991
40
0.624999999999992
40
0.624999999999992
40
0.656249999999992
40
0.656249999999992
40
0.687499999999993
40
0.687499999999993
40
0.718749999999993
40
0.718749999999993
40
0.749999999999994
40
0.749999999999994
40
0.781249999999995
40
0.781249999999995
40
0.812499999999995
40
0.812499999999995
40
0.843749999999996
40
0.843749999999996
40
0.851562499999996
40
0.851562499999996
40
0.859374999999997
40
0.874999999999997
40
0.874999999999997
40
0.906249999999998
40
0.906249999999998
40
0.937499999999999
40
0.937499999999999
40
0.968749999999999
40
0.968749999999999
40
1
40
1
40
1
40
1
41
1
10
35.3027220640335
20
6.5
30
0
41
1
10
35.3478415579214
20
6.5
30
0
41
1
10
35.3929610518093
20
6.48817159444624
30
0
41
1
10
35.483200039585
20
6.43802405938121
30
0
41
1
10
35.5283195334729
20
6.39969509843269
30
0
41
1
10
35.6185585212486
20
6.29435732929929
30
0
41
1
10
35.6636780151366
20
6.22733937828258
30
0
41
1
10
35.7539170029123
20
6.0633879075609
30
0
41
1
10
35.7990364968002
20
5.96644755962026
30
0
41
1
10
35.8892754845759
20
5.74261501835829
30
0
41
1
10
35.9343949784638
20
5.61571987129403
30
0
41
1
10
36.0246339662395
20
5.333293426925
30
0
41
1
10
36.0697534601274
20
5.17776409840141
30
0
41
1
10
36.1599924479032
20
4.8407550938575
30
0
41
1
10
36.2051119417911
20
4.65928246218641
30
0
41
1
10
36.2953509295668
20
4.2743071563057
30
0
41
1
10
36.3404704234547
20
4.07081571156442
30
0
41
1
10
36.4307094112304
20
3.64667902406222
30
0
41
1
10
36.4758289051184
20
3.4260474415465
30
0
41
1
10
36.5660678928941
20
2.97308183387807
30
0
41
1
10
36.611187386782
20
2.74076173928947
30
0
41
1
10
36.7014263745577
20
2.27002317566817
30
0
41
1
10
36.7465458684455
20
2.03161690022736
30
0
41
1
10
36.8367848562213
20
1.55406346630264
30
0
41
1
10
36.8819043501092
20
1.314925360752
30
0
41
1
10
36.972143337885
20
0.840695724622719
30
0
41
1
10
37.0172628317729
20
0.605609510079944
30
0
41
1
10
37.0849420726047
20
0.259015368753978
30
0
41
1
10
37.1075018195486
20
0.144483230285203
30
0
41
1
10
37.1413414399645
20
-0.0255038387339255
30
0
41
1
10
37.1526213134365
20
-0.0820894511430481
30
0
41
1
10
37.1751810603804
20
-0.196157285369139
30
0
41
1
10
37.1864609338524
20
-0.253476906925954
30
0
41
1
10
37.2428603012123
20
-0.541372247551408
30
0
41
1
10
37.2879797951001
20
-0.775873509307672
30
0
41
1
10
37.3782187828758
20
-1.24933471422278
30
0
41
1
10
37.4233382767638
20
-1.48828968631733
30
0
41
1
10
37.5135772645395
20
-1.96594325432926
30
0
41
1
10
37.5586967584274
20
-2.20463312778637
30
0
41
1
10
37.6489357462031
20
-2.67644575332011
30
0
41
1
10
37.694055240091
20
-2.90955655306507
30
0
41
1
10
37.7842942278668
20
-3.36461756630422
30
0
41
1
10
37.8294137217546
20
-3.58655393146927
30
0
41
1
10
37.9196527095304
20
-4.01378286693262
30
0
41
1
10
37.9647722034182
20
-4.21906166049365
30
0
41
1
10
38.055011191194
20
-4.60802499275798
30
0
41
1
10
38.1001306850819
20
-4.79169799581206
30
0
41
1
10
38.1903696728576
20
-5.13342010395687
30
0
41
1
10
38.2354891667455
20
-5.29146172824676
30
0
41
1
10
38.3257281545212
20
-5.57910395676157
30
0
41
1
10
38.3708476484092
20
-5.70870211726688
30
0
41
1
10
38.4610866361849
20
-5.93800455478922
30
0
41
1
10
38.5062061300728
20
-6.03771136634555
30
0
41
1
10
38.5964451178486
20
-6.20713992128961
30
0
41
1
10
38.6415646117364
20
-6.27686819799769
30
0
41
1
10
38.7318035995121
20
-6.38746961825714
30
0
41
1
10
38.7769230934
20
-6.42835176204522
30
0
41
1
10
38.8671620811758
20
-6.48337269243422
30
0
41
1
10
38.9122815750636
20
-6.49752130932416
30
0
41
1
10
38.9686809424235
20
-6.50024552936421
30
0
41
1
10
38.9799608158954
20
-6.50005061388333
30
0
41
1
10
39.0025205628394
20
-6.49816280979195
30
0
41
1
10
39.0363601832553
20
-6.49307243906034
30
0
41
1
10
39.0701998036712
20
-6.48099498586453
30
0
41
1
10
39.137879044503
20
-6.44700724268574
30
0
41
1
10
39.182998538391
20
-6.41121283998055
30
0
41
1
10
39.2732375261667
20
-6.31110952706763
30
0
41
1
10
39.3183570200545
20
-6.24679134536962
30
0
41
1
10
39.4085960078303
20
-6.08830600663742
30
0
41
1
10
39.4537155017181
20
-5.99413173990609
30
0
41
1
10
39.543954489494
20
-5.77577980401855
30
0
41
1
10
39.5890739833818
20
-5.65159877102016
30
0
41
1
10
39.6341934772697
20
-5.5130103619766
30
0
0
SPLINE
5
E4
100
AcDbEntity
8
1
62
256
6
ByLayer
370
13
48
1
60
0
100
AcDbSpline
70
4
71
3
72
77
73
73
40
0
40
0
40
0
40
0
40
0.0312499999999999
40
0.0312499999999999
40
0.0624999999999998
40
0.0624999999999998
40
0.0937499999999998
40
0.0937499999999998
40
0.125
40
0.125
40
0.15625
40
0.15625
40
0.1875
40
0.1875
40
0.21875
40
0.21875
40
0.25
40
0.25
40
0.28125
40
0.28125
40
0.3125
40
0.3125
40
0.34375
40
0.34375
40
0.375
40
0.375
40
0.3828125
40
0.3828125
40
0.390625
40
0.40625
40
0.40625
40
0.4375
40
0.4375
40
0.46875
40
0.46875
40
0.5
40
0.5
40
0.53125
40
0.53125
40
0.5625
40
0.5625
40
0.59375
40
0.59375
40
0.625
40
0.625
40
0.65625
40
0.65625
40
0.6875
40
0.6875
40
0.71875
40
0.71875
40
0.75
40
0.75
40
0.7578125
40
0.7578125
40
0.765625
40
0.765625
40
0.78125
40
0.78125
40
0.8125
40
0.8125
40
0.84375
40
0.84375
40
0.875
40
0.875
40
0.90625
40
0.90625
40
0.9375
40
0.9375
40
0.96875
40
0.96875
40
1
40
1
40
1
40
1
41
1
10
34.8022684478129
20
6.5
30
0
41
1
10
34.8526010002031
20
6.5
30
0
41
1
10
34.9029335525932
20
6.48527335324312
30
0
41
1
10
35.0035986573736
20
6.42247735484312
30
0
41
1
10
35.0539312097638
20
6.3743910531596
30
0
41
1
10
35.1545963145441
20
6.2420339477714
30
0
41
1
10
35.2049288669343
20
6.15774805033482
30
0
41
1
10
35.3055939717146
20
5.95172237904029
30
0
41
1
10
35.3559265241049
20
5.82997288218215
30
0
41
1
10
35.4565916288852
20
5.54970909829842
30
0
41
1
10
35.5069241812753
20
5.39119350929826
30
0
41
1
10
35.6075892860557
20
5.04022126724769
30
0
41
1
10
35.6579218384459
20
4.84777315546077
30
0
41
1
10
35.7585869432262
20
4.43378906754913
30
0
41
1
10
35.8089194956164
20
4.21227050649543
30
0
41
1
10
35.9095846003967
20
3.74663261543279
30
0
41
1
10
35.9599171527869
20
3.50253631755854
30
0
41
1
10
36.0605822575673
20
2.99924271840612
30
0
41
1
10
36.1109148099575
20
2.74006953554021
30
0
41
1
10
36.2115799147378
20
2.21440919043894
30
0
41
1
10
36.261912467128
20
1.94794288639176
30
0
41
1
10
36.3625775719083
20
1.41507988112485
30
0
41
1
10
36.4129101242985
20
1.14869783832393
30
0
41
1
10
36.5135752290789
20
0.622441014429597
30
0
41
1
10
36.563907781469
20
0.362573674508809
30
0
41
1
10
36.6268234719567
20
0.0450303310958873
30
0
41
1
10
36.6394066100543
20
-0.0178842697566779
30
0
41
1
10
36.6645728862494
20
-0.144693505294242
30
0
41
1
10
36.702322300542
20
-0.336004477191352
30
0
41
1
10
36.7400717148347
20
-0.53029424732884
30
0
41
1
10
36.8155705434199
20
-0.92189080182834
30
0
41
1
10
36.8659030958101
20
-1.18701568764095
30
0
41
1
10
36.9665682005904
20
-1.7193153680557
30
0
41
1
10
37.0169007529806
20
-1.98647754665757
30
0
41
1
10
37.117565857761
20
-2.5157050887849
30
0
41
1
10
37.1678984101511
20
-2.77775114739623
30
0
41
1
10
37.2685635149314
20
-3.28901754052848
30
0
41
1
10
37.3188960673217
20
-3.53821428836827
30
0
41
1
10
37.419561172102
20
-4.01612562456023
30
0
41
1
10
37.4698937244921
20
-4.24481638809078
30
0
41
1
10
37.5705588292725
20
-4.67485991120191
30
0
41
1
10
37.6208913816627
20
-4.87619323696777
30
0
41
1
10
37.7215564864431
20
-5.24613338723333
30
0
41
1
10
37.7718890388332
20
-5.41472892487883
30
0
41
1
10
37.8725541436136
20
-5.71574622522127
30
0
41
1
10
37.9228866960037
20
-5.84816652551731
30
0
41
1
10
38.023551800784
20
-6.07552271316132
30
0
41
1
10
38.0738843531743
20
-6.17046617769287
30
0
41
1
10
38.1745494579546
20
-6.32359770204732
30
0
41
1
10
38.2248820103448
20
-6.38179968122225
30
0
41
1
10
38.3255471151252
20
-6.46388263076926
30
0
41
1
10
38.3758796675153
20
-6.48778036205471
30
0
41
1
10
38.4387953580031
20
-6.49849300503516
30
0
41
1
10
38.4513784961006
20
-6.49967984790044
30
0
41
1
10
38.4765447722956
20
-6.50020705134699
30
0
41
1
10
38.4891279103932
20
-6.49955440166653
30
0
41
1
10
38.5268773246859
20
-6.49476037537269
30
0
41
1
10
38.5520436008809
20
-6.48777662725306
30
0
41
1
10
38.6275424294662
20
-6.45472566729731
30
0
41
1
10
38.6778749818563
20
-6.4165199246556
30
0
41
1
10
38.7785400866367
20
-6.30459609182412
30
0
41
1
10
38.8288726390269
20
-6.23086202716598
30
0
41
1
10
38.9295377438073
20
-6.04611669533728
30
0
41
1
10
38.9798702961974
20
-5.93509381624793
30
0
41
1
10
39.0805354009777
20
-5.67587133307794
30
0
41
1
10
39.1308679533679
20
-5.5276677840115
30
0
41
1
10
39.2315330581483
20
-5.19629526639102
30
0
41
1
10
39.2818656105384
20
-5.01313201372793
30
0
41
1
10
39.3825307153188
20
-4.61614155703973
30
0
41
1
10
39.432863267709
20
-4.40232947659649
30
0
41
1
10
39.5335283724893
20
-3.9501169610833
30
0
41
1
10
39.5838609248795
20
-3.71173838568052
30
0
41
1
10
39.6341934772697
20
-3.46470686631329
30
0
0
SPLINE
5
E5
100
AcDbEntity
8
1
62
256
6
ByLayer
370
13
48
1
60
0
100
AcDbSpline
70
4
71
3
72
70
73
66
40
0
40
0
40
0
40
0
40
0.03125
40
0.03125
40
0.0625
40
0.0625
40
0.09375
40
0.09375
40
0.125
40
0.125
40
0.15625
40
0.15625
40
0.1875
40
0.1875
40
0.21875
40
0.21875
40
0.25
40
0.25
40
0.28125
40
0.28125
40
0.3125
40
0.3125
40
0.34375
40
0.34375
40
0.375
40
0.375
40
0.40625
40
0.40625
40
0.4375
40
0.4375
40
0.46875
40
0.46875
40
0.5
40
0.5
40
0.53125
40
0.53125
40
0.5625
40
0.5625
40
0.59375
40
0.59375
40
0.625
40
0.625
40
0.65625
40
0.65625
40
0.6875
40
0.6875
40
0.71875
40
0.71875
40
0.75
40
0.75
40
0.78125
40
0.78125
40
0.8125
40
0.8125
40
0.84375
40
0.84375
40
0.875
40
0.875
40
0.90625
40
0.90625
40
0.9375
40
0.9375
40
0.96875
40
0.96875
40
1
40
1
40
1
40
1
41
1
10
34.3018148315923
20
6.5
30
0
41
1
10
34.3573604424847
20
6.5
30
0
41
1
10
34.4129060533772
20
6.48205494806152
30
0
41
1
10
34.5239972751621
20
6.40510953759434
30
0
41
1
10
34.5795428860546
20
6.34608155134094
30
0
41
1
10
34.6906341078396
20
6.18343134529508
30
0
41
1
10
34.746179718732
20
6.07978582609707
30
0
41
1
10
34.857270940517
20
5.8268290264204
30
0
41
1
10
34.9128165514095
20
5.67750571516137
30
0
41
1
10
35.0239077731944
20
5.33514583348324
30
0
41
1
10
35.0794533840869
20
5.14211374196887
30
0
41
1
10
35.1905446058719
20
4.71744331646039
30
0
41
1
10
35.2460902167643
20
4.48582690420753
30
0
41
1
10
35.3571814385493
20
3.99185181404693
30
0
41
1
10
35.4127270494417
20
3.72952809098027
30
0
41
1
10
35.5238182712267
20
3.18388412523095
30
0
41
1
10
35.5793638821191
20
2.90060355799952
30
0
41
1
10
35.6904551039041
20
2.32351935765243
30
0
41
1
10
35.7460007147965
20
2.02975114834555
30
0
41
1
10
35.8570919365815
20
1.44173260745111
30
0
41
1
10
35.9126375474739
20
1.14750702700351
30
0
41
1
10
36.0237287692589
20
0.56725812227225
30
0
41
1
10
36.0792743801514
20
0.281246576119571
30
0
41
1
10
36.1903656019363
20
-0.275799401526086
30
0
41
1
10
36.2459112128288
20
-0.561636777685408
30
0
41
1
10
36.3570024346138
20
-1.14178028029545
30
0
41
1
10
36.4125480455062
20
-1.43597852818809
30
0
41
1
10
36.5236392672912
20
-2.02400407008159
30
0
41
1
10
36.5791848781836
20
-2.31780669470339
30
0
41
1
10
36.6902760999686
20
-2.89502765964838
30
0
41
1
10
36.745821710861
20
-3.17841062904034
30
0
41
1
10
36.856912932646
20
-3.72432664418548
30
0
41
1
10
36.9124585435385
20
-3.98682001441045
30
0
41
1
10
37.0235497653235
20
-4.4811931235636
30
0
41
1
10
37.079095376216
20
-4.71303784726234
30
0
41
1
10
37.1901865980009
20
-5.13820816874164
30
0
41
1
10
37.2457322088933
20
-5.33151173996353
30
0
41
1
10
37.3568234306783
20
-5.67443803274699
30
0
41
1
10
37.4123690415707
20
-5.82405615895578
30
0
41
1
10
37.5234602633557
20
-6.07760530434965
30
0
41
1
10
37.5790058742481
20
-6.18154826021288
30
0
41
1
10
37.6900970960331
20
-6.34477768769659
30
0
41
1
10
37.7456427069256
20
-6.40408740745389
30
0
41
1
10
37.8567339287105
20
-6.48156687636148
30
0
41
1
10
37.912279539603
20
-6.49976424668299
30
0
41
1
10
38.023370761388
20
-6.50023118764642
30
0
41
1
10
38.0789163722805
20
-6.48253798788036
30
0
41
1
10
38.1900075940654
20
-6.40612625763418
30
0
41
1
10
38.2455532049579
20
-6.34737985174212
30
0
41
1
10
38.3566444267428
20
-6.1853086665551
30
0
41
1
10
38.4121900376353
20
-6.08196053689062
30
0
41
1
10
38.5232812594202
20
-5.82959611876245
30
0
41
1
10
38.5788268703127
20
-5.68056770564908
30
0
41
1
10
38.6899180920977
20
-5.33877453750247
30
0
41
1
10
38.7454637029901
20
-5.14601414496983
30
0
41
1
10
38.8565549247751
20
-4.72184417293667
30
0
41
1
10
38.9121005356675
20
-4.4904564101671
30
0
41
1
10
39.0231917574525
20
-3.99688009608616
30
0
41
1
10
39.078737368345
20
-3.73472643886174
30
0
41
1
10
39.1898285901299
20
-3.18935539081312
30
0
41
1
10
39.2453742010224
20
-2.90617767496965
30
0
41
1
10
39.3564654228073
20
-2.32923111839847
30
0
41
1
10
39.4120110336998
20
-2.03549775407851
30
0
41
1
10
39.5231022554847
20
-1.44748701448688
30
0
41
1
10
39.5786478663772
20
-1.1532344720203
30
0
41
1
10
39.6341934772697
20
-0.863057647849246
30
0
0
SPLINE
5
E6
100
AcDbEntity
8
1
62
256
6
ByLayer
370
13
48
1
60
0
100
AcDbSpline
70
4
71
3
72
85
73
81
40
0
40
0
40
0
40
0
40
0.0312500000000021
40
0.0312500000000021
40
0.0625000000000041
40
0.0625000000000041
40
0.0937500000000062
40
0.0937500000000062
40
0.125000000000008
40
0.125000000000008
40
0.15625000000001
40
0.15625000000001
40
0.187500000000012
40
0.187500000000012
40
0.218750000000014
40
0.218750000000014
40
0.250000000000016
40
0.250000000000016
40
0.281250000000018
40
0.281250000000018
40
0.31250000000002
40
0.31250000000002
40
0.31640625000002
40
0.31640625000002
40
0.32031250000002
40
0.32812500000002
40
0.32812500000002
40
0.34375000000002
40
0.34375000000002
40
0.375000000000019
40
0.375000000000019
40
0.406250000000018
40
0.406250000000018
40
0.437500000000017
40
0.437500000000017
40
0.468750000000017
40
0.468750000000017
40
0.500000000000016
40
0.500000000000016
40
0.531250000000015
40
0.531250000000015
40
0.562500000000015
40
0.562500000000015
40
0.593750000000014
40
0.593750000000014
40
0.625000000000013
40
0.625000000000013
40
0.632812500000013
40
0.632812500000013
40
0.640625000000013
40
0.640625000000013
40
0.656250000000012
40
0.656250000000012
40
0.687500000000012
40
0.687500000000012
40
0.718750000000011
40
0.718750000000011
40
0.75000000000001
40
0.75000000000001
40
0.781250000000009
40
0.781250000000009
40
0.812500000000009
40
0.812500000000009
40
0.843750000000008
40
0.843750000000008
40
0.875000000000007
40
0.875000000000007
40
0.906250000000007
40
0.906250000000007
40
0.937500000000006
40
0.937500000000006
40
0.941406250000006
40
0.941406250000006
40
0.945312500000005
40
0.945312500000005
40
0.953125000000004
40
0.953125000000004
40
0.968750000000003
40
0.968750000000003
40
1
40
1
40
1
40
1
41
1
10
33.8013612153716
20
6.5
30
0
41
1
10
33.8621198847664
20
6.5
30
0
41
1
10
33.9228785541612
20
6.47851508206605
30
0
41
1
10
34.0443958929507
20
6.38589945494553
30
0
41
1
10
34.1051545623455
20
6.31472576166101
30
0
41
1
10
34.226671901135
20
6.11848777032841
30
0
41
1
10
34.2874305705298
20
5.99338959097437
30
0
41
1
10
34.4089479093194
20
5.68877136012074
30
0
41
1
10
34.4697065787141
20
5.5092392102992
30
0
41
1
10
34.5912239175037
20
5.09967247077032
30
0
41
1
10
34.6519825868984
20
4.8696554155556
30
0
41
1
10
34.7734999256879
20
4.36742995719354
30
0
41
1
10
34.8342585950827
20
4.09526669080725
30
0
41
1
10
34.9557759338723
20
3.52049269695999
30
0
41
1
10
35.016534603267
20
3.21794253244926
30
0
41
1
10
35.1380519420566
20
2.59593078949246
30
0
41
1
10
35.1988106114514
20
2.27652827306463
30
0
41
1
10
35.3203279502409
20
1.6342793303071
30
0
41
1
10
35.3810866196357
20
1.31147637866678
30
0
41
1
10
35.5026039584252
20
0.674238726798279
30
0
41
1
10
35.5633626278201
20
0.359825620462573
30
0
41
1
10
35.6317161308892
20
0.0159730384964973
30
0
41
1
10
35.6393109645634
20
-0.0220363516409066
30
0
41
1
10
35.6545006319121
20
-0.0984766403048809
30
0
41
1
10
35.6772851329351
20
-0.213541042542829
30
0
41
1
10
35.7000696339582
20
-0.329749501570092
30
0
41
1
10
35.7456386360043
20
-0.563494649819319
30
0
41
1
10
35.7760179707017
20
-0.721101246742194
30
0
41
1
10
35.8671559747938
20
-1.19746853369387
30
0
41
1
10
35.9279146441886
20
-1.51984847468447
30
0
41
1
10
36.0494319829781
20
-2.16275662215597
30
0
41
1
10
36.110190652373
20
-2.48324378683762
30
0
41
1
10
36.2317079911625
20
-3.10905519379307
30
0
41
1
10
36.2924666605572
20
-3.41432160842106
30
0
41
1
10
36.4139839993468
20
-3.9960745646865
30
0
41
1
10
36.4747426687416
20
-4.27249982569268
30
0
41
1
10
36.5962600075311
20
-4.78449270530669
30
0
41
1
10
36.6570186769259
20
-5.02001256599902
30
0
41
1
10
36.7785360157154
20
-5.44135740660866
30
0
41
1
10
36.8392946851102
20
-5.62716125956712
30
0
41
1
10
36.9608120238997
20
-5.94455402546686
30
0
41
1
10
37.0215706932945
20
-6.07615178027197
30
0
41
1
10
37.1430880320841
20
-6.28511604397954
30
0
41
1
10
37.2038467014788
20
-6.36251448223376
30
0
41
1
10
37.3253640402684
20
-6.46692134065506
30
0
41
1
10
37.3861227096631
20
-6.49397233819093
30
0
41
1
10
37.4620710464066
20
-6.50037406581191
30
0
41
1
10
37.4772607137553
20
-6.50030387239738
30
0
41
1
10
37.5076400484527
20
-6.4974532537741
30
0
41
1
10
37.5228297158014
20
-6.49465899253272
30
0
41
1
10
37.5683987178475
20
-6.48200242032175
30
0
41
1
10
37.5987780525449
20
-6.46786221323072
30
0
41
1
10
37.689916056637
20
-6.40712600946497
30
0
41
1
10
37.7506747260318
20
-6.34211626254356
30
0
41
1
10
37.8721920648214
20
-6.15853552210444
30
0
41
1
10
37.9329507342161
20
-6.03992888038485
30
0
41
1
10
38.0544680730056
20
-5.74813242684189
30
0
41
1
10
38.1152267424004
20
-5.57492737675619
30
0
41
1
10
38.23674408119
20
-5.17731215833436
30
0
41
1
10
38.2975027505847
20
-4.95291590405583
30
0
41
1
10
38.4190200893742
20
-4.46074278486373
30
0
41
1
10
38.479778758769
20
-4.19300825811115
30
0
41
1
10
38.6012960975586
20
-3.62557208683654
30
0
41
1
10
38.6620547669534
20
-3.32593004079374
30
0
41
1
10
38.7835721057429
20
-2.70810039256693
30
0
41
1
10
38.8443307751377
20
-2.38997288333752
30
0
41
1
10
38.9658481139272
20
-1.74873994111692
30
0
41
1
10
39.026606783322
20
-1.42568032764706
30
0
41
1
10
39.1481241221115
20
-0.786656211774243
30
0
41
1
10
39.2088827915063
20
-0.470715940228928
30
0
41
1
10
39.2772362945754
20
-0.124622050192073
30
0
41
1
10
39.2848311282498
20
-0.086295042413667
30
0
41
1
10
39.3000207955985
20
-0.0099120453881483
30
0
41
1
10
39.3076156292728
20
0.0281019782351848
30
0
41
1
10
39.3304001302958
20
0.142805190470767
30
0
41
1
10
39.3455897976445
20
0.219811633967112
30
0
41
1
10
39.3911587996906
20
0.452254773395765
30
0
41
1
10
39.421538134388
20
0.609120893887479
30
0
41
1
10
39.5126761384801
20
1.0837128036564
30
0
41
1
10
39.5734348078749
20
1.40550733472514
30
0
41
1
10
39.6341934772697
20
1.7271154997884
30
0
0
SPLINE
5
E7
100
AcDbEntity
8
1
62
256
6
ByLayer
370
13
48
1
60
0
100
AcDbSpline
70
4
71
3
72
84
73
80
40
0
40
0
40
0
40
0
40
0.0312500000000004
40
0.0312500000000004
40
0.0625000000000007
40
0.0625000000000007
40
0.0937500000000011
40
0.0937500000000011
40
0.125000000000001
40
0.125000000000001
40
0.156250000000002
40
0.156250000000002
40
0.187500000000002
40
0.187500000000002
40
0.218750000000003
40
0.218750000000003
40
0.250000000000003
40
0.250000000000003
40
0.281250000000003
40
0.281250000000003
40
0.289062500000003
40
0.289062500000003
40
0.296875000000004
40
0.296875000000004
40
0.312500000000004
40
0.312500000000004
40
0.343750000000004
40
0.343750000000004
40
0.375000000000004
40
0.375000000000004
40
0.406250000000005
40
0.406250000000005
40
0.437500000000005
40
0.437500000000005
40
0.468750000000006
40
0.468750000000006
40
0.500000000000006
40
0.500000000000006
40
0.531250000000006
40
0.531250000000006
40
0.562500000000007
40
0.562500000000007
40
0.578125000000007
40
0.578125000000007
40
0.585937500000007
40
0.585937500000007
40
0.593750000000007
40
0.593750000000007
40
0.625000000000007
40
0.625000000000007
40
0.656250000000007
40
0.656250000000007
40
0.687500000000007
40
0.687500000000007
40
0.718750000000008
40
0.718750000000008
40
0.750000000000008
40
0.750000000000008
40
0.781250000000008
40
0.781250000000008
40
0.812500000000008
40
0.812500000000008
40
0.843750000000008
40
0.843750000000008
40
0.859375000000008
40
0.859375000000008
40
0.867187500000008
40
0.867187500000008
40
0.871093750000008
40
0.871093750000008
40
0.875000000000008
40
0.875000000000008
40
0.906250000000006
40
0.906250000000006
40
0.937500000000004
40
0.937500000000004
40
0.968750000000002
40
0.968750000000002
40
1
40
1
40
1
40
1
41
1
10
33.300907599151
20
6.5
30
0
41
1
10
33.366879327048
20
6.5
30
0
41
1
10
33.432851054945
20
6.47465226285246
30
0
41
1
10
33.5647945107392
20
6.36482693339445
30
0
41
1
10
33.6307662386363
20
6.28028504549235
30
0
41
1
10
33.7627096944304
20
6.04715769803184
30
0
41
1
10
33.8286814223275
20
5.89852563048308
30
0
41
1
10
33.9606248781216
20
5.53769753871009
30
0
41
1
10
34.0265966060187
20
5.32549421610318
30
0
41
1
10
34.1585400618128
20
4.84428331182434
30
0
41
1
10
34.2245117897099
20
4.57531761585773
30
0
41
1
10
34.3564552455041
20
3.99312351170766
30
0
41
1
10
34.4224269734011
20
3.67997593845576
30
0
41
1
10
34.5543704291953
20
3.02584086322702
30
0
41
1
10
34.6203421570924
20
2.68494655097229
30
0
41
1
10
34.7522856128865
20
1.9928990765919
30
0
41
1
10
34.8182573407836
20
1.64182267588129
30
0
41
1
10
34.9502007965777
20
0.945495627504101
30
0
41
1
10
35.0161725244748
20
0.600288150950206
30
0
41
1
10
35.0986371843461
20
0.180380898310062
30
0
41
1
10
35.1151301163204
20
0.0969700403588547
30
0
41
1
10
35.1481159802689
20
-0.0685518528999296
30
0
41
1
10
35.1646089122432
20
-0.151684788456635
30
0
41
1
10
35.214087708166
20
-0.403234301663502
30
0
41
1
10
35.2470735721145
20
-0.573262160265415
30
0
41
1
10
35.3460311639601
20
-1.08816169015762
30
0
41
1
10
35.4120028918572
20
-1.43795302253642
30
0
41
1
10
35.5439463476514
20
-2.13622831998984
30
0
41
1
10
35.6099180755485
20
-2.48465218857623
30
0
41
1
10
35.7418615313426
20
-3.1631653451617
30
0
41
1
10
35.8078332592397
20
-3.49316704509923
30
0
41
1
10
35.9397767150338
20
-4.11745193139873
30
0
41
1
10
36.0057484429308
20
-4.4116439109707
30
0
41
1
10
36.137691898725
20
-4.94935531964632
30
0
41
1
10
36.2036636266221
20
-5.19280971002595
30
0
41
1
10
36.3356070824162
20
-5.61897879432669
30
0
41
1
10
36.4015788103132
20
-5.8016748146714
30
0
41
1
10
36.5335222661074
20
-6.10246437346427
30
0
41
1
10
36.5994939940044
20
-6.22058598215847
30
0
41
1
10
36.7314374497986
20
-6.39440892372224
30
0
41
1
10
36.7974091776957
20
-6.45016812156032
30
0
41
1
10
36.8963667695413
20
-6.49213765028483
30
0
41
1
10
36.9293526334898
20
-6.49921317448391
30
0
41
1
10
36.9788314294127
20
-6.50030014469669
30
0
41
1
10
36.9953243613869
20
-6.49908928063408
30
0
41
1
10
37.0283102253354
20
-6.49338516693595
30
0
41
1
10
37.0448031573097
20
-6.48889011742682
30
0
41
1
10
37.127267817181
20
-6.45785350493696
30
0
41
1
10
37.1932395450781
20
-6.40549223799013
30
0
41
1
10
37.3251830008722
20
-6.23875085150243
30
0
41
1
10
37.3911547287693
20
-6.12431185743503
30
0
41
1
10
37.5230981845635
20
-5.8308623315593
30
0
41
1
10
37.5890699124605
20
-5.6518214498108
30
0
41
1
10
37.7210133682547
20
-5.23257443944445
30
0
41
1
10
37.7869850961517
20
-4.99238411682714
30
0
41
1
10
37.9189285519458
20
-4.46047808692805
30
0
41
1
10
37.9849002798429
20
-4.16882514618041
30
0
41
1
10
38.1168437356371
20
-3.54867131303618
30
0
41
1
10
38.1828154635341
20
-3.22026091504716
30
0
41
1
10
38.3147589193283
20
-2.54391723107548
30
0
41
1
10
38.3807306472254
20
-2.19607250438676
30
0
41
1
10
38.5126741030195
20
-1.49803008929183
30
0
41
1
10
38.5786458309166
20
-1.14789446134353
30
0
41
1
10
38.6776034227622
20
-0.631930192666829
30
0
41
1
10
38.7105892867107
20
-0.461456665273829
30
0
41
1
10
38.7600680826335
20
-0.209124032193387
30
0
41
1
10
38.7765610146078
20
-0.125574150449836
30
0
41
1
10
38.8013004125691
20
-0.0012111832211872
30
0
41
1
10
38.8095468785563
20
0.040076441204036
30
0
41
1
10
38.8260398105306
20
0.123183666664033
30
0
41
1
10
38.8342862765177
20
0.164894456939095
30
0
41
1
10
38.9085044704019
20
0.541616742279786
30
0
41
1
10
38.974476198299
20
0.886066148243799
30
0
41
1
10
39.1064196540931
20
1.58170481499727
30
0
41
1
10
39.1723913819902
20
1.93285300399126
30
0
41
1
10
39.3043348377843
20
2.62602447369042
30
0
41
1
10
39.3703065656814
20
2.96797260667731
30
0
41
1
10
39.5022500214756
20
3.62521751621236
30
0
41
1
10
39.5682217493726
20
3.94042132628567
30
0
41
1
10
39.6341934772697
20
4.23400575302963
30
0
0
SPLINE
5
E8
100
AcDbEntity
8
1
62
256
6
ByLayer
370
13
48
1
60
0
100
AcDbSpline
70
4
71
3
72
85
73
81
40
0
40
0
40
0
40
0
40
0.0312500000000002
40
0.0312500000000002
40
0.0625000000000004
40
0.0625000000000004
40
0.0937500000000007
40
0.0937500000000007
40
0.125000000000001
40
0.125000000000001
40
0.156250000000001
40
0.156250000000001
40
0.187500000000001
40
0.187500000000001
40
0.218750000000001
40
0.218750000000001
40
0.250000000000002
40
0.250000000000002
40
0.265625000000002
40
0.265625000000002
40
0.269531250000002
40
0.269531250000002
40
0.273437500000002
40
0.281250000000002
40
0.281250000000002
40
0.312500000000002
40
0.312500000000002
40
0.343750000000002
40
0.343750000000002
40
0.375000000000002
40
0.375000000000002
40
0.406250000000002
40
0.406250000000002
40
0.437500000000002
40
0.437500000000002
40
0.468750000000002
40
0.468750000000002
40
0.500000000000002
40
0.500000000000002
40
0.531250000000002
40
0.531250000000002
40
0.535156250000002
40
0.535156250000002
40
0.539062500000002
40
0.539062500000002
40
0.546875000000002
40
0.546875000000002
40
0.562500000000002
40
0.562500000000002
40
0.593750000000001
40
0.593750000000001
40
0.625000000000001
40
0.625000000000001
40
0.656250000000001
40
0.656250000000001
40
0.687500000000001
40
0.687500000000001
40
0.718750000000001
40
0.718750000000001
40
0.75
40
0.75
40
0.78125
40
0.78125
40
0.796875
40
0.796875
40
0.8046875
40
0.8046875
40
0.8125
40
0.8125
40
0.84375
40
0.84375
40
0.875
40
0.875
40
0.90625
40
0.90625
40
0.9375
40
0.9375
40
0.96875
40
0.96875
40
1
40
1
40
1
40
1
41
1
10
32.8004539829304
20
6.5
30
0
41
1
10
32.8716387693297
20
6.5
30
0
41
1
10
32.9428235557291
20
6.47046479055166
30
0
41
1
10
33.0851931285278
20
6.34187282704147
30
0
41
1
10
33.1563779149272
20
6.24272309945744
30
0
41
1
10
33.2987474877259
20
5.96941264489027
30
0
41
1
10
33.3699322741253
20
5.79519119686836
30
0
41
1
10
33.512301846924
20
5.37384202088538
30
0
41
1
10
33.5834866333234
20
5.12672043657108
30
0
41
1
10
33.7258562061221
20
4.57020802845642
30
0
41
1
10
33.7970409925215
20
4.26089932934488
30
0
41
1
10
33.9394105653203
20
3.59785784564036
30
0
41
1
10
34.0105953517196
20
3.24425545129569
30
0
41
1
10
34.1529649245183
20
2.51435231556272
30
0
41
1
10
34.2241497109177
20
2.13818075075363
30
0
41
1
10
34.3665192837165
20
1.3846549102218
30
0
41
1
10
34.4377040701158
20
1.00738720241682
30
0
41
1
10
34.5444812497149
20
0.454046290209078
30
0
41
1
10
34.5800736429145
20
0.271656721802202
30
0
41
1
10
34.6245641344141
20
0.0473276595463972
30
0
41
1
10
34.633462232714
20
0.0027702361638262
30
0
41
1
10
34.6512584293139
20
-0.0866858813863303
30
0
41
1
10
34.6779527242136
20
-0.221429429475876
30
0
41
1
10
34.7046470191135
20
-0.357742707316447
30
0
41
1
10
34.7936280021126
20
-0.815075904440107
30
0
41
1
10
34.864812788512
20
-1.19059751467802
30
0
41
1
10
35.0071823613107
20
-1.94401795021659
30
0
41
1
10
35.0783671477101
20
-2.32183976437443
30
0
41
1
10
35.2207367205088
20
-3.05885309263587
30
0
41
1
10
35.2919215069082
20
-3.41792043961234
30
0
41
1
10
35.434291079707
20
-4.09546626885307
30
0
41
1
10
35.5054758661063
20
-4.4138108909269
30
0
41
1
10
35.647845438905
20
-4.99104122695502
30
0
41
1
10
35.7190302253044
20
-5.24983361714703
30
0
41
1
10
35.8613997981032
20
-5.69577749500229
30
0
41
1
10
35.9325845845025
20
-5.88290942531185
30
0
41
1
10
36.0749541573012
20
-6.18182970587475
30
0
41
1
10
36.1461389437006
20
-6.29366934408199
30
0
41
1
10
36.2885085164993
20
-6.44625918749679
30
0
41
1
10
36.3596933028988
20
-6.48709964248931
30
0
41
1
10
36.439776187598
20
-6.49865330127952
30
0
41
1
10
36.4486742858979
20
-6.49946191286097
30
0
41
1
10
36.4664704824977
20
-6.50015184992281
30
0
41
1
10
36.4753685807977
20
-6.50003662201962
30
0
41
1
10
36.5020628756974
20
-6.49829739737061
30
0
41
1
10
36.5198590722973
20
-6.49527127534947
30
0
41
1
10
36.5732476620968
20
-6.48032348800137
30
0
41
1
10
36.6088400552965
20
-6.46252440008087
30
0
41
1
10
36.7156172348956
20
-6.38371213265552
30
0
41
1
10
36.7868020212949
20
-6.29708513607895
30
0
41
1
10
36.9291715940937
20
-6.04927783521148
30
0
41
1
10
37.0003563804931
20
-5.88802846242157
30
0
41
1
10
37.1427259532918
20
-5.49165453902273
30
0
41
1
10
37.2139107396912
20
-5.25652301992164
30
0
41
1
10
37.3562803124898
20
-4.72158475451934
30
0
41
1
10
37.4274650988893
20
-4.42184807613341
30
0
41
1
10
37.569834671688
20
-3.77449946976273
30
0
41
1
10
37.6410194580874
20
-3.42701292190802
30
0
41
1
10
37.7833890308861
20
-2.70551364126959
30
0
41
1
10
37.8545738172855
20
-2.33163382378928
30
0
41
1
10
37.9969433900842
20
-1.57917571773299
30
0
41
1
10
38.0681281764836
20
-1.2006931520672
30
0
41
1
10
38.1749053560827
20
-0.643486439191719
30
0
41
1
10
38.2104977492823
20
-0.459470448118253
30
0
41
1
10
38.2638863390819
20
-0.187417223359148
30
0
41
1
10
38.2816825356817
20
-0.0973919712413647
30
0
41
1
10
38.3172749288814
20
0.0811406238300663
30
0
41
1
10
38.3350711254812
20
0.170991039192017
30
0
41
1
10
38.4240521084805
20
0.624011586024665
30
0
41
1
10
38.4952368948798
20
0.997281463532545
30
0
41
1
10
38.6376064676785
20
1.74946207302827
30
0
41
1
10
38.7087912540779
20
2.12830559630623
30
0
41
1
10
38.8511608268766
20
2.87114144522013
30
0
41
1
10
38.922345613276
20
3.23501575776163
30
0
41
1
10
39.0647151860747
20
3.92584208838403
30
0
41
1
10
39.1358999724741
20
4.25265833811196
30
0
41
1
10
39.2782695452728
20
4.84967986193985
30
0
41
1
10
39.3494543316722
20
5.11978164493434
30
0
41
1
10
39.491823904471
20
5.58985335313165
30
0
41
1
10
39.5630086908703
20
5.78979019969921
30
0
41
1
10
39.6341934772697
20
5.95206917607644
30
0
0
SPLINE
5
E9
100
AcDbEntity
8
1
62
256
6
ByLayer
370
13
48
1
60
0
100
AcDbSpline
70
4
71
3
72
70
73
66
40
0
40
0
40
0
40
0
40
0.03125
40
0.03125
40
0.0625
40
0.0625
40
0.09375
40
0.09375
40
0.125
40
0.125
40
0.15625
40
0.15625
40
0.1875
40
0.1875
40
0.21875
40
0.21875
40
0.25
40
0.25
40
0.28125
40
0.28125
40
0.3125
40
0.3125
40
0.34375
40
0.34375
40
0.375
40
0.375
40
0.40625
40
0.40625
40
0.4375
40
0.4375
40
0.46875
40
0.46875
40
0.5
40
0.5
40
0.53125
40
0.53125
40
0.5625
40
0.5625
40
0.59375
40
0.59375
40
0.625
40
0.625
40
0.65625
40
0.65625
40
0.6875
40
0.6875
40
0.71875
40
0.71875
40
0.75
40
0.75
40
0.78125
40
0.78125
40
0.8125
40
0.8125
40
0.84375
40
0.84375
40
0.875
40
0.875
40
0.90625
40
0.90625
40
0.9375
40
0.9375
40
0.96875
40
0.96875
40
1
40
1
40
1
40
1
41
1
10
32.3000003667097
20
6.5
30
0
41
1
10
32.3763982116114
20
6.5
30
0
41
1
10
32.452796056513
20
6.46595074616934
30
0
41
1
10
32.6055917463164
20
6.31701906558587
30
0
41
1
10
32.681989591218
20
6.20200610830832
30
0
41
1
10
32.8347852810213
20
5.88524190053255
30
0
41
1
10
32.911183125923
20
5.6834159110341
30
0
41
1
10
33.0639788157263
20
5.19752595345886
30
0
41
1
10
33.140376660628
20
4.91349522613297
30
0
41
1
10
33.2931723504313
20
4.27889331005332
30
0
41
1
10
33.369570195333
20
3.92846498568835
30
0
41
1
10
33.5223658851363
20
3.18526236572049
30
0
41
1
10
33.598763730038
20
2.79268103645552
30
0
41
1
10
33.7515594198413
20
1.99255090796595
30
0
41
1
10
33.827957264743
20
1.58516429034779
30
0
41
1
10
33.9807529545463
20
0.780356236058566
30
0
41
1
10
34.057150799448
20
0.383016624829594
30
0
41
1
10
34.2099464892514
20
-0.383015705590793
30
0
41
1
10
34.286344334153
20
-0.78035527792639
30
0
41
1
10
34.4391400239564
20
-1.58516331694062
30
0
41
1
10
34.515537868858
20
-1.9925499358109
30
0
41
1
10
34.6683335586614
20
-2.7926800882982
30
0
41
1
10
34.744731403563
20
-3.18526144035994
30
0
41
1
10
34.8975270933663
20
-3.9284641273625
30
0
41
1
10
34.973924938268
20
-4.27889249595881
30
0
41
1
10
35.1267206280713
20
-4.91349451718273
30
0
41
1
10
35.203118472973
20
-5.19752530535106
30
0
41
1
10
35.3559141627763
20
-5.68341539300582
30
0
41
1
10
35.432312007678
20
-5.88524145164541
30
0
41
1
10
35.5851076974814
20
-6.20200579696117
30
0
41
1
10
35.661505542383
20
-6.31701882256797
30
0
41
1
10
35.8143012321864
20
-6.46595063175107
30
0
41
1
10
35.8906990770881
20
-6.49999994583328
30
0
41
1
10
36.0434947668914
20
-6.50000005416661
30
0
41
1
10
36.119892611793
20
-6.46595086058747
30
0
41
1
10
36.2726883015964
20
-6.31701930860362
30
0
41
1
10
36.3490861464981
20
-6.20200641965531
30
0
41
1
10
36.5018818363014
20
-5.88524234941951
30
0
41
1
10
36.578279681203
20
-5.68341642906222
30
0
41
1
10
36.7310753710064
20
-5.19752660156649
30
0
41
1
10
36.807473215908
20
-4.91349593508306
30
0
41
1
10
36.9602689057114
20
-4.27889412414771
30
0
41
1
10
37.036666750613
20
-3.92846584401408
30
0
41
1
10
37.1894624404163
20
-3.18526329108099
30
0
41
1
10
37.265860285318
20
-2.79268198461278
30
0
41
1
10
37.4186559751213
20
-1.992551880121
30
0
41
1
10
37.495053820023
20
-1.58516526375496
30
0
41
1
10
37.6478495098264
20
-0.780357194190771
30
0
41
1
10
37.7242473547281
20
-0.383017566504975
30
0
41
1
10
37.8770430445314
20
0.383014808788516
30
0
41
1
10
37.953440889433
20
0.780354319794242
30
0
41
1
10
38.1062365792363
20
1.58516234353348
30
0
41
1
10
38.182634424138
20
1.99254896365585
30
0
41
1
10
38.3354301139414
20
2.79267914014085
30
0
41
1
10
38.411827958843
20
3.18526051499933
30
0
41
1
10
38.5646236486463
20
3.92846326903654
30
0
41
1
10
38.641021493548
20
4.27889168186417
30
0
41
1
10
38.7938171833513
20
4.91349380823235
30
0
41
1
10
38.870215028253
20
5.19752465724312
30
0
41
1
10
39.0230107180564
20
5.68341487497736
30
0
41
1
10
39.099408562958
20
5.88524100275811
30
0
41
1
10
39.2522042527613
20
6.20200548561388
30
0
41
1
10
39.328602097663
20
6.31701857954988
30
0
41
1
10
39.4813977874664
20
6.46595051733263
30
0
41
1
10
39.557795632368
20
6.49999989166639
30
0
41
1
10
39.6341934772697
20
6.49999999999974
30
0
0
SPLINE
5
EA
100
AcDbEntity
8
1
62
256
6
ByLayer
370
13
48
1
60
0
100
AcDbSpline
70
4
71
3
72
85
73
81
40
0
40
0
40
0
40
0
40
0.0312500000000008
40
0.0312500000000008
40
0.0625000000000015
40
0.0625000000000015
40
0.0937500000000023
40
0.0937500000000023
40
0.125000000000003
40
0.125000000000003
40
0.156250000000004
40
0.156250000000004
40
0.187500000000005
40
0.187500000000005
40
0.195312500000005
40
0.195312500000005
40
0.203125000000005
40
0.203125000000005
40
0.218750000000005
40
0.218750000000005
40
0.250000000000006
40
0.250000000000006
40
0.281250000000007
40
0.281250000000007
40
0.312500000000008
40
0.312500000000008
40
0.343750000000008
40
0.343750000000008
40
0.375000000000009
40
0.375000000000009
40
0.40625000000001
40
0.40625000000001
40
0.437500000000011
40
0.437500000000011
40
0.453125000000011
40
0.453125000000011
40
0.460937500000011
40
0.460937500000011
40
0.464843750000011
40
0.464843750000011
40
0.468750000000012
40
0.468750000000012
40
0.500000000000011
40
0.500000000000011
40
0.53125000000001
40
0.53125000000001
40
0.56250000000001
40
0.56250000000001
40
0.593750000000009
40
0.593750000000009
40
0.625000000000008
40
0.625000000000008
40
0.656250000000008
40
0.656250000000008
40
0.687500000000007
40
0.687500000000007
40
0.718750000000006
40
0.718750000000006
40
0.726562500000006
40
0.730468750000006
40
0.730468750000006
40
0.734375000000006
40
0.734375000000006
40
0.750000000000005
40
0.750000000000005
40
0.781250000000005
40
0.781250000000005
40
0.812500000000004
40
0.812500000000004
40
0.843750000000003
40
0.843750000000003
40
0.875000000000003
40
0.875000000000003
40
0.906250000000002
40
0.906250000000002
40
0.937500000000001
40
0.937500000000001
40
0.968750000000001
40
0.968750000000001
40
1
40
1
40
1
40
1
41
1
10
32.3
20
5.95207084804105
30
0
41
1
10
32.3711847940392
20
5.78979211048198
30
0
41
1
10
32.4423695880783
20
5.58985549307357
30
0
41
1
10
32.5847391761566
20
5.11978419680636
30
0
41
1
10
32.6559239701957
20
4.84968259633885
30
0
41
1
10
32.798293558274
20
4.2526613703989
30
0
41
1
10
32.8694783523132
20
3.9258452359071
30
0
41
1
10
33.0118479403915
20
3.2350190605695
30
0
41
1
10
33.0830327344307
20
2.87114478812856
30
0
41
1
10
33.225402322509
20
2.12830895017808
30
0
41
1
10
33.2965871165482
20
1.74946539794288
30
0
41
1
10
33.4389567046265
20
0.997284677463711
30
0
41
1
10
33.5101414986656
20
0.624014718132287
30
0
41
1
10
33.5991224912146
20
0.170994048498187
30
0
41
1
10
33.6169186897243
20
0.0811435769795423
30
0
41
1
10
33.6525110867439
20
-0.0973890037340084
30
0
41
1
10
33.6703072852537
20
-0.187414249878771
30
0
41
1
10
33.723695880783
20
-0.459467460600592
30
0
41
1
10
33.7592882778027
20
-0.6434834475005
30
0
41
1
10
33.8660654688613
20
-1.2006901652623
30
0
41
1
10
33.9372502629005
20
-1.57917275763393
30
0
41
1
10
34.0796198509788
20
-2.33163096943667
30
0
41
1
10
34.150804645018
20
-2.70551086603999
30
0
41
1
10
34.2931742330963
20
-3.42701035421396
30
0
41
1
10
34.3643590271354
20
-3.77449703045448
30
0
41
1
10
34.5067286152138
20
-4.42184593005291
30
0
41
1
10
34.5779134092529
20
-4.72158277313474
30
0
41
1
10
34.7202829973312
20
-5.25652138439156
30
0
41
1
10
34.7914677913704
20
-5.49165308445077
30
0
41
1
10
34.9338373794486
20
-5.88802736458356
30
0
41
1
10
35.0050221734878
20
-6.04927691299159
30
0
41
1
10
35.1473917615661
20
-6.29708454235487
30
0
41
1
10
35.2185765556053
20
-6.38371169175326
30
0
41
1
10
35.325353746664
20
-6.46252416377828
30
0
41
1
10
35.3609461436836
20
-6.48032331585574
30
0
41
1
10
35.414334739213
20
-6.49527119297599
30
0
41
1
10
35.4321309377228
20
-6.49829734384758
30
0
41
1
10
35.4588252354874
20
-6.50003661014219
30
0
41
1
10
35.4677233347424
20
-6.50015185154268
30
0
41
1
10
35.4855195332521
20
-6.49946194167353
30
0
41
1
10
35.494417632507
20
-6.49865334376014
30
0
41
1
10
35.5745005258011
20
-6.48709980855204
30
0
41
1
10
35.6456853198402
20
-6.44625946760243
30
0
41
1
10
35.7880549079185
20
-6.29366985004495
30
0
41
1
10
35.8592397019577
20
-6.18183032357123
30
0
41
1
10
36.001609290036
20
-5.88291025126446
30
0
41
1
10
36.0727940840751
20
-5.69577841735708
30
0
41
1
10
36.2151636721534
20
-5.24983470491844
30
0
41
1
10
36.2863484661926
20
-4.99104238363333
30
0
41
1
10
36.4287180542709
20
-4.4138121503081
30
0
41
1
10
36.49990284831
20
-4.09546756199302
30
0
41
1
10
36.6422724363883
20
-3.41792176426407
30
0
41
1
10
36.7134572304275
20
-3.05885441509176
30
0
41
1
10
36.8558268185058
20
-2.32184105217513
30
0
41
1
10
36.927011612545
20
-1.94401920566273
30
0
41
1
10
37.0693812006233
20
-1.19059868501841
30
0
41
1
10
37.1405659946624
20
-0.815077022131277
30
0
41
1
10
37.2295469872114
20
-0.357743753121156
30
0
41
1
10
37.256241284976
20
-0.221430453256033
30
0
41
1
10
37.2829355827407
20
-0.0866868826240363
30
0
41
1
10
37.3007317812505
20
0.0027692500516139
30
0
41
1
10
37.3096298805054
20
0.0473266750978212
30
0
41
1
10
37.3541203767799
20
0.271655748147538
30
0
41
1
10
37.3897127737994
20
0.454045327248565
30
0
41
1
10
37.4964899648581
20
1.00738627779253
30
0
41
1
10
37.5676747588973
20
1.38465401960312
30
0
41
1
10
37.7100443469756
20
2.13817994308417
30
0
41
1
10
37.7812291410148
20
2.5143515568316
30
0
41
1
10
37.9235987290931
20
3.24425479998604
30
0
41
1
10
37.9947835231322
20
3.59785725276143
30
0
41
1
10
38.1371531112105
20
4.26089885482696
30
0
41
1
10
38.2083379052497
20
4.5702076137861
30
0
41
1
10
38.3507074933281
20
5.12672013452053
30
0
41
1
10
38.4218922873672
20
5.3738417715341
30
0
41
1
10
38.5642618754455
20
5.79519103923445
30
0
41
1
10
38.6354466694846
20
5.96941252624612
30
0
41
1
10
38.7778162575629
20
6.24272304210612
30
0
41
1
10
38.849001051602
20
6.34187279201433
30
0
41
1
10
38.9913706396804
20
6.47046478417607
30
0
41
1
10
39.0625554337196
20
6.5
30
0
41
1
10
39.1337402277587
20
6.5
30
0
0
SPLINE
5
EB
100
AcDbEntity
8
1
62
256
6
ByLayer
370
13
48
1
60
0
100
AcDbSpline
70
4
71
3
72
84
73
80
40
0
40
0
40
0
40
0
40
0.0312499999999983
40
0.0312499999999983
40
0.0624999999999966
40
0.0624999999999966
40
0.093749999999995
40
0.093749999999995
40
0.124999999999993
40
0.124999999999993
40
0.128906249999993
40
0.128906249999993
40
0.132812499999993
40
0.132812499999993
40
0.140624999999993
40
0.140624999999993
40
0.156249999999993
40
0.156249999999993
40
0.187499999999994
40
0.187499999999994
40
0.218749999999994
40
0.218749999999994
40
0.249999999999994
40
0.249999999999994
40
0.281249999999995
40
0.281249999999995
40
0.312499999999995
40
0.312499999999995
40
0.343749999999995
40
0.343749999999995
40
0.374999999999996
40
0.374999999999996
40
0.406249999999996
40
0.406249999999996
40
0.414062499999996
40
0.414062499999996
40
0.421874999999996
40
0.421874999999996
40
0.437499999999996
40
0.437499999999996
40
0.468749999999996
40
0.468749999999996
40
0.499999999999997
40
0.499999999999997
40
0.531249999999997
40
0.531249999999997
40
0.562499999999997
40
0.562499999999997
40
0.593749999999997
40
0.593749999999997
40
0.624999999999998
40
0.624999999999998
40
0.656249999999998
40
0.656249999999998
40
0.687499999999998
40
0.687499999999998
40
0.703124999999998
40
0.703124999999998
40
0.710937499999998
40
0.710937499999998
40
0.718749999999998
40
0.718749999999998
40
0.749999999999998
40
0.749999999999998
40
0.781249999999998
40
0.781249999999998
40
0.812499999999999
40
0.812499999999999
40
0.843749999999999
40
0.843749999999999
40
0.874999999999999
40
0.874999999999999
40
0.906249999999999
40
0.906249999999999
40
0.937499999999999
40
0.937499999999999
40
0.96875
40
0.96875
40
1
40
1
40
1
40
1
41
1
10
32.3
20
4.23400901685858
30
0
41
1
10
32.3659717355368
20
3.94042471552922
30
0
41
1
10
32.4319434710737
20
3.62522099773696
30
0
41
1
10
32.5638869421474
20
2.96797620352461
30
0
41
1
10
32.6298586776843
20
2.62602809364987
30
0
41
1
10
32.761802148758
20
1.93285660850907
30
0
41
1
10
32.8277738842948
20
1.58170838110419
30
0
41
1
10
32.9597173553685
20
0.886069590655637
30
0
41
1
10
33.0256890909054
20
0.541620099554336
30
0
41
1
10
33.0999072933844
20
0.164897701857171
30
0
41
1
10
33.1081537603265
20
0.123186898867914
30
0
41
1
10
33.1246466942107
20
0.040079647552119
30
0
41
1
10
33.1328931611528
20
-0.0012079894732722
30
0
41
1
10
33.1576325619791
20
-0.125570946401695
30
0
41
1
10
33.1741254958633
20
-0.20912082240676
30
0
41
1
10
33.2236042975159
20
-0.461453441882242
30
0
41
1
10
33.2565901652844
20
-0.631926965026253
30
0
41
1
10
33.3555477685896
20
-1.14789123701425
30
0
41
1
10
33.4215195041265
20
-1.49802688876539
30
0
41
1
10
33.5534629752002
20
-2.1960693997014
30
0
41
1
10
33.6194347107371
20
-2.54391419849497
30
0
41
1
10
33.7513781818108
20
-3.22025807338343
30
0
41
1
10
33.8173499173477
20
-3.54866859018034
30
0
41
1
10
33.9492933884214
20
-4.16882269826576
30
0
41
1
10
34.0152651239582
20
-4.46047579505753
30
0
41
1
10
34.1472085950319
20
-4.99238215851713
30
0
41
1
10
34.2131803305688
20
-5.23257265850742
30
0
41
1
10
34.3451238016425
20
-5.65182002641711
30
0
41
1
10
34.4110955371794
20
-5.83086108819924
30
0
41
1
10
34.5430390082531
20
-6.12431095988981
30
0
41
1
10
34.6090107437899
20
-6.23875011966029
30
0
41
1
10
34.7409542148636
20
-6.4054918112729
30
0
41
1
10
34.8069259504004
20
-6.45785321763611
30
0
41
1
10
34.8893906198215
20
-6.48888998438434
30
0
41
1
10
34.9058835537057
20
-6.49338506375926
30
0
41
1
10
34.9388694214742
20
-6.4990892351843
30
0
41
1
10
34.9553623553584
20
-6.50030012686511
30
0
41
1
10
35.0048411570111
20
-6.49921323809033
30
0
41
1
10
35.0378270247795
20
-6.49213776927303
30
0
41
1
10
35.1367846280848
20
-6.45016840848834
30
0
41
1
10
35.2027563636216
20
-6.39440932506974
30
0
41
1
10
35.3346998346953
20
-6.22058660740851
30
0
41
1
10
35.4006715702322
20
-6.10246510812806
30
0
41
1
10
35.5326150413059
20
-5.80167575197225
30
0
41
1
10
35.5985867768428
20
-5.61897982476009
30
0
41
1
10
35.7305302479164
20
-5.19281090043427
30
0
41
1
10
35.7965019834533
20
-4.9493565768208
30
0
41
1
10
35.928445454527
20
-4.41164526909753
30
0
41
1
10
35.9944171900639
20
-4.11745332368585
30
0
41
1
10
36.1263606611376
20
-3.4931684723027
30
0
41
1
10
36.1923323966745
20
-3.16316677315638
30
0
41
1
10
36.3242758677482
20
-2.48465358926285
30
0
41
1
10
36.390247603285
20
-2.13622969265222
30
0
41
1
10
36.5221910743587
20
-1.4379543183536
30
0
41
1
10
36.5881628098956
20
-1.0881629372326
30
0
41
1
10
36.6871204132009
20
-0.573263325549476
30
0
41
1
10
36.7201062809693
20
-0.40323543823871
30
0
41
1
10
36.7695850826219
20
-0.151685880603026
30
0
41
1
10
36.7860780165062
20
-0.0685529207489424
30
0
41
1
10
36.8190638842746
20
0.0969689805506277
30
0
41
1
10
36.8355568181588
20
0.180379842995507
30
0
41
1
10
36.9180214875799
20
0.600287120502827
30
0
41
1
10
36.9839932231167
20
0.945494624723381
30
0
41
1
10
37.1159366941904
20
1.64182174336437
30
0
41
1
10
37.1819084297273
20
1.99289818668112
30
0
41
1
10
37.313851900801
20
2.68494575790504
30
0
41
1
10
37.3798236363378
20
3.02584012437538
30
0
41
1
10
37.5117671074116
20
3.67997531378205
30
0
41
1
10
37.5777388429484
20
3.99312294694479
30
0
41
1
10
37.7096823140221
20
4.57531716931516
30
0
41
1
10
37.7756540495589
20
4.84428292352891
30
0
41
1
10
37.9075975206327
20
5.32549393568524
30
0
41
1
10
37.9735692561695
20
5.5376973078763
30
0
41
1
10
38.1055127272432
20
5.89852548524908
30
0
41
1
10
38.1714844627801
20
6.04715758880118
30
0
41
1
10
38.3034279338538
20
6.28028499274063
30
0
41
1
10
38.3693996693907
20
6.36482690113829
30
0
41
1
10
38.5013431404644
20
6.47465225695402
30
0
41
1
10
38.5673148760012
20
6.5
30
0
41
1
10
38.633286611538
20
6.5
30
0
0
SPLINE
5
EC
100
AcDbEntity
8
1
62
256
6
ByLayer
370
13
48
1
60
0
100
AcDbSpline
70
4
71
3
72
85
73
81
40
0
40
0
40
0
40
0
40
0.0312500000000001
40
0.0312500000000001
40
0.0468750000000001
40
0.0468750000000001
40
0.0546875
40
0.0546875
40
0.05859375
40
0.05859375
40
0.0625000000000001
40
0.0625000000000001
40
0.0937500000000002
40
0.0937500000000002
40
0.125
40
0.125
40
0.15625
40
0.15625
40
0.1875
40
0.1875
40
0.21875
40
0.21875
40
0.25
40
0.25
40
0.28125
40
0.28125
40
0.3125
40
0.3125
40
0.34375
40
0.34375
40
0.359375
40
0.359375
40
0.3671875
40
0.3671875
40
0.375
40
0.375
40
0.40625
40
0.40625
40
0.4375
40
0.4375
40
0.46875
40
0.46875
40
0.5
40
0.5
40
0.53125
40
0.53125
40
0.5625
40
0.5625
40
0.59375
40
0.59375
40
0.625
40
0.625
40
0.65625
40
0.65625
40
0.671875
40
0.671875
40
0.6796875
40
0.68359375
40
0.68359375
40
0.6875
40
0.6875
40
0.71875
40
0.71875
40
0.75
40
0.75
40
0.78125
40
0.78125
40
0.8125
40
0.8125
40
0.84375
40
0.84375
40
0.875
40
0.875
40
0.90625
40
0.90625
40
0.9375
40
0.9375
40
0.96875
40
0.96875
40
1
40
1
40
1
40
1
41
1
10
32.3
20
1.7271193819281
30
0
41
1
10
32.3607586770346
20
1.40551117871567
30
0
41
1
10
32.4215173540691
20
1.08371658457489
30
0
41
1
10
32.5126553696209
20
0.609124553213434
30
0
41
1
10
32.5430347081382
20
0.452258387711538
30
0
41
1
10
32.5886037159142
20
0.219815175416727
30
0
41
1
10
32.6037933851728
20
0.1428087067398
30
0
41
1
10
32.6265778890607
20
0.0281054555639173
30
0
41
1
10
32.6341727236901
20
-0.0099085768120801
30
0
41
1
10
32.6493623929487
20
-0.0862915670201119
30
0
41
1
10
32.6569572275781
20
-0.124618571649904
30
0
41
1
10
32.7253107392419
20
-0.470712435763005
30
0
41
1
10
32.7860694162764
20
-0.786652701540675
30
0
41
1
10
32.9075867703456
20
-1.42567684736275
30
0
41
1
10
32.9683454473801
20
-1.74873649661583
30
0
41
1
10
33.0898628014492
20
-2.38996955504268
30
0
41
1
10
33.1506214784838
20
-2.70809714473469
30
0
41
1
10
33.2721388325529
20
-3.32592699607599
30
0
41
1
10
33.3328975095875
20
-3.62556916475964
30
0
41
1
10
33.4544148636566
20
-4.19300561493952
30
0
41
1
10
33.5151735406911
20
-4.46074029788929
30
0
41
1
10
33.6366908947602
20
-4.95291374959669
30
0
41
1
10
33.6974495717948
20
-5.17731018009036
30
0
41
1
10
33.8189669258639
20
-5.57492575528178
30
0
41
1
10
33.8797256028985
20
-5.74813098582072
30
0
41
1
10
34.0012429569676
20
-6.03992778976453
30
0
41
1
10
34.0620016340021
20
-6.15853460136606
30
0
41
1
10
34.1835189880713
20
-6.3421156597756
30
0
41
1
10
34.2442776651058
20
-6.40712555476867
30
0
41
1
10
34.3354156806577
20
-6.46786195944961
30
0
41
1
10
34.3657950191749
20
-6.48200223001913
30
0
41
1
10
34.4113640269509
20
-6.49465889193681
30
0
41
1
10
34.4265536962095
20
-6.49745318216412
30
0
41
1
10
34.4569330347267
20
-6.50030385690647
30
0
41
1
10
34.4721227039853
20
-6.50037407713506
30
0
41
1
10
34.5480710502786
20
-6.49397248608472
30
0
41
1
10
34.6088297273132
20
-6.46692160161706
30
0
41
1
10
34.7303470813823
20
-6.36251496957263
30
0
41
1
10
34.7911057584168
20
-6.28511664459057
30
0
41
1
10
34.9126231124859
20
-6.07615259851716
30
0
41
1
10
34.9733817895204
20
-5.94455494801505
30
0
41
1
10
35.0948991435895
20
-5.62716237237271
30
0
41
1
10
35.1556578206242
20
-5.44135860530341
30
0
41
1
10
35.2771751746932
20
-5.02001391033545
30
0
41
1
10
35.3379338517278
20
-4.78449410934823
30
0
41
1
10
35.4594512057969
20
-4.27250131865608
30
0
41
1
10
35.5202098828315
20
-3.99607608685628
30
0
41
1
10
35.6417272369006
20
-3.41432315853075
30
0
41
1
10
35.7024859139352
20
-3.10905674266573
30
0
41
1
10
35.8240032680043
20
-2.48324530685218
30
0
41
1
10
35.8847619450388
20
-2.16275811460403
30
0
41
1
10
36.006279299108
20
-1.51984989244616
30
0
41
1
10
36.0670379761425
20
-1.19746990439293
30
0
41
1
10
36.1581759916944
20
-0.721102538037968
30
0
41
1
10
36.1885553302117
20
-0.563495913181072
30
0
41
1
10
36.2341243379876
20
-0.329750721527006
30
0
41
1
10
36.2569088418755
20
-0.213542240420736
30
0
41
1
10
36.2796933457634
20
-0.0984778156623065
30
0
41
1
10
36.2948830150221
20
-0.0220375118996401
30
0
41
1
10
36.3024778496514
20
0.0159718834511295
30
0
41
1
10
36.3708313613153
20
0.359824484194292
30
0
41
1
10
36.4315900383499
20
0.674237614283129
30
0
41
1
10
36.553107392419
20
1.31147532777581
30
0
41
1
10
36.6138660694535
20
1.63427831729871
30
0
41
1
10
36.7353834235226
20
2.2765273479225
30
0
41
1
10
36.7961421005572
20
2.59592991432711
30
0
41
1
10
36.9176594546263
20
3.21794176516991
30
0
41
1
10
36.9784181316608
20
3.52049198756134
30
0
41
1
10
37.09993548573
20
4.09526609931015
30
0
41
1
10
37.1606941627645
20
4.36742942567403
30
0
41
1
10
37.2822115168336
20
4.8696549998289
30
0
41
1
10
37.3429701938682
20
5.09967211081621
30
0
41
1
10
37.4644875479373
20
5.50923895226705
30
0
41
1
10
37.5252462249719
20
5.68877114821163
30
0
41
1
10
37.646763579041
20
5.99338945815967
30
0
41
1
10
37.7075222560755
20
6.11848767048235
30
0
41
1
10
37.8290396101446
20
6.31472571345748
30
0
41
1
10
37.8897982871792
20
6.38589942543308
30
0
41
1
10
38.0113156412483
20
6.47851507664208
30
0
41
1
10
38.0720743182829
20
6.5
30
0
41
1
10
38.1328329953174
20
6.5
30
0
0
SPLINE
5
ED
100
AcDbEntity
8
1
62
256
6
ByLayer
370
13
48
1
60
0
100
AcDbSpline
70
4
71
3
72
70
73
66
40
0
40
0
40
0
40
0
40
0.03125
40
0.03125
40
0.0625
40
0.0625
40
0.0937499999999999
40
0.0937499999999999
40
0.125
40
0.125
40
0.15625
40
0.15625
40
0.1875
40
0.1875
40
0.21875
40
0.21875
40
0.25
40
0.25
40
0.28125
40
0.28125
40
0.3125
40
0.3125
40
0.34375
40
0.34375
40
0.375
40
0.375
40
0.40625
40
0.40625
40
0.4375
40
0.4375
40
0.46875
40
0.46875
40
0.5
40
0.5
40
0.53125
40
0.53125
40
0.5625
40
0.5625
40
0.59375
40
0.59375
40
0.625
40
0.625
40
0.65625
40
0.65625
40
0.6875
40
0.6875
40
0.71875
40
0.71875
40
0.75
40
0.75
40
0.78125
40
0.78125
40
0.8125
40
0.8125
40
0.84375
40
0.84375
40
0.875
40
0.875
40
0.90625
40
0.90625
40
0.9375
40
0.9375
40
0.96875
40
0.96875
40
1
40
1
40
1
40
1
41
1
10
32.3
20
-0.863053816380358
30
0
41
1
10
32.3555456185323
20
-1.1532306452186
30
0
41
1
10
32.4110912370645
20
-1.44748321065961
30
0
41
1
10
32.522182474129
20
-2.03549403649026
30
0
41
1
10
32.5777280926613
20
-2.3292274641112
30
0
41
1
10
32.6888193297259
20
-2.90617418742707
30
0
41
1
10
32.7443649482581
20
-3.18935200672314
30
0
41
1
10
32.8554561853226
20
-3.73472329701633
30
0
41
1
10
32.9110018038548
20
-3.99687709300517
30
0
41
1
10
33.0220930409194
20
-4.49045371075098
30
0
41
1
10
33.0776386594516
20
-4.72184163836118
30
0
41
1
10
33.1887298965161
20
-5.14601195395076
30
0
41
1
10
33.2442755150483
20
-5.3387725251244
30
0
41
1
10
33.3553667521129
20
-5.68056605120751
30
0
41
1
10
33.4109123706452
20
-5.82959464354954
30
0
41
1
10
33.5220036077097
20
-6.08195940882266
30
0
41
1
10
33.5775492262419
20
-6.18530770636221
30
0
41
1
10
33.6886404633065
20
-6.34737920695335
30
0
41
1
10
33.7441860818387
20
-6.40612576036474
30
0
41
1
10
33.8552773189033
20
-6.48253775997748
30
0
41
1
10
33.9108229374355
20
-6.50023108138348
30
0
41
1
10
34.0219141744999
20
-6.49976435718369
30
0
41
1
10
34.0774597930323
20
-6.48156709903037
30
0
41
1
10
34.1885510300968
20
-6.40408785614875
30
0
41
1
10
34.244096648629
20
-6.34477825022745
30
0
41
1
10
34.3551878856935
20
-6.18154904472286
30
0
41
1
10
34.4107335042258
20
-6.07760619696523
30
0
41
1
10
34.5218247412904
20
-5.82405725411957
30
0
41
1
10
34.5773703598226
20
-5.67443922230746
30
0
41
1
10
34.6884615968871
20
-5.33151309738449
30
0
41
1
10
34.7440072154193
20
-5.13820959958537
30
0
41
1
10
34.8550984524838
20
-4.71303939880835
30
0
41
1
10
34.9106440710161
20
-4.48119472236664
30
0
41
1
10
35.0217353080807
20
-3.98682167943636
30
0
41
1
10
35.0772809266129
20
-3.72432832818094
30
0
41
1
10
35.1883721636774
20
-3.17841232390092
30
0
41
1
10
35.2439177822097
20
-2.89502934643181
30
0
41
1
10
35.3550090192742
20
-2.31780834235872
30
0
41
1
10
35.4105546378065
20
-2.02400568672582
30
0
41
1
10
35.521645874871
20
-1.43598006576522
30
0
41
1
10
35.5771914934032
20
-1.14178176985598
30
0
41
1
10
35.6882827304678
20
-0.561638160686272
30
0
41
1
10
35.743828349
20
-0.275800681605148
30
0
41
1
10
35.8549195860644
20
0.281245327853611
30
0
41
1
10
35.9104652045967
20
0.567256896333561
30
0
41
1
10
36.0215564416613
20
1.14750585870624
30
0
41
1
10
36.0771020601935
20
1.44173147447739
30
0
41
1
10
36.1881932972581
20
2.02975009765356
30
0
41
1
10
36.2437389157903
20
2.32351835391708
30
0
41
1
10
36.3548301528548
20
2.90060265679267
30
0
41
1
10
36.4103757713871
20
3.18388327958053
30
0
41
1
10
36.5214670084516
20
3.72952736061677
30
0
41
1
10
36.5770126269839
20
3.99185114338664
30
0
41
1
10
36.6881038640483
20
4.4858263519171
30
0
41
1
10
36.7436494825806
20
4.71744282280497
30
0
41
1
10
36.8547407196451
20
5.14211335948195
30
0
41
1
10
36.9102863381774
20
5.33514550350372
30
0
41
1
10
37.0213775752419
20
5.67750548007962
30
0
41
1
10
37.0769231937741
20
5.82682883371609
30
0
41
1
10
37.1880144308387
20
6.07978570567454
30
0
41
1
10
37.243560049371
20
6.18343125477918
30
0
41
1
10
37.3546512864355
20
6.34608150763066
30
0
41
1
10
37.4101969049677
20
6.40510951079676
30
0
41
1
10
37.5212881420323
20
6.48205494310972
30
0
41
1
10
37.5768337605645
20
6.5
30
0
41
1
10
37.6323793790968
20
6.5
30
0
0
SPLINE
5
EE
100
AcDbEntity
8
1
62
256
6
ByLayer
370
13
48
1
60
0
100
AcDbSpline
70
4
71
3
72
78
73
74
40
0
40
0
40
0
40
0
40
0.03125
40
0.03125
40
0.0625
40
0.0625
40
0.09375
40
0.09375
40
0.125
40
0.125
40
0.15625
40
0.15625
40
0.1875
40
0.1875
40
0.21875
40
0.21875
40
0.234375
40
0.234375
40
0.2421875
40
0.2421875
40
0.25
40
0.25
40
0.28125
40
0.28125
40
0.3125
40
0.3125
40
0.34375
40
0.34375
40
0.375
40
0.375
40
0.40625
40
0.40625
40
0.4375
40
0.4375
40
0.46875
40
0.46875
40
0.5
40
0.5
40
0.53125
40
0.53125
40
0.5625
40
0.5625
40
0.59375
40
0.59375
40
0.609375
40
0.609375
40
0.6171875
40
0.6171875
40
0.625
40
0.625
40
0.65625
40
0.65625
40
0.6875
40
0.6875
40
0.71875
40
0.71875
40
0.75
40
0.75
40
0.78125
40
0.78125
40
0.8125
40
0.8125
40
0.84375
40
0.84375
40
0.875
40
0.875
40
0.90625
40
0.90625
40
0.9375
40
0.9375
40
0.96875
40
0.96875
40
1
40
1
40
1
40
1
41
1
10
32.3
20
-3.46470326670004
30
0
41
1
10
32.35033256003
20
-3.71173490730342
30
0
41
1
10
32.4006651200599
20
-3.95011361989293
30
0
41
1
10
32.5013302401199
20
-4.40232643430241
30
0
41
1
10
32.5516628001498
20
-4.61613867641628
30
0
41
1
10
32.6523279202097
20
-5.01312947116043
30
0
41
1
10
32.7026604802397
20
-5.19629290015891
30
0
41
1
10
32.8033256002996
20
-5.52766577433638
30
0
41
1
10
32.8536581603295
20
-5.67586950357622
30
0
41
1
10
32.9543232803895
20
-5.93509234065129
30
0
41
1
10
33.0046558404195
20
-6.04611539343716
30
0
41
1
10
33.1053209604794
20
-6.23086105767973
30
0
41
1
10
33.1556535205093
20
-6.30459528103896
30
0
41
1
10
33.2563186405692
20
-6.416519410337
30
0
41
1
10
33.3066512005992
20
-6.45472529074618
30
0
41
1
10
33.3821500406441
20
-6.4877764392767
30
0
41
1
10
33.4073163206591
20
-6.49476024726329
30
0
41
1
10
33.4450657406816
20
-6.49955435875327
30
0
41
1
10
33.4576488806891
20
-6.5002070358465
30
0
41
1
10
33.482815160704
20
-6.49967988668618
30
0
41
1
10
33.4953983007115
20
-6.49849307117083
30
0
41
1
10
33.558314000749
20
-6.48778056580591
30
0
41
1
10
33.6086465607789
20
-6.46388294743292
30
0
41
1
10
33.7093116808389
20
-6.38180022423217
30
0
41
1
10
33.7596442408689
20
-6.3235983584745
30
0
41
1
10
33.8603093609287
20
-6.17046705531868
30
0
41
1
10
33.9106419209587
20
-6.07552369854255
30
0
41
1
10
34.0113070410186
20
-5.84816771423485
30
0
41
1
10
34.0616396010486
20
-5.71574750948869
30
0
41
1
10
34.1623047211085
20
-5.41473038202597
30
0
41
1
10
34.2126372811385
20
-5.24613492168152
30
0
41
1
10
34.3133024011984
20
-4.87619490317101
30
0
41
1
10
34.3636349612283
20
-4.67486163184051
30
0
41
1
10
34.4643000812882
20
-4.24481819228288
30
0
41
1
10
34.5146326413182
20
-4.01612745786736
30
0
41
1
10
34.6152977613781
20
-3.53821615461735
30
0
41
1
10
34.6656303214081
20
-3.28901941061713
30
0
41
1
10
34.7662954414681
20
-2.77775300225909
30
0
41
1
10
34.816628001498
20
-2.51570692460623
30
0
41
1
10
34.9172931215579
20
-1.98647932565984
30
0
41
1
10
34.9676256815879
20
-1.71931710930829
30
0
41
1
10
35.0682908016478
20
-1.18701733980876
30
0
41
1
10
35.1186233616777
20
-0.921892402686012
30
0
41
1
10
35.1941222017227
20
-0.530295765018593
30
0
41
1
10
35.2192884817377
20
-0.40076922283609
30
0
41
1
10
35.2570379017601
20
-0.208465718335276
30
0
41
1
10
35.2696210417676
20
-0.144694935081048
30
0
41
1
10
35.2947873217826
20
-0.0178856694093383
30
0
41
1
10
35.3073704617901
20
0.0450289385939868
30
0
41
1
10
35.3702861618276
20
0.362572303906177
30
0
41
1
10
35.4206187218575
20
0.622439667197341
30
0
41
1
10
35.5212838419174
20
1.1486965495657
30
0
41
1
10
35.5716164019474
20
1.41507862747653
30
0
41
1
10
35.6722815220073
20
1.94794171360323
30
0
41
1
10
35.7226140820372
20
2.21440806339987
30
0
41
1
10
35.8232792020971
20
2.74006850830423
30
0
41
1
10
35.8736117621271
20
2.99924174521485
30
0
41
1
10
35.974276882187
20
3.50253545731772
30
0
41
1
10
36.024609442217
20
3.74663181408096
30
0
41
1
10
36.125274562277
20
4.21226982362208
30
0
41
1
10
36.1756071223069
20
4.43378844424421
30
0
41
1
10
36.2762722423668
20
4.84777264769866
30
0
41
1
10
36.3266048023967
20
5.04022081543988
30
0
41
1
10
36.4272699224567
20
5.3911931620151
30
0
41
1
10
36.4776024824867
20
5.54970879957168
30
0
41
1
10
36.5782676025465
20
5.82997267042691
30
0
41
1
10
36.6286001625765
20
5.95172220569535
30
0
41
1
10
36.7292652826364
20
6.15774794223316
30
0
41
1
10
36.7795978426664
20
6.24203386650689
30
0
41
1
10
36.8802629627263
20
6.37439101388424
30
0
41
1
10
36.9305955227563
20
6.42247733073015
30
0
41
1
10
37.0312606428162
20
6.48527334876141
30
0
41
1
10
37.0815932028461
20
6.5
30
0
41
1
10
37.1319257628761
20
6.5
30
0
0
SPLINE
5
EF
100
AcDbEntity
8
1
62
256
6
ByLayer
370
13
48
1
60
0
100
AcDbSpline
70
4
71
3
72
78
73
74
40
0
40
0
40
0
40
0
40
0.0312500000000007
40
0.0312500000000007
40
0.0625000000000014
40
0.0625000000000014
40
0.0937500000000022
40
0.0937500000000022
40
0.125000000000003
40
0.125000000000003
40
0.140625000000003
40
0.140625000000003
40
0.148437500000004
40
0.148437500000004
40
0.156250000000004
40
0.156250000000004
40
0.187500000000005
40
0.187500000000005
40
0.218750000000005
40
0.218750000000005
40
0.250000000000006
40
0.250000000000006
40
0.281250000000007
40
0.281250000000007
40
0.312500000000007
40
0.312500000000007
40
0.343750000000008
40
0.343750000000008
40
0.375000000000008
40
0.375000000000008
40
0.406250000000009
40
0.406250000000009
40
0.43750000000001
40
0.43750000000001
40
0.46875000000001
40
0.46875000000001
40
0.500000000000011
40
0.500000000000011
40
0.531250000000011
40
0.531250000000011
40
0.562500000000012
40
0.562500000000012
40
0.570312500000012
40
0.570312500000012
40
0.578125000000012
40
0.578125000000012
40
0.593750000000011
40
0.593750000000011
40
0.625000000000011
40
0.625000000000011
40
0.65625000000001
40
0.65625000000001
40
0.687500000000009
40
0.687500000000009
40
0.718750000000008
40
0.718750000000008
40
0.750000000000007
40
0.750000000000007
40
0.781250000000006
40
0.781250000000006
40
0.812500000000006
40
0.812500000000006
40
0.843750000000005
40
0.843750000000005
40
0.875000000000004
40
0.875000000000004
40
0.906250000000003
40
0.906250000000003
40
0.937500000000002
40
0.937500000000002
40
0.968750000000001
40
0.968750000000001
40
1
40
1
40
1
40
1
41
1
10
32.3
20
-5.51300810921472
30
0
41
1
10
32.3451195015277
20
-5.65159669723079
30
0
41
1
10
32.3902390030553
20
-5.77577790940532
30
0
41
1
10
32.4804780061106
20
-5.99413019611293
30
0
41
1
10
32.5255975076383
20
-6.08830463446782
30
0
41
1
10
32.6158365106937
20
-6.24679030236248
30
0
41
1
10
32.6609560122213
20
-6.31110864159018
30
0
41
1
10
32.7511950152766
20
-6.41121225082071
30
0
41
1
10
32.7963145168043
20
-6.44700679231514
30
0
41
1
10
32.8639937690958
20
-6.48099472763531
30
0
41
1
10
32.8865535198596
20
-6.48904642448804
30
0
41
1
10
32.9203931460053
20
-6.49646572263669
30
0
41
1
10
32.9316730213873
20
-6.49816272957344
30
0
41
1
10
32.9542327721511
20
-6.50005058957498
30
0
41
1
10
32.9655126475331
20
-6.50024553203525
30
0
41
1
10
33.0219120244426
20
-6.49752144808903
30
0
41
1
10
33.0670315259702
20
-6.48337294299023
30
0
41
1
10
33.1572705290256
20
-6.42835223816135
30
0
41
1
10
33.2023900305533
20
-6.38747020813369
30
0
41
1
10
33.2926290336086
20
-6.27686901267498
30
0
41
1
10
33.3377485351362
20
-6.20714084699276
30
0
41
1
10
33.4279875381915
20
-6.03771250619232
30
0
41
1
10
33.4731070397192
20
-5.93800579773486
30
0
41
1
10
33.5633460427745
20
-5.7087035533319
30
0
41
1
10
33.6084655443022
20
-5.57910548282703
30
0
41
1
10
33.6987045473575
20
-5.2914634166805
30
0
41
1
10
33.7438240488852
20
-5.13342186474125
30
0
41
1
10
33.8340630519405
20
-4.79169988030364
30
0
41
1
10
33.8791825534681
20
-4.60802692859568
30
0
41
1
10
33.9694215565234
20
-4.21906367629009
30
0
41
1
10
34.0145410580511
20
-4.01378491134042
30
0
41
1
10
34.1047800611064
20
-3.58655601043196
30
0
41
1
10
34.1498995626341
20
-3.36461965121833
30
0
41
1
10
34.2401385656894
20
-2.90955862898369
30
0
41
1
10
34.2852580672171
20
-2.67644781430653
30
0
41
1
10
34.3754970702724
20
-2.20463514113388
30
0
41
1
10
34.4206165718001
20
-1.96594523498791
30
0
41
1
10
34.5108555748554
20
-1.48829158779844
30
0
41
1
10
34.5559750763831
20
-1.24933656923244
30
0
41
1
10
34.6462140794384
20
-0.775875261860222
30
0
41
1
10
34.6913335809661
20
-0.541373944132033
30
0
41
1
10
34.7477329578756
20
-0.253478530172089
30
0
41
1
10
34.7590128332575
20
-0.196158893778943
30
0
41
1
10
34.7815725840214
20
-0.0820910296011448
30
0
41
1
10
34.7928524594033
20
-0.0255053970891197
30
0
41
1
10
34.8266920855491
20
0.144481684184939
30
0
41
1
10
34.8492518363129
20
0.259013832120729
30
0
41
1
10
34.9169310886044
20
0.605608005800576
30
0
41
1
10
34.962050590132
20
0.840694247208376
30
0
41
1
10
35.0522895931873
20
1.31492394743262
30
0
41
1
10
35.097409094715
20
1.55406209021635
30
0
41
1
10
35.1876480977704
20
2.03161560790207
30
0
41
1
10
35.232767599298
20
2.27002192986979
30
0
41
1
10
35.3230066023533
20
2.74076059387661
30
0
41
1
10
35.368126103881
20
2.97308074231793
30
0
41
1
10
35.4583651069363
20
3.42604646226965
30
0
41
1
10
35.5034846084639
20
3.64667810320543
30
0
41
1
10
35.5937236115192
20
4.07081490883104
30
0
41
1
10
35.6388431130469
20
4.27430641326231
30
0
41
1
10
35.7290821161023
20
4.65928183633804
30
0
41
1
10
35.7742016176299
20
4.84075452550061
30
0
41
1
10
35.8644406206853
20
5.17776363961522
30
0
41
1
10
35.9095601222129
20
5.33329302020721
30
0
41
1
10
35.9997991252682
20
5.61571956069079
30
0
41
1
10
36.0449186267959
20
5.74261475179517
30
0
41
1
10
36.1351576298512
20
5.96644737138237
30
0
41
1
10
36.1802771313789
20
6.06338775360754
30
0
41
1
10
36.2705161344342
20
6.22733928238853
30
0
41
1
10
36.3156356359618
20
6.29435725718417
30
0
41
1
10
36.4058746390172
20
6.39969506353094
30
0
41
1
10
36.4509941405448
20
6.43802403792114
30
0
41
1
10
36.5412331436001
20
6.48817159043287
30
0
41
1
10
36.5863526451278
20
6.5
30
0
41
1
10
36.6314721466555
20
6.5
30
0
0
SPLINE
5
F0
100
AcDbEntity
8
1
62
256
6
ByLayer
370
13
48
1
60
0
100
AcDbSpline
70
4
71
3
72
64
73
60
40
0
40
0
40
0
40
0
40
0.0312499999999994
40
0.0312499999999994
40
0.0390624999999994
40
0.0390624999999994
40
0.0468749999999993
40
0.0468749999999993
40
0.0624999999999993
40
0.0624999999999993
40
0.125
40
0.125
40
0.1875
40
0.1875
40
0.21875
40
0.21875
40
0.25
40
0.25
40
0.28125
40
0.28125
40
0.3125
40
0.3125
40
0.343750000000001
40
0.343750000000001
40
0.375000000000001
40
0.375000000000001
40
0.437500000000001
40
0.437500000000001
40
0.500000000000001
40
0.500000000000001
40
0.515625000000001
40
0.515625000000001
40
0.523437500000001
40
0.523437500000001
40
0.531250000000001
40
0.531250000000001
40
0.562500000000002
40
0.562500000000002
40
0.625000000000002
40
0.625000000000002
40
0.656250000000002
40
0.656250000000002
40
0.687500000000001
40
0.687500000000001
40
0.718750000000001
40
0.718750000000001
40
0.750000000000001
40
0.750000000000001
40
0.781250000000001
40
0.781250000000001
40
0.812500000000001
40
0.812500000000001
40
0.843750000000001
40
0.843750000000001
40
0.875000000000001
40
0.875000000000001
40
0.9375
40
0.9375
40
1
40
1
40
1
40
1
41
1
10
32.3
20
-6.44544647501314
30
0
41
1
10
32.3399064430254
20
-6.47260814012213
30
0
41
1
10
32.3798128860508
20
-6.48920611403102
30
0
41
1
10
32.4296959398325
20
-6.4979104245528
30
0
41
1
10
32.4396725505888
20
-6.49904999314924
30
0
41
1
10
32.4596257721014
20
-6.50015871623512
30
0
41
1
10
32.4696023828578
20
-6.50013219756414
30
0
41
1
10
32.4995322151268
20
-6.4983065878441
30
0
41
1
10
32.5194854366395
20
-6.49474510743912
30
0
41
1
10
32.6192515442029
20
-6.46458425702386
30
0
41
1
10
32.6990644302536
20
-6.40063396949822
30
0
41
1
10
32.8586902023551
20
-6.18091173381606
30
0
41
1
10
32.9385030884058
20
-6.02499427435279
30
0
41
1
10
33.0582224174818
20
-5.7204639202312
30
0
41
1
10
33.0981288605073
20
-5.60727221312942
30
0
41
1
10
33.177941746558
20
-5.35847616611019
30
0
41
1
10
33.2178481895834
20
-5.22287283535366
30
0
41
1
10
33.2976610756341
20
-4.9310405908254
30
0
41
1
10
33.3375675186594
20
-4.77481513818981
30
0
41
1
10
33.4173804047102
20
-4.44429780147374
30
0
41
1
10
33.4572868477355
20
-4.27001151031283
30
0
41
1
10
33.5370997337862
20
-3.90656630881219
30
0
41
1
10
33.5770061768116
20
-3.71741445252565
30
0
41
1
10
33.6568190628623
20
-3.32787398534572
30
0
41
1
10
33.6967255058877
20
-3.12749300377891
30
0
41
1
10
33.8164448349637
20
-2.51527605790309
30
0
41
1
10
33.8962577210145
20
-2.09249487859498
30
0
41
1
10
34.055883493116
20
-1.24753070486335
30
0
41
1
10
34.1356963791667
20
-0.825492954105812
30
0
41
1
10
34.2354624867301
20
-0.313540153563992
30
0
41
1
10
34.2554157082428
20
-0.211909980597738
30
0
41
1
10
34.2853455405118
20
-0.0608265267854335
30
0
41
1
10
34.2953221512681
20
-0.0108440966770047
30
0
41
1
10
34.3152753727808
20
0.0894381362422507
30
0
41
1
10
34.3252519835372
20
0.139814107323161
30
0
41
1
10
34.3751350373189
20
0.392781315327937
30
0
41
1
10
34.4150414803442
20
0.598655729597368
30
0
41
1
10
34.5347608094203
20
1.22293135161235
30
0
41
1
10
34.614573695471
20
1.64819060806798
30
0
41
1
10
34.7342930245471
20
2.27993568602335
30
0
41
1
10
34.7741994675725
20
2.48943621705888
30
0
41
1
10
34.8540123536232
20
2.90250083778019
30
0
41
1
10
34.8939187966486
20
3.10605797197241
30
0
41
1
10
34.9737316826993
20
3.5033605727549
30
0
41
1
10
35.0136381257247
20
3.69709843360423
30
0
41
1
10
35.0934510117754
20
4.07101873530002
30
0
41
1
10
35.1333574548008
20
4.2511938007263
30
0
41
1
10
35.2131703408515
20
4.5946045142901
30
0
41
1
10
35.2530767838769
20
4.75783393681868
30
0
41
1
10
35.3328896699276
20
5.06453667266763
30
0
41
1
10
35.3727961129529
20
5.20800567983059
30
0
41
1
10
35.4526089990037
20
5.47309894626383
30
0
41
1
10
35.4925154420291
20
5.59472127900452
30
0
41
1
10
35.5723283280798
20
5.81485554411591
30
0
41
1
10
35.6122347711051
20
5.91336799907896
30
0
41
1
10
35.7319541001812
20
6.17360718706269
30
0
41
1
10
35.811766986232
20
6.29969950484963
30
0
41
1
10
35.9713927583334
20
6.46281556179326
30
0
41
1
10
36.0512056443841
20
6.5
30
0
41
1
10
36.1310185304349
20
6.5
30
0
0
SPLINE
5
F1
100
AcDbEntity
8
1
62
256
6
ByLayer
370
13
48
1
60
0
100
AcDbSpline
70
4
71
3
72
10
73
6
40
0
40
0
40
0
40
0
40
0.5
40
0.5
40
1
40
1
40
1
40
1
41
1
10
39.3063509937987
20
6.5
30
0
41
1
10
39.3609914077105
20
6.5
30
0
41
1
10
39.4156318216224
20
6.48263681712621
30
0
41
1
10
39.524912649446
20
6.40825688168351
30
0
41
1
10
39.5795530633578
20
6.35121465761293
30
0
41
1
10
39.6341934772697
20
6.27263758832112
30
0
0
SPLINE
5
F2
100
AcDbEntity
8
1
62
256
6
ByLayer
370
13
48
1
60
0
100
AcDbSpline
70
4
71
3
72
44
73
40
40
0
40
0
40
0
40
0
40
0.062500000000001
40
0.062500000000001
40
0.125000000000002
40
0.125000000000002
40
0.187500000000003
40
0.187500000000003
40
0.250000000000004
40
0.250000000000004
40
0.312500000000005
40
0.312500000000005
40
0.375000000000006
40
0.375000000000006
40
0.437500000000007
40
0.437500000000007
40
0.445312500000007
40
0.445312500000007
40
0.453125000000007
40
0.453125000000007
40
0.468750000000007
40
0.468750000000007
40
0.500000000000006
40
0.500000000000006
40
0.562500000000006
40
0.562500000000006
40
0.625000000000005
40
0.625000000000005
40
0.687500000000004
40
0.687500000000004
40
0.750000000000003
40
0.750000000000003
40
0.812500000000002
40
0.812500000000002
40
0.875000000000002
40
0.875000000000002
40
0.937500000000001
40
0.937500000000001
40
1
40
1
40
1
40
1
41
1
10
32.3
20
-6.25996065474928
30
0
41
1
10
32.3693867690461
20
-6.15728518093161
30
0
41
1
10
32.4387735380923
20
-6.0196378257599
30
0
41
1
10
32.5775470761845
20
-5.67320931282953
30
0
41
1
10
32.6469338452306
20
-5.46440427758819
30
0
41
1
10
32.7857073833229
20
-4.98188362513213
30
0
41
1
10
32.855094152369
20
-4.70820964449197
30
0
41
1
10
32.9938676904613
20
-4.10951383418609
30
0
41
1
10
33.0632544595074
20
-3.78459041568897
30
0
41
1
10
33.2020279975997
20
-3.10213260265803
30
0
41
1
10
33.2714147666458
20
-2.74471814387383
30
0
41
1
10
33.410188304738
20
-2.01776039425045
30
0
41
1
10
33.4795750737842
20
-1.64831721512664
30
0
41
1
10
33.6183486118765
20
-0.916075733158465
30
0
41
1
10
33.6877353809226
20
-0.553332472457356
30
0
41
1
10
33.7657954960995
20
-0.157231550902452
30
0
41
1
10
33.7744688422302
20
-0.113383716308817
30
0
41
1
10
33.7918155344917
20
-0.0260378439748195
30
0
41
1
10
33.8004888806226
20
0.0173590414000842
30
0
41
1
10
33.8265089190149
20
0.148308004507442
30
0
41
1
10
33.8438556112763
20
0.236310496180067
30
0
41
1
10
33.895895688061
20
0.502144649221577
30
0
41
1
10
33.930589072584
20
0.681812457134725
30
0
41
1
10
34.0346692261532
20
1.22553940847322
30
0
41
1
10
34.1040559951994
20
1.594441150005
30
0
41
1
10
34.2428295332916
20
2.32784473400548
30
0
41
1
10
34.3122163023377
20
2.69226207534655
30
0
41
1
10
34.45098984043
20
3.39656515820732
30
0
41
1
10
34.5203766094761
20
3.73633417167741
30
0
41
1
10
34.6591501475684
20
4.3714892138712
30
0
41
1
10
34.7285369166145
20
4.66676351360172
30
0
41
1
10
34.8673104547068
20
5.19694329661277
30
0
41
1
10
34.9366972237529
20
5.4317826235918
30
0
41
1
10
35.0754707618452
20
5.83178768774775
30
0
41
1
10
35.1448575308913
20
5.996953180064
30
0
41
1
10
35.2836310689835
20
6.25603323204021
30
0
41
1
10
35.3530178380296
20
6.35000356332364
30
0
41
1
10
35.4917913761219
20
6.47194586855363
30
0
41
1
10
35.561178145168
20
6.5
30
0
41
1
10
35.6305649142142
20
6.5
30
0
0
SPLINE
5
F3
100
AcDbEntity
8
1
62
256
6
ByLayer
370
13
48
1
60
0
100
AcDbSpline
70
4
71
3
72
14
73
10
40
0
40
0
40
0
40
0
40
0.25
40
0.25
40
0.5
40
0.5
40
0.75
40
0.75
40
1
40
1
40
1
40
1
41
1
10
38.805897377578
20
6.5
30
0
41
1
10
38.8749220525524
20
6.5
30
0
41
1
10
38.9439467275267
20
6.47223944368324
30
0
41
1
10
39.0819960774753
20
6.35161369887143
30
0
41
1
10
39.1510207524496
20
6.25866840898061
30
0
41
1
10
39.2890701023982
20
6.00240695923657
30
0
41
1
10
39.3580947773725
20
5.83903601832333
30
0
41
1
10
39.4961441273211
20
5.4432703012796
30
0
41
1
10
39.5651688022954
20
5.21087475721095
30
0
41
1
10
39.6341934772697
20
4.94841462685324
30
0
0
SPLINE
5
F4
100
AcDbEntity
8
1
62
256
6
ByLayer
370
13
48
1
60
0
100
AcDbSpline
70
4
71
3
72
8
73
4
40
0
40
0
40
0
40
0
40
1
40
1
40
1
40
1
41
1
10
39.6341934772696
20
-5.50595226091588
30
0
41
1
10
40.422795651513
20
-3.66791050945452
30
0
41
1
10
41.2113978257565
20
-1.8325879555201
30
0
41
1
10
41.9999999999999
20
-3.126E-13
30
0
0
SPLINE
5
F5
100
AcDbEntity
8
1
62
256
6
ByLayer
370
13
48
1
60
0
100
AcDbSpline
70
4
71
3
72
8
73
4
40
0
40
0
40
0
40
0
40
1
40
1
40
1
40
1
41
1
10
39.6341934772698
20
4.80663343071532
30
0
41
1
10
40.4227956515132
20
3.20097164345157
30
0
41
1
10
41.2113978257565
20
1.59875601928053
30
0
41
1
10
41.9999999999999
20
2.558E-13
30
0
0
SPLINE
5
F6
100
AcDbEntity
8
1
62
256
6
ByLayer
370
13
48
1
60
0
100
AcDbSpline
70
4
71
3
72
8
73
4
40
0
40
0
40
0
40
0
40
1
40
1
40
1
40
1
41
1
10
39.6341934772697
20
1.83413788969534
30
0
41
1
10
40.4227956515131
20
1.2276762051423
30
0
41
1
10
41.2113978257566
20
0.616295193033295
30
0
41
1
10
42
20
0
30
0
0
SPLINE
5
F7
100
AcDbEntity
8
1
62
256
6
ByLayer
370
13
48
1
60
0
100
AcDbSpline
70
4
71
3
72
8
73
4
40
0
40
0
40
0
40
0
40
1
40
1
40
1
40
1
41
1
10
39.6341934772697
20
2.9511527319147
30
0
41
1
10
40.4227956515131
20
1.97200229135817
30
0
41
1
10
41.2113978257566
20
0.988281956840581
30
0
41
1
10
42
20
2.84E-14
30
0
0
SPLINE
5
F8
100
AcDbEntity
8
1
62
256
6
ByLayer
370
13
48
1
60
0
100
AcDbSpline
70
4
71
3
72
8
73
4
40
0
40
0
40
0
40
0
40
1
40
1
40
1
40
1
41
1
10
39.6341934772697
20
4.84757776588009
30
0
41
1
10
40.4227956515131
20
3.23513334829889
30
0
41
1
10
41.2113978257566
20
1.61926956780729
30
0
41
1
10
42
20
2.84E-14
30
0
0
SPLINE
5
F9
100
AcDbEntity
8
1
62
256
6
ByLayer
370
13
48
1
60
0
100
AcDbSpline
70
4
71
3
72
8
73
4
40
0
40
0
40
0
40
0
40
1
40
1
40
1
40
1
41
1
10
39.6341934772698
20
-2.91014036594703
30
0
41
1
10
40.4227956515132
20
-1.94467705111492
30
0
41
1
10
41.2113978257565
20
-0.974627543496013
30
0
41
1
10
41.9999999999999
20
-1.705E-13
30
0
0
SPLINE
5
FA
100
AcDbEntity
8
1
62
256
6
ByLayer
370
13
48
1
60
0
100
AcDbSpline
70
4
71
3
72
8
73
4
40
0
40
0
40
0
40
0
40
1
40
1
40
1
40
1
41
1
10
39.6341934772697
20
0.654383090976097
30
0
41
1
10
40.4227956515131
20
0.441355265573662
30
0
41
1
10
41.2113978257566
20
0.223226953389769
30
0
41
1
10
42
20
0
30
0
0
SPLINE
5
FB
100
AcDbEntity
8
1
62
256
6
ByLayer
370
13
48
1
60
0
100
AcDbSpline
70
4
71
3
72
8
73
4
40
0
40
0
40
0
40
0
40
1
40
1
40
1
40
1
41
1
10
39.6341934772696
20
-4.81684692939183
30
0
41
1
10
40.4227956515131
20
-3.21467306143674
30
0
41
1
10
41.2113978257566
20
-1.60905292174962
30
0
41
1
10
42.0000000000001
20
1.99E-13
30
0
0
SPLINE
5
FC
100
AcDbEntity
8
1
62
256
6
ByLayer
370
13
48
1
60
0
100
AcDbSpline
70
4
71
3
72
8
73
4
40
0
40
0
40
0
40
0
40
1
40
1
40
1
40
1
41
1
10
39.6341934772698
20
-0.608652811182708
30
0
41
1
10
40.4227956515132
20
-0.410871932813535
30
0
41
1
10
41.2113978257565
20
-0.207987089883176
30
0
41
1
10
41.9999999999999
20
-2.84E-14
30
0
0
SPLINE
5
FD
100
AcDbEntity
8
1
62
256
6
ByLayer
370
13
48
1
60
0
100
AcDbSpline
70
4
71
3
72
8
73
4
40
0
40
0
40
0
40
0
40
1
40
1
40
1
40
1
41
1
10
39.6341934772696
20
-4.77558266165281
30
0
41
1
10
40.4227956515131
20
-3.18024442241807
30
0
41
1
10
41.2113978257566
20
-1.58837908359138
30
0
41
1
10
42.0000000000001
20
1.99E-13
30
0
0
SPLINE
5
FE
100
AcDbEntity
8
1
62
256
6
ByLayer
370
13
48
1
60
0
100
AcDbSpline
70
4
71
3
72
8
73
4
40
0
40
0
40
0
40
0
40
1
40
1
40
1
40
1
41
1
10
39.6341934772696
20
-6.04798094683699
30
0
41
1
10
40.422795651513
20
-4.03010917820041
30
0
41
1
10
41.2113978257565
20
-2.01410988921043
30
0
41
1
10
41.9999999999999
20
-3.411E-13
30
0
0
SPLINE
5
FF
100
AcDbEntity
8
1
62
256
6
ByLayer
370
13
48
1
60
0
100
AcDbSpline
70
4
71
3
72
8
73
4
40
0
40
0
40
0
40
0
40
1
40
1
40
1
40
1
41
1
10
39.6341934772697
20
-2.85534302855319
30
0
41
1
10
40.4227956515131
20
-1.89895716193016
30
0
41
1
10
41.2113978257566
20
-0.947173493130833
30
0
41
1
10
42
20
-2.84E-14
30
0
0
SPLINE
5
100
100
AcDbEntity
8
1
62
256
6
ByLayer
370
13
48
1
60
0
100
AcDbSpline
70
4
71
3
72
8
73
4
40
0
40
0
40
0
40
0
40
1
40
1
40
1
40
1
41
1
10
39.6341934772697
20
3.9672181334922
30
0
41
1
10
40.4227956515131
20
2.64887252342442
30
0
41
1
10
41.2113978257566
20
1.32646277436089
30
0
41
1
10
42.0000000000001
20
-5.68E-14
30
0
0
SPLINE
5
101
100
AcDbEntity
8
1
62
256
6
ByLayer
370
13
48
1
60
0
100
AcDbSpline
70
4
71
3
72
8
73
4
40
0
40
0
40
0
40
0
40
1
40
1
40
1
40
1
41
1
10
39.6341934772697
20
6.40247627632479
30
0
41
1
10
40.4227956515131
20
4.26920212306436
30
0
41
1
10
41.2113978257566
20
2.1350373909805
30
0
41
1
10
42
20
0
30
0
0
SPLINE
5
102
100
AcDbEntity
8
1
62
256
6
ByLayer
370
13
48
1
60
0
100
AcDbSpline
70
4
71
3
72
8
73
4
40
0
40
0
40
0
40
0
40
1
40
1
40
1
40
1
41
1
10
39.6341934772696
20
-3.93072233025634
30
0
41
1
10
40.4227956515132
20
-2.6245640017099
30
0
41
1
10
41.2113978257567
20
-1.3143195544157
30
0
41
1
10
42.0000000000003
20
5.4E-13
30
0
0
SPLINE
5
103
100
AcDbEntity
8
1
62
256
6
ByLayer
370
13
48
1
60
0
100
AcDbSpline
70
4
71
3
72
8
73
4
40
0
40
0
40
0
40
0
40
1
40
1
40
1
40
1
41
1
10
39.6341934772698
20
3.91861249767356
30
0
41
1
10
40.4227956515133
20
2.60831865002333
30
0
41
1
10
41.2113978257568
20
1.30211083250987
30
0
41
1
10
42.0000000000003
20
-5.4E-13
30
0
0
SPLINE
5
104
100
AcDbEntity
8
1
62
256
6
ByLayer
370
13
48
1
60
0
100
AcDbSpline
70
4
71
3
72
8
73
4
40
0
40
0
40
0
40
0
40
1
40
1
40
1
40
1
41
1
10
39.6341934772698
20
6.06466482061455
30
0
41
1
10
40.4227956515132
20
4.04126552206131
30
0
41
1
10
41.2113978257565
20
2.01970492621726
30
0
41
1
10
41.9999999999999
20
3.411E-13
30
0
0
SPLINE
5
105
100
AcDbEntity
8
1
62
256
6
ByLayer
370
13
48
1
60
0
100
AcDbSpline
70
4
71
3
72
8
73
4
40
0
40
0
40
0
40
0
40
1
40
1
40
1
40
1
41
1
10
39.6341934772697
20
5.56211735830817
30
0
41
1
10
40.4227956515131
20
3.71073066925473
30
0
41
1
10
41.2113978257566
20
1.85668635878076
30
0
41
1
10
42
20
2.84E-14
30
0
0
SPLINE
5
106
100
AcDbEntity
8
1
62
256
6
ByLayer
370
13
48
1
60
0
100
AcDbSpline
70
4
71
3
72
8
73
4
40
0
40
0
40
0
40
0
40
1
40
1
40
1
40
1
41
1
10
39.6341934772696
20
-3.8818557433261
30
0
41
1
10
40.4227956515131
20
-2.58379240503138
30
0
41
1
10
41.2113978257566
20
-1.28983687327565
30
0
41
1
10
42.0000000000001
20
1.705E-13
30
0
0
SPLINE
5
107
100
AcDbEntity
8
1
62
256
6
ByLayer
370
13
48
1
60
0
100
AcDbSpline
70
4
71
3
72
8
73
4
40
0
40
0
40
0
40
0
40
1
40
1
40
1
40
1
41
1
10
39.6341934772698
20
2.89654843787173
30
0
41
1
10
40.4227956515132
20
1.9264434669447
30
0
41
1
10
41.2113978257565
20
0.960924623252936
30
0
41
1
10
41.9999999999999
20
1.705E-13
30
0
0
SPLINE
5
108
100
AcDbEntity
8
1
62
256
6
ByLayer
370
13
48
1
60
0
100
AcDbSpline
70
4
71
3
72
8
73
4
40
0
40
0
40
0
40
0
40
1
40
1
40
1
40
1
41
1
10
39.6341934772697
20
6.08639481010445
30
0
41
1
10
40.4227956515131
20
4.05939583201254
30
0
41
1
10
41.2113978257566
20
2.03059188266886
30
0
41
1
10
42
20
-2.84E-14
30
0
0
SPLINE
5
109
100
AcDbEntity
8
1
62
256
6
ByLayer
370
13
48
1
60
0
100
AcDbSpline
70
4
71
3
72
8
73
4
40
0
40
0
40
0
40
0
40
1
40
1
40
1
40
1
41
1
10
39.6341934772696
20
-5.5382026916179
30
0
41
1
10
40.4227956515132
20
-3.69481849783429
30
0
41
1
10
41.2113978257567
20
-1.84874576520318
30
0
41
1
10
42.0000000000003
20
7.674E-13
30
0
0
SPLINE
5
10A
100
AcDbEntity
8
1
62
256
6
ByLayer
370
13
48
1
60
0
100
AcDbSpline
70
4
71
3
72
8
73
4
40
0
40
0
40
0
40
0
40
1
40
1
40
1
40
1
41
1
10
39.6341934772696
20
-6.07011435702233
30
0
41
1
10
40.4227956515131
20
-4.0485760802265
30
0
41
1
10
41.2113978257566
20
-2.02519896373224
30
0
41
1
10
42.0000000000001
20
2.558E-13
30
0
0
SPLINE
5
10B
100
AcDbEntity
8
1
62
256
6
ByLayer
370
13
48
1
60
0
100
AcDbSpline
70
4
71
3
72
8
73
4
40
0
40
0
40
0
40
0
40
1
40
1
40
1
40
1
41
1
10
39.6341934772696
20
-6.39438693877415
30
0
41
1
10
40.4227956515131
20
-4.26384489981237
30
0
41
1
10
41.2113978257566
20
-2.13237662109142
30
0
41
1
10
42.0000000000001
20
2.558E-13
30
0
0
SPLINE
5
10C
100
AcDbEntity
8
1
62
256
6
ByLayer
370
13
48
1
60
0
100
AcDbSpline
70
4
71
3
72
8
73
4
40
0
40
0
40
0
40
0
40
1
40
1
40
1
40
1
41
1
10
39.6341934772697
20
-0.547756048033335
30
0
41
1
10
40.4227956515132
20
-0.360063017721785
30
0
41
1
10
41.2113978257566
20
-0.177477162173403
30
0
41
1
10
42.0000000000001
20
2.84E-14
30
0
0
SPLINE
5
10D
100
AcDbEntity
8
1
62
256
6
ByLayer
370
13
48
1
60
0
100
AcDbSpline
70
4
71
3
72
8
73
4
40
0
40
0
40
0
40
0
40
1
40
1
40
1
40
1
41
1
10
39.6341934772697
20
-1.7311582148559
30
0
41
1
10
40.4227956515132
20
-1.14916470355962
30
0
41
1
10
41.2113978257566
20
-0.57211035499023
30
0
41
1
10
42.0000000000001
20
5.68E-14
30
0
0
SPLINE
5
10E
100
AcDbEntity
8
1
62
256
6
ByLayer
370
13
48
1
60
0
100
AcDbSpline
70
4
71
3
72
8
73
4
40
0
40
0
40
0
40
0
40
1
40
1
40
1
40
1
41
1
10
39.6341934772698
20
1.7754027746567
30
0
41
1
10
40.4227956515132
20
1.17867085052964
30
0
41
1
10
41.2113978257565
20
0.58686827407783
30
0
41
1
10
41.9999999999999
20
8.53E-14
30
0
0
SPLINE
5
10F
100
AcDbEntity
8
1
62
256
6
ByLayer
370
13
48
1
60
0
100
AcDbSpline
70
4
71
3
72
8
73
4
40
0
40
0
40
0
40
0
40
1
40
1
40
1
40
1
41
1
10
39.6341934772698
20
5.53023489777894
30
0
41
1
10
40.4227956515132
20
3.68412969498021
30
0
41
1
10
41.2113978257565
20
1.84071290607764
30
0
41
1
10
41.9999999999999
20
3.126E-13
30
0
0
SPLINE
5
110
100
AcDbEntity
8
1
62
256
6
ByLayer
370
13
48
1
60
0
100
AcDbSpline
70
4
71
3
72
8
73
4
40
0
40
0
40
0
40
0
40
1
40
1
40
1
40
1
41
1
10
39.6341934772698
20
0.593526294267292
30
0
41
1
10
40.4227956515132
20
0.390579696285215
30
0
41
1
10
41.2113978257565
20
0.192737049292958
30
0
41
1
10
41.9999999999999
20
2.84E-14
30
0
0
SPLINE
5
111
100
AcDbEntity
8
1
62
256
6
ByLayer
370
13
48
1
60
0
100
AcDbSpline
70
4
71
3
72
8
73
4
40
0
40
0
40
0
40
0
40
1
40
1
40
1
40
1
41
1
10
39.6341934772696
20
-6.4999281150869
30
0
41
1
10
40.422795651513
20
-4.33326130282745
30
0
41
1
10
41.2113978257565
20
-2.16661253443041
30
0
41
1
10
41.9999999999999
20
-3.695E-13
30
0
0
SPLINE
5
112
100
AcDbEntity
8
1
62
256
6
ByLayer
370
13
48
1
60
0
100
AcDbSpline
70
4
71
3
72
8
73
4
40
0
40
0
40
0
40
0
40
1
40
1
40
1
40
1
41
1
10
39.6341934772696
20
-6.38312766186129
30
0
41
1
10
40.4227956515131
20
-4.25445077744735
30
0
41
1
10
41.2113978257566
20
-2.12673560329492
30
0
41
1
10
42.0000000000001
20
2.558E-13
30
0
0
SPLINE
5
113
100
AcDbEntity
8
1
62
256
6
ByLayer
370
13
48
1
60
0
100
AcDbSpline
70
4
71
3
72
8
73
4
40
0
40
0
40
0
40
0
40
1
40
1
40
1
40
1
41
1
10
39.6341934772698
20
-1.79001186209282
30
0
41
1
10
40.4227956515132
20
-1.1982689549296
30
0
41
1
10
41.2113978257565
20
-0.601596659841221
30
0
41
1
10
41.9999999999999
20
-1.137E-13
30
0
0
SPLINE
5
114
100
AcDbEntity
8
1
62
256
6
ByLayer
370
13
48
1
60
0
100
AcDbSpline
70
4
71
3
72
8
73
4
40
0
40
0
40
0
40
0
40
1
40
1
40
1
40
1
41
1
10
39.6341934772698
20
6.39164207090607
30
0
41
1
10
40.4227956515132
20
4.26016265701185
30
0
41
1
10
41.2113978257565
20
2.1296093385356
30
0
41
1
10
41.9999999999999
20
3.411E-13
30
0
0
LINE
5
7D
100
AcDbEntity
8
81
62
256
6
ByLayer
370
18
48
1
60
0
100
AcDbLine
10
42
20
0
30
0
11
47
21
0
31
0
39
0
210
0
220
0
230
1
0
LINE
5
7E
100
AcDbEntity
8
4
62
256
6
ByLayer
370
18
48
0.05
60
0
100
AcDbLine
10
-5
20
0
30
0
11
47
21
0
31
0
39
0
210
0
220
0
230
1
0
LINE
5
80
100
AcDbEntity
8
80
62
256
6
ByLayer
370
18
48
1
60
0
100
AcDbLine
10
0
20
0
30
0
11
-5
21
0
31
0
39
0
210
0
220
0
230
1
0
LINE
5
81
100
AcDbEntity
8
SK4
62
256
6
ByLayer
370
18
48
0.05
60
0
100
AcDbLine
10
-53
20
0
30
0
11
47
21
0
31
0
39
0
210
0
220
0
230
1
0
LINE
5
83
100
AcDbEntity
8
1
62
256
6
ByLayer
370
18
48
1
60
0
100
AcDbLine
10
42
20
0
30
0
11
39.634193
21
6.5
31
0
39
0
210
0
220
0
230
1
0
LINE
5
84
100
AcDbEntity
8
1
62
256
6
ByLayer
370
18
48
1
60
0
100
AcDbLine
10
39.634193
20
-6.5
30
0
11
42
21
0
31
0
39
0
210
0
220
0
230
1
0
LINE
5
85
100
AcDbEntity
8
1
62
256
6
ByLayer
370
18
48
1
60
0
100
AcDbLine
10
10.377223
20
7.786833
30
0
11
3
21
10
31
0
39
0
210
0
220
0
230
1
0
LINE
5
86
100
AcDbEntity
8
1
62
256
6
ByLayer
370
18
48
1
60
0
100
AcDbLine
10
3
20
-10
30
0
11
10.377223
21
-7.786833
31
0
39
0
210
0
220
0
230
1
0
LINE
5
87
100
AcDbEntity
8
1
62
256
6
ByLayer
370
18
48
1
60
0
100
AcDbLine
10
0
20
-10
30
0
11
3
21
-10
31
0
39
0
210
0
220
0
230
1
0
LINE
5
88
100
AcDbEntity
8
1
62
256
6
ByLayer
370
18
48
1
60
0
100
AcDbLine
10
3
20
10
30
0
11
0
21
10
31
0
39
0
210
0
220
0
230
1
0
LINE
5
89
100
AcDbEntity
8
1
62
256
6
ByLayer
370
18
48
1
60
0
100
AcDbLine
10
32.3
20
-6.5
30
0
11
39.634193
21
-6.5
31
0
39
0
210
0
220
0
230
1
0
LINE
5
8A
100
AcDbEntity
8
1
62
256
6
ByLayer
370
18
48
1
60
0
100
AcDbLine
10
42
20
0
30
0
11
39.634193
21
6.5
31
0
39
0
210
0
220
0
230
1
0
LINE
5
8B
100
AcDbEntity
8
1
62
256
6
ByLayer
370
18
48
1
60
0
100
AcDbLine
10
39.634193
20
-6.5
30
0
11
42
21
0
31
0
39
0
210
0
220
0
230
1
0
LINE
5
8C
100
AcDbEntity
8
SK1
62
256
6
ByLayer
370
18
48
1
60
0
100
AcDbLine
10
-47
20
-8
30
0
11
0
21
-8
31
0
39
0
210
0
220
0
230
1
0
LINE
5
8E
100
AcDbEntity
8
SK1
62
256
6
ByLayer
370
18
48
1
60
0
100
AcDbLine
10
0
20
8
30
0
11
-47
21
8
31
0
39
0
210
0
220
0
230
1
0
LINE
5
8F
100
AcDbEntity
8
SK1
62
256
6
ByLayer
370
18
48
1
60
0
100
AcDbLine
10
-48
20
-7
30
0
11
-47
21
-8
31
0
39
0
210
0
220
0
230
1
0
LINE
5
90
100
AcDbEntity
8
SK1
62
256
6
ByLayer
370
18
48
1
60
0
100
AcDbLine
10
-47
20
8
30
0
11
-48
21
7
31
0
39
0
210
0
220
0
230
1
0
LINE
5
91
100
AcDbEntity
8
1
62
256
6
ByLayer
370
18
48
1
60
0
100
AcDbLine
10
39.634193
20
6.5
30
0
11
39.634193
21
6.293601
31
0
39
0
210
0
220
0
230
1
0
LINE
5
92
100
AcDbEntity
8
1
62
256
6
ByLayer
370
18
48
1
60
0
100
AcDbLine
10
39.634193
20
-6.5
30
0
11
39.634193
21
-0.92865
31
0
39
0
210
0
220
0
230
1
0
LINE
5
93
100
AcDbEntity
8
1
62
256
6
ByLayer
370
18
48
1
60
0
100
AcDbLine
10
15
20
-3.163768
30
0
11
15
21
6.049866
31
0
39
0
210
0
220
0
230
1
0
LINE
5
94
100
AcDbEntity
8
1
62
256
6
ByLayer
370
18
48
1
60
0
100
AcDbLine
10
0
20
-10
30
0
11
0
21
10
31
0
39
0
210
0
220
0
230
1
0
LINE
5
95
100
AcDbEntity
8
1
62
256
6
ByLayer
370
18
48
1
60
0
100
AcDbLine
10
3
20
-10
30
0
11
3
21
10
31
0
39
0
210
0
220
0
230
1
0
LINE
5
96
100
AcDbEntity
8
SK1
62
256
6
ByLayer
370
13
48
1
60
0
100
AcDbLine
10
-14.956081
20
-5.420003
30
0
11
-14.956081
21
5.420003
31
0
39
0
210
0
220
0
230
1
0
LINE
5
97
100
AcDbEntity
8
SK1
62
256
6
ByLayer
370
13
48
1
60
0
100
AcDbLine
10
-40.20852
20
4.268613
30
0
11
-40.20852
21
-4.268613
31
0
39
0
210
0
220
0
230
1
0
LINE
5
98
100
AcDbEntity
8
SK1
62
256
6
ByLayer
370
13
48
1
60
0
100
AcDbLine
10
-13.809044
20
4.913811
30
0
11
-13.809044
21
-4.913811
31
0
39
0
210
0
220
0
230
1
0
LINE
5
99
100
AcDbEntity
8
SK1
62
256
6
ByLayer
370
18
48
1
60
0
100
AcDbLine
10
-48
20
-7
30
0
11
-48
21
7
31
0
39
0
210
0
220
0
230
1
0
LINE
5
9A
100
AcDbEntity
8
SK1
62
256
6
ByLayer
370
18
48
1
60
0
100
AcDbLine
10
-47
20
-8
30
0
11
-47
21
8
31
0
39
0
210
0
220
0
230
1
0
LINE
5
9B
100
AcDbEntity
8
SK1
62
256
6
ByLayer
370
13
48
1
60
0
100
AcDbLine
10
-41.322847
20
-3.330349
30
0
11
-41.322847
21
3.330349
31
0
39
0
210
0
220
0
230
1
0
LINE
5
9C
100
AcDbEntity
8
1
62
256
6
ByLayer
370
18
48
1
60
0
100
AcDbLine
10
39.634193
20
6.5
30
0
11
39.634193
21
-6.5
31
0
39
0
210
0
220
0
230
1
0
LINE
5
9D
100
AcDbEntity
8
1
62
256
6
ByLayer
370
18
48
1
60
0
100
AcDbLine
10
39.634193
20
6.5
30
0
11
39.634193
21
-6.5
31
0
39
0
210
0
220
0
230
1
0
LINE
5
9E
100
AcDbEntity
8
1
62
256
6
ByLayer
370
18
48
1
60
0
100
AcDbLine
10
39.634193
20
6.5
30
0
11
39.634193
21
-6.5
31
0
39
0
210
0
220
0
230
1
0
LINE
5
9F
100
AcDbEntity
8
1
62
256
6
ByLayer
370
18
48
1
60
0
100
AcDbLine
10
32.3
20
6.5
30
0
11
32.3
21
-6.5
31
0
39
0
210
0
220
0
230
1
0
LINE
5
A0
100
AcDbEntity
8
1
62
256
6
ByLayer
370
18
48
1
60
0
100
AcDbLine
10
32.3
20
6.5
30
0
11
32.3
21
-6.5
31
0
39
0
210
0
220
0
230
1
0
LINE
5
A1
100
AcDbEntity
8
1
62
256
6
ByLayer
370
18
48
1
60
0
100
AcDbLine
10
39.634193
20
6.5
30
0
11
39.634193
21
-6.5
31
0
39
0
210
0
220
0
230
1
0
LINE
5
A2
100
AcDbEntity
8
1
62
256
6
ByLayer
370
18
48
1
60
0
100
AcDbLine
10
32.3
20
6.5
30
0
11
32.3
21
-6.5
31
0
39
0
210
0
220
0
230
1
0
LINE
5
A3
100
AcDbEntity
8
1
62
256
6
ByLayer
370
18
48
1
60
0
100
AcDbLine
10
39.634193
20
6.5
30
0
11
39.634193
21
-6.5
31
0
39
0
210
0
220
0
230
1
0
LINE
5
A4
100
AcDbEntity
8
SK2
62
256
6
ByLayer
370
13
48
1
60
0
100
AcDbLine
10
-54.5
20
-8
30
0
11
-54.5
21
36.274683
31
0
39
0
210
0
220
0
230
1
0
LINE
5
A6
100
AcDbEntity
8
SK2
62
256
6
ByLayer
370
13
48
1
60
0
100
AcDbLine
10
-49.5875
20
8
30
0
11
-56.5
21
8
31
0
39
0
210
0
220
0
230
1
0
LINE
5
A7
100
AcDbEntity
8
SK2
62
256
6
ByLayer
370
13
48
1
60
0
100
AcDbLine
10
-49.5875
20
-8
30
0
11
-56.5
21
-8
31
0
39
0
210
0
220
0
230
1
0
LINE
5
A8
100
AcDbEntity
8
1
62
256
6
ByLayer
370
18
48
1
60
1
100
AcDbLine
10
-54.5
20
8
30
0
11
-54.039216
21
4.500002
31
0
39
0
210
0
220
0
230
1
0
LINE
5
A9
100
AcDbEntity
8
1
62
256
6
ByLayer
370
18
48
1
60
1
100
AcDbLine
10
-54.039216
20
4.500002
30
0
11
-54.960784
21
4.499998
31
0
39
0
210
0
220
0
230
1
0
LINE
5
AA
100
AcDbEntity
8
1
62
256
6
ByLayer
370
18
48
1
60
1
100
AcDbLine
10
-54.960784
20
4.499998
30
0
11
-54.5
21
8
31
0
39
0
210
0
220
0
230
1
0
LINE
5
AB
100
AcDbEntity
8
1
62
256
6
ByLayer
370
18
48
1
60
1
100
AcDbLine
10
-54.5
20
-8
30
0
11
-54.960784
21
-4.500002
31
0
39
0
210
0
220
0
230
1
0
LINE
5
AC
100
AcDbEntity
8
1
62
256
6
ByLayer
370
18
48
1
60
1
100
AcDbLine
10
-54.960784
20
-4.500002
30
0
11
-54.039216
21
-4.499998
31
0
39
0
210
0
220
0
230
1
0
LINE
5
AD
100
AcDbEntity
8
1
62
256
6
ByLayer
370
18
48
1
60
1
100
AcDbLine
10
-54.039216
20
-4.499998
30
0
11
-54.5
21
-8
31
0
39
0
210
0
220
0
230
1
0
LINE
5
AE
100
AcDbEntity
8
2
62
256
6
ByLayer
370
13
48
1
60
0
100
AcDbLine
10
49.5
20
-6.5
30
0
11
49.5
21
34.774683
31
0
39
0
210
0
220
0
230
1
0
LINE
5
B0
100
AcDbEntity
8
2
62
256
6
ByLayer
370
13
48
1
60
0
100
AcDbLine
10
41.221693
20
6.5
30
0
11
51.5
21
6.5
31
0
39
0
210
0
220
0
230
1
0
LINE
5
B1
100
AcDbEntity
8
2
62
256
6
ByLayer
370
13
48
1
60
0
100
AcDbLine
10
41.221693
20
-6.5
30
0
11
51.5
21
-6.5
31
0
39
0
210
0
220
0
230
1
0
LINE
5
B2
100
AcDbEntity
8
1
62
256
6
ByLayer
370
18
48
1
60
1
100
AcDbLine
10
49.5
20
6.5
30
0
11
49.960784
21
3.000002
31
0
39
0
210
0
220
0
230
1
0
LINE
5
B3
100
AcDbEntity
8
1
62
256
6
ByLayer
370
18
48
1
60
1
100
AcDbLine
10
49.960784
20
3.000002
30
0
11
49.039216
21
2.999998
31
0
39
0
210
0
220
0
230
1
0
LINE
5
B4
100
AcDbEntity
8
1
62
256
6
ByLayer
370
18
48
1
60
1
100
AcDbLine
10
49.039216
20
2.999998
30
0
11
49.5
21
6.5
31
0
39
0
210
0
220
0
230
1
0
LINE
5
B5
100
AcDbEntity
8
1
62
256
6
ByLayer
370
18
48
1
60
1
100
AcDbLine
10
49.5
20
-6.5
30
0
11
49.039216
21
-3.000002
31
0
39
0
210
0
220
0
230
1
0
LINE
5
B6
100
AcDbEntity
8
1
62
256
6
ByLayer
370
18
48
1
60
1
100
AcDbLine
10
49.039216
20
-3.000002
30
0
11
49.960784
21
-2.999998
31
0
39
0
210
0
220
0
230
1
0
LINE
5
B7
100
AcDbEntity
8
1
62
256
6
ByLayer
370
18
48
1
60
1
100
AcDbLine
10
49.960784
20
-2.999998
30
0
11
49.5
21
-6.5
31
0
39
0
210
0
220
0
230
1
0
LINE
5
B8
100
AcDbEntity
8
SK2
62
256
6
ByLayer
370
13
48
1
60
0
100
AcDbLine
10
42.542957
20
-1.491762
30
0
11
49.182423
21
-19.733545
31
0
39
0
210
0
220
0
230
1
0
LINE
5
B9
100
AcDbEntity
8
SK2
62
256
6
ByLayer
370
13
48
1
60
0
100
AcDbLine
10
42.542957
20
1.491762
30
0
11
49.182423
21
19.733545
31
0
39
0
210
0
220
0
230
1
0
LINE
5
BA
100
AcDbEntity
8
1
62
256
6
ByLayer
370
18
48
1
60
1
100
AcDbLine
10
48.498383
20
-17.85416
30
0
11
51.551575
21
-16.082064
31
0
39
0
210
0
220
0
230
1
0
LINE
5
BB
100
AcDbEntity
8
1
62
256
6
ByLayer
370
18
48
1
60
1
100
AcDbLine
10
51.551575
20
-16.082064
30
0
11
51.906196
21
-16.93267
31
0
39
0
210
0
220
0
230
1
0
LINE
5
BC
100
AcDbEntity
8
1
62
256
6
ByLayer
370
18
48
1
60
1
100
AcDbLine
10
51.906196
20
-16.93267
30
0
11
48.498383
21
-17.85416
31
0
39
0
210
0
220
0
230
1
0
LINE
5
BD
100
AcDbEntity
8
1
62
256
6
ByLayer
370
18
48
1
60
1
100
AcDbLine
10
48.498383
20
17.85416
30
0
11
51.906193
21
16.932671
31
0
39
0
210
0
220
0
230
1
0
LINE
5
BE
100
AcDbEntity
8
1
62
256
6
ByLayer
370
18
48
1
60
1
100
AcDbLine
10
51.906193
20
16.932671
30
0
11
51.551579
21
16.082063
31
0
39
0
210
0
220
0
230
1
0
LINE
5
BF
100
AcDbEntity
8
1
62
256
6
ByLayer
370
18
48
1
60
1
100
AcDbLine
10
51.551579
20
16.082063
30
0
11
48.498383
21
17.85416
31
0
39
0
210
0
220
0
230
1
0
LINE
5
119
100
AcDbEntity
8
1
62
256
6
ByLayer
370
18
48
1
60
1
100
AcDbLine
10
-54.5
20
8
30
0
11
-54.039216
21
4.500002
31
0
39
0
210
0
220
0
230
1
0
LINE
5
11A
100
AcDbEntity
8
1
62
256
6
ByLayer
370
18
48
1
60
1
100
AcDbLine
10
-54.039216
20
4.500002
30
0
11
-54.960784
21
4.499998
31
0
39
0
210
0
220
0
230
1
0
LINE
5
11B
100
AcDbEntity
8
1
62
256
6
ByLayer
370
18
48
1
60
1
100
AcDbLine
10
-54.960784
20
4.499998
30
0
11
-54.5
21
8
31
0
39
0
210
0
220
0
230
1
0
LINE
5
11D
100
AcDbEntity
8
1
62
256
6
ByLayer
370
18
48
1
60
1
100
AcDbLine
10
-54.5
20
-8
30
0
11
-54.960784
21
-4.500002
31
0
39
0
210
0
220
0
230
1
0
LINE
5
11E
100
AcDbEntity
8
1
62
256
6
ByLayer
370
18
48
1
60
1
100
AcDbLine
10
-54.960784
20
-4.500002
30
0
11
-54.039216
21
-4.499998
31
0
39
0
210
0
220
0
230
1
0
LINE
5
11F
100
AcDbEntity
8
1
62
256
6
ByLayer
370
18
48
1
60
1
100
AcDbLine
10
-54.039216
20
-4.499998
30
0
11
-54.5
21
-8
31
0
39
0
210
0
220
0
230
1
0
LINE
5
123
100
AcDbEntity
8
1
62
256
6
ByLayer
370
18
48
1
60
1
100
AcDbLine
10
49.5
20
6.5
30
0
11
49.960784
21
3.000002
31
0
39
0
210
0
220
0
230
1
0
LINE
5
124
100
AcDbEntity
8
1
62
256
6
ByLayer
370
18
48
1
60
1
100
AcDbLine
10
49.960784
20
3.000002
30
0
11
49.039216
21
2.999998
31
0
39
0
210
0
220
0
230
1
0
LINE
5
125
100
AcDbEntity
8
1
62
256
6
ByLayer
370
18
48
1
60
1
100
AcDbLine
10
49.039216
20
2.999998
30
0
11
49.5
21
6.5
31
0
39
0
210
0
220
0
230
1
0
LINE
5
127
100
AcDbEntity
8
1
62
256
6
ByLayer
370
18
48
1
60
1
100
AcDbLine
10
49.5
20
-6.5
30
0
11
49.039216
21
-3.000002
31
0
39
0
210
0
220
0
230
1
0
LINE
5
128
100
AcDbEntity
8
1
62
256
6
ByLayer
370
18
48
1
60
1
100
AcDbLine
10
49.039216
20
-3.000002
30
0
11
49.960784
21
-2.999998
31
0
39
0
210
0
220
0
230
1
0
LINE
5
129
100
AcDbEntity
8
1
62
256
6
ByLayer
370
18
48
1
60
1
100
AcDbLine
10
49.960784
20
-2.999998
30
0
11
49.5
21
-6.5
31
0
39
0
210
0
220
0
230
1
0
LINE
5
12C
100
AcDbEntity
8
1
62
256
6
ByLayer
370
18
48
1
60
1
100
AcDbLine
10
48.498383
20
-17.85416
30
0
11
51.551575
21
-16.082064
31
0
39
0
210
0
220
0
230
1
0
LINE
5
12D
100
AcDbEntity
8
1
62
256
6
ByLayer
370
18
48
1
60
1
100
AcDbLine
10
51.551575
20
-16.082064
30
0
11
51.906196
21
-16.93267
31
0
39
0
210
0
220
0
230
1
0
LINE
5
12E
100
AcDbEntity
8
1
62
256
6
ByLayer
370
18
48
1
60
1
100
AcDbLine
10
51.906196
20
-16.93267
30
0
11
48.498383
21
-17.85416
31
0
39
0
210
0
220
0
230
1
0
LINE
5
130
100
AcDbEntity
8
1
62
256
6
ByLayer
370
18
48
1
60
1
100
AcDbLine
10
48.498383
20
17.85416
30
0
11
51.906193
21
16.932671
31
0
39
0
210
0
220
0
230
1
0
LINE
5
131
100
AcDbEntity
8
1
62
256
6
ByLayer
370
18
48
1
60
1
100
AcDbLine
10
51.906193
20
16.932671
30
0
11
51.551579
21
16.082063
31
0
39
0
210
0
220
0
230
1
0
LINE
5
132
100
AcDbEntity
8
1
62
256
6
ByLayer
370
18
48
1
60
1
100
AcDbLine
10
51.551579
20
16.082063
30
0
11
48.498383
21
17.85416
31
0
39
0
210
0
220
0
230
1
0
MTEXT
5
115
100
AcDbEntity
8
SK2
62
256
6
ByLayer
370
18
48
1
60
0
100
AcDbMText
10
-55.841114
20
19.658438
30
0
210
0
220
0
230
1
1
%%c
40
3
41
0
44
1.084337
50
90
71
7
72
5
7
iso_b_vert
0
MTEXT
5
118
100
AcDbEntity
8
SK2
62
256
6
ByLayer
370
18
48
1
60
0
100
AcDbMText
10
-55.841114
20
25.635
30
0
210
0
220
0
230
1
1
\W0.7022;16.000
40
3
41
0
44
1.084337
50
90
71
7
72
5
7
iso_b_vert
0
MTEXT
5
121
100
AcDbEntity
8
2
62
256
6
ByLayer
370
18
48
1
60
0
100
AcDbMText
10
48.158886
20
18.158438
30
0
210
0
220
0
230
1
1
%%c
40
3
41
0
44
1.084337
50
90
71
7
72
5
7
iso_b_vert
0
MTEXT
5
122
100
AcDbEntity
8
2
62
256
6
ByLayer
370
18
48
1
60
0
100
AcDbMText
10
48.158886
20
24.135
30
0
210
0
220
0
230
1
1
\W0.7022;13.000
40
3
41
0
44
1.084337
50
90
71
7
72
5
7
iso_b_vert
0
MTEXT
5
12B
100
AcDbEntity
8
SK2
62
256
6
ByLayer
370
18
48
1
60
0
100
AcDbMText
10
61.909114
20
3.734657
30
0
210
0
220
0
230
1
1
\W0.7071;140%%d
40
3
41
0
44
1.084337
50
270
71
7
72
5
7
iso_b_vert
0
MTEXT
5
134
100
AcDbEntity
8
SK6
62
256
6
ByLayer
370
18
48
1
60
0
100
AcDbMText
10
-26.162312
20
-67.114886
30
0
210
0
220
0
230
1
1
\W0.7197;H85113.0
40
3
41
0
44
1.084337
50
0
71
7
72
5
7
iso_b_vert
0
HATCH
5
11C
100
AcDbEntity
8
SK2
62
256
6
ByLayer
370
13
48
1
60
0
100
AcDbHatch
10
0
20
0
30
0
210
0
220
0
230
1
2
ANSI31
70
0
71
0
91
1
92
5
93
3
72
1
10
-54.5
20
8
11
-54.0392162584472
21
4.50000169255318
72
1
10
-54.0392162584472
20
4.50000169255318
11
-54.9607837415528
21
4.49999830744682
72
1
10
-54.9607837415528
20
4.49999830744682
11
-54.5
21
8
97
0
75
0
76
1
52
0
41
0.0062
77
0
78
1
53
45
43
0
44
0
45
-0.0139193969876572
46
0.0139193969876572
79
0
47
0
98
1
10
0
20
0
0
HATCH
5
120
100
AcDbEntity
8
SK2
62
256
6
ByLayer
370
13
48
1
60
0
100
AcDbHatch
10
0
20
0
30
0
210
0
220
0
230
1
2
ANSI31
70
0
71
0
91
1
92
5
93
3
72
1
10
-54.5
20
-8
11
-54.9607837415528
21
-4.50000169255318
72
1
10
-54.9607837415528
20
-4.50000169255318
11
-54.0392162584472
21
-4.49999830744682
72
1
10
-54.0392162584472
20
-4.49999830744682
11
-54.5
21
-8
97
0
75
0
76
1
52
0
41
0.0062
77
0
78
1
53
45
43
0
44
0
45
-0.0139193969876572
46
0.0139193969876572
79
0
47
0
98
1
10
0
20
0
0
HATCH
5
126
100
AcDbEntity
8
2
62
256
6
ByLayer
370
13
48
1
60
0
100
AcDbHatch
10
0
20
0
30
0
210
0
220
0
230
1
2
ANSI31
70
0
71
0
91
1
92
5
93
3
72
1
10
49.5
20
6.5
11
49.9607837415528
21
3.00000169255318
72
1
10
49.9607837415528
20
3.00000169255318
11
49.0392162584472
21
2.99999830744682
72
1
10
49.0392162584472
20
2.99999830744682
11
49.5
21
6.5
97
0
75
0
76
1
52
0
41
0.0062
77
0
78
1
53
45
43
0
44
0
45
-0.0139193969876572
46
0.0139193969876572
79
0
47
0
98
1
10
0
20
0
0
HATCH
5
12A
100
AcDbEntity
8
2
62
256
6
ByLayer
370
13
48
1
60
0
100
AcDbHatch
10
0
20
0
30
0
210
0
220
0
230
1
2
ANSI31
70
0
71
0
91
1
92
5
93
3
72
1
10
49.5
20
-6.5
11
49.0392162584472
21
-3.00000169255318
72
1
10
49.0392162584472
20
-3.00000169255318
11
49.9607837415528
21
-2.99999830744682
72
1
10
49.9607837415528
20
-2.99999830744682
11
49.5
21
-6.5
97
0
75
0
76
1
52
0
41
0.0062
77
0
78
1
53
45
43
0
44
0
45
-0.0139193969876572
46
0.0139193969876572
79
0
47
0
98
1
10
0
20
0
0
HATCH
5
12F
100
AcDbEntity
8
SK2
62
256
6
ByLayer
370
13
48
1
60
0
100
AcDbHatch
10
0
20
0
30
0
210
0
220
0
230
1
2
ANSI31
70
0
71
0
91
1
92
5
93
3
72
1
10
48.4983827231877
20
-17.8541597949322
11
51.5515754256929
21
-16.0820638240608
72
1
10
51.5515754256929
20
-16.0820638240608
11
51.9061958339751
21
-16.9326700737196
72
1
10
51.9061958339751
20
-16.9326700737196
11
48.4983827231877
21
-17.8541597949322
97
0
75
0
76
1
52
0
41
0.0062
77
0
78
1
53
45
43
0
44
0
45
-0.0139193969876572
46
0.0139193969876572
79
0
47
0
98
1
10
0
20
0
0
HATCH
5
133
100
AcDbEntity
8
SK2
62
256
6
ByLayer
370
13
48
1
60
0
100
AcDbHatch
10
0
20
0
30
0
210
0
220
0
230
1
2
ANSI31
70
0
71
0
91
1
92
5
93
3
72
1
10
48.4983827231877
20
17.8541597949322
11
51.9061927095191
21
16.9326713763016
72
1
10
51.9061927095191
20
16.9326713763016
11
51.5515785501489
21
16.0820625214788
72
1
10
51.5515785501489
20
16.0820625214788
11
48.4983827231877
21
17.8541597949322
97
0
75
0
76
1
52
0
41
0.0062
77
0
78
1
53
45
43
0
44
0
45
-0.0139193969876572
46
0.0139193969876572
79
0
47
0
98
1
10
0
20
0
0
DIMENSION
5
137
100
AcDbEntity
8
SK2
62
256
6
ByLayer
370
18
48
1
60
0
100
AcDbDimension
2
_U0
10
42
20
-45.952229
30
0
11
-3
21
-45.952229
31
0
70
32
71
1
72
1
41
1
210
0
220
0
230
1
3
Standard
100
AcDbAlignedDimension
13
-48
23
-8
33
0
14
42
24
0
34
0
50
0
100
AcDbRotatedDimension
1001
ACAD
1000
DSTYLE
1002
{
1070
   371
1070
    13
1070
   372
1070
    13
1070
     3
1000

1070
   170
1070
     0
1070
   144
1040
1.0
1070
   277
1070
     2
1070
   284
1070
     8
1070
   278
1070
    46
1070
   146
1040
1.166667
1070
   345
1005
16
1070
   347
1005
16
1070
   346
1005
16
1070
   344
1005
0
1070
   343
1005
0
1070
   172
1070
     1
1070
    76
1070
     0
1070
    75
1070
     0
1070
   282
1070
     0
1070
   281
1070
     0
1070
    71
1070
     0
1070
    74
1070
     0
1070
   279
1070
     0
1070
   173
1070
     1
1070
   340
1005
116
1070
   271
1070
     2
1070
   272
1070
     3
1070
    77
1070
     1
1070
    73
1070
     1
1070
   171
1070
     3
1070
   274
1070
     4
1070
   177
1070
     2
1070
   176
1070
     2
1070
   178
1070
     2
1070
    78
1070
     8
1070
    48
1040
-0.1
1070
    41
1040
3.5
1070
   147
1040
1.5
1070
    42
1040
1.5875
1070
    44
1040
2.0
1070
   140
1040
3.0
1002
}
1001
ACAD_DSTYLE_DIM_LINETYPE
1070
   380
1005
16
1001
ACAD_DSTYLE_DIM_EXT1_LINETYPE
1070
   381
1005
16
1001
ACAD_DSTYLE_DIM_EXT2_LINETYPE
1070
   382
1005
16
0
DIMENSION
5
150
100
AcDbEntity
8
SK2
62
256
6
ByLayer
370
18
48
1
60
0
100
AcDbDimension
2
_U1
10
6
20
-35.952229
30
0
11
24
21
-35.952229
31
0
70
32
71
1
72
1
41
1
210
0
220
0
230
1
3
Standard
100
AcDbAlignedDimension
13
42
23
0
33
0
14
6
24
-6.5
34
0
50
0
100
AcDbRotatedDimension
1001
ACAD
1000
DSTYLE
1002
{
1070
   371
1070
    13
1070
   372
1070
    13
1070
     3
1000

1070
   170
1070
     0
1070
   144
1040
1.0
1070
   277
1070
     2
1070
   284
1070
     8
1070
   278
1070
    46
1070
   146
1040
1.166667
1070
   345
1005
16
1070
   347
1005
16
1070
   346
1005
16
1070
   344
1005
0
1070
   343
1005
0
1070
   172
1070
     1
1070
    76
1070
     0
1070
    75
1070
     0
1070
   282
1070
     0
1070
   281
1070
     0
1070
    71
1070
     0
1070
    74
1070
     0
1070
   279
1070
     0
1070
   173
1070
     1
1070
   340
1005
116
1070
   271
1070
     2
1070
   272
1070
     3
1070
    77
1070
     1
1070
    73
1070
     1
1070
   171
1070
     3
1070
   274
1070
     4
1070
   177
1070
     2
1070
   176
1070
     2
1070
   178
1070
     2
1070
    78
1070
     8
1070
    48
1040
-0.1
1070
    41
1040
3.5
1070
   147
1040
1.5
1070
    42
1040
1.5875
1070
    44
1040
2.0
1070
   140
1040
3.0
1002
}
1001
ACAD_DSTYLE_DIM_LINETYPE
1070
   380
1005
16
1001
ACAD_DSTYLE_DIM_EXT1_LINETYPE
1070
   381
1005
16
1001
ACAD_DSTYLE_DIM_EXT2_LINETYPE
1070
   382
1005
16
0
DIMENSION
5
168
100
AcDbEntity
8
SK2
62
256
6
ByLayer
370
18
48
1
60
0
100
AcDbDimension
2
_U2
10
0
20
-35.952229
30
0
11
-24
21
-35.952229
31
0
70
32
71
1
72
1
41
1
210
0
220
0
230
1
3
Standard
100
AcDbAlignedDimension
13
-48
23
-8
33
0
14
0
24
-8
34
0
50
0
100
AcDbRotatedDimension
1001
ACAD
1000
DSTYLE
1002
{
1070
   371
1070
    13
1070
   372
1070
    13
1070
     3
1000

1070
   170
1070
     0
1070
   144
1040
1.0
1070
   277
1070
     2
1070
   284
1070
     8
1070
   278
1070
    46
1070
   146
1040
1.166667
1070
   345
1005
16
1070
   347
1005
16
1070
   346
1005
16
1070
   344
1005
0
1070
   343
1005
0
1070
   172
1070
     1
1070
    76
1070
     0
1070
    75
1070
     0
1070
   282
1070
     0
1070
   281
1070
     0
1070
    71
1070
     0
1070
    74
1070
     0
1070
   279
1070
     0
1070
   173
1070
     1
1070
   340
1005
116
1070
   271
1070
     2
1070
   272
1070
     3
1070
    77
1070
     1
1070
    73
1070
     1
1070
   171
1070
     3
1070
   274
1070
     4
1070
   177
1070
     2
1070
   176
1070
     2
1070
   178
1070
     2
1070
    78
1070
     8
1070
    48
1040
-0.1
1070
    41
1040
3.5
1070
   147
1040
1.5
1070
    42
1040
1.5875
1070
    44
1040
2.0
1070
   140
1040
3.0
1002
}
1001
ACAD_DSTYLE_DIM_LINETYPE
1070
   380
1005
16
1001
ACAD_DSTYLE_DIM_EXT1_LINETYPE
1070
   381
1005
16
1001
ACAD_DSTYLE_DIM_EXT2_LINETYPE
1070
   382
1005
16
0
DIMENSION
5
180
100
AcDbEntity
8
SK2
62
256
6
ByLayer
370
18
48
1
60
0
100
AcDbDimension
2
_U3
10
15
20
32.952229
30
0
11
28.5
21
32.952229
31
0
70
32
71
1
72
1
41
1
210
0
220
0
230
1
3
Standard
100
AcDbAlignedDimension
13
42
23
0
33
0
14
15
24
6.5
34
0
50
0
100
AcDbRotatedDimension
1001
ACAD
1000
DSTYLE
1002
{
1070
   371
1070
    13
1070
   372
1070
    13
1070
     3
1000

1070
   170
1070
     0
1070
   144
1040
1.0
1070
   277
1070
     2
1070
   284
1070
     8
1070
   278
1070
    46
1070
   146
1040
1.166667
1070
   345
1005
16
1070
   347
1005
16
1070
   346
1005
16
1070
   344
1005
0
1070
   343
1005
0
1070
   172
1070
     1
1070
    76
1070
     0
1070
    75
1070
     0
1070
   282
1070
     0
1070
   281
1070
     0
1070
    71
1070
     0
1070
    74
1070
     0
1070
   279
1070
     0
1070
   173
1070
     1
1070
   340
1005
116
1070
   271
1070
     2
1070
   272
1070
     3
1070
    77
1070
     1
1070
    73
1070
     1
1070
   171
1070
     3
1070
   274
1070
     4
1070
   177
1070
     2
1070
   176
1070
     2
1070
   178
1070
     2
1070
    78
1070
     8
1070
    48
1040
-0.1
1070
    41
1040
3.5
1070
   147
1040
1.5
1070
    42
1040
1.5875
1070
    44
1040
2.0
1070
   140
1040
3.0
1002
}
1001
ACAD_DSTYLE_DIM_LINETYPE
1070
   380
1005
16
1001
ACAD_DSTYLE_DIM_EXT1_LINETYPE
1070
   381
1005
16
1001
ACAD_DSTYLE_DIM_EXT2_LINETYPE
1070
   382
1005
16
0
ENDSEC
0
SECTION
2
OBJECTS
0
DICTIONARY
5
208
330
0
100
AcDbDictionary
280
0
281
1
3
ACAD_GROUP
350
209
3
ACAD_MLINESTYLE
350
20a
0
DICTIONARY
5
209
330
0
100
AcDbDictionary
280
0
281
1
0
DICTIONARY
5
20a
330
0
100
AcDbDictionary
280
0
281
1
3
Standard
350
18
0
MLINESTYLE
5
18
330
20a
100
AcDbMlineStyle
2
Standard
70
0
3

62
256
51
90
52
90
71
2
49
-0.5
62
256
6
ByLayer
49
0.5
62
256
6
ByLayer
0
RASTERVARIABLES
5
1f6
330

100
AcDbRasterVariables
90
0
70
1
71
1
72
1
0
ENDSEC
0
EOF
