  0
SECTION
  2
HEADER
  9
$ACADVER
  1
AC1018
  9
$ACADMAINTVER
 70
     0
  9
$DWGCODEPAGE
  3
ANSI_1252
  9
$INSBASE
 10
0.0
 20
0.0
 30
0.0
  9
$EXTMIN
 10
-0.5
 20
-0.5
 30
-0.5
  9
$EXTMAX
 10
5.0
 20
5.0
 30
5.0
  9
$LIMMIN
 10
-0.5
 20
-0.5
  9
$LIMMAX
 10
5.0
 20
5.0
  9
$ORTHOMODE
 70
     0
  9
$REGENMODE
 70
     1
  9
$FILLMODE
 70
     1
  9
$QTEXTMODE
 70
     0
  9
$MIRRTEXT
 70
     1
  9
$LTSCALE
 40
1.0
  9
$ATTMODE
 70
     1
  9
$TEXTSIZE
 40
0.2
  9
$TRACEWID
 40
0.05
  9
$TEXTSTYLE
  7
Standard
  9
$CLAYER
  8
0
  9
$CELTYPE
  6
ByLayer
  9
$CECOLOR
 62
   256
  9
$CELTSCALE
 40
1.0
  9
$DISPSILH
 70
     0
  9
$DIMSCALE
 40
1.0
  9
$DIMASZ
 40
0.18
  9
$DIMEXO
 40
0.0625
  9
$DIMDLI
 40
0.38
  9
$DIMRND
 40
0.0
  9
$DIMDLE
 40
0.0
  9
$DIMEXE
 40
0.18
  9
$DIMTP
 40
0.0
  9
$DIMTM
 40
0.0
  9
$DIMTXT
 40
0.18
  9
$DIMCEN
 40
0.09
  9
$DIMTSZ
 40
0.0
  9
$DIMTOL
 70
     0
  9
$DIMLIM
 70
     0
  9
$DIMTIH
 70
     1
  9
$DIMTOH
 70
     1
  9
$DIMSE1
 70
     0
  9
$DIMSE2
 70
     0
  9
$DIMTAD
 70
     0
  9
$DIMZIN
 70
     0
  9
$DIMBLK
  1

  9
$DIMASO
 70
     1
  9
$DIMSHO
 70
     1
  9
$DIMPOST
  1

  9
$DIMAPOST
  1

  9
$DIMALT
 70
     0
  9
$DIMALTD
 70
     2
  9
$DIMALTF
 40
25.4
  9
$DIMLFAC
 40
1.0
  9
$DIMTOFL
 70
     0
  9
$DIMTVP
 40
0.0
  9
$DIMTIX
 70
     0
  9
$DIMSOXD
 70
     0
  9
$DIMSAH
 70
     0
  9
$DIMBLK1
  1

  9
$DIMBLK2
  1

  9
$DIMSTYLE
  2
Standard
  9
$DIMCLRD
 70
     0
  9
$DIMCLRE
 70
     0
  9
$DIMCLRT
 70
     0
  9
$DIMTFAC
 40
1.0
  9
$DIMGAP
 40
0.09
  9
$DIMJUST
 70
     0
  9
$DIMSD1
 70
     0
  9
$DIMSD2
 70
     0
  9
$DIMTOLJ
 70
     1
  9
$DIMTZIN
 70
     0
  9
$DIMALTZ
 70
     0
  9
$DIMALTTZ
 70
     0
  9
$DIMUPT
 70
     0
  9
$DIMDEC
 70
     4
  9
$DIMTDEC
 70
     4
  9
$DIMALTU
 70
     2
  9
$DIMALTTD
 70
     2
  9
$DIMTXSTY
  7
Standard
  9
$DIMAUNIT
 70
     0
  9
$DIMADEC
 70
     0
  9
$DIMALTRND
 40
0.0
  9
$DIMAZIN
 70
     0
  9
$DIMDSEP
 70
    46
  9
$DIMATFIT
 70
     3
  9
$DIMFRAC
 70
     0
  9
$DIMLDRBLK
  1

  9
$DIMLUNIT
 70
     2
  9
$DIMLWD
 70
    -2
  9
$DIMLWE
 70
    -2
  9
$DIMTMOVE
 70
     0
  9
$LUNITS
 70
     2
  9
$LUPREC
 70
     4
  9
$SKETCHINC
 40
0.1
  9
$FILLETRAD
 40
0.5
  9
$AUNITS
 70
     0
  9
$AUPREC
 70
     0
  9
$MENU
  1
.
  9
$ELEVATION
 40
0.0
  9
$PELEVATION
 40
0.0
  9
$THICKNESS
 40
0.0
  9
$LIMCHECK
 70
     0
  9
$CHAMFERA
 40
0.0
  9
$CHAMFERB
 40
0.0
  9
$CHAMFERC
 40
0.0
  9
$CHAMFERD
 40
0.0
  9
$SKPOLY
 70
     0
  9
$TDCREATE
 40
2459440.422825926
  9
$TDUCREATE
 40
2459440.339492592
  9
$TDUPDATE
 40
2459440.423190845
  9
$TDUUPDATE
 40
2459440.339857512
  9
$TDINDWG
 40
0.0000000116
  9
$TDUSRTIMER
 40
0.0000000116
  9
$USRTIMER
 70
     1
  9
$ANGBASE
 50
0.0
  9
$ANGDIR
 70
     0
  9
$PDMODE
 70
     0
  9
$PDSIZE
 40
0.0
  9
$PLINEWID
 40
0.0
  9
$SPLFRAME
 70
     0
  9
$SPLINETYPE
 70
     6
  9
$SPLINESEGS
 70
     8
  9
$HANDSEED
  5
506
  9
$SURFTAB1
 70
     6
  9
$SURFTAB2
 70
     6
  9
$SURFTYPE
 70
     6
  9
$SURFU
 70
     6
  9
$SURFV
 70
     6
  9
$UCSBASE
  2

  9
$UCSNAME
  2

  9
$UCSORG
 10
0.0
 20
0.0
 30
0.0
  9
$UCSXDIR
 10
1.0
 20
0.0
 30
0.0
  9
$UCSYDIR
 10
0.0
 20
1.0
 30
0.0
  9
$UCSORTHOREF
  2

  9
$UCSORTHOVIEW
 70
     0
  9
$UCSORGTOP
 10
0.0
 20
0.0
 30
0.0
  9
$UCSORGBOTTOM
 10
0.0
 20
0.0
 30
0.0
  9
$UCSORGLEFT
 10
0.0
 20
0.0
 30
0.0
  9
$UCSORGRIGHT
 10
0.0
 20
0.0
 30
0.0
  9
$UCSORGFRONT
 10
0.0
 20
0.0
 30
0.0
  9
$UCSORGBACK
 10
0.0
 20
0.0
 30
0.0
  9
$PUCSBASE
  2

  9
$PUCSNAME
  2

  9
$PUCSORG
 10
0.0
 20
0.0
 30
0.0
  9
$PUCSXDIR
 10
1.0
 20
0.0
 30
0.0
  9
$PUCSYDIR
 10
0.0
 20
1.0
 30
0.0
  9
$PUCSORTHOREF
  2

  9
$PUCSORTHOVIEW
 70
     0
  9
$PUCSORGTOP
 10
0.0
 20
0.0
 30
0.0
  9
$PUCSORGBOTTOM
 10
0.0
 20
0.0
 30
0.0
  9
$PUCSORGLEFT
 10
0.0
 20
0.0
 30
0.0
  9
$PUCSORGRIGHT
 10
0.0
 20
0.0
 30
0.0
  9
$PUCSORGFRONT
 10
0.0
 20
0.0
 30
0.0
  9
$PUCSORGBACK
 10
0.0
 20
0.0
 30
0.0
  9
$USERI1
 70
     0
  9
$USERI2
 70
     0
  9
$USERI3
 70
     0
  9
$USERI4
 70
     0
  9
$USERI5
 70
     0
  9
$USERR1
 40
0.0
  9
$USERR2
 40
0.0
  9
$USERR3
 40
0.0
  9
$USERR4
 40
0.0
  9
$USERR5
 40
0.0
  9
$WORLDVIEW
 70
     1
  9
$SHADEDGE
 70
     3
  9
$SHADEDIF
 70
    70
  9
$TILEMODE
 70
     1
  9
$MAXACTVP
 70
    64
  9
$PINSBASE
 10
0.0
 20
0.0
 30
0.0
  9
$PLIMCHECK
 70
     0
  9
$PEXTMIN
 10
-0.5
 20
-0.5
 30
-0.5
  9
$PEXTMAX
 10
5.0
 20
5.0
 30
5.0
  9
$PLIMMIN
 10
-0.5
 20
-0.5
  9
$PLIMMAX
 10
5.0
 20
5.0
  9
$UNITMODE
 70
     0
  9
$VISRETAIN
 70
     1
  9
$PLINEGEN
 70
     0
  9
$PSLTSCALE
 70
     1
  9
$TREEDEPTH
 70
  3020
  9
$CMLSTYLE
  2
Standard
  9
$CMLJUST
 70
     0
  9
$CMLSCALE
 40
1.0
  9
$PROXYGRAPHICS
 70
     1
  9
$MEASUREMENT
 70
     1
  9
$CELWEIGHT
370
    18
  9
$ENDCAPS
280
     0
  9
$JOINSTYLE
280
     0
  9
$LWDISPLAY
290
     1
  9
$INSUNITS
 70
     4
  9
$HYPERLINKBASE
  1

  9
$STYLESHEET
  1

  9
$XEDIT
290
     1
  9
$CEPSNTYPE
380
     0
  9
$PSTYLEMODE
290
     1
  9
$FINGERPRINTGUID
  2
{7bd8bc44-b386-43a9-918c-323ca627af51}
  9
$VERSIONGUID
  2
{FAEB1C32-E019-11D5-929B-00C0DF256EC4}
  9
$EXTNAMES
290
     1
  9
$PSVPSCALE
 40
0.0
  9
$OLESTARTUP
290
     0
  9
$SORTENTS
280
   127
  9
$INDEXCTL
280
     0
  9
$HIDETEXT
280
     1
  9
$XCLIPFRAME
290
     0
  9
$HALOGAP
280
     0
  9
$OBSCOLOR
 70
   257
  9
$OBSLTYPE
280
     0
  9
$INTERSECTIONDISPLAY
280
     0
  9
$INTERSECTIONCOLOR
 70
   257
  9
$DIMASSOC
280
     2
  9
$PROJECTNAME
  1

  0
ENDSEC
  0
SECTION
  2
CLASSES
  0
CLASS
  1
ACDBDICTIONARYWDFLT
  2
AcDbDictionaryWithDefault
  3
ObjectDBX Classes
 90
        0
 91
        3
280
     0
281
     0
  0
CLASS
  1
VISUALSTYLE
  2
AcDbVisualStyle
  3
ObjectDBX Classes
 90
     4095
 91
        3
280
     0
281
     0
  0
CLASS
  1
MATERIAL
  2
AcDbMaterial
  3
ObjectDBX Classes
 90
     1153
 91
        3
280
     0
281
     0
  0
CLASS
  1
SCALE
  2
AcDbScale
  3
ObjectDBX Classes
 90
     1153
 91
        3
280
     0
281
     0
  0
CLASS
  1
TABLESTYLE
  2
AcDbTableStyle
  3
ObjectDBX Classes
 90
     4095
 91
        3
280
     0
281
     0
  0
CLASS
  1
MLEADERSTYLE
  2
AcDbMLeaderStyle
  3
ACDB_MLEADERSTYLE_CLASS
 90
     4095
 91
        3
280
     0
281
     0
  0
CLASS
  1
SUN
  2
AcDbSun
  3
SCENEOE
 90
     1153
 91
        3
280
     0
281
     0
  0
CLASS
  1
DIMASSOC
  2
AcDbDimAssoc
  3
"AcDbDimAssoc|Product Desc:     AcDim ARX App For Dimension|Company:          Autodesk, Inc.|WEB Address:      www.autodesk.com"
 90
        0
 91
        3
280
     0
281
     0
  0
CLASS
  1
DICTIONARYVAR
  2
AcDbDictionaryVar
  3
ObjectDBX Classes
 90
        0
 91
        3
280
     0
281
     0
  0
CLASS
  1
CELLSTYLEMAP
  2
AcDbCellStyleMap
  3
ObjectDBX Classes
 90
     1152
 91
        3
280
     0
281
     0
  0
ENDSEC
  0
SECTION
  2
TABLES
  0
TABLE
  2
VPORT
  5
8
102
{ACAD_XDICTIONARY
360
4BF
102
}
330
0
100
AcDbSymbolTable
 70
    16
  0
VPORT
  5
29
330
8
100
AcDbSymbolTableRecord
100
AcDbViewportTableRecord
  2
*Active
 70
     0
 10
0.0
 20
0.0
 11
1.0
 21
1.0
 12
12.250935
 22
6.487452
 13
0.0
 23
0.0
 14
0.5
 24
0.5
 15
0.5
 25
0.5
 16
0.0
 26
0.0
 36
1.0
 17
0.0
 27
0.0
 37
0.0
 40
254.0
 41
0.069908
 42
50.0
 43
235.070026
 44
-235.070026
 50
0.0
 51
0.0
 71
     0
 72
   100
 73
     1
 74
     3
 75
     0
 76
     0
 77
     0
 78
     0
281
     0
 65
     1
110
0.0
120
0.0
130
0.0
111
1.0
121
0.0
131
0.0
112
0.0
122
1.0
132
0.0
 79
     0
146
0.0
  0
VPORT
  5
4AB
330
8
100
AcDbSymbolTableRecord
100
AcDbViewportTableRecord
  2
L1
 70
     0
 10
0.0
 20
0.0
 11
1.0
 21
1.0
 12
12.250935
 22
6.487452
 13
0.0
 23
0.0
 14
0.5
 24
0.5
 15
0.5
 25
0.5
 16
0.0
 26
0.0
 36
1.0
 17
0.0
 27
0.0
 37
0.0
 40
254.0
 41
0.069908
 42
50.0
 43
235.070026
 44
-235.070026
 50
0.0
 51
0.0
 71
     0
 72
   100
 73
     1
 74
     3
 75
     0
 76
     0
 77
     0
 78
     0
281
     0
 65
     1
110
0.0
120
0.0
130
0.0
111
1.0
121
0.0
131
0.0
112
0.0
122
1.0
132
0.0
 79
     0
146
0.0
  0
VPORT
  5
4AC
330
8
100
AcDbSymbolTableRecord
100
AcDbViewportTableRecord
  2
L2
 70
     0
 10
0.0
 20
0.0
 11
0.5
 21
1.0
 12
0.0
 22
0.0
 13
0.0
 23
0.0
 14
0.5
 24
0.5
 15
0.5
 25
0.5
 16
0.0
 26
-1.0
 36
0.0
 17
0.0
 27
0.0
 37
0.0
 40
1780.287284
 41
0.009974
 42
50.0
 43
920.943661
 44
-920.943661
 50
0.0
 51
0.0
 71
     0
 72
   100
 73
     1
 74
     3
 75
     0
 76
     0
 77
     0
 78
     0
281
     0
 65
     1
110
0.0
120
0.0
130
0.0
111
1.0
121
0.0
131
0.0
112
0.0
122
1.0
132
0.0
 79
     0
146
0.0
  0
VPORT
  5
4AD
330
8
100
AcDbSymbolTableRecord
100
AcDbViewportTableRecord
  2
L2
 70
     0
 10
0.5
 20
0.0
 11
1.0
 21
1.0
 12
0.0
 22
0.0
 13
0.0
 23
0.0
 14
0.5
 24
0.5
 15
0.5
 25
0.5
 16
1.0
 26
0.0
 36
0.0
 17
0.0
 27
0.0
 37
0.0
 40
1780.287284
 41
0.009974
 42
50.0
 43
899.157774
 44
-899.157774
 50
0.0
 51
0.0
 71
     0
 72
   100
 73
     1
 74
     3
 75
     0
 76
     0
 77
     0
 78
     0
281
     0
 65
     1
110
0.0
120
0.0
130
0.0
111
1.0
121
0.0
131
0.0
112
0.0
122
1.0
132
0.0
 79
     0
146
0.0
  0
VPORT
  5
4AE
330
8
100
AcDbSymbolTableRecord
100
AcDbViewportTableRecord
  2
L3
 70
     0
 10
0.0
 20
0.5
 11
1.0
 21
1.0
 12
12.250935
 22
6.487452
 13
0.0
 23
0.0
 14
0.5
 24
0.5
 15
0.5
 25
0.5
 16
0.0
 26
0.0
 36
1.0
 17
0.0
 27
0.0
 37
0.0
 40
254.0
 41
0.069908
 42
50.0
 43
235.070026
 44
-235.070026
 50
0.0
 51
0.0
 71
     0
 72
   100
 73
     1
 74
     3
 75
     0
 76
     0
 77
     0
 78
     0
281
     0
 65
     1
110
0.0
120
0.0
130
0.0
111
1.0
121
0.0
131
0.0
112
0.0
122
1.0
132
0.0
 79
     0
146
0.0
  0
VPORT
  5
4AF
330
8
100
AcDbSymbolTableRecord
100
AcDbViewportTableRecord
  2
L3
 70
     0
 10
0.0
 20
0.0
 11
1.0
 21
0.5
 12
0.0
 22
0.0
 13
0.0
 23
0.0
 14
0.5
 24
0.5
 15
0.5
 25
0.5
 16
0.0
 26
-1.0
 36
0.0
 17
0.0
 27
0.0
 37
0.0
 40
1780.287284
 41
0.009974
 42
50.0
 43
920.943661
 44
-920.943661
 50
0.0
 51
0.0
 71
     0
 72
   100
 73
     1
 74
     3
 75
     0
 76
     0
 77
     0
 78
     0
281
     0
 65
     1
110
0.0
120
0.0
130
0.0
111
1.0
121
0.0
131
0.0
112
0.0
122
1.0
132
0.0
 79
     0
146
0.0
  0
VPORT
  5
4B0
330
8
100
AcDbSymbolTableRecord
100
AcDbViewportTableRecord
  2
L4
 70
     0
 10
0.0
 20
0.5
 11
0.5
 21
1.0
 12
12.250935
 22
6.487452
 13
0.0
 23
0.0
 14
0.5
 24
0.5
 15
0.5
 25
0.5
 16
0.0
 26
0.0
 36
1.0
 17
0.0
 27
0.0
 37
0.0
 40
254.0
 41
0.069908
 42
50.0
 43
235.070026
 44
-235.070026
 50
0.0
 51
0.0
 71
     0
 72
   100
 73
     1
 74
     3
 75
     0
 76
     0
 77
     0
 78
     0
281
     0
 65
     1
110
0.0
120
0.0
130
0.0
111
1.0
121
0.0
131
0.0
112
0.0
122
1.0
132
0.0
 79
     0
146
0.0
  0
VPORT
  5
4B1
330
8
100
AcDbSymbolTableRecord
100
AcDbViewportTableRecord
  2
L4
 70
     0
 10
0.0
 20
0.0
 11
0.5
 21
0.5
 12
0.0
 22
0.0
 13
0.0
 23
0.0
 14
0.5
 24
0.5
 15
0.5
 25
0.5
 16
0.0
 26
-1.0
 36
0.0
 17
0.0
 27
0.0
 37
0.0
 40
1780.287284
 41
0.009974
 42
50.0
 43
920.943661
 44
-920.943661
 50
0.0
 51
0.0
 71
     0
 72
   100
 73
     1
 74
     3
 75
     0
 76
     0
 77
     0
 78
     0
281
     0
 65
     1
110
0.0
120
0.0
130
0.0
111
1.0
121
0.0
131
0.0
112
0.0
122
1.0
132
0.0
 79
     0
146
0.0
  0
VPORT
  5
4B2
330
8
100
AcDbSymbolTableRecord
100
AcDbViewportTableRecord
  2
L4
 70
     0
 10
0.5
 20
0.0
 11
1.0
 21
0.5
 12
0.0
 22
0.0
 13
0.0
 23
0.0
 14
0.5
 24
0.5
 15
0.5
 25
0.5
 16
1.0
 26
0.0
 36
0.0
 17
0.0
 27
0.0
 37
0.0
 40
1780.287284
 41
0.009974
 42
50.0
 43
899.157774
 44
-899.157774
 50
0.0
 51
0.0
 71
     0
 72
   100
 73
     1
 74
     3
 75
     0
 76
     0
 77
     0
 78
     0
281
     0
 65
     1
110
0.0
120
0.0
130
0.0
111
1.0
121
0.0
131
0.0
112
0.0
122
1.0
132
0.0
 79
     0
146
0.0
  0
VPORT
  5
4B3
330
8
100
AcDbSymbolTableRecord
100
AcDbViewportTableRecord
  2
L4
 70
     0
 10
0.5
 20
0.5
 11
1.0
 21
1.0
 12
0.0
 22
0.0
 13
0.0
 23
0.0
 14
0.5
 24
0.5
 15
0.5
 25
0.5
 16
0.5773502691896258
 26
-0.5773502691896258
 36
0.5773502691896258
 17
0.0
 27
0.0
 37
0.0
 40
1750.134625
 41
0.010146
 42
50.0
 43
911.972075
 44
-911.972075
 50
0.0
 51
0.0
 71
     0
 72
   100
 73
     1
 74
     3
 75
     0
 76
     0
 77
     0
 78
     0
281
     0
 65
     1
110
0.0
120
0.0
130
0.0
111
1.0
121
0.0
131
0.0
112
0.0
122
1.0
132
0.0
 79
     0
146
0.0
  0
VPORT
  5
4B4
330
8
100
AcDbSymbolTableRecord
100
AcDbViewportTableRecord
  2
L6
 70
     0
 10
0.0
 20
0.5
 11
0.333333
 21
1.0
 12
0.0
 22
0.0
 13
0.0
 23
0.0
 14
0.5
 24
0.5
 15
0.5
 25
0.5
 16
0.7188730927569433
 26
-0.5850486126764433
 36
0.3754192287502549
 17
0.0
 27
0.0
 37
0.0
 40
1847.80017
 41
0.00961
 42
50.0
 43
956.498359
 44
-956.498359
 50
0.0
 51
0.0
 71
     0
 72
   100
 73
     1
 74
     3
 75
     0
 76
     0
 77
     0
 78
     0
281
     0
 65
     1
110
0.0
120
0.0
130
0.0
111
1.0
121
0.0
131
0.0
112
0.0
122
1.0
132
0.0
 79
     0
146
0.0
  0
VPORT
  5
4B5
330
8
100
AcDbSymbolTableRecord
100
AcDbViewportTableRecord
  2
L6
 70
     0
 10
0.0
 20
0.0
 11
0.333333
 21
0.5
 12
0.0
 22
0.0
 13
0.0
 23
0.0
 14
0.5
 24
0.5
 15
0.5
 25
0.5
 16
-1.0
 26
0.0
 36
0.0
 17
0.0
 27
0.0
 37
0.0
 40
1780.287284
 41
0.009974
 42
50.0
 43
899.157774
 44
-899.157774
 50
0.0
 51
0.0
 71
     0
 72
   100
 73
     1
 74
     3
 75
     0
 76
     0
 77
     0
 78
     0
281
     0
 65
     1
110
0.0
120
0.0
130
0.0
111
1.0
121
0.0
131
0.0
112
0.0
122
1.0
132
0.0
 79
     0
146
0.0
  0
VPORT
  5
4B6
330
8
100
AcDbSymbolTableRecord
100
AcDbViewportTableRecord
  2
L6
 70
     0
 10
0.333333
 20
0.5
 11
0.666667
 21
1.0
 12
12.250935
 22
6.487452
 13
0.0
 23
0.0
 14
0.5
 24
0.5
 15
0.5
 25
0.5
 16
0.0
 26
0.0
 36
1.0
 17
0.0
 27
0.0
 37
0.0
 40
254.0
 41
0.069908
 42
50.0
 43
235.070026
 44
-235.070026
 50
0.0
 51
0.0
 71
     0
 72
   100
 73
     1
 74
     3
 75
     0
 76
     0
 77
     0
 78
     0
281
     0
 65
     1
110
0.0
120
0.0
130
0.0
111
1.0
121
0.0
131
0.0
112
0.0
122
1.0
132
0.0
 79
     0
146
0.0
  0
VPORT
  5
4B7
330
8
100
AcDbSymbolTableRecord
100
AcDbViewportTableRecord
  2
L6
 70
     0
 10
0.333333
 20
0.0
 11
0.666667
 21
0.5
 12
0.0
 22
0.0
 13
0.0
 23
0.0
 14
0.5
 24
0.5
 15
0.5
 25
0.5
 16
0.0
 26
-1.0
 36
0.0
 17
0.0
 27
0.0
 37
0.0
 40
1780.287284
 41
0.009974
 42
50.0
 43
920.943661
 44
-920.943661
 50
0.0
 51
0.0
 71
     0
 72
   100
 73
     1
 74
     3
 75
     0
 76
     0
 77
     0
 78
     0
281
     0
 65
     1
110
0.0
120
0.0
130
0.0
111
1.0
121
0.0
131
0.0
112
0.0
122
1.0
132
0.0
 79
     0
146
0.0
  0
VPORT
  5
4B8
330
8
100
AcDbSymbolTableRecord
100
AcDbViewportTableRecord
  2
L6
 70
     0
 10
0.666667
 20
0.5
 11
1.0
 21
1.0
 12
0.0
 22
0.0
 13
0.0
 23
0.0
 14
0.5
 24
0.5
 15
0.5
 25
0.5
 16
0.5773502691896258
 26
-0.5773502691896258
 36
0.5773502691896258
 17
0.0
 27
0.0
 37
0.0
 40
1750.134625
 41
0.010146
 42
50.0
 43
911.972075
 44
-911.972075
 50
0.0
 51
0.0
 71
     0
 72
   100
 73
     1
 74
     3
 75
     0
 76
     0
 77
     0
 78
     0
281
     0
 65
     1
110
0.0
120
0.0
130
0.0
111
1.0
121
0.0
131
0.0
112
0.0
122
1.0
132
0.0
 79
     0
146
0.0
  0
VPORT
  5
4B9
330
8
100
AcDbSymbolTableRecord
100
AcDbViewportTableRecord
  2
L6
 70
     0
 10
0.666667
 20
0.0
 11
1.0
 21
0.5
 12
0.0
 22
0.0
 13
0.0
 23
0.0
 14
0.5
 24
0.5
 15
0.5
 25
0.5
 16
1.0
 26
0.0
 36
0.0
 17
0.0
 27
0.0
 37
0.0
 40
1780.287284
 41
0.009974
 42
50.0
 43
899.157774
 44
-899.157774
 50
0.0
 51
0.0
 71
     0
 72
   100
 73
     1
 74
     3
 75
     0
 76
     0
 77
     0
 78
     0
281
     0
 65
     1
110
0.0
120
0.0
130
0.0
111
1.0
121
0.0
131
0.0
112
0.0
122
1.0
132
0.0
 79
     0
146
0.0
  0
ENDTAB
  0
TABLE
  2
LTYPE
  5
5
330
0
100
AcDbSymbolTable
 70
     6
  0
LTYPE
  5
14
330
5
100
AcDbSymbolTableRecord
100
AcDbLinetypeTableRecord
  2
ByBlock
 70
     0
  3

 72
    65
 73
     0
 40
0.0
  0
LTYPE
  5
15
330
5
100
AcDbSymbolTableRecord
100
AcDbLinetypeTableRecord
  2
ByLayer
 70
     0
  3

 72
    65
 73
     0
 40
0.0
  0
LTYPE
  5
16
330
5
100
AcDbSymbolTableRecord
100
AcDbLinetypeTableRecord
  2
Continuous
 70
     0
  3
Solid line
 72
    65
 73
     0
 40
0.0
  0
LTYPE
  5
6E
330
5
100
AcDbSymbolTableRecord
100
AcDbLinetypeTableRecord
  2
CENTER
 70
     0
  3
____ _ ____ _ ____ _ ____
 72
    65
 73
     4
 40
47.4
 49
22.0
 74
     4
 75
     0
340
0
 46
0.0
 50
0.0
 44
0.0
 45
0.0
 49
-8.5
 74
     4
 75
     0
340
0
 46
0.0
 50
0.0
 44
0.0
 45
0.0
 49
8.5
 74
     4
 75
     0
340
0
 46
0.0
 50
0.0
 44
0.0
 45
0.0
 49
-8.5
 74
     4
 75
     0
340
0
 46
0.0
 50
0.0
 44
0.0
 45
0.0
  0
LTYPE
  5
6F
330
5
100
AcDbSymbolTableRecord
100
AcDbLinetypeTableRecord
  2
DASHDOT
 70
     0
  3
_._._._._._._._._._._._._._._._.
 72
    65
 73
     4
 40
70.0
 49
31.0
 74
     4
 75
     0
340
0
 46
0.0
 50
0.0
 44
0.0
 45
0.0
 49
-13.0
 74
     4
 75
     0
340
0
 46
0.0
 50
0.0
 44
0.0
 45
0.0
 49
13.0
 74
     4
 75
     0
340
0
 46
0.0
 50
0.0
 44
0.0
 45
0.0
 49
-13.0
 74
     4
 75
     0
340
0
 46
0.0
 50
0.0
 44
0.0
 45
0.0
  0
LTYPE
  5
70
330
5
100
AcDbSymbolTableRecord
100
AcDbLinetypeTableRecord
  2
DASHED
 70
     0
  3
__ __ __ __ __ __ __ __ __
 72
    65
 73
     2
 40
25.72
 49
12.86
 74
     4
 75
     0
340
0
 46
0.0
 50
0.0
 44
0.0
 45
0.0
 49
-12.86
 74
     4
 75
     0
340
0
 46
0.0
 50
0.0
 44
0.0
 45
0.0
  0
LTYPE
  5
71
330
5
100
AcDbSymbolTableRecord
100
AcDbLinetypeTableRecord
  2
DOT
 70
     0
  3
.........................
 72
    65
 73
     2
 40
10.0
 49
0.0
 74
     4
 75
     0
340
0
 46
0.0
 50
0.0
 44
0.0
 45
0.0
 49
-10.0
 74
     4
 75
     0
340
0
 46
0.0
 50
0.0
 44
0.0
 45
0.0
  0
LTYPE
  5
72
330
5
100
AcDbSymbolTableRecord
100
AcDbLinetypeTableRecord
  2
PHANTOM
 70
     0
  3
____ _ _ ____ _ _ _____ _ _ ____
 72
    65
 73
     6
 40
50.5
 49
18.0
 74
     4
 75
     0
340
0
 46
0.0
 50
0.0
 44
0.0
 45
0.0
 49
-6.5
 74
     4
 75
     0
340
0
 46
0.0
 50
0.0
 44
0.0
 45
0.0
 49
6.5
 74
     4
 75
     0
340
0
 46
0.0
 50
0.0
 44
0.0
 45
0.0
 49
-6.5
 74
     4
 75
     0
340
0
 46
0.0
 50
0.0
 44
0.0
 45
0.0
 49
6.5
 74
     4
 75
     0
340
0
 46
0.0
 50
0.0
 44
0.0
 45
0.0
 49
-6.5
 74
     4
 75
     0
340
0
 46
0.0
 50
0.0
 44
0.0
 45
0.0
  0
ENDTAB
  0
TABLE
  2
LAYER
  5
99901
330
0
100
AcDbSymbolTable
 70
    19
  0
LAYER
  5
99902
102
{ACAD_XDICTIONARY
360
60E
102
}
330
2
100
AcDbSymbolTableRecord
100
AcDbLayerTableRecord
  2
0
 70
     0
 62
     7
  6
CONTINUOUS
370
    -3
390
F
  0
LAYER
  5
99903
102
{ACAD_XDICTIONARY
360
610
102
}
330
2
100
AcDbSymbolTableRecord
100
AcDbLayerTableRecord
  2
1
 70
     0
 62
     4
  6
CONTINUOUS
370
    -3
390
F
  0
LAYER
  5
99904
102
{ACAD_XDICTIONARY
360
612
102
}
330
2
100
AcDbSymbolTableRecord
100
AcDbLayerTableRecord
  2
2
 70
     0
 62
     7
  6
CONTINUOUS
370
    -3
390
F
  0
LAYER
  5
99905
102
{ACAD_XDICTIONARY
360
614
102
}
330
2
100
AcDbSymbolTableRecord
100
AcDbLayerTableRecord
  2
4
 70
     0
 62
     2
  6
CENTER
370
    -3
390
F
  0
LAYER
  5
99906
102
{ACAD_XDICTIONARY
360
616
102
}
330
2
100
AcDbSymbolTableRecord
100
AcDbLayerTableRecord
  2
SK2
 70
     0
 62
     7
  6
CONTINUOUS
370
    -3
390
F
  0
LAYER
  5
99907
102
{ACAD_XDICTIONARY
360
618
102
}
330
2
100
AcDbSymbolTableRecord
100
AcDbLayerTableRecord
  2
SK3
 70
     0
 62
     1
  6
DASHED
370
    -3
390
F
  0
LAYER
  5
99908
102
{ACAD_XDICTIONARY
360
61A
102
}
330
2
100
AcDbSymbolTableRecord
100
AcDbLayerTableRecord
  2
SK4
 70
     0
 62
     2
  6
CENTER
370
    -3
390
F
  0
LAYER
  5
99909
102
{ACAD_XDICTIONARY
360
61C
102
}
330
2
100
AcDbSymbolTableRecord
100
AcDbLayerTableRecord
  2
SK6
 70
     0
 62
     5
  6
CONTINUOUS
370
    -3
390
F
  0
LAYER
  5
9990A
102
{ACAD_XDICTIONARY
360
61E
102
}
330
2
100
AcDbSymbolTableRecord
100
AcDbLayerTableRecord
  2
CUT
 70
     0
 62
     1
  6
CONTINUOUS
370
    -3
390
F
  0
LAYER
  5
9990B
102
{ACAD_XDICTIONARY
360
620
102
}
330
2
100
AcDbSymbolTableRecord
100
AcDbLayerTableRecord
  2
NOCUT
 70
     0
 62
     7
  6
CONTINUOUS
370
    -3
390
F
  0
LAYER
  5
9990C
102
{ACAD_XDICTIONARY
360
622
102
}
330
2
100
AcDbSymbolTableRecord
100
AcDbLayerTableRecord
  2
80
 70
     0
 62
     6
  6
CONTINUOUS
370
    -3
390
F
  0
LAYER
  5
9990D
102
{ACAD_XDICTIONARY
360
624
102
}
330
2
100
AcDbSymbolTableRecord
100
AcDbLayerTableRecord
  2
81
 70
     0
 62
     3
  6
CONTINUOUS
370
    -3
390
F
  0
LAYER
  5
9990E
102
{ACAD_XDICTIONARY
360
626
102
}
330
2
100
AcDbSymbolTableRecord
100
AcDbLayerTableRecord
  2
SK1
 70
     0
 62
     4
  6
CONTINUOUS
370
    -3
390
F
  0
ENDTAB
  0
TABLE
  2
STYLE
  5
3
330
0
100
AcDbSymbolTable
 70
     3
  0
STYLE
  5
11
330
3
100
AcDbSymbolTableRecord
100
AcDbTextStyleTableRecord
  2
Standard
 70
     0
 40
0.0
 41
1.0
 50
0.0
 71
     0
 42
0.2
  3
txt
  4

  0
STYLE
  5
3F7
330
3
100
AcDbSymbolTableRecord
100
AcDbTextStyleTableRecord
  2
iso_b_vert
 70
     0
 40
0.0
 41
1.0
 50
0.0
 71
     0
 42
0.2
  3
simplex.shx
  4

  0
STYLE
  5
3F8
330
3
100
AcDbSymbolTableRecord
100
AcDbTextStyleTableRecord
  2
DWGDirectTextStyle
 70
     0
 40
0.0
 41
1.0
 50
0.0
 71
     0
 42
0.2
  3
simplex
  4

  0
ENDTAB
  0
TABLE
  2
VIEW
  5
6
330
0
100
AcDbSymbolTable
 70
     8
  0
VIEW
  5
4A1
330
6
100
AcDbSymbolTableRecord
100
AcDbViewTableRecord
  2
Top
 70
     0
 40
254.0
 10
12.250935
 20
6.487452
 41
472.362245
 11
0.0
 21
0.0
 31
1.0
 12
0.0
 22
0.0
 32
0.0
 42
50.0
 43
235.070026
 44
-235.070026
 50
0.0
 71
     0
281
     0
 72
     0
  0
VIEW
  5
4A2
330
6
100
AcDbSymbolTableRecord
100
AcDbViewTableRecord
  2
Front
 70
     0
 40
1780.287284
 10
0.0
 20
0.0
 41
472.362245
 11
0.0
 21
-1.0
 31
0.0
 12
0.0
 22
0.0
 32
0.0
 42
50.0
 43
920.943661
 44
-920.943661
 50
0.0
 71
     0
281
     0
 72
     0
  0
VIEW
  5
4A3
330
6
100
AcDbSymbolTableRecord
100
AcDbViewTableRecord
  2
Right
 70
     0
 40
1780.287284
 10
0.0
 20
0.0
 41
254.0
 11
1.0
 21
0.0
 31
0.0
 12
0.0
 22
0.0
 32
0.0
 42
50.0
 43
899.157774
 44
-899.157774
 50
0.0
 71
     0
281
     0
 72
     0
  0
VIEW
  5
4A4
330
6
100
AcDbSymbolTableRecord
100
AcDbViewTableRecord
  2
Back
 70
     0
 40
1780.287284
 10
0.0
 20
0.0
 41
472.362245
 11
0.0
 21
1.0
 31
0.0
 12
0.0
 22
0.0
 32
0.0
 42
50.0
 43
920.943661
 44
-920.943661
 50
0.0
 71
     0
281
     0
 72
     0
  0
VIEW
  5
4A5
330
6
100
AcDbSymbolTableRecord
100
AcDbViewTableRecord
  2
Bottom
 70
     0
 40
254.0
 10
0.0
 20
0.0
 41
472.362245
 11
0.0
 21
0.0
 31
-1.0
 12
0.0
 22
0.0
 32
0.0
 42
50.0
 43
890.143642
 44
-890.143642
 50
180.0
 71
     0
281
     0
 72
     0
  0
VIEW
  5
4A6
330
6
100
AcDbSymbolTableRecord
100
AcDbViewTableRecord
  2
Left
 70
     0
 40
1780.287284
 10
0.0
 20
0.0
 41
254.0
 11
-1.0
 21
0.0
 31
0.0
 12
0.0
 22
0.0
 32
0.0
 42
50.0
 43
899.157774
 44
-899.157774
 50
0.0
 71
     0
281
     0
 72
     0
  0
VIEW
  5
4A7
330
6
100
AcDbSymbolTableRecord
100
AcDbViewTableRecord
  2
Isometric
 70
     0
 40
1750.134625
 10
0.0
 20
0.0
 41
513.615669
 11
0.5773502691896258
 21
-0.5773502691896258
 31
0.5773502691896258
 12
0.0
 22
0.0
 32
0.0
 42
50.0
 43
911.972075
 44
-911.972075
 50
0.0
 71
     0
281
     0
 72
     0
  0
VIEW
  5
4A8
330
6
100
AcDbSymbolTableRecord
100
AcDbViewTableRecord
  2
Trimetric
 70
     0
 40
1847.80017
 10
0.0
 20
0.0
 41
495.167621
 11
0.7188730927569433
 21
-0.5850486126764433
 31
0.3754192287502549
 12
0.0
 22
0.0
 32
0.0
 42
50.0
 43
956.498359
 44
-956.498359
 50
0.0
 71
     0
281
     0
 72
     0
  0
ENDTAB
  0
TABLE
  2
UCS
  5
7
330
0
100
AcDbSymbolTable
 70
     0
  0
ENDTAB
  0
TABLE
  2
APPID
  5
9
330
0
100
AcDbSymbolTable
 70
     8
  0
APPID
  5
12
330
9
100
AcDbSymbolTableRecord
100
AcDbRegAppTableRecord
  2
ACAD
 70
     0
  0
APPID
  5
408
330
9
100
AcDbSymbolTableRecord
100
AcDbRegAppTableRecord
  2
ACAD_DSTYLE_DIMBREAK
 70
     0
  0
APPID
  5
4BA
330
9
100
AcDbSymbolTableRecord
100
AcDbRegAppTableRecord
  2
ACAD_DSTYLE_DIM_LINETYPE
 70
     0
  0
APPID
  5
4BB
330
9
100
AcDbSymbolTableRecord
100
AcDbRegAppTableRecord
  2
ACAD_DSTYLE_DIM_EXT1_LINETYPE
 70
     0
  0
APPID
  5
4BC
330
9
100
AcDbSymbolTableRecord
100
AcDbRegAppTableRecord
  2
ACAD_DSTYLE_DIM_EXT2_LINETYPE
 70
     0
  0
APPID
  5
4BD
330
9
100
AcDbSymbolTableRecord
100
AcDbRegAppTableRecord
  2
ACAD_DSTYLE_DIMFLIPARROW_SYMBOL
 70
     0
  0
APPID
  5
4BE
330
9
100
AcDbSymbolTableRecord
100
AcDbRegAppTableRecord
  2
ACAD_DSTYLE_DIMFLIPARROW_WHICH_SYMBOL
 70
     0
  0
APPID
  5
4FE
330
9
100
AcDbSymbolTableRecord
100
AcDbRegAppTableRecord
  2
ACAD_MLEADERVER
 70
     0
  0
ENDTAB
  0
TABLE
  2
DIMSTYLE
  5
A
330
0
100
AcDbSymbolTable
 70
     1
100
AcDbDimStyleTable
  0
DIMSTYLE
105
27
102
{ACAD_REACTORS
330
409
330
423
330
43C
330
455
330
46F
330
487
102
}
330
A
100
AcDbSymbolTableRecord
100
AcDbDimStyleTableRecord
  2
Standard
 70
     0
178
     0
340
11
1001
ACAD_DSTYLE_DIMBREAK
1070
   391
1040
6.35
  0
ENDTAB
  0
TABLE
  2
BLOCK_RECORD
  5
1
330
0
100
AcDbSymbolTable
 70
    13
  0
BLOCK_RECORD
  5
1F
330
1
100
AcDbSymbolTableRecord
100
AcDbBlockTableRecord
  2
*Model_Space
340
22
  0
BLOCK_RECORD
  5
1B
330
1
100
AcDbSymbolTableRecord
100
AcDbBlockTableRecord
  2
*Paper_Space
340
1E
  0
BLOCK_RECORD
  5
23
330
1
100
AcDbSymbolTableRecord
100
AcDbBlockTableRecord
  2
*Paper_Space0
340
26
  0
BLOCK_RECORD
  5
40D
330
1
100
AcDbSymbolTableRecord
100
AcDbBlockTableRecord
  2
*D1
340
0
  0
BLOCK_RECORD
  5
419
330
1
100
AcDbSymbolTableRecord
100
AcDbBlockTableRecord
  2
_U0
340
0
  0
BLOCK_RECORD
  5
426
330
1
100
AcDbSymbolTableRecord
100
AcDbBlockTableRecord
  2
*D3
340
0
  0
BLOCK_RECORD
  5
432
330
1
100
AcDbSymbolTableRecord
100
AcDbBlockTableRecord
  2
_U1
340
0
  0
BLOCK_RECORD
  5
43F
330
1
100
AcDbSymbolTableRecord
100
AcDbBlockTableRecord
  2
*D5
340
0
  0
BLOCK_RECORD
  5
44C
330
1
100
AcDbSymbolTableRecord
100
AcDbBlockTableRecord
  2
_U2
340
0
  0
BLOCK_RECORD
  5
458
330
1
100
AcDbSymbolTableRecord
100
AcDbBlockTableRecord
  2
*D7
340
0
  0
BLOCK_RECORD
  5
466
330
1
100
AcDbSymbolTableRecord
100
AcDbBlockTableRecord
  2
_U3
340
0
  0
BLOCK_RECORD
  5
472
330
1
100
AcDbSymbolTableRecord
100
AcDbBlockTableRecord
  2
*D9
340
0
  0
BLOCK_RECORD
  5
47E
330
1
100
AcDbSymbolTableRecord
100
AcDbBlockTableRecord
  2
_U4
340
0
  0
BLOCK_RECORD
  5
48A
330
1
100
AcDbSymbolTableRecord
100
AcDbBlockTableRecord
  2
*D11
340
0
  0
BLOCK_RECORD
  5
498
330
1
100
AcDbSymbolTableRecord
100
AcDbBlockTableRecord
  2
_U5
340
0
  0
ENDTAB
  0
ENDSEC
  0
SECTION
  2
BLOCKS
  0
BLOCK
  5
20
330
1F
100
AcDbEntity
  8
0
100
AcDbBlockBegin
  2
*Model_Space
 70
     0
 10
0.0
 20
0.0
 30
0.0
  3
*Model_Space
  1

  0
ENDBLK
  5
21
330
1F
100
AcDbEntity
  8
0
100
AcDbBlockEnd
  0
BLOCK
  5
1C
330
1B
100
AcDbEntity
 67
     1
  8
0
100
AcDbBlockBegin
  2
*Paper_Space
 70
     0
 10
0.0
 20
0.0
 30
0.0
  3
*Paper_Space
  1

  0
ENDBLK
  5
1D
330
1B
100
AcDbEntity
 67
     1
  8
0
100
AcDbBlockEnd
  0
BLOCK
  5
24
330
23
100
AcDbEntity
  8
0
100
AcDbBlockBegin
  2
*Paper_Space0
 70
     0
 10
0.0
 20
0.0
 30
0.0
  3
*Paper_Space0
  1

  0
ENDBLK
  5
25
330
23
100
AcDbEntity
  8
0
100
AcDbBlockEnd
  0
BLOCK
  5
40E
330
40D
100
AcDbEntity
  8
0
100
AcDbBlockBegin
  2
*D1
 70
     1
 10
0.0
 20
0.0
 30
0.0
  3
*D1
  1

  0
LINE
  5
410
330
40D
100
AcDbEntity
  8
SK2
370
    -2
100
AcDbLine
 10
-0.5875
 20
-24.0
 30
0.0
 11
-33.799875
 21
-24.0
 31
0.0
  0
LINE
  5
411
330
40D
100
AcDbEntity
  8
SK2
370
    -2
100
AcDbLine
 10
-0.5875
 20
24.0
 30
0.0
 11
-33.799875
 21
24.0
 31
0.0
  0
LINE
  5
412
330
40D
100
AcDbEntity
  8
SK2
370
    -2
100
AcDbLine
 10
-30.624875
 20
-20.825
 30
0.0
 11
-30.624875
 21
20.825
 31
0.0
  0
SOLID
  5
413
330
40D
100
AcDbEntity
  8
SK2
100
AcDbTrace
 10
-31.154042
 20
-20.825
 30
0.0
 11
-30.095708
 21
-20.825
 31
0.0
 12
-30.624875
 22
-24.0
 32
0.0
 13
-30.624875
 23
-24.0
 33
0.0
  0
SOLID
  5
414
330
40D
100
AcDbEntity
  8
SK2
100
AcDbTrace
 10
-30.095708
 20
20.825
 30
0.0
 11
-31.154042
 21
20.825
 31
0.0
 12
-30.624875
 22
24.0
 32
0.0
 13
-30.624875
 23
24.0
 33
0.0
  0
MTEXT
  5
415
330
40D
100
AcDbEntity
  8
SK2
370
    18
100
AcDbMText
 10
-37.931334
 20
0.0
 30
0.0
 40
3.5001
 41
0.0
 71
     5
 72
     1
  1
\A1;48
  7
iso_b_vert
 11
7.401486830834377E-17
 21
1.0
 31
0.0
 73
     1
 44
1.0
  0
POINT
  5
416
330
40D
100
AcDbEntity
  8
Defpoints
 62
     0
100
AcDbPoint
 10
1.0
 20
-24.0
 30
0.0
  0
POINT
  5
417
330
40D
100
AcDbEntity
  8
Defpoints
 62
     0
100
AcDbPoint
 10
1.0
 20
24.0
 30
0.0
  0
POINT
  5
418
330
40D
100
AcDbEntity
  8
Defpoints
 62
     0
100
AcDbPoint
 10
-30.624875
 20
24.0
 30
0.0
  0
ENDBLK
  5
40F
330
40D
100
AcDbEntity
  8
0
100
AcDbBlockEnd
  0
BLOCK
  5
421
330
419
100
AcDbEntity
  8
0
100
AcDbBlockBegin
  2
_U0
 70
     0
 10
0.0
 20
0.0
 30
0.0
  3
_U0
  1

  0
MTEXT
  5
41A
330
419
100
AcDbEntity
  8
SK2
370
    13
100
AcDbMText
 10
-32.189553
 20
3.132857
 30
0.0
 40
3.5001
 41
0.0
 71
     7
 72
     5
  1
\W0.8253;46
  7
iso_b_vert
 11
6.123233995736766E-17
 21
1.0
 31
0.0
 73
     2
 44
1.084337
  0
MTEXT
  5
41B
330
419
100
AcDbEntity
  8
SK2
370
    13
100
AcDbMText
 10
-32.189553
 20
-7.367443
 30
0.0
 40
3.5001
 41
0.0
 71
     7
 72
     5
  1
%%c
  7
iso_b_vert
 11
6.123233995736766E-17
 21
1.0
 31
0.0
 73
     2
 44
1.084337
  0
LINE
  5
41C
330
419
100
AcDbEntity
  8
SK2
370
    13
100
AcDbLine
 10
-0.5875
 20
-24.0
 30
0.0
 11
-33.799875
 21
-24.0
 31
0.0
  0
LINE
  5
41D
330
419
100
AcDbEntity
  8
SK2
370
    13
100
AcDbLine
 10
-0.5875
 20
24.0
 30
0.0
 11
-33.799875
 21
24.0
 31
0.0
  0
LINE
  5
41E
330
419
100
AcDbEntity
  8
SK2
370
    13
100
AcDbLine
 10
-30.624875
 20
-24.0
 30
0.0
 11
-30.624875
 21
24.0
 31
0.0
  0
SOLID
  5
41F
330
419
100
AcDbEntity
  8
SK2
370
    18
100
AcDbTrace
 10
-30.624875
 20
-24.0
 30
0.0
 11
-31.042872
 21
-20.825002
 31
0.0
 12
-30.206878
 22
-20.824998
 32
0.0
 13
-30.206878
 23
-20.824998
 33
0.0
  0
SOLID
  5
420
330
419
100
AcDbEntity
  8
SK2
370
    18
100
AcDbTrace
 10
-30.624875
 20
24.0
 30
0.0
 11
-30.206878
 21
20.825002
 31
0.0
 12
-31.042872
 22
20.824998
 32
0.0
 13
-31.042872
 23
20.824998
 33
0.0
  0
ENDBLK
  5
422
330
419
100
AcDbEntity
  8
0
100
AcDbBlockEnd
  0
BLOCK
  5
427
330
426
100
AcDbEntity
  8
0
100
AcDbBlockBegin
  2
*D3
 70
     1
 10
0.0
 20
0.0
 30
0.0
  3
*D3
  1

  0
LINE
  5
429
330
426
100
AcDbEntity
  8
SK2
370
    -2
100
AcDbLine
 10
5.0125
 20
-11.1
 30
0.0
 11
-23.799875
 21
-11.1
 31
0.0
  0
LINE
  5
42A
330
426
100
AcDbEntity
  8
SK2
370
    -2
100
AcDbLine
 10
-0.5875
 20
11.1
 30
0.0
 11
-23.799875
 21
11.1
 31
0.0
  0
LINE
  5
42B
330
426
100
AcDbEntity
  8
SK2
370
    -2
100
AcDbLine
 10
-20.624875
 20
-7.925
 30
0.0
 11
-20.624875
 21
7.925
 31
0.0
  0
SOLID
  5
42C
330
426
100
AcDbEntity
  8
SK2
100
AcDbTrace
 10
-21.154042
 20
-7.925
 30
0.0
 11
-20.095708
 21
-7.925
 31
0.0
 12
-20.624875
 22
-11.1
 32
0.0
 13
-20.624875
 23
-11.1
 33
0.0
  0
SOLID
  5
42D
330
426
100
AcDbEntity
  8
SK2
100
AcDbTrace
 10
-20.095708
 20
7.925
 30
0.0
 11
-21.154042
 21
7.925
 31
0.0
 12
-20.624875
 22
11.1
 32
0.0
 13
-20.624875
 23
11.1
 33
0.0
  0
MTEXT
  5
42E
330
426
100
AcDbEntity
  8
SK2
370
    18
100
AcDbMText
 10
-27.931334
 20
0.0
 30
0.0
 40
3.5001
 41
0.0
 71
     5
 72
     1
  1
\A1;22.2
  7
iso_b_vert
 11
0.0
 21
1.0
 31
0.0
 73
     1
 44
1.0
  0
POINT
  5
42F
330
426
100
AcDbEntity
  8
Defpoints
 62
     0
100
AcDbPoint
 10
6.6
 20
-11.1
 30
0.0
  0
POINT
  5
430
330
426
100
AcDbEntity
  8
Defpoints
 62
     0
100
AcDbPoint
 10
1.0
 20
11.1
 30
0.0
  0
POINT
  5
431
330
426
100
AcDbEntity
  8
Defpoints
 62
     0
100
AcDbPoint
 10
-20.624875
 20
11.1
 30
0.0
  0
ENDBLK
  5
428
330
426
100
AcDbEntity
  8
0
100
AcDbBlockEnd
  0
BLOCK
  5
43A
330
432
100
AcDbEntity
  8
0
100
AcDbBlockBegin
  2
_U1
 70
     0
 10
0.0
 20
0.0
 30
0.0
  3
_U1
  1

  0
MTEXT
  5
433
330
432
100
AcDbEntity
  8
SK2
370
    13
100
AcDbMText
 10
-22.189553
 20
3.317129
 30
0.0
 40
3.5001
 41
0.0
 71
     7
 72
     5
  1
\W0.7335;22
  7
iso_b_vert
 11
6.123233995736766E-17
 21
1.0
 31
0.0
 73
     2
 44
1.084337
  0
MTEXT
  5
434
330
432
100
AcDbEntity
  8
SK2
370
    13
100
AcDbMText
 10
-22.189553
 20
-7.183171
 30
0.0
 40
3.5001
 41
0.0
 71
     7
 72
     5
  1
%%c
  7
iso_b_vert
 11
6.123233995736766E-17
 21
1.0
 31
0.0
 73
     2
 44
1.084337
  0
LINE
  5
435
330
432
100
AcDbEntity
  8
SK2
370
    13
100
AcDbLine
 10
-0.5875
 20
-11.1
 30
0.0
 11
-23.799875
 21
-11.1
 31
0.0
  0
LINE
  5
436
330
432
100
AcDbEntity
  8
SK2
370
    13
100
AcDbLine
 10
-0.5875
 20
11.1
 30
0.0
 11
-23.799875
 21
11.1
 31
0.0
  0
LINE
  5
437
330
432
100
AcDbEntity
  8
SK2
370
    13
100
AcDbLine
 10
-20.624875
 20
-11.1
 30
0.0
 11
-20.624875
 21
11.1
 31
0.0
  0
SOLID
  5
438
330
432
100
AcDbEntity
  8
SK2
370
    18
100
AcDbTrace
 10
-20.624875
 20
-11.1
 30
0.0
 11
-21.042872
 21
-7.925002
 31
0.0
 12
-20.206878
 22
-7.924998
 32
0.0
 13
-20.206878
 23
-7.924998
 33
0.0
  0
SOLID
  5
439
330
432
100
AcDbEntity
  8
SK2
370
    18
100
AcDbTrace
 10
-20.624875
 20
11.1
 30
0.0
 11
-20.206878
 21
7.925002
 31
0.0
 12
-21.042872
 22
7.924998
 32
0.0
 13
-21.042872
 23
7.924998
 33
0.0
  0
ENDBLK
  5
43B
330
432
100
AcDbEntity
  8
0
100
AcDbBlockEnd
  0
BLOCK
  5
440
330
43F
100
AcDbEntity
  8
0
100
AcDbBlockBegin
  2
*D5
 70
     1
 10
0.0
 20
0.0
 30
0.0
  3
*D5
  1

  0
LINE
  5
442
330
43F
100
AcDbEntity
  8
SK2
370
    -2
100
AcDbLine
 10
-0.5875
 20
5.2275
 30
0.0
 11
-14.6749
 21
5.2275
 31
0.0
  0
LINE
  5
443
330
43F
100
AcDbEntity
  8
SK2
370
    -2
100
AcDbLine
 10
-0.5875
 20
-5.2275
 30
0.0
 11
-14.6749
 21
-5.2275
 31
0.0
  0
LINE
  5
444
330
43F
100
AcDbEntity
  8
SK2
370
    -2
100
AcDbLine
 10
-11.4999
 20
5.2275
 30
0.0
 11
-11.4999
 21
8.4025
 31
0.0
  0
LINE
  5
445
330
43F
100
AcDbEntity
  8
SK2
370
    -2
100
AcDbLine
 10
-11.4999
 20
-5.2275
 30
0.0
 11
-11.4999
 21
-8.4025
 31
0.0
  0
SOLID
  5
446
330
43F
100
AcDbEntity
  8
SK2
100
AcDbTrace
 10
-10.970733
 20
2.0525
 30
0.0
 11
-12.029067
 21
2.0525
 31
0.0
 12
-11.4999
 22
5.2275
 32
0.0
 13
-11.4999
 23
5.2275
 33
0.0
  0
SOLID
  5
447
330
43F
100
AcDbEntity
  8
SK2
100
AcDbTrace
 10
-12.029067
 20
-2.0525
 30
0.0
 11
-10.970733
 21
-2.0525
 31
0.0
 12
-11.4999
 22
-5.2275
 32
0.0
 13
-11.4999
 23
-5.2275
 33
0.0
  0
MTEXT
  5
448
330
43F
100
AcDbEntity
  8
SK2
370
    18
100
AcDbMText
 10
-18.806359
 20
0.0
 30
0.0
 40
3.5001
 41
0.0
 71
     5
 72
     1
  1
\A1;10.5
  7
iso_b_vert
 11
0.0
 21
1.0
 31
0.0
 73
     1
 44
1.0
  0
POINT
  5
449
330
43F
100
AcDbEntity
  8
Defpoints
 62
     0
100
AcDbPoint
 10
1.0
 20
5.2275
 30
0.0
  0
POINT
  5
44A
330
43F
100
AcDbEntity
  8
Defpoints
 62
     0
100
AcDbPoint
 10
1.0
 20
-5.2275
 30
0.0
  0
POINT
  5
44B
330
43F
100
AcDbEntity
  8
Defpoints
 62
     0
100
AcDbPoint
 10
-11.4999
 20
-5.2275
 30
0.0
  0
ENDBLK
  5
441
330
43F
100
AcDbEntity
  8
0
100
AcDbBlockEnd
  0
BLOCK
  5
453
330
44C
100
AcDbEntity
  8
0
100
AcDbBlockBegin
  2
_U2
 70
     0
 10
0.0
 20
0.0
 30
0.0
  3
_U2
  1

  0
MTEXT
  5
44D
330
44C
100
AcDbEntity
  8
SK2
370
    13
100
AcDbMText
 10
-12.189553
 20
-3.604502
 30
0.0
 40
3.5001
 41
0.0
 71
     7
 72
     5
  1
\W0.7369;10,4
  7
iso_b_vert
 11
6.123233995736766E-17
 21
1.0
 31
0.0
 73
     2
 44
1.084337
  0
LINE
  5
44E
330
44C
100
AcDbEntity
  8
SK2
370
    13
100
AcDbLine
 10
-0.5875
 20
5.2275
 30
0.0
 11
-14.6749
 21
5.2275
 31
0.0
  0
LINE
  5
44F
330
44C
100
AcDbEntity
  8
SK2
370
    13
100
AcDbLine
 10
-0.5875
 20
-5.2275
 30
0.0
 11
-14.6749
 21
-5.2275
 31
0.0
  0
LINE
  5
450
330
44C
100
AcDbEntity
  8
SK2
370
    13
100
AcDbLine
 10
-11.4999
 20
13.97775
 30
0.0
 11
-11.4999
 21
-13.97775
 31
0.0
  0
SOLID
  5
451
330
44C
100
AcDbEntity
  8
SK2
370
    18
100
AcDbTrace
 10
-11.4999
 20
5.2275
 30
0.0
 11
-11.917897
 21
8.402498
 31
0.0
 12
-11.081903
 22
8.402502
 32
0.0
 13
-11.081903
 23
8.402502
 33
0.0
  0
SOLID
  5
452
330
44C
100
AcDbEntity
  8
SK2
370
    18
100
AcDbTrace
 10
-11.4999
 20
-5.2275
 30
0.0
 11
-11.081903
 21
-8.402498
 31
0.0
 12
-11.917897
 22
-8.402502
 32
0.0
 13
-11.917897
 23
-8.402502
 33
0.0
  0
ENDBLK
  5
454
330
44C
100
AcDbEntity
  8
0
100
AcDbBlockEnd
  0
BLOCK
  5
459
330
458
100
AcDbEntity
  8
0
100
AcDbBlockBegin
  2
*D7
 70
     1
 10
0.0
 20
0.0
 30
0.0
  3
*D7
  1

  0
LINE
  5
45B
330
458
100
AcDbEntity
  8
2
370
    -2
100
AcDbLine
 10
33.59724
 20
39.504179
 30
0.0
 11
33.59724
 21
45.591579
 31
0.0
  0
LINE
  5
45C
330
458
100
AcDbEntity
  8
2
370
    -2
100
AcDbLine
 10
40.0
 20
34.0625
 30
0.0
 11
40.0
 21
45.591579
 31
0.0
  0
LINE
  5
45D
330
458
100
AcDbEntity
  8
2
370
    -2
100
AcDbLine
 10
40.0
 20
42.416579
 30
0.0
 11
65.926239
 21
42.416579
 31
0.0
  0
LINE
  5
45E
330
458
100
AcDbEntity
  8
2
370
    -2
100
AcDbLine
 10
30.42224
 20
42.416579
 30
0.0
 11
27.24724
 21
42.416579
 31
0.0
  0
LINE
  5
45F
330
458
100
AcDbEntity
  8
2
370
    -2
100
AcDbLine
 10
43.175
 20
42.416579
 30
0.0
 11
46.35
 21
42.416579
 31
0.0
  0
SOLID
  5
460
330
458
100
AcDbEntity
  8
2
100
AcDbTrace
 10
30.42224
 20
41.887412
 30
0.0
 11
30.42224
 21
42.945745
 31
0.0
 12
33.59724
 22
42.416579
 32
0.0
 13
33.59724
 23
42.416579
 33
0.0
  0
SOLID
  5
461
330
458
100
AcDbEntity
  8
2
100
AcDbTrace
 10
43.175
 20
42.945745
 30
0.0
 11
43.175
 21
41.887412
 31
0.0
 12
40.0
 22
42.416579
 32
0.0
 13
40.0
 23
42.416579
 33
0.0
  0
MTEXT
  5
462
330
458
100
AcDbEntity
  8
2
370
    18
100
AcDbMText
 10
56.619723
 20
49.723038
 30
0.0
 40
3.5001
 41
0.0
 71
     5
 72
     1
  1
\A1;6.4
  7
iso_b_vert
 73
     1
 44
1.0
  0
POINT
  5
463
330
458
100
AcDbEntity
  8
Defpoints
 62
     0
100
AcDbPoint
 10
33.59724
 20
37.916679
 30
0.0
  0
POINT
  5
464
330
458
100
AcDbEntity
  8
Defpoints
 62
     0
100
AcDbPoint
 10
40.0
 20
32.475
 30
0.0
  0
POINT
  5
465
330
458
100
AcDbEntity
  8
Defpoints
 62
     0
100
AcDbPoint
 10
40.0
 20
42.416579
 30
0.0
  0
ENDBLK
  5
45A
330
458
100
AcDbEntity
  8
0
100
AcDbBlockEnd
  0
BLOCK
  5
46D
330
466
100
AcDbEntity
  8
0
100
AcDbBlockBegin
  2
_U3
 70
     0
 10
0.0
 20
0.0
 30
0.0
  3
_U3
  1

  0
MTEXT
  5
467
330
466
100
AcDbEntity
  8
2
370
    13
100
AcDbMText
 10
51.298005
 20
43.449242
 30
0.0
 40
3.5001
 41
0.0
 71
     7
 72
     5
  1
\W0.7852;6,403
  7
iso_b_vert
 73
     2
 44
1.084337
  0
LINE
  5
468
330
466
100
AcDbEntity
  8
2
370
    13
100
AcDbLine
 10
33.59724
 20
39.504179
 30
0.0
 11
33.59724
 21
45.591579
 31
0.0
  0
LINE
  5
469
330
466
100
AcDbEntity
  8
2
370
    13
100
AcDbLine
 10
40.0
 20
34.0625
 30
0.0
 11
40.0
 21
45.591579
 31
0.0
  0
LINE
  5
46A
330
466
100
AcDbEntity
  8
2
370
    13
100
AcDbLine
 10
62.126946
 20
42.416579
 30
0.0
 11
24.84699
 21
42.416579
 31
0.0
  0
SOLID
  5
46B
330
466
100
AcDbEntity
  8
2
370
    18
100
AcDbTrace
 10
33.59724
 20
42.416579
 30
0.0
 11
30.422242
 21
41.998582
 31
0.0
 12
30.422239
 22
42.834575
 32
0.0
 13
30.422239
 23
42.834575
 33
0.0
  0
SOLID
  5
46C
330
466
100
AcDbEntity
  8
2
370
    18
100
AcDbTrace
 10
40.0
 20
42.416579
 30
0.0
 11
43.174998
 21
42.834575
 31
0.0
 12
43.175002
 22
41.998582
 32
0.0
 13
43.175002
 23
41.998582
 33
0.0
  0
ENDBLK
  5
46E
330
466
100
AcDbEntity
  8
0
100
AcDbBlockEnd
  0
BLOCK
  5
473
330
472
100
AcDbEntity
  8
0
100
AcDbBlockBegin
  2
*D9
 70
     1
 10
0.0
 20
0.0
 30
0.0
  3
*D9
  1

  0
LINE
  5
475
330
472
100
AcDbEntity
  8
2
370
    -2
100
AcDbLine
 10
0.0
 20
24.5875
 30
0.0
 11
0.0
 21
55.1499
 31
0.0
  0
LINE
  5
476
330
472
100
AcDbEntity
  8
2
370
    -2
100
AcDbLine
 10
40.0
 20
34.0625
 30
0.0
 11
40.0
 21
55.1499
 31
0.0
  0
LINE
  5
477
330
472
100
AcDbEntity
  8
2
370
    -2
100
AcDbLine
 10
3.175
 20
51.9749
 30
0.0
 11
36.825
 21
51.9749
 31
0.0
  0
SOLID
  5
478
330
472
100
AcDbEntity
  8
2
100
AcDbTrace
 10
3.175
 20
52.504067
 30
0.0
 11
3.175
 21
51.445733
 31
0.0
 12
0.0
 22
51.9749
 32
0.0
 13
0.0
 23
51.9749
 33
0.0
  0
SOLID
  5
479
330
472
100
AcDbEntity
  8
2
100
AcDbTrace
 10
36.825
 20
51.445733
 30
0.0
 11
36.825
 21
52.504067
 31
0.0
 12
40.0
 22
51.9749
 32
0.0
 13
40.0
 23
51.9749
 33
0.0
  0
MTEXT
  5
47A
330
472
100
AcDbEntity
  8
2
370
    18
100
AcDbMText
 10
20.0
 20
59.281359
 30
0.0
 40
3.5001
 41
0.0
 71
     5
 72
     1
  1
\A1;40
  7
iso_b_vert
 73
     1
 44
1.0
  0
POINT
  5
47B
330
472
100
AcDbEntity
  8
Defpoints
 62
     0
100
AcDbPoint
 10
0.0
 20
23.0
 30
0.0
  0
POINT
  5
47C
330
472
100
AcDbEntity
  8
Defpoints
 62
     0
100
AcDbPoint
 10
40.0
 20
32.475
 30
0.0
  0
POINT
  5
47D
330
472
100
AcDbEntity
  8
Defpoints
 62
     0
100
AcDbPoint
 10
40.0
 20
51.9749
 30
0.0
  0
ENDBLK
  5
474
330
472
100
AcDbEntity
  8
0
100
AcDbBlockEnd
  0
BLOCK
  5
485
330
47E
100
AcDbEntity
  8
0
100
AcDbBlockBegin
  2
_U4
 70
     0
 10
0.0
 20
0.0
 30
0.0
  3
_U4
  1

  0
MTEXT
  5
47F
330
47E
100
AcDbEntity
  8
2
370
    13
100
AcDbMText
 10
17.910707
 20
53.007563
 30
0.0
 40
3.5001
 41
0.0
 71
     7
 72
     5
  1
\W0.8010;40
  7
iso_b_vert
 73
     2
 44
1.084337
  0
LINE
  5
480
330
47E
100
AcDbEntity
  8
2
370
    13
100
AcDbLine
 10
0.0
 20
24.5875
 30
0.0
 11
0.0
 21
55.1499
 31
0.0
  0
LINE
  5
481
330
47E
100
AcDbEntity
  8
2
370
    13
100
AcDbLine
 10
40.0
 20
34.0625
 30
0.0
 11
40.0
 21
55.1499
 31
0.0
  0
LINE
  5
482
330
47E
100
AcDbEntity
  8
2
370
    13
100
AcDbLine
 10
0.0
 20
51.9749
 30
0.0
 11
40.0
 21
51.9749
 31
0.0
  0
SOLID
  5
483
330
47E
100
AcDbEntity
  8
2
370
    18
100
AcDbTrace
 10
0.0
 20
51.9749
 30
0.0
 11
3.174998
 21
52.392897
 31
0.0
 12
3.175002
 22
51.556903
 32
0.0
 13
3.175002
 23
51.556903
 33
0.0
  0
SOLID
  5
484
330
47E
100
AcDbEntity
  8
2
370
    18
100
AcDbTrace
 10
40.0
 20
51.9749
 30
0.0
 11
36.825002
 21
51.556903
 31
0.0
 12
36.824998
 22
52.392897
 32
0.0
 13
36.824998
 23
52.392897
 33
0.0
  0
ENDBLK
  5
486
330
47E
100
AcDbEntity
  8
0
100
AcDbBlockEnd
  0
BLOCK
  5
48B
330
48A
100
AcDbEntity
  8
0
100
AcDbBlockBegin
  2
*D11
 70
     1
 10
0.0
 20
0.0
 30
0.0
  3
*D11
  1

  0
LINE
  5
48D
330
48A
100
AcDbEntity
  8
SK2
370
    -2
100
AcDbLine
 10
0.0
 20
-24.5875
 30
0.0
 11
0.0
 21
-53.6751
 31
0.0
  0
LINE
  5
48E
330
48A
100
AcDbEntity
  8
SK2
370
    -2
100
AcDbLine
 10
6.375
 20
-6.569274
 30
0.0
 11
6.375
 21
-53.6751
 31
0.0
  0
LINE
  5
48F
330
48A
100
AcDbEntity
  8
SK2
370
    -2
100
AcDbLine
 10
0.0
 20
-50.5001
 30
0.0
 11
-24.963032
 21
-50.5001
 31
0.0
  0
LINE
  5
490
330
48A
100
AcDbEntity
  8
SK2
370
    -2
100
AcDbLine
 10
-3.175
 20
-50.5001
 30
0.0
 11
-6.35
 21
-50.5001
 31
0.0
  0
LINE
  5
491
330
48A
100
AcDbEntity
  8
SK2
370
    -2
100
AcDbLine
 10
9.55
 20
-50.5001
 30
0.0
 11
12.725
 21
-50.5001
 31
0.0
  0
SOLID
  5
492
330
48A
100
AcDbEntity
  8
SK2
100
AcDbTrace
 10
-3.175
 20
-51.029267
 30
0.0
 11
-3.175
 21
-49.970933
 31
0.0
 12
0.0
 22
-50.5001
 32
0.0
 13
0.0
 23
-50.5001
 33
0.0
  0
SOLID
  5
493
330
48A
100
AcDbEntity
  8
SK2
100
AcDbTrace
 10
9.55
 20
-49.970933
 30
0.0
 11
9.55
 21
-51.029267
 31
0.0
 12
6.375
 22
-50.5001
 32
0.0
 13
6.375
 23
-50.5001
 33
0.0
  0
MTEXT
  5
494
330
48A
100
AcDbEntity
  8
SK2
370
    18
100
AcDbMText
 10
-15.656516
 20
-43.193641
 30
0.0
 40
3.5001
 41
0.0
 71
     5
 72
     1
  1
\A1;6.4
  7
iso_b_vert
 73
     1
 44
1.0
  0
POINT
  5
495
330
48A
100
AcDbEntity
  8
Defpoints
 62
     0
100
AcDbPoint
 10
0.0
 20
-23.0
 30
0.0
  0
POINT
  5
496
330
48A
100
AcDbEntity
  8
Defpoints
 62
     0
100
AcDbPoint
 10
6.375
 20
-4.981774
 30
0.0
  0
POINT
  5
497
330
48A
100
AcDbEntity
  8
Defpoints
 62
     0
100
AcDbPoint
 10
6.375
 20
-50.5001
 30
0.0
  0
ENDBLK
  5
48C
330
48A
100
AcDbEntity
  8
0
100
AcDbBlockEnd
  0
BLOCK
  5
49F
330
498
100
AcDbEntity
  8
0
100
AcDbBlockBegin
  2
_U5
 70
     0
 10
0.0
 20
0.0
 30
0.0
  3
_U5
  1

  0
MTEXT
  5
499
330
498
100
AcDbEntity
  8
SK2
370
    13
100
AcDbMText
 10
-16.341814
 20
-49.467437
 30
0.0
 40
3.5001
 41
0.0
 71
     7
 72
     5
  1
\W0.7383;6,3
  7
iso_b_vert
 73
     2
 44
1.084337
  0
LINE
  5
49A
330
498
100
AcDbEntity
  8
SK2
370
    13
100
AcDbLine
 10
0.0
 20
-24.5875
 30
0.0
 11
0.0
 21
-53.6751
 31
0.0
  0
LINE
  5
49B
330
498
100
AcDbEntity
  8
SK2
370
    13
100
AcDbLine
 10
6.375
 20
-6.569274
 30
0.0
 11
6.375
 21
-53.6751
 31
0.0
  0
LINE
  5
49C
330
498
100
AcDbEntity
  8
SK2
370
    13
100
AcDbLine
 10
15.12525
 20
-50.5001
 30
0.0
 11
-16.52732
 21
-50.5001
 31
0.0
  0
SOLID
  5
49D
330
498
100
AcDbEntity
  8
SK2
370
    18
100
AcDbTrace
 10
0.0
 20
-50.5001
 30
0.0
 11
-3.174998
 21
-50.918097
 31
0.0
 12
-3.175002
 22
-50.082103
 32
0.0
 13
-3.175002
 23
-50.082103
 33
0.0
  0
SOLID
  5
49E
330
498
100
AcDbEntity
  8
SK2
370
    18
100
AcDbTrace
 10
6.375
 20
-50.5001
 30
0.0
 11
9.549998
 21
-50.082103
 31
0.0
 12
9.550002
 22
-50.918097
 32
0.0
 13
9.550002
 23
-50.918097
 33
0.0
  0
ENDBLK
  5
4A0
330
498
100
AcDbEntity
  8
0
100
AcDbBlockEnd
  0
ENDSEC
  0
SECTION
  2
ENTITIES
  0
POINT
  5
73
330
1F
100
AcDbEntity
  8
80
370
    18
100
AcDbPoint
 10
0.0
 20
0.0
 30
0.0
  0
LINE
  5
77
330
1F
100
AcDbEntity
  8
NOCUT
370
    18
100
AcDbLine
 10
11.0
 20
24.0
 30
0.0
 11
1.0
 21
24.0
 31
0.0
  0
LINE
  5
78
330
1F
100
AcDbEntity
  8
NOCUT
370
    18
100
AcDbLine
 10
21.25
 20
6.0
 30
0.0
 11
21.25
 21
10.136129
 31
0.0
  0
LINE
  5
79
330
1F
100
AcDbEntity
  8
NOCUT
370
    18
100
AcDbLine
 10
31.5
 20
9.05
 30
0.0
 11
26.15
 21
9.05
 31
0.0
  0
LINE
  5
7A
330
1F
100
AcDbEntity
  8
NOCUT
370
    18
100
AcDbLine
 10
21.25
 20
6.0
 30
0.0
 11
21.75
 21
5.5
 31
0.0
  0
LINE
  5
7B
330
1F
100
AcDbEntity
  8
NOCUT
370
    18
100
AcDbLine
 10
38.5
 20
28.814214
 30
0.0
 11
38.5
 21
31.595974
 31
0.0
  0
LINE
  5
7C
330
1F
100
AcDbEntity
  8
NOCUT
370
    18
100
AcDbLine
 10
6.6
 20
11.1
 30
0.0
 11
1.0
 21
11.1
 31
0.0
  0
LINE
  5
7D
330
1F
100
AcDbEntity
  8
NOCUT
370
    18
100
AcDbLine
 10
21.156418
 20
10.393244
 30
0.0
 11
19.344546
 21
12.552549
 31
0.0
  0
LINE
  5
7E
330
1F
100
AcDbEntity
  8
NOCUT
370
    18
100
AcDbLine
 10
25.75
 20
8.65
 30
0.0
 11
25.75
 21
6.0
 31
0.0
  0
LINE
  5
7F
330
1F
100
AcDbEntity
  8
NOCUT
370
    18
100
AcDbLine
 10
16.0
 20
30.5
 30
0.0
 11
16.0
 21
29.0
 31
0.0
  0
LINE
  5
80
330
1F
100
AcDbEntity
  8
NOCUT
370
    18
100
AcDbLine
 10
38.21934
 20
32.290632
 30
0.0
 11
35.642172
 21
34.959368
 31
0.0
  0
LINE
  5
81
330
1F
100
AcDbEntity
  8
NOCUT
370
    18
100
AcDbLine
 10
25.25
 20
5.5
 30
0.0
 11
21.75
 21
5.5
 31
0.0
  0
LINE
  5
82
330
1F
100
AcDbEntity
  8
NOCUT
370
    18
100
AcDbLine
 10
25.25
 20
5.5
 30
0.0
 11
25.75
 21
6.0
 31
0.0
  0
LINE
  5
83
330
1F
100
AcDbEntity
  8
NOCUT
370
    18
100
AcDbLine
 10
0.0
 20
23.0
 30
0.0
 11
0.0
 21
12.099
 31
0.0
  0
LINE
  5
84
330
1F
100
AcDbEntity
  8
NOCUT
370
    18
100
AcDbLine
 10
34.957731
 20
35.2641
 30
0.0
 11
33.253302
 21
35.32362
 31
0.0
  0
LINE
  5
85
330
1F
100
AcDbEntity
  8
NOCUT
370
    18
100
AcDbLine
 10
32.964466
 20
22.864466
 30
0.0
 11
38.207107
 21
28.107107
 31
0.0
  0
LINE
  5
86
330
1F
100
AcDbEntity
  8
NOCUT
370
    18
100
AcDbLine
 10
1.0
 20
24.0
 30
0.0
 11
0.0
 21
23.0
 31
0.0
  0
LINE
  5
87
330
1F
100
AcDbEntity
  8
NOCUT
370
    18
100
AcDbLine
 10
32.037526
 20
35.790313
 30
0.0
 11
30.278817
 21
37.266044
 31
0.0
  0
LINE
  5
88
330
1F
100
AcDbEntity
  8
NOCUT
370
    18
100
AcDbLine
 10
7.705858
 20
11.00325
 30
0.0
 11
6.6
 21
11.1
 31
0.0
  0
LINE
  5
89
330
1F
100
AcDbEntity
  8
NOCUT
370
    18
100
AcDbLine
 10
29.63603
 20
37.5
 30
0.0
 11
23.0
 21
37.5
 31
0.0
  0
LINE
  5
8A
330
1F
100
AcDbEntity
  8
NOCUT
370
    18
100
AcDbLine
 10
18.838128
 20
12.641844
 30
0.0
 11
16.0
 21
11.00325
 31
0.0
  0
LINE
  5
8B
330
1F
100
AcDbEntity
  8
NOCUT
370
    18
100
AcDbLine
 10
31.5
 20
9.05
 30
0.0
 11
31.5
 21
19.328932
 31
0.0
  0
LINE
  5
8C
330
1F
100
AcDbEntity
  8
NOCUT
370
    18
100
AcDbLine
 10
1.0
 20
11.1
 30
0.0
 11
0.001
 21
12.099
 31
0.0
  0
LINE
  5
8D
330
1F
100
AcDbEntity
  8
NOCUT
370
    18
100
AcDbLine
 10
16.0
 20
11.00325
 30
0.0
 11
7.705858
 21
11.00325
 31
0.0
  0
LINE
  5
8E
330
1F
100
AcDbEntity
  8
CUT
370
    18
100
AcDbLine
 10
40.0
 20
31.080567
 30
0.0
 11
40.0
 21
29.340627
 31
0.0
  0
LINE
  5
90
330
1F
100
AcDbEntity
  8
80
370
    18
100
AcDbLine
 10
0.0
 20
1.0
 30
0.0
 11
0.0
 21
-1.0
 31
0.0
  0
LINE
  5
91
330
1F
100
AcDbEntity
  8
80
370
    18
100
AcDbLine
 10
-1.0
 20
0.0
 30
0.0
 11
1.0
 21
0.0
 31
0.0
  0
LINE
  5
92
330
1F
100
AcDbEntity
  8
81
370
    18
100
AcDbLine
 10
39.0
 20
31.475
 30
0.0
 11
41.0
 21
31.475
 31
0.0
  0
LINE
  5
93
330
1F
100
AcDbEntity
  8
1
370
    13
100
AcDbLine
 10
5.575
 20
6.2275
 30
0.0
 11
1.0
 21
6.2275
 31
0.0
  0
LINE
  5
95
330
1F
100
AcDbEntity
  8
1
370
    13
100
AcDbLine
 10
1.0
 20
24.0
 30
0.0
 11
1.0
 21
6.2275
 31
0.0
  0
LINE
  5
96
330
1F
100
AcDbEntity
  8
1
370
    13
100
AcDbLine
 10
16.0
 20
19.781672
 30
0.0
 11
16.0
 21
20.643009
 31
0.0
  0
LINE
  5
97
102
{ACAD_REACTORS
330
43E
102
}
330
1F
100
AcDbEntity
  8
1
370
    13
100
AcDbLine
 10
1.0
 20
5.2275
 30
0.0
 11
5.575
 21
5.2275
 31
0.0
  0
LINE
  5
98
330
1F
100
AcDbEntity
  8
1
370
    13
100
AcDbLine
 10
1.0
 20
5.2275
 30
0.0
 11
1.0
 21
6.2275
 31
0.0
  0
LINE
  5
99
330
1F
100
AcDbEntity
  8
1
370
    13
100
AcDbLine
 10
1.0
 20
-6.2275
 30
0.0
 11
1.0
 21
-5.2275
 31
0.0
  0
LINE
  5
9A
102
{ACAD_REACTORS
330
43E
102
}
330
1F
100
AcDbEntity
  8
1
370
    13
100
AcDbLine
 10
1.0
 20
-5.2275
 30
0.0
 11
5.575
 21
-5.2275
 31
0.0
  0
LINE
  5
9B
330
1F
100
AcDbEntity
  8
1
370
    13
100
AcDbLine
 10
1.0
 20
-5.2275
 30
0.0
 11
0.028125
 21
-6.199375
 31
0.0
  0
LINE
  5
9C
330
1F
100
AcDbEntity
  8
1
370
    13
100
AcDbLine
 10
16.073911
 20
27.341091
 30
0.0
 11
16.073911
 21
26.2332
 31
0.0
  0
LINE
  5
9D
330
1F
100
AcDbEntity
  8
1
370
    13
100
AcDbLine
 10
25.144865
 20
27.342102
 30
0.0
 11
30.221886
 21
31.036184
 31
0.0
  0
LINE
  5
9E
330
1F
100
AcDbEntity
  8
1
370
    13
100
AcDbLine
 10
30.362866
 20
31.044293
 30
0.0
 11
25.241653
 21
27.318057
 31
0.0
  0
LINE
  5
9F
330
1F
100
AcDbEntity
  8
1
370
    13
100
AcDbLine
 10
16.0
 20
30.5
 30
0.0
 11
16.0
 21
27.392089
 31
0.0
  0
LINE
  5
A0
330
1F
100
AcDbEntity
  8
1
370
    13
100
AcDbLine
 10
38.5
 20
-24.037137
 30
0.0
 11
38.5
 21
-25.994623
 31
0.0
  0
LINE
  5
A1
330
1F
100
AcDbEntity
  8
1
370
    13
100
AcDbLine
 10
38.129374
 20
-28.487762
 30
0.0
 11
38.129374
 21
-26.975946
 31
0.0
  0
LINE
  5
A2
330
1F
100
AcDbEntity
  8
1
370
    13
100
AcDbLine
 10
38.5
 20
-26.891223
 30
0.0
 11
38.5
 21
-28.503488
 31
0.0
  0
LINE
  5
A3
330
1F
100
AcDbEntity
  8
1
370
    13
100
AcDbLine
 10
38.5
 20
30.723061
 30
0.0
 11
38.5
 21
28.836674
 31
0.0
  0
LINE
  5
A4
330
1F
100
AcDbEntity
  8
1
370
    13
100
AcDbLine
 10
38.5
 20
-28.503488
 30
0.0
 11
38.5
 21
-30.643502
 31
0.0
  0
LINE
  5
A5
330
1F
100
AcDbEntity
  8
1
370
    13
100
AcDbLine
 10
16.0
 20
26.284198
 30
0.0
 11
16.0
 21
27.392089
 31
0.0
  0
LINE
  5
A6
330
1F
100
AcDbEntity
  8
1
370
    13
100
AcDbLine
 10
31.174636
 20
-35.300772
 30
0.0
 11
31.294952
 21
-35.427768
 31
0.0
  0
LINE
  5
A7
330
1F
100
AcDbEntity
  8
1
370
    13
100
AcDbLine
 10
38.445905
 20
-23.618871
 30
0.0
 11
38.445905
 21
-22.669281
 31
0.0
  0
LINE
  5
A8
330
1F
100
AcDbEntity
  8
1
370
    13
100
AcDbLine
 10
16.0
 20
-30.042587
 30
0.0
 11
16.0
 21
-29.652343
 31
0.0
  0
LINE
  5
A9
330
1F
100
AcDbEntity
  8
1
370
    13
100
AcDbLine
 10
38.5
 20
-14.030803
 30
0.0
 11
38.5
 21
-22.586616
 31
0.0
  0
LINE
  5
AA
330
1F
100
AcDbEntity
  8
1
370
    13
100
AcDbLine
 10
38.5
 20
-22.586576
 30
0.0
 11
38.5
 21
-23.53101
 31
0.0
  0
LINE
  5
AB
330
1F
100
AcDbEntity
  8
1
370
    13
100
AcDbLine
 10
38.5
 20
17.802488
 30
0.0
 11
38.5
 21
11.726069
 31
0.0
  0
LINE
  5
AC
330
1F
100
AcDbEntity
  8
1
370
    13
100
AcDbLine
 10
33.426333
 20
24.971531
 30
0.0
 11
33.350682
 21
24.819092
 31
0.0
  0
LINE
  5
AE
330
1F
100
AcDbEntity
  8
1
370
    13
100
AcDbLine
 10
31.334583
 20
24.844298
 30
0.0
 11
30.902447
 21
23.973531
 31
0.0
  0
LINE
  5
AF
330
1F
100
AcDbEntity
  8
1
370
    13
100
AcDbLine
 10
34.952313
 20
-10.179977
 30
0.0
 11
38.941119
 21
-10.714593
 31
0.0
  0
LINE
  5
B1
330
1F
100
AcDbEntity
  8
1
370
    13
100
AcDbLine
 10
39.230738
 20
-10.899887
 30
0.0
 11
39.230738
 21
-11.801952
 31
0.0
  0
LINE
  5
B2
330
1F
100
AcDbEntity
  8
1
370
    13
100
AcDbLine
 10
39.710381
 20
-6.833252
 30
0.0
 11
39.537685
 21
-6.810105
 31
0.0
  0
LINE
  5
B3
330
1F
100
AcDbEntity
  8
1
370
    13
100
AcDbLine
 10
40.0
 20
-7.665074
 30
0.0
 11
40.0
 21
-7.018546
 31
0.0
  0
LINE
  5
B4
330
1F
100
AcDbEntity
  8
1
370
    13
100
AcDbLine
 10
24.150373
 20
24.67997
 30
0.0
 11
24.150373
 21
26.162141
 31
0.0
  0
LINE
  5
B5
330
1F
100
AcDbEntity
  8
1
370
    13
100
AcDbLine
 10
24.439992
 20
26.709771
 30
0.0
 11
30.553132
 21
31.181006
 31
0.0
  0
LINE
  5
B6
330
1F
100
AcDbEntity
  8
1
370
    13
100
AcDbLine
 10
31.227055
 20
31.338123
 30
0.0
 11
32.923318
 21
31.096623
 31
0.0
  0
LINE
  5
B7
330
1F
100
AcDbEntity
  8
1
370
    13
100
AcDbLine
 10
33.59724
 20
30.74761
 30
0.0
 11
39.710381
 21
24.535695
 31
0.0
  0
LINE
  5
B8
330
1F
100
AcDbEntity
  8
1
370
    13
100
AcDbLine
 10
40.0
 20
23.905597
 30
0.0
 11
40.0
 21
22.423426
 31
0.0
  0
LINE
  5
B9
330
1F
100
AcDbEntity
  8
1
370
    13
100
AcDbLine
 10
39.710381
 20
21.875796
 30
0.0
 11
33.59724
 21
17.404561
 31
0.0
  0
LINE
  5
BA
330
1F
100
AcDbEntity
  8
1
370
    13
100
AcDbLine
 10
32.923318
 20
17.247444
 30
0.0
 11
31.227055
 21
17.488944
 31
0.0
  0
LINE
  5
BB
330
1F
100
AcDbEntity
  8
1
370
    13
100
AcDbLine
 10
30.553132
 20
17.837957
 30
0.0
 11
24.439992
 21
24.049873
 31
0.0
  0
LINE
  5
BC
330
1F
100
AcDbEntity
  8
1
370
    13
100
AcDbLine
 10
34.27839
 20
31.540626
 30
0.0
 11
31.911688
 21
31.877578
 31
0.0
  0
LINE
  5
BD
330
1F
100
AcDbEntity
  8
1
370
    13
100
AcDbLine
 10
38.941119
 20
27.138357
 30
0.0
 11
34.952313
 21
31.191613
 31
0.0
  0
LINE
  5
BE
330
1F
100
AcDbEntity
  8
1
370
    13
100
AcDbLine
 10
25.86111
 20
27.768778
 30
0.0
 11
24.439992
 21
26.709771
 31
0.0
  0
LINE
  5
BF
330
1F
100
AcDbEntity
  8
1
370
    13
100
AcDbLine
 10
31.237765
 20
31.720461
 30
0.0
 11
30.977434
 21
31.530051
 31
0.0
  0
LINE
  5
C0
330
1F
100
AcDbEntity
  8
1
370
    13
100
AcDbLine
 10
30.023964
 20
-37.169648
 30
0.0
 11
30.553132
 21
-37.730558
 31
0.0
  0
LINE
  5
C1
330
1F
100
AcDbEntity
  8
1
370
    13
100
AcDbLine
 10
38.499982
 20
-27.282426
 30
0.0
 11
38.941119
 21
-27.750024
 31
0.0
  0
LINE
  5
C2
330
1F
100
AcDbEntity
  8
1
370
    13
100
AcDbLine
 10
39.230738
 20
-28.45149
 30
0.0
 11
39.230738
 21
-30.880827
 31
0.0
  0
LINE
  5
C3
330
1F
100
AcDbEntity
  8
1
370
    13
100
AcDbLine
 10
38.941119
 20
-31.562876
 30
0.0
 11
34.952313
 21
-35.523545
 31
0.0
  0
LINE
  5
C4
330
1F
100
AcDbEntity
  8
1
370
    13
100
AcDbLine
 10
31.227055
 20
-38.050431
 30
0.0
 11
32.923318
 21
-38.107288
 31
0.0
  0
LINE
  5
C5
330
1F
100
AcDbEntity
  8
1
370
    13
100
AcDbLine
 10
33.59724
 20
-37.832594
 30
0.0
 11
39.710381
 21
-31.762576
 31
0.0
  0
LINE
  5
C6
330
1F
100
AcDbEntity
  8
1
370
    13
100
AcDbLine
 10
40.0
 20
-31.080526
 30
0.0
 11
40.0
 21
-29.339371
 31
0.0
  0
LINE
  5
C7
330
1F
100
AcDbEntity
  8
1
370
    13
100
AcDbLine
 10
35.126923
 20
-13.371934
 30
0.0
 11
34.313311
 21
-13.572994
 31
0.0
  0
LINE
  5
C8
330
1F
100
AcDbEntity
  8
1
370
    13
100
AcDbLine
 10
32.442784
 20
-10.634032
 30
0.0
 11
34.102939
 21
-10.223775
 31
0.0
  0
LINE
  5
C9
330
1F
100
AcDbEntity
  8
1
370
    13
100
AcDbLine
 10
38.370614
 20
-13.689501
 30
0.0
 11
35.666061
 21
-13.327013
 31
0.0
  0
LINE
  5
CA
330
1F
100
AcDbEntity
  8
1
370
    13
100
AcDbLine
 10
38.602309
 20
-14.9465
 30
0.0
 11
38.602309
 21
-13.837736
 31
0.0
  0
LINE
  5
CB
330
1F
100
AcDbEntity
  8
1
370
    13
100
AcDbLine
 10
34.642077
 20
-10.178854
 30
0.0
 11
38.95192
 21
-10.756498
 31
0.0
  0
LINE
  5
CC
330
1F
100
AcDbEntity
  8
1
370
    13
100
AcDbLine
 10
39.183615
 20
-10.904733
 30
0.0
 11
39.183615
 21
-11.820395
 31
0.0
  0
LINE
  5
CD
330
1F
100
AcDbEntity
  8
1
370
    13
100
AcDbLine
 10
34.102939
 20
31.693323
 30
0.0
 11
31.700563
 21
32.035354
 31
0.0
  0
LINE
  5
CE
330
1F
100
AcDbEntity
  8
1
370
    13
100
AcDbLine
 10
32.217918
 20
32.443003
 30
0.0
 11
35.126923
 21
32.028842
 31
0.0
  0
LINE
  5
CF
330
1F
100
AcDbEntity
  8
1
370
    13
100
AcDbLine
 10
35.666061
 20
31.749632
 30
0.0
 11
38.370614
 21
29.001379
 31
0.0
  0
LINE
  5
D0
330
1F
100
AcDbEntity
  8
1
370
    13
100
AcDbLine
 10
31.203582
 20
31.969742
 30
0.0
 11
31.67878
 21
32.317309
 31
0.0
  0
LINE
  5
D1
330
1F
100
AcDbEntity
  8
1
370
    13
100
AcDbLine
 10
39.215496
 20
20.433863
 30
0.0
 11
39.527456
 21
21.742017
 31
0.0
  0
LINE
  5
D2
330
1F
100
AcDbEntity
  8
1
370
    13
100
AcDbLine
 10
39.999404
 20
-9.390847
 30
0.0
 11
39.230142
 21
-5.09077
 31
0.0
  0
LINE
  5
D3
330
1F
100
AcDbEntity
  8
1
370
    13
100
AcDbLine
 10
38.977634
 20
-27.898866
 30
0.0
 11
38.500009
 21
-27.347592
 31
0.0
  0
LINE
  5
D4
330
1F
100
AcDbEntity
  8
1
370
    13
100
AcDbLine
 10
38.590115
 20
17.999351
 30
0.0
 11
39.117206
 21
20.209621
 31
0.0
  0
LINE
  5
D5
330
1F
100
AcDbEntity
  8
1
370
    13
100
AcDbLine
 10
39.183139
 20
-5.076279
 30
0.0
 11
38.601832
 21
-1.82685
 31
0.0
  0
LINE
  5
D6
102
{ACAD_REACTORS
330
40B
102
}
330
1F
100
AcDbEntity
  8
1
370
    13
100
AcDbLine
 10
1.0
 20
-24.0
 30
0.0
 11
11.0
 21
-24.0
 31
0.0
  0
LINE
  5
D7
102
{ACAD_REACTORS
330
40B
102
}
330
1F
100
AcDbEntity
  8
1
370
    13
100
AcDbLine
 10
11.0
 20
24.0
 30
0.0
 11
1.0
 21
24.0
 31
0.0
  0
LINE
  5
D8
330
1F
100
AcDbEntity
  8
1
370
    13
100
AcDbLine
 10
1.0
 20
24.0
 30
0.0
 11
0.0
 21
23.0
 31
0.0
  0
LINE
  5
D9
330
1F
100
AcDbEntity
  8
1
370
    13
100
AcDbLine
 10
0.0
 20
-23.0
 30
0.0
 11
1.0
 21
-24.0
 31
0.0
  0
LINE
  5
DA
330
1F
100
AcDbEntity
  8
1
370
    13
100
AcDbLine
 10
24.445163
 20
37.5
 30
0.0
 11
23.0
 21
37.5
 31
0.0
  0
LINE
  5
DB
330
1F
100
AcDbEntity
  8
1
370
    13
100
AcDbLine
 10
28.400465
 20
37.5
 30
0.0
 11
27.0197
 21
37.5
 31
0.0
  0
LINE
  5
DC
330
1F
100
AcDbEntity
  8
1
370
    13
100
AcDbLine
 10
34.523713
 20
23.377883
 30
0.0
 11
34.851149
 21
24.037676
 31
0.0
  0
LINE
  5
DD
330
1F
100
AcDbEntity
  8
1
370
    13
100
AcDbLine
 10
30.1932
 20
26.34928
 30
0.0
 11
29.865764
 21
25.689487
 31
0.0
  0
LINE
  5
DE
330
1F
100
AcDbEntity
  8
1
370
    13
100
AcDbLine
 10
31.372423
 20
25.442471
 30
0.0
 11
31.541142
 21
25.782446
 31
0.0
  0
LINE
  5
DF
330
1F
100
AcDbEntity
  8
1
370
    13
100
AcDbLine
 10
33.32783
 20
24.25112
 30
0.0
 11
32.880706
 21
23.350152
 31
0.0
  0
LINE
  5
E0
330
1F
100
AcDbEntity
  8
1
370
    13
100
AcDbLine
 10
39.843483
 20
-8.519272
 30
0.0
 11
39.997564
 21
-7.690669
 31
0.0
  0
LINE
  5
E1
330
1F
100
AcDbEntity
  8
1
370
    13
100
AcDbLine
 10
39.228302
 20
-11.827547
 30
0.0
 11
39.609207
 21
-9.779146
 31
0.0
  0
LINE
  5
E2
330
1F
100
AcDbEntity
  8
1
370
    13
100
AcDbLine
 10
39.968805
 20
24.114348
 30
0.0
 11
39.199543
 21
26.71701
 31
0.0
  0
LINE
  5
E3
330
1F
100
AcDbEntity
  8
1
370
    13
100
AcDbLine
 10
39.742523
 20
-28.673452
 30
0.0
 11
38.973261
 21
-27.785571
 31
0.0
  0
LINE
  5
E4
330
1F
100
AcDbEntity
  8
1
370
    13
100
AcDbLine
 10
38.60036
 20
-14.966975
 30
0.0
 11
39.181667
 21
-11.840871
 31
0.0
  0
LINE
  5
E5
330
1F
100
AcDbEntity
  8
1
370
    13
100
AcDbLine
 10
39.077531
 20
26.972039
 30
0.0
 11
38.577353
 21
28.664302
 31
0.0
  0
LINE
  5
E6
330
1F
100
AcDbEntity
  8
1
370
    13
100
AcDbLine
 10
36.884525
 20
3.690865
 30
0.0
 11
36.534318
 21
4.277315
 31
0.0
  0
LINE
  5
E7
102
{ACAD_REACTORS
330
457
330
471
102
}
330
1F
100
AcDbEntity
  8
81
370
    18
100
AcDbLine
 10
40.0
 20
30.475
 30
0.0
 11
40.0
 21
32.475
 31
0.0
  0
LINE
  5
E8
330
1F
100
AcDbEntity
  8
1
370
    13
100
AcDbLine
 10
1.0
 20
5.2275
 30
0.0
 11
0.028125
 21
6.199375
 31
0.0
  0
LINE
  5
E9
102
{ACAD_REACTORS
330
471
102
}
330
1F
100
AcDbEntity
  8
1
370
    13
100
AcDbLine
 10
0.0
 20
23.0
 30
0.0
 11
0.0
 21
6.2275
 31
0.0
  0
LINE
  5
EA
102
{ACAD_REACTORS
330
489
102
}
330
1F
100
AcDbEntity
  8
1
370
    13
100
AcDbLine
 10
0.0
 20
-6.2275
 30
0.0
 11
0.0
 21
-23.0
 31
0.0
  0
LINE
  5
EB
330
1F
100
AcDbEntity
  8
SK3
370
    18
100
AcDbLine
 10
7.705858
 20
11.00325
 30
0.0
 11
6.6
 21
11.1
 31
0.0
  0
LINE
  5
EC
330
1F
100
AcDbEntity
  8
SK3
370
    18
100
AcDbLine
 10
16.0
 20
11.00325
 30
0.0
 11
7.705858
 21
11.00325
 31
0.0
  0
LINE
  5
ED
330
1F
100
AcDbEntity
  8
SK3
370
    18
100
AcDbLine
 10
18.838128
 20
12.641844
 30
0.0
 11
16.0
 21
11.00325
 31
0.0
  0
LINE
  5
EE
330
1F
100
AcDbEntity
  8
SK3
370
    18
100
AcDbLine
 10
21.156418
 20
10.393244
 30
0.0
 11
19.344546
 21
12.552549
 31
0.0
  0
LINE
  5
EF
330
1F
100
AcDbEntity
  8
SK3
370
    18
100
AcDbLine
 10
21.25
 20
6.0
 30
0.0
 11
21.25
 21
10.136129
 31
0.0
  0
LINE
  5
F0
330
1F
100
AcDbEntity
  8
SK3
370
    18
100
AcDbLine
 10
21.25
 20
6.0
 30
0.0
 11
21.75
 21
5.5
 31
0.0
  0
LINE
  5
F1
330
1F
100
AcDbEntity
  8
SK3
370
    18
100
AcDbLine
 10
25.25
 20
5.5
 30
0.0
 11
21.75
 21
5.5
 31
0.0
  0
LINE
  5
F2
330
1F
100
AcDbEntity
  8
SK3
370
    18
100
AcDbLine
 10
25.25
 20
5.5
 30
0.0
 11
25.75
 21
6.0
 31
0.0
  0
LINE
  5
F3
330
1F
100
AcDbEntity
  8
SK3
370
    18
100
AcDbLine
 10
25.75
 20
8.65
 30
0.0
 11
25.75
 21
6.0
 31
0.0
  0
LINE
  5
F4
330
1F
100
AcDbEntity
  8
SK3
370
    18
100
AcDbLine
 10
31.5
 20
9.05
 30
0.0
 11
26.15
 21
9.05
 31
0.0
  0
LINE
  5
F5
330
1F
100
AcDbEntity
  8
SK3
370
    18
100
AcDbLine
 10
31.5
 20
9.05
 30
0.0
 11
26.15
 21
9.05
 31
0.0
  0
LINE
  5
F6
330
1F
100
AcDbEntity
  8
SK4
370
    18
100
AcDbLine
 10
-2.0
 20
0.0
 30
0.0
 11
42.0
 21
0.0
 31
0.0
  0
LINE
  5
F7
330
1F
100
AcDbEntity
  8
4
370
    18
100
AcDbLine
 10
-2.0
 20
0.0
 30
0.0
 11
42.0
 21
0.0
 31
0.0
  0
LINE
  5
F8
330
1F
100
AcDbEntity
  8
1
370
    18
100
AcDbLine
 10
40.0
 20
25.055912
 30
0.0
 11
39.710381
 21
25.50767
 31
0.0
  0
LINE
  5
F9
330
1F
100
AcDbEntity
  8
1
370
    18
100
AcDbLine
 10
32.923318
 20
17.186197
 30
0.0
 11
33.11976
 21
17.238662
 31
0.0
  0
LINE
  5
FA
330
1F
100
AcDbEntity
  8
1
370
    18
100
AcDbLine
 10
34.27839
 20
15.941351
 30
0.0
 11
34.952313
 21
16.281884
 31
0.0
  0
LINE
  5
FB
330
1F
100
AcDbEntity
  8
1
370
    18
100
AcDbLine
 10
31.6527
 20
15.488655
 30
0.0
 11
31.911688
 21
15.507402
 31
0.0
  0
LINE
  5
FC
330
1F
100
AcDbEntity
  8
1
370
    18
100
AcDbLine
 10
38.941119
 20
20.001429
 30
0.0
 11
39.215496
 21
20.433864
 31
0.0
  0
LINE
  5
FD
330
1F
100
AcDbEntity
  8
1
370
    18
100
AcDbLine
 10
30.553132
 20
-8.592336
 30
0.0
 11
31.227055
 21
-8.824933
 31
0.0
  0
LINE
  5
FE
330
1F
100
AcDbEntity
  8
1
370
    18
100
AcDbLine
 10
34.626097
 20
-5.314511
 30
0.0
 11
34.952313
 21
-5.356656
 31
0.0
  0
LINE
  5
FF
330
1F
100
AcDbEntity
  8
1
370
    18
100
AcDbLine
 10
32.923318
 20
-9.267674
 30
0.0
 11
33.59724
 21
-9.386878
 31
0.0
  0
LINE
  5
100
330
1F
100
AcDbEntity
  8
1
370
    18
100
AcDbLine
 10
39.230738
 20
-5.097272
 30
0.0
 11
39.173125
 21
-5.020319
 31
0.0
  0
LINE
  5
101
330
1F
100
AcDbEntity
  8
1
370
    18
100
AcDbLine
 10
38.941119
 20
-5.616917
 30
0.0
 11
39.230738
 21
-5.560582
 31
0.0
  0
LINE
  5
102
330
1F
100
AcDbEntity
  8
1
370
    18
100
AcDbLine
 10
39.710381
 20
-9.785748
 30
0.0
 11
40.0
 21
-9.729413
 31
0.0
  0
LINE
  5
103
330
1F
100
AcDbEntity
  8
1
370
    18
100
AcDbLine
 10
38.602309
 20
-27.760658
 30
0.0
 11
38.500002
 21
-27.375698
 31
0.0
  0
LINE
  5
104
330
1F
100
AcDbEntity
  8
1
370
    18
100
AcDbLine
 10
38.370614
 20
-31.292289
 30
0.0
 11
38.602309
 21
-30.74665
 31
0.0
  0
LINE
  5
105
330
1F
100
AcDbEntity
  8
1
370
    18
100
AcDbLine
 10
35.126923
 20
-34.197519
 30
0.0
 11
35.666061
 21
-33.977764
 31
0.0
  0
LINE
  5
106
330
1F
100
AcDbEntity
  8
1
370
    18
100
AcDbLine
 10
31.273961
 20
-35.706593
 30
0.0
 11
31.700563
 21
-35.861867
 31
0.0
  0
LINE
  5
107
330
1F
100
AcDbEntity
  8
1
370
    18
100
AcDbLine
 10
34.102939
 20
-35.942392
 30
0.0
 11
34.642077
 21
-35.722637
 31
0.0
  0
LINE
  5
108
330
1F
100
AcDbEntity
  8
1
370
    18
100
AcDbLine
 10
38.95192
 20
-31.443196
 30
0.0
 11
39.183615
 21
-30.897556
 31
0.0
  0
LINE
  5
109
330
1F
100
AcDbEntity
  8
1
370
    18
100
AcDbLine
 10
39.183615
 20
-28.431601
 30
0.0
 11
38.97764
 21
-27.898873
 31
0.0
  0
LINE
  5
10A
330
1F
100
AcDbEntity
  8
1
370
    18
100
AcDbLine
 10
34.102939
 20
15.799683
 30
0.0
 11
34.642077
 21
16.072109
 31
0.0
  0
LINE
  5
10B
330
1F
100
AcDbEntity
  8
1
370
    18
100
AcDbLine
 10
35.126923
 20
14.858993
 30
0.0
 11
35.666061
 21
15.131419
 31
0.0
  0
LINE
  5
10C
330
1F
100
AcDbEntity
  8
1
370
    18
100
AcDbLine
 10
38.370614
 20
17.653404
 30
0.0
 11
38.590116
 21
17.999351
 31
0.0
  0
LINE
  5
10D
330
1F
100
AcDbEntity
  8
1
370
    18
100
AcDbLine
 10
38.602309
 20
-1.832052
 30
0.0
 11
38.500003
 21
-1.732586
 31
0.0
  0
LINE
  5
10E
330
1F
100
AcDbEntity
  8
1
370
    18
100
AcDbLine
 10
38.370614
 20
-2.446592
 30
0.0
 11
38.602309
 21
-2.401524
 31
0.0
  0
LINE
  5
10F
330
1F
100
AcDbEntity
  8
1
370
    18
100
AcDbLine
 10
35.126923
 20
-2.174763
 30
0.0
 11
35.666061
 21
-2.270126
 31
0.0
  0
LINE
  5
110
330
1F
100
AcDbEntity
  8
1
370
    18
100
AcDbLine
 10
31.759249
 20
-1.264275
 30
0.0
 11
32.217918
 21
-1.415484
 31
0.0
  0
LINE
  5
111
330
1F
100
AcDbEntity
  8
1
370
    18
100
AcDbLine
 10
31.229661
 20
-4.436941
 30
0.0
 11
31.700563
 21
-4.593227
 31
0.0
  0
LINE
  5
112
330
1F
100
AcDbEntity
  8
1
370
    18
100
AcDbLine
 10
34.102939
 20
-5.220271
 30
0.0
 11
34.642077
 21
-5.315634
 31
0.0
  0
LINE
  5
113
330
1F
100
AcDbEntity
  8
1
370
    18
100
AcDbLine
 10
38.95192
 20
-5.596842
 30
0.0
 11
39.183615
 21
-5.551774
 31
0.0
  0
LINE
  5
114
330
1F
100
AcDbEntity
  8
1
370
    18
100
AcDbLine
 10
31.323591
 20
-4.018994
 30
0.0
 11
31.349469
 21
-3.744239
 31
0.0
  0
LINE
  5
115
330
1F
100
AcDbEntity
  8
1
370
    18
100
AcDbLine
 10
31.323591
 20
-35.619193
 30
0.0
 11
31.349469
 21
-35.540871
 31
0.0
  0
LINE
  5
116
330
1F
100
AcDbEntity
  8
1
370
    18
100
AcDbLine
 10
31.323591
 20
32.18315
 30
0.0
 11
31.349469
 21
32.290873
 31
0.0
  0
LINE
  5
117
330
1F
100
AcDbEntity
  8
1
370
    18
100
AcDbLine
 10
31.323591
 20
32.18315
 30
0.0
 11
31.003165
 21
31.551209
 31
0.0
  0
LINE
  5
118
330
1F
100
AcDbEntity
  8
1
370
    18
100
AcDbLine
 10
33.645199
 20
-26.735038
 30
0.0
 11
33.503921
 21
-26.863072
 31
0.0
  0
LINE
  5
119
330
1F
100
AcDbEntity
  8
1
370
    18
100
AcDbLine
 10
35.940924
 20
-30.555211
 30
0.0
 11
36.005907
 21
-30.525745
 31
0.0
  0
LINE
  5
11A
330
1F
100
AcDbEntity
  8
1
370
    18
100
AcDbLine
 10
34.492284
 20
-13.662901
 30
0.0
 11
35.511697
 21
-13.397947
 31
0.0
  0
LINE
  5
11B
330
1F
100
AcDbEntity
  8
1
370
    18
100
AcDbLine
 10
32.126564
 20
25.671565
 30
0.0
 11
32.146865
 21
25.618267
 31
0.0
  0
LINE
  5
11C
330
1F
100
AcDbEntity
  8
1
370
    18
100
AcDbLine
 10
32.126564
 20
25.671565
 30
0.0
 11
32.067797
 21
25.754963
 31
0.0
  0
LINE
  5
11D
330
1F
100
AcDbEntity
  8
1
370
    18
100
AcDbLine
 10
31.404795
 20
25.694127
 30
0.0
 11
31.396836
 21
25.604606
 31
0.0
  0
LINE
  5
11E
330
1F
100
AcDbEntity
  8
1
370
    18
100
AcDbLine
 10
31.408099
 20
25.550479
 30
0.0
 11
31.396836
 21
25.604606
 31
0.0
  0
LINE
  5
11F
330
1F
100
AcDbEntity
  8
1
370
    18
100
AcDbLine
 10
30.862637
 20
25.213886
 30
0.0
 11
30.922748
 21
25.195486
 31
0.0
  0
LINE
  5
120
330
1F
100
AcDbEntity
  8
1
370
    18
100
AcDbLine
 10
30.862637
 20
25.213886
 30
0.0
 11
30.758889
 21
25.221703
 31
0.0
  0
LINE
  5
121
330
1F
100
AcDbEntity
  8
1
370
    18
100
AcDbLine
 10
30.581238
 20
24.667673
 30
0.0
 11
30.667107
 21
24.604098
 31
0.0
  0
LINE
  5
122
330
1F
100
AcDbEntity
  8
1
370
    18
100
AcDbLine
 10
30.724796
 20
24.578146
 30
0.0
 11
30.667107
 21
24.604098
 31
0.0
  0
LINE
  5
123
330
1F
100
AcDbEntity
  8
1
370
    18
100
AcDbLine
 10
30.862637
 20
23.938633
 30
0.0
 11
30.902447
 21
23.973531
 31
0.0
  0
LINE
  5
124
330
1F
100
AcDbEntity
  8
1
370
    18
100
AcDbLine
 10
30.862637
 20
23.938633
 30
0.0
 11
30.817656
 21
23.863051
 31
0.0
  0
LINE
  5
125
330
1F
100
AcDbEntity
  8
1
370
    18
100
AcDbLine
 10
31.303007
 20
23.369857
 30
0.0
 11
31.396836
 21
23.395803
 31
0.0
  0
LINE
  5
126
330
1F
100
AcDbEntity
  8
1
370
    18
100
AcDbLine
 10
31.443261
 20
23.423979
 30
0.0
 11
31.396836
 21
23.395803
 31
0.0
  0
LINE
  5
127
330
1F
100
AcDbEntity
  8
1
370
    18
100
AcDbLine
 10
32.126564
 20
23.121058
 30
0.0
 11
32.106264
 21
23.174357
 31
0.0
  0
LINE
  5
128
330
1F
100
AcDbEntity
  8
1
370
    18
100
AcDbLine
 10
32.126564
 20
23.121058
 30
0.0
 11
32.185331
 21
23.03766
 31
0.0
  0
LINE
  5
129
330
1F
100
AcDbEntity
  8
1
370
    18
100
AcDbLine
 10
32.848334
 20
23.098496
 30
0.0
 11
32.856293
 21
23.188017
 31
0.0
  0
LINE
  5
12A
330
1F
100
AcDbEntity
  8
1
370
    18
100
AcDbLine
 10
32.84503
 20
23.242145
 30
0.0
 11
32.856293
 21
23.188017
 31
0.0
  0
LINE
  5
12B
330
1F
100
AcDbEntity
  8
1
370
    18
100
AcDbLine
 10
33.390492
 20
23.578737
 30
0.0
 11
33.330381
 21
23.597137
 31
0.0
  0
LINE
  5
12C
330
1F
100
AcDbEntity
  8
1
370
    18
100
AcDbLine
 10
33.390492
 20
23.578737
 30
0.0
 11
33.49424
 21
23.570921
 31
0.0
  0
LINE
  5
12D
330
1F
100
AcDbEntity
  8
1
370
    18
100
AcDbLine
 10
33.671891
 20
24.124951
 30
0.0
 11
33.586022
 21
24.188526
 31
0.0
  0
LINE
  5
12E
330
1F
100
AcDbEntity
  8
1
370
    18
100
AcDbLine
 10
33.528333
 20
24.214478
 30
0.0
 11
33.586022
 21
24.188526
 31
0.0
  0
LINE
  5
12F
330
1F
100
AcDbEntity
  8
1
370
    18
100
AcDbLine
 10
33.390492
 20
24.85399
 30
0.0
 11
33.350682
 21
24.819092
 31
0.0
  0
LINE
  5
130
330
1F
100
AcDbEntity
  8
1
370
    18
100
AcDbLine
 10
33.390492
 20
24.85399
 30
0.0
 11
33.435473
 21
24.929572
 31
0.0
  0
LINE
  5
131
330
1F
100
AcDbEntity
  8
1
370
    18
100
AcDbLine
 10
32.950122
 20
25.422766
 30
0.0
 11
32.856293
 21
25.396821
 31
0.0
  0
LINE
  5
132
330
1F
100
AcDbEntity
  8
1
370
    18
100
AcDbLine
 10
32.809868
 20
25.368645
 30
0.0
 11
32.856293
 21
25.396821
 31
0.0
  0
LINE
  5
133
330
1F
100
AcDbEntity
  8
1
370
    18
100
AcDbLine
 10
35.159784
 20
-29.617115
 30
0.0
 11
35.873458
 21
-29.525934
 31
0.0
  0
LINE
  5
134
330
1F
100
AcDbEntity
  8
1
370
    18
100
AcDbLine
 10
34.952313
 20
-10.179977
 30
0.0
 11
34.626097
 21
-10.176869
 31
0.0
  0
LINE
  5
135
330
1F
100
AcDbEntity
  8
1
370
    18
100
AcDbLine
 10
39.230738
 20
-10.899887
 30
0.0
 11
38.941119
 21
-10.714593
 31
0.0
  0
LINE
  5
136
330
1F
100
AcDbEntity
  8
1
370
    18
100
AcDbLine
 10
39.161118
 20
-11.95137
 30
0.0
 11
39.230738
 21
-11.801952
 31
0.0
  0
LINE
  5
137
330
1F
100
AcDbEntity
  8
1
370
    18
100
AcDbLine
 10
40.0
 20
-7.018546
 30
0.0
 11
39.710381
 21
-6.833252
 31
0.0
  0
LINE
  5
138
330
1F
100
AcDbEntity
  8
1
370
    18
100
AcDbLine
 10
24.150373
 20
24.67997
 30
0.0
 11
24.439992
 21
24.049873
 31
0.0
  0
LINE
  5
139
330
1F
100
AcDbEntity
  8
1
370
    18
100
AcDbLine
 10
24.439992
 20
26.709771
 30
0.0
 11
24.150373
 21
26.162141
 31
0.0
  0
LINE
  5
13A
330
1F
100
AcDbEntity
  8
1
370
    18
100
AcDbLine
 10
31.227055
 20
31.338123
 30
0.0
 11
30.553132
 21
31.181006
 31
0.0
  0
LINE
  5
13B
330
1F
100
AcDbEntity
  8
1
370
    18
100
AcDbLine
 10
33.59724
 20
30.74761
 30
0.0
 11
32.923318
 21
31.096623
 31
0.0
  0
LINE
  5
13C
330
1F
100
AcDbEntity
  8
1
370
    18
100
AcDbLine
 10
40.0
 20
23.905597
 30
0.0
 11
39.710381
 21
24.535695
 31
0.0
  0
LINE
  5
13D
330
1F
100
AcDbEntity
  8
1
370
    18
100
AcDbLine
 10
39.710381
 20
21.875796
 30
0.0
 11
40.0
 21
22.423426
 31
0.0
  0
LINE
  5
13E
330
1F
100
AcDbEntity
  8
1
370
    18
100
AcDbLine
 10
32.923318
 20
17.247444
 30
0.0
 11
33.59724
 21
17.404561
 31
0.0
  0
LINE
  5
13F
330
1F
100
AcDbEntity
  8
1
370
    18
100
AcDbLine
 10
30.553132
 20
17.837957
 30
0.0
 11
31.227055
 21
17.488944
 31
0.0
  0
LINE
  5
140
330
1F
100
AcDbEntity
  8
1
370
    18
100
AcDbLine
 10
34.952313
 20
31.191613
 30
0.0
 11
34.27839
 21
31.540626
 31
0.0
  0
LINE
  5
141
330
1F
100
AcDbEntity
  8
1
370
    18
100
AcDbLine
 10
31.911688
 20
31.877578
 30
0.0
 11
31.237765
 21
31.720461
 31
0.0
  0
LINE
  5
142
330
1F
100
AcDbEntity
  8
1
370
    18
100
AcDbLine
 10
39.199541
 20
26.717015
 30
0.0
 11
38.941119
 21
27.138357
 31
0.0
  0
LINE
  5
143
330
1F
100
AcDbEntity
  8
1
370
    18
100
AcDbLine
 10
34.723093
 20
23.037133
 30
0.0
 11
35.027273
 21
23.492945
 31
0.0
  0
LINE
  5
144
330
1F
100
AcDbEntity
  8
1
370
    18
100
AcDbLine
 10
39.230738
 20
-28.45149
 30
0.0
 11
38.941119
 21
-27.750024
 31
0.0
  0
LINE
  5
145
330
1F
100
AcDbEntity
  8
1
370
    18
100
AcDbLine
 10
38.941119
 20
-31.562876
 30
0.0
 11
39.230738
 21
-30.880827
 31
0.0
  0
LINE
  5
146
330
1F
100
AcDbEntity
  8
1
370
    18
100
AcDbLine
 10
34.626096
 20
-35.738083
 30
0.0
 11
34.952313
 21
-35.523545
 31
0.0
  0
LINE
  5
147
330
1F
100
AcDbEntity
  8
1
370
    18
100
AcDbLine
 10
30.553132
 20
-37.730558
 30
0.0
 11
31.227055
 21
-38.050431
 31
0.0
  0
LINE
  5
148
330
1F
100
AcDbEntity
  8
1
370
    18
100
AcDbLine
 10
32.923318
 20
-38.107288
 30
0.0
 11
33.59724
 21
-37.832594
 31
0.0
  0
LINE
  5
149
330
1F
100
AcDbEntity
  8
1
370
    18
100
AcDbLine
 10
39.710381
 20
-31.762576
 30
0.0
 11
40.0
 21
-31.080526
 31
0.0
  0
LINE
  5
14A
330
1F
100
AcDbEntity
  8
1
370
    18
100
AcDbLine
 10
40.0
 20
-29.339371
 30
0.0
 11
39.74253
 21
-28.673461
 31
0.0
  0
LINE
  5
14B
330
1F
100
AcDbEntity
  8
1
370
    18
100
AcDbLine
 10
35.666061
 20
-13.327013
 30
0.0
 11
35.126923
 21
-13.371934
 31
0.0
  0
LINE
  5
14C
330
1F
100
AcDbEntity
  8
1
370
    18
100
AcDbLine
 10
38.602309
 20
-13.837736
 30
0.0
 11
38.370614
 21
-13.689501
 31
0.0
  0
LINE
  5
14D
330
1F
100
AcDbEntity
  8
1
370
    18
100
AcDbLine
 10
38.500003
 20
-15.113452
 30
0.0
 11
38.602309
 21
-14.9465
 31
0.0
  0
LINE
  5
14E
330
1F
100
AcDbEntity
  8
1
370
    18
100
AcDbLine
 10
34.642077
 20
-10.178854
 30
0.0
 11
34.102939
 21
-10.223775
 31
0.0
  0
LINE
  5
14F
330
1F
100
AcDbEntity
  8
1
370
    18
100
AcDbLine
 10
39.183615
 20
-10.904733
 30
0.0
 11
38.95192
 21
-10.756498
 31
0.0
  0
LINE
  5
150
330
1F
100
AcDbEntity
  8
1
370
    18
100
AcDbLine
 10
34.642077
 20
31.414113
 30
0.0
 11
34.102939
 21
31.693323
 31
0.0
  0
LINE
  5
151
330
1F
100
AcDbEntity
  8
1
370
    18
100
AcDbLine
 10
31.700563
 20
32.035354
 30
0.0
 11
31.161425
 21
31.90966
 31
0.0
  0
LINE
  5
152
330
1F
100
AcDbEntity
  8
1
370
    18
100
AcDbLine
 10
35.666061
 20
31.749632
 30
0.0
 11
35.126923
 21
32.028842
 31
0.0
  0
LINE
  5
153
330
1F
100
AcDbEntity
  8
1
370
    18
100
AcDbLine
 10
32.217918
 20
32.443003
 30
0.0
 11
31.67878
 21
32.317309
 31
0.0
  0
LINE
  5
154
330
1F
100
AcDbEntity
  8
1
370
    18
100
AcDbLine
 10
38.577352
 20
28.664305
 30
0.0
 11
38.370614
 21
29.001379
 31
0.0
  0
LINE
  5
155
330
1F
100
AcDbEntity
  8
1
370
    18
100
AcDbLine
 10
35.900971
 20
4.619392
 30
0.0
 11
35.824636
 21
4.646534
 31
0.0
  0
LINE
  5
156
330
1F
100
AcDbEntity
  8
1
370
    18
100
AcDbLine
 10
36.191908
 20
4.167022
 30
0.0
 11
36.544261
 21
4.230587
 31
0.0
  0
LINE
  5
157
330
1F
100
AcDbEntity
  8
1
370
    18
100
AcDbLine
 10
33.714301
 20
-26.854893
 30
0.0
 11
33.500051
 21
-26.974665
 31
0.0
  0
LINE
  5
158
330
1F
100
AcDbEntity
  8
1
370
    18
100
AcDbLine
 10
34.932483
 20
-26.585561
 30
0.0
 11
33.873539
 21
-26.570931
 31
0.0
  0
LINE
  5
159
330
1F
100
AcDbEntity
  8
1
370
    18
100
AcDbLine
 10
23.179633
 20
12.240494
 30
0.0
 11
23.25185
 21
12.277895
 31
0.0
  0
LINE
  5
15A
330
1F
100
AcDbEntity
  8
1
370
    18
100
AcDbLine
 10
23.363176
 20
12.131603
 30
0.0
 11
23.251183
 21
12.278138
 31
0.0
  0
LINE
  5
15B
330
1F
100
AcDbEntity
  8
1
370
    18
100
AcDbLine
 10
27.677459
 20
9.543574
 30
0.0
 11
27.527593
 21
9.566366
 31
0.0
  0
LINE
  5
15C
330
1F
100
AcDbEntity
  8
1
370
    18
100
AcDbLine
 10
32.019666
 20
7.576011
 30
0.0
 11
33.297105
 21
6.986246
 31
0.0
  0
LINE
  5
15D
330
1F
100
AcDbEntity
  8
1
370
    18
100
AcDbLine
 10
30.260957
 20
8.124878
 30
0.0
 11
32.019666
 21
7.576011
 31
0.0
  0
LINE
  5
15E
330
1F
100
AcDbEntity
  8
1
370
    18
100
AcDbLine
 10
29.683373
 20
8.396609
 30
0.0
 11
30.260957
 21
8.124878
 31
0.0
  0
LINE
  5
15F
330
1F
100
AcDbEntity
  8
1
370
    18
100
AcDbLine
 10
27.732367
 20
9.55835
 30
0.0
 11
29.683373
 21
8.396609
 31
0.0
  0
LINE
  5
160
330
1F
100
AcDbEntity
  8
1
370
    18
100
AcDbLine
 10
23.047344
 20
12.403871
 30
0.0
 11
23.251646
 21
12.278057
 31
0.0
  0
LINE
  5
161
330
1F
100
AcDbEntity
  8
1
370
    18
100
AcDbLine
 10
21.120755
 20
13.700294
 30
0.0
 11
23.047344
 21
12.403871
 31
0.0
  0
LINE
  5
162
330
1F
100
AcDbEntity
  8
1
370
    18
100
AcDbLine
 10
16.107945
 20
21.182291
 30
0.0
 11
16.148782
 21
20.728877
 31
0.0
  0
LINE
  5
163
330
1F
100
AcDbEntity
  8
1
370
    18
100
AcDbLine
 10
33.957705
 20
10.55393
 30
0.0
 11
32.940082
 21
11.638607
 31
0.0
  0
LINE
  5
164
330
1F
100
AcDbEntity
  8
1
370
    18
100
AcDbLine
 10
38.445905
 20
6.0699
 30
0.0
 11
38.182722
 21
6.436521
 31
0.0
  0
LINE
  5
165
330
1F
100
AcDbEntity
  8
1
370
    18
100
AcDbLine
 10
37.94682
 20
5.982976
 30
0.0
 11
38.445534
 21
5.485136
 31
0.0
  0
LINE
  5
166
330
1F
100
AcDbEntity
  8
1
370
    18
100
AcDbLine
 10
33.297105
 20
6.986246
 30
0.0
 11
34.431847
 21
6.335366
 31
0.0
  0
LINE
  5
167
330
1F
100
AcDbEntity
  8
1
370
    18
100
AcDbLine
 10
27.732367
 20
9.55835
 30
0.0
 11
27.677459
 21
9.543574
 31
0.0
  0
LINE
  5
168
330
1F
100
AcDbEntity
  8
1
370
    18
100
AcDbLine
 10
21.209456
 20
-5.06846
 30
0.0
 11
23.0
 21
-5.602839
 31
0.0
  0
LINE
  5
169
330
1F
100
AcDbEntity
  8
1
370
    18
100
AcDbLine
 10
16.397021
 20
-3.003135
 30
0.0
 11
16.172508
 21
-2.778382
 31
0.0
  0
LINE
  5
16A
330
1F
100
AcDbEntity
  8
1
370
    18
100
AcDbLine
 10
16.134103
 20
19.0133
 30
0.0
 11
16.0
 21
19.781672
 31
0.0
  0
LINE
  5
16B
330
1F
100
AcDbEntity
  8
1
370
    18
100
AcDbLine
 10
23.0
 20
-5.602839
 30
0.0
 11
29.63603
 21
-7.450315
 31
0.0
  0
LINE
  5
16C
330
1F
100
AcDbEntity
  8
1
370
    18
100
AcDbLine
 10
23.17963
 20
12.240548
 30
0.0
 11
23.0
 21
12.351414
 31
0.0
  0
LINE
  5
16D
330
1F
100
AcDbEntity
  8
1
370
    18
100
AcDbLine
 10
32.037526
 20
7.50644
 30
0.0
 11
30.278817
 21
8.055808
 31
0.0
  0
LINE
  5
16E
330
1F
100
AcDbEntity
  8
1
370
    18
100
AcDbLine
 10
31.542552
 20
-1.406403
 30
0.0
 11
32.037526
 21
-1.066291
 31
0.0
  0
LINE
  5
16F
330
1F
100
AcDbEntity
  8
1
370
    18
100
AcDbLine
 10
30.769465
 20
-6.533506
 30
0.0
 11
31.323591
 21
-4.018994
 31
0.0
  0
LINE
  5
170
330
1F
100
AcDbEntity
  8
1
370
    18
100
AcDbLine
 10
30.769465
 20
-6.533506
 30
0.0
 11
30.40367
 21
-7.585324
 31
0.0
  0
LINE
  5
171
330
1F
100
AcDbEntity
  8
1
370
    18
100
AcDbLine
 10
30.278817
 20
-7.568982
 30
0.0
 11
30.40367
 21
-7.585324
 31
0.0
  0
LINE
  5
172
330
1F
100
AcDbEntity
  8
1
370
    18
100
AcDbLine
 10
29.63603
 20
-7.450315
 30
0.0
 11
29.608502
 21
-7.526307
 31
0.0
  0
LINE
  5
173
330
1F
100
AcDbEntity
  8
1
370
    18
100
AcDbLine
 10
29.608502
 20
-7.526307
 30
0.0
 11
22.972472
 21
-5.683829
 31
0.0
  0
LINE
  5
174
330
1F
100
AcDbEntity
  8
1
370
    18
100
AcDbLine
 10
29.63603
 20
8.333282
 30
0.0
 11
29.683373
 21
8.396609
 31
0.0
  0
LINE
  5
175
330
1F
100
AcDbEntity
  8
1
370
    18
100
AcDbLine
 10
16.148782
 20
19.86754
 30
0.0
 11
16.0
 21
19.781672
 31
0.0
  0
LINE
  5
176
330
1F
100
AcDbEntity
  8
1
370
    18
100
AcDbLine
 10
23.047344
 20
12.403871
 30
0.0
 11
23.0
 21
12.351414
 31
0.0
  0
LINE
  5
177
330
1F
100
AcDbEntity
  8
1
370
    18
100
AcDbLine
 10
31.099513
 20
-2.805723
 30
0.0
 11
31.294946
 21
-3.568673
 31
0.0
  0
LINE
  5
178
330
1F
100
AcDbEntity
  8
1
370
    18
100
AcDbLine
 10
32.037526
 20
-1.066291
 30
0.0
 11
31.969246
 21
-1.156788
 31
0.0
  0
LINE
  5
179
330
1F
100
AcDbEntity
  8
1
370
    18
100
AcDbLine
 10
31.294959
 20
-3.56865
 30
0.0
 11
31.349475
 21
-3.744259
 31
0.0
  0
LINE
  5
17A
330
1F
100
AcDbEntity
  8
1
370
    18
100
AcDbLine
 10
30.278817
 20
-7.568982
 30
0.0
 11
30.186086
 21
-7.649345
 31
0.0
  0
LINE
  5
17B
330
1F
100
AcDbEntity
  8
1
370
    18
100
AcDbLine
 10
30.186086
 20
-7.649345
 30
0.0
 11
29.608502
 21
-7.526307
 31
0.0
  0
LINE
  5
17C
330
1F
100
AcDbEntity
  8
1
370
    18
100
AcDbLine
 10
30.362866
 20
-7.610937
 30
0.0
 11
30.221886
 21
-7.654009
 31
0.0
  0
LINE
  5
17D
330
1F
100
AcDbEntity
  8
1
370
    18
100
AcDbLine
 10
32.718405
 20
-1.125295
 30
0.0
 11
33.253302
 21
-1.429988
 31
0.0
  0
LINE
  5
17E
330
1F
100
AcDbEntity
  8
1
370
    18
100
AcDbLine
 10
33.253302
 20
-1.429988
 30
0.0
 11
33.194248
 21
-1.508757
 31
0.0
  0
LINE
  5
17F
330
1F
100
AcDbEntity
  8
1
370
    18
100
AcDbLine
 10
33.253302
 20
6.920239
 30
0.0
 11
32.037526
 21
7.50644
 31
0.0
  0
LINE
  5
180
330
1F
100
AcDbEntity
  8
1
370
    18
100
AcDbLine
 10
33.691134
 20
-1.78379
 30
0.0
 11
34.957731
 21
-1.894953
 31
0.0
  0
LINE
  5
181
330
1F
100
AcDbEntity
  8
1
370
    18
100
AcDbLine
 10
34.957731
 20
-1.894953
 30
0.0
 11
35.425502
 21
-2.083178
 31
0.0
  0
LINE
  5
182
330
1F
100
AcDbEntity
  8
1
370
    18
100
AcDbLine
 10
35.405164
 20
-2.182577
 30
0.0
 11
35.419861
 21
-2.12674
 31
0.0
  0
LINE
  5
183
330
1F
100
AcDbEntity
  8
1
370
    18
100
AcDbLine
 10
33.673317
 20
-1.779133
 30
0.0
 11
33.459182
 21
-1.709655
 31
0.0
  0
LINE
  5
184
330
1F
100
AcDbEntity
  8
1
370
    18
100
AcDbLine
 10
35.028627
 20
5.905528
 30
0.0
 11
34.962124
 21
5.948196
 31
0.0
  0
LINE
  5
185
330
1F
100
AcDbEntity
  8
1
370
    18
100
AcDbLine
 10
38.445741
 20
5.485214
 30
0.0
 11
38.5
 21
5.297194
 31
0.0
  0
LINE
  5
186
330
1F
100
AcDbEntity
  8
1
370
    18
100
AcDbLine
 10
38.5
 20
5.297194
 30
0.0
 11
38.5
 21
5.007327
 31
0.0
  0
LINE
  5
187
330
1F
100
AcDbEntity
  8
1
370
    18
100
AcDbLine
 10
38.416941
 20
4.889105
 30
0.0
 11
38.500025
 21
5.007315
 31
0.0
  0
LINE
  5
188
330
1F
100
AcDbEntity
  8
1
370
    18
100
AcDbLine
 10
33.090723
 20
7.899617
 30
0.0
 11
33.010438
 21
7.785321
 31
0.0
  0
LINE
  5
189
330
1F
100
AcDbEntity
  8
1
370
    18
100
AcDbLine
 10
35.552468
 20
-2.0982
 30
0.0
 11
35.642172
 21
-2.105209
 31
0.0
  0
LINE
  5
18A
330
1F
100
AcDbEntity
  8
1
370
    18
100
AcDbLine
 10
35.425508
 20
-2.083181
 30
0.0
 11
35.552468
 21
-2.0982
 31
0.0
  0
LINE
  5
18B
330
1F
100
AcDbEntity
  8
1
370
    18
100
AcDbLine
 10
35.028604
 20
5.905486
 30
0.0
 11
34.957731
 21
5.941298
 31
0.0
  0
LINE
  5
18C
330
1F
100
AcDbEntity
  8
1
370
    18
100
AcDbLine
 10
35.642172
 20
5.036282
 30
0.0
 11
35.614546
 21
5.110282
 31
0.0
  0
LINE
  5
18D
330
1F
100
AcDbEntity
  8
1
370
    18
100
AcDbLine
 10
33.297105
 20
6.986246
 30
0.0
 11
33.253302
 21
6.920239
 31
0.0
  0
LINE
  5
18E
330
1F
100
AcDbEntity
  8
1
370
    18
100
AcDbLine
 10
35.543144
 20
-2.197229
 30
0.0
 11
35.642172
 21
-2.105209
 31
0.0
  0
LINE
  5
18F
330
1F
100
AcDbEntity
  8
1
370
    18
100
AcDbLine
 10
35.543144
 20
-2.197229
 30
0.0
 11
35.405164
 21
-2.182577
 31
0.0
  0
LINE
  5
190
330
1F
100
AcDbEntity
  8
1
370
    18
100
AcDbLine
 10
35.946789
 20
4.415666
 30
0.0
 11
35.642195
 21
5.036297
 31
0.0
  0
LINE
  5
191
330
1F
100
AcDbEntity
  8
1
370
    18
100
AcDbLine
 10
38.21934
 20
4.227837
 30
0.0
 11
38.151955
 21
4.244446
 31
0.0
  0
LINE
  5
192
330
1F
100
AcDbEntity
  8
1
370
    18
100
AcDbLine
 10
38.151955
 20
4.244446
 30
0.0
 11
38.41694
 21
4.884503
 31
0.0
  0
LINE
  5
193
330
1F
100
AcDbEntity
  8
1
370
    18
100
AcDbLine
 10
35.642172
 20
-2.105209
 30
0.0
 11
38.21934
 21
-2.286024
 31
0.0
  0
LINE
  5
194
330
1F
100
AcDbEntity
  8
1
370
    18
100
AcDbLine
 10
38.120312
 20
-2.377299
 30
0.0
 11
38.21934
 21
-2.286024
 31
0.0
  0
LINE
  5
195
330
1F
100
AcDbEntity
  8
1
370
    18
100
AcDbLine
 10
38.120312
 20
-2.377299
 30
0.0
 11
35.543144
 21
-2.197229
 31
0.0
  0
LINE
  5
196
330
1F
100
AcDbEntity
  8
1
370
    18
100
AcDbLine
 10
16.134103
 20
-16.831092
 30
0.0
 11
16.0
 21
-14.359015
 31
0.0
  0
LINE
  5
197
330
1F
100
AcDbEntity
  8
1
370
    18
100
AcDbLine
 10
16.148782
 20
-14.351749
 30
0.0
 11
16.0
 21
-14.359015
 31
0.0
  0
LINE
  5
198
330
1F
100
AcDbEntity
  8
1
370
    18
100
AcDbLine
 10
21.866145
 20
-27.70074
 30
0.0
 11
23.047344
 21
-28.341353
 31
0.0
  0
LINE
  5
199
330
1F
100
AcDbEntity
  8
1
370
    18
100
AcDbLine
 10
23.047344
 20
-28.341353
 30
0.0
 11
23.0
 21
-28.425511
 31
0.0
  0
LINE
  5
19A
330
1F
100
AcDbEntity
  8
1
370
    18
100
AcDbLine
 10
21.420393
 20
-36.725005
 30
0.0
 11
23.0
 21
-36.9795
 31
0.0
  0
LINE
  5
19B
330
1F
100
AcDbEntity
  8
1
370
    18
100
AcDbLine
 10
38.21934
 20
-2.286024
 30
0.0
 11
38.484467
 21
-2.257057
 31
0.0
  0
LINE
  5
19C
330
1F
100
AcDbEntity
  8
1
370
    18
100
AcDbLine
 10
38.5
 20
4.873094
 30
0.0
 11
38.21934
 21
4.227837
 31
0.0
  0
LINE
  5
19D
330
1F
100
AcDbEntity
  8
1
370
    18
100
AcDbLine
 10
38.357638
 20
-2.352956
 30
0.0
 11
38.120312
 21
-2.377299
 31
0.0
  0
LINE
  5
19E
330
1F
100
AcDbEntity
  8
1
370
    18
100
AcDbLine
 10
38.5
 20
4.873094
 30
0.0
 11
38.41694
 21
4.884503
 31
0.0
  0
LINE
  5
19F
330
1F
100
AcDbEntity
  8
1
370
    18
100
AcDbLine
 10
38.5
 20
5.984032
 30
0.0
 11
38.445905
 21
6.0699
 31
0.0
  0
LINE
  5
1A0
330
1F
100
AcDbEntity
  8
1
370
    18
100
AcDbLine
 10
15.945832
 20
-27.472027
 30
0.0
 11
16.0
 21
-28.162592
 31
0.0
  0
LINE
  5
1A1
330
1F
100
AcDbEntity
  8
1
370
    18
100
AcDbLine
 10
15.494897
 20
-26.38913
 30
0.0
 11
15.541141
 21
-26.417206
 31
0.0
  0
LINE
  5
1A2
330
1F
100
AcDbEntity
  8
1
370
    18
100
AcDbLine
 10
15.500056
 20
-26.538438
 30
0.0
 11
15.479222
 21
-26.406671
 31
0.0
  0
LINE
  5
1A3
330
1F
100
AcDbEntity
  8
1
370
    18
100
AcDbLine
 10
15.788254
 20
-27.540073
 30
0.0
 11
15.500056
 21
-26.538438
 31
0.0
  0
LINE
  5
1A4
330
1F
100
AcDbEntity
  8
1
370
    18
100
AcDbLine
 10
15.926255
 20
25.275115
 30
0.0
 11
16.0
 21
26.103184
 31
0.0
  0
LINE
  5
1A5
330
1F
100
AcDbEntity
  8
1
370
    18
100
AcDbLine
 10
15.788254
 20
21.884809
 30
0.0
 11
15.500056
 21
22.914546
 31
0.0
  0
LINE
  5
1A6
330
1F
100
AcDbEntity
  8
1
370
    18
100
AcDbLine
 10
15.788254
 20
-7.57474
 30
0.0
 11
15.500056
 21
-4.579307
 31
0.0
  0
LINE
  5
1A7
330
1F
100
AcDbEntity
  8
1
370
    18
100
AcDbLine
 10
15.638696
 20
-4.564492
 30
0.0
 11
15.500056
 21
-4.579307
 31
0.0
  0
LINE
  5
1A8
330
1F
100
AcDbEntity
  8
1
370
    18
100
AcDbLine
 10
38.474101
 20
6.060292
 30
0.0
 11
38.5
 21
5.984032
 31
0.0
  0
LINE
  5
1A9
330
1F
100
AcDbEntity
  8
1
370
    18
100
AcDbLine
 10
16.13039
 20
-10.414789
 30
0.0
 11
16.148782
 21
-11.387346
 31
0.0
  0
LINE
  5
1AA
330
1F
100
AcDbEntity
  8
1
370
    18
100
AcDbLine
 10
16.148782
 20
-11.387346
 30
0.0
 11
16.0
 21
-11.394613
 31
0.0
  0
LINE
  5
1AB
330
1F
100
AcDbEntity
  8
1
370
    18
100
AcDbLine
 10
33.760514
 20
-29.737432
 30
0.0
 11
33.802554
 21
-29.649083
 31
0.0
  0
LINE
  5
1AC
330
1F
100
AcDbEntity
  8
1
370
    18
100
AcDbLine
 10
33.297105
 20
-29.606743
 30
0.0
 11
33.760514
 21
-29.737432
 31
0.0
  0
LINE
  5
1AD
330
1F
100
AcDbEntity
  8
1
370
    18
100
AcDbLine
 10
32.717316
 20
-29.533802
 30
0.0
 11
33.297105
 21
-29.606743
 31
0.0
  0
LINE
  5
1AE
330
1F
100
AcDbEntity
  8
1
370
    18
100
AcDbLine
 10
30.260957
 20
-30.836255
 30
0.0
 11
32.019666
 21
-29.74309
 31
0.0
  0
LINE
  5
1AF
330
1F
100
AcDbEntity
  8
1
370
    18
100
AcDbLine
 10
27.732367
 20
-30.190395
 30
0.0
 11
29.683373
 21
-30.880444
 31
0.0
  0
LINE
  5
1B0
330
1F
100
AcDbEntity
  8
1
370
    18
100
AcDbLine
 10
23.047344
 20
-28.341353
 30
0.0
 11
23.251646
 21
-28.427932
 31
0.0
  0
LINE
  5
1B1
330
1F
100
AcDbEntity
  8
1
370
    18
100
AcDbLine
 10
33.957705
 20
-16.207941
 30
0.0
 11
32.940082
 21
-14.200423
 31
0.0
  0
LINE
  5
1B2
330
1F
100
AcDbEntity
  8
1
370
    18
100
AcDbLine
 10
38.385286
 20
-25.994042
 30
0.0
 11
38.445905
 21
-25.980874
 31
0.0
  0
LINE
  5
1B3
330
1F
100
AcDbEntity
  8
1
370
    18
100
AcDbLine
 10
27.732367
 20
-30.190395
 30
0.0
 11
27.677459
 21
-30.227668
 31
0.0
  0
LINE
  5
1B4
330
1F
100
AcDbEntity
  8
1
370
    18
100
AcDbLine
 10
27.527585
 20
-30.144755
 30
0.0
 11
27.677459
 21
-30.227668
 31
0.0
  0
LINE
  5
1B5
330
1F
100
AcDbEntity
  8
1
370
    18
100
AcDbLine
 10
23.251306
 20
-28.42846
 30
0.0
 11
23.363255
 21
-28.450211
 31
0.0
  0
LINE
  5
1B6
330
1F
100
AcDbEntity
  8
1
370
    18
100
AcDbLine
 10
27.677459
 20
-30.227668
 30
0.0
 11
27.682874
 21
-30.278781
 31
0.0
  0
LINE
  5
1B7
330
1F
100
AcDbEntity
  8
1
370
    18
100
AcDbLine
 10
23.179633
 20
-28.501926
 30
0.0
 11
23.25185
 21
-28.428141
 31
0.0
  0
LINE
  5
1B8
330
1F
100
AcDbEntity
  8
1
370
    18
100
AcDbLine
 10
23.17963
 20
-28.501915
 30
0.0
 11
23.0
 21
-28.425511
 31
0.0
  0
LINE
  5
1B9
330
1F
100
AcDbEntity
  8
1
370
    18
100
AcDbLine
 10
23.0
 20
-36.9795
 30
0.0
 11
29.63603
 21
-37.244624
 31
0.0
  0
LINE
  5
1BA
330
1F
100
AcDbEntity
  8
1
370
    18
100
AcDbLine
 10
5.75921
 20
-6.156301
 30
0.0
 11
5.575
 21
-6.2275
 31
0.0
  0
LINE
  5
1BB
330
1F
100
AcDbEntity
  8
1
370
    18
100
AcDbLine
 10
6.312013
 20
5.366188
 30
0.0
 11
6.375
 21
4.981774
 31
0.0
  0
LINE
  5
1BC
330
1F
100
AcDbEntity
  8
1
370
    18
100
AcDbLine
 10
16.148782
 20
20.728877
 30
0.0
 11
16.0
 21
20.643009
 31
0.0
  0
LINE
  5
1BD
330
1F
100
AcDbEntity
  8
1
370
    18
100
AcDbLine
 10
0.566499
 20
6.177988
 30
0.0
 11
1.0
 21
6.2275
 31
0.0
  0
LINE
  5
1BE
330
1F
100
AcDbEntity
  8
1
370
    18
100
AcDbLine
 10
31.521327
 20
14.171381
 30
0.0
 11
31.79439
 21
13.235848
 31
0.0
  0
LINE
  5
1BF
330
1F
100
AcDbEntity
  8
1
370
    18
100
AcDbLine
 10
31.728758
 20
17.395269
 30
0.0
 11
31.604825
 21
16.395633
 31
0.0
  0
LINE
  5
1C0
330
1F
100
AcDbEntity
  8
1
370
    18
100
AcDbLine
 10
31.589659
 20
15.729765
 30
0.0
 11
31.581637
 21
15.800878
 31
0.0
  0
LINE
  5
1C1
330
1F
100
AcDbEntity
  8
1
370
    18
100
AcDbLine
 10
31.604825
 20
15.658407
 30
0.0
 11
31.589659
 21
15.729765
 31
0.0
  0
LINE
  5
1C2
330
1F
100
AcDbEntity
  8
1
370
    18
100
AcDbLine
 10
31.885649
 20
14.983027
 30
0.0
 11
31.604825
 21
15.658407
 31
0.0
  0
LINE
  5
1C3
330
1F
100
AcDbEntity
  8
1
370
    18
100
AcDbLine
 10
32.573635
 20
13.272207
 30
0.0
 11
32.570788
 21
13.917324
 31
0.0
  0
LINE
  5
1C4
330
1F
100
AcDbEntity
  8
1
370
    18
100
AcDbLine
 10
32.570789
 20
-11.085209
 30
0.0
 11
32.016391
 21
-9.037063
 31
0.0
  0
LINE
  5
1C5
330
1F
100
AcDbEntity
  8
1
370
    18
100
AcDbLine
 10
32.573635
 20
-11.787227
 30
0.0
 11
32.570788
 21
-11.085208
 31
0.0
  0
LINE
  5
1C6
330
1F
100
AcDbEntity
  8
1
370
    18
100
AcDbLine
 10
29.63603
 20
-30.971489
 30
0.0
 11
29.683373
 21
-30.880444
 31
0.0
  0
LINE
  5
1C7
330
1F
100
AcDbEntity
  8
1
370
    18
100
AcDbLine
 10
35.756917
 20
-19.305689
 30
0.0
 11
38.207107
 21
-23.162521
 31
0.0
  0
LINE
  5
1C8
330
1F
100
AcDbEntity
  8
1
370
    18
100
AcDbLine
 10
38.182722
 20
-23.214364
 30
0.0
 11
38.207107
 21
-23.162521
 31
0.0
  0
LINE
  5
1C9
330
1F
100
AcDbEntity
  8
1
370
    18
100
AcDbLine
 10
32.037526
 20
-29.81509
 30
0.0
 11
30.278817
 21
-30.90797
 31
0.0
  0
LINE
  5
1CA
330
1F
100
AcDbEntity
  8
1
370
    18
100
AcDbLine
 10
31.607505
 20
-34.745567
 30
0.0
 11
32.037526
 21
-34.326598
 31
0.0
  0
LINE
  5
1CB
330
1F
100
AcDbEntity
  8
1
370
    18
100
AcDbLine
 10
30.769465
 20
-36.501146
 30
0.0
 11
31.323591
 21
-35.619193
 31
0.0
  0
LINE
  5
1CC
330
1F
100
AcDbEntity
  8
1
370
    18
100
AcDbLine
 10
30.769465
 20
-36.501146
 30
0.0
 11
30.40367
 21
-36.931704
 31
0.0
  0
LINE
  5
1CD
330
1F
100
AcDbEntity
  8
1
370
    18
100
AcDbLine
 10
30.278817
 20
-37.031524
 30
0.0
 11
30.40367
 21
-36.931704
 31
0.0
  0
LINE
  5
1CE
330
1F
100
AcDbEntity
  8
1
370
    18
100
AcDbLine
 10
30.186086
 20
31.067343
 30
0.0
 11
29.608502
 21
31.335568
 31
0.0
  0
LINE
  5
1CF
330
1F
100
AcDbEntity
  8
1
370
    18
100
AcDbLine
 10
29.63603
 20
31.471698
 30
0.0
 11
29.608502
 21
31.335568
 31
0.0
  0
LINE
  5
1D0
330
1F
100
AcDbEntity
  8
1
370
    18
100
AcDbLine
 10
29.63603
 20
31.471698
 30
0.0
 11
30.278817
 21
31.183363
 31
0.0
  0
LINE
  5
1D1
330
1F
100
AcDbEntity
  8
1
370
    18
100
AcDbLine
 10
30.278817
 20
31.183363
 30
0.0
 11
30.186086
 21
31.067343
 31
0.0
  0
LINE
  5
1D2
330
1F
100
AcDbEntity
  8
1
370
    18
100
AcDbLine
 10
16.262594
 20
28.689903
 30
0.0
 11
16.073911
 21
27.341091
 31
0.0
  0
LINE
  5
1D3
330
1F
100
AcDbEntity
  8
1
370
    18
100
AcDbLine
 10
29.608502
 20
31.335568
 30
0.0
 11
22.972472
 21
32.31336
 31
0.0
  0
LINE
  5
1D4
330
1F
100
AcDbEntity
  8
1
370
    18
100
AcDbLine
 10
24.713653
 20
27.222087
 30
0.0
 11
25.144852
 21
27.342138
 31
0.0
  0
LINE
  5
1D5
330
1F
100
AcDbEntity
  8
1
370
    18
100
AcDbLine
 10
30.362866
 20
31.044293
 30
0.0
 11
30.221886
 21
31.036184
 31
0.0
  0
LINE
  5
1D6
330
1F
100
AcDbEntity
  8
1
370
    18
100
AcDbLine
 10
30.278817
 20
31.183363
 30
0.0
 11
30.40367
 21
31.074644
 31
0.0
  0
LINE
  5
1D7
330
1F
100
AcDbEntity
  8
1
370
    18
100
AcDbLine
 10
30.40367
 20
31.074644
 30
0.0
 11
30.362866
 21
31.044293
 31
0.0
  0
LINE
  5
1D8
330
1F
100
AcDbEntity
  8
1
370
    18
100
AcDbLine
 10
25.144925
 20
27.342153
 30
0.0
 11
25.241653
 21
27.318057
 31
0.0
  0
LINE
  5
1D9
330
1F
100
AcDbEntity
  8
1
370
    18
100
AcDbLine
 10
32.037526
 20
35.770776
 30
0.0
 11
30.278817
 21
37.253004
 31
0.0
  0
LINE
  5
1DA
330
1F
100
AcDbEntity
  8
1
370
    18
100
AcDbLine
 10
30.769465
 20
31.359018
 30
0.0
 11
31.323591
 21
32.18315
 31
0.0
  0
LINE
  5
1DB
330
1F
100
AcDbEntity
  8
1
370
    18
100
AcDbLine
 10
23.0
 20
32.452142
 30
0.0
 11
29.63603
 21
31.471698
 31
0.0
  0
LINE
  5
1DC
330
1F
100
AcDbEntity
  8
1
370
    18
100
AcDbLine
 10
15.638696
 20
22.962639
 30
0.0
 11
15.500056
 21
22.914546
 31
0.0
  0
LINE
  5
1DD
330
1F
100
AcDbEntity
  8
1
370
    18
100
AcDbLine
 10
29.63603
 20
37.492308
 30
0.0
 11
28.399291
 21
37.5
 31
0.0
  0
LINE
  5
1DE
330
1F
100
AcDbEntity
  8
1
370
    18
100
AcDbLine
 10
31.521327
 20
14.171381
 30
0.0
 11
31.467665
 21
14.263951
 31
0.0
  0
LINE
  5
1DF
330
1F
100
AcDbEntity
  8
1
370
    18
100
AcDbLine
 10
33.297105
 20
-29.606743
 30
0.0
 11
33.253302
 21
-29.699245
 31
0.0
  0
LINE
  5
1E0
330
1F
100
AcDbEntity
  8
1
370
    18
100
AcDbLine
 10
32.718405
 20
-33.987401
 30
0.0
 11
33.253302
 21
-33.984001
 31
0.0
  0
LINE
  5
1E1
330
1F
100
AcDbEntity
  8
1
370
    18
100
AcDbLine
 10
31.003165
 20
31.551209
 30
0.0
 11
30.769465
 21
31.359018
 31
0.0
  0
LINE
  5
1E2
330
1F
100
AcDbEntity
  8
1
370
    18
100
AcDbLine
 10
33.738286
 20
-29.836062
 30
0.0
 11
33.760514
 21
-29.737432
 31
0.0
  0
LINE
  5
1E3
330
1F
100
AcDbEntity
  8
1
370
    18
100
AcDbLine
 10
33.73826
 20
-29.83616
 30
0.0
 11
33.253302
 21
-29.699245
 31
0.0
  0
LINE
  5
1E4
330
1F
100
AcDbEntity
  8
1
370
    18
100
AcDbLine
 10
33.691134
 20
-34.064355
 30
0.0
 11
34.957731
 21
-34.051382
 31
0.0
  0
LINE
  5
1E5
330
1F
100
AcDbEntity
  8
1
370
    18
100
AcDbLine
 10
34.831133
 20
-31.500462
 30
0.0
 11
34.74127
 21
-31.462385
 31
0.0
  0
LINE
  5
1E6
330
1F
100
AcDbEntity
  8
1
370
    18
100
AcDbLine
 10
38.156321
 20
-26.145523
 30
0.0
 11
38.385286
 21
-25.994042
 31
0.0
  0
LINE
  5
1E7
330
1F
100
AcDbEntity
  8
1
370
    18
100
AcDbLine
 10
33.892393
 20
-29.596678
 30
0.0
 11
33.802554
 21
-29.649083
 31
0.0
  0
LINE
  5
1E8
330
1F
100
AcDbEntity
  8
1
370
    18
100
AcDbLine
 10
34.74127
 20
-31.462385
 30
0.0
 11
34.785213
 21
-31.095688
 31
0.0
  0
LINE
  5
1E9
330
1F
100
AcDbEntity
  8
1
370
    18
100
AcDbLine
 10
21.420393
 20
32.51643
 30
0.0
 11
23.0
 21
32.452142
 31
0.0
  0
LINE
  5
1EA
330
1F
100
AcDbEntity
  8
1
370
    18
100
AcDbLine
 10
28.144476
 20
15.452456
 30
0.0
 11
27.930428
 21
15.382576
 31
0.0
  0
LINE
  5
1EB
330
1F
100
AcDbEntity
  8
1
370
    18
100
AcDbLine
 10
32.037526
 20
32.899278
 30
0.0
 11
31.969246
 21
32.75588
 31
0.0
  0
LINE
  5
1EC
330
1F
100
AcDbEntity
  8
1
370
    18
100
AcDbLine
 10
31.184969
 20
33.007289
 30
0.0
 11
31.101495
 21
32.885933
 31
0.0
  0
LINE
  5
1ED
330
1F
100
AcDbEntity
  8
1
370
    18
100
AcDbLine
 10
23.889869
 20
25.642752
 30
0.0
 11
24.145141
 21
24.977558
 31
0.0
  0
LINE
  5
1EE
330
1F
100
AcDbEntity
  8
1
370
    18
100
AcDbLine
 10
38.445905
 20
-24.029871
 30
0.0
 11
38.5
 21
-24.037137
 31
0.0
  0
LINE
  5
1EF
330
1F
100
AcDbEntity
  8
1
370
    18
100
AcDbLine
 10
38.5
 20
-25.994623
 30
0.0
 11
38.5
 21
-26.891223
 31
0.0
  0
LINE
  5
1F0
330
1F
100
AcDbEntity
  8
1
370
    18
100
AcDbLine
 10
38.129374
 20
-26.975946
 30
0.0
 11
38.5
 21
-26.891223
 31
0.0
  0
LINE
  5
1F1
330
1F
100
AcDbEntity
  8
1
370
    18
100
AcDbLine
 10
38.445905
 20
-25.980874
 30
0.0
 11
38.500002
 21
-25.994622
 31
0.0
  0
LINE
  5
1F2
330
1F
100
AcDbEntity
  8
1
370
    18
100
AcDbLine
 10
37.405158
 20
-29.778197
 30
0.0
 11
37.918658
 21
-29.116492
 31
0.0
  0
LINE
  5
1F3
330
1F
100
AcDbEntity
  8
1
370
    18
100
AcDbLine
 10
34.988188
 20
-31.170008
 30
0.0
 11
35.502056
 21
-31.239355
 31
0.0
  0
LINE
  5
1F4
330
1F
100
AcDbEntity
  8
1
370
    18
100
AcDbLine
 10
34.893913
 20
-31.140123
 30
0.0
 11
34.988188
 21
-31.170008
 31
0.0
  0
LINE
  5
1F5
330
1F
100
AcDbEntity
  8
1
370
    18
100
AcDbLine
 10
34.785213
 20
-31.095688
 30
0.0
 11
34.893913
 21
-31.140123
 31
0.0
  0
LINE
  5
1F6
330
1F
100
AcDbEntity
  8
1
370
    18
100
AcDbLine
 10
37.918658
 20
-29.116492
 30
0.0
 11
38.129374
 21
-28.487762
 31
0.0
  0
LINE
  5
1F7
330
1F
100
AcDbEntity
  8
1
370
    18
100
AcDbLine
 10
34.957731
 20
-31.542132
 30
0.0
 11
34.988188
 21
-31.170008
 31
0.0
  0
LINE
  5
1F8
330
1F
100
AcDbEntity
  8
1
370
    18
100
AcDbLine
 10
34.957731
 20
-34.051382
 30
0.0
 11
35.425502
 21
-33.971486
 31
0.0
  0
LINE
  5
1F9
330
1F
100
AcDbEntity
  8
1
370
    18
100
AcDbLine
 10
35.642172
 20
-31.562918
 30
0.0
 11
34.957731
 21
-31.542132
 31
0.0
  0
LINE
  5
1FA
330
1F
100
AcDbEntity
  8
1
370
    18
100
AcDbLine
 10
35.642172
 20
-31.562918
 30
0.0
 11
35.502056
 21
-31.239355
 31
0.0
  0
LINE
  5
1FB
330
1F
100
AcDbEntity
  8
1
370
    18
100
AcDbLine
 10
37.918658
 20
-29.116492
 30
0.0
 11
38.21934
 21
-29.299633
 31
0.0
  0
LINE
  5
1FC
330
1F
100
AcDbEntity
  8
1
370
    18
100
AcDbLine
 10
35.642172
 20
-33.815436
 30
0.0
 11
38.21934
 21
-31.319107
 31
0.0
  0
LINE
  5
1FD
330
1F
100
AcDbEntity
  8
1
370
    18
100
AcDbLine
 10
16.073911
 20
26.2332
 30
0.0
 11
16.077621
 21
26.058884
 31
0.0
  0
LINE
  5
1FE
330
1F
100
AcDbEntity
  8
1
370
    18
100
AcDbLine
 10
31.121816
 20
16.685254
 30
0.0
 11
30.643111
 21
17.777429
 31
0.0
  0
LINE
  5
1FF
330
1F
100
AcDbEntity
  8
1
370
    18
100
AcDbLine
 10
31.496332
 20
16.161623
 30
0.0
 11
31.134611
 21
16.665264
 31
0.0
  0
LINE
  5
200
330
1F
100
AcDbEntity
  8
1
370
    18
100
AcDbLine
 10
31.440647
 20
15.124957
 30
0.0
 11
31.496327
 21
16.161629
 31
0.0
  0
LINE
  5
201
330
1F
100
AcDbEntity
  8
1
370
    18
100
AcDbLine
 10
34.679917
 20
32.101532
 30
0.0
 11
34.957731
 21
32.073549
 31
0.0
  0
LINE
  5
202
330
1F
100
AcDbEntity
  8
1
370
    18
100
AcDbLine
 10
34.957731
 20
32.073549
 30
0.0
 11
35.100036
 21
32.045273
 31
0.0
  0
LINE
  5
203
330
1F
100
AcDbEntity
  8
1
370
    18
100
AcDbLine
 10
33.253302
 20
32.31966
 30
0.0
 11
33.363836
 21
32.283886
 31
0.0
  0
LINE
  5
204
330
1F
100
AcDbEntity
  8
1
370
    18
100
AcDbLine
 10
33.795289
 20
35.249236
 30
0.0
 11
33.253302
 21
35.284345
 31
0.0
  0
LINE
  5
205
330
1F
100
AcDbEntity
  8
1
370
    18
100
AcDbLine
 10
33.703208
 20
35.153989
 30
0.0
 11
33.79524
 21
35.249239
 31
0.0
  0
LINE
  5
206
330
1F
100
AcDbEntity
  8
1
370
    18
100
AcDbLine
 10
34.957731
 20
34.379813
 30
0.0
 11
34.311881
 21
34.557719
 31
0.0
  0
LINE
  5
207
330
1F
100
AcDbEntity
  8
1
370
    18
100
AcDbLine
 10
32.037526
 20
32.899278
 30
0.0
 11
33.253302
 21
32.31966
 31
0.0
  0
LINE
  5
208
330
1F
100
AcDbEntity
  8
1
370
    18
100
AcDbLine
 10
38.129374
 20
-28.487762
 30
0.0
 11
38.5
 21
-28.503488
 31
0.0
  0
LINE
  5
209
330
1F
100
AcDbEntity
  8
1
370
    18
100
AcDbLine
 10
31.54397
 20
16.17584
 30
0.0
 11
31.58164
 21
16.078133
 31
0.0
  0
LINE
  5
20A
330
1F
100
AcDbEntity
  8
1
370
    18
100
AcDbLine
 10
16.073911
 20
26.2332
 30
0.0
 11
16.0
 21
26.284198
 31
0.0
  0
LINE
  5
20B
330
1F
100
AcDbEntity
  8
1
370
    18
100
AcDbLine
 10
31.563858
 20
16.449065
 30
0.0
 11
31.686077
 21
17.428298
 31
0.0
  0
LINE
  5
20C
330
1F
100
AcDbEntity
  8
1
370
    18
100
AcDbLine
 10
16.0
 20
26.103184
 30
0.0
 11
16.0
 21
26.284198
 31
0.0
  0
LINE
  5
20D
330
1F
100
AcDbEntity
  8
1
370
    18
100
AcDbLine
 10
31.145571
 20
-35.442532
 30
0.0
 11
31.294946
 21
-35.427761
 31
0.0
  0
LINE
  5
20E
330
1F
100
AcDbEntity
  8
1
370
    18
100
AcDbLine
 10
31.294959
 20
-35.427765
 30
0.0
 11
31.349475
 21
-35.540883
 31
0.0
  0
LINE
  5
20F
330
1F
100
AcDbEntity
  8
1
370
    18
100
AcDbLine
 10
33.795298
 20
35.249125
 30
0.0
 11
33.846486
 21
35.193489
 31
0.0
  0
LINE
  5
210
330
1F
100
AcDbEntity
  8
1
370
    18
100
AcDbLine
 10
33.846486
 20
35.193489
 30
0.0
 11
33.877523
 21
35.150823
 31
0.0
  0
LINE
  5
211
330
1F
100
AcDbEntity
  8
1
370
    18
100
AcDbLine
 10
33.877523
 20
35.150823
 30
0.0
 11
33.96807
 21
34.981236
 31
0.0
  0
LINE
  5
212
330
1F
100
AcDbEntity
  8
1
370
    18
100
AcDbLine
 10
33.913381
 20
34.93436
 30
0.0
 11
33.884443
 21
34.891197
 31
0.0
  0
LINE
  5
213
330
1F
100
AcDbEntity
  8
1
370
    18
100
AcDbLine
 10
33.968013
 20
34.981311
 30
0.0
 11
33.913381
 21
34.93436
 31
0.0
  0
LINE
  5
214
330
1F
100
AcDbEntity
  8
1
370
    18
100
AcDbLine
 10
33.925205
 20
34.792655
 30
0.0
 11
33.968009
 21
34.981302
 31
0.0
  0
LINE
  5
215
330
1F
100
AcDbEntity
  8
1
370
    18
100
AcDbLine
 10
15.638696
 20
-26.577395
 30
0.0
 11
15.500056
 21
-26.538438
 31
0.0
  0
LINE
  5
216
330
1F
100
AcDbEntity
  8
1
370
    18
100
AcDbLine
 10
38.5
 20
30.941349
 30
0.0
 11
38.5
 21
30.790688
 31
0.0
  0
LINE
  5
217
330
1F
100
AcDbEntity
  8
1
370
    18
100
AcDbLine
 10
15.917063
 20
-27.535767
 30
0.0
 11
15.980403
 21
-27.77742
 31
0.0
  0
LINE
  5
218
330
1F
100
AcDbEntity
  8
1
370
    18
100
AcDbLine
 10
38.182722
 20
-22.484688
 30
0.0
 11
37.735423
 21
-22.447425
 31
0.0
  0
LINE
  5
219
330
1F
100
AcDbEntity
  8
1
370
    18
100
AcDbLine
 10
16.008159
 20
-30.281523
 30
0.0
 11
16.0
 21
-30.042587
 31
0.0
  0
LINE
  5
21A
330
1F
100
AcDbEntity
  8
1
370
    18
100
AcDbLine
 10
37.6325
 20
-22.295518
 30
0.0
 11
38.207107
 21
-22.344959
 31
0.0
  0
LINE
  5
21B
330
1F
100
AcDbEntity
  8
1
370
    18
100
AcDbLine
 10
38.207107
 20
-22.344959
 30
0.0
 11
38.182722
 21
-22.484688
 31
0.0
  0
LINE
  5
21C
330
1F
100
AcDbEntity
  8
1
370
    18
100
AcDbLine
 10
33.445591
 20
-13.228324
 30
0.0
 11
32.964466
 21
-12.734697
 31
0.0
  0
LINE
  5
21D
330
1F
100
AcDbEntity
  8
1
370
    18
100
AcDbLine
 10
32.568809
 20
14.002488
 30
0.0
 11
32.570887
 21
13.917487
 31
0.0
  0
LINE
  5
21E
330
1F
100
AcDbEntity
  8
1
370
    18
100
AcDbLine
 10
32.043684
 20
14.75908
 30
0.0
 11
32.564156
 21
14.018406
 31
0.0
  0
LINE
  5
21F
330
1F
100
AcDbEntity
  8
1
370
    18
100
AcDbLine
 10
38.5
 20
-22.586576
 30
0.0
 11
38.445905
 21
-22.669281
 31
0.0
  0
LINE
  5
220
330
1F
100
AcDbEntity
  8
1
370
    18
100
AcDbLine
 10
33.530158
 20
13.078383
 30
0.0
 11
34.012915
 21
13.479347
 31
0.0
  0
LINE
  5
221
330
1F
100
AcDbEntity
  8
1
370
    18
100
AcDbLine
 10
38.445905
 20
-23.618871
 30
0.0
 11
38.500004
 21
-23.531004
 31
0.0
  0
LINE
  5
222
330
1F
100
AcDbEntity
  8
1
370
    18
100
AcDbLine
 10
32.548701
 20
-11.251322
 30
0.0
 11
32.53828
 21
-11.335553
 31
0.0
  0
LINE
  5
223
330
1F
100
AcDbEntity
  8
1
370
    18
100
AcDbLine
 10
32.568831
 20
-11.150019
 30
0.0
 11
32.548701
 21
-11.251322
 31
0.0
  0
LINE
  5
224
330
1F
100
AcDbEntity
  8
1
370
    18
100
AcDbLine
 10
32.568809
 20
-11.150001
 30
0.0
 11
32.570887
 21
-11.085021
 31
0.0
  0
LINE
  5
225
330
1F
100
AcDbEntity
  8
1
370
    18
100
AcDbLine
 10
33.526056
 20
-13.287193
 30
0.0
 11
34.012915
 21
-13.430849
 31
0.0
  0
LINE
  5
226
330
1F
100
AcDbEntity
  8
1
370
    18
100
AcDbLine
 10
34.012917
 20
-13.430853
 30
0.0
 11
34.063265
 21
-13.445371
 31
0.0
  0
LINE
  5
227
330
1F
100
AcDbEntity
  8
1
370
    18
100
AcDbLine
 10
36.87512
 20
16.258925
 30
0.0
 11
35.648005
 21
15.09429
 31
0.0
  0
LINE
  5
228
330
1F
100
AcDbEntity
  8
1
370
    18
100
AcDbLine
 10
33.445585
 20
12.879995
 30
0.0
 11
32.964466
 21
12.836505
 31
0.0
  0
LINE
  5
229
330
1F
100
AcDbEntity
  8
1
370
    18
100
AcDbLine
 10
34.063201
 20
13.471827
 30
0.0
 11
34.093681
 21
13.351883
 31
0.0
  0
LINE
  5
22A
330
1F
100
AcDbEntity
  8
1
370
    18
100
AcDbLine
 10
34.012917
 20
13.479347
 30
0.0
 11
34.063213
 21
13.471942
 31
0.0
  0
LINE
  5
22B
330
1F
100
AcDbEntity
  8
1
370
    18
100
AcDbLine
 10
34.963263
 20
14.160378
 30
0.0
 11
35.502464
 21
15.015136
 31
0.0
  0
LINE
  5
22C
330
1F
100
AcDbEntity
  8
1
370
    18
100
AcDbLine
 10
35.64802
 20
15.094315
 30
0.0
 11
35.541975
 21
15.106634
 31
0.0
  0
LINE
  5
22D
330
1F
100
AcDbEntity
  8
1
370
    18
100
AcDbLine
 10
35.647944
 20
-13.456872
 30
0.0
 11
35.54188
 21
-13.419616
 31
0.0
  0
LINE
  5
22E
330
1F
100
AcDbEntity
  8
1
370
    18
100
AcDbLine
 10
38.207107
 20
-13.820928
 30
0.0
 11
38.10932
 21
-13.765058
 31
0.0
  0
LINE
  5
22F
330
1F
100
AcDbEntity
  8
1
370
    18
100
AcDbLine
 10
35.511696
 20
-13.397946
 30
0.0
 11
38.10932
 21
-13.765058
 31
0.0
  0
LINE
  5
230
330
1F
100
AcDbEntity
  8
1
370
    18
100
AcDbLine
 10
38.10932
 20
-13.765058
 30
0.0
 11
38.293746
 21
-13.821484
 31
0.0
  0
LINE
  5
231
330
1F
100
AcDbEntity
  8
1
370
    18
100
AcDbLine
 10
33.407187
 20
24.359655
 30
0.0
 11
33.321458
 21
24.238288
 31
0.0
  0
LINE
  5
232
330
1F
100
AcDbEntity
  8
1
370
    18
100
AcDbLine
 10
32.553134
 20
23.980608
 30
0.0
 11
32.603485
 21
23.880252
 31
0.0
  0
LINE
  5
233
330
1F
100
AcDbEntity
  8
1
370
    18
100
AcDbLine
 10
32.553134
 20
23.980608
 30
0.0
 11
32.5384
 21
24.045124
 31
0.0
  0
LINE
  5
234
330
1F
100
AcDbEntity
  8
1
370
    18
100
AcDbLine
 10
31.875398
 20
24.294746
 30
0.0
 11
31.823405
 21
24.255353
 31
0.0
  0
LINE
  5
235
330
1F
100
AcDbEntity
  8
1
370
    18
100
AcDbLine
 10
31.721161
 20
24.212449
 30
0.0
 11
31.823405
 21
24.255353
 31
0.0
  0
LINE
  5
236
330
1F
100
AcDbEntity
  8
1
370
    18
100
AcDbLine
 10
16.097849
 20
-2.680809
 30
0.0
 11
16.172384
 21
-2.7782
 31
0.0
  0
LINE
  5
237
330
1F
100
AcDbEntity
  8
1
370
    18
100
AcDbLine
 10
38.357596
 20
-2.352882
 30
0.0
 11
38.484617
 21
-2.257043
 31
0.0
  0
LINE
  5
238
330
1F
100
AcDbEntity
  8
1
370
    18
100
AcDbLine
 10
38.475295
 20
6.058009
 30
0.0
 11
38.414274
 21
6.166792
 31
0.0
  0
LINE
  5
239
330
1F
100
AcDbEntity
  8
1
370
    18
100
AcDbLine
 10
38.401592
 20
-13.885639
 30
0.0
 11
38.293954
 21
-13.821578
 31
0.0
  0
LINE
  5
23A
330
1F
100
AcDbEntity
  8
CUT
370
    18
100
AcDbLine
 10
39.710381
 20
28.639305
 30
0.0
 11
33.59724
 21
22.164444
 31
0.0
  0
LINE
  5
23B
330
1F
100
AcDbEntity
  8
CUT
370
    18
100
AcDbLine
 10
32.923318
 20
21.848515
 30
0.0
 11
31.227055
 21
21.810045
 31
0.0
  0
LINE
  5
23C
330
1F
100
AcDbEntity
  8
CUT
370
    18
100
AcDbLine
 10
30.553132
 20
22.096344
 30
0.0
 11
24.439992
 21
28.374101
 31
0.0
  0
LINE
  5
23D
330
1F
100
AcDbEntity
  8
CUT
370
    18
100
AcDbLine
 10
33.59724
 20
37.916679
 30
0.0
 11
39.710381
 21
31.762781
 31
0.0
  0
LINE
  5
23E
330
1F
100
AcDbEntity
  8
CUT
370
    18
100
AcDbLine
 10
24.439992
 20
31.523865
 30
0.0
 11
30.553132
 21
37.876911
 31
0.0
  0
LINE
  5
23F
330
1F
100
AcDbEntity
  8
CUT
370
    18
100
AcDbLine
 10
31.227055
 20
38.183627
 30
0.0
 11
32.923318
 21
38.205614
 31
0.0
  0
LINE
  5
240
330
1F
100
AcDbEntity
  8
1
370
    13
100
AcDbLine
 10
39.526127
 20
25.611918
 30
0.0
 11
39.710381
 21
25.50767
 31
0.0
  0
LINE
  5
241
330
1F
100
AcDbEntity
  8
1
370
    13
100
AcDbLine
 10
40.0
 20
25.055912
 30
0.0
 11
40.0
 21
23.905616
 31
0.0
  0
LINE
  5
242
330
1F
100
AcDbEntity
  8
1
370
    13
100
AcDbLine
 10
32.923318
 20
17.186197
 30
0.0
 11
31.681733
 21
16.958545
 31
0.0
  0
LINE
  5
243
330
1F
100
AcDbEntity
  8
1
370
    13
100
AcDbLine
 10
31.911688
 20
15.507402
 30
0.0
 11
34.27839
 21
15.941351
 31
0.0
  0
LINE
  5
244
330
1F
100
AcDbEntity
  8
1
370
    13
100
AcDbLine
 10
34.952313
 20
16.281884
 30
0.0
 11
38.941119
 21
20.001429
 31
0.0
  0
LINE
  5
245
330
1F
100
AcDbEntity
  8
1
370
    13
100
AcDbLine
 10
31.227055
 20
-8.824933
 30
0.0
 11
32.923318
 21
-9.267674
 31
0.0
  0
LINE
  5
246
330
1F
100
AcDbEntity
  8
1
370
    13
100
AcDbLine
 10
26.065992
 20
-6.542738
 30
0.0
 11
30.553132
 21
-8.592336
 31
0.0
  0
LINE
  5
247
330
1F
100
AcDbEntity
  8
1
370
    13
100
AcDbLine
 10
39.230738
 20
-5.097272
 30
0.0
 11
39.230738
 21
-5.560582
 31
0.0
  0
LINE
  5
248
330
1F
100
AcDbEntity
  8
1
370
    13
100
AcDbLine
 10
38.941119
 20
-5.616917
 30
0.0
 11
34.952313
 21
-5.356656
 31
0.0
  0
LINE
  5
249
330
1F
100
AcDbEntity
  8
1
370
    13
100
AcDbLine
 10
33.59724
 20
-9.386878
 30
0.0
 11
39.710381
 21
-9.785748
 31
0.0
  0
LINE
  5
24A
330
1F
100
AcDbEntity
  8
1
370
    13
100
AcDbLine
 10
40.0
 20
-9.729413
 30
0.0
 11
40.0
 21
-9.397349
 31
0.0
  0
LINE
  5
24B
330
1F
100
AcDbEntity
  8
1
370
    13
100
AcDbLine
 10
38.602309
 20
-30.74665
 30
0.0
 11
38.602309
 21
-27.760658
 31
0.0
  0
LINE
  5
24C
330
1F
100
AcDbEntity
  8
1
370
    13
100
AcDbLine
 10
35.666061
 20
-33.977764
 30
0.0
 11
38.370614
 21
-31.292289
 31
0.0
  0
LINE
  5
24D
330
1F
100
AcDbEntity
  8
1
370
    13
100
AcDbLine
 10
32.369413
 20
-34.10509
 30
0.0
 11
35.126923
 21
-34.197519
 31
0.0
  0
LINE
  5
24E
330
1F
100
AcDbEntity
  8
1
370
    13
100
AcDbLine
 10
34.102939
 20
-35.942392
 30
0.0
 11
31.700563
 21
-35.861867
 31
0.0
  0
LINE
  5
24F
330
1F
100
AcDbEntity
  8
1
370
    13
100
AcDbLine
 10
38.95192
 20
-31.443196
 30
0.0
 11
34.642077
 21
-35.722637
 31
0.0
  0
LINE
  5
250
330
1F
100
AcDbEntity
  8
1
370
    13
100
AcDbLine
 10
39.183615
 20
-28.431601
 30
0.0
 11
39.183615
 21
-30.897556
 31
0.0
  0
LINE
  5
251
330
1F
100
AcDbEntity
  8
1
370
    13
100
AcDbLine
 10
31.700563
 20
15.359192
 30
0.0
 11
34.102939
 21
15.799683
 31
0.0
  0
LINE
  5
252
330
1F
100
AcDbEntity
  8
1
370
    13
100
AcDbLine
 10
35.126923
 20
14.858993
 30
0.0
 11
32.330914
 21
14.346328
 31
0.0
  0
LINE
  5
253
330
1F
100
AcDbEntity
  8
1
370
    13
100
AcDbLine
 10
38.370614
 20
17.653404
 30
0.0
 11
35.666061
 21
15.131419
 31
0.0
  0
LINE
  5
254
330
1F
100
AcDbEntity
  8
1
370
    13
100
AcDbLine
 10
32.217918
 20
-1.415484
 30
0.0
 11
35.126923
 21
-2.174763
 31
0.0
  0
LINE
  5
255
330
1F
100
AcDbEntity
  8
1
370
    13
100
AcDbLine
 10
34.102939
 20
-5.220271
 30
0.0
 11
31.700563
 21
-4.593227
 31
0.0
  0
LINE
  5
256
330
1F
100
AcDbEntity
  8
1
370
    13
100
AcDbLine
 10
38.602309
 20
-2.401524
 30
0.0
 11
38.602309
 21
-1.832052
 31
0.0
  0
LINE
  5
257
330
1F
100
AcDbEntity
  8
1
370
    13
100
AcDbLine
 10
35.666061
 20
-2.270126
 30
0.0
 11
38.370614
 21
-2.446592
 31
0.0
  0
LINE
  5
258
330
1F
100
AcDbEntity
  8
1
370
    13
100
AcDbLine
 10
38.95192
 20
-5.596842
 30
0.0
 11
34.642077
 21
-5.315634
 31
0.0
  0
LINE
  5
259
330
1F
100
AcDbEntity
  8
1
370
    13
100
AcDbLine
 10
39.183615
 20
-5.081481
 30
0.0
 11
39.183615
 21
-5.551774
 31
0.0
  0
LINE
  5
25A
330
1F
100
AcDbEntity
  8
1
370
    13
100
AcDbLine
 10
16.148782
 20
20.728877
 30
0.0
 11
16.148782
 21
19.86754
 31
0.0
  0
LINE
  5
25B
330
1F
100
AcDbEntity
  8
1
370
    13
100
AcDbLine
 10
38.445905
 20
5.484948
 30
0.0
 11
38.445905
 21
6.0699
 31
0.0
  0
LINE
  5
25C
330
1F
100
AcDbEntity
  8
1
370
    13
100
AcDbLine
 10
16.0
 20
-2.451585
 30
0.0
 11
16.0
 21
19.781672
 31
0.0
  0
LINE
  5
25D
330
1F
100
AcDbEntity
  8
1
370
    13
100
AcDbLine
 10
32.18855
 20
-1.130351
 30
0.0
 11
33.459178
 21
-1.709654
 31
0.0
  0
LINE
  5
25E
330
1F
100
AcDbEntity
  8
1
370
    13
100
AcDbLine
 10
16.0
 20
-29.652354
 30
0.0
 11
16.0
 21
-14.359015
 31
0.0
  0
LINE
  5
25F
330
1F
100
AcDbEntity
  8
1
370
    13
100
AcDbLine
 10
38.5
 20
4.873094
 30
0.0
 11
38.5
 21
-2.229283
 31
0.0
  0
LINE
  5
260
330
1F
100
AcDbEntity
  8
1
370
    13
100
AcDbLine
 10
38.5
 20
5.007327
 30
0.0
 11
38.5
 21
4.873094
 31
0.0
  0
LINE
  5
261
330
1F
100
AcDbEntity
  8
1
370
    13
100
AcDbLine
 10
38.5
 20
5.984032
 30
0.0
 11
38.5
 21
5.297194
 31
0.0
  0
LINE
  5
262
330
1F
100
AcDbEntity
  8
1
370
    13
100
AcDbLine
 10
16.148782
 20
-11.387346
 30
0.0
 11
16.148782
 21
-14.351749
 31
0.0
  0
LINE
  5
263
330
1F
100
AcDbEntity
  8
1
370
    13
100
AcDbLine
 10
38.445905
 20
-25.980874
 30
0.0
 11
38.445905
 21
-24.029871
 31
0.0
  0
LINE
  5
264
330
1F
100
AcDbEntity
  8
1
370
    13
100
AcDbLine
 10
16.0
 20
-14.359015
 30
0.0
 11
16.0
 21
-11.394613
 31
0.0
  0
LINE
  5
265
330
1F
100
AcDbEntity
  8
1
370
    13
100
AcDbLine
 10
1.0
 20
-6.2275
 30
0.0
 11
1.0
 21
-24.0
 31
0.0
  0
LINE
  5
266
330
1F
100
AcDbEntity
  8
1
370
    13
100
AcDbLine
 10
5.575
 20
-6.2275
 30
0.0
 11
1.0
 21
-6.2275
 31
0.0
  0
LINE
  5
267
102
{ACAD_REACTORS
330
489
102
}
330
1F
100
AcDbEntity
  8
1
370
    13
100
AcDbLine
 10
6.375
 20
4.981774
 30
0.0
 11
6.375
 21
-4.981774
 31
0.0
  0
LINE
  5
268
102
{ACAD_REACTORS
330
425
102
}
330
1F
100
AcDbEntity
  8
SK3
370
    18
100
AcDbLine
 10
6.6
 20
-11.1
 30
0.0
 11
1.0
 21
-11.1
 31
0.0
  0
LINE
  5
269
330
1F
100
AcDbEntity
  8
SK3
370
    18
100
AcDbLine
 10
7.705858
 20
-11.00325
 30
0.0
 11
6.6
 21
-11.1
 31
0.0
  0
LINE
  5
26A
330
1F
100
AcDbEntity
  8
SK3
370
    18
100
AcDbLine
 10
16.0
 20
-11.00325
 30
0.0
 11
7.705858
 21
-11.00325
 31
0.0
  0
LINE
  5
26B
330
1F
100
AcDbEntity
  8
SK3
370
    18
100
AcDbLine
 10
18.838128
 20
-12.641844
 30
0.0
 11
16.0
 21
-11.00325
 31
0.0
  0
LINE
  5
26C
330
1F
100
AcDbEntity
  8
SK3
370
    18
100
AcDbLine
 10
21.156418
 20
-10.393244
 30
0.0
 11
19.344546
 21
-12.552549
 31
0.0
  0
LINE
  5
26D
330
1F
100
AcDbEntity
  8
SK3
370
    18
100
AcDbLine
 10
21.25
 20
-6.0
 30
0.0
 11
21.25
 21
-10.136129
 31
0.0
  0
LINE
  5
26E
330
1F
100
AcDbEntity
  8
SK3
370
    18
100
AcDbLine
 10
21.25
 20
-6.0
 30
0.0
 11
21.75
 21
-5.5
 31
0.0
  0
LINE
  5
26F
330
1F
100
AcDbEntity
  8
SK3
370
    18
100
AcDbLine
 10
25.25
 20
-5.5
 30
0.0
 11
21.75
 21
-5.5
 31
0.0
  0
LINE
  5
270
330
1F
100
AcDbEntity
  8
SK3
370
    18
100
AcDbLine
 10
25.25
 20
-5.5
 30
0.0
 11
25.75
 21
-6.0
 31
0.0
  0
LINE
  5
271
330
1F
100
AcDbEntity
  8
SK3
370
    18
100
AcDbLine
 10
25.75
 20
-8.65
 30
0.0
 11
25.75
 21
-6.0
 31
0.0
  0
LINE
  5
272
330
1F
100
AcDbEntity
  8
SK3
370
    18
100
AcDbLine
 10
31.5
 20
-9.05
 30
0.0
 11
26.15
 21
-9.05
 31
0.0
  0
LINE
  5
273
330
1F
100
AcDbEntity
  8
SK3
370
    18
100
AcDbLine
 10
31.5
 20
-9.05
 30
0.0
 11
26.15
 21
-9.05
 31
0.0
  0
LINE
  5
274
102
{ACAD_REACTORS
330
425
102
}
330
1F
100
AcDbEntity
  8
SK3
370
    18
100
AcDbLine
 10
6.6
 20
11.1
 30
0.0
 11
1.0
 21
11.1
 31
0.0
  0
LINE
  5
275
330
1F
100
AcDbEntity
  8
CUT
370
    18
100
AcDbLine
 10
24.150373
 20
29.071957
 30
0.0
 11
24.150373
 21
30.827064
 31
0.0
  0
LINE
  5
276
102
{ACAD_REACTORS
330
4A9
102
}
330
1F
100
AcDbEntity
  8
2
370
    13
100
AcDbLine
 10
52.375125
 20
31.475
 30
0.0
 11
52.375125
 21
-8.928176
 31
0.0
  0
LINE
  5
277
102
{ACAD_REACTORS
330
4A9
102
}
330
1F
100
AcDbEntity
  8
2
370
    13
100
AcDbLine
 10
42.5875
 20
31.475
 30
0.0
 11
55.550125
 21
31.475
 31
0.0
  0
LINE
  5
278
330
1F
100
AcDbEntity
  8
2
 60
     1
370
    18
100
AcDbLine
 10
52.375125
 20
31.475
 30
0.0
 11
52.793122
 21
28.300002
 31
0.0
  0
LINE
  5
279
330
1F
100
AcDbEntity
  8
2
 60
     1
370
    18
100
AcDbLine
 10
52.793122
 20
28.300002
 30
0.0
 11
51.957128
 21
28.299998
 31
0.0
  0
LINE
  5
27A
330
1F
100
AcDbEntity
  8
2
 60
     1
370
    18
100
AcDbLine
 10
51.957128
 20
28.299998
 30
0.0
 11
52.375125
 21
31.475
 31
0.0
  0
LINE
  5
27B
102
{ACAD_REACTORS
330
4AA
102
}
330
1F
100
AcDbEntity
  8
2
370
    13
100
AcDbLine
 10
38.842113
 20
32.632887
 30
0.0
 11
26.087745
 21
45.387255
 31
0.0
  0
LINE
  5
27C
102
{ACAD_REACTORS
330
4AA
102
}
330
1F
100
AcDbEntity
  8
2
370
    13
100
AcDbLine
 10
40.0
 20
33.1125
 30
0.0
 11
40.0
 21
51.1499
 31
0.0
  0
LINE
  5
27D
330
1F
100
AcDbEntity
  8
2
 60
     1
370
    18
100
AcDbLine
 10
28.332809
 20
43.142191
 30
0.0
 11
26.507354
 21
40.511022
 31
0.0
  0
LINE
  5
27E
330
1F
100
AcDbEntity
  8
2
 60
     1
370
    18
100
AcDbLine
 10
26.507354
 20
40.511022
 30
0.0
 11
25.888556
 21
41.073137
 31
0.0
  0
LINE
  5
27F
330
1F
100
AcDbEntity
  8
2
 60
     1
370
    18
100
AcDbLine
 10
25.888556
 20
41.073137
 30
0.0
 11
28.332809
 21
43.142191
 31
0.0
  0
LINE
  5
280
330
1F
100
AcDbEntity
  8
2
 60
     1
370
    18
100
AcDbLine
 10
40.0
 20
47.9749
 30
0.0
 11
43.191387
 21
48.240206
 31
0.0
  0
LINE
  5
281
330
1F
100
AcDbEntity
  8
2
 60
     1
370
    18
100
AcDbLine
 10
43.191387
 20
48.240206
 30
0.0
 11
43.151312
 21
47.405173
 31
0.0
  0
LINE
  5
282
330
1F
100
AcDbEntity
  8
2
 60
     1
370
    18
100
AcDbLine
 10
43.151312
 20
47.405173
 30
0.0
 11
40.0
 21
47.9749
 31
0.0
  0
ARC
  5
283
330
1F
100
AcDbEntity
  8
SK3
370
    18
100
AcDbCircle
 10
19.038128
 20
-12.295434
 30
0.0
 40
0.4
100
AcDbArc
 50
240.0
 51
320.0
  0
ARC
  5
284
330
1F
100
AcDbEntity
  8
SK3
370
    18
100
AcDbCircle
 10
20.85
 20
-10.136129
 30
0.0
 40
0.4
100
AcDbArc
 50
320.0
 51
0.0
  0
ARC
  5
285
330
1F
100
AcDbEntity
  8
SK3
370
    18
100
AcDbCircle
 10
26.15
 20
-8.65
 30
0.0
 40
0.4
100
AcDbArc
 50
180.0
 51
270.0
  0
ARC
  5
286
330
1F
100
AcDbEntity
  8
SK3
370
    18
100
AcDbCircle
 10
19.038128
 20
12.295434
 30
0.0
 40
0.4
100
AcDbArc
 50
40.0
 51
120.0
  0
ARC
  5
287
330
1F
100
AcDbEntity
  8
SK3
370
    18
100
AcDbCircle
 10
20.85
 20
10.136129
 30
0.0
 40
0.4
100
AcDbArc
 50
0.0
 51
40.0
  0
ARC
  5
288
330
1F
100
AcDbEntity
  8
SK3
370
    18
100
AcDbCircle
 10
26.15
 20
8.65
 30
0.0
 40
0.4
100
AcDbArc
 50
90.0
 51
180.0
  0
ARC
  5
289
330
1F
100
AcDbEntity
  8
1
370
    18
100
AcDbCircle
 10
31.643035
 20
-14.440979
 30
0.0
 40
12.8227158678698
100
AcDbArc
 50
72.938642
 51
80.721829
  0
ARC
  5
28A
330
1F
100
AcDbEntity
  8
1
370
    18
100
AcDbCircle
 10
34.971153
 20
-28.343742
 30
0.0
 40
2.084726575165331
100
AcDbArc
 50
79.215781
 51
129.496601
  0
ARC
  5
28B
330
1F
100
AcDbEntity
  8
1
370
    18
100
AcDbCircle
 10
34.931168
 20
-28.522269
 30
0.0
 40
2.267589349462447
100
AcDbArc
 50
31.610607
 51
79.067351
  0
ARC
  5
28C
330
1F
100
AcDbEntity
  8
1
370
    18
100
AcDbCircle
 10
34.900797
 20
-28.562391
 30
0.0
 40
2.314556062922433
100
AcDbArc
 50
345.269098
 51
32.062385
  0
ARC
  5
28D
330
1F
100
AcDbEntity
  8
1
370
    18
100
AcDbCircle
 10
35.08883
 20
-28.615155
 30
0.0
 40
2.119288560678013
100
AcDbArc
 50
295.640835
 51
345.356058
  0
ARC
  5
28E
330
1F
100
AcDbEntity
  8
1
370
    18
100
AcDbCircle
 10
35.106187
 20
-28.60009
 30
0.0
 40
2.125860556705391
100
AcDbArc
 50
243.510568
 51
293.120022
  0
ARC
  5
28F
330
1F
100
AcDbEntity
  8
1
370
    18
100
AcDbCircle
 10
32.801433
 20
24.281246
 30
0.0
 40
1.944817146533372
100
AcDbArc
 50
281.221565
 51
332.322267
  0
ARC
  5
290
330
1F
100
AcDbEntity
  8
1
370
    18
100
AcDbCircle
 10
32.582934
 20
25.233364
 30
0.0
 40
2.921397850978776
100
AcDbArc
 50
242.98711
 51
281.791042
  0
ARC
  5
291
330
1F
100
AcDbEntity
  8
1
370
    18
100
AcDbCircle
 10
32.520137
 20
25.269056
 30
0.0
 40
2.925564157161041
100
AcDbArc
 50
205.634192
 51
244.400415
  0
ARC
  5
292
330
1F
100
AcDbEntity
  8
1
370
    18
100
AcDbCircle
 10
31.629777
 20
24.863961
 30
0.0
 40
1.947686570174067
100
AcDbArc
 50
155.003385
 51
206.221583
  0
ARC
  5
293
330
1F
100
AcDbEntity
  8
1
370
    18
100
AcDbCircle
 10
31.58852
 20
24.785791
 30
0.0
 40
1.945330162244156
100
AcDbArc
 50
101.1415
 51
152.402331
  0
ARC
  5
294
330
1F
100
AcDbEntity
  8
1
370
    18
100
AcDbCircle
 10
31.806323
 20
23.832602
 30
0.0
 40
2.922790015774273
100
AcDbArc
 50
62.92869
 51
101.720012
  0
ARC
  5
295
330
1F
100
AcDbEntity
  8
1
370
    18
100
AcDbCircle
 10
31.870317
 20
23.799334
 30
0.0
 40
2.924178788396425
100
AcDbArc
 50
25.563244
 51
64.341997
  0
ARC
  5
296
330
1F
100
AcDbEntity
  8
1
370
    18
100
AcDbCircle
 10
32.760921
 20
24.203384
 30
0.0
 40
1.946506664874053
100
AcDbArc
 50
334.906669
 51
26.146204
  0
ARC
  5
297
330
1F
100
AcDbEntity
  8
1
370
    18
100
AcDbCircle
 10
32.605242
 20
24.165175
 30
0.0
 40
1.268483354799504
100
AcDbArc
 50
291.465266
 51
333.346478
  0
ARC
  5
298
330
1F
100
AcDbEntity
  8
1
370
    18
100
AcDbCircle
 10
32.378195
 20
24.800773
 30
0.0
 40
1.943197798263154
100
AcDbArc
 50
242.932222
 51
290.83752
  0
ARC
  5
299
330
1F
100
AcDbEntity
  8
1
370
    18
100
AcDbCircle
 10
32.312116
 20
24.855542
 30
0.0
 40
1.963685466445024
100
AcDbArc
 50
197.81715
 51
245.376996
  0
ARC
  5
29A
330
1F
100
AcDbEntity
  8
1
370
    18
100
AcDbCircle
 10
31.637611
 20
24.63523
 30
0.0
 40
1.254125178936311
100
AcDbArc
 50
132.74047
 51
197.663633
  0
ARC
  5
29B
330
1F
100
AcDbEntity
  8
1
370
    18
100
AcDbCircle
 10
31.852598
 20
24.27871
 30
0.0
 40
1.663997458456953
100
AcDbArc
 50
76.515305
 51
129.844544
  0
ARC
  5
29C
330
1F
100
AcDbEntity
  8
1
370
    18
100
AcDbCircle
 10
31.82567
 20
23.796499
 30
0.0
 40
2.140932800832406
100
AcDbArc
 50
34.014703
 51
78.824413
  0
ARC
  5
29D
330
1F
100
AcDbEntity
  8
1
370
    18
100
AcDbCircle
 10
32.457734
 20
24.174952
 30
0.0
 40
1.405876509489348
100
AcDbArc
 50
335.687829
 51
35.640321
  0
ARC
  5
29E
330
1F
100
AcDbEntity
  8
1
370
    18
100
AcDbCircle
 10
32.691442
 20
26.05939
 30
0.0
 40
0.7008233154884347
100
AcDbArc
 50
219.008491
 51
279.728574
  0
ARC
  5
29F
330
1F
100
AcDbEntity
  8
1
370
    18
100
AcDbCircle
 10
31.779604
 20
25.252561
 30
0.0
 40
0.5791912909150929
100
AcDbArc
 50
60.160109
 51
130.325241
  0
ARC
  5
2A0
330
1F
100
AcDbEntity
  8
1
370
    18
100
AcDbCircle
 10
30.968422
 20
25.642325
 30
0.0
 40
0.4491674455606809
100
AcDbArc
 50
264.163646
 51
348.200856
  0
ARC
  5
2A1
330
1F
100
AcDbEntity
  8
1
370
    18
100
AcDbCircle
 10
30.969075
 20
24.848809
 30
0.0
 40
0.4280512960348347
100
AcDbArc
 50
119.408334
 51
205.03451
  0
ARC
  5
2A2
330
1F
100
AcDbEntity
  8
1
370
    18
100
AcDbCircle
 10
30.401632
 20
24.154786
 30
0.0
 40
0.5326054126222379
100
AcDbArc
 50
340.103827
 51
52.644399
  0
ARC
  5
2A3
330
1F
100
AcDbEntity
  8
1
370
    18
100
AcDbCircle
 10
31.473802
 20
24.02335
 30
0.0
 40
0.6754428992470211
100
AcDbArc
 50
193.728651
 51
255.353014
  0
ARC
  5
2A4
330
1F
100
AcDbEntity
  8
1
370
    18
100
AcDbCircle
 10
31.561687
 20
22.733234
 30
0.0
 40
0.7008233154887777
100
AcDbArc
 50
39.008491
 51
99.728574
  0
ARC
  5
2A5
330
1F
100
AcDbEntity
  8
1
370
    18
100
AcDbCircle
 10
32.473524
 20
23.540062
 30
0.0
 40
0.5791912909148957
100
AcDbArc
 50
240.160109
 51
310.325241
  0
ARC
  5
2A6
330
1F
100
AcDbEntity
  8
1
370
    18
100
AcDbCircle
 10
33.284706
 20
23.150298
 30
0.0
 40
0.4491674455606722
100
AcDbArc
 50
84.163646
 51
168.200856
  0
ARC
  5
2A7
330
1F
100
AcDbEntity
  8
1
370
    18
100
AcDbCircle
 10
33.284054
 20
23.943815
 30
0.0
 40
0.428051296034723
100
AcDbArc
 50
299.408334
 51
25.03451
  0
ARC
  5
2A8
330
1F
100
AcDbEntity
  8
1
370
    18
100
AcDbCircle
 10
33.851496
 20
24.637838
 30
0.0
 40
0.5326054126222209
100
AcDbArc
 50
160.103827
 51
232.644399
  0
ARC
  5
2A9
330
1F
100
AcDbEntity
  8
1
370
    18
100
AcDbCircle
 10
32.779327
 20
24.769274
 30
0.0
 40
0.6754428992468081
100
AcDbArc
 50
13.728651
 51
75.353014
  0
ARC
  5
2AA
330
1F
100
AcDbEntity
  8
1
370
    18
100
AcDbCircle
 10
35.406772
 20
-28.366836
 30
0.0
 40
1.274441943983425
100
AcDbArc
 50
195.608562
 51
258.82528
  0
ARC
  5
2AB
330
1F
100
AcDbEntity
  8
1
370
    18
100
AcDbCircle
 10
35.359639
 20
-28.357862
 30
0.0
 40
1.231645871193802
100
AcDbArc
 50
131.844115
 51
196.600616
  0
ARC
  5
2AC
330
1F
100
AcDbEntity
  8
1
370
    18
100
AcDbCircle
 10
35.302977
 20
-28.32422
 30
0.0
 40
1.168951311434456
100
AcDbArc
 50
63.686425
 51
130.875155
  0
ARC
  5
2AD
330
1F
100
AcDbEntity
  8
1
370
    18
100
AcDbCircle
 10
35.252667
 20
-28.43781
 30
0.0
 40
1.293083802226512
100
AcDbArc
 50
1.345427
 51
63.919267
  0
ARC
  5
2AE
330
1F
100
AcDbEntity
  8
1
370
    18
100
AcDbCircle
 10
35.350008
 20
-28.450392
 30
0.0
 40
1.196156782156917
100
AcDbArc
 50
295.951489
 51
2.057464
  0
ARC
  5
2AF
330
1F
100
AcDbEntity
  8
1
370
    18
100
AcDbCircle
 10
35.265507
 20
-28.575418
 30
0.0
 40
1.619356473189677
100
AcDbArc
 50
263.641338
 51
295.369287
  0
ARC
  5
2B0
330
1F
100
AcDbEntity
  8
1
370
    18
100
AcDbCircle
 10
35.291327
 20
-28.437273
 30
0.0
 40
1.75954210123844
100
AcDbArc
 50
209.385777
 51
263.303959
  0
ARC
  5
2B1
330
1F
100
AcDbEntity
  8
1
370
    18
100
AcDbCircle
 10
35.304367
 20
-28.406614
 30
0.0
 40
1.786063672116379
100
AcDbArc
 50
156.675365
 51
210.0375
  0
ARC
  5
2B2
330
1F
100
AcDbEntity
  8
1
370
    18
100
AcDbCircle
 10
35.155635
 20
-28.345357
 30
0.0
 40
1.625235049737695
100
AcDbArc
 50
99.610565
 51
156.582375
  0
ARC
  5
2B3
330
1F
100
AcDbEntity
  8
1
370
    18
100
AcDbCircle
 10
35.151183
 20
-28.429406
 30
0.0
 40
1.707461216645638
100
AcDbArc
 50
43.939222
 51
98.992405
  0
ARC
  5
2B4
330
1F
100
AcDbEntity
  8
1
370
    18
100
AcDbCircle
 10
35.086554
 20
-28.51491
 30
0.0
 40
1.813407412321385
100
AcDbArc
 50
351.664086
 51
44.467609
  0
ARC
  5
2B5
330
1F
100
AcDbEntity
  8
1
370
    18
100
AcDbCircle
 10
35.238971
 20
-28.544988
 30
0.0
 40
1.658257067043811
100
AcDbArc
 50
295.747254
 51
351.928869
  0
ARC
  5
2B6
330
1F
100
AcDbEntity
  8
1
370
    18
100
AcDbCircle
 10
32.919284
 20
23.883136
 30
0.0
 40
2.149291633257838
100
AcDbArc
 50
297.965442
 51
333.385161
  0
ARC
  5
2B7
330
1F
100
AcDbEntity
  8
1
370
    18
100
AcDbCircle
 10
32.539101
 20
24.668352
 30
0.0
 40
3.021274648358658
100
AcDbArc
 50
258.220058
 51
297.350452
  0
ARC
  5
2B8
330
1F
100
AcDbEntity
  8
1
370
    18
100
AcDbCircle
 10
32.61893
 20
25.386487
 30
0.0
 40
3.741209212921944
100
AcDbArc
 50
225.431381
 51
259.268593
  0
ARC
  5
2B9
330
1F
100
AcDbEntity
  8
1
370
    18
100
AcDbCircle
 10
32.013183
 20
24.846341
 30
0.0
 40
2.931781980414134
100
AcDbArc
 50
186.517052
 51
226.457173
  0
ARC
  5
2BA
330
1F
100
AcDbEntity
  8
1
370
    18
100
AcDbCircle
 10
31.194279
 20
24.726828
 30
0.0
 40
2.104762933888171
100
AcDbArc
 50
135.727186
 51
185.814813
  0
ARC
  5
2BB
330
1F
100
AcDbEntity
  8
1
370
    18
100
AcDbCircle
 10
31.500914
 20
24.329005
 30
0.0
 40
2.602994164790065
100
AcDbArc
 50
90.85373
 51
134.168669
  0
ARC
  5
2BC
330
1F
100
AcDbEntity
  8
1
370
    18
100
AcDbCircle
 10
31.570507
 20
23.286708
 30
0.0
 40
3.646612683447762
100
AcDbArc
 50
57.272181
 51
91.703077
  0
ARC
  5
2BD
330
1F
100
AcDbEntity
  8
1
370
    18
100
AcDbCircle
 10
31.787103
 20
23.506207
 30
0.0
 40
3.345460513719701
100
AcDbArc
 50
21.852266
 51
58.360443
  0
ARC
  5
2BE
330
1F
100
AcDbEntity
  8
1
370
    18
100
AcDbCircle
 10
32.785888
 20
23.894198
 30
0.0
 40
2.27405521527634
100
AcDbArc
 50
334.641781
 51
22.145817
  0
ARC
  5
2BF
330
1F
100
AcDbEntity
  8
1
370
    18
100
AcDbCircle
 10
32.911162
 20
24.725753
 30
0.0
 40
2.476798887645301
100
AcDbArc
 50
272.438234
 51
317.017473
  0
ARC
  5
2C0
330
1F
100
AcDbEntity
  8
1
370
    18
100
AcDbCircle
 10
32.815381
 20
25.766051
 30
0.0
 40
3.520605812868285
100
AcDbArc
 50
238.195339
 51
273.275372
  0
ARC
  5
2C1
330
1F
100
AcDbEntity
  8
1
370
    18
100
AcDbCircle
 10
32.628784
 20
25.588405
 30
0.0
 40
3.271936842718804
100
AcDbArc
 50
202.461135
 51
239.332878
  0
ARC
  5
2C2
330
1F
100
AcDbEntity
  8
1
370
    18
100
AcDbCircle
 10
31.647352
 20
25.196683
 30
0.0
 40
2.215335763965171
100
AcDbArc
 50
154.682329
 51
202.796236
  0
ARC
  5
2C3
330
1F
100
AcDbEntity
  8
1
370
    18
100
AcDbCircle
 10
35.764257
 20
3.666618
 30
0.0
 40
0.962532032230944
100
AcDbArc
 50
35.868154
 51
81.834315
  0
ARC
  5
2C4
330
1F
100
AcDbEntity
  8
1
370
    18
100
AcDbCircle
 10
34.5103
 20
-28.538624
 30
0.0
 40
1.862407295548222
100
AcDbArc
 50
75.957476
 51
115.302857
  0
ARC
  5
2C5
330
1F
100
AcDbEntity
  8
1
370
    18
100
AcDbCircle
 10
34.63704
 20
-28.800649
 30
0.0
 40
1.846518701698598
100
AcDbArc
 50
266.528776
 51
319.725844
  0
ARC
  5
2C6
330
1F
100
AcDbEntity
  8
1
370
    18
100
AcDbCircle
 10
34.494055
 20
-28.851141
 30
0.0
 40
2.091843477149264
100
AcDbArc
 50
298.314447
 51
334.727553
  0
ARC
  5
2C7
330
1F
100
AcDbEntity
  8
1
370
    18
100
AcDbCircle
 10
27.943915
 20
11.942507
 30
0.0
 40
4.773622281364785
100
AcDbArc
 50
176.420347
 51
197.063903
  0
ARC
  5
2C8
330
1F
100
AcDbEntity
  8
1
370
    18
100
AcDbCircle
 10
26.025942
 20
11.319178
 30
0.0
 40
2.75737287604882
100
AcDbArc
 50
196.376451
 51
232.960756
  0
ARC
  5
2C9
330
1F
100
AcDbEntity
  8
1
370
    18
100
AcDbCircle
 10
25.665357
 20
10.97244
 30
0.0
 40
2.264772720744101
100
AcDbArc
 50
234.958895
 51
280.485433
  0
ARC
  5
2CA
330
1F
100
AcDbEntity
  8
1
370
    18
100
AcDbCircle
 10
25.4167
 20
12.238481
 30
0.0
 40
3.554953155494821
100
AcDbArc
 50
280.712743
 51
309.602829
  0
ARC
  5
2CB
330
1F
100
AcDbEntity
  8
1
370
    18
100
AcDbCircle
 10
25.395758
 20
12.171626
 30
0.0
 40
3.366246541166999
100
AcDbArc
 50
280.863063
 51
309.290045
  0
ARC
  5
2CC
330
1F
100
AcDbEntity
  8
1
370
    18
100
AcDbCircle
 10
25.644723
 20
10.90449
 30
0.0
 40
2.074905096857393
100
AcDbArc
 50
234.281837
 51
280.705772
  0
ARC
  5
2CD
330
1F
100
AcDbEntity
  8
1
370
    18
100
AcDbCircle
 10
26.006218
 20
11.243019
 30
0.0
 40
2.562589711818923
100
AcDbArc
 50
195.539411
 51
232.137936
  0
ARC
  5
2CE
330
1F
100
AcDbEntity
  8
1
370
    18
100
AcDbCircle
 10
27.949171
 20
11.841336
 30
0.0
 40
4.595150768115732
100
AcDbArc
 50
176.37876
 51
196.236771
  0
ARC
  5
2CF
330
1F
100
AcDbEntity
  8
1
370
    18
100
AcDbCircle
 10
24.201816
 20
9.754943
 30
0.0
 40
2.520251902751967
100
AcDbArc
 50
94.006948
 51
109.436088
  0
ARC
  5
2D0
330
1F
100
AcDbEntity
  8
1
370
    18
100
AcDbCircle
 10
24.228611
 20
9.315687
 30
0.0
 40
2.960309188083727
100
AcDbArc
 50
74.88208
 51
93.930232
  0
ARC
  5
2D1
330
1F
100
AcDbEntity
  8
1
370
    18
100
AcDbCircle
 10
24.071437
 20
8.735807
 30
0.0
 40
3.561112149414665
100
AcDbArc
 50
47.112596
 51
74.874061
  0
ARC
  5
2D2
330
1F
100
AcDbEntity
  8
1
370
    18
100
AcDbCircle
 10
24.132848
 20
8.762968
 30
0.0
 40
3.499518086904919
100
AcDbArc
 50
27.241269
 51
47.546644
  0
ARC
  5
2D3
330
1F
100
AcDbEntity
  8
1
370
    18
100
AcDbCircle
 10
24.491555
 20
8.938698
 30
0.0
 40
3.100168189923068
100
AcDbArc
 50
11.681199
 51
27.388278
  0
ARC
  5
2D4
330
1F
100
AcDbEntity
  8
1
370
    18
100
AcDbCircle
 10
28.050095
 20
15.452884
 30
0.0
 40
0.1696195023215424
100
AcDbArc
 50
62.82055
 51
160.650165
  0
ARC
  5
2D5
330
1F
100
AcDbEntity
  8
1
370
    18
100
AcDbCircle
 10
28.352986
 20
15.532125
 30
0.0
 40
0.4635018100565103
100
AcDbArc
 50
182.849219
 51
243.241231
  0
ARC
  5
2D6
330
1F
100
AcDbEntity
  8
1
370
    18
100
AcDbCircle
 10
30.762167
 20
18.062564
 30
0.0
 40
3.939815814527903
100
AcDbArc
 50
228.358788
 51
240.030131
  0
ARC
  5
2D7
330
1F
100
AcDbEntity
  8
1
370
    18
100
AcDbCircle
 10
31.162047
 20
18.584152
 30
0.0
 40
4.592221876372073
100
AcDbArc
 50
238.958882
 51
251.506128
  0
ARC
  5
2D8
330
1F
100
AcDbEntity
  8
1
370
    18
100
AcDbCircle
 10
30.029589
 20
14.885765
 30
0.0
 40
0.7323541501007099
100
AcDbArc
 50
243.724013
 51
288.199382
  0
ARC
  5
2D9
330
1F
100
AcDbEntity
  8
1
370
    18
100
AcDbCircle
 10
30.182639
 20
14.275232
 30
0.0
 40
0.1139489442374529
100
AcDbArc
 50
311.619374
 51
29.596018
  0
ARC
  5
2DA
330
1F
100
AcDbEntity
  8
1
370
    18
100
AcDbCircle
 10
28.826658
 20
13.434762
 30
0.0
 40
1.70919932790601
100
AcDbArc
 50
31.645296
 51
57.322869
  0
ARC
  5
2DB
330
1F
100
AcDbEntity
  8
1
370
    18
100
AcDbCircle
 10
26.771079
 20
10.697495
 30
0.0
 40
5.129257339404106
100
AcDbArc
 50
54.502637
 51
65.2114
  0
ARC
  5
2DC
330
1F
100
AcDbEntity
  8
1
370
    18
100
AcDbCircle
 10
27.767393
 20
13.0703
 30
0.0
 40
2.558949473179601
100
AcDbArc
 50
63.188346
 51
81.908558
  0
ARC
  5
2DD
330
1F
100
AcDbEntity
  8
1
370
    18
100
AcDbCircle
 10
24.381066
 20
8.622247
 30
0.0
 40
3.479582879910725
100
AcDbArc
 50
15.606495
 51
42.937808
  0
ARC
  5
2DE
330
1F
100
AcDbEntity
  8
1
370
    18
100
AcDbCircle
 10
23.691937
 20
8.051829
 30
0.0
 40
4.372967559965498
100
AcDbArc
 50
42.258601
 51
68.86934
  0
ARC
  5
2DF
330
1F
100
AcDbEntity
  8
1
370
    18
100
AcDbCircle
 10
24.037894
 20
9.167604
 30
0.0
 40
3.208486371818262
100
AcDbArc
 50
67.448838
 51
104.189307
  0
ARC
  5
2E0
330
1F
100
AcDbEntity
  8
1
370
    18
100
AcDbCircle
 10
34.127375
 20
31.701831
 30
0.0
 40
22.2087255527304
100
AcDbArc
 50
224.195556
 51
234.150822
  0
ARC
  5
2E1
330
1F
100
AcDbEntity
  8
1
370
    18
100
AcDbCircle
 10
25.89671
 20
23.753527
 30
0.0
 40
10.76686184160589
100
AcDbArc
 50
212.086614
 51
224.403211
  0
ARC
  5
2E2
330
1F
100
AcDbEntity
  8
1
370
    18
100
AcDbCircle
 10
19.813786
 20
20.094961
 30
0.0
 40
3.672052917187723
100
AcDbArc
 50
183.550772
 51
214.139622
  0
ARC
  5
2E3
330
1F
100
AcDbEntity
  8
1
370
    18
100
AcDbCircle
 10
8.342164
 20
19.804541
 30
0.0
 40
7.887049464779087
100
AcDbArc
 50
10.060335
 51
15.47245
  0
ARC
  5
2E4
330
1F
100
AcDbEntity
  8
1
370
    18
100
AcDbCircle
 10
-10.378201
 20
14.697375
 30
0.0
 40
27.29152510715448
100
AcDbArc
 50
15.32119
 51
16.591035
  0
ARC
  5
2E5
330
1F
100
AcDbEntity
  8
1
370
    18
100
AcDbCircle
 10
202.004408
 20
77.299372
 30
0.0
 40
194.1253696805585
100
AcDbArc
 50
196.254557
 51
196.39987
  0
ARC
  5
2E6
330
1F
100
AcDbEntity
  8
1
370
    18
100
AcDbCircle
 10
34.72146
 20
14.742206
 30
0.0
 40
3.288755494949594
100
AcDbArc
 50
188.361671
 51
207.06267
  0
ARC
  5
2E7
330
1F
100
AcDbEntity
  8
1
370
    18
100
AcDbCircle
 10
38.079618
 20
16.520256
 30
0.0
 40
7.088393941069148
100
AcDbArc
 50
207.511501
 51
223.525867
  0
ARC
  5
2E8
330
1F
100
AcDbEntity
  8
1
370
    18
100
AcDbCircle
 10
95.103318
 20
69.453876
 30
0.0
 40
84.89988001552696
100
AcDbArc
 50
223.928305
 51
225.935115
  0
ARC
  5
2E9
330
1F
100
AcDbEntity
  8
1
370
    18
100
AcDbCircle
 10
127.126344
 20
102.486012
 30
0.0
 40
130.9063505412801
100
AcDbArc
 50
225.918795
 51
227.199737
  0
ARC
  5
2EA
330
1F
100
AcDbEntity
  8
1
370
    18
100
AcDbCircle
 10
31.233163
 20
-2.021008
 30
0.0
 40
10.44686347075432
100
AcDbArc
 50
50.010437
 51
60.389791
  0
ARC
  5
2EB
330
1F
100
AcDbEntity
  8
1
370
    18
100
AcDbCircle
 10
30.218352
 20
-3.551305
 30
0.0
 40
12.27937763623431
100
AcDbArc
 50
59.801072
 51
67.643534
  0
ARC
  5
2EC
330
1F
100
AcDbEntity
  8
1
370
    18
100
AcDbCircle
 10
32.924131
 20
3.453146
 30
0.0
 40
4.77496689830579
100
AcDbArc
 50
65.700886
 51
84.535237
  0
ARC
  5
2ED
330
1F
100
AcDbEntity
  8
1
370
    18
100
AcDbCircle
 10
33.306598
 20
7.618921
 30
0.0
 40
0.5919174433385063
100
AcDbArc
 50
82.986925
 51
123.961736
  0
ARC
  5
2EE
330
1F
100
AcDbEntity
  8
1
370
    18
100
AcDbCircle
 10
33.163547
 20
7.923911
 30
0.0
 40
0.2641573614143747
100
AcDbArc
 50
135.255242
 51
206.487277
  0
ARC
  5
2EF
330
1F
100
AcDbEntity
  8
1
370
    18
100
AcDbCircle
 10
34.491801
 20
8.480818
 30
0.0
 40
1.703960800386914
100
AcDbArc
 50
203.326616
 51
226.840142
  0
ARC
  5
2F0
330
1F
100
AcDbEntity
  8
1
370
    18
100
AcDbCircle
 10
38.459473
 20
12.39793
 30
0.0
 40
7.278491656285282
100
AcDbArc
 50
225.149288
 51
236.402081
  0
ARC
  5
2F1
330
1F
100
AcDbEntity
  8
1
370
    18
100
AcDbCircle
 10
30.610486
 20
24.696871
 30
0.0
 40
31.21464930301519
100
AcDbArc
 50
246.346411
 51
252.471891
  0
ARC
  5
2F2
330
1F
100
AcDbEntity
  8
1
370
    18
100
AcDbCircle
 10
22.050798
 20
5.388889
 30
0.0
 40
10.09501275870675
100
AcDbArc
 50
236.978338
 51
246.880459
  0
ARC
  5
2F3
330
1F
100
AcDbEntity
  8
1
370
    18
100
AcDbCircle
 10
16.991836
 20
-2.131894
 30
0.0
 40
1.042085184306135
100
AcDbArc
 50
197.865287
 51
244.880291
  0
ARC
  5
2F4
330
1F
100
AcDbEntity
  8
1
370
    18
100
AcDbCircle
 10
19.814769
 20
1.356984
 30
0.0
 40
5.54000395772184
100
AcDbArc
 50
231.908322
 51
243.596917
  0
ARC
  5
2F5
330
1F
100
AcDbEntity
  8
1
370
    18
100
AcDbCircle
 10
26.36014
 20
13.955163
 30
0.0
 40
19.73637494571037
100
AcDbArc
 50
242.840914
 51
249.81521
  0
ARC
  5
2F6
330
1F
100
AcDbEntity
  8
1
370
    18
100
AcDbCircle
 10
33.747039
 20
33.206108
 30
0.0
 40
40.35490660667065
100
AcDbArc
 50
249.402458
 51
254.514459
  0
ARC
  5
2F7
330
1F
100
AcDbEntity
  8
1
370
    18
100
AcDbCircle
 10
22.057135
 20
21.201717
 30
0.0
 40
6.314387124714519
100
AcDbArc
 50
200.278049
 51
220.626621
  0
ARC
  5
2F8
330
1F
100
AcDbEntity
  8
1
370
    18
100
AcDbCircle
 10
30.235105
 20
27.826546
 30
0.0
 40
16.8374336149409
100
AcDbArc
 50
219.616401
 51
230.53993
  0
ARC
  5
2F9
330
1F
100
AcDbEntity
  8
1
370
    18
100
AcDbCircle
 10
37.684305
 20
36.573687
 30
0.0
 40
28.32573648793151
100
AcDbArc
 50
230.151306
 51
238.774438
  0
ARC
  5
2FA
330
1F
100
AcDbEntity
  8
1
370
    18
100
AcDbCircle
 10
31.80054
 20
12.369275
 30
0.0
 40
4.579775575606331
100
AcDbArc
 50
241.795262
 51
245.856125
  0
ARC
  5
2FB
330
1F
100
AcDbEntity
  8
1
370
    18
100
AcDbCircle
 10
31.195686
 20
10.982505
 30
0.0
 40
3.066953435671143
100
AcDbArc
 50
245.570522
 51
252.605391
  0
ARC
  5
2FC
330
1F
100
AcDbEntity
  8
1
370
    18
100
AcDbCircle
 10
30.658991
 20
-3.946699
 30
0.0
 40
3.64217957652416
100
AcDbArc
 50
259.836298
 51
264.008502
  0
ARC
  5
2FD
330
1F
100
AcDbEntity
  8
1
370
    18
100
AcDbCircle
 10
31.065053
 20
-1.704169
 30
0.0
 40
5.92117414807638
100
AcDbArc
 50
256.034283
 51
259.797876
  0
ARC
  5
2FE
330
1F
100
AcDbEntity
  8
1
370
    18
100
AcDbCircle
 10
264.409295
 20
403.772173
 30
0.0
 40
459.8808175758752
100
AcDbArc
 50
239.018851
 51
239.143475
  0
ARC
  5
2FF
330
1F
100
AcDbEntity
  8
1
370
    18
100
AcDbCircle
 10
269.899141
 20
412.961535
 30
0.0
 40
470.585152060453
100
AcDbArc
 50
239.143517
 51
239.298698
  0
ARC
  5
300
330
1F
100
AcDbEntity
  8
1
370
    18
100
AcDbCircle
 10
33.095288
 20
-2.671989
 30
0.0
 40
2.003172360094018
100
AcDbArc
 50
140.817609
 51
177.973276
  0
ARC
  5
301
330
1F
100
AcDbEntity
  8
1
370
    18
100
AcDbCircle
 10
33.145898
 20
-2.741529
 30
0.0
 40
2.057324233978013
100
AcDbArc
 50
176.087329
 51
209.16888
  0
ARC
  5
302
330
1F
100
AcDbEntity
  8
1
370
    18
100
AcDbCircle
 10
32.431076
 20
-2.322999
 30
0.0
 40
1.254325743267885
100
AcDbArc
 50
111.604001
 51
158.654759
  0
ARC
  5
303
330
1F
100
AcDbEntity
  8
1
370
    18
100
AcDbCircle
 10
32.208561
 20
-2.631621
 30
0.0
 40
1.494123044876166
100
AcDbArc
 50
48.722293
 51
99.216805
  0
ARC
  5
304
330
1F
100
AcDbEntity
  8
1
370
    18
100
AcDbCircle
 10
31.47843
 20
-4.050823
 30
0.0
 40
3.066941741527775
100
AcDbArc
 50
53.247292
 51
55.981845
  0
ARC
  5
305
330
1F
100
AcDbEntity
  8
1
370
    18
100
AcDbCircle
 10
31.568603
 20
-3.930483
 30
0.0
 40
2.916566490666296
100
AcDbArc
 50
49.592487
 51
53.252033
  0
ARC
  5
306
330
1F
100
AcDbEntity
  8
1
370
    18
100
AcDbCircle
 10
32.299328
 20
-2.003233
 30
0.0
 40
0.9728315711568095
100
AcDbArc
 50
64.482887
 51
105.611534
  0
ARC
  5
307
330
1F
100
AcDbEntity
  8
1
370
    18
100
AcDbCircle
 10
280.251536
 20
435.002569
 30
0.0
 40
494.2293084382155
100
AcDbArc
 50
240.015583
 51
240.115818
  0
ARC
  5
308
330
1F
100
AcDbEntity
  8
1
370
    18
100
AcDbCircle
 10
283.736421
 20
441.067788
 30
0.0
 40
501.2244001187407
100
AcDbArc
 50
240.115872
 51
240.241722
  0
ARC
  5
309
330
1F
100
AcDbEntity
  8
1
370
    18
100
AcDbCircle
 10
31.721362
 20
-3.710494
 30
0.0
 40
2.745951759984423
100
AcDbArc
 50
44.696431
 51
49.717561
  0
ARC
  5
30A
330
1F
100
AcDbEntity
  8
1
370
    18
100
AcDbCircle
 10
31.563794
 20
-3.897431
 30
0.0
 40
2.990436515936912
100
AcDbArc
 50
49.73025
 51
55.599775
  0
ARC
  5
30B
330
1F
100
AcDbEntity
  8
1
370
    18
100
AcDbCircle
 10
38.558583
 20
11.427106
 30
0.0
 40
6.55406715585597
100
AcDbArc
 50
230.975939
 51
233.491952
  0
ARC
  5
30C
330
1F
100
AcDbEntity
  8
1
370
    18
100
AcDbCircle
 10
38.478805
 20
11.319263
 30
0.0
 40
6.419922892102908
100
AcDbArc
 50
233.491619
 51
236.785409
  0
ARC
  5
30D
330
1F
100
AcDbEntity
  8
1
370
    18
100
AcDbCircle
 10
37.567055
 20
4.691402
 30
0.0
 40
0.8787183074178365
100
AcDbArc
 50
21.679419
 51
29.795696
  0
ARC
  5
30E
330
1F
100
AcDbEntity
  8
1
370
    18
100
AcDbCircle
 10
37.898145
 20
4.820711
 30
0.0
 40
0.523284370871919
100
AcDbArc
 50
7.510152
 51
21.914457
  0
ARC
  5
30F
330
1F
100
AcDbEntity
  8
1
370
    18
100
AcDbCircle
 10
33.481411
 20
7.131911
 30
0.0
 40
0.8613995589535225
100
AcDbArc
 50
67.803595
 51
116.971674
  0
ARC
  5
310
330
1F
100
AcDbEntity
  8
1
370
    18
100
AcDbCircle
 10
32.102564
 20
0.883088
 30
0.0
 40
7.249559909139319
100
AcDbArc
 50
62.032168
 51
76.403322
  0
ARC
  5
311
330
1F
100
AcDbEntity
  8
1
370
    18
100
AcDbCircle
 10
30.271295
 20
-3.122382
 30
0.0
 40
11.64898221490317
100
AcDbArc
 50
53.06313
 51
63.316359
  0
ARC
  5
312
330
1F
100
AcDbEntity
  8
1
370
    18
100
AcDbCircle
 10
34.906438
 20
2.772647
 30
0.0
 40
4.154849988582674
100
AcDbArc
 50
34.526851
 51
55.30229
  0
ARC
  5
313
330
1F
100
AcDbEntity
  8
1
370
    18
100
AcDbCircle
 10
31.098887
 20
0.413723
 30
0.0
 40
6.75293534537468
100
AcDbArc
 50
52.778591
 51
54.413763
  0
ARC
  5
314
330
1F
100
AcDbEntity
  8
1
370
    18
100
AcDbCircle
 10
32.347185
 20
2.055472
 30
0.0
 40
4.690513575592465
100
AcDbArc
 50
49.848571
 51
52.79002
  0
ARC
  5
315
330
1F
100
AcDbEntity
  8
1
370
    18
100
AcDbCircle
 10
32.05327
 20
3.807465
 30
0.0
 40
3.791076863955551
100
AcDbArc
 50
25.019093
 51
28.917431
  0
ARC
  5
316
330
1F
100
AcDbEntity
  8
1
370
    18
100
AcDbCircle
 10
31.781088
 20
3.680508
 30
0.0
 40
4.091411831031525
100
AcDbArc
 50
20.454122
 51
25.018146
  0
ARC
  5
317
330
1F
100
AcDbEntity
  8
1
370
    18
100
AcDbCircle
 10
37.447547
 20
5.309121
 30
0.0
 40
1.746577640075277
100
AcDbArc
 50
210.766853
 51
249.75569
  0
ARC
  5
318
330
1F
100
AcDbEntity
  8
1
370
    18
100
AcDbCircle
 10
37.182626
 20
4.705294
 30
0.0
 40
1.089103618888605
100
AcDbArc
 50
251.840309
 51
292.246528
  0
ARC
  5
319
330
1F
100
AcDbEntity
  8
1
370
    18
100
AcDbCircle
 10
37.031384
 20
4.993151
 30
0.0
 40
1.413132646032299
100
AcDbArc
 50
293.503693
 51
327.209262
  0
ARC
  5
31A
330
1F
100
AcDbEntity
  8
1
370
    18
100
AcDbCircle
 10
36.982489
 20
4.998302
 30
0.0
 40
1.391384033047763
100
AcDbArc
 50
293.225241
 51
327.193559
  0
ARC
  5
31B
330
1F
100
AcDbEntity
  8
1
370
    18
100
AcDbCircle
 10
37.125334
 20
4.749961
 30
0.0
 40
1.107340021721718
100
AcDbArc
 50
240.647317
 51
291.500064
  0
ARC
  5
31C
330
1F
100
AcDbEntity
  8
1
370
    18
100
AcDbCircle
 10
35.769687
 20
-14.758005
 30
0.0
 40
19.74471704267607
100
AcDbArc
 50
186.026852
 51
200.411595
  0
ARC
  5
31D
330
1F
100
AcDbEntity
  8
1
370
    18
100
AcDbCircle
 10
31.912263
 20
-16.16438
 30
0.0
 40
15.63902875586302
100
AcDbArc
 50
200.51143
 51
211.945716
  0
ARC
  5
31E
330
1F
100
AcDbEntity
  8
1
370
    18
100
AcDbCircle
 10
28.820457
 20
-18.122438
 30
0.0
 40
11.97946696963503
100
AcDbArc
 50
211.823339
 51
226.42549
  0
ARC
  5
31F
330
1F
100
AcDbEntity
  8
1
370
    18
100
AcDbCircle
 10
26.331317
 20
-20.786902
 30
0.0
 40
8.33342850720796
100
AcDbArc
 50
226.196681
 51
246.43723
  0
ARC
  5
320
330
1F
100
AcDbEntity
  8
1
370
    18
100
AcDbCircle
 10
27.340791
 20
-19.590754
 30
0.0
 40
9.784867069656807
100
AcDbArc
 50
219.49161
 51
235.978685
  0
ARC
  5
321
330
1F
100
AcDbEntity
  8
1
370
    18
100
AcDbCircle
 10
30.078857
 20
-17.278696
 30
0.0
 40
13.36833830887089
100
AcDbArc
 50
207.346526
 51
219.675656
  0
ARC
  5
322
330
1F
100
AcDbEntity
  8
1
370
    18
100
AcDbCircle
 10
33.868595
 20
-15.367829
 30
0.0
 40
17.61240344943445
100
AcDbArc
 50
192.040235
 51
207.204756
  0
ARC
  5
323
330
1F
100
AcDbEntity
  8
1
370
    18
100
AcDbCircle
 10
38.034989
 20
-14.413566
 30
0.0
 40
21.88629381072696
100
AcDbArc
 50
179.838171
 51
192.208218
  0
ARC
  5
324
330
1F
100
AcDbEntity
  8
1
370
    18
100
AcDbCircle
 10
23.420285
 20
-29.605799
 30
0.0
 40
7.394772695437301
100
AcDbArc
 50
229.071997
 51
254.30915
  0
ARC
  5
325
330
1F
100
AcDbEntity
  8
1
370
    18
100
AcDbCircle
 10
23.491912
 20
-29.50542
 30
0.0
 40
7.517545259594354
100
AcDbArc
 50
205.129644
 51
229.160736
  0
ARC
  5
326
330
1F
100
AcDbEntity
  8
1
370
    18
100
AcDbCircle
 10
23.193716
 20
-29.6322
 30
0.0
 40
7.193744392796293
100
AcDbArc
 50
180.160524
 51
205.224056
  0
ARC
  5
327
330
1F
100
AcDbEntity
  8
1
370
    18
100
AcDbCircle
 10
19.863016
 20
-4.091292
 30
0.0
 40
4.250741677613897
100
AcDbArc
 50
170.147042
 51
186.391512
  0
ARC
  5
328
330
1F
100
AcDbEntity
  8
1
370
    18
100
AcDbCircle
 10
18.876916
 20
-3.903424
 30
0.0
 40
3.247079097642315
100
AcDbArc
 50
152.354166
 51
170.435637
  0
ARC
  5
329
330
1F
100
AcDbEntity
  8
1
370
    18
100
AcDbCircle
 10
13.264328
 20
-27.849536
 30
0.0
 40
2.707946461937059
100
AcDbArc
 50
8.013568
 51
28.17929
  0
ARC
  5
32A
330
1F
100
AcDbEntity
  8
1
370
    18
100
AcDbCircle
 10
15.032444
 20
-26.898493
 30
0.0
 40
0.7002926228851066
100
AcDbArc
 50
27.904536
 51
43.414026
  0
ARC
  5
32B
330
1F
100
AcDbEntity
  8
1
370
    18
100
AcDbCircle
 10
10.772073
 20
-29.018444
 30
0.0
 40
5.22949851092817
100
AcDbArc
 50
1.404606
 51
16.421316
  0
ARC
  5
32C
330
1F
100
AcDbEntity
  8
1
370
    18
100
AcDbCircle
 10
-6.041228
 20
29.583181
 30
0.0
 40
22.38592745229043
100
AcDbArc
 50
344.98397
 51
348.904478
  0
ARC
  5
32D
330
1F
100
AcDbEntity
  8
1
370
    18
100
AcDbCircle
 10
17.476564
 20
23.170024
 30
0.0
 40
1.992950746645265
100
AcDbArc
 50
162.080156
 51
187.365065
  0
ARC
  5
32E
330
1F
100
AcDbEntity
  8
1
370
    18
100
AcDbCircle
 10
10.788633
 20
20.393344
 30
0.0
 40
5.21734403375434
100
AcDbArc
 50
2.742809
 51
16.610658
  0
ARC
  5
32F
330
1F
100
AcDbEntity
  8
1
370
    18
100
AcDbCircle
 10
17.550667
 20
-3.335339
 30
0.0
 40
1.942211265490755
100
AcDbArc
 50
144.224223
 51
164.682435
  0
ARC
  5
330
330
1F
100
AcDbEntity
  8
1
370
    18
100
AcDbCircle
 10
19.772441
 20
-4.123179
 30
0.0
 40
4.296664706343715
100
AcDbArc
 50
162.375801
 51
186.093926
  0
ARC
  5
331
330
1F
100
AcDbEntity
  8
1
370
    18
100
AcDbCircle
 10
-27.532294
 20
-11.891919
 30
0.0
 40
43.53513480789257
100
AcDbArc
 50
0.65451
 51
5.691114
  0
ARC
  5
332
330
1F
100
AcDbEntity
  8
1
370
    18
100
AcDbCircle
 10
-27.150619
 20
-12.075629
 30
0.0
 40
43.31286315479474
100
AcDbArc
 50
2.197556
 51
4.836988
  0
ARC
  5
333
330
1F
100
AcDbEntity
  8
1
370
    18
100
AcDbCircle
 10
-87.751008
 20
-17.017507
 30
0.0
 40
104.1143024744521
100
AcDbArc
 50
4.734841
 51
5.649517
  0
ARC
  5
334
330
1F
100
AcDbEntity
  8
1
370
    18
100
AcDbCircle
 10
-1005.253993
 20
-107.464042
 30
0.0
 40
1026.064568063626
100
AcDbArc
 50
5.631954
 51
5.714656
  0
ARC
  5
335
330
1F
100
AcDbEntity
  8
1
370
    18
100
AcDbCircle
 10
571.622453
 20
50.27139
 30
0.0
 40
558.681405057457
100
AcDbArc
 50
185.632783
 51
185.708007
  0
ARC
  5
336
330
1F
100
AcDbEntity
  8
1
370
    18
100
AcDbCircle
 10
29.282324
 20
-9.493591
 30
0.0
 40
1.393194273066226
100
AcDbArc
 50
145.980879
 51
177.909649
  0
ARC
  5
337
330
1F
100
AcDbEntity
  8
1
370
    18
100
AcDbCircle
 10
29.424128
 20
-9.50911
 30
0.0
 40
1.535504481135139
100
AcDbArc
 50
177.523955
 51
207.269611
  0
ARC
  5
338
330
1F
100
AcDbEntity
  8
1
370
    18
100
AcDbCircle
 10
29.28147
 20
-9.594047
 30
0.0
 40
1.369822471410463
100
AcDbArc
 50
206.845723
 51
238.8644
  0
ARC
  5
339
330
1F
100
AcDbEntity
  8
1
370
    18
100
AcDbCircle
 10
29.150731
 20
-9.808722
 30
0.0
 40
1.118471624571685
100
AcDbArc
 50
238.910721
 51
275.701791
  0
ARC
  5
33A
330
1F
100
AcDbEntity
  8
1
370
    18
100
AcDbCircle
 10
29.133043
 20
-9.821186
 30
0.0
 40
1.107986586196484
100
AcDbArc
 50
276.676011
 51
326.399676
  0
ARC
  5
33B
330
1F
100
AcDbEntity
  8
1
370
    18
100
AcDbCircle
 10
28.900929
 20
-9.654813
 30
0.0
 40
1.393426243247387
100
AcDbArc
 50
325.98337
 51
357.906936
  0
ARC
  5
33C
330
1F
100
AcDbEntity
  8
1
370
    18
100
AcDbCircle
 10
28.759358
 20
-9.639367
 30
0.0
 40
1.535501193999533
100
AcDbArc
 50
357.52391
 51
27.269627
  0
ARC
  5
33D
330
1F
100
AcDbEntity
  8
1
370
    18
100
AcDbCircle
 10
28.902013
 20
-9.554431
 30
0.0
 40
1.36982246503974
100
AcDbArc
 50
26.845724
 51
58.864401
  0
ARC
  5
33E
330
1F
100
AcDbEntity
  8
1
370
    18
100
AcDbCircle
 10
29.032752
 20
-9.339756
 30
0.0
 40
1.118471618418614
100
AcDbArc
 50
58.910722
 51
95.701792
  0
ARC
  5
33F
330
1F
100
AcDbEntity
  8
1
370
    18
100
AcDbCircle
 10
29.050439
 20
-9.327291
 30
0.0
 40
1.10798626902989
100
AcDbArc
 50
96.675997
 51
146.399997
  0
ARC
  5
340
330
1F
100
AcDbEntity
  8
1
370
    18
100
AcDbCircle
 10
32.760419
 20
-30.944919
 30
0.0
 40
1.411775137320738
100
AcDbArc
 50
91.749577
 51
121.647801
  0
ARC
  5
341
330
1F
100
AcDbEntity
  8
1
370
    18
100
AcDbCircle
 10
29.926713
 20
-30.264251
 30
0.0
 40
0.6625009897587595
100
AcDbArc
 50
248.450551
 51
300.29948
  0
ARC
  5
342
330
1F
100
AcDbEntity
  8
1
370
    18
100
AcDbCircle
 10
13.611689
 20
-31.266254
 30
0.0
 40
14.16160137795469
100
AcDbArc
 50
4.357023
 51
14.702605
  0
ARC
  5
343
330
1F
100
AcDbEntity
  8
1
370
    18
100
AcDbCircle
 10
22.189163
 20
-28.934721
 30
0.0
 40
5.27381872354765
100
AcDbArc
 50
13.852881
 51
31.579268
  0
ARC
  5
344
330
1F
100
AcDbEntity
  8
1
370
    18
100
AcDbCircle
 10
25.238355
 20
-27.02018
 30
0.0
 40
1.673909327800815
100
AcDbArc
 50
30.407333
 51
62.969074
  0
ARC
  5
345
330
1F
100
AcDbEntity
  8
1
370
    18
100
AcDbCircle
 10
25.610144
 20
-26.410524
 30
0.0
 40
0.9634040238075273
100
AcDbArc
 50
66.188476
 51
121.833467
  0
ARC
  5
346
330
1F
100
AcDbEntity
  8
1
370
    18
100
AcDbCircle
 10
26.734167
 20
-28.141886
 30
0.0
 40
3.02749915601835
100
AcDbArc
 50
122.623451
 51
150.061589
  0
ARC
  5
347
330
1F
100
AcDbEntity
  8
1
370
    18
100
AcDbCircle
 10
32.245925
 20
-31.62501
 30
0.0
 40
9.54585186342538
100
AcDbArc
 50
148.455214
 51
160.431795
  0
ARC
  5
348
330
1F
100
AcDbEntity
  8
1
370
    18
100
AcDbCircle
 10
96.948135
 20
17.260097
 30
0.0
 40
71.3295437906354
100
AcDbArc
 50
207.982576
 51
211.389261
  0
ARC
  5
349
330
1F
100
AcDbEntity
  8
1
370
    18
100
AcDbCircle
 10
115.581123
 20
28.627474
 30
0.0
 40
93.15625882136015
100
AcDbArc
 50
211.388498
 51
213.814375
  0
ARC
  5
34A
330
1F
100
AcDbEntity
  8
1
370
    18
100
AcDbCircle
 10
36.935572
 20
-24.067069
 30
0.0
 40
1.510790577966171
100
AcDbArc
 50
1.410853
 51
34.361295
  0
ARC
  5
34B
330
1F
100
AcDbEntity
  8
1
370
    18
100
AcDbCircle
 10
35.872561
 20
-27.880482
 30
0.0
 40
3.142045386085796
100
AcDbArc
 50
36.897565
 51
65.199638
  0
ARC
  5
34C
330
1F
100
AcDbEntity
  8
1
370
    18
100
AcDbCircle
 10
36.052245
 20
-27.507925
 30
0.0
 40
2.728485861993627
100
AcDbArc
 50
65.343288
 51
96.360987
  0
ARC
  5
34D
330
1F
100
AcDbEntity
  8
1
370
    18
100
AcDbCircle
 10
36.060767
 20
-27.39758
 30
0.0
 40
2.619846418475397
100
AcDbArc
 50
96.813592
 51
128.769813
  0
ARC
  5
34E
330
1F
100
AcDbEntity
  8
1
370
    18
100
AcDbCircle
 10
36.268987
 20
-27.642319
 30
0.0
 40
2.94106130633882
100
AcDbArc
 50
128.946882
 51
158.515802
  0
ARC
  5
34F
330
1F
100
AcDbEntity
  8
1
370
    18
100
AcDbCircle
 10
36.715779
 20
-27.819422
 30
0.0
 40
3.421672305450109
100
AcDbArc
 50
158.496326
 51
185.125733
  0
ARC
  5
350
330
1F
100
AcDbEntity
  8
1
370
    18
100
AcDbCircle
 10
36.853022
 20
-27.816434
 30
0.0
 40
3.558646150487687
100
AcDbArc
 50
184.976238
 51
210.996449
  0
ARC
  5
351
330
1F
100
AcDbEntity
  8
1
370
    18
100
AcDbCircle
 10
31.823449
 20
-31.383559
 30
0.0
 40
8.954305063739747
100
AcDbArc
 50
146.204684
 51
160.878493
  0
ARC
  5
352
330
1F
100
AcDbEntity
  8
1
370
    18
100
AcDbCircle
 10
26.482478
 20
-27.793769
 30
0.0
 40
2.519087862257737
100
AcDbArc
 50
121.440646
 51
146.487337
  0
ARC
  5
353
330
1F
100
AcDbEntity
  8
1
370
    18
100
AcDbCircle
 10
25.615692
 20
-26.372161
 30
0.0
 40
0.8540730316374877
100
AcDbArc
 50
58.800917
 51
121.575262
  0
ARC
  5
354
330
1F
100
AcDbEntity
  8
1
370
    18
100
AcDbCircle
 10
25.092249
 20
-27.091719
 30
0.0
 40
1.742328606163321
100
AcDbArc
 50
28.246366
 51
56.333867
  0
ARC
  5
355
330
1F
100
AcDbEntity
  8
1
370
    18
100
AcDbCircle
 10
22.071806
 20
-28.788169
 30
0.0
 40
5.2063728695314
100
AcDbArc
 50
14.342757
 51
28.961398
  0
ARC
  5
356
330
1F
100
AcDbEntity
  8
1
370
    18
100
AcDbCircle
 10
13.489291
 20
-30.97308
 30
0.0
 40
14.06263504949805
100
AcDbArc
 50
3.37634
 51
14.304993
  0
ARC
  5
357
330
1F
100
AcDbEntity
  8
1
370
    18
100
AcDbCircle
 10
25.511778
 20
-26.213
 30
0.0
 40
4.418428148526946
100
AcDbArc
 50
276.73773
 51
297.14154
  0
ARC
  5
358
330
1F
100
AcDbEntity
  8
1
370
    18
100
AcDbCircle
 10
25.608596
 20
-27.546044
 30
0.0
 40
3.083820313860639
100
AcDbArc
 50
247.59904
 51
277.8572
  0
ARC
  5
359
330
1F
100
AcDbEntity
  8
1
370
    18
100
AcDbCircle
 10
25.109151
 20
-28.794836
 30
0.0
 40
1.738988169344543
100
AcDbArc
 50
205.326025
 51
247.13315
  0
ARC
  5
35A
330
1F
100
AcDbEntity
  8
1
370
    18
100
AcDbCircle
 10
25.560242
 20
-28.657004
 30
0.0
 40
2.206743543567736
100
AcDbArc
 50
174.6269
 51
203.550386
  0
ARC
  5
35B
330
1F
100
AcDbEntity
  8
1
370
    18
100
AcDbCircle
 10
25.295725
 20
-28.705586
 30
0.0
 40
2.125898393975306
100
AcDbArc
 50
174.502266
 51
205.719228
  0
ARC
  5
35C
330
1F
100
AcDbEntity
  8
1
370
    18
100
AcDbCircle
 10
25.05774
 20
-28.744671
 30
0.0
 40
1.895750510222443
100
AcDbArc
 50
207.77675
 51
248.566938
  0
ARC
  5
35D
330
1F
100
AcDbEntity
  8
1
370
    18
100
AcDbCircle
 10
25.663023
 20
-27.204995
 30
0.0
 40
3.55012986470674
100
AcDbArc
 50
248.553937
 51
276.70477
  0
ARC
  5
35E
330
1F
100
AcDbEntity
  8
1
370
    18
100
AcDbCircle
 10
25.607639
 20
-25.985803
 30
0.0
 40
4.768249837410207
100
AcDbArc
 50
275.655229
 51
295.798903
  0
ARC
  5
35F
330
1F
100
AcDbEntity
  8
1
370
    18
100
AcDbCircle
 10
62.5424
 20
64.926702
 30
0.0
 40
101.3867377803707
100
AcDbArc
 50
249.889775
 51
250.405369
  0
ARC
  5
360
330
1F
100
AcDbEntity
  8
1
370
    18
100
AcDbCircle
 10
63.119374
 20
66.548555
 30
0.0
 40
103.1081639129033
100
AcDbArc
 50
250.405563
 51
251.050177
  0
ARC
  5
361
330
1F
100
AcDbEntity
  8
1
370
    18
100
AcDbCircle
 10
4.805721
 20
-4.922832
 30
0.0
 40
1.559034113868089
100
AcDbArc
 50
307.704529
 51
329.371947
  0
ARC
  5
362
330
1F
100
AcDbEntity
  8
1
370
    18
100
AcDbCircle
 10
4.96571
 20
-4.948227
 30
0.0
 40
1.409689454273466
100
AcDbArc
 50
326.946572
 51
358.636383
  0
ARC
  5
363
330
1F
100
AcDbEntity
  8
1
370
    18
100
AcDbCircle
 10
4.64376
 20
4.797058
 30
0.0
 40
1.762661732935924
100
AcDbArc
 50
18.837252
 51
44.230931
  0
ARC
  5
364
330
1F
100
AcDbEntity
  8
1
370
    18
100
AcDbCircle
 10
5.467757
 20
5.675997
 30
0.0
 40
0.5618327649702655
100
AcDbArc
 50
38.612083
 51
78.995842
  0
ARC
  5
365
330
1F
100
AcDbEntity
  8
1
370
    18
100
AcDbCircle
 10
0.256026
 20
9.049595
 30
0.0
 40
2.888341980368337
100
AcDbArc
 50
268.705251
 51
276.170735
  0
ARC
  5
366
330
1F
100
AcDbEntity
  8
1
370
    18
100
AcDbCircle
 10
0.18195
 20
6.496118
 30
0.0
 40
0.3342433423608523
100
AcDbArc
 50
242.598757
 51
271.510705
  0
ARC
  5
367
330
1F
100
AcDbEntity
  8
1
370
    18
100
AcDbCircle
 10
0.184119
 20
-6.492843
 30
0.0
 40
0.3323515316675449
100
AcDbArc
 50
85.830025
 51
117.992981
  0
ARC
  5
368
330
1F
100
AcDbEntity
  8
1
370
    18
100
AcDbCircle
 10
0.173071
 20
-11.355349
 30
0.0
 40
5.19409760171169
100
AcDbArc
 50
80.83922
 51
89.611547
  0
ARC
  5
369
330
1F
100
AcDbEntity
  8
1
370
    18
100
AcDbCircle
 10
37.747633
 20
14.614227
 30
0.0
 40
6.24203421162554
100
AcDbArc
 50
178.367457
 51
184.068313
  0
ARC
  5
36A
330
1F
100
AcDbEntity
  8
1
370
    18
100
AcDbCircle
 10
42.808433
 20
14.791325
 30
0.0
 40
11.30030118175955
100
AcDbArc
 50
173.461371
 51
179.996276
  0
ARC
  5
36B
330
1F
100
AcDbEntity
  8
1
370
    18
100
AcDbCircle
 10
38.27745
 20
15.746438
 30
0.0
 40
6.704022517272395
100
AcDbArc
 50
176.012091
 51
177.164083
  0
ARC
  5
36C
330
1F
100
AcDbEntity
  8
1
370
    18
100
AcDbCircle
 10
38.556023
 20
15.72734
 30
0.0
 40
6.983249445283494
100
AcDbArc
 50
174.508425
 51
176.014735
  0
ARC
  5
36D
330
1F
100
AcDbEntity
  8
1
370
    18
100
AcDbCircle
 10
38.748129
 20
18.641828
 30
0.0
 40
7.776919059665311
100
AcDbArc
 50
208.06476
 51
217.409191
  0
ARC
  5
36E
330
1F
100
AcDbEntity
  8
1
370
    18
100
AcDbCircle
 10
33.121036
 20
13.370092
 30
0.0
 40
0.556084424188441
100
AcDbArc
 50
190.138339
 51
253.646779
  0
ARC
  5
36F
330
1F
100
AcDbEntity
  8
1
370
    18
100
AcDbCircle
 10
34.917499
 20
-11.374727
 30
0.0
 40
2.379886077872149
100
AcDbArc
 50
189.981342
 51
214.850937
  0
ARC
  5
370
330
1F
100
AcDbEntity
  8
1
370
    18
100
AcDbCircle
 10
45.109631
 20
-8.429877
 30
0.0
 40
13.43043892348478
100
AcDbArc
 50
195.103302
 51
205.270638
  0
ARC
  5
371
330
1F
100
AcDbEntity
  8
1
370
    18
100
AcDbCircle
 10
49.354577
 20
-7.302622
 30
0.0
 40
17.82248045812934
100
AcDbArc
 50
185.232501
 51
195.046253
  0
ARC
  5
372
330
1F
100
AcDbEntity
  8
1
370
    18
100
AcDbCircle
 10
92.431584
 20
14.799266
 30
0.0
 40
66.14503642646889
100
AcDbArc
 50
205.967669
 51
211.038149
  0
ARC
  5
373
330
1F
100
AcDbEntity
  8
1
370
    18
100
AcDbCircle
 10
29.888142
 20
-30.238631
 30
0.0
 40
0.7750103596806374
100
AcDbArc
 50
251.016139
 51
300.270994
  0
ARC
  5
374
330
1F
100
AcDbEntity
  8
1
370
    18
100
AcDbCircle
 10
29.668821
 20
-36.267542
 30
0.0
 40
0.977631362940483
100
AcDbArc
 50
268.077846
 51
308.605401
  0
ARC
  5
375
330
1F
100
AcDbEntity
  8
1
370
    18
100
AcDbCircle
 10
33.454019
 20
-36.620949
 30
0.0
 40
2.631856963718717
100
AcDbArc
 50
134.555605
 51
152.741726
  0
ARC
  5
376
330
1F
100
AcDbEntity
  8
1
370
    18
100
AcDbCircle
 10
31.241299
 20
-35.498531
 30
0.0
 40
0.1515982587958189
100
AcDbArc
 50
146.813964
 51
208.156999
  0
ARC
  5
377
330
1F
100
AcDbEntity
  8
1
370
    18
100
AcDbCircle
 10
31.203832
 20
-35.350705
 30
0.0
 40
0.239527051964132
100
AcDbArc
 50
246.322628
 51
307.446458
  0
ARC
  5
378
330
1F
100
AcDbEntity
  8
1
370
    18
100
AcDbCircle
 10
28.998619
 20
-9.35456
 30
0.0
 40
1.026234294949922
100
AcDbArc
 50
96.525701
 51
146.336582
  0
ARC
  5
379
330
1F
100
AcDbEntity
  8
1
370
    18
100
AcDbCircle
 10
28.984074
 20
-9.378209
 30
0.0
 40
1.048216977897368
100
AcDbArc
 50
59.093156
 51
95.58888
  0
ARC
  5
37A
330
1F
100
AcDbEntity
  8
1
370
    18
100
AcDbCircle
 10
28.865527
 20
-9.575092
 30
0.0
 40
1.278034482277932
100
AcDbArc
 50
27.218347
 51
59.066846
  0
ARC
  5
37B
330
1F
100
AcDbEntity
  8
1
370
    18
100
AcDbCircle
 10
28.769143
 20
-9.641736
 30
0.0
 40
1.394310383216542
100
AcDbArc
 50
342.502649
 51
27.842156
  0
ARC
  5
37C
330
1F
100
AcDbEntity
  8
1
370
    18
100
AcDbCircle
 10
29.010814
 20
-9.725101
 30
0.0
 40
1.138776871975727
100
AcDbArc
 50
302.267145
 51
342.847133
  0
ARC
  5
37D
330
1F
100
AcDbEntity
  8
1
370
    18
100
AcDbCircle
 10
29.101138
 20
-9.841152
 30
0.0
 40
0.9925320053915206
100
AcDbArc
 50
257.060305
 51
301.434731
  0
ARC
  5
37E
330
1F
100
AcDbEntity
  8
1
370
    18
100
AcDbCircle
 10
29.143624
 20
-9.687399
 30
0.0
 40
1.151915468844704
100
AcDbArc
 50
222.540465
 51
256.713219
  0
ARC
  5
37F
330
1F
100
AcDbEntity
  8
1
370
    18
100
AcDbCircle
 10
29.320753
 20
-9.519995
 30
0.0
 40
1.395612182073209
100
AcDbArc
 50
177.566231
 51
222.68762
  0
ARC
  5
380
330
1F
100
AcDbEntity
  8
1
370
    18
100
AcDbCircle
 10
29.20813
 20
-9.502073
 30
0.0
 40
1.282397542067609
100
AcDbArc
 50
146.039867
 51
178.152579
  0
ARC
  5
381
330
1F
100
AcDbEntity
  8
1
370
    18
100
AcDbCircle
 10
20.825456
 20
27.358754
 30
0.0
 40
4.753068836168731
100
AcDbArc
 50
131.296543
 51
163.736152
  0
ARC
  5
382
330
1F
100
AcDbEntity
  8
1
370
    18
100
AcDbCircle
 10
21.458431
 20
26.594328
 30
0.0
 40
5.745193417633122
100
AcDbArc
 50
104.070121
 51
131.00802
  0
ARC
  5
383
330
1F
100
AcDbEntity
  8
1
370
    18
100
AcDbCircle
 10
21.882384
 20
24.967628
 30
0.0
 40
7.426174263111651
100
AcDbArc
 50
81.559052
 51
104.191782
  0
ARC
  5
384
330
1F
100
AcDbEntity
  8
1
370
    18
100
AcDbCircle
 10
25.291559
 20
25.751727
 30
0.0
 40
1.579853047889233
100
AcDbArc
 50
111.456679
 51
141.931179
  0
ARC
  5
385
330
1F
100
AcDbEntity
  8
1
370
    18
100
AcDbCircle
 10
25.173655
 20
25.863836
 30
0.0
 40
1.417988620008213
100
AcDbArc
 50
142.559935
 51
180.714157
  0
ARC
  5
386
330
1F
100
AcDbEntity
  8
1
370
    18
100
AcDbCircle
 10
25.616096
 20
25.894431
 30
0.0
 40
1.860945483738067
100
AcDbArc
 50
181.486285
 51
217.780969
  0
ARC
  5
387
330
1F
100
AcDbEntity
  8
1
370
    18
100
AcDbCircle
 10
29.62351
 20
36.475742
 30
0.0
 40
1.01664312285079
100
AcDbArc
 50
49.865835
 51
89.294392
  0
ARC
  5
388
330
1F
100
AcDbEntity
  8
1
370
    18
100
AcDbCircle
 10
31.26228
 20
32.005327
 30
0.0
 40
1.183281202390517
100
AcDbArc
 50
49.067777
 51
88.818223
  0
ARC
  5
389
330
1F
100
AcDbEntity
  8
1
370
    18
100
AcDbCircle
 10
31.291391
 20
32.990112
 30
0.0
 40
0.1983001953946681
100
AcDbArc
 50
91.360027
 51
175.623514
  0
ARC
  5
38A
330
1F
100
AcDbEntity
  8
1
370
    18
100
AcDbCircle
 10
32.170723
 20
32.987929
 30
0.0
 40
1.077192636347252
100
AcDbArc
 50
179.078976
 51
220.323622
  0
ARC
  5
38B
330
1F
100
AcDbEntity
  8
1
370
    18
100
AcDbCircle
 10
28.184714
 20
1996.984987
 30
0.0
 40
1959.488563396778
100
AcDbArc
 50
269.890537
 51
269.923367
  0
ARC
  5
38C
330
1F
100
AcDbEntity
  8
1
370
    18
100
AcDbCircle
 10
25.210925
 20
902.543001
 30
0.0
 40
865.0448968310862
100
AcDbArc
 50
270.02338
 51
270.119948
  0
ARC
  5
38D
330
1F
100
AcDbEntity
  8
1
370
    18
100
AcDbCircle
 10
32.771489
 20
-31.080308
 30
0.0
 40
1.462696104230182
100
AcDbArc
 50
70.767603
 51
120.11836
  0
ARC
  5
38E
330
1F
100
AcDbEntity
  8
1
370
    18
100
AcDbCircle
 10
32.977875
 20
-35.361212
 30
0.0
 40
1.398099398701638
100
AcDbArc
 50
100.695392
 51
132.267364
  0
ARC
  5
38F
330
1F
100
AcDbEntity
  8
1
370
    18
100
AcDbCircle
 10
32.582659
 20
-38.754725
 30
0.0
 40
4.816123075989047
100
AcDbArc
 50
76.911437
 51
79.058715
  0
ARC
  5
390
330
1F
100
AcDbEntity
  8
1
370
    18
100
AcDbCircle
 10
32.297312
 20
-40.230745
 30
0.0
 40
6.319471762328225
100
AcDbArc
 50
79.058652
 51
81.299073
  0
ARC
  5
391
330
1F
100
AcDbEntity
  8
1
370
    18
100
AcDbCircle
 10
36.093323
 20
-29.622631
 30
0.0
 40
2.364793005428165
100
AcDbArc
 50
185.180227
 51
213.758688
  0
ARC
  5
392
330
1F
100
AcDbEntity
  8
1
370
    18
100
AcDbCircle
 10
35.407056
 20
-30.063264
 30
0.0
 40
1.549455568066867
100
AcDbArc
 50
214.314114
 51
244.552115
  0
ARC
  5
393
330
1F
100
AcDbEntity
  8
1
370
    18
100
AcDbCircle
 10
35.370737
 20
-30.074226
 30
0.0
 40
1.524900558825738
100
AcDbArc
 50
249.276305
 51
254.285697
  0
ARC
  5
394
330
1F
100
AcDbEntity
  8
1
370
    18
100
AcDbCircle
 10
35.409768
 20
-29.821736
 30
0.0
 40
1.418810629196877
100
AcDbArc
 50
208.882653
 51
243.883582
  0
ARC
  5
395
330
1F
100
AcDbEntity
  8
1
370
    18
100
AcDbCircle
 10
36.258797
 20
-29.378491
 30
0.0
 40
2.376425765637868
100
AcDbArc
 50
185.268218
 51
208.352565
  0
ARC
  5
396
330
1F
100
AcDbEntity
  8
1
370
    18
100
AcDbCircle
 10
36.741738
 20
-27.839448
 30
0.0
 40
3.347625360119423
100
AcDbArc
 50
185.399561
 51
211.662766
  0
ARC
  5
397
330
1F
100
AcDbEntity
  8
1
370
    18
100
AcDbCircle
 10
36.601322
 20
-27.839025
 30
0.0
 40
3.207900949791872
100
AcDbArc
 50
158.408783
 51
185.64308
  0
ARC
  5
398
330
1F
100
AcDbEntity
  8
1
370
    18
100
AcDbCircle
 10
36.176087
 20
-27.664548
 30
0.0
 40
2.748304961120655
100
AcDbArc
 50
128.474038
 51
158.528776
  0
ARC
  5
399
330
1F
100
AcDbEntity
  8
1
370
    18
100
AcDbCircle
 10
35.97288
 20
-27.423443
 30
0.0
 40
2.433135904809042
100
AcDbArc
 50
96.09302
 51
128.260147
  0
ARC
  5
39A
330
1F
100
AcDbEntity
  8
1
370
    18
100
AcDbCircle
 10
35.967898
 20
-27.520832
 30
0.0
 40
2.529491758584577
100
AcDbArc
 50
64.674476
 51
95.74667
  0
ARC
  5
39B
330
1F
100
AcDbEntity
  8
1
370
    18
100
AcDbCircle
 10
35.784473
 20
-27.898799
 30
0.0
 40
2.949598154761452
100
AcDbArc
 50
36.470568
 51
64.594505
  0
ARC
  5
39C
330
1F
100
AcDbEntity
  8
1
370
    18
100
AcDbCircle
 10
101.039565
 20
-28.596131
 30
0.0
 40
62.9308890264959
100
AcDbArc
 50
177.76827
 51
178.070728
  0
ARC
  5
39D
330
1F
100
AcDbEntity
  8
1
370
    18
100
AcDbCircle
 10
104.145752
 20
-28.70982
 30
0.0
 40
66.03914326339088
100
AcDbArc
 50
178.062874
 51
178.495513
  0
ARC
  5
39E
330
1F
100
AcDbEntity
  8
1
370
    18
100
AcDbCircle
 10
21.754264
 20
25.944355
 30
0.0
 40
6.580549669951399
100
AcDbArc
 50
92.908207
 51
118.881163
  0
ARC
  5
39F
330
1F
100
AcDbEntity
  8
1
370
    18
100
AcDbCircle
 10
21.062514
 20
27.220358
 30
0.0
 40
5.129151557439477
100
AcDbArc
 50
118.999466
 51
148.570313
  0
ARC
  5
3A0
330
1F
100
AcDbEntity
  8
1
370
    18
100
AcDbCircle
 10
20.824521
 20
27.415361
 30
0.0
 40
4.824577052024608
100
AcDbArc
 50
149.072549
 51
180.276369
  0
ARC
  5
3A1
330
1F
100
AcDbEntity
  8
1
370
    18
100
AcDbCircle
 10
27.742931
 20
12.805802
 30
0.0
 40
2.676941145454423
100
AcDbArc
 50
61.978285
 51
81.372991
  0
ARC
  5
3A2
330
1F
100
AcDbEntity
  8
1
370
    18
100
AcDbCircle
 10
27.077775
 20
11.145492
 30
0.0
 40
4.459278786039032
100
AcDbArc
 50
52.427044
 51
64.456855
  0
ARC
  5
3A3
330
1F
100
AcDbEntity
  8
1
370
    18
100
AcDbCircle
 10
29.13106
 20
13.710719
 30
0.0
 40
1.175802289252762
100
AcDbArc
 50
30.134816
 51
55.507547
  0
ARC
  5
3A4
330
1F
100
AcDbEntity
  8
1
370
    18
100
AcDbCircle
 10
30.045812
 20
14.242403
 30
0.0
 40
0.1177590916152844
100
AcDbArc
 50
329.511441
 51
29.849087
  0
ARC
  5
3A5
330
1F
100
AcDbEntity
  8
1
370
    18
100
AcDbCircle
 10
31.307487
 20
32.040495
 30
0.0
 40
0.9745258645616443
100
AcDbArc
 50
47.22996
 51
97.222379
  0
ARC
  5
3A6
330
1F
100
AcDbEntity
  8
1
370
    18
100
AcDbCircle
 10
25.239288
 20
25.877832
 30
0.0
 40
1.369742668362055
100
AcDbArc
 50
138.806147
 51
189.882226
  0
ARC
  5
3A7
330
1F
100
AcDbEntity
  8
1
370
    18
100
AcDbCircle
 10
25.440087
 20
25.648477
 30
0.0
 40
1.672382975662566
100
AcDbArc
 50
97.346321
 51
137.424001
  0
ARC
  5
3A8
330
1F
100
AcDbEntity
  8
1
370
    18
100
AcDbCircle
 10
34.238508
 20
36.267539
 30
0.0
 40
4.181064593777783
100
AcDbArc
 50
237.129132
 51
242.203673
  0
ARC
  5
3A9
330
1F
100
AcDbEntity
  8
1
370
    18
100
AcDbCircle
 10
34.268256
 20
36.317168
 30
0.0
 40
4.238840678712545
100
AcDbArc
 50
242.160801
 51
248.751524
  0
ARC
  5
3AA
330
1F
100
AcDbEntity
  8
1
370
    18
100
AcDbCircle
 10
36.95142
 20
-24.069378
 30
0.0
 40
1.548915799535776
100
AcDbArc
 50
1.192721
 51
35.836824
  0
ARC
  5
3AB
330
1F
100
AcDbEntity
  8
1
370
    18
100
AcDbCircle
 10
31.880125
 20
-25.068818
 30
0.0
 40
7.259768895511946
100
AcDbArc
 50
307.717036
 51
319.55668
  0
ARC
  5
3AC
330
1F
100
AcDbEntity
  8
1
370
    18
100
AcDbCircle
 10
34.966756
 20
-29.215513
 30
0.0
 40
2.093437836482708
100
AcDbArc
 50
284.815298
 51
310.321788
  0
ARC
  5
3AD
330
1F
100
AcDbEntity
  8
1
370
    18
100
AcDbCircle
 10
35.006814
 20
-33.161251
 30
0.0
 40
0.911941370775563
100
AcDbArc
 50
306.751342
 51
314.16352
  0
ARC
  5
3AE
330
1F
100
AcDbEntity
  8
1
370
    18
100
AcDbCircle
 10
35.002919
 20
-33.155937
 30
0.0
 40
0.9185293368113504
100
AcDbArc
 50
297.391671
 51
306.747701
  0
ARC
  5
3AF
330
1F
100
AcDbEntity
  8
1
370
    18
100
AcDbCircle
 10
46.934974
 20
42.274961
 30
0.0
 40
14.02793949484706
100
AcDbArc
 50
216.387601
 51
223.280008
  0
ARC
  5
3B0
330
1F
100
AcDbEntity
  8
1
370
    18
100
AcDbCircle
 10
44.755791
 20
40.021313
 30
0.0
 40
10.89743520926046
100
AcDbArc
 50
222.508611
 51
233.143308
  0
ARC
  5
3B1
330
1F
100
AcDbEntity
  8
1
370
    18
100
AcDbCircle
 10
17.982849
 20
23.242793
 30
0.0
 40
2.360835366341004
100
AcDbArc
 50
160.668911
 51
186.815194
  0
ARC
  5
3B2
330
1F
100
AcDbEntity
  8
1
370
    18
100
AcDbCircle
 10
8.342165
 20
26.242187
 30
0.0
 40
7.737627634858056
100
AcDbArc
 50
343.343236
 51
358.642546
  0
ARC
  5
3B3
330
1F
100
AcDbEntity
  8
1
370
    18
100
AcDbCircle
 10
34.928464
 20
-29.069568
 30
0.0
 40
2.59348706916342
100
AcDbArc
 50
285.973469
 51
313.14227
  0
ARC
  5
3B4
330
1F
100
AcDbEntity
  8
1
370
    18
100
AcDbCircle
 10
31.265465
 20
-24.47555
 30
0.0
 40
8.463341859568967
100
AcDbArc
 50
309.967545
 51
325.249957
  0
ARC
  5
3B5
330
1F
100
AcDbEntity
  8
1
370
    18
100
AcDbCircle
 10
39.964002
 20
14.961489
 30
0.0
 40
8.524922135778501
100
AcDbArc
 50
178.901266
 51
184.69338
  0
ARC
  5
3B6
330
1F
100
AcDbEntity
  8
1
370
    18
100
AcDbCircle
 10
34.7734
 20
33.322084
 30
0.0
 40
1.073671012544494
100
AcDbArc
 50
35.986068
 51
80.114305
  0
ARC
  5
3B7
330
1F
100
AcDbEntity
  8
1
370
    18
100
AcDbCircle
 10
33.992733
 20
35.134451
 30
0.0
 40
0.2901838456289663
100
AcDbArc
 50
176.139469
 51
230.455986
  0
ARC
  5
3B8
330
1F
100
AcDbEntity
  8
1
370
    18
100
AcDbCircle
 10
34.949944
 20
36.004812
 30
0.0
 40
1.581518949492887
100
AcDbArc
 50
223.774638
 51
246.206027
  0
ARC
  5
3B9
330
1F
100
AcDbEntity
  8
1
370
    18
100
AcDbCircle
 10
33.383137
 20
37.37141
 30
0.0
 40
2.091100246110547
100
AcDbArc
 50
229.947126
 51
266.44026
  0
ARC
  5
3BA
330
1F
100
AcDbEntity
  8
1
370
    18
100
AcDbCircle
 10
37.784116
 20
30.733373
 30
0.0
 40
0.7159577655879175
100
AcDbArc
 50
359.174746
 51
52.562935
  0
ARC
  5
3BB
330
1F
100
AcDbEntity
  8
1
370
    18
100
AcDbCircle
 10
37.560788
 20
-30.649433
 30
0.0
 40
0.9392301351122915
100
AcDbArc
 50
314.520218
 51
0.359441
  0
ARC
  5
3BC
330
1F
100
AcDbEntity
  8
1
370
    18
100
AcDbCircle
 10
37.102338
 20
-28.45832
 30
0.0
 40
1.398391596014036
100
AcDbArc
 50
323.013386
 51
358.149056
  0
ARC
  5
3BD
330
1F
100
AcDbEntity
  8
1
370
    18
100
AcDbCircle
 10
38.511212
 20
15.805188
 30
0.0
 40
6.977126930417953
100
AcDbArc
 50
174.704983
 51
175.727045
  0
ARC
  5
3BE
330
1F
100
AcDbEntity
  8
1
370
    18
100
AcDbCircle
 10
38.388643
 20
15.814576
 30
0.0
 40
6.854199446057522
100
AcDbArc
 50
175.72896
 51
176.978707
  0
ARC
  5
3BF
330
1F
100
AcDbEntity
  8
1
370
    18
100
AcDbCircle
 10
-13.014857
 20
-35.562135
 30
0.0
 40
30.02463291863354
100
AcDbArc
 50
15.505217
 51
16.698231
  0
ARC
  5
3C0
330
1F
100
AcDbEntity
  8
1
370
    18
100
AcDbCircle
 10
111.915406
 20
1.482173
 30
0.0
 40
100.2823226328975
100
AcDbArc
 50
196.24861
 51
196.461619
  0
ARC
  5
3C1
330
1F
100
AcDbEntity
  8
1
370
    18
100
AcDbCircle
 10
38.215514
 20
-22.717847
 30
0.0
 40
0.2354543413599593
100
AcDbArc
 50
11.903536
 51
98.005518
  0
ARC
  5
3C2
330
1F
100
AcDbEntity
  8
1
370
    18
100
AcDbCircle
 10
34.175258
 20
-12.320003
 30
0.0
 40
1.165101224097675
100
AcDbArc
 50
231.224605
 51
265.990632
  0
ARC
  5
3C3
330
1F
100
AcDbEntity
  8
1
370
    18
100
AcDbCircle
 10
35.106835
 20
-12.120989
 30
0.0
 40
1.69686573053323
100
AcDbArc
 50
233.34461
 51
262.316917
  0
ARC
  5
3C4
330
1F
100
AcDbEntity
  8
1
370
    18
100
AcDbCircle
 10
34.983701
 20
-13.007245
 30
0.0
 40
0.8021114742536184
100
AcDbArc
 50
262.569929
 51
325.908181
  0
ARC
  5
3C5
330
1F
100
AcDbEntity
  8
1
370
    18
100
AcDbCircle
 10
88.370969
 20
348.339431
 30
0.0
 40
365.6176743403022
100
AcDbArc
 50
261.708897
 51
261.886756
  0
ARC
  5
3C6
330
1F
100
AcDbEntity
  8
1
370
    18
100
AcDbCircle
 10
96.107003
 20
402.658424
 30
0.0
 40
420.4847781852436
100
AcDbArc
 50
261.88777
 51
262.085341
  0
ARC
  5
3C7
330
1F
100
AcDbEntity
  8
1
370
    18
100
AcDbCircle
 10
36.128631
 20
17.363478
 30
0.0
 40
4.844552218859275
100
AcDbArc
 50
202.042739
 51
212.519943
  0
ARC
  5
3C8
330
1F
100
AcDbEntity
  8
1
370
    18
100
AcDbCircle
 10
38.228599
 20
-22.617239
 30
0.0
 40
0.2731271985356367
100
AcDbArc
 50
6.44602
 51
94.513341
  0
ARC
  5
3C9
330
1F
100
AcDbEntity
  8
1
370
    18
100
AcDbCircle
 10
38.216856
 20
-14.116636
 30
0.0
 40
0.2958685036651382
100
AcDbArc
 50
16.864376
 51
91.888223
  0
ARC
  5
3CA
330
1F
100
AcDbEntity
  8
1
370
    18
100
AcDbCircle
 10
33.095581
 20
13.505823
 30
0.0
 40
0.560893400124373
100
AcDbArc
 50
176.163235
 51
253.215841
  0
ARC
  5
3CB
330
1F
100
AcDbEntity
  8
1
370
    18
100
AcDbCircle
 10
12.238508
 20
6.677575
 30
0.0
 40
22.7824828550674
100
AcDbArc
 50
18.930823
 51
20.310462
  0
ARC
  5
3CC
330
1F
100
AcDbEntity
  8
1
370
    18
100
AcDbCircle
 10
41.997082
 20
16.853487
 30
0.0
 40
8.667860762077314
100
AcDbArc
 50
198.739405
 51
202.9091
  0
ARC
  5
3CD
330
1F
100
AcDbEntity
  8
1
370
    18
100
AcDbCircle
 10
33.093366
 20
13.777833
 30
0.0
 40
0.8246314261874089
100
AcDbArc
 50
258.829678
 51
301.98388
  0
ARC
  5
3CE
330
1F
100
AcDbEntity
  8
1
370
    18
100
AcDbCircle
 10
136.81289
 20
-55.833312
 30
0.0
 40
119.104761383674
100
AcDbArc
 50
145.882718
 51
146.59692
  0
ARC
  5
3CF
330
1F
100
AcDbEntity
  8
1
370
    18
100
AcDbCircle
 10
126.841299
 20
-49.26262
 30
0.0
 40
107.1629607813685
100
AcDbArc
 50
146.59463
 51
147.601171
  0
ARC
  5
3D0
330
1F
100
AcDbEntity
  8
1
370
    18
100
AcDbCircle
 10
32.765303
 20
14.495516
 30
0.0
 40
1.75290978116376
100
AcDbArc
 50
292.835506
 51
319.276759
  0
ARC
  5
3D1
330
1F
100
AcDbEntity
  8
1
370
    18
100
AcDbCircle
 10
33.078544
 20
15.612128
 30
0.0
 40
2.47780786950605
100
AcDbArc
 50
294.188526
 51
316.637799
  0
ARC
  5
3D2
330
1F
100
AcDbEntity
  8
1
370
    18
100
AcDbCircle
 10
32.176536
 20
16.506289
 30
0.0
 40
3.747656607397193
100
AcDbArc
 50
316.167617
 51
337.866057
  0
ARC
  5
3D3
330
1F
100
AcDbEntity
  8
1
370
    18
100
AcDbCircle
 10
33.033392
 20
15.750677
 30
0.0
 40
2.50069105203553
100
AcDbArc
 50
294.31908
 51
320.509976
  0
ARC
  5
3D4
330
1F
100
AcDbEntity
  8
1
370
    18
100
AcDbCircle
 10
34.921882
 20
-12.989362
 30
0.0
 40
0.7546901285078432
100
AcDbArc
 50
275.843461
 51
325.239241
  0
ARC
  5
3D5
330
1F
100
AcDbEntity
  8
1
370
    18
100
AcDbCircle
 10
34.941649
 20
-12.289543
 30
0.0
 40
1.451710087883233
100
AcDbArc
 50
232.766359
 51
272.252945
  0
ARC
  5
3D6
330
1F
100
AcDbEntity
  8
1
370
    18
100
AcDbCircle
 10
37.173459
 20
11.806518
 30
0.0
 40
1.32897496976662
100
AcDbArc
 50
321.057622
 51
356.532052
  0
ARC
  5
3D7
330
1F
100
AcDbEntity
  8
1
370
    18
100
AcDbCircle
 10
49.871397
 20
-7.191675
 30
0.0
 40
18.39910653046632
100
AcDbArc
 50
185.3612
 51
192.952782
  0
ARC
  5
3D8
330
1F
100
AcDbEntity
  8
1
370
    18
100
AcDbCircle
 10
45.439637
 20
-8.253357
 30
0.0
 40
13.84219933964885
100
AcDbArc
 50
192.781843
 51
205.444277
  0
ARC
  5
3D9
330
1F
100
AcDbEntity
  8
1
370
    18
100
AcDbCircle
 10
32.900343
 20
24.355693
 30
0.0
 40
0.560507640258824
100
AcDbArc
 50
238.019994
 51
294.032092
  0
ARC
  5
3DA
330
1F
100
AcDbEntity
  8
1
370
    18
100
AcDbCircle
 10
32.057702
 20
23.773663
 30
0.0
 40
0.5520522402084791
100
AcDbArc
 50
29.454339
 51
109.282726
  0
ARC
  5
3DB
330
1F
100
AcDbEntity
  8
1
370
    18
100
AcDbCircle
 10
31.822409
 20
24.799155
 30
0.0
 40
0.5953775235637857
100
AcDbArc
 50
192.779125
 51
260.208878
  0
ARC
  5
3DC
330
1F
100
AcDbEntity
  8
1
370
    18
100
AcDbCircle
 10
30.939709
 20
25.056278
 30
0.0
 40
0.4481758710650375
100
AcDbArc
 50
331.771835
 51
39.237649
  0
ARC
  5
3DD
330
1F
100
AcDbEntity
  8
CUT
370
    18
100
AcDbCircle
 10
32.920901
 20
37.269571
 30
0.0
 40
0.9360465811299917
100
AcDbArc
 50
43.734718
 51
89.852069
  0
ARC
  5
3DE
330
1F
100
AcDbEntity
  8
CUT
370
    18
100
AcDbCircle
 10
25.160448
 20
30.815825
 30
0.0
 40
1.010137556750263
100
AcDbArc
 50
135.497974
 51
179.362475
  0
ARC
  5
3DF
330
1F
100
AcDbEntity
  8
CUT
370
    18
100
AcDbCircle
 10
39.037289
 20
31.074452
 30
0.0
 40
0.9627308562351713
100
AcDbArc
 50
0.363927
 51
45.641222
  0
ARC
  5
3E0
330
1F
100
AcDbEntity
  8
CUT
370
    18
100
AcDbCircle
 10
31.253189
 20
37.232469
 30
0.0
 40
0.9515170875445346
100
AcDbArc
 50
91.573903
 51
137.368687
  0
ARC
  5
3E1
330
1F
100
AcDbEntity
  8
CUT
370
    18
100
AcDbCircle
 10
38.964119
 20
29.357944
 30
0.0
 40
1.036025633775306
100
AcDbArc
 50
316.080262
 51
359.04228
  0
ARC
  5
3E2
330
1F
100
AcDbEntity
  8
CUT
370
    18
100
AcDbCircle
 10
32.881734
 20
22.813971
 30
0.0
 40
0.9663512416169241
100
AcDbArc
 50
272.46632
 51
317.767252
  0
ARC
  5
3E3
330
1F
100
AcDbEntity
  8
CUT
370
    18
100
AcDbCircle
 10
31.224145
 20
22.739521
 30
0.0
 40
0.929480532727903
100
AcDbArc
 50
223.786569
 51
270.179338
  0
ARC
  5
3E4
330
1F
100
AcDbEntity
  8
CUT
370
    18
100
AcDbCircle
 10
25.15807
 20
29.081138
 30
0.0
 40
1.007739509535978
100
AcDbArc
 50
180.522013
 51
224.556103
  0
ARC
  5
3E5
330
1F
100
AcDbEntity
  8
1
370
    13
100
AcDbCircle
 10
5.575
 20
-4.4275
 30
0.0
 40
0.8
100
AcDbArc
 50
270.0
 51
360.0
  0
ARC
  5
3E6
330
1F
100
AcDbEntity
  8
1
370
    13
100
AcDbCircle
 10
5.575
 20
4.4275
 30
0.0
 40
0.8
100
AcDbArc
 50
0.0
 51
90.0
  0
ARC
  5
3E7
330
1F
100
AcDbEntity
  8
1
370
    13
100
AcDbCircle
 10
11.0
 20
-29.0
 30
0.0
 40
5.0
100
AcDbArc
 50
12.44106
 51
90.0
  0
ARC
  5
3E8
330
1F
100
AcDbEntity
  8
1
370
    13
100
AcDbCircle
 10
11.0
 20
29.0
 30
0.0
 40
5.0
100
AcDbArc
 50
270.0
 51
0.0
  0
ARC
  5
3E9
330
1F
100
AcDbEntity
  8
1
370
    13
100
AcDbCircle
 10
23.0
 20
30.5
 30
0.0
 40
7.0
100
AcDbArc
 50
90.0
 51
180.0
  0
ARC
  5
3EA
330
1F
100
AcDbEntity
  8
NOCUT
370
    18
100
AcDbCircle
 10
20.85
 20
10.136129
 30
0.0
 40
0.4
100
AcDbArc
 50
0.0
 51
40.0
  0
ARC
  5
3EB
330
1F
100
AcDbEntity
  8
NOCUT
370
    18
100
AcDbCircle
 10
11.0
 20
29.0
 30
0.0
 40
5.0
100
AcDbArc
 50
270.0
 51
0.0
  0
ARC
  5
3EC
330
1F
100
AcDbEntity
  8
NOCUT
370
    18
100
AcDbCircle
 10
34.922832
 20
34.264709
 30
0.0
 40
1.0
100
AcDbArc
 50
44.0
 51
88.0
  0
ARC
  5
3ED
330
1F
100
AcDbEntity
  8
NOCUT
370
    18
100
AcDbCircle
 10
19.038128
 20
12.295434
 30
0.0
 40
0.4
100
AcDbArc
 50
40.0
 51
120.0
  0
ARC
  5
3EE
330
1F
100
AcDbEntity
  8
NOCUT
370
    18
100
AcDbCircle
 10
26.15
 20
8.65
 30
0.0
 40
0.4
100
AcDbArc
 50
90.0
 51
180.0
  0
ARC
  5
3EF
330
1F
100
AcDbEntity
  8
NOCUT
370
    18
100
AcDbCircle
 10
37.5
 20
28.814214
 30
0.0
 40
1.0
100
AcDbArc
 50
315.0
 51
0.0
  0
ARC
  5
3F0
330
1F
100
AcDbEntity
  8
NOCUT
370
    18
100
AcDbCircle
 10
36.5
 20
19.328932
 30
0.0
 40
5.0
100
AcDbArc
 50
135.0
 51
180.0
  0
ARC
  5
3F1
330
1F
100
AcDbEntity
  8
NOCUT
370
    18
100
AcDbCircle
 10
37.5
 20
31.595974
 30
0.0
 40
1.0
100
AcDbArc
 50
0.0
 51
44.0
  0
ARC
  5
3F2
330
1F
100
AcDbEntity
  8
NOCUT
370
    18
100
AcDbCircle
 10
33.323101
 20
37.322402
 30
0.0
 40
2.0
100
AcDbArc
 50
230.0
 51
268.0
  0
ARC
  5
3F3
330
1F
100
AcDbEntity
  8
NOCUT
370
    18
100
AcDbCircle
 10
23.0
 20
30.5
 30
0.0
 40
7.0
100
AcDbArc
 50
90.0
 51
180.0
  0
ARC
  5
3F4
330
1F
100
AcDbEntity
  8
NOCUT
370
    18
100
AcDbCircle
 10
29.63603
 20
36.5
 30
0.0
 40
1.0
100
AcDbArc
 50
50.0
 51
90.0
  0
ARC
  5
3F5
102
{ACAD_REACTORS
330
4AA
102
}
330
1F
100
AcDbEntity
  8
2
370
    13
100
AcDbCircle
 10
40.0
 20
31.475
 30
0.0
 40
16.4999
100
AcDbArc
 50
62.062036
 51
162.937964
  0
MTEXT
  5
3F6
102
{ACAD_REACTORS
330
4A9
102
}
330
1F
100
AcDbEntity
  8
2
370
    18
100
AcDbMText
 10
50.810447
 20
-5.405777
 30
0.0
 40
3.5001
 41
0.0
 71
     7
 72
     5
  1
%%c
  7
iso_b_vert
 11
7.273661547324616E-16
 21
1.0
 31
0.0
 73
     2
 44
1.084337
  0
MTEXT
  5
3F9
102
{ACAD_REACTORS
330
4A9
102
}
330
1F
100
AcDbEntity
  8
2
370
    18
100
AcDbMText
 10
50.810447
 20
3.317129
 30
0.0
 40
3.5001
 41
0.0
 71
     7
 72
     5
  1
\W0.7335;63
  7
iso_b_vert
 11
7.273661547324616E-16
 21
1.0
 31
0.0
 73
     2
 44
1.084337
  0
LINE
  5
3FA
102
{ACAD_REACTORS
330
3FD
102
}
330
1F
100
AcDbEntity
  8
2
 60
     1
370
    18
100
AcDbLine
 10
52.375125
 20
31.475
 30
0.0
 11
52.793122
 21
28.300002
 31
0.0
  0
LINE
  5
3FB
102
{ACAD_REACTORS
330
3FD
102
}
330
1F
100
AcDbEntity
  8
2
 60
     1
370
    18
100
AcDbLine
 10
52.793122
 20
28.300002
 30
0.0
 11
51.957128
 21
28.299998
 31
0.0
  0
LINE
  5
3FC
102
{ACAD_REACTORS
330
3FD
102
}
330
1F
100
AcDbEntity
  8
2
 60
     1
370
    18
100
AcDbLine
 10
51.957128
 20
28.299998
 30
0.0
 11
52.375125
 21
31.475
 31
0.0
  0
HATCH
  5
3FD
102
{ACAD_REACTORS
330
4A9
102
}
330
1F
100
AcDbEntity
  8
2
370
    13
100
AcDbHatch
 10
0.0
 20
0.0
 30
0.0
210
0.0
220
0.0
230
1.0
  2
ANSI31
 70
     0
 71
     1
 91
        1
 92
        0
 93
        3
 72
     1
 10
52.375125
 20
31.47499999999999
 11
52.79312167983716
 21
28.30000153538753
 72
     1
 10
52.79312167983716
 20
28.30000153538753
 11
51.95712832016284
 21
28.29999846461246
 72
     1
 10
51.95712832016284
 20
28.29999846461246
 11
52.375125
 21
31.47499999999999
 97
        3
330
3FA
330
3FB
330
3FC
 75
     0
 76
     1
 52
0.0
 41
0.0062
 77
     0
 78
     1
 53
44.99999999999986
 43
0.0
 44
0.0
 45
-0.0139193969876572
 46
0.0139193969876572
 79
     0
 98
        0
  0
MTEXT
  5
3FE
102
{ACAD_REACTORS
330
4AA
102
}
330
1F
100
AcDbEntity
  8
2
370
    13
100
AcDbMText
 10
30.407228
 20
46.388837
 30
0.0
 40
3.5001
 41
0.0
 71
     7
 72
     5
  1
\W0.9173;45%%d
  7
iso_b_vert
 11
0.9238795325112867
 21
0.3826834323650899
 31
0.0
 73
     2
 44
1.084337
  0
LINE
  5
3FF
102
{ACAD_REACTORS
330
402
102
}
330
1F
100
AcDbEntity
  8
2
 60
     1
370
    18
100
AcDbLine
 10
28.332809
 20
43.142191
 30
0.0
 11
26.507354
 21
40.511022
 31
0.0
  0
LINE
  5
400
102
{ACAD_REACTORS
330
402
102
}
330
1F
100
AcDbEntity
  8
2
 60
     1
370
    18
100
AcDbLine
 10
26.507354
 20
40.511022
 30
0.0
 11
25.888556
 21
41.073137
 31
0.0
  0
LINE
  5
401
102
{ACAD_REACTORS
330
402
102
}
330
1F
100
AcDbEntity
  8
2
 60
     1
370
    18
100
AcDbLine
 10
25.888556
 20
41.073137
 30
0.0
 11
28.332809
 21
43.142191
 31
0.0
  0
HATCH
  5
402
102
{ACAD_REACTORS
330
4AA
102
}
330
1F
100
AcDbEntity
  8
2
370
    13
100
AcDbHatch
 10
0.0
 20
0.0
 30
0.0
210
0.0
220
0.0
230
1.0
  2
ANSI31
 70
     0
 71
     1
 91
        1
 92
        0
 93
        3
 72
     1
 10
28.33280882110009
 20
43.14219117889991
 11
26.50735444326626
 21
40.51102170714525
 72
     1
 10
26.50735444326626
 20
40.51102170714525
 11
25.88855619892029
 21
41.07313702469435
 72
     1
 10
25.88855619892029
 20
41.07313702469435
 11
28.33280882110009
 21
43.14219117889991
 97
        3
330
3FF
330
400
330
401
 75
     0
 76
     1
 52
0.0
 41
0.0062
 77
     0
 78
     1
 53
44.99999999999986
 43
0.0
 44
0.0
 45
-0.0139193969876572
 46
0.0139193969876572
 79
     0
 98
        0
  0
LINE
  5
403
102
{ACAD_REACTORS
330
406
102
}
330
1F
100
AcDbEntity
  8
2
 60
     1
370
    18
100
AcDbLine
 10
40.0
 20
47.9749
 30
0.0
 11
43.191387
 21
48.240206
 31
0.0
  0
LINE
  5
404
102
{ACAD_REACTORS
330
406
102
}
330
1F
100
AcDbEntity
  8
2
 60
     1
370
    18
100
AcDbLine
 10
43.191387
 20
48.240206
 30
0.0
 11
43.151312
 21
47.405173
 31
0.0
  0
LINE
  5
405
102
{ACAD_REACTORS
330
406
102
}
330
1F
100
AcDbEntity
  8
2
 60
     1
370
    18
100
AcDbLine
 10
43.151312
 20
47.405173
 30
0.0
 11
40.0
 21
47.9749
 31
0.0
  0
HATCH
  5
406
102
{ACAD_REACTORS
330
4AA
102
}
330
1F
100
AcDbEntity
  8
2
370
    13
100
AcDbHatch
 10
0.0
 20
0.0
 30
0.0
210
0.0
220
0.0
230
1.0
  2
ANSI31
 70
     0
 71
     1
 91
        1
 92
        0
 93
        3
 72
     1
 10
40.0
 20
47.97489999999999
 11
43.19138675991299
 21
48.2402055282094
 72
     1
 10
43.19138675991299
 20
48.2402055282094
 11
43.15131201248602
 21
47.40517324617016
 72
     1
 10
43.15131201248602
 20
47.40517324617016
 11
40.0
 21
47.97489999999999
 97
        3
330
403
330
404
330
405
 75
     0
 76
     1
 52
0.0
 41
0.0062
 77
     0
 78
     1
 53
44.99999999999984
 43
0.0
 44
0.0
 45
-0.0139193969876571
 46
0.0139193969876572
 79
     0
 98
        0
  0
MTEXT
  5
407
330
1F
100
AcDbEntity
  8
SK6
370
    13
100
AcDbMText
 10
0.168275
 20
62.824246
 30
0.0
 40
3.175
 41
0.0
 71
     7
 72
     5
  1
\W0.7846;63A05R-S45SD13F-C
  7
iso_b_vert
 73
     2
 44
1.084337
  0
DIMENSION
  5
409
102
{ACAD_REACTORS
330
40B
102
}
102
{ACAD_XDICTIONARY
360
40A
102
}
330
1F
100
AcDbEntity
  8
SK2
370
    13
100
AcDbDimension
  2
_U0
 10
-30.624875
 20
24.0
 30
0.0
 11
-30.624875
 21
0.0
 31
0.0
 70
   160
  1
%%c\C95;46
 71
     1
 42
48.0
 52
90.0
  3
Standard
100
AcDbAlignedDimension
 13
1.0
 23
-24.0
 33
0.0
 14
1.0
 24
24.0
 34
0.0
 50
90.0
100
AcDbRotatedDimension
1001
ACAD
1000
DSTYLE
1002
{
1070
   371
1070
    13
1070
   372
1070
    13
1070
     3
1000

1070
   170
1070
     0
1070
   144
1040
1.0
1070
   277
1070
     2
1070
   284
1070
     8
1070
   278
1070
    44
1070
   146
1040
0.907117
1070
   345
1005
16
1070
   347
1005
16
1070
   346
1005
16
1070
   344
1005
0
1070
   343
1005
0
1070
   172
1070
     1
1070
    76
1070
     0
1070
    75
1070
     0
1070
   282
1070
     0
1070
   281
1070
     0
1070
    71
1070
     0
1070
    74
1070
     0
1070
   279
1070
     0
1070
   173
1070
     1
1070
   340
1005
3F7
1070
   271
1070
     1
1070
   272
1070
     2
1070
    77
1070
     1
1070
    73
1070
     0
1070
   171
1070
     3
1070
   274
1070
     4
1070
   177
1070
    95
1070
   176
1070
    95
1070
   178
1070
    95
1070
    78
1070
     8
1070
    48
1040
-0.1
1070
    41
1040
3.175
1070
   147
1040
1.75005
1070
    42
1040
1.5875
1070
    44
1040
3.175
1070
   140
1040
3.5001
1002
}
1001
ACAD_DSTYLE_DIM_LINETYPE
1070
   380
1005
16
1001
ACAD_DSTYLE_DIM_EXT1_LINETYPE
1070
   381
1005
16
1001
ACAD_DSTYLE_DIM_EXT2_LINETYPE
1070
   382
1005
16
  0
DIMENSION
  5
423
102
{ACAD_REACTORS
330
425
102
}
102
{ACAD_XDICTIONARY
360
424
102
}
330
1F
100
AcDbEntity
  8
SK2
370
    13
100
AcDbDimension
  2
_U1
 10
-20.624875
 20
11.1
 30
0.0
 11
-20.624875
 21
0.0
 31
0.0
 70
   160
  1
%%c\C95;22
 71
     1
 42
22.2
 52
90.0
  3
Standard
100
AcDbAlignedDimension
 13
6.6
 23
-11.1
 33
0.0
 14
1.0
 24
11.1
 34
0.0
 50
90.0
100
AcDbRotatedDimension
1001
ACAD
1000
DSTYLE
1002
{
1070
   371
1070
    13
1070
   372
1070
    13
1070
     3
1000

1070
   170
1070
     0
1070
   144
1040
1.0
1070
   277
1070
     2
1070
   284
1070
     8
1070
   278
1070
    44
1070
   146
1040
0.907117
1070
   345
1005
16
1070
   347
1005
16
1070
   346
1005
16
1070
   344
1005
0
1070
   343
1005
0
1070
   172
1070
     1
1070
    76
1070
     0
1070
    75
1070
     0
1070
   282
1070
     0
1070
   281
1070
     0
1070
    71
1070
     0
1070
    74
1070
     0
1070
   279
1070
     0
1070
   173
1070
     1
1070
   340
1005
3F7
1070
   271
1070
     1
1070
   272
1070
     2
1070
    77
1070
     1
1070
    73
1070
     0
1070
   171
1070
     3
1070
   274
1070
     4
1070
   177
1070
    95
1070
   176
1070
    95
1070
   178
1070
    95
1070
    78
1070
     8
1070
    48
1040
-0.1
1070
    41
1040
3.175
1070
   147
1040
1.75005
1070
    42
1040
1.5875
1070
    44
1040
3.175
1070
   140
1040
3.5001
1002
}
1001
ACAD_DSTYLE_DIM_LINETYPE
1070
   380
1005
16
1001
ACAD_DSTYLE_DIM_EXT1_LINETYPE
1070
   381
1005
16
1001
ACAD_DSTYLE_DIM_EXT2_LINETYPE
1070
   382
1005
16
  0
DIMENSION
  5
43C
102
{ACAD_REACTORS
330
43E
102
}
102
{ACAD_XDICTIONARY
360
43D
102
}
330
1F
100
AcDbEntity
  8
SK2
370
    13
100
AcDbDimension
  2
_U2
 10
-11.4999
 20
-5.2275
 30
0.0
 11
-11.4999
 21
0.0
 31
0.0
 70
   160
  1
\C95;10,4
 71
     1
 42
10.455
 52
90.0
  3
Standard
100
AcDbAlignedDimension
 13
1.0
 23
5.2275
 33
0.0
 14
1.0
 24
-5.2275
 34
0.0
 50
90.0
100
AcDbRotatedDimension
1001
ACAD
1000
DSTYLE
1002
{
1070
   371
1070
    13
1070
   372
1070
    13
1070
     3
1000

1070
   170
1070
     0
1070
   144
1040
1.0
1070
   277
1070
     2
1070
   284
1070
     8
1070
   278
1070
    44
1070
   146
1040
0.907117
1070
   345
1005
16
1070
   347
1005
16
1070
   346
1005
16
1070
   344
1005
0
1070
   343
1005
0
1070
   172
1070
     1
1070
    76
1070
     0
1070
    75
1070
     0
1070
   282
1070
     0
1070
   281
1070
     0
1070
    71
1070
     0
1070
    74
1070
     0
1070
   279
1070
     0
1070
   173
1070
     1
1070
   340
1005
3F7
1070
   271
1070
     1
1070
   272
1070
     2
1070
    77
1070
     1
1070
    73
1070
     0
1070
   171
1070
     3
1070
   274
1070
     4
1070
   177
1070
    95
1070
   176
1070
    95
1070
   178
1070
    95
1070
    78
1070
     8
1070
    48
1040
-0.1
1070
    41
1040
3.175
1070
   147
1040
1.75005
1070
    42
1040
1.5875
1070
    44
1040
3.175
1070
   140
1040
3.5001
1002
}
1001
ACAD_DSTYLE_DIM_LINETYPE
1070
   380
1005
16
1001
ACAD_DSTYLE_DIM_EXT1_LINETYPE
1070
   381
1005
16
1001
ACAD_DSTYLE_DIM_EXT2_LINETYPE
1070
   382
1005
16
1001
ACAD_DSTYLE_DIM_LINETYPE
1070
   385
1070
     0
1001
ACAD_DSTYLE_DIM_LINETYPE
1070
   386
1070
     3
  0
DIMENSION
  5
455
102
{ACAD_REACTORS
330
457
102
}
102
{ACAD_XDICTIONARY
360
456
102
}
330
1F
100
AcDbEntity
  8
2
370
    13
100
AcDbDimension
  2
_U3
 10
40.0
 20
42.416579
 30
0.0
 11
56.619723
 21
42.416579
 31
0.0
 70
   160
  1
\C254;6,403
 71
     1
 42
6.40276
 52
90.0
  3
Standard
100
AcDbAlignedDimension
 13
33.59724
 23
37.916679
 33
0.0
 14
40.0
 24
32.475
 34
0.0
100
AcDbRotatedDimension
1001
ACAD
1000
DSTYLE
1002
{
1070
   371
1070
    13
1070
   372
1070
    13
1070
     3
1000

1070
   170
1070
     0
1070
   144
1040
1.0
1070
   277
1070
     2
1070
   284
1070
     8
1070
   278
1070
    44
1070
   146
1040
0.907117
1070
   345
1005
16
1070
   347
1005
16
1070
   346
1005
16
1070
   344
1005
0
1070
   343
1005
0
1070
   172
1070
     1
1070
    76
1070
     0
1070
    75
1070
     0
1070
   282
1070
     0
1070
   281
1070
     0
1070
    71
1070
     0
1070
    74
1070
     0
1070
   279
1070
     0
1070
   173
1070
     1
1070
   340
1005
3F7
1070
   271
1070
     1
1070
   272
1070
     2
1070
    77
1070
     1
1070
    73
1070
     1
1070
   171
1070
     3
1070
   274
1070
     4
1070
   177
1070
   254
1070
   176
1070
   254
1070
   178
1070
   254
1070
    78
1070
     8
1070
    48
1040
-0.1
1070
    41
1040
3.175
1070
   147
1040
1.75005
1070
    42
1040
1.5875
1070
    44
1040
3.175
1070
   140
1040
3.5001
1002
}
1001
ACAD_DSTYLE_DIM_LINETYPE
1070
   380
1005
16
1001
ACAD_DSTYLE_DIM_EXT1_LINETYPE
1070
   381
1005
16
1001
ACAD_DSTYLE_DIM_EXT2_LINETYPE
1070
   382
1005
16
  0
DIMENSION
  5
46F
102
{ACAD_REACTORS
330
471
102
}
102
{ACAD_XDICTIONARY
360
470
102
}
330
1F
100
AcDbEntity
  8
2
370
    13
100
AcDbDimension
  2
_U4
 10
40.0
 20
51.9749
 30
0.0
 11
20.0
 21
51.9749
 31
0.0
 70
   160
 71
     1
 42
40.0
 52
90.0
  3
Standard
100
AcDbAlignedDimension
 13
0.0
 23
23.0
 33
0.0
 14
40.0
 24
32.475
 34
0.0
100
AcDbRotatedDimension
1001
ACAD
1000
DSTYLE
1002
{
1070
   371
1070
    13
1070
   372
1070
    13
1070
   170
1070
     0
1070
   144
1040
1.0
1070
   277
1070
     2
1070
   284
1070
     8
1070
   278
1070
    44
1070
   146
1040
0.907117
1070
   345
1005
16
1070
   347
1005
16
1070
   346
1005
16
1070
   344
1005
0
1070
   343
1005
0
1070
   172
1070
     1
1070
    76
1070
     0
1070
    75
1070
     0
1070
   282
1070
     0
1070
   281
1070
     0
1070
    71
1070
     0
1070
    74
1070
     0
1070
   279
1070
     0
1070
   173
1070
     1
1070
   340
1005
3F7
1070
   271
1070
     1
1070
   272
1070
     2
1070
    77
1070
     1
1070
    73
1070
     1
1070
   171
1070
     3
1070
   274
1070
     4
1070
   177
1070
   254
1070
   176
1070
   254
1070
   178
1070
   254
1070
    78
1070
     8
1070
    48
1040
-0.1
1070
    41
1040
3.175
1070
   147
1040
1.75005
1070
    42
1040
1.5875
1070
    44
1040
3.175
1070
   140
1040
3.5001
1002
}
1001
ACAD_DSTYLE_DIM_LINETYPE
1070
   380
1005
16
1001
ACAD_DSTYLE_DIM_EXT1_LINETYPE
1070
   381
1005
16
1001
ACAD_DSTYLE_DIM_EXT2_LINETYPE
1070
   382
1005
16
  0
DIMENSION
  5
487
102
{ACAD_REACTORS
330
489
102
}
102
{ACAD_XDICTIONARY
360
488
102
}
330
1F
100
AcDbEntity
  8
SK2
370
    13
100
AcDbDimension
  2
_U5
 10
6.375
 20
-50.5001
 30
0.0
 11
-15.656516
 21
-50.5001
 31
0.0
 70
   160
  1
\C95;6,3
 71
     1
 42
6.375
 52
90.0
  3
Standard
100
AcDbAlignedDimension
 13
0.0
 23
-23.0
 33
0.0
 14
6.375
 24
-4.981774
 34
0.0
100
AcDbRotatedDimension
1001
ACAD
1000
DSTYLE
1002
{
1070
   371
1070
    13
1070
   372
1070
    13
1070
     3
1000

1070
   170
1070
     0
1070
   144
1040
1.0
1070
   277
1070
     2
1070
   284
1070
     8
1070
   278
1070
    44
1070
   146
1040
0.907117
1070
   345
1005
16
1070
   347
1005
16
1070
   346
1005
16
1070
   344
1005
0
1070
   343
1005
0
1070
   172
1070
     1
1070
    76
1070
     0
1070
    75
1070
     0
1070
   282
1070
     0
1070
   281
1070
     0
1070
    71
1070
     0
1070
    74
1070
     0
1070
   279
1070
     0
1070
   173
1070
     1
1070
   340
1005
3F7
1070
   271
1070
     1
1070
   272
1070
     2
1070
    77
1070
     1
1070
    73
1070
     1
1070
   171
1070
     3
1070
   274
1070
     4
1070
   177
1070
    95
1070
   176
1070
    95
1070
   178
1070
    95
1070
    78
1070
     8
1070
    48
1040
-0.1
1070
    41
1040
3.175
1070
   147
1040
1.75005
1070
    42
1040
1.5875
1070
    44
1040
3.175
1070
   140
1040
3.5001
1002
}
1001
ACAD_DSTYLE_DIM_LINETYPE
1070
   380
1005
16
1001
ACAD_DSTYLE_DIM_EXT1_LINETYPE
1070
   381
1005
16
1001
ACAD_DSTYLE_DIM_EXT2_LINETYPE
1070
   382
1005
16
  0
ENDSEC
  0
SECTION
  2
OBJECTS
  0
DICTIONARY
  5
C
330
0
100
AcDbDictionary
281
     1
  3
ACAD_DETAILVIEWSTYLE
350
504
  3
ACAD_GROUP
350
D
  3
ACAD_LAYOUT
350
1A
  3
ACAD_MATERIAL
350
43
  3
ACAD_MLEADERSTYLE
350
6B
  3
ACAD_MLINESTYLE
350
17
  3
ACAD_PLOTSETTINGS
350
19
  3
ACAD_PLOTSTYLENAME
350
E
  3
ACAD_SCALELIST
350
47
  3
ACAD_SECTIONVIEWSTYLE
350
505
  3
ACAD_TABLESTYLE
350
69
  3
ACAD_VISUALSTYLE
350
2A
  3
ACDB_RECOMPOSE_DATA
350
501
  3
AcDbVariableDictionary
350
4C1
  0
DICTIONARY
  5
4BF
330
8
100
AcDbDictionary
280
     1
281
     1
  3
ACAD_XREC_ROUNDTRIP
360
4C0
  0
DICTIONARY
  5
40A
330
409
100
AcDbDictionary
280
     1
281
     1
  3
ACAD_DIMASSOC
360
40B
  0
DICTIONARY
  5
424
330
423
100
AcDbDictionary
280
     1
281
     1
  3
ACAD_DIMASSOC
360
425
  0
DICTIONARY
  5
43D
330
43C
100
AcDbDictionary
280
     1
281
     1
  3
ACAD_DIMASSOC
360
43E
  0
DICTIONARY
  5
456
330
455
100
AcDbDictionary
280
     1
281
     1
  3
ACAD_DIMASSOC
360
457
  0
DICTIONARY
  5
470
330
46F
100
AcDbDictionary
280
     1
281
     1
  3
ACAD_DIMASSOC
360
471
  0
DICTIONARY
  5
488
330
487
100
AcDbDictionary
280
     1
281
     1
  3
ACAD_DIMASSOC
360
489
  0
DICTIONARY
  5
504
102
{ACAD_REACTORS
330
C
102
}
330
C
100
AcDbDictionary
281
     1
  0
DICTIONARY
  5
D
102
{ACAD_REACTORS
330
C
102
}
330
C
100
AcDbDictionary
281
     1
  3
ANNOTATION
350
4A9
  3
ANNOTATION2
350
4AA
  0
DICTIONARY
  5
1A
102
{ACAD_REACTORS
330
C
102
}
330
C
100
AcDbDictionary
281
     1
  3
Layout1
350
1E
  3
Layout2
350
26
  3
Model
350
22
  0
DICTIONARY
  5
43
102
{ACAD_REACTORS
330
C
102
}
330
C
100
AcDbDictionary
281
     1
  3
ByBlock
350
45
  3
ByLayer
350
44
  3
Global
350
46
  0
DICTIONARY
  5
6B
102
{ACAD_REACTORS
330
C
102
}
330
C
100
AcDbDictionary
281
     1
  3
Standard
350
6C
  0
DICTIONARY
  5
17
102
{ACAD_REACTORS
330
C
102
}
330
C
100
AcDbDictionary
281
     1
  3
Standard
350
18
  0
DICTIONARY
  5
19
102
{ACAD_REACTORS
330
C
102
}
330
C
100
AcDbDictionary
281
     1
  0
ACDBDICTIONARYWDFLT
  5
E
102
{ACAD_REACTORS
330
C
102
}
330
C
100
AcDbDictionary
281
     1
  3
Normal
350
F
100
AcDbDictionaryWithDefault
340
F
  0
DICTIONARY
  5
47
102
{ACAD_REACTORS
330
C
102
}
330
C
100
AcDbDictionary
281
     1
  3
A0
350
48
  3
A1
350
49
  3
A2
350
4A
  3
A3
350
4B
  3
A4
350
4C
  3
A5
350
4D
  3
A6
350
4E
  3
A7
350
4F
  3
A8
350
50
  3
A9
350
51
  3
B0
350
52
  3
B1
350
53
  3
B2
350
54
  3
B3
350
55
  3
B4
350
56
  3
B5
350
57
  3
B6
350
58
  3
B7
350
59
  3
B8
350
5A
  3
B9
350
5B
  3
C0
350
5C
  3
C1
350
5D
  3
C2
350
5E
  3
C3
350
5F
  3
C4
350
60
  3
C5
350
61
  3
C6
350
62
  3
C7
350
63
  3
C8
350
64
  3
C9
350
65
  3
D0
350
66
  3
D1
350
67
  3
D2
350
68
  0
DICTIONARY
  5
505
102
{ACAD_REACTORS
330
C
102
}
330
C
100
AcDbDictionary
281
     1
  0
DICTIONARY
  5
69
102
{ACAD_REACTORS
330
C
102
}
330
C
100
AcDbDictionary
281
     1
  3
Standard
350
6A
  0
DICTIONARY
  5
2A
102
{ACAD_REACTORS
330
C
102
}
330
C
100
AcDbDictionary
281
     1
  3
2dWireframe
350
2F
  3
Basic
350
32
  3
Brighten
350
36
  3
ColorChange
350
3A
  3
Conceptual
350
34
  3
Dim
350
35
  3
EdgeColorOff
350
3D
  3
Facepattern
350
39
  3
Flat
350
2B
  3
FlatWithEdges
350
2C
  3
Gouraud
350
2D
  3
GouraudWithEdges
350
2E
  3
Hidden
350
31
  3
JitterOff
350
3B
  3
Linepattern
350
38
  3
OverhangOff
350
3C
  3
Realistic
350
33
  3
Shaded
350
42
  3
Shaded with edges
350
41
  3
Shades of Gray
350
3E
  3
Sketchy
350
3F
  3
Thicken
350
37
  3
Wireframe
350
30
  3
X-Ray
350
40
  0
XRECORD
  5
501
102
{ACAD_REACTORS
330
C
102
}
330
C
100
AcDbXrecord
280
     1
 90
        1
330
6A
  0
DICTIONARY
  5
4C1
102
{ACAD_REACTORS
330
C
102
}
330
C
100
AcDbDictionary
281
     1
  3
CANNOSCALE
350
4C2
  3
CMLEADERSTYLE
350
503
  3
CTABLESTYLE
350
502
  3
MSLTSCALE
350
4C3
  3
XCLIPFRAME
350
4C4
  0
XRECORD
  5
4C0
102
{ACAD_REACTORS
330
4BF
102
}
330
4BF
100
AcDbXrecord
280
     1
102
VTR_0.000_0.000_1.000_1.000_VISUALSTYLE
340
2F
102
VTR_0.000_0.000_1.000_1.000_GRIDDISPLAY
 70
     3
102
VTR_0.000_0.000_1.000_1.000_GRIDMAJOR
 70
     5
102
VTR_0.000_0.000_1.000_1.000_DEFAULTLIGHTING
280
     1
102
VTR_0.000_0.000_1.000_1.000_DEFAULTLIGHTINGTYPE
 70
     1
102
VTR_0.000_0.000_1.000_1.000_BRIGHTNESS
141
0.0
102
VTR_0.000_0.000_1.000_1.000_CONTRAST
142
0.0
102
VTR_0.000_0.000_0.500_1.000_VISUALSTYLE
340
2F
102
VTR_0.000_0.000_0.500_1.000_GRIDDISPLAY
 70
     3
102
VTR_0.000_0.000_0.500_1.000_GRIDMAJOR
 70
     5
102
VTR_0.000_0.000_0.500_1.000_DEFAULTLIGHTING
280
     1
102
VTR_0.000_0.000_0.500_1.000_DEFAULTLIGHTINGTYPE
 70
     1
102
VTR_0.000_0.000_0.500_1.000_BRIGHTNESS
141
0.0
102
VTR_0.000_0.000_0.500_1.000_CONTRAST
142
0.0
102
VTR_0.500_0.000_1.000_1.000_VISUALSTYLE
340
2F
102
VTR_0.500_0.000_1.000_1.000_GRIDDISPLAY
 70
     3
102
VTR_0.500_0.000_1.000_1.000_GRIDMAJOR
 70
     5
102
VTR_0.500_0.000_1.000_1.000_DEFAULTLIGHTING
280
     1
102
VTR_0.500_0.000_1.000_1.000_DEFAULTLIGHTINGTYPE
 70
     1
102
VTR_0.500_0.000_1.000_1.000_BRIGHTNESS
141
0.0
102
VTR_0.500_0.000_1.000_1.000_CONTRAST
142
0.0
102
VTR_0.000_0.500_1.000_1.000_VISUALSTYLE
340
2F
102
VTR_0.000_0.500_1.000_1.000_GRIDDISPLAY
 70
     3
102
VTR_0.000_0.500_1.000_1.000_GRIDMAJOR
 70
     5
102
VTR_0.000_0.500_1.000_1.000_DEFAULTLIGHTING
280
     1
102
VTR_0.000_0.500_1.000_1.000_DEFAULTLIGHTINGTYPE
 70
     1
102
VTR_0.000_0.500_1.000_1.000_BRIGHTNESS
141
0.0
102
VTR_0.000_0.500_1.000_1.000_CONTRAST
142
0.0
102
VTR_0.000_0.000_1.000_0.500_VISUALSTYLE
340
2F
102
VTR_0.000_0.000_1.000_0.500_GRIDDISPLAY
 70
     3
102
VTR_0.000_0.000_1.000_0.500_GRIDMAJOR
 70
     5
102
VTR_0.000_0.000_1.000_0.500_DEFAULTLIGHTING
280
     1
102
VTR_0.000_0.000_1.000_0.500_DEFAULTLIGHTINGTYPE
 70
     1
102
VTR_0.000_0.000_1.000_0.500_BRIGHTNESS
141
0.0
102
VTR_0.000_0.000_1.000_0.500_CONTRAST
142
0.0
102
VTR_0.000_0.500_0.500_1.000_VISUALSTYLE
340
2F
102
VTR_0.000_0.500_0.500_1.000_GRIDDISPLAY
 70
     3
102
VTR_0.000_0.500_0.500_1.000_GRIDMAJOR
 70
     5
102
VTR_0.000_0.500_0.500_1.000_DEFAULTLIGHTING
280
     1
102
VTR_0.000_0.500_0.500_1.000_DEFAULTLIGHTINGTYPE
 70
     1
102
VTR_0.000_0.500_0.500_1.000_BRIGHTNESS
141
0.0
102
VTR_0.000_0.500_0.500_1.000_CONTRAST
142
0.0
102
VTR_0.000_0.000_0.500_0.500_VISUALSTYLE
340
2F
102
VTR_0.000_0.000_0.500_0.500_GRIDDISPLAY
 70
     3
102
VTR_0.000_0.000_0.500_0.500_GRIDMAJOR
 70
     5
102
VTR_0.000_0.000_0.500_0.500_DEFAULTLIGHTING
280
     1
102
VTR_0.000_0.000_0.500_0.500_DEFAULTLIGHTINGTYPE
 70
     1
102
VTR_0.000_0.000_0.500_0.500_BRIGHTNESS
141
0.0
102
VTR_0.000_0.000_0.500_0.500_CONTRAST
142
0.0
102
VTR_0.500_0.000_1.000_0.500_VISUALSTYLE
340
2F
102
VTR_0.500_0.000_1.000_0.500_GRIDDISPLAY
 70
     3
102
VTR_0.500_0.000_1.000_0.500_GRIDMAJOR
 70
     5
102
VTR_0.500_0.000_1.000_0.500_DEFAULTLIGHTING
280
     1
102
VTR_0.500_0.000_1.000_0.500_DEFAULTLIGHTINGTYPE
 70
     1
102
VTR_0.500_0.000_1.000_0.500_BRIGHTNESS
141
0.0
102
VTR_0.500_0.000_1.000_0.500_CONTRAST
142
0.0
102
VTR_0.500_0.500_1.000_1.000_VISUALSTYLE
340
2F
102
VTR_0.500_0.500_1.000_1.000_GRIDDISPLAY
 70
     3
102
VTR_0.500_0.500_1.000_1.000_GRIDMAJOR
 70
     5
102
VTR_0.500_0.500_1.000_1.000_DEFAULTLIGHTING
280
     1
102
VTR_0.500_0.500_1.000_1.000_DEFAULTLIGHTINGTYPE
 70
     1
102
VTR_0.500_0.500_1.000_1.000_BRIGHTNESS
141
0.0
102
VTR_0.500_0.500_1.000_1.000_CONTRAST
142
0.0
102
VTR_0.000_0.500_0.333_1.000_VISUALSTYLE
340
2F
102
VTR_0.000_0.500_0.333_1.000_GRIDDISPLAY
 70
     3
102
VTR_0.000_0.500_0.333_1.000_GRIDMAJOR
 70
     5
102
VTR_0.000_0.500_0.333_1.000_DEFAULTLIGHTING
280
     1
102
VTR_0.000_0.500_0.333_1.000_DEFAULTLIGHTINGTYPE
 70
     1
102
VTR_0.000_0.500_0.333_1.000_BRIGHTNESS
141
0.0
102
VTR_0.000_0.500_0.333_1.000_CONTRAST
142
0.0
102
VTR_0.000_0.000_0.333_0.500_VISUALSTYLE
340
2F
102
VTR_0.000_0.000_0.333_0.500_GRIDDISPLAY
 70
     3
102
VTR_0.000_0.000_0.333_0.500_GRIDMAJOR
 70
     5
102
VTR_0.000_0.000_0.333_0.500_DEFAULTLIGHTING
280
     1
102
VTR_0.000_0.000_0.333_0.500_DEFAULTLIGHTINGTYPE
 70
     1
102
VTR_0.000_0.000_0.333_0.500_BRIGHTNESS
141
0.0
102
VTR_0.000_0.000_0.333_0.500_CONTRAST
142
0.0
102
VTR_0.333_0.500_0.667_1.000_VISUALSTYLE
340
2F
102
VTR_0.333_0.500_0.667_1.000_GRIDDISPLAY
 70
     3
102
VTR_0.333_0.500_0.667_1.000_GRIDMAJOR
 70
     5
102
VTR_0.333_0.500_0.667_1.000_DEFAULTLIGHTING
280
     1
102
VTR_0.333_0.500_0.667_1.000_DEFAULTLIGHTINGTYPE
 70
     1
102
VTR_0.333_0.500_0.667_1.000_BRIGHTNESS
141
0.0
102
VTR_0.333_0.500_0.667_1.000_CONTRAST
142
0.0
102
VTR_0.333_0.000_0.667_0.500_VISUALSTYLE
340
2F
102
VTR_0.333_0.000_0.667_0.500_GRIDDISPLAY
 70
     3
102
VTR_0.333_0.000_0.667_0.500_GRIDMAJOR
 70
     5
102
VTR_0.333_0.000_0.667_0.500_DEFAULTLIGHTING
280
     1
102
VTR_0.333_0.000_0.667_0.500_DEFAULTLIGHTINGTYPE
 70
     1
102
VTR_0.333_0.000_0.667_0.500_BRIGHTNESS
141
0.0
102
VTR_0.333_0.000_0.667_0.500_CONTRAST
142
0.0
102
VTR_0.667_0.500_1.000_1.000_VISUALSTYLE
340
2F
102
VTR_0.667_0.500_1.000_1.000_GRIDDISPLAY
 70
     3
102
VTR_0.667_0.500_1.000_1.000_GRIDMAJOR
 70
     5
102
VTR_0.667_0.500_1.000_1.000_DEFAULTLIGHTING
280
     1
102
VTR_0.667_0.500_1.000_1.000_DEFAULTLIGHTINGTYPE
 70
     1
102
VTR_0.667_0.500_1.000_1.000_BRIGHTNESS
141
0.0
102
VTR_0.667_0.500_1.000_1.000_CONTRAST
142
0.0
102
VTR_0.667_0.000_1.000_0.500_VISUALSTYLE
340
2F
102
VTR_0.667_0.000_1.000_0.500_GRIDDISPLAY
 70
     3
102
VTR_0.667_0.000_1.000_0.500_GRIDMAJOR
 70
     5
102
VTR_0.667_0.000_1.000_0.500_DEFAULTLIGHTING
280
     1
102
VTR_0.667_0.000_1.000_0.500_DEFAULTLIGHTINGTYPE
 70
     1
102
VTR_0.667_0.000_1.000_0.500_BRIGHTNESS
141
0.0
102
VTR_0.667_0.000_1.000_0.500_CONTRAST
142
0.0
  0
DIMASSOC
  5
40B
102
{ACAD_REACTORS
330
40A
102
}
330
40A
100
AcDbDimAssoc
330
409
 90
        3
 70
     0
 71
     1
  1
AcDbOsnapPointRef
 72
    13
331
D6
 73
     2
 91
        1
 40
0.0
 10
1.0
 20
-24.0
 30
0.0
 75
     0
  1
AcDbOsnapPointRef
 72
     1
331
D7
 73
     2
 91
        2
 40
1.0
 10
1.0
 20
24.0
 30
0.0
 75
     0
  0
DIMASSOC
  5
425
102
{ACAD_REACTORS
330
424
102
}
330
424
100
AcDbDimAssoc
330
423
 90
        3
 70
     0
 71
     1
  1
AcDbOsnapPointRef
 72
    13
331
268
 73
     2
 91
        1
 40
0.0
 10
6.6
 20
-11.1
 30
0.0
 75
     0
  1
AcDbOsnapPointRef
 72
     1
331
274
 73
     2
 91
        2
 40
1.0
 10
1.0
 20
11.1
 30
0.0
 75
     0
  0
DIMASSOC
  5
43E
102
{ACAD_REACTORS
330
43D
102
}
330
43D
100
AcDbDimAssoc
330
43C
 90
        3
 70
     0
 71
     1
  1
AcDbOsnapPointRef
 72
    13
331
97
 73
     2
 91
        1
 40
0.0
 10
1.0
 20
5.2275
 30
0.0
 75
     0
  1
AcDbOsnapPointRef
 72
    13
331
9A
 73
     2
 91
        2
 40
0.0
 10
1.0
 20
-5.2275
 30
0.0
 75
     0
  0
DIMASSOC
  5
457
102
{ACAD_REACTORS
330
456
102
}
330
456
100
AcDbDimAssoc
330
455
 90
        3
 70
     0
 71
     1
  1
AcDbOsnapPointRef
 72
     4
331
75
 73
     3
 91
        1
 40
0.0
 10
33.59724
 20
37.916679
 30
0.0
 75
     0
  1
AcDbOsnapPointRef
 72
     1
331
E7
 73
     2
 91
        2
 40
1.0
 10
40.0
 20
32.475
 30
0.0
 75
     0
  0
DIMASSOC
  5
471
102
{ACAD_REACTORS
330
470
102
}
330
470
100
AcDbDimAssoc
330
46F
 90
        3
 70
     0
 71
     1
  1
AcDbOsnapPointRef
 72
    13
331
E9
 73
     2
 91
        1
 40
0.0
 10
0.0
 20
23.0
 30
0.0
 75
     0
  1
AcDbOsnapPointRef
 72
     1
331
E7
 73
     2
 91
        2
 40
1.0
 10
40.0
 20
32.475
 30
0.0
 75
     0
  0
DIMASSOC
  5
489
102
{ACAD_REACTORS
330
488
102
}
330
488
100
AcDbDimAssoc
330
487
 90
        3
 70
     0
 71
     1
  1
AcDbOsnapPointRef
 72
     1
331
EA
 73
     2
 91
        1
 40
1.0
 10
0.0
 20
-23.0
 30
0.0
 75
     0
  1
AcDbOsnapPointRef
 72
     1
331
267
 73
     2
 91
        2
 40
1.0
 10
6.375
 20
-4.981774
 30
0.0
 75
     0
  0
GROUP
  5
4A9
102
{ACAD_REACTORS
330
D
102
}
330
D
100
AcDbGroup
300

 70
     0
 71
     1
340
3F6
340
3F9
340
276
340
277
340
3FD
  0
GROUP
  5
4AA
102
{ACAD_REACTORS
330
D
102
}
330
D
100
AcDbGroup
300

 70
     0
 71
     1
340
3FE
340
27B
340
27C
340
3F5
340
402
340
406
  0
LAYOUT
  5
1E
102
{ACAD_REACTORS
330
1A
102
}
330
1A
100
AcDbPlotSettings
  1

  2
none_device
  4

  6

 40
0.0
 41
0.0
 42
0.0
 43
0.0
 44
0.0
 45
0.0
 46
0.0
 47
0.0
 48
0.0
 49
0.0
140
0.0
141
0.0
142
1.0
143
1.0
 70
   688
 72
     0
 73
     0
 74
     5
  7

 75
    16
 76
     0
 77
     2
 78
   300
147
1.0
148
0.0
149
0.0
100
AcDbLayout
  1
Layout1
 70
     1
 71
     1
 10
-0.5
 20
-0.5
 11
5.0
 21
5.0
 12
0.0
 22
0.0
 32
0.0
 14
-0.5
 24
-0.5
 34
-0.5
 15
5.0
 25
5.0
 35
5.0
146
0.0
 13
0.0
 23
0.0
 33
0.0
 16
1.0
 26
0.0
 36
0.0
 17
0.0
 27
1.0
 37
0.0
 76
     0
330
1B
  0
LAYOUT
  5
26
102
{ACAD_REACTORS
330
1A
102
}
330
1A
100
AcDbPlotSettings
  1

  2
none_device
  4

  6

 40
0.0
 41
0.0
 42
0.0
 43
0.0
 44
0.0
 45
0.0
 46
0.0
 47
0.0
 48
0.0
 49
0.0
140
0.0
141
0.0
142
1.0
143
1.0
 70
   688
 72
     0
 73
     0
 74
     5
  7

 75
    16
 76
     0
 77
     2
 78
   300
147
1.0
148
0.0
149
0.0
100
AcDbLayout
  1
Layout2
 70
     1
 71
     2
 10
0.0
 20
0.0
 11
0.0
 21
0.0
 12
0.0
 22
0.0
 32
0.0
 14
0.0
 24
0.0
 34
0.0
 15
0.0
 25
0.0
 35
0.0
146
0.0
 13
0.0
 23
0.0
 33
0.0
 16
1.0
 26
0.0
 36
0.0
 17
0.0
 27
1.0
 37
0.0
 76
     0
330
23
  0
LAYOUT
  5
22
102
{ACAD_REACTORS
330
1A
102
}
330
1A
100
AcDbPlotSettings
  1

  2
none_device
  4
Letter_(8.50_x_11.00_Inches)
  6

 40
6.35
 41
6.35
 42
6.350005
 43
6.350005
 44
215.9
 45
279.4
 46
0.0
 47
0.0
 48
0.0
 49
0.0
140
0.0
141
0.0
142
1.0
143
1.0
 70
  1712
 72
     0
 73
     0
 74
     0
  7

 75
     0
 76
     0
 77
     2
 78
   300
147
1.0
148
0.0
149
0.0
100
AcDbLayout
  1
Model
 70
     1
 71
     0
 10
-0.5
 20
-0.5
 11
5.0
 21
5.0
 12
0.0
 22
0.0
 32
0.0
 14
-0.5
 24
-0.5
 34
-0.5
 15
5.0
 25
5.0
 35
5.0
146
0.0
 13
0.0
 23
0.0
 33
0.0
 16
1.0
 26
0.0
 36
0.0
 17
0.0
 27
1.0
 37
0.0
 76
     0
330
1F
331
29
  0
MATERIAL
  5
45
102
{ACAD_REACTORS
330
43
102
}
102
{ACAD_XDICTIONARY
360
4F7
102
}
330
43
100
AcDbMaterial
  1
ByBlock
  0
MATERIAL
  5
44
102
{ACAD_REACTORS
330
43
102
}
102
{ACAD_XDICTIONARY
360
4F5
102
}
330
43
100
AcDbMaterial
  1
ByLayer
  0
MATERIAL
  5
46
102
{ACAD_REACTORS
330
43
102
}
102
{ACAD_XDICTIONARY
360
4F9
102
}
330
43
100
AcDbMaterial
  1
Global
  0
MLEADERSTYLE
  5
6C
102
{ACAD_REACTORS
330
6B
102
}
102
{ACAD_XDICTIONARY
360
4FF
102
}
330
6B
100
AcDbMLeaderStyle
170
     2
171
     1
172
     0
 90
        2
 40
0.0
 41
0.0
173
     1
 91
-1056964608
340
14
 92
       -2
290
     1
 42
0.09
291
     1
 43
0.36
  3
Standard
341
0
 44
0.18
300

342
11
174
     1
178
     6
175
     1
176
     0
 93
-1056964608
 45
0.18
292
     0
297
     0
 46
0.18
343
0
 94
-1056964608
 47
1.0
 49
1.0
140
1.0
293
     1
141
0.0
294
     1
177
     0
142
1.0
295
     0
296
     0
143
0.125
1001
ACAD_MLEADERVER
1070
     2
  0
MLINESTYLE
  5
18
102
{ACAD_REACTORS
330
17
102
}
330
17
100
AcDbMlineStyle
  2
Standard
 70
     0
  3

 62
   256
 51
90.0
 52
90.0
 71
     2
 49
0.5
 62
   256
  6
BYLAYER
 49
-0.5
 62
   256
  6
BYLAYER
  0
ACDBPLACEHOLDER
  5
F
102
{ACAD_REACTORS
330
E
102
}
330
E
  0
SCALE
  5
48
102
{ACAD_REACTORS
330
47
102
}
330
47
100
AcDbScale
 70
     0
300
1:1
140
1.0
141
1.0
290
     1
  0
SCALE
  5
49
102
{ACAD_REACTORS
330
47
102
}
330
47
100
AcDbScale
 70
     0
300
1:2
140
1.0
141
2.0
290
     0
  0
SCALE
  5
4A
102
{ACAD_REACTORS
330
47
102
}
330
47
100
AcDbScale
 70
     0
300
1:4
140
1.0
141
4.0
290
     0
  0
SCALE
  5
4B
102
{ACAD_REACTORS
330
47
102
}
330
47
100
AcDbScale
 70
     0
300
1:5
140
1.0
141
5.0
290
     0
  0
SCALE
  5
4C
102
{ACAD_REACTORS
330
47
102
}
330
47
100
AcDbScale
 70
     0
300
1:8
140
1.0
141
8.0
290
     0
  0
SCALE
  5
4D
102
{ACAD_REACTORS
330
47
102
}
330
47
100
AcDbScale
 70
     0
300
1:10
140
1.0
141
10.0
290
     0
  0
SCALE
  5
4E
102
{ACAD_REACTORS
330
47
102
}
330
47
100
AcDbScale
 70
     0
300
1:16
140
1.0
141
16.0
290
     0
  0
SCALE
  5
4F
102
{ACAD_REACTORS
330
47
102
}
330
47
100
AcDbScale
 70
     0
300
1:20
140
1.0
141
20.0
290
     0
  0
SCALE
  5
50
102
{ACAD_REACTORS
330
47
102
}
330
47
100
AcDbScale
 70
     0
300
1:30
140
1.0
141
30.0
290
     0
  0
SCALE
  5
51
102
{ACAD_REACTORS
330
47
102
}
330
47
100
AcDbScale
 70
     0
300
1:40
140
1.0
141
40.0
290
     0
  0
SCALE
  5
52
102
{ACAD_REACTORS
330
47
102
}
330
47
100
AcDbScale
 70
     0
300
1:50
140
1.0
141
50.0
290
     0
  0
SCALE
  5
53
102
{ACAD_REACTORS
330
47
102
}
330
47
100
AcDbScale
 70
     0
300
1:100
140
1.0
141
100.0
290
     0
  0
SCALE
  5
54
102
{ACAD_REACTORS
330
47
102
}
330
47
100
AcDbScale
 70
     0
300
2:1
140
2.0
141
1.0
290
     0
  0
SCALE
  5
55
102
{ACAD_REACTORS
330
47
102
}
330
47
100
AcDbScale
 70
     0
300
4:1
140
4.0
141
1.0
290
     0
  0
SCALE
  5
56
102
{ACAD_REACTORS
330
47
102
}
330
47
100
AcDbScale
 70
     0
300
8:1
140
8.0
141
1.0
290
     0
  0
SCALE
  5
57
102
{ACAD_REACTORS
330
47
102
}
330
47
100
AcDbScale
 70
     0
300
10:1
140
10.0
141
1.0
290
     0
  0
SCALE
  5
58
102
{ACAD_REACTORS
330
47
102
}
330
47
100
AcDbScale
 70
     0
300
100:1
140
100.0
141
1.0
290
     0
  0
SCALE
  5
59
102
{ACAD_REACTORS
330
47
102
}
330
47
100
AcDbScale
 70
     0
300
1/128" = 1'-0"
140
0.007812
141
12.0
290
     0
  0
SCALE
  5
5A
102
{ACAD_REACTORS
330
47
102
}
330
47
100
AcDbScale
 70
     0
300
1/64" = 1'-0"
140
0.015625
141
12.0
290
     0
  0
SCALE
  5
5B
102
{ACAD_REACTORS
330
47
102
}
330
47
100
AcDbScale
 70
     0
300
1/32" = 1'-0"
140
0.03125
141
12.0
290
     0
  0
SCALE
  5
5C
102
{ACAD_REACTORS
330
47
102
}
330
47
100
AcDbScale
 70
     0
300
1/16" = 1'-0"
140
0.0625
141
12.0
290
     0
  0
SCALE
  5
5D
102
{ACAD_REACTORS
330
47
102
}
330
47
100
AcDbScale
 70
     0
300
3/32" = 1'-0"
140
0.09375
141
12.0
290
     0
  0
SCALE
  5
5E
102
{ACAD_REACTORS
330
47
102
}
330
47
100
AcDbScale
 70
     0
300
1/8" = 1'-0"
140
0.125
141
12.0
290
     0
  0
SCALE
  5
5F
102
{ACAD_REACTORS
330
47
102
}
330
47
100
AcDbScale
 70
     0
300
3/16" = 1'-0"
140
0.1875
141
12.0
290
     0
  0
SCALE
  5
60
102
{ACAD_REACTORS
330
47
102
}
330
47
100
AcDbScale
 70
     0
300
1/4" = 1'-0"
140
0.25
141
12.0
290
     0
  0
SCALE
  5
61
102
{ACAD_REACTORS
330
47
102
}
330
47
100
AcDbScale
 70
     0
300
3/8" = 1'-0"
140
0.375
141
12.0
290
     0
  0
SCALE
  5
62
102
{ACAD_REACTORS
330
47
102
}
330
47
100
AcDbScale
 70
     0
300
1/2" = 1'-0"
140
0.5
141
12.0
290
     0
  0
SCALE
  5
63
102
{ACAD_REACTORS
330
47
102
}
330
47
100
AcDbScale
 70
     0
300
3/4" = 1'-0"
140
0.75
141
12.0
290
     0
  0
SCALE
  5
64
102
{ACAD_REACTORS
330
47
102
}
330
47
100
AcDbScale
 70
     0
300
1" = 1'-0"
140
1.0
141
12.0
290
     0
  0
SCALE
  5
65
102
{ACAD_REACTORS
330
47
102
}
330
47
100
AcDbScale
 70
     0
300
1-1/2" = 1'-0"
140
1.5
141
12.0
290
     0
  0
SCALE
  5
66
102
{ACAD_REACTORS
330
47
102
}
330
47
100
AcDbScale
 70
     0
300
3" = 1'-0"
140
3.0
141
12.0
290
     0
  0
SCALE
  5
67
102
{ACAD_REACTORS
330
47
102
}
330
47
100
AcDbScale
 70
     0
300
6" = 1'-0"
140
6.0
141
12.0
290
     0
  0
SCALE
  5
68
102
{ACAD_REACTORS
330
47
102
}
330
47
100
AcDbScale
 70
     0
300
1'-0" = 1'-0"
140
12.0
141
12.0
290
     0
  0
TABLESTYLE
  5
6A
102
{ACAD_REACTORS
330
69
102
}
102
{ACAD_XDICTIONARY
360
4FB
102
}
330
69
100
AcDbTableStyle
  3
Standard
 70
     0
 71
     0
 40
0.06
 41
0.06
280
     0
281
     0
  7
Standard
140
0.18
170
     2
 62
     0
 63
   257
283
     0
274
    -2
284
     1
 64
     0
275
    -2
285
     1
 65
     0
276
    -2
286
     1
 66
     0
277
    -2
287
     1
 67
     0
278
    -2
288
     1
 68
     0
279
    -2
289
     1
 69
     0
  7
Standard
140
0.25
170
     5
 62
     0
 63
   257
283
     0
274
    -2
284
     1
 64
     0
275
    -2
285
     1
 65
     0
276
    -2
286
     1
 66
     0
277
    -2
287
     1
 67
     0
278
    -2
288
     1
 68
     0
279
    -2
289
     1
 69
     0
  7
Standard
140
0.18
170
     5
 62
     0
 63
   257
283
     0
274
    -2
284
     1
 64
     0
275
    -2
285
     1
 65
     0
276
    -2
286
     1
 66
     0
277
    -2
287
     1
 67
     0
278
    -2
288
     1
 68
     0
279
    -2
289
     1
 69
     0
  0
VISUALSTYLE
  5
2F
102
{ACAD_REACTORS
330
2A
102
}
102
{ACAD_XDICTIONARY
360
4CD
102
}
330
2A
100
AcDbVisualStyle
  2
2dWireframe
 70
     4
 71
     0
 72
     2
 73
     0
 90
        0
 40
0.6
 41
30.0
 62
     5
 63
     7
421
 16777215
 74
     1
 91
        4
 64
     7
 65
   257
 75
     1
175
     1
 42
1.0
 92
        0
 66
   257
 43
1.0
 76
     1
 77
     6
 78
     2
 67
     7
 79
     5
170
     0
171
     0
290
     0
174
     0
 93
        1
 44
0.0
173
     0
291
     0
 45
0.0
1001
ACAD
1000
AcDbSavedByObjectVersion
1070
     0
  0
VISUALSTYLE
  5
32
102
{ACAD_REACTORS
330
2A
102
}
102
{ACAD_XDICTIONARY
360
4D3
102
}
330
2A
100
AcDbVisualStyle
  2
Basic
 70
     7
 71
     1
 72
     0
 73
     1
 90
        0
 40
0.6
 41
30.0
 62
     5
 63
     7
421
 16777215
 74
     0
 91
        4
 64
     7
 65
   257
 75
     1
175
     1
 42
1.0
 92
        8
 66
     7
 43
1.0
 76
     1
 77
     6
 78
     2
 67
     7
 79
     5
170
     0
171
     0
290
     0
174
     0
 93
        1
 44
0.0
173
     0
291
     1
 45
0.0
1001
ACAD
1000
AcDbSavedByObjectVersion
1070
     0
  0
VISUALSTYLE
  5
36
102
{ACAD_REACTORS
330
2A
102
}
102
{ACAD_XDICTIONARY
360
4DB
102
}
330
2A
100
AcDbVisualStyle
  2
Brighten
 70
    12
 71
     2
 72
     2
 73
     0
 90
        0
 40
0.6
 41
30.0
 62
     5
 63
     7
421
 16777215
 74
     1
 91
        4
 64
     7
 65
   257
 75
     1
175
     1
 42
1.0
 92
        8
 66
     7
 43
1.0
 76
     1
 77
     6
 78
     2
 67
     7
 79
     5
170
     0
171
     0
290
     0
174
     0
 93
        1
 44
50.0
173
     0
291
     1
 45
0.0
1001
ACAD
1000
AcDbSavedByObjectVersion
1070
     0
  0
VISUALSTYLE
  5
3A
102
{ACAD_REACTORS
330
2A
102
}
102
{ACAD_XDICTIONARY
360
4E3
102
}
330
2A
100
AcDbVisualStyle
  2
ColorChange
 70
    16
 71
     2
 72
     2
 73
     3
 90
        0
 40
0.6
 41
30.0
 62
     5
 63
     8
421
  8421504
 74
     1
 91
        4
 64
     7
 65
   257
 75
     1
175
     1
 42
1.0
 92
        8
 66
     8
424
  8421504
 43
1.0
 76
     1
 77
     6
 78
     2
 67
     7
 79
     5
170
     0
171
     0
290
     0
174
     0
 93
        1
 44
0.0
173
     0
291
     1
 45
0.0
1001
ACAD
1000
AcDbSavedByObjectVersion
1070
     0
  0
VISUALSTYLE
  5
34
102
{ACAD_REACTORS
330
2A
102
}
102
{ACAD_XDICTIONARY
360
4D7
102
}
330
2A
100
AcDbVisualStyle
  2
Conceptual
 70
     9
 71
     3
 72
     2
 73
     0
 90
        0
 40
0.6
 41
30.0
 62
     5
 63
     7
421
 16777215
 74
     2
 91
        2
 64
     7
 65
   257
 75
     1
175
     1
 42
179.0
 92
        8
 66
     7
 43
1.0
 76
     1
 77
     6
 78
     2
 67
     7
 79
     3
170
     0
171
     0
290
     0
174
     0
 93
        1
 44
0.0
173
     0
291
     0
 45
0.0
1001
ACAD
1000
AcDbSavedByObjectVersion
1070
     0
  0
VISUALSTYLE
  5
35
102
{ACAD_REACTORS
330
2A
102
}
102
{ACAD_XDICTIONARY
360
4D9
102
}
330
2A
100
AcDbVisualStyle
  2
Dim
 70
    11
 71
     2
 72
     2
 73
     0
 90
        0
 40
0.6
 41
30.0
 62
     5
 63
     7
421
 16777215
 74
     1
 91
        4
 64
     7
 65
   257
 75
     1
175
     1
 42
1.0
 92
        8
 66
     7
 43
1.0
 76
     1
 77
     6
 78
     2
 67
     7
 79
     5
170
     0
171
     0
290
     0
174
     0
 93
        1
 44
-50.0
173
     0
291
     1
 45
0.0
1001
ACAD
1000
AcDbSavedByObjectVersion
1070
     0
  0
VISUALSTYLE
  5
3D
102
{ACAD_REACTORS
330
2A
102
}
102
{ACAD_XDICTIONARY
360
4E9
102
}
330
2A
100
AcDbVisualStyle
  2
EdgeColorOff
 70
    22
 71
     2
 72
     2
 73
     0
 90
        0
 40
0.6
 41
30.0
 62
     5
 63
     7
421
 16777215
 74
     1
 91
        4
 64
     7
 65
   257
 75
     1
175
     1
 42
1.0
 92
        8
 66
     7
 43
1.0
 76
     1
 77
     6
 78
     2
 67
     7
 79
     5
170
     0
171
     0
290
     0
174
     0
 93
        1
 44
0.0
173
     0
291
     1
 45
0.0
1001
ACAD
1000
AcDbSavedByObjectVersion
1070
     0
  0
VISUALSTYLE
  5
39
102
{ACAD_REACTORS
330
2A
102
}
102
{ACAD_XDICTIONARY
360
4E1
102
}
330
2A
100
AcDbVisualStyle
  2
Facepattern
 70
    15
 71
     2
 72
     2
 73
     0
 90
        0
 40
0.6
 41
30.0
 62
     5
 63
     7
421
 16777215
 74
     1
 91
        4
 64
     7
 65
   257
 75
     1
175
     1
 42
1.0
 92
        8
 66
     7
 43
1.0
 76
     1
 77
     6
 78
     2
 67
     7
 79
     5
170
     0
171
     0
290
     0
174
     0
 93
        1
 44
0.0
173
     0
291
     1
 45
0.0
1001
ACAD
1000
AcDbSavedByObjectVersion
1070
     0
  0
VISUALSTYLE
  5
2B
102
{ACAD_REACTORS
330
2A
102
}
102
{ACAD_XDICTIONARY
360
4C5
102
}
330
2A
100
AcDbVisualStyle
  2
Flat
 70
     0
 71
     2
 72
     1
 73
     1
 90
        2
 40
0.6
 41
30.0
 62
     5
 63
     7
421
 16777215
 74
     0
 91
        0
 64
     7
 65
   257
 75
     1
175
     1
 42
1.0
 92
        8
 66
     7
 43
1.0
 76
     1
 77
     6
 78
     2
 67
     7
 79
     5
170
     0
171
     0
290
     0
174
     0
 93
       13
 44
0.0
173
     0
291
     1
 45
0.0
1001
ACAD
1000
AcDbSavedByObjectVersion
1070
     0
  0
VISUALSTYLE
  5
2C
102
{ACAD_REACTORS
330
2A
102
}
102
{ACAD_XDICTIONARY
360
4C7
102
}
330
2A
100
AcDbVisualStyle
  2
FlatWithEdges
 70
     1
 71
     2
 72
     1
 73
     1
 90
        2
 40
0.6
 41
30.0
 62
     5
 63
     7
421
 16777215
 74
     1
 91
        0
 64
     7
 65
   257
 75
     1
175
     1
 42
1.0
 92
        0
 66
   257
 43
1.0
 76
     1
 77
     6
 78
     2
 67
     7
 79
     5
170
     0
171
     0
290
     0
174
     0
 93
       13
 44
0.0
173
     0
291
     1
 45
0.0
1001
ACAD
1000
AcDbSavedByObjectVersion
1070
     0
  0
VISUALSTYLE
  5
2D
102
{ACAD_REACTORS
330
2A
102
}
102
{ACAD_XDICTIONARY
360
4C9
102
}
330
2A
100
AcDbVisualStyle
  2
Gouraud
 70
     2
 71
     2
 72
     2
 73
     1
 90
        2
 40
0.6
 41
30.0
 62
     5
 63
     7
421
 16777215
 74
     0
 91
        0
 64
     7
 65
   257
 75
     1
175
     1
 42
1.0
 92
        0
 66
     7
 43
1.0
 76
     1
 77
     6
 78
     2
 67
     7
 79
     5
170
     0
171
     0
290
     0
174
     0
 93
       13
 44
0.0
173
     0
291
     1
 45
0.0
1001
ACAD
1000
AcDbSavedByObjectVersion
1070
     0
  0
VISUALSTYLE
  5
2E
102
{ACAD_REACTORS
330
2A
102
}
102
{ACAD_XDICTIONARY
360
4CB
102
}
330
2A
100
AcDbVisualStyle
  2
GouraudWithEdges
 70
     3
 71
     2
 72
     2
 73
     1
 90
        2
 40
0.6
 41
30.0
 62
     5
 63
     7
421
 16777215
 74
     1
 91
        0
 64
     7
 65
   257
 75
     1
175
     1
 42
1.0
 92
        0
 66
   257
 43
1.0
 76
     1
 77
     6
 78
     2
 67
     7
 79
     5
170
     0
171
     0
290
     0
174
     0
 93
       13
 44
0.0
173
     0
291
     1
 45
0.0
1001
ACAD
1000
AcDbSavedByObjectVersion
1070
     0
  0
VISUALSTYLE
  5
31
102
{ACAD_REACTORS
330
2A
102
}
102
{ACAD_XDICTIONARY
360
4D1
102
}
330
2A
100
AcDbVisualStyle
  2
Hidden
 70
     6
 71
     1
 72
     2
 73
     2
 90
        0
 40
0.6
 41
30.0
 62
     5
 63
     7
421
 16777215
 74
     2
 91
        2
 64
     7
 65
   257
 75
     2
175
     1
 42
40.0
 92
        0
 66
   257
 43
1.0
 76
     1
 77
     6
 78
     2
 67
     7
 79
     3
170
     0
171
     0
290
     0
174
     0
 93
        1
 44
0.0
173
     0
291
     0
 45
0.0
1001
ACAD
1000
AcDbSavedByObjectVersion
1070
     0
  0
VISUALSTYLE
  5
3B
102
{ACAD_REACTORS
330
2A
102
}
102
{ACAD_XDICTIONARY
360
4E5
102
}
330
2A
100
AcDbVisualStyle
  2
JitterOff
 70
    20
 71
     2
 72
     2
 73
     0
 90
        0
 40
0.6
 41
30.0
 62
     5
 63
     7
421
 16777215
 74
     1
 91
        4
 64
     7
 65
   257
 75
     1
175
     1
 42
1.0
 92
       10
 66
     7
 43
1.0
 76
     1
 77
     6
 78
     2
 67
     7
 79
     5
170
     0
171
     0
290
     0
174
     0
 93
        1
 44
0.0
173
     0
291
     1
 45
0.0
1001
ACAD
1000
AcDbSavedByObjectVersion
1070
     0
  0
VISUALSTYLE
  5
38
102
{ACAD_REACTORS
330
2A
102
}
102
{ACAD_XDICTIONARY
360
4DF
102
}
330
2A
100
AcDbVisualStyle
  2
Linepattern
 70
    14
 71
     2
 72
     2
 73
     0
 90
        0
 40
0.6
 41
30.0
 62
     5
 63
     7
421
 16777215
 74
     1
 91
        4
 64
     7
 65
   257
 75
     7
175
     7
 42
1.0
 92
        8
 66
     7
 43
1.0
 76
     1
 77
     6
 78
     2
 67
     7
 79
     5
170
     0
171
     0
290
     0
174
     0
 93
        1
 44
0.0
173
     0
291
     1
 45
0.0
1001
ACAD
1000
AcDbSavedByObjectVersion
1070
     0
  0
VISUALSTYLE
  5
3C
102
{ACAD_REACTORS
330
2A
102
}
102
{ACAD_XDICTIONARY
360
4E7
102
}
330
2A
100
AcDbVisualStyle
  2
OverhangOff
 70
    21
 71
     2
 72
     2
 73
     0
 90
        0
 40
0.6
 41
30.0
 62
     5
 63
     7
421
 16777215
 74
     1
 91
        4
 64
     7
 65
   257
 75
     1
175
     1
 42
1.0
 92
        9
 66
     7
 43
1.0
 76
     1
 77
     6
 78
     2
 67
     7
 79
     5
170
     0
171
     0
290
     0
174
     0
 93
        1
 44
0.0
173
     0
291
     1
 45
0.0
1001
ACAD
1000
AcDbSavedByObjectVersion
1070
     0
  0
VISUALSTYLE
  5
33
102
{ACAD_REACTORS
330
2A
102
}
102
{ACAD_XDICTIONARY
360
4D5
102
}
330
2A
100
AcDbVisualStyle
  2
Realistic
 70
     8
 71
     2
 72
     3
 73
     0
 90
        2
 40
0.6
 41
30.0
 62
     5
 63
     7
421
 16777215
 74
     0
 91
        0
 64
     7
 65
   257
 75
     1
175
     1
 42
1.0
 92
        8
 66
   257
 43
1.0
 76
     1
 77
     6
 78
     2
 67
     7
 79
     3
170
     0
171
     0
290
     0
174
     0
 93
       13
 44
0.0
173
     0
291
     0
 45
0.0
1001
ACAD
1000
AcDbSavedByObjectVersion
1070
     0
  0
VISUALSTYLE
  5
42
102
{ACAD_REACTORS
330
2A
102
}
102
{ACAD_XDICTIONARY
360
4F3
102
}
330
2A
100
AcDbVisualStyle
  2
Shaded
 70
    27
 71
     2
 72
     2
 73
     1
 90
        2
 40
0.6
 41
30.0
 62
     5
 63
     7
421
 16777215
 74
     0
 91
        4
 64
     7
 65
   257
 75
     1
175
     1
 42
1.0
 92
        8
 66
   257
 43
1.0
 76
     1
 77
     6
 78
     2
 67
     8
425
  7895160
 79
     3
170
     0
171
     0
290
     0
174
     0
 93
        5
 44
0.0
173
     0
291
     0
 45
0.0
1001
ACAD
1000
AcDbSavedByObjectVersion
1070
     0
  0
VISUALSTYLE
  5
41
102
{ACAD_REACTORS
330
2A
102
}
102
{ACAD_XDICTIONARY
360
4F1
102
}
330
2A
100
AcDbVisualStyle
  2
Shaded with edges
 70
    26
 71
     2
 72
     2
 73
     1
 90
        2
 40
0.6
 41
30.0
 62
     5
 63
     7
421
 16777215
 74
     1
 91
       10
 64
     7
 65
   257
 75
     2
175
     1
 42
1.0
 92
        8
 66
   257
 43
1.0
 76
     1
 77
     6
 78
     2
 67
     7
 79
     3
170
     0
171
     0
290
     0
174
     0
 93
        5
 44
0.0
173
     0
291
     0
 45
0.0
1001
ACAD
1000
AcDbSavedByObjectVersion
1070
     0
  0
VISUALSTYLE
  5
3E
102
{ACAD_REACTORS
330
2A
102
}
102
{ACAD_XDICTIONARY
360
4EB
102
}
330
2A
100
AcDbVisualStyle
  2
Shades of Gray
 70
    23
 71
     2
 72
     2
 73
     3
 90
        0
 40
0.6
 41
30.0
 62
     5
 63
     7
421
 16777215
 74
     2
 91
        2
 64
     7
 65
     7
 75
     1
175
     1
 42
40.0
 92
        8
 66
     7
 43
1.0
 76
     1
 77
     6
 78
     2
 67
     7
 79
     3
170
     0
171
     0
290
     0
174
     0
 93
        1
 44
0.0
173
     0
291
     0
 45
0.0
1001
ACAD
1000
AcDbSavedByObjectVersion
1070
     0
  0
VISUALSTYLE
  5
3F
102
{ACAD_REACTORS
330
2A
102
}
102
{ACAD_XDICTIONARY
360
4ED
102
}
330
2A
100
AcDbVisualStyle
  2
Sketchy
 70
    24
 71
     1
 72
     2
 73
     2
 90
        0
 40
0.6
 41
30.0
 62
     5
 63
     7
421
 16777215
 74
     2
 91
        2
 64
     7
 65
     7
 75
     1
175
     1
 42
40.0
 92
       11
 66
     7
 43
1.0
 76
     1
 77
     6
 78
     2
 67
     7
 79
     6
170
     0
171
     0
290
     0
174
     0
 93
        1
 44
0.0
173
     0
291
     0
 45
0.0
1001
ACAD
1000
AcDbSavedByObjectVersion
1070
     0
  0
VISUALSTYLE
  5
37
102
{ACAD_REACTORS
330
2A
102
}
102
{ACAD_XDICTIONARY
360
4DD
102
}
330
2A
100
AcDbVisualStyle
  2
Thicken
 70
    13
 71
     2
 72
     2
 73
     0
 90
        0
 40
0.6
 41
30.0
 62
     5
 63
     7
421
 16777215
 74
     1
 91
        4
 64
     7
 65
   257
 75
     1
175
     1
 42
1.0
 92
       12
 66
     7
 43
1.0
 76
     1
 77
     6
 78
     2
 67
     7
 79
     5
170
     0
171
     0
290
     0
174
     0
 93
        1
 44
0.0
173
     0
291
     1
 45
0.0
1001
ACAD
1000
AcDbSavedByObjectVersion
1070
     0
  0
VISUALSTYLE
  5
30
102
{ACAD_REACTORS
330
2A
102
}
102
{ACAD_XDICTIONARY
360
4CF
102
}
330
2A
100
AcDbVisualStyle
  2
Wireframe
 70
     5
 71
     0
 72
     2
 73
     0
 90
        0
 40
0.6
 41
30.0
 62
     5
 63
     7
421
 16777215
 74
     1
 91
        4
 64
     7
 65
   257
 75
     1
175
     1
 42
1.0
 92
        0
 66
   257
 43
1.0
 76
     1
 77
     6
 78
     2
 67
     7
 79
     3
170
     0
171
     0
290
     0
174
     0
 93
        1
 44
0.0
173
     0
291
     0
 45
0.0
1001
ACAD
1000
AcDbSavedByObjectVersion
1070
     0
  0
VISUALSTYLE
  5
40
102
{ACAD_REACTORS
330
2A
102
}
102
{ACAD_XDICTIONARY
360
4EF
102
}
330
2A
100
AcDbVisualStyle
  2
X-Ray
 70
    25
 71
     2
 72
     2
 73
     1
 90
        1
 40
0.5
 41
30.0
 62
     5
 63
     7
421
 16777215
 74
     1
 91
        0
 64
     7
 65
   257
 75
     1
175
     1
 42
1.0
 92
        8
 66
     7
 43
1.0
 76
     1
 77
     6
 78
     2
 67
     7
 79
     3
170
     0
171
     0
290
     0
174
     0
 93
       13
 44
0.0
173
     0
291
     0
 45
0.0
1001
ACAD
1000
AcDbSavedByObjectVersion
1070
     0
  0
DICTIONARYVAR
  5
4C2
102
{ACAD_REACTORS
330
4C1
102
}
330
4C1
100
DictionaryVariables
280
     0
  1
1:1
  0
DICTIONARYVAR
  5
503
102
{ACAD_REACTORS
330
4C1
102
}
330
4C1
100
DictionaryVariables
280
     0
  1
Standard
  0
DICTIONARYVAR
  5
502
102
{ACAD_REACTORS
330
4C1
102
}
330
4C1
100
DictionaryVariables
280
     0
  1
Standard
  0
DICTIONARYVAR
  5
4C3
102
{ACAD_REACTORS
330
4C1
102
}
330
4C1
100
DictionaryVariables
280
     0
  1
1
  0
DICTIONARYVAR
  5
4C4
102
{ACAD_REACTORS
330
4C1
102
}
330
4C1
100
DictionaryVariables
280
     0
  1
2
  0
DICTIONARY
  5
4F7
330
45
100
AcDbDictionary
280
     1
281
     1
  3
ACAD_XREC_ROUNDTRIP
360
4F8
  0
DICTIONARY
  5
4F5
330
44
100
AcDbDictionary
280
     1
281
     1
  3
ACAD_XREC_ROUNDTRIP
360
4F6
  0
DICTIONARY
  5
4F9
330
46
100
AcDbDictionary
280
     1
281
     1
  3
ACAD_XREC_ROUNDTRIP
360
4FA
  0
DICTIONARY
  5
4FF
330
6C
100
AcDbDictionary
280
     1
281
     1
  3
ACAD_XREC_ROUNDTRIP
360
500
  0
DICTIONARY
  5
4FB
330
6A
100
AcDbDictionary
280
     1
281
     1
  3
ACAD_ROUNDTRIP_2008_TABLESTYLE_CELLSTYLEMAP
360
4FD
  3
ACAD_XREC_ROUNDTRIP
360
4FC
  0
DICTIONARY
  5
4CD
330
2F
100
AcDbDictionary
280
     1
281
     1
  3
ACAD_XREC_ROUNDTRIP
360
4CE
  0
DICTIONARY
  5
4D3
330
32
100
AcDbDictionary
280
     1
281
     1
  3
ACAD_XREC_ROUNDTRIP
360
4D4
  0
DICTIONARY
  5
4DB
330
36
100
AcDbDictionary
280
     1
281
     1
  3
ACAD_XREC_ROUNDTRIP
360
4DC
  0
DICTIONARY
  5
4E3
330
3A
100
AcDbDictionary
280
     1
281
     1
  3
ACAD_XREC_ROUNDTRIP
360
4E4
  0
DICTIONARY
  5
4D7
330
34
100
AcDbDictionary
280
     1
281
     1
  3
ACAD_XREC_ROUNDTRIP
360
4D8
  0
DICTIONARY
  5
4D9
330
35
100
AcDbDictionary
280
     1
281
     1
  3
ACAD_XREC_ROUNDTRIP
360
4DA
  0
DICTIONARY
  5
4E9
330
3D
100
AcDbDictionary
280
     1
281
     1
  3
ACAD_XREC_ROUNDTRIP
360
4EA
  0
DICTIONARY
  5
4E1
330
39
100
AcDbDictionary
280
     1
281
     1
  3
ACAD_XREC_ROUNDTRIP
360
4E2
  0
DICTIONARY
  5
4C5
330
2B
100
AcDbDictionary
280
     1
281
     1
  3
ACAD_XREC_ROUNDTRIP
360
4C6
  0
DICTIONARY
  5
4C7
330
2C
100
AcDbDictionary
280
     1
281
     1
  3
ACAD_XREC_ROUNDTRIP
360
4C8
  0
DICTIONARY
  5
4C9
330
2D
100
AcDbDictionary
280
     1
281
     1
  3
ACAD_XREC_ROUNDTRIP
360
4CA
  0
DICTIONARY
  5
4CB
330
2E
100
AcDbDictionary
280
     1
281
     1
  3
ACAD_XREC_ROUNDTRIP
360
4CC
  0
DICTIONARY
  5
4D1
330
31
100
AcDbDictionary
280
     1
281
     1
  3
ACAD_XREC_ROUNDTRIP
360
4D2
  0
DICTIONARY
  5
4E5
330
3B
100
AcDbDictionary
280
     1
281
     1
  3
ACAD_XREC_ROUNDTRIP
360
4E6
  0
DICTIONARY
  5
4DF
330
38
100
AcDbDictionary
280
     1
281
     1
  3
ACAD_XREC_ROUNDTRIP
360
4E0
  0
DICTIONARY
  5
4E7
330
3C
100
AcDbDictionary
280
     1
281
     1
  3
ACAD_XREC_ROUNDTRIP
360
4E8
  0
DICTIONARY
  5
4D5
330
33
100
AcDbDictionary
280
     1
281
     1
  3
ACAD_XREC_ROUNDTRIP
360
4D6
  0
DICTIONARY
  5
4F3
330
42
100
AcDbDictionary
280
     1
281
     1
  3
ACAD_XREC_ROUNDTRIP
360
4F4
  0
DICTIONARY
  5
4F1
330
41
100
AcDbDictionary
280
     1
281
     1
  3
ACAD_XREC_ROUNDTRIP
360
4F2
  0
DICTIONARY
  5
4EB
330
3E
100
AcDbDictionary
280
     1
281
     1
  3
ACAD_XREC_ROUNDTRIP
360
4EC
  0
DICTIONARY
  5
4ED
330
3F
100
AcDbDictionary
280
     1
281
     1
  3
ACAD_XREC_ROUNDTRIP
360
4EE
  0
DICTIONARY
  5
4DD
330
37
100
AcDbDictionary
280
     1
281
     1
  3
ACAD_XREC_ROUNDTRIP
360
4DE
  0
DICTIONARY
  5
4CF
330
30
100
AcDbDictionary
280
     1
281
     1
  3
ACAD_XREC_ROUNDTRIP
360
4D0
  0
DICTIONARY
  5
4EF
330
40
100
AcDbDictionary
280
     1
281
     1
  3
ACAD_XREC_ROUNDTRIP
360
4F0
  0
XRECORD
  5
4F8
102
{ACAD_REACTORS
330
4F7
102
}
330
4F7
100
AcDbXrecord
280
     1
102
MATERIAL
148
0.0
149
0.0
149
0.0
 93
        0
 94
      127
282
     0
 72
     1
 77
     1
171
     1
175
     1
179
     1
273
     0
  0
XRECORD
  5
4F6
102
{ACAD_REACTORS
330
4F5
102
}
330
4F5
100
AcDbXrecord
280
     1
102
MATERIAL
148
0.0
149
0.0
149
0.0
 93
        0
 94
      127
282
     0
 72
     1
 77
     1
171
     1
175
     1
179
     1
273
     0
  0
XRECORD
  5
4FA
102
{ACAD_REACTORS
330
4F9
102
}
330
4F9
100
AcDbXrecord
280
     1
102
MATERIAL
148
0.0
149
0.0
149
0.0
 93
        0
 94
      127
282
     0
 72
     1
 77
     1
171
     1
175
     1
179
     1
273
     0
  0
XRECORD
  5
500
102
{ACAD_REACTORS
330
4FF
102
}
330
4FF
100
AcDbXrecord
280
     1
102
ACAD_ROUNDTRIP_2010_MLEADER_STYLE
  0
CELLSTYLEMAP
  5
4FD
102
{ACAD_REACTORS
330
4FB
102
}
330
4FB
100
AcDbCellStyleMap
 90
        3
300
CELLSTYLE
  1
TABLEFORMAT_BEGIN
 90
        5
170
     1
 91
        0
 92
    32768
 62
   257
 93
        1
300
CONTENTFORMAT
  1
CONTENTFORMAT_BEGIN
 90
        0
 91
        0
 92
        4
 93
        0
300

 40
0.0
140
1.0
 94
        5
 62
     0
340
11
144
0.25
309
CONTENTFORMAT_END
171
     1
301
MARGIN
  1
CELLMARGIN_BEGIN
 40
0.06
 40
0.06
 40
0.06
 40
0.06
 40
0.06
 40
0.06
309
CELLMARGIN_END
 94
        6
 95
        1
302
GRIDFORMAT
  1
GRIDFORMAT_BEGIN
 90
        0
 91
        1
 62
     0
 92
       -2
340
14
 93
        0
 40
0.045
309
GRIDFORMAT_END
 95
        2
302
GRIDFORMAT
  1
GRIDFORMAT_BEGIN
 90
        0
 91
        1
 62
     0
 92
       -2
340
14
 93
        0
 40
0.045
309
GRIDFORMAT_END
 95
        4
302
GRIDFORMAT
  1
GRIDFORMAT_BEGIN
 90
        0
 91
        1
 62
     0
 92
       -2
340
14
 93
        0
 40
0.045
309
GRIDFORMAT_END
 95
        8
302
GRIDFORMAT
  1
GRIDFORMAT_BEGIN
 90
        0
 91
        1
 62
     0
 92
       -2
340
14
 93
        0
 40
0.045
309
GRIDFORMAT_END
 95
       16
302
GRIDFORMAT
  1
GRIDFORMAT_BEGIN
 90
        0
 91
        1
 62
     0
 92
       -2
340
14
 93
        0
 40
0.045
309
GRIDFORMAT_END
 95
       32
302
GRIDFORMAT
  1
GRIDFORMAT_BEGIN
 90
        0
 91
        1
 62
     0
 92
       -2
340
14
 93
        0
 40
0.045
309
GRIDFORMAT_END
309
TABLEFORMAT_END
  1
CELLSTYLE_BEGIN
 90
        1
 91
        1
300
_TITLE
309
CELLSTYLE_END
300
CELLSTYLE
  1
TABLEFORMAT_BEGIN
 90
        5
170
     1
 91
        0
 92
        0
 62
   257
 93
        1
300
CONTENTFORMAT
  1
CONTENTFORMAT_BEGIN
 90
        0
 91
        0
 92
        4
 93
        0
300

 40
0.0
140
1.0
 94
        5
 62
     0
340
11
144
0.18
309
CONTENTFORMAT_END
171
     1
301
MARGIN
  1
CELLMARGIN_BEGIN
 40
0.06
 40
0.06
 40
0.06
 40
0.06
 40
0.06
 40
0.06
309
CELLMARGIN_END
 94
        6
 95
        1
302
GRIDFORMAT
  1
GRIDFORMAT_BEGIN
 90
        0
 91
        1
 62
     0
 92
       -2
340
14
 93
        0
 40
0.045
309
GRIDFORMAT_END
 95
        2
302
GRIDFORMAT
  1
GRIDFORMAT_BEGIN
 90
        0
 91
        1
 62
     0
 92
       -2
340
14
 93
        0
 40
0.045
309
GRIDFORMAT_END
 95
        4
302
GRIDFORMAT
  1
GRIDFORMAT_BEGIN
 90
        0
 91
        1
 62
     0
 92
       -2
340
14
 93
        0
 40
0.045
309
GRIDFORMAT_END
 95
        8
302
GRIDFORMAT
  1
GRIDFORMAT_BEGIN
 90
        0
 91
        1
 62
     0
 92
       -2
340
14
 93
        0
 40
0.045
309
GRIDFORMAT_END
 95
       16
302
GRIDFORMAT
  1
GRIDFORMAT_BEGIN
 90
        0
 91
        1
 62
     0
 92
       -2
340
14
 93
        0
 40
0.045
309
GRIDFORMAT_END
 95
       32
302
GRIDFORMAT
  1
GRIDFORMAT_BEGIN
 90
        0
 91
        1
 62
     0
 92
       -2
340
14
 93
        0
 40
0.045
309
GRIDFORMAT_END
309
TABLEFORMAT_END
  1
CELLSTYLE_BEGIN
 90
        2
 91
        1
300
_HEADER
309
CELLSTYLE_END
300
CELLSTYLE
  1
TABLEFORMAT_BEGIN
 90
        5
170
     1
 91
        0
 92
        0
 62
   257
 93
        1
300
CONTENTFORMAT
  1
CONTENTFORMAT_BEGIN
 90
        0
 91
        0
 92
        4
 93
        0
300

 40
0.0
140
1.0
 94
        2
 62
     0
340
11
144
0.18
309
CONTENTFORMAT_END
171
     1
301
MARGIN
  1
CELLMARGIN_BEGIN
 40
0.06
 40
0.06
 40
0.06
 40
0.06
 40
0.06
 40
0.06
309
CELLMARGIN_END
 94
        6
 95
        1
302
GRIDFORMAT
  1
GRIDFORMAT_BEGIN
 90
        0
 91
        1
 62
     0
 92
       -2
340
14
 93
        0
 40
0.045
309
GRIDFORMAT_END
 95
        2
302
GRIDFORMAT
  1
GRIDFORMAT_BEGIN
 90
        0
 91
        1
 62
     0
 92
       -2
340
14
 93
        0
 40
0.045
309
GRIDFORMAT_END
 95
        4
302
GRIDFORMAT
  1
GRIDFORMAT_BEGIN
 90
        0
 91
        1
 62
     0
 92
       -2
340
14
 93
        0
 40
0.045
309
GRIDFORMAT_END
 95
        8
302
GRIDFORMAT
  1
GRIDFORMAT_BEGIN
 90
        0
 91
        1
 62
     0
 92
       -2
340
14
 93
        0
 40
0.045
309
GRIDFORMAT_END
 95
       16
302
GRIDFORMAT
  1
GRIDFORMAT_BEGIN
 90
        0
 91
        1
 62
     0
 92
       -2
340
14
 93
        0
 40
0.045
309
GRIDFORMAT_END
 95
       32
302
GRIDFORMAT
  1
GRIDFORMAT_BEGIN
 90
        0
 91
        1
 62
     0
 92
       -2
340
14
 93
        0
 40
0.045
309
GRIDFORMAT_END
309
TABLEFORMAT_END
  1
CELLSTYLE_BEGIN
 90
        3
 91
        2
300
_DATA
309
CELLSTYLE_END
  0
XRECORD
  5
4FC
102
{ACAD_REACTORS
330
4FB
102
}
330
4FB
100
AcDbXrecord
280
     1
102
ACAD_ROUNDTRIP_PRE2007_TABLESTYLE
 90
        4
 91
        0
  1

 92
        4
 93
        0
  2

 94
        4
 95
        0
  3

  0
XRECORD
  5
4CE
102
{ACAD_REACTORS
330
4CD
102
}
330
4CD
100
AcDbXrecord
280
     1
102
RTVSPropertyOp0
 70
     1
102
RTVSPropertyOp1
 70
     1
102
RTVSPropertyOp2
 70
     1
102
RTVSPropertyOp3
 70
     1
102
RTVSPropertyOp4
 70
     1
102
RTVSPropertyOp5
 70
     1
102
RTVSPropertyOp6
 70
     1
102
RTVSPropertyOp7
 70
     1
102
RTVSPropertyOp8
 70
     1
102
RTVSPropertyOp9
 70
     1
102
RTVSPropertyOp10
 70
     1
102
RTVSPropertyOp11
 70
     1
102
RTVSPropertyOp12
 70
     1
102
RTVSPropertyOp13
 70
     1
102
RTVSPropertyOp14
 70
     1
102
RTVSPropertyOp15
 70
     1
102
RTVSPropertyOp16
 70
     1
102
RTVSPropertyOp17
 70
     1
102
RTVSPropertyOp18
 70
     1
102
RTVSPropertyOp19
 70
     1
102
RTVSPropertyOp20
 70
     1
102
RTVSPropertyOp21
 70
     1
102
RTVSPropertyOp22
 70
     1
102
RTVSPropertyOp23
 70
     1
102
RTVSPropertyOp24
 70
     1
102
RTVSPropertyOp25
 70
     1
102
RTVSPropertyOp26
 70
     1
102
RTVSPropertyOp27
 70
     1
102
RTVSPropertyOp28
 70
     1
102
RTVSPropertyOp29
 70
     1
102
RTVSPropertyOp30
 70
     1
102
RTVSPropertyOp31
 70
     1
102
RTVSPropertyOp32
 70
     1
102
RTVSPropertyOp33
 70
     1
102
RTVSPropertyOp34
 70
     1
102
RTVSPropertyOp35
 70
     1
102
RTVSPropertyOp36
 70
     1
102
RTVSPropertyOp37
 70
     1
102
RTVSPropertyOp38
 70
     1
102
RTVSPropertyOp39
 70
     1
102
RTVSPropertyOp40
 70
     1
102
RTVSPropertyOp41
 70
     1
102
RTVSPropertyOp42
 70
     1
102
RTVSPropertyOp43
 70
     1
102
RTVSPropertyOp44
 70
     1
102
RTVSPropertyOp45
 70
     1
102
RTVSPropertyOp46
 70
     1
102
RTVSPropertyOp47
 70
     1
102
RTVSPropertyOp48
 70
     1
102
RTVSPropertyOp49
 70
     1
102
RTVSPropertyOp50
 70
     1
102
RTVSPropertyOp51
 70
     0
102
RTVSPropertyOp52
 70
     0
102
RTVSPropertyOp53
 70
     1
102
RTVSPropertyOp54
 70
     1
102
RTVSPropertyOp55
 70
     1
102
RTVSPropertyOp56
 70
     1
102
RTVSPropertyOp57
 70
     1
102
RTVSPost2010Prop28
280
     1
102
RTVSPost2010PropOp28
 70
     1
102
RTVSPost2010Prop29
280
     1
102
RTVSPost2010PropOp29
 70
     1
102
RTVSPost2010Prop30
280
     0
102
RTVSPost2010PropOp30
 70
     1
102
RTVSPost2010Prop31
280
     0
102
RTVSPost2010PropOp31
 70
     1
102
RTVSPost2010Prop32
280
     0
102
RTVSPost2010PropOp32
 70
     1
102
RTVSPost2010Prop33
280
     0
102
RTVSPost2010PropOp33
 70
     1
102
RTVSPost2010Prop34
280
     0
102
RTVSPost2010PropOp34
 70
     1
102
RTVSPost2010Prop35
280
     0
102
RTVSPost2010PropOp35
 70
     1
102
RTVSPost2010Prop36
280
     0
102
RTVSPost2010PropOp36
 70
     1
102
RTVSPost2010Prop37
 90
       50
102
RTVSPost2010PropOp37
 70
     1
102
RTVSPost2010Prop38
140
0.0
102
RTVSPost2010PropOp38
 70
     1
102
RTVSPost2010Prop39
140
1.0
102
RTVSPost2010PropOp39
 70
     1
102
RTVSPost2010Prop40
 90
        0
102
RTVSPost2010PropOp40
 70
     1
102
RTVSPost2010Prop41ColorIndex
 90
       18
102
RTVSPost2010Prop41ColorRGB
 90
        0
102
RTVSPost2010PropOp41
 70
     1
102
RTVSPost2010Prop42
 90
       50
102
RTVSPost2010PropOp42
 70
     1
102
RTVSPost2010Prop43
 90
        3
102
RTVSPost2010PropOp43
 70
     1
102
RTVSPost2010Prop44ColorIndex
 90
        5
102
RTVSPost2010Prop44ColorRGB
 90
      255
102
RTVSPost2010PropOp44
 70
     1
102
RTVSPost2010Prop45
280
     0
102
RTVSPost2010PropOp45
 70
     1
102
RTVSPost2010Prop46
 90
       50
102
RTVSPost2010PropOp46
 70
     1
102
RTVSPost2010Prop47
 90
       50
102
RTVSPost2010PropOp47
 70
     1
102
RTVSPost2010Prop48
 90
       50
102
RTVSPost2010PropOp48
 70
     1
102
RTVSPost2010Prop49
280
     0
102
RTVSPost2010PropOp49
 70
     1
102
RTVSPost2010Prop50
 90
       50
102
RTVSPost2010PropOp50
 70
     1
102
RTVSPost2010Prop51ColorIndex
 90
      256
102
RTVSPost2010Prop51ColorRGB
 90
-16777216
102
RTVSPost2010PropOp51
 70
     0
102
RTVSPost2010Prop52
140
1.0
102
RTVSPost2010PropOp52
 70
     0
102
RTVSPost2010Prop53
 90
        2
102
RTVSPost2010PropOp53
 70
     1
102
RTVSPost2010Prop54
  1
strokes_ogs.tif
102
RTVSPost2010PropOp54
 70
     1
102
RTVSPost2010Prop55
280
     0
102
RTVSPost2010PropOp55
 70
     1
102
RTVSPost2010Prop56
140
1.0
102
RTVSPost2010PropOp56
 70
     1
102
RTVSPost2010Prop57
140
1.0
102
RTVSPost2010PropOp57
 70
     1
  0
XRECORD
  5
4D4
102
{ACAD_REACTORS
330
4D3
102
}
330
4D3
100
AcDbXrecord
280
     1
102
RTVSPropertyOp0
 70
     1
102
RTVSPropertyOp1
 70
     1
102
RTVSPropertyOp2
 70
     1
102
RTVSPropertyOp3
 70
     1
102
RTVSPropertyOp4
 70
     1
102
RTVSPropertyOp5
 70
     1
102
RTVSPropertyOp6
 70
     1
102
RTVSPropertyOp7
 70
     1
102
RTVSPropertyOp8
 70
     1
102
RTVSPropertyOp9
 70
     1
102
RTVSPropertyOp10
 70
     1
102
RTVSPropertyOp11
 70
     1
102
RTVSPropertyOp12
 70
     1
102
RTVSPropertyOp13
 70
     1
102
RTVSPropertyOp14
 70
     1
102
RTVSPropertyOp15
 70
     1
102
RTVSPropertyOp16
 70
     1
102
RTVSPropertyOp17
 70
     1
102
RTVSPropertyOp18
 70
     1
102
RTVSPropertyOp19
 70
     1
102
RTVSPropertyOp20
 70
     1
102
RTVSPropertyOp21
 70
     1
102
RTVSPropertyOp22
 70
     1
102
RTVSPropertyOp23
 70
     1
102
RTVSPropertyOp24
 70
     1
102
RTVSPropertyOp25
 70
     1
102
RTVSPropertyOp26
 70
     1
102
RTVSPropertyOp27
 70
     1
102
RTVSPropertyOp28
 70
     1
102
RTVSPropertyOp29
 70
     1
102
RTVSPropertyOp30
 70
     1
102
RTVSPropertyOp31
 70
     1
102
RTVSPropertyOp32
 70
     1
102
RTVSPropertyOp33
 70
     1
102
RTVSPropertyOp34
 70
     1
102
RTVSPropertyOp35
 70
     1
102
RTVSPropertyOp36
 70
     1
102
RTVSPropertyOp37
 70
     1
102
RTVSPropertyOp38
 70
     1
102
RTVSPropertyOp39
 70
     1
102
RTVSPropertyOp40
 70
     1
102
RTVSPropertyOp41
 70
     1
102
RTVSPropertyOp42
 70
     1
102
RTVSPropertyOp43
 70
     1
102
RTVSPropertyOp44
 70
     1
102
RTVSPropertyOp45
 70
     1
102
RTVSPropertyOp46
 70
     1
102
RTVSPropertyOp47
 70
     1
102
RTVSPropertyOp48
 70
     1
102
RTVSPropertyOp49
 70
     1
102
RTVSPropertyOp50
 70
     1
102
RTVSPropertyOp51
 70
     0
102
RTVSPropertyOp52
 70
     0
102
RTVSPropertyOp53
 70
     1
102
RTVSPropertyOp54
 70
     1
102
RTVSPropertyOp55
 70
     1
102
RTVSPropertyOp56
 70
     1
102
RTVSPropertyOp57
 70
     1
102
RTVSPost2010Prop28
280
     0
102
RTVSPost2010PropOp28
 70
     1
102
RTVSPost2010Prop29
280
     1
102
RTVSPost2010PropOp29
 70
     1
102
RTVSPost2010Prop30
280
     1
102
RTVSPost2010PropOp30
 70
     1
102
RTVSPost2010Prop31
280
     0
102
RTVSPost2010PropOp31
 70
     1
102
RTVSPost2010Prop32
280
     0
102
RTVSPost2010PropOp32
 70
     1
102
RTVSPost2010Prop33
280
     0
102
RTVSPost2010PropOp33
 70
     1
102
RTVSPost2010Prop34
280
     0
102
RTVSPost2010PropOp34
 70
     1
102
RTVSPost2010Prop35
280
     0
102
RTVSPost2010PropOp35
 70
     1
102
RTVSPost2010Prop36
280
     0
102
RTVSPost2010PropOp36
 70
     1
102
RTVSPost2010Prop37
 90
       50
102
RTVSPost2010PropOp37
 70
     1
102
RTVSPost2010Prop38
140
0.0
102
RTVSPost2010PropOp38
 70
     1
102
RTVSPost2010Prop39
140
1.0
102
RTVSPost2010PropOp39
 70
     1
102
RTVSPost2010Prop40
 90
        0
102
RTVSPost2010PropOp40
 70
     1
102
RTVSPost2010Prop41ColorIndex
 90
       18
102
RTVSPost2010Prop41ColorRGB
 90
        0
102
RTVSPost2010PropOp41
 70
     1
102
RTVSPost2010Prop42
 90
       50
102
RTVSPost2010PropOp42
 70
     1
102
RTVSPost2010Prop43
 90
        3
102
RTVSPost2010PropOp43
 70
     1
102
RTVSPost2010Prop44ColorIndex
 90
        5
102
RTVSPost2010Prop44ColorRGB
 90
      255
102
RTVSPost2010PropOp44
 70
     1
102
RTVSPost2010Prop45
280
     0
102
RTVSPost2010PropOp45
 70
     1
102
RTVSPost2010Prop46
 90
       50
102
RTVSPost2010PropOp46
 70
     1
102
RTVSPost2010Prop47
 90
       50
102
RTVSPost2010PropOp47
 70
     1
102
RTVSPost2010Prop48
 90
       50
102
RTVSPost2010PropOp48
 70
     1
102
RTVSPost2010Prop49
280
     0
102
RTVSPost2010PropOp49
 70
     1
102
RTVSPost2010Prop50
 90
       50
102
RTVSPost2010PropOp50
 70
     1
102
RTVSPost2010Prop51ColorIndex
 90
      256
102
RTVSPost2010Prop51ColorRGB
 90
-16777216
102
RTVSPost2010PropOp51
 70
     0
102
RTVSPost2010Prop52
140
1.0
102
RTVSPost2010PropOp52
 70
     0
102
RTVSPost2010Prop53
 90
        2
102
RTVSPost2010PropOp53
 70
     1
102
RTVSPost2010Prop54
  1
strokes_ogs.tif
102
RTVSPost2010PropOp54
 70
     1
102
RTVSPost2010Prop55
280
     0
102
RTVSPost2010PropOp55
 70
     1
102
RTVSPost2010Prop56
140
1.0
102
RTVSPost2010PropOp56
 70
     1
102
RTVSPost2010Prop57
140
1.0
102
RTVSPost2010PropOp57
 70
     1
  0
XRECORD
  5
4DC
102
{ACAD_REACTORS
330
4DB
102
}
330
4DB
100
AcDbXrecord
280
     1
102
RTVSPropertyOp0
 70
     1
102
RTVSPropertyOp1
 70
     1
102
RTVSPropertyOp2
 70
     1
102
RTVSPropertyOp3
 70
     1
102
RTVSPropertyOp4
 70
     1
102
RTVSPropertyOp5
 70
     1
102
RTVSPropertyOp6
 70
     1
102
RTVSPropertyOp7
 70
     1
102
RTVSPropertyOp8
 70
     1
102
RTVSPropertyOp9
 70
     1
102
RTVSPropertyOp10
 70
     1
102
RTVSPropertyOp11
 70
     1
102
RTVSPropertyOp12
 70
     1
102
RTVSPropertyOp13
 70
     1
102
RTVSPropertyOp14
 70
     1
102
RTVSPropertyOp15
 70
     1
102
RTVSPropertyOp16
 70
     1
102
RTVSPropertyOp17
 70
     1
102
RTVSPropertyOp18
 70
     1
102
RTVSPropertyOp19
 70
     1
102
RTVSPropertyOp20
 70
     1
102
RTVSPropertyOp21
 70
     1
102
RTVSPropertyOp22
 70
     1
102
RTVSPropertyOp23
 70
     1
102
RTVSPropertyOp24
 70
     1
102
RTVSPropertyOp25
 70
     1
102
RTVSPropertyOp26
 70
     1
102
RTVSPropertyOp27
 70
     1
102
RTVSPropertyOp28
 70
     1
102
RTVSPropertyOp29
 70
     1
102
RTVSPropertyOp30
 70
     1
102
RTVSPropertyOp31
 70
     1
102
RTVSPropertyOp32
 70
     1
102
RTVSPropertyOp33
 70
     1
102
RTVSPropertyOp34
 70
     1
102
RTVSPropertyOp35
 70
     1
102
RTVSPropertyOp36
 70
     1
102
RTVSPropertyOp37
 70
     1
102
RTVSPropertyOp38
 70
     1
102
RTVSPropertyOp39
 70
     1
102
RTVSPropertyOp40
 70
     1
102
RTVSPropertyOp41
 70
     1
102
RTVSPropertyOp42
 70
     1
102
RTVSPropertyOp43
 70
     1
102
RTVSPropertyOp44
 70
     1
102
RTVSPropertyOp45
 70
     1
102
RTVSPropertyOp46
 70
     1
102
RTVSPropertyOp47
 70
     1
102
RTVSPropertyOp48
 70
     1
102
RTVSPropertyOp49
 70
     1
102
RTVSPropertyOp50
 70
     1
102
RTVSPropertyOp51
 70
     0
102
RTVSPropertyOp52
 70
     0
102
RTVSPropertyOp53
 70
     1
102
RTVSPropertyOp54
 70
     1
102
RTVSPropertyOp55
 70
     1
102
RTVSPropertyOp56
 70
     1
102
RTVSPropertyOp57
 70
     1
102
RTVSPost2010Prop28
280
     0
102
RTVSPost2010PropOp28
 70
     1
102
RTVSPost2010Prop29
280
     1
102
RTVSPost2010PropOp29
 70
     1
102
RTVSPost2010Prop30
280
     1
102
RTVSPost2010PropOp30
 70
     1
102
RTVSPost2010Prop31
280
     0
102
RTVSPost2010PropOp31
 70
     1
102
RTVSPost2010Prop32
280
     0
102
RTVSPost2010PropOp32
 70
     1
102
RTVSPost2010Prop33
280
     0
102
RTVSPost2010PropOp33
 70
     1
102
RTVSPost2010Prop34
280
     0
102
RTVSPost2010PropOp34
 70
     1
102
RTVSPost2010Prop35
280
     0
102
RTVSPost2010PropOp35
 70
     1
102
RTVSPost2010Prop36
280
     0
102
RTVSPost2010PropOp36
 70
     1
102
RTVSPost2010Prop37
 90
       50
102
RTVSPost2010PropOp37
 70
     1
102
RTVSPost2010Prop38
140
0.0
102
RTVSPost2010PropOp38
 70
     1
102
RTVSPost2010Prop39
140
1.0
102
RTVSPost2010PropOp39
 70
     1
102
RTVSPost2010Prop40
 90
        0
102
RTVSPost2010PropOp40
 70
     1
102
RTVSPost2010Prop41ColorIndex
 90
       18
102
RTVSPost2010Prop41ColorRGB
 90
        0
102
RTVSPost2010PropOp41
 70
     1
102
RTVSPost2010Prop42
 90
       50
102
RTVSPost2010PropOp42
 70
     1
102
RTVSPost2010Prop43
 90
        3
102
RTVSPost2010PropOp43
 70
     1
102
RTVSPost2010Prop44ColorIndex
 90
        5
102
RTVSPost2010Prop44ColorRGB
 90
      255
102
RTVSPost2010PropOp44
 70
     1
102
RTVSPost2010Prop45
280
     0
102
RTVSPost2010PropOp45
 70
     1
102
RTVSPost2010Prop46
 90
       50
102
RTVSPost2010PropOp46
 70
     1
102
RTVSPost2010Prop47
 90
       50
102
RTVSPost2010PropOp47
 70
     1
102
RTVSPost2010Prop48
 90
       50
102
RTVSPost2010PropOp48
 70
     1
102
RTVSPost2010Prop49
280
     0
102
RTVSPost2010PropOp49
 70
     1
102
RTVSPost2010Prop50
 90
       50
102
RTVSPost2010PropOp50
 70
     1
102
RTVSPost2010Prop51ColorIndex
 90
      256
102
RTVSPost2010Prop51ColorRGB
 90
-16777216
102
RTVSPost2010PropOp51
 70
     0
102
RTVSPost2010Prop52
140
1.0
102
RTVSPost2010PropOp52
 70
     0
102
RTVSPost2010Prop53
 90
        2
102
RTVSPost2010PropOp53
 70
     1
102
RTVSPost2010Prop54
  1
strokes_ogs.tif
102
RTVSPost2010PropOp54
 70
     1
102
RTVSPost2010Prop55
280
     0
102
RTVSPost2010PropOp55
 70
     1
102
RTVSPost2010Prop56
140
1.0
102
RTVSPost2010PropOp56
 70
     1
102
RTVSPost2010Prop57
140
1.0
102
RTVSPost2010PropOp57
 70
     1
  0
XRECORD
  5
4E4
102
{ACAD_REACTORS
330
4E3
102
}
330
4E3
100
AcDbXrecord
280
     1
102
RTVSPropertyOp0
 70
     1
102
RTVSPropertyOp1
 70
     1
102
RTVSPropertyOp2
 70
     1
102
RTVSPropertyOp3
 70
     1
102
RTVSPropertyOp4
 70
     1
102
RTVSPropertyOp5
 70
     1
102
RTVSPropertyOp6
 70
     1
102
RTVSPropertyOp7
 70
     1
102
RTVSPropertyOp8
 70
     1
102
RTVSPropertyOp9
 70
     1
102
RTVSPropertyOp10
 70
     1
102
RTVSPropertyOp11
 70
     1
102
RTVSPropertyOp12
 70
     1
102
RTVSPropertyOp13
 70
     1
102
RTVSPropertyOp14
 70
     1
102
RTVSPropertyOp15
 70
     1
102
RTVSPropertyOp16
 70
     1
102
RTVSPropertyOp17
 70
     1
102
RTVSPropertyOp18
 70
     1
102
RTVSPropertyOp19
 70
     1
102
RTVSPropertyOp20
 70
     1
102
RTVSPropertyOp21
 70
     1
102
RTVSPropertyOp22
 70
     1
102
RTVSPropertyOp23
 70
     1
102
RTVSPropertyOp24
 70
     1
102
RTVSPropertyOp25
 70
     1
102
RTVSPropertyOp26
 70
     1
102
RTVSPropertyOp27
 70
     1
102
RTVSPropertyOp28
 70
     1
102
RTVSPropertyOp29
 70
     1
102
RTVSPropertyOp30
 70
     1
102
RTVSPropertyOp31
 70
     1
102
RTVSPropertyOp32
 70
     1
102
RTVSPropertyOp33
 70
     1
102
RTVSPropertyOp34
 70
     1
102
RTVSPropertyOp35
 70
     1
102
RTVSPropertyOp36
 70
     1
102
RTVSPropertyOp37
 70
     1
102
RTVSPropertyOp38
 70
     1
102
RTVSPropertyOp39
 70
     1
102
RTVSPropertyOp40
 70
     1
102
RTVSPropertyOp41
 70
     1
102
RTVSPropertyOp42
 70
     1
102
RTVSPropertyOp43
 70
     1
102
RTVSPropertyOp44
 70
     1
102
RTVSPropertyOp45
 70
     1
102
RTVSPropertyOp46
 70
     1
102
RTVSPropertyOp47
 70
     1
102
RTVSPropertyOp48
 70
     1
102
RTVSPropertyOp49
 70
     1
102
RTVSPropertyOp50
 70
     1
102
RTVSPropertyOp51
 70
     0
102
RTVSPropertyOp52
 70
     0
102
RTVSPropertyOp53
 70
     1
102
RTVSPropertyOp54
 70
     1
102
RTVSPropertyOp55
 70
     1
102
RTVSPropertyOp56
 70
     1
102
RTVSPropertyOp57
 70
     1
102
RTVSPost2010Prop28
280
     0
102
RTVSPost2010PropOp28
 70
     1
102
RTVSPost2010Prop29
280
     1
102
RTVSPost2010PropOp29
 70
     1
102
RTVSPost2010Prop30
280
     1
102
RTVSPost2010PropOp30
 70
     1
102
RTVSPost2010Prop31
280
     0
102
RTVSPost2010PropOp31
 70
     1
102
RTVSPost2010Prop32
280
     0
102
RTVSPost2010PropOp32
 70
     1
102
RTVSPost2010Prop33
280
     0
102
RTVSPost2010PropOp33
 70
     1
102
RTVSPost2010Prop34
280
     0
102
RTVSPost2010PropOp34
 70
     1
102
RTVSPost2010Prop35
280
     0
102
RTVSPost2010PropOp35
 70
     1
102
RTVSPost2010Prop36
280
     0
102
RTVSPost2010PropOp36
 70
     1
102
RTVSPost2010Prop37
 90
       50
102
RTVSPost2010PropOp37
 70
     1
102
RTVSPost2010Prop38
140
0.0
102
RTVSPost2010PropOp38
 70
     1
102
RTVSPost2010Prop39
140
1.0
102
RTVSPost2010PropOp39
 70
     1
102
RTVSPost2010Prop40
 90
        0
102
RTVSPost2010PropOp40
 70
     1
102
RTVSPost2010Prop41ColorIndex
 90
       18
102
RTVSPost2010Prop41ColorRGB
 90
        0
102
RTVSPost2010PropOp41
 70
     1
102
RTVSPost2010Prop42
 90
       50
102
RTVSPost2010PropOp42
 70
     1
102
RTVSPost2010Prop43
 90
        3
102
RTVSPost2010PropOp43
 70
     1
102
RTVSPost2010Prop44ColorIndex
 90
        5
102
RTVSPost2010Prop44ColorRGB
 90
      255
102
RTVSPost2010PropOp44
 70
     1
102
RTVSPost2010Prop45
280
     0
102
RTVSPost2010PropOp45
 70
     1
102
RTVSPost2010Prop46
 90
       50
102
RTVSPost2010PropOp46
 70
     1
102
RTVSPost2010Prop47
 90
       50
102
RTVSPost2010PropOp47
 70
     1
102
RTVSPost2010Prop48
 90
       50
102
RTVSPost2010PropOp48
 70
     1
102
RTVSPost2010Prop49
280
     0
102
RTVSPost2010PropOp49
 70
     1
102
RTVSPost2010Prop50
 90
       50
102
RTVSPost2010PropOp50
 70
     1
102
RTVSPost2010Prop51ColorIndex
 90
      256
102
RTVSPost2010Prop51ColorRGB
 90
-16777216
102
RTVSPost2010PropOp51
 70
     0
102
RTVSPost2010Prop52
140
1.0
102
RTVSPost2010PropOp52
 70
     0
102
RTVSPost2010Prop53
 90
        2
102
RTVSPost2010PropOp53
 70
     1
102
RTVSPost2010Prop54
  1
strokes_ogs.tif
102
RTVSPost2010PropOp54
 70
     1
102
RTVSPost2010Prop55
280
     0
102
RTVSPost2010PropOp55
 70
     1
102
RTVSPost2010Prop56
140
1.0
102
RTVSPost2010PropOp56
 70
     1
102
RTVSPost2010Prop57
140
1.0
102
RTVSPost2010PropOp57
 70
     1
  0
XRECORD
  5
4D8
102
{ACAD_REACTORS
330
4D7
102
}
330
4D7
100
AcDbXrecord
280
     1
102
RTVSPropertyOp0
 70
     1
102
RTVSPropertyOp1
 70
     1
102
RTVSPropertyOp2
 70
     1
102
RTVSPropertyOp3
 70
     1
102
RTVSPropertyOp4
 70
     1
102
RTVSPropertyOp5
 70
     1
102
RTVSPropertyOp6
 70
     1
102
RTVSPropertyOp7
 70
     1
102
RTVSPropertyOp8
 70
     1
102
RTVSPropertyOp9
 70
     1
102
RTVSPropertyOp10
 70
     1
102
RTVSPropertyOp11
 70
     1
102
RTVSPropertyOp12
 70
     1
102
RTVSPropertyOp13
 70
     1
102
RTVSPropertyOp14
 70
     1
102
RTVSPropertyOp15
 70
     1
102
RTVSPropertyOp16
 70
     1
102
RTVSPropertyOp17
 70
     1
102
RTVSPropertyOp18
 70
     1
102
RTVSPropertyOp19
 70
     1
102
RTVSPropertyOp20
 70
     1
102
RTVSPropertyOp21
 70
     1
102
RTVSPropertyOp22
 70
     1
102
RTVSPropertyOp23
 70
     1
102
RTVSPropertyOp24
 70
     1
102
RTVSPropertyOp25
 70
     1
102
RTVSPropertyOp26
 70
     1
102
RTVSPropertyOp27
 70
     1
102
RTVSPropertyOp28
 70
     1
102
RTVSPropertyOp29
 70
     1
102
RTVSPropertyOp30
 70
     1
102
RTVSPropertyOp31
 70
     1
102
RTVSPropertyOp32
 70
     1
102
RTVSPropertyOp33
 70
     1
102
RTVSPropertyOp34
 70
     1
102
RTVSPropertyOp35
 70
     1
102
RTVSPropertyOp36
 70
     1
102
RTVSPropertyOp37
 70
     1
102
RTVSPropertyOp38
 70
     1
102
RTVSPropertyOp39
 70
     1
102
RTVSPropertyOp40
 70
     1
102
RTVSPropertyOp41
 70
     1
102
RTVSPropertyOp42
 70
     1
102
RTVSPropertyOp43
 70
     1
102
RTVSPropertyOp44
 70
     1
102
RTVSPropertyOp45
 70
     1
102
RTVSPropertyOp46
 70
     1
102
RTVSPropertyOp47
 70
     1
102
RTVSPropertyOp48
 70
     1
102
RTVSPropertyOp49
 70
     1
102
RTVSPropertyOp50
 70
     1
102
RTVSPropertyOp51
 70
     0
102
RTVSPropertyOp52
 70
     0
102
RTVSPropertyOp53
 70
     1
102
RTVSPropertyOp54
 70
     1
102
RTVSPropertyOp55
 70
     1
102
RTVSPropertyOp56
 70
     1
102
RTVSPropertyOp57
 70
     1
102
RTVSPost2010Prop28
280
     0
102
RTVSPost2010PropOp28
 70
     1
102
RTVSPost2010Prop29
280
     1
102
RTVSPost2010PropOp29
 70
     1
102
RTVSPost2010Prop30
280
     1
102
RTVSPost2010PropOp30
 70
     1
102
RTVSPost2010Prop31
280
     0
102
RTVSPost2010PropOp31
 70
     1
102
RTVSPost2010Prop32
280
     0
102
RTVSPost2010PropOp32
 70
     1
102
RTVSPost2010Prop33
280
     0
102
RTVSPost2010PropOp33
 70
     1
102
RTVSPost2010Prop34
280
     0
102
RTVSPost2010PropOp34
 70
     1
102
RTVSPost2010Prop35
280
     0
102
RTVSPost2010PropOp35
 70
     1
102
RTVSPost2010Prop36
280
     0
102
RTVSPost2010PropOp36
 70
     1
102
RTVSPost2010Prop37
 90
       50
102
RTVSPost2010PropOp37
 70
     1
102
RTVSPost2010Prop38
140
0.0
102
RTVSPost2010PropOp38
 70
     1
102
RTVSPost2010Prop39
140
1.0
102
RTVSPost2010PropOp39
 70
     1
102
RTVSPost2010Prop40
 90
        0
102
RTVSPost2010PropOp40
 70
     1
102
RTVSPost2010Prop41ColorIndex
 90
       18
102
RTVSPost2010Prop41ColorRGB
 90
        0
102
RTVSPost2010PropOp41
 70
     1
102
RTVSPost2010Prop42
 90
       50
102
RTVSPost2010PropOp42
 70
     1
102
RTVSPost2010Prop43
 90
        3
102
RTVSPost2010PropOp43
 70
     1
102
RTVSPost2010Prop44ColorIndex
 90
        5
102
RTVSPost2010Prop44ColorRGB
 90
      255
102
RTVSPost2010PropOp44
 70
     1
102
RTVSPost2010Prop45
280
     0
102
RTVSPost2010PropOp45
 70
     1
102
RTVSPost2010Prop46
 90
       50
102
RTVSPost2010PropOp46
 70
     1
102
RTVSPost2010Prop47
 90
       50
102
RTVSPost2010PropOp47
 70
     1
102
RTVSPost2010Prop48
 90
       50
102
RTVSPost2010PropOp48
 70
     1
102
RTVSPost2010Prop49
280
     0
102
RTVSPost2010PropOp49
 70
     1
102
RTVSPost2010Prop50
 90
       50
102
RTVSPost2010PropOp50
 70
     1
102
RTVSPost2010Prop51ColorIndex
 90
      256
102
RTVSPost2010Prop51ColorRGB
 90
-16777216
102
RTVSPost2010PropOp51
 70
     0
102
RTVSPost2010Prop52
140
1.0
102
RTVSPost2010PropOp52
 70
     0
102
RTVSPost2010Prop53
 90
        2
102
RTVSPost2010PropOp53
 70
     1
102
RTVSPost2010Prop54
  1
strokes_ogs.tif
102
RTVSPost2010PropOp54
 70
     1
102
RTVSPost2010Prop55
280
     0
102
RTVSPost2010PropOp55
 70
     1
102
RTVSPost2010Prop56
140
1.0
102
RTVSPost2010PropOp56
 70
     1
102
RTVSPost2010Prop57
140
1.0
102
RTVSPost2010PropOp57
 70
     1
  0
XRECORD
  5
4DA
102
{ACAD_REACTORS
330
4D9
102
}
330
4D9
100
AcDbXrecord
280
     1
102
RTVSPropertyOp0
 70
     1
102
RTVSPropertyOp1
 70
     1
102
RTVSPropertyOp2
 70
     1
102
RTVSPropertyOp3
 70
     1
102
RTVSPropertyOp4
 70
     1
102
RTVSPropertyOp5
 70
     1
102
RTVSPropertyOp6
 70
     1
102
RTVSPropertyOp7
 70
     1
102
RTVSPropertyOp8
 70
     1
102
RTVSPropertyOp9
 70
     1
102
RTVSPropertyOp10
 70
     1
102
RTVSPropertyOp11
 70
     1
102
RTVSPropertyOp12
 70
     1
102
RTVSPropertyOp13
 70
     1
102
RTVSPropertyOp14
 70
     1
102
RTVSPropertyOp15
 70
     1
102
RTVSPropertyOp16
 70
     1
102
RTVSPropertyOp17
 70
     1
102
RTVSPropertyOp18
 70
     1
102
RTVSPropertyOp19
 70
     1
102
RTVSPropertyOp20
 70
     1
102
RTVSPropertyOp21
 70
     1
102
RTVSPropertyOp22
 70
     1
102
RTVSPropertyOp23
 70
     1
102
RTVSPropertyOp24
 70
     1
102
RTVSPropertyOp25
 70
     1
102
RTVSPropertyOp26
 70
     1
102
RTVSPropertyOp27
 70
     1
102
RTVSPropertyOp28
 70
     1
102
RTVSPropertyOp29
 70
     1
102
RTVSPropertyOp30
 70
     1
102
RTVSPropertyOp31
 70
     1
102
RTVSPropertyOp32
 70
     1
102
RTVSPropertyOp33
 70
     1
102
RTVSPropertyOp34
 70
     1
102
RTVSPropertyOp35
 70
     1
102
RTVSPropertyOp36
 70
     1
102
RTVSPropertyOp37
 70
     1
102
RTVSPropertyOp38
 70
     1
102
RTVSPropertyOp39
 70
     1
102
RTVSPropertyOp40
 70
     1
102
RTVSPropertyOp41
 70
     1
102
RTVSPropertyOp42
 70
     1
102
RTVSPropertyOp43
 70
     1
102
RTVSPropertyOp44
 70
     1
102
RTVSPropertyOp45
 70
     1
102
RTVSPropertyOp46
 70
     1
102
RTVSPropertyOp47
 70
     1
102
RTVSPropertyOp48
 70
     1
102
RTVSPropertyOp49
 70
     1
102
RTVSPropertyOp50
 70
     1
102
RTVSPropertyOp51
 70
     0
102
RTVSPropertyOp52
 70
     0
102
RTVSPropertyOp53
 70
     1
102
RTVSPropertyOp54
 70
     1
102
RTVSPropertyOp55
 70
     1
102
RTVSPropertyOp56
 70
     1
102
RTVSPropertyOp57
 70
     1
102
RTVSPost2010Prop28
280
     0
102
RTVSPost2010PropOp28
 70
     1
102
RTVSPost2010Prop29
280
     1
102
RTVSPost2010PropOp29
 70
     1
102
RTVSPost2010Prop30
280
     1
102
RTVSPost2010PropOp30
 70
     1
102
RTVSPost2010Prop31
280
     0
102
RTVSPost2010PropOp31
 70
     1
102
RTVSPost2010Prop32
280
     0
102
RTVSPost2010PropOp32
 70
     1
102
RTVSPost2010Prop33
280
     0
102
RTVSPost2010PropOp33
 70
     1
102
RTVSPost2010Prop34
280
     0
102
RTVSPost2010PropOp34
 70
     1
102
RTVSPost2010Prop35
280
     0
102
RTVSPost2010PropOp35
 70
     1
102
RTVSPost2010Prop36
280
     0
102
RTVSPost2010PropOp36
 70
     1
102
RTVSPost2010Prop37
 90
       50
102
RTVSPost2010PropOp37
 70
     1
102
RTVSPost2010Prop38
140
0.0
102
RTVSPost2010PropOp38
 70
     1
102
RTVSPost2010Prop39
140
1.0
102
RTVSPost2010PropOp39
 70
     1
102
RTVSPost2010Prop40
 90
        0
102
RTVSPost2010PropOp40
 70
     1
102
RTVSPost2010Prop41ColorIndex
 90
       18
102
RTVSPost2010Prop41ColorRGB
 90
        0
102
RTVSPost2010PropOp41
 70
     1
102
RTVSPost2010Prop42
 90
       50
102
RTVSPost2010PropOp42
 70
     1
102
RTVSPost2010Prop43
 90
        3
102
RTVSPost2010PropOp43
 70
     1
102
RTVSPost2010Prop44ColorIndex
 90
        5
102
RTVSPost2010Prop44ColorRGB
 90
      255
102
RTVSPost2010PropOp44
 70
     1
102
RTVSPost2010Prop45
280
     0
102
RTVSPost2010PropOp45
 70
     1
102
RTVSPost2010Prop46
 90
       50
102
RTVSPost2010PropOp46
 70
     1
102
RTVSPost2010Prop47
 90
       50
102
RTVSPost2010PropOp47
 70
     1
102
RTVSPost2010Prop48
 90
       50
102
RTVSPost2010PropOp48
 70
     1
102
RTVSPost2010Prop49
280
     0
102
RTVSPost2010PropOp49
 70
     1
102
RTVSPost2010Prop50
 90
       50
102
RTVSPost2010PropOp50
 70
     1
102
RTVSPost2010Prop51ColorIndex
 90
      256
102
RTVSPost2010Prop51ColorRGB
 90
-16777216
102
RTVSPost2010PropOp51
 70
     0
102
RTVSPost2010Prop52
140
1.0
102
RTVSPost2010PropOp52
 70
     0
102
RTVSPost2010Prop53
 90
        2
102
RTVSPost2010PropOp53
 70
     1
102
RTVSPost2010Prop54
  1
strokes_ogs.tif
102
RTVSPost2010PropOp54
 70
     1
102
RTVSPost2010Prop55
280
     0
102
RTVSPost2010PropOp55
 70
     1
102
RTVSPost2010Prop56
140
1.0
102
RTVSPost2010PropOp56
 70
     1
102
RTVSPost2010Prop57
140
1.0
102
RTVSPost2010PropOp57
 70
     1
  0
XRECORD
  5
4EA
102
{ACAD_REACTORS
330
4E9
102
}
330
4E9
100
AcDbXrecord
280
     1
102
RTVSPropertyOp0
 70
     0
102
RTVSPropertyOp1
 70
     0
102
RTVSPropertyOp2
 70
     0
102
RTVSPropertyOp3
 70
     0
102
RTVSPropertyOp4
 70
     0
102
RTVSPropertyOp5
 70
     0
102
RTVSPropertyOp6
 70
     0
102
RTVSPropertyOp7
 70
     0
102
RTVSPropertyOp8
 70
     0
102
RTVSPropertyOp9
 70
     0
102
RTVSPropertyOp10
 70
     0
102
RTVSPropertyOp11
 70
     0
102
RTVSPropertyOp12
 70
     0
102
RTVSPropertyOp13
 70
     0
102
RTVSPropertyOp14
 70
     2
102
RTVSPropertyOp15
 70
     0
102
RTVSPropertyOp16
 70
     0
102
RTVSPropertyOp17
 70
     0
102
RTVSPropertyOp18
 70
     0
102
RTVSPropertyOp19
 70
     0
102
RTVSPropertyOp20
 70
     0
102
RTVSPropertyOp21
 70
     0
102
RTVSPropertyOp22
 70
     0
102
RTVSPropertyOp23
 70
     0
102
RTVSPropertyOp24
 70
     0
102
RTVSPropertyOp25
 70
     0
102
RTVSPropertyOp26
 70
     0
102
RTVSPropertyOp27
 70
     0
102
RTVSPropertyOp28
 70
     0
102
RTVSPropertyOp29
 70
     0
102
RTVSPropertyOp30
 70
     0
102
RTVSPropertyOp31
 70
     0
102
RTVSPropertyOp32
 70
     0
102
RTVSPropertyOp33
 70
     0
102
RTVSPropertyOp34
 70
     0
102
RTVSPropertyOp35
 70
     0
102
RTVSPropertyOp36
 70
     0
102
RTVSPropertyOp37
 70
     0
102
RTVSPropertyOp38
 70
     0
102
RTVSPropertyOp39
 70
     0
102
RTVSPropertyOp40
 70
     0
102
RTVSPropertyOp41
 70
     0
102
RTVSPropertyOp42
 70
     0
102
RTVSPropertyOp43
 70
     0
102
RTVSPropertyOp44
 70
     0
102
RTVSPropertyOp45
 70
     0
102
RTVSPropertyOp46
 70
     0
102
RTVSPropertyOp47
 70
     0
102
RTVSPropertyOp48
 70
     0
102
RTVSPropertyOp49
 70
     0
102
RTVSPropertyOp50
 70
     0
102
RTVSPropertyOp51
 70
     0
102
RTVSPropertyOp52
 70
     0
102
RTVSPropertyOp53
 70
     0
102
RTVSPropertyOp54
 70
     0
102
RTVSPropertyOp55
 70
     0
102
RTVSPropertyOp56
 70
     0
102
RTVSPropertyOp57
 70
     0
102
RTVSPost2010Prop28
280
     0
102
RTVSPost2010PropOp28
 70
     0
102
RTVSPost2010Prop29
280
     1
102
RTVSPost2010PropOp29
 70
     0
102
RTVSPost2010Prop30
280
     1
102
RTVSPost2010PropOp30
 70
     0
102
RTVSPost2010Prop31
280
     0
102
RTVSPost2010PropOp31
 70
     0
102
RTVSPost2010Prop32
280
     0
102
RTVSPost2010PropOp32
 70
     0
102
RTVSPost2010Prop33
280
     0
102
RTVSPost2010PropOp33
 70
     0
102
RTVSPost2010Prop34
280
     0
102
RTVSPost2010PropOp34
 70
     0
102
RTVSPost2010Prop35
280
     0
102
RTVSPost2010PropOp35
 70
     0
102
RTVSPost2010Prop36
280
     0
102
RTVSPost2010PropOp36
 70
     0
102
RTVSPost2010Prop37
 90
       50
102
RTVSPost2010PropOp37
 70
     0
102
RTVSPost2010Prop38
140
0.0
102
RTVSPost2010PropOp38
 70
     0
102
RTVSPost2010Prop39
140
1.0
102
RTVSPost2010PropOp39
 70
     0
102
RTVSPost2010Prop40
 90
        0
102
RTVSPost2010PropOp40
 70
     0
102
RTVSPost2010Prop41ColorIndex
 90
       18
102
RTVSPost2010Prop41ColorRGB
 90
        0
102
RTVSPost2010PropOp41
 70
     0
102
RTVSPost2010Prop42
 90
       50
102
RTVSPost2010PropOp42
 70
     0
102
RTVSPost2010Prop43
 90
        3
102
RTVSPost2010PropOp43
 70
     0
102
RTVSPost2010Prop44ColorIndex
 90
        5
102
RTVSPost2010Prop44ColorRGB
 90
      255
102
RTVSPost2010PropOp44
 70
     0
102
RTVSPost2010Prop45
280
     0
102
RTVSPost2010PropOp45
 70
     0
102
RTVSPost2010Prop46
 90
       50
102
RTVSPost2010PropOp46
 70
     0
102
RTVSPost2010Prop47
 90
       50
102
RTVSPost2010PropOp47
 70
     0
102
RTVSPost2010Prop48
 90
       50
102
RTVSPost2010PropOp48
 70
     0
102
RTVSPost2010Prop49
280
     0
102
RTVSPost2010PropOp49
 70
     0
102
RTVSPost2010Prop50
 90
       50
102
RTVSPost2010PropOp50
 70
     0
102
RTVSPost2010Prop51ColorIndex
 90
      256
102
RTVSPost2010Prop51ColorRGB
 90
-16777216
102
RTVSPost2010PropOp51
 70
     0
102
RTVSPost2010Prop52
140
1.0
102
RTVSPost2010PropOp52
 70
     0
102
RTVSPost2010Prop53
 90
        2
102
RTVSPost2010PropOp53
 70
     0
102
RTVSPost2010Prop54
  1
strokes_ogs.tif
102
RTVSPost2010PropOp54
 70
     0
102
RTVSPost2010Prop55
280
     0
102
RTVSPost2010PropOp55
 70
     0
102
RTVSPost2010Prop56
140
1.0
102
RTVSPost2010PropOp56
 70
     0
102
RTVSPost2010Prop57
140
1.0
102
RTVSPost2010PropOp57
 70
     0
  0
XRECORD
  5
4E2
102
{ACAD_REACTORS
330
4E1
102
}
330
4E1
100
AcDbXrecord
280
     1
102
RTVSPropertyOp0
 70
     1
102
RTVSPropertyOp1
 70
     1
102
RTVSPropertyOp2
 70
     1
102
RTVSPropertyOp3
 70
     1
102
RTVSPropertyOp4
 70
     1
102
RTVSPropertyOp5
 70
     1
102
RTVSPropertyOp6
 70
     1
102
RTVSPropertyOp7
 70
     1
102
RTVSPropertyOp8
 70
     1
102
RTVSPropertyOp9
 70
     1
102
RTVSPropertyOp10
 70
     1
102
RTVSPropertyOp11
 70
     1
102
RTVSPropertyOp12
 70
     1
102
RTVSPropertyOp13
 70
     1
102
RTVSPropertyOp14
 70
     1
102
RTVSPropertyOp15
 70
     1
102
RTVSPropertyOp16
 70
     1
102
RTVSPropertyOp17
 70
     1
102
RTVSPropertyOp18
 70
     1
102
RTVSPropertyOp19
 70
     1
102
RTVSPropertyOp20
 70
     1
102
RTVSPropertyOp21
 70
     1
102
RTVSPropertyOp22
 70
     1
102
RTVSPropertyOp23
 70
     1
102
RTVSPropertyOp24
 70
     1
102
RTVSPropertyOp25
 70
     1
102
RTVSPropertyOp26
 70
     1
102
RTVSPropertyOp27
 70
     1
102
RTVSPropertyOp28
 70
     1
102
RTVSPropertyOp29
 70
     1
102
RTVSPropertyOp30
 70
     1
102
RTVSPropertyOp31
 70
     1
102
RTVSPropertyOp32
 70
     1
102
RTVSPropertyOp33
 70
     1
102
RTVSPropertyOp34
 70
     1
102
RTVSPropertyOp35
 70
     1
102
RTVSPropertyOp36
 70
     1
102
RTVSPropertyOp37
 70
     1
102
RTVSPropertyOp38
 70
     1
102
RTVSPropertyOp39
 70
     1
102
RTVSPropertyOp40
 70
     1
102
RTVSPropertyOp41
 70
     1
102
RTVSPropertyOp42
 70
     1
102
RTVSPropertyOp43
 70
     1
102
RTVSPropertyOp44
 70
     1
102
RTVSPropertyOp45
 70
     1
102
RTVSPropertyOp46
 70
     1
102
RTVSPropertyOp47
 70
     1
102
RTVSPropertyOp48
 70
     1
102
RTVSPropertyOp49
 70
     1
102
RTVSPropertyOp50
 70
     1
102
RTVSPropertyOp51
 70
     0
102
RTVSPropertyOp52
 70
     0
102
RTVSPropertyOp53
 70
     1
102
RTVSPropertyOp54
 70
     1
102
RTVSPropertyOp55
 70
     1
102
RTVSPropertyOp56
 70
     1
102
RTVSPropertyOp57
 70
     1
102
RTVSPost2010Prop28
280
     0
102
RTVSPost2010PropOp28
 70
     1
102
RTVSPost2010Prop29
280
     1
102
RTVSPost2010PropOp29
 70
     1
102
RTVSPost2010Prop30
280
     1
102
RTVSPost2010PropOp30
 70
     1
102
RTVSPost2010Prop31
280
     0
102
RTVSPost2010PropOp31
 70
     1
102
RTVSPost2010Prop32
280
     0
102
RTVSPost2010PropOp32
 70
     1
102
RTVSPost2010Prop33
280
     0
102
RTVSPost2010PropOp33
 70
     1
102
RTVSPost2010Prop34
280
     0
102
RTVSPost2010PropOp34
 70
     1
102
RTVSPost2010Prop35
280
     0
102
RTVSPost2010PropOp35
 70
     1
102
RTVSPost2010Prop36
280
     0
102
RTVSPost2010PropOp36
 70
     1
102
RTVSPost2010Prop37
 90
       50
102
RTVSPost2010PropOp37
 70
     1
102
RTVSPost2010Prop38
140
0.0
102
RTVSPost2010PropOp38
 70
     1
102
RTVSPost2010Prop39
140
1.0
102
RTVSPost2010PropOp39
 70
     1
102
RTVSPost2010Prop40
 90
        0
102
RTVSPost2010PropOp40
 70
     1
102
RTVSPost2010Prop41ColorIndex
 90
       18
102
RTVSPost2010Prop41ColorRGB
 90
        0
102
RTVSPost2010PropOp41
 70
     1
102
RTVSPost2010Prop42
 90
       50
102
RTVSPost2010PropOp42
 70
     1
102
RTVSPost2010Prop43
 90
        3
102
RTVSPost2010PropOp43
 70
     1
102
RTVSPost2010Prop44ColorIndex
 90
        5
102
RTVSPost2010Prop44ColorRGB
 90
      255
102
RTVSPost2010PropOp44
 70
     1
102
RTVSPost2010Prop45
280
     0
102
RTVSPost2010PropOp45
 70
     1
102
RTVSPost2010Prop46
 90
       50
102
RTVSPost2010PropOp46
 70
     1
102
RTVSPost2010Prop47
 90
       50
102
RTVSPost2010PropOp47
 70
     1
102
RTVSPost2010Prop48
 90
       50
102
RTVSPost2010PropOp48
 70
     1
102
RTVSPost2010Prop49
280
     0
102
RTVSPost2010PropOp49
 70
     1
102
RTVSPost2010Prop50
 90
       50
102
RTVSPost2010PropOp50
 70
     1
102
RTVSPost2010Prop51ColorIndex
 90
      256
102
RTVSPost2010Prop51ColorRGB
 90
-16777216
102
RTVSPost2010PropOp51
 70
     0
102
RTVSPost2010Prop52
140
1.0
102
RTVSPost2010PropOp52
 70
     0
102
RTVSPost2010Prop53
 90
        2
102
RTVSPost2010PropOp53
 70
     1
102
RTVSPost2010Prop54
  1
strokes_ogs.tif
102
RTVSPost2010PropOp54
 70
     1
102
RTVSPost2010Prop55
280
     0
102
RTVSPost2010PropOp55
 70
     1
102
RTVSPost2010Prop56
140
1.0
102
RTVSPost2010PropOp56
 70
     1
102
RTVSPost2010Prop57
140
1.0
102
RTVSPost2010PropOp57
 70
     1
  0
XRECORD
  5
4C6
102
{ACAD_REACTORS
330
4C5
102
}
330
4C5
100
AcDbXrecord
280
     1
102
RTVSPropertyOp0
 70
     1
102
RTVSPropertyOp1
 70
     1
102
RTVSPropertyOp2
 70
     1
102
RTVSPropertyOp3
 70
     1
102
RTVSPropertyOp4
 70
     1
102
RTVSPropertyOp5
 70
     1
102
RTVSPropertyOp6
 70
     1
102
RTVSPropertyOp7
 70
     1
102
RTVSPropertyOp8
 70
     1
102
RTVSPropertyOp9
 70
     1
102
RTVSPropertyOp10
 70
     1
102
RTVSPropertyOp11
 70
     1
102
RTVSPropertyOp12
 70
     1
102
RTVSPropertyOp13
 70
     1
102
RTVSPropertyOp14
 70
     1
102
RTVSPropertyOp15
 70
     1
102
RTVSPropertyOp16
 70
     1
102
RTVSPropertyOp17
 70
     1
102
RTVSPropertyOp18
 70
     1
102
RTVSPropertyOp19
 70
     1
102
RTVSPropertyOp20
 70
     1
102
RTVSPropertyOp21
 70
     1
102
RTVSPropertyOp22
 70
     1
102
RTVSPropertyOp23
 70
     1
102
RTVSPropertyOp24
 70
     1
102
RTVSPropertyOp25
 70
     1
102
RTVSPropertyOp26
 70
     1
102
RTVSPropertyOp27
 70
     1
102
RTVSPropertyOp28
 70
     1
102
RTVSPropertyOp29
 70
     1
102
RTVSPropertyOp30
 70
     1
102
RTVSPropertyOp31
 70
     1
102
RTVSPropertyOp32
 70
     1
102
RTVSPropertyOp33
 70
     1
102
RTVSPropertyOp34
 70
     1
102
RTVSPropertyOp35
 70
     1
102
RTVSPropertyOp36
 70
     1
102
RTVSPropertyOp37
 70
     1
102
RTVSPropertyOp38
 70
     1
102
RTVSPropertyOp39
 70
     1
102
RTVSPropertyOp40
 70
     1
102
RTVSPropertyOp41
 70
     1
102
RTVSPropertyOp42
 70
     1
102
RTVSPropertyOp43
 70
     1
102
RTVSPropertyOp44
 70
     1
102
RTVSPropertyOp45
 70
     1
102
RTVSPropertyOp46
 70
     1
102
RTVSPropertyOp47
 70
     1
102
RTVSPropertyOp48
 70
     1
102
RTVSPropertyOp49
 70
     1
102
RTVSPropertyOp50
 70
     1
102
RTVSPropertyOp51
 70
     0
102
RTVSPropertyOp52
 70
     0
102
RTVSPropertyOp53
 70
     1
102
RTVSPropertyOp54
 70
     1
102
RTVSPropertyOp55
 70
     1
102
RTVSPropertyOp56
 70
     1
102
RTVSPropertyOp57
 70
     1
102
RTVSPost2010Prop28
280
     0
102
RTVSPost2010PropOp28
 70
     1
102
RTVSPost2010Prop29
280
     1
102
RTVSPost2010PropOp29
 70
     1
102
RTVSPost2010Prop30
280
     1
102
RTVSPost2010PropOp30
 70
     1
102
RTVSPost2010Prop31
280
     0
102
RTVSPost2010PropOp31
 70
     1
102
RTVSPost2010Prop32
280
     0
102
RTVSPost2010PropOp32
 70
     1
102
RTVSPost2010Prop33
280
     0
102
RTVSPost2010PropOp33
 70
     1
102
RTVSPost2010Prop34
280
     0
102
RTVSPost2010PropOp34
 70
     1
102
RTVSPost2010Prop35
280
     0
102
RTVSPost2010PropOp35
 70
     1
102
RTVSPost2010Prop36
280
     0
102
RTVSPost2010PropOp36
 70
     1
102
RTVSPost2010Prop37
 90
       50
102
RTVSPost2010PropOp37
 70
     1
102
RTVSPost2010Prop38
140
0.0
102
RTVSPost2010PropOp38
 70
     1
102
RTVSPost2010Prop39
140
1.0
102
RTVSPost2010PropOp39
 70
     1
102
RTVSPost2010Prop40
 90
        0
102
RTVSPost2010PropOp40
 70
     1
102
RTVSPost2010Prop41ColorIndex
 90
       18
102
RTVSPost2010Prop41ColorRGB
 90
        0
102
RTVSPost2010PropOp41
 70
     1
102
RTVSPost2010Prop42
 90
       50
102
RTVSPost2010PropOp42
 70
     1
102
RTVSPost2010Prop43
 90
        3
102
RTVSPost2010PropOp43
 70
     1
102
RTVSPost2010Prop44ColorIndex
 90
        5
102
RTVSPost2010Prop44ColorRGB
 90
      255
102
RTVSPost2010PropOp44
 70
     1
102
RTVSPost2010Prop45
280
     0
102
RTVSPost2010PropOp45
 70
     1
102
RTVSPost2010Prop46
 90
       50
102
RTVSPost2010PropOp46
 70
     1
102
RTVSPost2010Prop47
 90
       50
102
RTVSPost2010PropOp47
 70
     1
102
RTVSPost2010Prop48
 90
       50
102
RTVSPost2010PropOp48
 70
     1
102
RTVSPost2010Prop49
280
     0
102
RTVSPost2010PropOp49
 70
     1
102
RTVSPost2010Prop50
 90
       50
102
RTVSPost2010PropOp50
 70
     1
102
RTVSPost2010Prop51ColorIndex
 90
      256
102
RTVSPost2010Prop51ColorRGB
 90
-16777216
102
RTVSPost2010PropOp51
 70
     0
102
RTVSPost2010Prop52
140
1.0
102
RTVSPost2010PropOp52
 70
     0
102
RTVSPost2010Prop53
 90
        2
102
RTVSPost2010PropOp53
 70
     1
102
RTVSPost2010Prop54
  1
strokes_ogs.tif
102
RTVSPost2010PropOp54
 70
     1
102
RTVSPost2010Prop55
280
     0
102
RTVSPost2010PropOp55
 70
     1
102
RTVSPost2010Prop56
140
1.0
102
RTVSPost2010PropOp56
 70
     1
102
RTVSPost2010Prop57
140
1.0
102
RTVSPost2010PropOp57
 70
     1
  0
XRECORD
  5
4C8
102
{ACAD_REACTORS
330
4C7
102
}
330
4C7
100
AcDbXrecord
280
     1
102
RTVSPropertyOp0
 70
     1
102
RTVSPropertyOp1
 70
     1
102
RTVSPropertyOp2
 70
     1
102
RTVSPropertyOp3
 70
     1
102
RTVSPropertyOp4
 70
     1
102
RTVSPropertyOp5
 70
     1
102
RTVSPropertyOp6
 70
     1
102
RTVSPropertyOp7
 70
     1
102
RTVSPropertyOp8
 70
     1
102
RTVSPropertyOp9
 70
     1
102
RTVSPropertyOp10
 70
     1
102
RTVSPropertyOp11
 70
     1
102
RTVSPropertyOp12
 70
     1
102
RTVSPropertyOp13
 70
     1
102
RTVSPropertyOp14
 70
     1
102
RTVSPropertyOp15
 70
     1
102
RTVSPropertyOp16
 70
     1
102
RTVSPropertyOp17
 70
     1
102
RTVSPropertyOp18
 70
     1
102
RTVSPropertyOp19
 70
     1
102
RTVSPropertyOp20
 70
     1
102
RTVSPropertyOp21
 70
     1
102
RTVSPropertyOp22
 70
     1
102
RTVSPropertyOp23
 70
     1
102
RTVSPropertyOp24
 70
     1
102
RTVSPropertyOp25
 70
     1
102
RTVSPropertyOp26
 70
     1
102
RTVSPropertyOp27
 70
     1
102
RTVSPropertyOp28
 70
     1
102
RTVSPropertyOp29
 70
     1
102
RTVSPropertyOp30
 70
     1
102
RTVSPropertyOp31
 70
     1
102
RTVSPropertyOp32
 70
     1
102
RTVSPropertyOp33
 70
     1
102
RTVSPropertyOp34
 70
     1
102
RTVSPropertyOp35
 70
     1
102
RTVSPropertyOp36
 70
     1
102
RTVSPropertyOp37
 70
     1
102
RTVSPropertyOp38
 70
     1
102
RTVSPropertyOp39
 70
     1
102
RTVSPropertyOp40
 70
     1
102
RTVSPropertyOp41
 70
     1
102
RTVSPropertyOp42
 70
     1
102
RTVSPropertyOp43
 70
     1
102
RTVSPropertyOp44
 70
     1
102
RTVSPropertyOp45
 70
     1
102
RTVSPropertyOp46
 70
     1
102
RTVSPropertyOp47
 70
     1
102
RTVSPropertyOp48
 70
     1
102
RTVSPropertyOp49
 70
     1
102
RTVSPropertyOp50
 70
     1
102
RTVSPropertyOp51
 70
     0
102
RTVSPropertyOp52
 70
     0
102
RTVSPropertyOp53
 70
     1
102
RTVSPropertyOp54
 70
     1
102
RTVSPropertyOp55
 70
     1
102
RTVSPropertyOp56
 70
     1
102
RTVSPropertyOp57
 70
     1
102
RTVSPost2010Prop28
280
     0
102
RTVSPost2010PropOp28
 70
     1
102
RTVSPost2010Prop29
280
     1
102
RTVSPost2010PropOp29
 70
     1
102
RTVSPost2010Prop30
280
     1
102
RTVSPost2010PropOp30
 70
     1
102
RTVSPost2010Prop31
280
     0
102
RTVSPost2010PropOp31
 70
     1
102
RTVSPost2010Prop32
280
     0
102
RTVSPost2010PropOp32
 70
     1
102
RTVSPost2010Prop33
280
     0
102
RTVSPost2010PropOp33
 70
     1
102
RTVSPost2010Prop34
280
     0
102
RTVSPost2010PropOp34
 70
     1
102
RTVSPost2010Prop35
280
     0
102
RTVSPost2010PropOp35
 70
     1
102
RTVSPost2010Prop36
280
     0
102
RTVSPost2010PropOp36
 70
     1
102
RTVSPost2010Prop37
 90
       50
102
RTVSPost2010PropOp37
 70
     1
102
RTVSPost2010Prop38
140
0.0
102
RTVSPost2010PropOp38
 70
     1
102
RTVSPost2010Prop39
140
1.0
102
RTVSPost2010PropOp39
 70
     1
102
RTVSPost2010Prop40
 90
        0
102
RTVSPost2010PropOp40
 70
     1
102
RTVSPost2010Prop41ColorIndex
 90
       18
102
RTVSPost2010Prop41ColorRGB
 90
        0
102
RTVSPost2010PropOp41
 70
     1
102
RTVSPost2010Prop42
 90
       50
102
RTVSPost2010PropOp42
 70
     1
102
RTVSPost2010Prop43
 90
        3
102
RTVSPost2010PropOp43
 70
     1
102
RTVSPost2010Prop44ColorIndex
 90
        5
102
RTVSPost2010Prop44ColorRGB
 90
      255
102
RTVSPost2010PropOp44
 70
     1
102
RTVSPost2010Prop45
280
     0
102
RTVSPost2010PropOp45
 70
     1
102
RTVSPost2010Prop46
 90
       50
102
RTVSPost2010PropOp46
 70
     1
102
RTVSPost2010Prop47
 90
       50
102
RTVSPost2010PropOp47
 70
     1
102
RTVSPost2010Prop48
 90
       50
102
RTVSPost2010PropOp48
 70
     1
102
RTVSPost2010Prop49
280
     0
102
RTVSPost2010PropOp49
 70
     1
102
RTVSPost2010Prop50
 90
       50
102
RTVSPost2010PropOp50
 70
     1
102
RTVSPost2010Prop51ColorIndex
 90
      256
102
RTVSPost2010Prop51ColorRGB
 90
-16777216
102
RTVSPost2010PropOp51
 70
     0
102
RTVSPost2010Prop52
140
1.0
102
RTVSPost2010PropOp52
 70
     0
102
RTVSPost2010Prop53
 90
        2
102
RTVSPost2010PropOp53
 70
     1
102
RTVSPost2010Prop54
  1
strokes_ogs.tif
102
RTVSPost2010PropOp54
 70
     1
102
RTVSPost2010Prop55
280
     0
102
RTVSPost2010PropOp55
 70
     1
102
RTVSPost2010Prop56
140
1.0
102
RTVSPost2010PropOp56
 70
     1
102
RTVSPost2010Prop57
140
1.0
102
RTVSPost2010PropOp57
 70
     1
  0
XRECORD
  5
4CA
102
{ACAD_REACTORS
330
4C9
102
}
330
4C9
100
AcDbXrecord
280
     1
102
RTVSPropertyOp0
 70
     1
102
RTVSPropertyOp1
 70
     1
102
RTVSPropertyOp2
 70
     1
102
RTVSPropertyOp3
 70
     1
102
RTVSPropertyOp4
 70
     1
102
RTVSPropertyOp5
 70
     1
102
RTVSPropertyOp6
 70
     1
102
RTVSPropertyOp7
 70
     1
102
RTVSPropertyOp8
 70
     1
102
RTVSPropertyOp9
 70
     1
102
RTVSPropertyOp10
 70
     1
102
RTVSPropertyOp11
 70
     1
102
RTVSPropertyOp12
 70
     1
102
RTVSPropertyOp13
 70
     1
102
RTVSPropertyOp14
 70
     1
102
RTVSPropertyOp15
 70
     1
102
RTVSPropertyOp16
 70
     1
102
RTVSPropertyOp17
 70
     1
102
RTVSPropertyOp18
 70
     1
102
RTVSPropertyOp19
 70
     1
102
RTVSPropertyOp20
 70
     1
102
RTVSPropertyOp21
 70
     1
102
RTVSPropertyOp22
 70
     1
102
RTVSPropertyOp23
 70
     1
102
RTVSPropertyOp24
 70
     1
102
RTVSPropertyOp25
 70
     1
102
RTVSPropertyOp26
 70
     1
102
RTVSPropertyOp27
 70
     1
102
RTVSPropertyOp28
 70
     1
102
RTVSPropertyOp29
 70
     1
102
RTVSPropertyOp30
 70
     1
102
RTVSPropertyOp31
 70
     1
102
RTVSPropertyOp32
 70
     1
102
RTVSPropertyOp33
 70
     1
102
RTVSPropertyOp34
 70
     1
102
RTVSPropertyOp35
 70
     1
102
RTVSPropertyOp36
 70
     1
102
RTVSPropertyOp37
 70
     1
102
RTVSPropertyOp38
 70
     1
102
RTVSPropertyOp39
 70
     1
102
RTVSPropertyOp40
 70
     1
102
RTVSPropertyOp41
 70
     1
102
RTVSPropertyOp42
 70
     1
102
RTVSPropertyOp43
 70
     1
102
RTVSPropertyOp44
 70
     1
102
RTVSPropertyOp45
 70
     1
102
RTVSPropertyOp46
 70
     1
102
RTVSPropertyOp47
 70
     1
102
RTVSPropertyOp48
 70
     1
102
RTVSPropertyOp49
 70
     1
102
RTVSPropertyOp50
 70
     1
102
RTVSPropertyOp51
 70
     0
102
RTVSPropertyOp52
 70
     0
102
RTVSPropertyOp53
 70
     1
102
RTVSPropertyOp54
 70
     1
102
RTVSPropertyOp55
 70
     1
102
RTVSPropertyOp56
 70
     1
102
RTVSPropertyOp57
 70
     1
102
RTVSPost2010Prop28
280
     0
102
RTVSPost2010PropOp28
 70
     1
102
RTVSPost2010Prop29
280
     1
102
RTVSPost2010PropOp29
 70
     1
102
RTVSPost2010Prop30
280
     1
102
RTVSPost2010PropOp30
 70
     1
102
RTVSPost2010Prop31
280
     0
102
RTVSPost2010PropOp31
 70
     1
102
RTVSPost2010Prop32
280
     0
102
RTVSPost2010PropOp32
 70
     1
102
RTVSPost2010Prop33
280
     0
102
RTVSPost2010PropOp33
 70
     1
102
RTVSPost2010Prop34
280
     0
102
RTVSPost2010PropOp34
 70
     1
102
RTVSPost2010Prop35
280
     0
102
RTVSPost2010PropOp35
 70
     1
102
RTVSPost2010Prop36
280
     0
102
RTVSPost2010PropOp36
 70
     1
102
RTVSPost2010Prop37
 90
       50
102
RTVSPost2010PropOp37
 70
     1
102
RTVSPost2010Prop38
140
0.0
102
RTVSPost2010PropOp38
 70
     1
102
RTVSPost2010Prop39
140
1.0
102
RTVSPost2010PropOp39
 70
     1
102
RTVSPost2010Prop40
 90
        0
102
RTVSPost2010PropOp40
 70
     1
102
RTVSPost2010Prop41ColorIndex
 90
       18
102
RTVSPost2010Prop41ColorRGB
 90
        0
102
RTVSPost2010PropOp41
 70
     1
102
RTVSPost2010Prop42
 90
       50
102
RTVSPost2010PropOp42
 70
     1
102
RTVSPost2010Prop43
 90
        3
102
RTVSPost2010PropOp43
 70
     1
102
RTVSPost2010Prop44ColorIndex
 90
        5
102
RTVSPost2010Prop44ColorRGB
 90
      255
102
RTVSPost2010PropOp44
 70
     1
102
RTVSPost2010Prop45
280
     0
102
RTVSPost2010PropOp45
 70
     1
102
RTVSPost2010Prop46
 90
       50
102
RTVSPost2010PropOp46
 70
     1
102
RTVSPost2010Prop47
 90
       50
102
RTVSPost2010PropOp47
 70
     1
102
RTVSPost2010Prop48
 90
       50
102
RTVSPost2010PropOp48
 70
     1
102
RTVSPost2010Prop49
280
     0
102
RTVSPost2010PropOp49
 70
     1
102
RTVSPost2010Prop50
 90
       50
102
RTVSPost2010PropOp50
 70
     1
102
RTVSPost2010Prop51ColorIndex
 90
      256
102
RTVSPost2010Prop51ColorRGB
 90
-16777216
102
RTVSPost2010PropOp51
 70
     0
102
RTVSPost2010Prop52
140
1.0
102
RTVSPost2010PropOp52
 70
     0
102
RTVSPost2010Prop53
 90
        2
102
RTVSPost2010PropOp53
 70
     1
102
RTVSPost2010Prop54
  1
strokes_ogs.tif
102
RTVSPost2010PropOp54
 70
     1
102
RTVSPost2010Prop55
280
     0
102
RTVSPost2010PropOp55
 70
     1
102
RTVSPost2010Prop56
140
1.0
102
RTVSPost2010PropOp56
 70
     1
102
RTVSPost2010Prop57
140
1.0
102
RTVSPost2010PropOp57
 70
     1
  0
XRECORD
  5
4CC
102
{ACAD_REACTORS
330
4CB
102
}
330
4CB
100
AcDbXrecord
280
     1
102
RTVSPropertyOp0
 70
     1
102
RTVSPropertyOp1
 70
     1
102
RTVSPropertyOp2
 70
     1
102
RTVSPropertyOp3
 70
     1
102
RTVSPropertyOp4
 70
     1
102
RTVSPropertyOp5
 70
     1
102
RTVSPropertyOp6
 70
     1
102
RTVSPropertyOp7
 70
     1
102
RTVSPropertyOp8
 70
     1
102
RTVSPropertyOp9
 70
     1
102
RTVSPropertyOp10
 70
     1
102
RTVSPropertyOp11
 70
     1
102
RTVSPropertyOp12
 70
     1
102
RTVSPropertyOp13
 70
     1
102
RTVSPropertyOp14
 70
     1
102
RTVSPropertyOp15
 70
     1
102
RTVSPropertyOp16
 70
     1
102
RTVSPropertyOp17
 70
     1
102
RTVSPropertyOp18
 70
     1
102
RTVSPropertyOp19
 70
     1
102
RTVSPropertyOp20
 70
     1
102
RTVSPropertyOp21
 70
     1
102
RTVSPropertyOp22
 70
     1
102
RTVSPropertyOp23
 70
     1
102
RTVSPropertyOp24
 70
     1
102
RTVSPropertyOp25
 70
     1
102
RTVSPropertyOp26
 70
     1
102
RTVSPropertyOp27
 70
     1
102
RTVSPropertyOp28
 70
     1
102
RTVSPropertyOp29
 70
     1
102
RTVSPropertyOp30
 70
     1
102
RTVSPropertyOp31
 70
     1
102
RTVSPropertyOp32
 70
     1
102
RTVSPropertyOp33
 70
     1
102
RTVSPropertyOp34
 70
     1
102
RTVSPropertyOp35
 70
     1
102
RTVSPropertyOp36
 70
     1
102
RTVSPropertyOp37
 70
     1
102
RTVSPropertyOp38
 70
     1
102
RTVSPropertyOp39
 70
     1
102
RTVSPropertyOp40
 70
     1
102
RTVSPropertyOp41
 70
     1
102
RTVSPropertyOp42
 70
     1
102
RTVSPropertyOp43
 70
     1
102
RTVSPropertyOp44
 70
     1
102
RTVSPropertyOp45
 70
     1
102
RTVSPropertyOp46
 70
     1
102
RTVSPropertyOp47
 70
     1
102
RTVSPropertyOp48
 70
     1
102
RTVSPropertyOp49
 70
     1
102
RTVSPropertyOp50
 70
     1
102
RTVSPropertyOp51
 70
     0
102
RTVSPropertyOp52
 70
     0
102
RTVSPropertyOp53
 70
     1
102
RTVSPropertyOp54
 70
     1
102
RTVSPropertyOp55
 70
     1
102
RTVSPropertyOp56
 70
     1
102
RTVSPropertyOp57
 70
     1
102
RTVSPost2010Prop28
280
     0
102
RTVSPost2010PropOp28
 70
     1
102
RTVSPost2010Prop29
280
     1
102
RTVSPost2010PropOp29
 70
     1
102
RTVSPost2010Prop30
280
     1
102
RTVSPost2010PropOp30
 70
     1
102
RTVSPost2010Prop31
280
     0
102
RTVSPost2010PropOp31
 70
     1
102
RTVSPost2010Prop32
280
     0
102
RTVSPost2010PropOp32
 70
     1
102
RTVSPost2010Prop33
280
     0
102
RTVSPost2010PropOp33
 70
     1
102
RTVSPost2010Prop34
280
     0
102
RTVSPost2010PropOp34
 70
     1
102
RTVSPost2010Prop35
280
     0
102
RTVSPost2010PropOp35
 70
     1
102
RTVSPost2010Prop36
280
     0
102
RTVSPost2010PropOp36
 70
     1
102
RTVSPost2010Prop37
 90
       50
102
RTVSPost2010PropOp37
 70
     1
102
RTVSPost2010Prop38
140
0.0
102
RTVSPost2010PropOp38
 70
     1
102
RTVSPost2010Prop39
140
1.0
102
RTVSPost2010PropOp39
 70
     1
102
RTVSPost2010Prop40
 90
        0
102
RTVSPost2010PropOp40
 70
     1
102
RTVSPost2010Prop41ColorIndex
 90
       18
102
RTVSPost2010Prop41ColorRGB
 90
        0
102
RTVSPost2010PropOp41
 70
     1
102
RTVSPost2010Prop42
 90
       50
102
RTVSPost2010PropOp42
 70
     1
102
RTVSPost2010Prop43
 90
        3
102
RTVSPost2010PropOp43
 70
     1
102
RTVSPost2010Prop44ColorIndex
 90
        5
102
RTVSPost2010Prop44ColorRGB
 90
      255
102
RTVSPost2010PropOp44
 70
     1
102
RTVSPost2010Prop45
280
     0
102
RTVSPost2010PropOp45
 70
     1
102
RTVSPost2010Prop46
 90
       50
102
RTVSPost2010PropOp46
 70
     1
102
RTVSPost2010Prop47
 90
       50
102
RTVSPost2010PropOp47
 70
     1
102
RTVSPost2010Prop48
 90
       50
102
RTVSPost2010PropOp48
 70
     1
102
RTVSPost2010Prop49
280
     0
102
RTVSPost2010PropOp49
 70
     1
102
RTVSPost2010Prop50
 90
       50
102
RTVSPost2010PropOp50
 70
     1
102
RTVSPost2010Prop51ColorIndex
 90
      256
102
RTVSPost2010Prop51ColorRGB
 90
-16777216
102
RTVSPost2010PropOp51
 70
     0
102
RTVSPost2010Prop52
140
1.0
102
RTVSPost2010PropOp52
 70
     0
102
RTVSPost2010Prop53
 90
        2
102
RTVSPost2010PropOp53
 70
     1
102
RTVSPost2010Prop54
  1
strokes_ogs.tif
102
RTVSPost2010PropOp54
 70
     1
102
RTVSPost2010Prop55
280
     0
102
RTVSPost2010PropOp55
 70
     1
102
RTVSPost2010Prop56
140
1.0
102
RTVSPost2010PropOp56
 70
     1
102
RTVSPost2010Prop57
140
1.0
102
RTVSPost2010PropOp57
 70
     1
  0
XRECORD
  5
4D2
102
{ACAD_REACTORS
330
4D1
102
}
330
4D1
100
AcDbXrecord
280
     1
102
RTVSPropertyOp0
 70
     1
102
RTVSPropertyOp1
 70
     1
102
RTVSPropertyOp2
 70
     1
102
RTVSPropertyOp3
 70
     1
102
RTVSPropertyOp4
 70
     1
102
RTVSPropertyOp5
 70
     1
102
RTVSPropertyOp6
 70
     1
102
RTVSPropertyOp7
 70
     1
102
RTVSPropertyOp8
 70
     1
102
RTVSPropertyOp9
 70
     1
102
RTVSPropertyOp10
 70
     1
102
RTVSPropertyOp11
 70
     1
102
RTVSPropertyOp12
 70
     1
102
RTVSPropertyOp13
 70
     1
102
RTVSPropertyOp14
 70
     1
102
RTVSPropertyOp15
 70
     1
102
RTVSPropertyOp16
 70
     1
102
RTVSPropertyOp17
 70
     1
102
RTVSPropertyOp18
 70
     1
102
RTVSPropertyOp19
 70
     1
102
RTVSPropertyOp20
 70
     1
102
RTVSPropertyOp21
 70
     1
102
RTVSPropertyOp22
 70
     1
102
RTVSPropertyOp23
 70
     1
102
RTVSPropertyOp24
 70
     1
102
RTVSPropertyOp25
 70
     1
102
RTVSPropertyOp26
 70
     1
102
RTVSPropertyOp27
 70
     1
102
RTVSPropertyOp28
 70
     1
102
RTVSPropertyOp29
 70
     1
102
RTVSPropertyOp30
 70
     1
102
RTVSPropertyOp31
 70
     1
102
RTVSPropertyOp32
 70
     1
102
RTVSPropertyOp33
 70
     1
102
RTVSPropertyOp34
 70
     1
102
RTVSPropertyOp35
 70
     1
102
RTVSPropertyOp36
 70
     1
102
RTVSPropertyOp37
 70
     1
102
RTVSPropertyOp38
 70
     1
102
RTVSPropertyOp39
 70
     1
102
RTVSPropertyOp40
 70
     1
102
RTVSPropertyOp41
 70
     1
102
RTVSPropertyOp42
 70
     1
102
RTVSPropertyOp43
 70
     1
102
RTVSPropertyOp44
 70
     1
102
RTVSPropertyOp45
 70
     1
102
RTVSPropertyOp46
 70
     1
102
RTVSPropertyOp47
 70
     1
102
RTVSPropertyOp48
 70
     1
102
RTVSPropertyOp49
 70
     1
102
RTVSPropertyOp50
 70
     1
102
RTVSPropertyOp51
 70
     0
102
RTVSPropertyOp52
 70
     0
102
RTVSPropertyOp53
 70
     1
102
RTVSPropertyOp54
 70
     1
102
RTVSPropertyOp55
 70
     1
102
RTVSPropertyOp56
 70
     1
102
RTVSPropertyOp57
 70
     1
102
RTVSPost2010Prop28
280
     0
102
RTVSPost2010PropOp28
 70
     1
102
RTVSPost2010Prop29
280
     1
102
RTVSPost2010PropOp29
 70
     1
102
RTVSPost2010Prop30
280
     1
102
RTVSPost2010PropOp30
 70
     1
102
RTVSPost2010Prop31
280
     0
102
RTVSPost2010PropOp31
 70
     1
102
RTVSPost2010Prop32
280
     0
102
RTVSPost2010PropOp32
 70
     1
102
RTVSPost2010Prop33
280
     0
102
RTVSPost2010PropOp33
 70
     1
102
RTVSPost2010Prop34
280
     0
102
RTVSPost2010PropOp34
 70
     1
102
RTVSPost2010Prop35
280
     0
102
RTVSPost2010PropOp35
 70
     1
102
RTVSPost2010Prop36
280
     0
102
RTVSPost2010PropOp36
 70
     1
102
RTVSPost2010Prop37
 90
       50
102
RTVSPost2010PropOp37
 70
     1
102
RTVSPost2010Prop38
140
0.0
102
RTVSPost2010PropOp38
 70
     1
102
RTVSPost2010Prop39
140
1.0
102
RTVSPost2010PropOp39
 70
     1
102
RTVSPost2010Prop40
 90
        0
102
RTVSPost2010PropOp40
 70
     1
102
RTVSPost2010Prop41ColorIndex
 90
       18
102
RTVSPost2010Prop41ColorRGB
 90
        0
102
RTVSPost2010PropOp41
 70
     1
102
RTVSPost2010Prop42
 90
       50
102
RTVSPost2010PropOp42
 70
     1
102
RTVSPost2010Prop43
 90
        3
102
RTVSPost2010PropOp43
 70
     1
102
RTVSPost2010Prop44ColorIndex
 90
        5
102
RTVSPost2010Prop44ColorRGB
 90
      255
102
RTVSPost2010PropOp44
 70
     1
102
RTVSPost2010Prop45
280
     0
102
RTVSPost2010PropOp45
 70
     1
102
RTVSPost2010Prop46
 90
       50
102
RTVSPost2010PropOp46
 70
     1
102
RTVSPost2010Prop47
 90
       50
102
RTVSPost2010PropOp47
 70
     1
102
RTVSPost2010Prop48
 90
       50
102
RTVSPost2010PropOp48
 70
     1
102
RTVSPost2010Prop49
280
     0
102
RTVSPost2010PropOp49
 70
     1
102
RTVSPost2010Prop50
 90
       50
102
RTVSPost2010PropOp50
 70
     1
102
RTVSPost2010Prop51ColorIndex
 90
      256
102
RTVSPost2010Prop51ColorRGB
 90
-16777216
102
RTVSPost2010PropOp51
 70
     0
102
RTVSPost2010Prop52
140
1.0
102
RTVSPost2010PropOp52
 70
     0
102
RTVSPost2010Prop53
 90
        2
102
RTVSPost2010PropOp53
 70
     1
102
RTVSPost2010Prop54
  1
strokes_ogs.tif
102
RTVSPost2010PropOp54
 70
     1
102
RTVSPost2010Prop55
280
     0
102
RTVSPost2010PropOp55
 70
     1
102
RTVSPost2010Prop56
140
1.0
102
RTVSPost2010PropOp56
 70
     1
102
RTVSPost2010Prop57
140
1.0
102
RTVSPost2010PropOp57
 70
     1
  0
XRECORD
  5
4E6
102
{ACAD_REACTORS
330
4E5
102
}
330
4E5
100
AcDbXrecord
280
     1
102
RTVSPropertyOp0
 70
     0
102
RTVSPropertyOp1
 70
     0
102
RTVSPropertyOp2
 70
     0
102
RTVSPropertyOp3
 70
     0
102
RTVSPropertyOp4
 70
     0
102
RTVSPropertyOp5
 70
     0
102
RTVSPropertyOp6
 70
     0
102
RTVSPropertyOp7
 70
     0
102
RTVSPropertyOp8
 70
     0
102
RTVSPropertyOp9
 70
     0
102
RTVSPropertyOp10
 70
     0
102
RTVSPropertyOp11
 70
     0
102
RTVSPropertyOp12
 70
     0
102
RTVSPropertyOp13
 70
     0
102
RTVSPropertyOp14
 70
     2
102
RTVSPropertyOp15
 70
     0
102
RTVSPropertyOp16
 70
     0
102
RTVSPropertyOp17
 70
     0
102
RTVSPropertyOp18
 70
     0
102
RTVSPropertyOp19
 70
     0
102
RTVSPropertyOp20
 70
     0
102
RTVSPropertyOp21
 70
     0
102
RTVSPropertyOp22
 70
     0
102
RTVSPropertyOp23
 70
     0
102
RTVSPropertyOp24
 70
     0
102
RTVSPropertyOp25
 70
     0
102
RTVSPropertyOp26
 70
     0
102
RTVSPropertyOp27
 70
     0
102
RTVSPropertyOp28
 70
     0
102
RTVSPropertyOp29
 70
     0
102
RTVSPropertyOp30
 70
     0
102
RTVSPropertyOp31
 70
     0
102
RTVSPropertyOp32
 70
     0
102
RTVSPropertyOp33
 70
     0
102
RTVSPropertyOp34
 70
     0
102
RTVSPropertyOp35
 70
     0
102
RTVSPropertyOp36
 70
     0
102
RTVSPropertyOp37
 70
     0
102
RTVSPropertyOp38
 70
     0
102
RTVSPropertyOp39
 70
     0
102
RTVSPropertyOp40
 70
     0
102
RTVSPropertyOp41
 70
     0
102
RTVSPropertyOp42
 70
     0
102
RTVSPropertyOp43
 70
     0
102
RTVSPropertyOp44
 70
     0
102
RTVSPropertyOp45
 70
     0
102
RTVSPropertyOp46
 70
     0
102
RTVSPropertyOp47
 70
     0
102
RTVSPropertyOp48
 70
     0
102
RTVSPropertyOp49
 70
     0
102
RTVSPropertyOp50
 70
     0
102
RTVSPropertyOp51
 70
     0
102
RTVSPropertyOp52
 70
     0
102
RTVSPropertyOp53
 70
     0
102
RTVSPropertyOp54
 70
     0
102
RTVSPropertyOp55
 70
     0
102
RTVSPropertyOp56
 70
     0
102
RTVSPropertyOp57
 70
     0
102
RTVSPost2010Prop28
280
     0
102
RTVSPost2010PropOp28
 70
     0
102
RTVSPost2010Prop29
280
     1
102
RTVSPost2010PropOp29
 70
     0
102
RTVSPost2010Prop30
280
     1
102
RTVSPost2010PropOp30
 70
     0
102
RTVSPost2010Prop31
280
     0
102
RTVSPost2010PropOp31
 70
     0
102
RTVSPost2010Prop32
280
     0
102
RTVSPost2010PropOp32
 70
     0
102
RTVSPost2010Prop33
280
     0
102
RTVSPost2010PropOp33
 70
     0
102
RTVSPost2010Prop34
280
     0
102
RTVSPost2010PropOp34
 70
     0
102
RTVSPost2010Prop35
280
     0
102
RTVSPost2010PropOp35
 70
     0
102
RTVSPost2010Prop36
280
     0
102
RTVSPost2010PropOp36
 70
     0
102
RTVSPost2010Prop37
 90
       50
102
RTVSPost2010PropOp37
 70
     0
102
RTVSPost2010Prop38
140
0.0
102
RTVSPost2010PropOp38
 70
     0
102
RTVSPost2010Prop39
140
1.0
102
RTVSPost2010PropOp39
 70
     0
102
RTVSPost2010Prop40
 90
        0
102
RTVSPost2010PropOp40
 70
     0
102
RTVSPost2010Prop41ColorIndex
 90
       18
102
RTVSPost2010Prop41ColorRGB
 90
        0
102
RTVSPost2010PropOp41
 70
     0
102
RTVSPost2010Prop42
 90
       50
102
RTVSPost2010PropOp42
 70
     0
102
RTVSPost2010Prop43
 90
        3
102
RTVSPost2010PropOp43
 70
     0
102
RTVSPost2010Prop44ColorIndex
 90
        5
102
RTVSPost2010Prop44ColorRGB
 90
      255
102
RTVSPost2010PropOp44
 70
     0
102
RTVSPost2010Prop45
280
     0
102
RTVSPost2010PropOp45
 70
     0
102
RTVSPost2010Prop46
 90
       50
102
RTVSPost2010PropOp46
 70
     0
102
RTVSPost2010Prop47
 90
       50
102
RTVSPost2010PropOp47
 70
     0
102
RTVSPost2010Prop48
 90
       50
102
RTVSPost2010PropOp48
 70
     0
102
RTVSPost2010Prop49
280
     0
102
RTVSPost2010PropOp49
 70
     0
102
RTVSPost2010Prop50
 90
       50
102
RTVSPost2010PropOp50
 70
     0
102
RTVSPost2010Prop51ColorIndex
 90
      256
102
RTVSPost2010Prop51ColorRGB
 90
-16777216
102
RTVSPost2010PropOp51
 70
     0
102
RTVSPost2010Prop52
140
1.0
102
RTVSPost2010PropOp52
 70
     0
102
RTVSPost2010Prop53
 90
        2
102
RTVSPost2010PropOp53
 70
     0
102
RTVSPost2010Prop54
  1
strokes_ogs.tif
102
RTVSPost2010PropOp54
 70
     0
102
RTVSPost2010Prop55
280
     0
102
RTVSPost2010PropOp55
 70
     0
102
RTVSPost2010Prop56
140
1.0
102
RTVSPost2010PropOp56
 70
     0
102
RTVSPost2010Prop57
140
1.0
102
RTVSPost2010PropOp57
 70
     0
  0
XRECORD
  5
4E0
102
{ACAD_REACTORS
330
4DF
102
}
330
4DF
100
AcDbXrecord
280
     1
102
RTVSPropertyOp0
 70
     1
102
RTVSPropertyOp1
 70
     1
102
RTVSPropertyOp2
 70
     1
102
RTVSPropertyOp3
 70
     1
102
RTVSPropertyOp4
 70
     1
102
RTVSPropertyOp5
 70
     1
102
RTVSPropertyOp6
 70
     1
102
RTVSPropertyOp7
 70
     1
102
RTVSPropertyOp8
 70
     1
102
RTVSPropertyOp9
 70
     1
102
RTVSPropertyOp10
 70
     1
102
RTVSPropertyOp11
 70
     1
102
RTVSPropertyOp12
 70
     1
102
RTVSPropertyOp13
 70
     1
102
RTVSPropertyOp14
 70
     1
102
RTVSPropertyOp15
 70
     1
102
RTVSPropertyOp16
 70
     1
102
RTVSPropertyOp17
 70
     1
102
RTVSPropertyOp18
 70
     1
102
RTVSPropertyOp19
 70
     1
102
RTVSPropertyOp20
 70
     1
102
RTVSPropertyOp21
 70
     1
102
RTVSPropertyOp22
 70
     1
102
RTVSPropertyOp23
 70
     1
102
RTVSPropertyOp24
 70
     1
102
RTVSPropertyOp25
 70
     1
102
RTVSPropertyOp26
 70
     1
102
RTVSPropertyOp27
 70
     1
102
RTVSPropertyOp28
 70
     1
102
RTVSPropertyOp29
 70
     1
102
RTVSPropertyOp30
 70
     1
102
RTVSPropertyOp31
 70
     1
102
RTVSPropertyOp32
 70
     1
102
RTVSPropertyOp33
 70
     1
102
RTVSPropertyOp34
 70
     1
102
RTVSPropertyOp35
 70
     1
102
RTVSPropertyOp36
 70
     1
102
RTVSPropertyOp37
 70
     1
102
RTVSPropertyOp38
 70
     1
102
RTVSPropertyOp39
 70
     1
102
RTVSPropertyOp40
 70
     1
102
RTVSPropertyOp41
 70
     1
102
RTVSPropertyOp42
 70
     1
102
RTVSPropertyOp43
 70
     1
102
RTVSPropertyOp44
 70
     1
102
RTVSPropertyOp45
 70
     1
102
RTVSPropertyOp46
 70
     1
102
RTVSPropertyOp47
 70
     1
102
RTVSPropertyOp48
 70
     1
102
RTVSPropertyOp49
 70
     1
102
RTVSPropertyOp50
 70
     1
102
RTVSPropertyOp51
 70
     0
102
RTVSPropertyOp52
 70
     0
102
RTVSPropertyOp53
 70
     1
102
RTVSPropertyOp54
 70
     1
102
RTVSPropertyOp55
 70
     1
102
RTVSPropertyOp56
 70
     1
102
RTVSPropertyOp57
 70
     1
102
RTVSPost2010Prop28
280
     0
102
RTVSPost2010PropOp28
 70
     1
102
RTVSPost2010Prop29
280
     1
102
RTVSPost2010PropOp29
 70
     1
102
RTVSPost2010Prop30
280
     1
102
RTVSPost2010PropOp30
 70
     1
102
RTVSPost2010Prop31
280
     0
102
RTVSPost2010PropOp31
 70
     1
102
RTVSPost2010Prop32
280
     0
102
RTVSPost2010PropOp32
 70
     1
102
RTVSPost2010Prop33
280
     0
102
RTVSPost2010PropOp33
 70
     1
102
RTVSPost2010Prop34
280
     0
102
RTVSPost2010PropOp34
 70
     1
102
RTVSPost2010Prop35
280
     0
102
RTVSPost2010PropOp35
 70
     1
102
RTVSPost2010Prop36
280
     0
102
RTVSPost2010PropOp36
 70
     1
102
RTVSPost2010Prop37
 90
       50
102
RTVSPost2010PropOp37
 70
     1
102
RTVSPost2010Prop38
140
0.0
102
RTVSPost2010PropOp38
 70
     1
102
RTVSPost2010Prop39
140
1.0
102
RTVSPost2010PropOp39
 70
     1
102
RTVSPost2010Prop40
 90
        0
102
RTVSPost2010PropOp40
 70
     1
102
RTVSPost2010Prop41ColorIndex
 90
       18
102
RTVSPost2010Prop41ColorRGB
 90
        0
102
RTVSPost2010PropOp41
 70
     1
102
RTVSPost2010Prop42
 90
       50
102
RTVSPost2010PropOp42
 70
     1
102
RTVSPost2010Prop43
 90
        3
102
RTVSPost2010PropOp43
 70
     1
102
RTVSPost2010Prop44ColorIndex
 90
        5
102
RTVSPost2010Prop44ColorRGB
 90
      255
102
RTVSPost2010PropOp44
 70
     1
102
RTVSPost2010Prop45
280
     0
102
RTVSPost2010PropOp45
 70
     1
102
RTVSPost2010Prop46
 90
       50
102
RTVSPost2010PropOp46
 70
     1
102
RTVSPost2010Prop47
 90
       50
102
RTVSPost2010PropOp47
 70
     1
102
RTVSPost2010Prop48
 90
       50
102
RTVSPost2010PropOp48
 70
     1
102
RTVSPost2010Prop49
280
     0
102
RTVSPost2010PropOp49
 70
     1
102
RTVSPost2010Prop50
 90
       50
102
RTVSPost2010PropOp50
 70
     1
102
RTVSPost2010Prop51ColorIndex
 90
      256
102
RTVSPost2010Prop51ColorRGB
 90
-16777216
102
RTVSPost2010PropOp51
 70
     0
102
RTVSPost2010Prop52
140
1.0
102
RTVSPost2010PropOp52
 70
     0
102
RTVSPost2010Prop53
 90
        2
102
RTVSPost2010PropOp53
 70
     1
102
RTVSPost2010Prop54
  1
strokes_ogs.tif
102
RTVSPost2010PropOp54
 70
     1
102
RTVSPost2010Prop55
280
     0
102
RTVSPost2010PropOp55
 70
     1
102
RTVSPost2010Prop56
140
1.0
102
RTVSPost2010PropOp56
 70
     1
102
RTVSPost2010Prop57
140
1.0
102
RTVSPost2010PropOp57
 70
     1
  0
XRECORD
  5
4E8
102
{ACAD_REACTORS
330
4E7
102
}
330
4E7
100
AcDbXrecord
280
     1
102
RTVSPropertyOp0
 70
     0
102
RTVSPropertyOp1
 70
     0
102
RTVSPropertyOp2
 70
     0
102
RTVSPropertyOp3
 70
     0
102
RTVSPropertyOp4
 70
     0
102
RTVSPropertyOp5
 70
     0
102
RTVSPropertyOp6
 70
     0
102
RTVSPropertyOp7
 70
     0
102
RTVSPropertyOp8
 70
     0
102
RTVSPropertyOp9
 70
     0
102
RTVSPropertyOp10
 70
     0
102
RTVSPropertyOp11
 70
     0
102
RTVSPropertyOp12
 70
     0
102
RTVSPropertyOp13
 70
     0
102
RTVSPropertyOp14
 70
     2
102
RTVSPropertyOp15
 70
     0
102
RTVSPropertyOp16
 70
     0
102
RTVSPropertyOp17
 70
     0
102
RTVSPropertyOp18
 70
     0
102
RTVSPropertyOp19
 70
     0
102
RTVSPropertyOp20
 70
     0
102
RTVSPropertyOp21
 70
     0
102
RTVSPropertyOp22
 70
     0
102
RTVSPropertyOp23
 70
     0
102
RTVSPropertyOp24
 70
     0
102
RTVSPropertyOp25
 70
     0
102
RTVSPropertyOp26
 70
     0
102
RTVSPropertyOp27
 70
     0
102
RTVSPropertyOp28
 70
     0
102
RTVSPropertyOp29
 70
     0
102
RTVSPropertyOp30
 70
     0
102
RTVSPropertyOp31
 70
     0
102
RTVSPropertyOp32
 70
     0
102
RTVSPropertyOp33
 70
     0
102
RTVSPropertyOp34
 70
     0
102
RTVSPropertyOp35
 70
     0
102
RTVSPropertyOp36
 70
     0
102
RTVSPropertyOp37
 70
     0
102
RTVSPropertyOp38
 70
     0
102
RTVSPropertyOp39
 70
     0
102
RTVSPropertyOp40
 70
     0
102
RTVSPropertyOp41
 70
     0
102
RTVSPropertyOp42
 70
     0
102
RTVSPropertyOp43
 70
     0
102
RTVSPropertyOp44
 70
     0
102
RTVSPropertyOp45
 70
     0
102
RTVSPropertyOp46
 70
     0
102
RTVSPropertyOp47
 70
     0
102
RTVSPropertyOp48
 70
     0
102
RTVSPropertyOp49
 70
     0
102
RTVSPropertyOp50
 70
     0
102
RTVSPropertyOp51
 70
     0
102
RTVSPropertyOp52
 70
     0
102
RTVSPropertyOp53
 70
     0
102
RTVSPropertyOp54
 70
     0
102
RTVSPropertyOp55
 70
     0
102
RTVSPropertyOp56
 70
     0
102
RTVSPropertyOp57
 70
     0
102
RTVSPost2010Prop28
280
     0
102
RTVSPost2010PropOp28
 70
     0
102
RTVSPost2010Prop29
280
     1
102
RTVSPost2010PropOp29
 70
     0
102
RTVSPost2010Prop30
280
     1
102
RTVSPost2010PropOp30
 70
     0
102
RTVSPost2010Prop31
280
     0
102
RTVSPost2010PropOp31
 70
     0
102
RTVSPost2010Prop32
280
     0
102
RTVSPost2010PropOp32
 70
     0
102
RTVSPost2010Prop33
280
     0
102
RTVSPost2010PropOp33
 70
     0
102
RTVSPost2010Prop34
280
     0
102
RTVSPost2010PropOp34
 70
     0
102
RTVSPost2010Prop35
280
     0
102
RTVSPost2010PropOp35
 70
     0
102
RTVSPost2010Prop36
280
     0
102
RTVSPost2010PropOp36
 70
     0
102
RTVSPost2010Prop37
 90
       50
102
RTVSPost2010PropOp37
 70
     0
102
RTVSPost2010Prop38
140
0.0
102
RTVSPost2010PropOp38
 70
     0
102
RTVSPost2010Prop39
140
1.0
102
RTVSPost2010PropOp39
 70
     0
102
RTVSPost2010Prop40
 90
        0
102
RTVSPost2010PropOp40
 70
     0
102
RTVSPost2010Prop41ColorIndex
 90
       18
102
RTVSPost2010Prop41ColorRGB
 90
        0
102
RTVSPost2010PropOp41
 70
     0
102
RTVSPost2010Prop42
 90
       50
102
RTVSPost2010PropOp42
 70
     0
102
RTVSPost2010Prop43
 90
        3
102
RTVSPost2010PropOp43
 70
     0
102
RTVSPost2010Prop44ColorIndex
 90
        5
102
RTVSPost2010Prop44ColorRGB
 90
      255
102
RTVSPost2010PropOp44
 70
     0
102
RTVSPost2010Prop45
280
     0
102
RTVSPost2010PropOp45
 70
     0
102
RTVSPost2010Prop46
 90
       50
102
RTVSPost2010PropOp46
 70
     0
102
RTVSPost2010Prop47
 90
       50
102
RTVSPost2010PropOp47
 70
     0
102
RTVSPost2010Prop48
 90
       50
102
RTVSPost2010PropOp48
 70
     0
102
RTVSPost2010Prop49
280
     0
102
RTVSPost2010PropOp49
 70
     0
102
RTVSPost2010Prop50
 90
       50
102
RTVSPost2010PropOp50
 70
     0
102
RTVSPost2010Prop51ColorIndex
 90
      256
102
RTVSPost2010Prop51ColorRGB
 90
-16777216
102
RTVSPost2010PropOp51
 70
     0
102
RTVSPost2010Prop52
140
1.0
102
RTVSPost2010PropOp52
 70
     0
102
RTVSPost2010Prop53
 90
        2
102
RTVSPost2010PropOp53
 70
     0
102
RTVSPost2010Prop54
  1
strokes_ogs.tif
102
RTVSPost2010PropOp54
 70
     0
102
RTVSPost2010Prop55
280
     0
102
RTVSPost2010PropOp55
 70
     0
102
RTVSPost2010Prop56
140
1.0
102
RTVSPost2010PropOp56
 70
     0
102
RTVSPost2010Prop57
140
1.0
102
RTVSPost2010PropOp57
 70
     0
  0
XRECORD
  5
4D6
102
{ACAD_REACTORS
330
4D5
102
}
330
4D5
100
AcDbXrecord
280
     1
102
RTVSPropertyOp0
 70
     1
102
RTVSPropertyOp1
 70
     1
102
RTVSPropertyOp2
 70
     1
102
RTVSPropertyOp3
 70
     1
102
RTVSPropertyOp4
 70
     1
102
RTVSPropertyOp5
 70
     1
102
RTVSPropertyOp6
 70
     1
102
RTVSPropertyOp7
 70
     1
102
RTVSPropertyOp8
 70
     1
102
RTVSPropertyOp9
 70
     1
102
RTVSPropertyOp10
 70
     1
102
RTVSPropertyOp11
 70
     1
102
RTVSPropertyOp12
 70
     1
102
RTVSPropertyOp13
 70
     1
102
RTVSPropertyOp14
 70
     1
102
RTVSPropertyOp15
 70
     1
102
RTVSPropertyOp16
 70
     1
102
RTVSPropertyOp17
 70
     1
102
RTVSPropertyOp18
 70
     1
102
RTVSPropertyOp19
 70
     1
102
RTVSPropertyOp20
 70
     1
102
RTVSPropertyOp21
 70
     1
102
RTVSPropertyOp22
 70
     1
102
RTVSPropertyOp23
 70
     1
102
RTVSPropertyOp24
 70
     1
102
RTVSPropertyOp25
 70
     1
102
RTVSPropertyOp26
 70
     1
102
RTVSPropertyOp27
 70
     1
102
RTVSPropertyOp28
 70
     1
102
RTVSPropertyOp29
 70
     1
102
RTVSPropertyOp30
 70
     1
102
RTVSPropertyOp31
 70
     1
102
RTVSPropertyOp32
 70
     1
102
RTVSPropertyOp33
 70
     1
102
RTVSPropertyOp34
 70
     1
102
RTVSPropertyOp35
 70
     1
102
RTVSPropertyOp36
 70
     1
102
RTVSPropertyOp37
 70
     1
102
RTVSPropertyOp38
 70
     1
102
RTVSPropertyOp39
 70
     1
102
RTVSPropertyOp40
 70
     1
102
RTVSPropertyOp41
 70
     1
102
RTVSPropertyOp42
 70
     1
102
RTVSPropertyOp43
 70
     1
102
RTVSPropertyOp44
 70
     1
102
RTVSPropertyOp45
 70
     1
102
RTVSPropertyOp46
 70
     1
102
RTVSPropertyOp47
 70
     1
102
RTVSPropertyOp48
 70
     1
102
RTVSPropertyOp49
 70
     1
102
RTVSPropertyOp50
 70
     1
102
RTVSPropertyOp51
 70
     0
102
RTVSPropertyOp52
 70
     0
102
RTVSPropertyOp53
 70
     1
102
RTVSPropertyOp54
 70
     1
102
RTVSPropertyOp55
 70
     1
102
RTVSPropertyOp56
 70
     1
102
RTVSPropertyOp57
 70
     1
102
RTVSPost2010Prop28
280
     0
102
RTVSPost2010PropOp28
 70
     1
102
RTVSPost2010Prop29
280
     1
102
RTVSPost2010PropOp29
 70
     1
102
RTVSPost2010Prop30
280
     1
102
RTVSPost2010PropOp30
 70
     1
102
RTVSPost2010Prop31
280
     0
102
RTVSPost2010PropOp31
 70
     1
102
RTVSPost2010Prop32
280
     0
102
RTVSPost2010PropOp32
 70
     1
102
RTVSPost2010Prop33
280
     0
102
RTVSPost2010PropOp33
 70
     1
102
RTVSPost2010Prop34
280
     0
102
RTVSPost2010PropOp34
 70
     1
102
RTVSPost2010Prop35
280
     0
102
RTVSPost2010PropOp35
 70
     1
102
RTVSPost2010Prop36
280
     0
102
RTVSPost2010PropOp36
 70
     1
102
RTVSPost2010Prop37
 90
       50
102
RTVSPost2010PropOp37
 70
     1
102
RTVSPost2010Prop38
140
0.0
102
RTVSPost2010PropOp38
 70
     1
102
RTVSPost2010Prop39
140
1.0
102
RTVSPost2010PropOp39
 70
     1
102
RTVSPost2010Prop40
 90
        0
102
RTVSPost2010PropOp40
 70
     1
102
RTVSPost2010Prop41ColorIndex
 90
       18
102
RTVSPost2010Prop41ColorRGB
 90
        0
102
RTVSPost2010PropOp41
 70
     1
102
RTVSPost2010Prop42
 90
       50
102
RTVSPost2010PropOp42
 70
     1
102
RTVSPost2010Prop43
 90
        3
102
RTVSPost2010PropOp43
 70
     1
102
RTVSPost2010Prop44ColorIndex
 90
        5
102
RTVSPost2010Prop44ColorRGB
 90
      255
102
RTVSPost2010PropOp44
 70
     1
102
RTVSPost2010Prop45
280
     0
102
RTVSPost2010PropOp45
 70
     1
102
RTVSPost2010Prop46
 90
       50
102
RTVSPost2010PropOp46
 70
     1
102
RTVSPost2010Prop47
 90
       50
102
RTVSPost2010PropOp47
 70
     1
102
RTVSPost2010Prop48
 90
       50
102
RTVSPost2010PropOp48
 70
     1
102
RTVSPost2010Prop49
280
     0
102
RTVSPost2010PropOp49
 70
     1
102
RTVSPost2010Prop50
 90
       50
102
RTVSPost2010PropOp50
 70
     1
102
RTVSPost2010Prop51ColorIndex
 90
      256
102
RTVSPost2010Prop51ColorRGB
 90
-16777216
102
RTVSPost2010PropOp51
 70
     0
102
RTVSPost2010Prop52
140
1.0
102
RTVSPost2010PropOp52
 70
     0
102
RTVSPost2010Prop53
 90
        2
102
RTVSPost2010PropOp53
 70
     1
102
RTVSPost2010Prop54
  1
strokes_ogs.tif
102
RTVSPost2010PropOp54
 70
     1
102
RTVSPost2010Prop55
280
     0
102
RTVSPost2010PropOp55
 70
     1
102
RTVSPost2010Prop56
140
1.0
102
RTVSPost2010PropOp56
 70
     1
102
RTVSPost2010Prop57
140
1.0
102
RTVSPost2010PropOp57
 70
     1
  0
XRECORD
  5
4F4
102
{ACAD_REACTORS
330
4F3
102
}
330
4F3
100
AcDbXrecord
280
     1
102
RTVSPropertyOp0
 70
     1
102
RTVSPropertyOp1
 70
     1
102
RTVSPropertyOp2
 70
     1
102
RTVSPropertyOp3
 70
     1
102
RTVSPropertyOp4
 70
     1
102
RTVSPropertyOp5
 70
     1
102
RTVSPropertyOp6
 70
     1
102
RTVSPropertyOp7
 70
     1
102
RTVSPropertyOp8
 70
     1
102
RTVSPropertyOp9
 70
     1
102
RTVSPropertyOp10
 70
     1
102
RTVSPropertyOp11
 70
     1
102
RTVSPropertyOp12
 70
     1
102
RTVSPropertyOp13
 70
     1
102
RTVSPropertyOp14
 70
     1
102
RTVSPropertyOp15
 70
     1
102
RTVSPropertyOp16
 70
     1
102
RTVSPropertyOp17
 70
     1
102
RTVSPropertyOp18
 70
     1
102
RTVSPropertyOp19
 70
     1
102
RTVSPropertyOp20
 70
     1
102
RTVSPropertyOp21
 70
     1
102
RTVSPropertyOp22
 70
     1
102
RTVSPropertyOp23
 70
     1
102
RTVSPropertyOp24
 70
     1
102
RTVSPropertyOp25
 70
     1
102
RTVSPropertyOp26
 70
     1
102
RTVSPropertyOp27
 70
     1
102
RTVSPropertyOp28
 70
     1
102
RTVSPropertyOp29
 70
     1
102
RTVSPropertyOp30
 70
     1
102
RTVSPropertyOp31
 70
     1
102
RTVSPropertyOp32
 70
     1
102
RTVSPropertyOp33
 70
     1
102
RTVSPropertyOp34
 70
     1
102
RTVSPropertyOp35
 70
     1
102
RTVSPropertyOp36
 70
     1
102
RTVSPropertyOp37
 70
     1
102
RTVSPropertyOp38
 70
     1
102
RTVSPropertyOp39
 70
     1
102
RTVSPropertyOp40
 70
     1
102
RTVSPropertyOp41
 70
     1
102
RTVSPropertyOp42
 70
     1
102
RTVSPropertyOp43
 70
     1
102
RTVSPropertyOp44
 70
     1
102
RTVSPropertyOp45
 70
     1
102
RTVSPropertyOp46
 70
     1
102
RTVSPropertyOp47
 70
     1
102
RTVSPropertyOp48
 70
     1
102
RTVSPropertyOp49
 70
     1
102
RTVSPropertyOp50
 70
     1
102
RTVSPropertyOp51
 70
     0
102
RTVSPropertyOp52
 70
     0
102
RTVSPropertyOp53
 70
     1
102
RTVSPropertyOp54
 70
     1
102
RTVSPropertyOp55
 70
     1
102
RTVSPropertyOp56
 70
     1
102
RTVSPropertyOp57
 70
     1
102
RTVSPost2010Prop28
280
     0
102
RTVSPost2010PropOp28
 70
     1
102
RTVSPost2010Prop29
280
     1
102
RTVSPost2010PropOp29
 70
     1
102
RTVSPost2010Prop30
280
     1
102
RTVSPost2010PropOp30
 70
     1
102
RTVSPost2010Prop31
280
     0
102
RTVSPost2010PropOp31
 70
     1
102
RTVSPost2010Prop32
280
     0
102
RTVSPost2010PropOp32
 70
     1
102
RTVSPost2010Prop33
280
     0
102
RTVSPost2010PropOp33
 70
     1
102
RTVSPost2010Prop34
280
     0
102
RTVSPost2010PropOp34
 70
     1
102
RTVSPost2010Prop35
280
     0
102
RTVSPost2010PropOp35
 70
     1
102
RTVSPost2010Prop36
280
     0
102
RTVSPost2010PropOp36
 70
     1
102
RTVSPost2010Prop37
 90
       50
102
RTVSPost2010PropOp37
 70
     1
102
RTVSPost2010Prop38
140
0.0
102
RTVSPost2010PropOp38
 70
     1
102
RTVSPost2010Prop39
140
1.0
102
RTVSPost2010PropOp39
 70
     1
102
RTVSPost2010Prop40
 90
        0
102
RTVSPost2010PropOp40
 70
     1
102
RTVSPost2010Prop41ColorIndex
 90
       18
102
RTVSPost2010Prop41ColorRGB
 90
        0
102
RTVSPost2010PropOp41
 70
     1
102
RTVSPost2010Prop42
 90
       50
102
RTVSPost2010PropOp42
 70
     1
102
RTVSPost2010Prop43
 90
        3
102
RTVSPost2010PropOp43
 70
     1
102
RTVSPost2010Prop44ColorIndex
 90
        5
102
RTVSPost2010Prop44ColorRGB
 90
      255
102
RTVSPost2010PropOp44
 70
     1
102
RTVSPost2010Prop45
280
     0
102
RTVSPost2010PropOp45
 70
     1
102
RTVSPost2010Prop46
 90
       50
102
RTVSPost2010PropOp46
 70
     1
102
RTVSPost2010Prop47
 90
       50
102
RTVSPost2010PropOp47
 70
     1
102
RTVSPost2010Prop48
 90
       50
102
RTVSPost2010PropOp48
 70
     1
102
RTVSPost2010Prop49
280
     0
102
RTVSPost2010PropOp49
 70
     1
102
RTVSPost2010Prop50
 90
       50
102
RTVSPost2010PropOp50
 70
     1
102
RTVSPost2010Prop51ColorIndex
 90
      256
102
RTVSPost2010Prop51ColorRGB
 90
-16777216
102
RTVSPost2010PropOp51
 70
     0
102
RTVSPost2010Prop52
140
1.0
102
RTVSPost2010PropOp52
 70
     0
102
RTVSPost2010Prop53
 90
        2
102
RTVSPost2010PropOp53
 70
     1
102
RTVSPost2010Prop54
  1
strokes_ogs.tif
102
RTVSPost2010PropOp54
 70
     1
102
RTVSPost2010Prop55
280
     0
102
RTVSPost2010PropOp55
 70
     1
102
RTVSPost2010Prop56
140
1.0
102
RTVSPost2010PropOp56
 70
     1
102
RTVSPost2010Prop57
140
1.0
102
RTVSPost2010PropOp57
 70
     1
  0
XRECORD
  5
4F2
102
{ACAD_REACTORS
330
4F1
102
}
330
4F1
100
AcDbXrecord
280
     1
102
RTVSPropertyOp0
 70
     1
102
RTVSPropertyOp1
 70
     1
102
RTVSPropertyOp2
 70
     1
102
RTVSPropertyOp3
 70
     1
102
RTVSPropertyOp4
 70
     1
102
RTVSPropertyOp5
 70
     1
102
RTVSPropertyOp6
 70
     1
102
RTVSPropertyOp7
 70
     1
102
RTVSPropertyOp8
 70
     1
102
RTVSPropertyOp9
 70
     1
102
RTVSPropertyOp10
 70
     1
102
RTVSPropertyOp11
 70
     1
102
RTVSPropertyOp12
 70
     1
102
RTVSPropertyOp13
 70
     1
102
RTVSPropertyOp14
 70
     1
102
RTVSPropertyOp15
 70
     1
102
RTVSPropertyOp16
 70
     1
102
RTVSPropertyOp17
 70
     1
102
RTVSPropertyOp18
 70
     1
102
RTVSPropertyOp19
 70
     1
102
RTVSPropertyOp20
 70
     1
102
RTVSPropertyOp21
 70
     1
102
RTVSPropertyOp22
 70
     1
102
RTVSPropertyOp23
 70
     1
102
RTVSPropertyOp24
 70
     1
102
RTVSPropertyOp25
 70
     1
102
RTVSPropertyOp26
 70
     1
102
RTVSPropertyOp27
 70
     1
102
RTVSPropertyOp28
 70
     1
102
RTVSPropertyOp29
 70
     1
102
RTVSPropertyOp30
 70
     1
102
RTVSPropertyOp31
 70
     1
102
RTVSPropertyOp32
 70
     1
102
RTVSPropertyOp33
 70
     1
102
RTVSPropertyOp34
 70
     1
102
RTVSPropertyOp35
 70
     1
102
RTVSPropertyOp36
 70
     1
102
RTVSPropertyOp37
 70
     1
102
RTVSPropertyOp38
 70
     1
102
RTVSPropertyOp39
 70
     1
102
RTVSPropertyOp40
 70
     1
102
RTVSPropertyOp41
 70
     1
102
RTVSPropertyOp42
 70
     1
102
RTVSPropertyOp43
 70
     1
102
RTVSPropertyOp44
 70
     1
102
RTVSPropertyOp45
 70
     1
102
RTVSPropertyOp46
 70
     1
102
RTVSPropertyOp47
 70
     1
102
RTVSPropertyOp48
 70
     1
102
RTVSPropertyOp49
 70
     1
102
RTVSPropertyOp50
 70
     1
102
RTVSPropertyOp51
 70
     0
102
RTVSPropertyOp52
 70
     0
102
RTVSPropertyOp53
 70
     1
102
RTVSPropertyOp54
 70
     1
102
RTVSPropertyOp55
 70
     1
102
RTVSPropertyOp56
 70
     1
102
RTVSPropertyOp57
 70
     1
102
RTVSPost2010Prop28
280
     0
102
RTVSPost2010PropOp28
 70
     1
102
RTVSPost2010Prop29
280
     1
102
RTVSPost2010PropOp29
 70
     1
102
RTVSPost2010Prop30
280
     1
102
RTVSPost2010PropOp30
 70
     1
102
RTVSPost2010Prop31
280
     0
102
RTVSPost2010PropOp31
 70
     1
102
RTVSPost2010Prop32
280
     0
102
RTVSPost2010PropOp32
 70
     1
102
RTVSPost2010Prop33
280
     0
102
RTVSPost2010PropOp33
 70
     1
102
RTVSPost2010Prop34
280
     0
102
RTVSPost2010PropOp34
 70
     1
102
RTVSPost2010Prop35
280
     0
102
RTVSPost2010PropOp35
 70
     1
102
RTVSPost2010Prop36
280
     0
102
RTVSPost2010PropOp36
 70
     1
102
RTVSPost2010Prop37
 90
       50
102
RTVSPost2010PropOp37
 70
     1
102
RTVSPost2010Prop38
140
0.0
102
RTVSPost2010PropOp38
 70
     1
102
RTVSPost2010Prop39
140
1.0
102
RTVSPost2010PropOp39
 70
     1
102
RTVSPost2010Prop40
 90
        0
102
RTVSPost2010PropOp40
 70
     1
102
RTVSPost2010Prop41ColorIndex
 90
       18
102
RTVSPost2010Prop41ColorRGB
 90
        0
102
RTVSPost2010PropOp41
 70
     1
102
RTVSPost2010Prop42
 90
       50
102
RTVSPost2010PropOp42
 70
     1
102
RTVSPost2010Prop43
 90
        3
102
RTVSPost2010PropOp43
 70
     1
102
RTVSPost2010Prop44ColorIndex
 90
        5
102
RTVSPost2010Prop44ColorRGB
 90
      255
102
RTVSPost2010PropOp44
 70
     1
102
RTVSPost2010Prop45
280
     0
102
RTVSPost2010PropOp45
 70
     1
102
RTVSPost2010Prop46
 90
       50
102
RTVSPost2010PropOp46
 70
     1
102
RTVSPost2010Prop47
 90
       50
102
RTVSPost2010PropOp47
 70
     1
102
RTVSPost2010Prop48
 90
       50
102
RTVSPost2010PropOp48
 70
     1
102
RTVSPost2010Prop49
280
     0
102
RTVSPost2010PropOp49
 70
     1
102
RTVSPost2010Prop50
 90
       50
102
RTVSPost2010PropOp50
 70
     1
102
RTVSPost2010Prop51ColorIndex
 90
      256
102
RTVSPost2010Prop51ColorRGB
 90
-16777216
102
RTVSPost2010PropOp51
 70
     0
102
RTVSPost2010Prop52
140
1.0
102
RTVSPost2010PropOp52
 70
     0
102
RTVSPost2010Prop53
 90
        2
102
RTVSPost2010PropOp53
 70
     1
102
RTVSPost2010Prop54
  1
strokes_ogs.tif
102
RTVSPost2010PropOp54
 70
     1
102
RTVSPost2010Prop55
280
     0
102
RTVSPost2010PropOp55
 70
     1
102
RTVSPost2010Prop56
140
1.0
102
RTVSPost2010PropOp56
 70
     1
102
RTVSPost2010Prop57
140
1.0
102
RTVSPost2010PropOp57
 70
     1
  0
XRECORD
  5
4EC
102
{ACAD_REACTORS
330
4EB
102
}
330
4EB
100
AcDbXrecord
280
     1
102
RTVSPropertyOp0
 70
     1
102
RTVSPropertyOp1
 70
     1
102
RTVSPropertyOp2
 70
     1
102
RTVSPropertyOp3
 70
     1
102
RTVSPropertyOp4
 70
     1
102
RTVSPropertyOp5
 70
     1
102
RTVSPropertyOp6
 70
     1
102
RTVSPropertyOp7
 70
     1
102
RTVSPropertyOp8
 70
     1
102
RTVSPropertyOp9
 70
     1
102
RTVSPropertyOp10
 70
     1
102
RTVSPropertyOp11
 70
     1
102
RTVSPropertyOp12
 70
     1
102
RTVSPropertyOp13
 70
     1
102
RTVSPropertyOp14
 70
     1
102
RTVSPropertyOp15
 70
     1
102
RTVSPropertyOp16
 70
     1
102
RTVSPropertyOp17
 70
     1
102
RTVSPropertyOp18
 70
     1
102
RTVSPropertyOp19
 70
     1
102
RTVSPropertyOp20
 70
     1
102
RTVSPropertyOp21
 70
     1
102
RTVSPropertyOp22
 70
     1
102
RTVSPropertyOp23
 70
     1
102
RTVSPropertyOp24
 70
     1
102
RTVSPropertyOp25
 70
     1
102
RTVSPropertyOp26
 70
     1
102
RTVSPropertyOp27
 70
     1
102
RTVSPropertyOp28
 70
     1
102
RTVSPropertyOp29
 70
     1
102
RTVSPropertyOp30
 70
     1
102
RTVSPropertyOp31
 70
     1
102
RTVSPropertyOp32
 70
     1
102
RTVSPropertyOp33
 70
     1
102
RTVSPropertyOp34
 70
     1
102
RTVSPropertyOp35
 70
     1
102
RTVSPropertyOp36
 70
     1
102
RTVSPropertyOp37
 70
     1
102
RTVSPropertyOp38
 70
     1
102
RTVSPropertyOp39
 70
     1
102
RTVSPropertyOp40
 70
     1
102
RTVSPropertyOp41
 70
     1
102
RTVSPropertyOp42
 70
     1
102
RTVSPropertyOp43
 70
     1
102
RTVSPropertyOp44
 70
     1
102
RTVSPropertyOp45
 70
     1
102
RTVSPropertyOp46
 70
     1
102
RTVSPropertyOp47
 70
     1
102
RTVSPropertyOp48
 70
     1
102
RTVSPropertyOp49
 70
     1
102
RTVSPropertyOp50
 70
     1
102
RTVSPropertyOp51
 70
     0
102
RTVSPropertyOp52
 70
     0
102
RTVSPropertyOp53
 70
     1
102
RTVSPropertyOp54
 70
     1
102
RTVSPropertyOp55
 70
     1
102
RTVSPropertyOp56
 70
     1
102
RTVSPropertyOp57
 70
     1
102
RTVSPost2010Prop28
280
     0
102
RTVSPost2010PropOp28
 70
     1
102
RTVSPost2010Prop29
280
     1
102
RTVSPost2010PropOp29
 70
     1
102
RTVSPost2010Prop30
280
     1
102
RTVSPost2010PropOp30
 70
     1
102
RTVSPost2010Prop31
280
     0
102
RTVSPost2010PropOp31
 70
     1
102
RTVSPost2010Prop32
280
     0
102
RTVSPost2010PropOp32
 70
     1
102
RTVSPost2010Prop33
280
     0
102
RTVSPost2010PropOp33
 70
     1
102
RTVSPost2010Prop34
280
     0
102
RTVSPost2010PropOp34
 70
     1
102
RTVSPost2010Prop35
280
     0
102
RTVSPost2010PropOp35
 70
     1
102
RTVSPost2010Prop36
280
     0
102
RTVSPost2010PropOp36
 70
     1
102
RTVSPost2010Prop37
 90
       50
102
RTVSPost2010PropOp37
 70
     1
102
RTVSPost2010Prop38
140
0.0
102
RTVSPost2010PropOp38
 70
     1
102
RTVSPost2010Prop39
140
1.0
102
RTVSPost2010PropOp39
 70
     1
102
RTVSPost2010Prop40
 90
        0
102
RTVSPost2010PropOp40
 70
     1
102
RTVSPost2010Prop41ColorIndex
 90
       18
102
RTVSPost2010Prop41ColorRGB
 90
        0
102
RTVSPost2010PropOp41
 70
     1
102
RTVSPost2010Prop42
 90
       50
102
RTVSPost2010PropOp42
 70
     1
102
RTVSPost2010Prop43
 90
        3
102
RTVSPost2010PropOp43
 70
     1
102
RTVSPost2010Prop44ColorIndex
 90
        5
102
RTVSPost2010Prop44ColorRGB
 90
      255
102
RTVSPost2010PropOp44
 70
     1
102
RTVSPost2010Prop45
280
     0
102
RTVSPost2010PropOp45
 70
     1
102
RTVSPost2010Prop46
 90
       50
102
RTVSPost2010PropOp46
 70
     1
102
RTVSPost2010Prop47
 90
       50
102
RTVSPost2010PropOp47
 70
     1
102
RTVSPost2010Prop48
 90
       50
102
RTVSPost2010PropOp48
 70
     1
102
RTVSPost2010Prop49
280
     0
102
RTVSPost2010PropOp49
 70
     1
102
RTVSPost2010Prop50
 90
       50
102
RTVSPost2010PropOp50
 70
     1
102
RTVSPost2010Prop51ColorIndex
 90
      256
102
RTVSPost2010Prop51ColorRGB
 90
-16777216
102
RTVSPost2010PropOp51
 70
     0
102
RTVSPost2010Prop52
140
1.0
102
RTVSPost2010PropOp52
 70
     0
102
RTVSPost2010Prop53
 90
        2
102
RTVSPost2010PropOp53
 70
     1
102
RTVSPost2010Prop54
  1
strokes_ogs.tif
102
RTVSPost2010PropOp54
 70
     1
102
RTVSPost2010Prop55
280
     0
102
RTVSPost2010PropOp55
 70
     1
102
RTVSPost2010Prop56
140
1.0
102
RTVSPost2010PropOp56
 70
     1
102
RTVSPost2010Prop57
140
1.0
102
RTVSPost2010PropOp57
 70
     1
  0
XRECORD
  5
4EE
102
{ACAD_REACTORS
330
4ED
102
}
330
4ED
100
AcDbXrecord
280
     1
102
RTVSPropertyOp0
 70
     1
102
RTVSPropertyOp1
 70
     1
102
RTVSPropertyOp2
 70
     1
102
RTVSPropertyOp3
 70
     1
102
RTVSPropertyOp4
 70
     1
102
RTVSPropertyOp5
 70
     1
102
RTVSPropertyOp6
 70
     1
102
RTVSPropertyOp7
 70
     1
102
RTVSPropertyOp8
 70
     1
102
RTVSPropertyOp9
 70
     1
102
RTVSPropertyOp10
 70
     1
102
RTVSPropertyOp11
 70
     1
102
RTVSPropertyOp12
 70
     1
102
RTVSPropertyOp13
 70
     1
102
RTVSPropertyOp14
 70
     1
102
RTVSPropertyOp15
 70
     1
102
RTVSPropertyOp16
 70
     1
102
RTVSPropertyOp17
 70
     1
102
RTVSPropertyOp18
 70
     1
102
RTVSPropertyOp19
 70
     1
102
RTVSPropertyOp20
 70
     1
102
RTVSPropertyOp21
 70
     1
102
RTVSPropertyOp22
 70
     1
102
RTVSPropertyOp23
 70
     1
102
RTVSPropertyOp24
 70
     1
102
RTVSPropertyOp25
 70
     1
102
RTVSPropertyOp26
 70
     1
102
RTVSPropertyOp27
 70
     1
102
RTVSPropertyOp28
 70
     1
102
RTVSPropertyOp29
 70
     1
102
RTVSPropertyOp30
 70
     1
102
RTVSPropertyOp31
 70
     1
102
RTVSPropertyOp32
 70
     1
102
RTVSPropertyOp33
 70
     1
102
RTVSPropertyOp34
 70
     1
102
RTVSPropertyOp35
 70
     1
102
RTVSPropertyOp36
 70
     1
102
RTVSPropertyOp37
 70
     1
102
RTVSPropertyOp38
 70
     1
102
RTVSPropertyOp39
 70
     1
102
RTVSPropertyOp40
 70
     1
102
RTVSPropertyOp41
 70
     1
102
RTVSPropertyOp42
 70
     1
102
RTVSPropertyOp43
 70
     1
102
RTVSPropertyOp44
 70
     1
102
RTVSPropertyOp45
 70
     1
102
RTVSPropertyOp46
 70
     1
102
RTVSPropertyOp47
 70
     1
102
RTVSPropertyOp48
 70
     1
102
RTVSPropertyOp49
 70
     1
102
RTVSPropertyOp50
 70
     1
102
RTVSPropertyOp51
 70
     0
102
RTVSPropertyOp52
 70
     0
102
RTVSPropertyOp53
 70
     1
102
RTVSPropertyOp54
 70
     1
102
RTVSPropertyOp55
 70
     1
102
RTVSPropertyOp56
 70
     1
102
RTVSPropertyOp57
 70
     1
102
RTVSPost2010Prop28
280
     0
102
RTVSPost2010PropOp28
 70
     1
102
RTVSPost2010Prop29
280
     1
102
RTVSPost2010PropOp29
 70
     1
102
RTVSPost2010Prop30
280
     1
102
RTVSPost2010PropOp30
 70
     1
102
RTVSPost2010Prop31
280
     0
102
RTVSPost2010PropOp31
 70
     1
102
RTVSPost2010Prop32
280
     0
102
RTVSPost2010PropOp32
 70
     1
102
RTVSPost2010Prop33
280
     0
102
RTVSPost2010PropOp33
 70
     1
102
RTVSPost2010Prop34
280
     0
102
RTVSPost2010PropOp34
 70
     1
102
RTVSPost2010Prop35
280
     0
102
RTVSPost2010PropOp35
 70
     1
102
RTVSPost2010Prop36
280
     0
102
RTVSPost2010PropOp36
 70
     1
102
RTVSPost2010Prop37
 90
       50
102
RTVSPost2010PropOp37
 70
     1
102
RTVSPost2010Prop38
140
0.0
102
RTVSPost2010PropOp38
 70
     1
102
RTVSPost2010Prop39
140
1.0
102
RTVSPost2010PropOp39
 70
     1
102
RTVSPost2010Prop40
 90
        0
102
RTVSPost2010PropOp40
 70
     1
102
RTVSPost2010Prop41ColorIndex
 90
       18
102
RTVSPost2010Prop41ColorRGB
 90
        0
102
RTVSPost2010PropOp41
 70
     1
102
RTVSPost2010Prop42
 90
       50
102
RTVSPost2010PropOp42
 70
     1
102
RTVSPost2010Prop43
 90
        3
102
RTVSPost2010PropOp43
 70
     1
102
RTVSPost2010Prop44ColorIndex
 90
        5
102
RTVSPost2010Prop44ColorRGB
 90
      255
102
RTVSPost2010PropOp44
 70
     1
102
RTVSPost2010Prop45
280
     0
102
RTVSPost2010PropOp45
 70
     1
102
RTVSPost2010Prop46
 90
       50
102
RTVSPost2010PropOp46
 70
     1
102
RTVSPost2010Prop47
 90
       50
102
RTVSPost2010PropOp47
 70
     1
102
RTVSPost2010Prop48
 90
       50
102
RTVSPost2010PropOp48
 70
     1
102
RTVSPost2010Prop49
280
     0
102
RTVSPost2010PropOp49
 70
     1
102
RTVSPost2010Prop50
 90
       50
102
RTVSPost2010PropOp50
 70
     1
102
RTVSPost2010Prop51ColorIndex
 90
      256
102
RTVSPost2010Prop51ColorRGB
 90
-16777216
102
RTVSPost2010PropOp51
 70
     0
102
RTVSPost2010Prop52
140
1.0
102
RTVSPost2010PropOp52
 70
     0
102
RTVSPost2010Prop53
 90
        2
102
RTVSPost2010PropOp53
 70
     1
102
RTVSPost2010Prop54
  1
strokes_ogs.tif
102
RTVSPost2010PropOp54
 70
     1
102
RTVSPost2010Prop55
280
     0
102
RTVSPost2010PropOp55
 70
     1
102
RTVSPost2010Prop56
140
1.0
102
RTVSPost2010PropOp56
 70
     1
102
RTVSPost2010Prop57
140
1.0
102
RTVSPost2010PropOp57
 70
     1
  0
XRECORD
  5
4DE
102
{ACAD_REACTORS
330
4DD
102
}
330
4DD
100
AcDbXrecord
280
     1
102
RTVSPropertyOp0
 70
     1
102
RTVSPropertyOp1
 70
     1
102
RTVSPropertyOp2
 70
     1
102
RTVSPropertyOp3
 70
     1
102
RTVSPropertyOp4
 70
     1
102
RTVSPropertyOp5
 70
     1
102
RTVSPropertyOp6
 70
     1
102
RTVSPropertyOp7
 70
     1
102
RTVSPropertyOp8
 70
     1
102
RTVSPropertyOp9
 70
     1
102
RTVSPropertyOp10
 70
     1
102
RTVSPropertyOp11
 70
     1
102
RTVSPropertyOp12
 70
     1
102
RTVSPropertyOp13
 70
     1
102
RTVSPropertyOp14
 70
     1
102
RTVSPropertyOp15
 70
     1
102
RTVSPropertyOp16
 70
     1
102
RTVSPropertyOp17
 70
     1
102
RTVSPropertyOp18
 70
     1
102
RTVSPropertyOp19
 70
     1
102
RTVSPropertyOp20
 70
     1
102
RTVSPropertyOp21
 70
     1
102
RTVSPropertyOp22
 70
     1
102
RTVSPropertyOp23
 70
     1
102
RTVSPropertyOp24
 70
     1
102
RTVSPropertyOp25
 70
     1
102
RTVSPropertyOp26
 70
     1
102
RTVSPropertyOp27
 70
     1
102
RTVSPropertyOp28
 70
     1
102
RTVSPropertyOp29
 70
     1
102
RTVSPropertyOp30
 70
     1
102
RTVSPropertyOp31
 70
     1
102
RTVSPropertyOp32
 70
     1
102
RTVSPropertyOp33
 70
     1
102
RTVSPropertyOp34
 70
     1
102
RTVSPropertyOp35
 70
     1
102
RTVSPropertyOp36
 70
     1
102
RTVSPropertyOp37
 70
     1
102
RTVSPropertyOp38
 70
     1
102
RTVSPropertyOp39
 70
     1
102
RTVSPropertyOp40
 70
     1
102
RTVSPropertyOp41
 70
     1
102
RTVSPropertyOp42
 70
     1
102
RTVSPropertyOp43
 70
     1
102
RTVSPropertyOp44
 70
     1
102
RTVSPropertyOp45
 70
     1
102
RTVSPropertyOp46
 70
     1
102
RTVSPropertyOp47
 70
     1
102
RTVSPropertyOp48
 70
     1
102
RTVSPropertyOp49
 70
     1
102
RTVSPropertyOp50
 70
     1
102
RTVSPropertyOp51
 70
     0
102
RTVSPropertyOp52
 70
     0
102
RTVSPropertyOp53
 70
     1
102
RTVSPropertyOp54
 70
     1
102
RTVSPropertyOp55
 70
     1
102
RTVSPropertyOp56
 70
     1
102
RTVSPropertyOp57
 70
     1
102
RTVSPost2010Prop28
280
     0
102
RTVSPost2010PropOp28
 70
     1
102
RTVSPost2010Prop29
280
     1
102
RTVSPost2010PropOp29
 70
     1
102
RTVSPost2010Prop30
280
     1
102
RTVSPost2010PropOp30
 70
     1
102
RTVSPost2010Prop31
280
     0
102
RTVSPost2010PropOp31
 70
     1
102
RTVSPost2010Prop32
280
     0
102
RTVSPost2010PropOp32
 70
     1
102
RTVSPost2010Prop33
280
     0
102
RTVSPost2010PropOp33
 70
     1
102
RTVSPost2010Prop34
280
     0
102
RTVSPost2010PropOp34
 70
     1
102
RTVSPost2010Prop35
280
     0
102
RTVSPost2010PropOp35
 70
     1
102
RTVSPost2010Prop36
280
     0
102
RTVSPost2010PropOp36
 70
     1
102
RTVSPost2010Prop37
 90
       50
102
RTVSPost2010PropOp37
 70
     1
102
RTVSPost2010Prop38
140
0.0
102
RTVSPost2010PropOp38
 70
     1
102
RTVSPost2010Prop39
140
1.0
102
RTVSPost2010PropOp39
 70
     1
102
RTVSPost2010Prop40
 90
        0
102
RTVSPost2010PropOp40
 70
     1
102
RTVSPost2010Prop41ColorIndex
 90
       18
102
RTVSPost2010Prop41ColorRGB
 90
        0
102
RTVSPost2010PropOp41
 70
     1
102
RTVSPost2010Prop42
 90
       50
102
RTVSPost2010PropOp42
 70
     1
102
RTVSPost2010Prop43
 90
        3
102
RTVSPost2010PropOp43
 70
     1
102
RTVSPost2010Prop44ColorIndex
 90
        5
102
RTVSPost2010Prop44ColorRGB
 90
      255
102
RTVSPost2010PropOp44
 70
     1
102
RTVSPost2010Prop45
280
     0
102
RTVSPost2010PropOp45
 70
     1
102
RTVSPost2010Prop46
 90
       50
102
RTVSPost2010PropOp46
 70
     1
102
RTVSPost2010Prop47
 90
       50
102
RTVSPost2010PropOp47
 70
     1
102
RTVSPost2010Prop48
 90
       50
102
RTVSPost2010PropOp48
 70
     1
102
RTVSPost2010Prop49
280
     0
102
RTVSPost2010PropOp49
 70
     1
102
RTVSPost2010Prop50
 90
       50
102
RTVSPost2010PropOp50
 70
     1
102
RTVSPost2010Prop51ColorIndex
 90
      256
102
RTVSPost2010Prop51ColorRGB
 90
-16777216
102
RTVSPost2010PropOp51
 70
     0
102
RTVSPost2010Prop52
140
1.0
102
RTVSPost2010PropOp52
 70
     0
102
RTVSPost2010Prop53
 90
        2
102
RTVSPost2010PropOp53
 70
     1
102
RTVSPost2010Prop54
  1
strokes_ogs.tif
102
RTVSPost2010PropOp54
 70
     1
102
RTVSPost2010Prop55
280
     0
102
RTVSPost2010PropOp55
 70
     1
102
RTVSPost2010Prop56
140
1.0
102
RTVSPost2010PropOp56
 70
     1
102
RTVSPost2010Prop57
140
1.0
102
RTVSPost2010PropOp57
 70
     1
  0
XRECORD
  5
4D0
102
{ACAD_REACTORS
330
4CF
102
}
330
4CF
100
AcDbXrecord
280
     1
102
RTVSPropertyOp0
 70
     1
102
RTVSPropertyOp1
 70
     1
102
RTVSPropertyOp2
 70
     1
102
RTVSPropertyOp3
 70
     1
102
RTVSPropertyOp4
 70
     1
102
RTVSPropertyOp5
 70
     1
102
RTVSPropertyOp6
 70
     1
102
RTVSPropertyOp7
 70
     1
102
RTVSPropertyOp8
 70
     1
102
RTVSPropertyOp9
 70
     1
102
RTVSPropertyOp10
 70
     1
102
RTVSPropertyOp11
 70
     1
102
RTVSPropertyOp12
 70
     1
102
RTVSPropertyOp13
 70
     1
102
RTVSPropertyOp14
 70
     1
102
RTVSPropertyOp15
 70
     1
102
RTVSPropertyOp16
 70
     1
102
RTVSPropertyOp17
 70
     1
102
RTVSPropertyOp18
 70
     1
102
RTVSPropertyOp19
 70
     1
102
RTVSPropertyOp20
 70
     1
102
RTVSPropertyOp21
 70
     1
102
RTVSPropertyOp22
 70
     1
102
RTVSPropertyOp23
 70
     1
102
RTVSPropertyOp24
 70
     1
102
RTVSPropertyOp25
 70
     1
102
RTVSPropertyOp26
 70
     1
102
RTVSPropertyOp27
 70
     1
102
RTVSPropertyOp28
 70
     1
102
RTVSPropertyOp29
 70
     1
102
RTVSPropertyOp30
 70
     1
102
RTVSPropertyOp31
 70
     1
102
RTVSPropertyOp32
 70
     1
102
RTVSPropertyOp33
 70
     1
102
RTVSPropertyOp34
 70
     1
102
RTVSPropertyOp35
 70
     1
102
RTVSPropertyOp36
 70
     1
102
RTVSPropertyOp37
 70
     1
102
RTVSPropertyOp38
 70
     1
102
RTVSPropertyOp39
 70
     1
102
RTVSPropertyOp40
 70
     1
102
RTVSPropertyOp41
 70
     1
102
RTVSPropertyOp42
 70
     1
102
RTVSPropertyOp43
 70
     1
102
RTVSPropertyOp44
 70
     1
102
RTVSPropertyOp45
 70
     1
102
RTVSPropertyOp46
 70
     1
102
RTVSPropertyOp47
 70
     1
102
RTVSPropertyOp48
 70
     1
102
RTVSPropertyOp49
 70
     1
102
RTVSPropertyOp50
 70
     1
102
RTVSPropertyOp51
 70
     0
102
RTVSPropertyOp52
 70
     0
102
RTVSPropertyOp53
 70
     1
102
RTVSPropertyOp54
 70
     1
102
RTVSPropertyOp55
 70
     1
102
RTVSPropertyOp56
 70
     1
102
RTVSPropertyOp57
 70
     1
102
RTVSPost2010Prop28
280
     0
102
RTVSPost2010PropOp28
 70
     1
102
RTVSPost2010Prop29
280
     1
102
RTVSPost2010PropOp29
 70
     1
102
RTVSPost2010Prop30
280
     1
102
RTVSPost2010PropOp30
 70
     1
102
RTVSPost2010Prop31
280
     0
102
RTVSPost2010PropOp31
 70
     1
102
RTVSPost2010Prop32
280
     0
102
RTVSPost2010PropOp32
 70
     1
102
RTVSPost2010Prop33
280
     0
102
RTVSPost2010PropOp33
 70
     1
102
RTVSPost2010Prop34
280
     0
102
RTVSPost2010PropOp34
 70
     1
102
RTVSPost2010Prop35
280
     0
102
RTVSPost2010PropOp35
 70
     1
102
RTVSPost2010Prop36
280
     0
102
RTVSPost2010PropOp36
 70
     1
102
RTVSPost2010Prop37
 90
       50
102
RTVSPost2010PropOp37
 70
     1
102
RTVSPost2010Prop38
140
0.0
102
RTVSPost2010PropOp38
 70
     1
102
RTVSPost2010Prop39
140
1.0
102
RTVSPost2010PropOp39
 70
     1
102
RTVSPost2010Prop40
 90
        0
102
RTVSPost2010PropOp40
 70
     1
102
RTVSPost2010Prop41ColorIndex
 90
       18
102
RTVSPost2010Prop41ColorRGB
 90
        0
102
RTVSPost2010PropOp41
 70
     1
102
RTVSPost2010Prop42
 90
       50
102
RTVSPost2010PropOp42
 70
     1
102
RTVSPost2010Prop43
 90
        3
102
RTVSPost2010PropOp43
 70
     1
102
RTVSPost2010Prop44ColorIndex
 90
        5
102
RTVSPost2010Prop44ColorRGB
 90
      255
102
RTVSPost2010PropOp44
 70
     1
102
RTVSPost2010Prop45
280
     0
102
RTVSPost2010PropOp45
 70
     1
102
RTVSPost2010Prop46
 90
       50
102
RTVSPost2010PropOp46
 70
     1
102
RTVSPost2010Prop47
 90
       50
102
RTVSPost2010PropOp47
 70
     1
102
RTVSPost2010Prop48
 90
       50
102
RTVSPost2010PropOp48
 70
     1
102
RTVSPost2010Prop49
280
     0
102
RTVSPost2010PropOp49
 70
     1
102
RTVSPost2010Prop50
 90
       50
102
RTVSPost2010PropOp50
 70
     1
102
RTVSPost2010Prop51ColorIndex
 90
      256
102
RTVSPost2010Prop51ColorRGB
 90
-16777216
102
RTVSPost2010PropOp51
 70
     0
102
RTVSPost2010Prop52
140
1.0
102
RTVSPost2010PropOp52
 70
     0
102
RTVSPost2010Prop53
 90
        2
102
RTVSPost2010PropOp53
 70
     1
102
RTVSPost2010Prop54
  1
strokes_ogs.tif
102
RTVSPost2010PropOp54
 70
     1
102
RTVSPost2010Prop55
280
     0
102
RTVSPost2010PropOp55
 70
     1
102
RTVSPost2010Prop56
140
1.0
102
RTVSPost2010PropOp56
 70
     1
102
RTVSPost2010Prop57
140
1.0
102
RTVSPost2010PropOp57
 70
     1
  0
XRECORD
  5
4F0
102
{ACAD_REACTORS
330
4EF
102
}
330
4EF
100
AcDbXrecord
280
     1
102
RTVSPropertyOp0
 70
     1
102
RTVSPropertyOp1
 70
     1
102
RTVSPropertyOp2
 70
     1
102
RTVSPropertyOp3
 70
     1
102
RTVSPropertyOp4
 70
     1
102
RTVSPropertyOp5
 70
     1
102
RTVSPropertyOp6
 70
     1
102
RTVSPropertyOp7
 70
     1
102
RTVSPropertyOp8
 70
     1
102
RTVSPropertyOp9
 70
     1
102
RTVSPropertyOp10
 70
     1
102
RTVSPropertyOp11
 70
     1
102
RTVSPropertyOp12
 70
     1
102
RTVSPropertyOp13
 70
     1
102
RTVSPropertyOp14
 70
     1
102
RTVSPropertyOp15
 70
     1
102
RTVSPropertyOp16
 70
     1
102
RTVSPropertyOp17
 70
     1
102
RTVSPropertyOp18
 70
     1
102
RTVSPropertyOp19
 70
     1
102
RTVSPropertyOp20
 70
     1
102
RTVSPropertyOp21
 70
     1
102
RTVSPropertyOp22
 70
     1
102
RTVSPropertyOp23
 70
     1
102
RTVSPropertyOp24
 70
     1
102
RTVSPropertyOp25
 70
     1
102
RTVSPropertyOp26
 70
     1
102
RTVSPropertyOp27
 70
     1
102
RTVSPropertyOp28
 70
     1
102
RTVSPropertyOp29
 70
     1
102
RTVSPropertyOp30
 70
     1
102
RTVSPropertyOp31
 70
     1
102
RTVSPropertyOp32
 70
     1
102
RTVSPropertyOp33
 70
     1
102
RTVSPropertyOp34
 70
     1
102
RTVSPropertyOp35
 70
     1
102
RTVSPropertyOp36
 70
     1
102
RTVSPropertyOp37
 70
     1
102
RTVSPropertyOp38
 70
     1
102
RTVSPropertyOp39
 70
     1
102
RTVSPropertyOp40
 70
     1
102
RTVSPropertyOp41
 70
     1
102
RTVSPropertyOp42
 70
     1
102
RTVSPropertyOp43
 70
     1
102
RTVSPropertyOp44
 70
     1
102
RTVSPropertyOp45
 70
     1
102
RTVSPropertyOp46
 70
     1
102
RTVSPropertyOp47
 70
     1
102
RTVSPropertyOp48
 70
     1
102
RTVSPropertyOp49
 70
     1
102
RTVSPropertyOp50
 70
     1
102
RTVSPropertyOp51
 70
     0
102
RTVSPropertyOp52
 70
     0
102
RTVSPropertyOp53
 70
     1
102
RTVSPropertyOp54
 70
     1
102
RTVSPropertyOp55
 70
     1
102
RTVSPropertyOp56
 70
     1
102
RTVSPropertyOp57
 70
     1
102
RTVSPost2010Prop28
280
     0
102
RTVSPost2010PropOp28
 70
     1
102
RTVSPost2010Prop29
280
     1
102
RTVSPost2010PropOp29
 70
     1
102
RTVSPost2010Prop30
280
     1
102
RTVSPost2010PropOp30
 70
     1
102
RTVSPost2010Prop31
280
     0
102
RTVSPost2010PropOp31
 70
     1
102
RTVSPost2010Prop32
280
     0
102
RTVSPost2010PropOp32
 70
     1
102
RTVSPost2010Prop33
280
     0
102
RTVSPost2010PropOp33
 70
     1
102
RTVSPost2010Prop34
280
     0
102
RTVSPost2010PropOp34
 70
     1
102
RTVSPost2010Prop35
280
     0
102
RTVSPost2010PropOp35
 70
     1
102
RTVSPost2010Prop36
280
     0
102
RTVSPost2010PropOp36
 70
     1
102
RTVSPost2010Prop37
 90
       50
102
RTVSPost2010PropOp37
 70
     1
102
RTVSPost2010Prop38
140
0.0
102
RTVSPost2010PropOp38
 70
     1
102
RTVSPost2010Prop39
140
1.0
102
RTVSPost2010PropOp39
 70
     1
102
RTVSPost2010Prop40
 90
        0
102
RTVSPost2010PropOp40
 70
     1
102
RTVSPost2010Prop41ColorIndex
 90
       18
102
RTVSPost2010Prop41ColorRGB
 90
        0
102
RTVSPost2010PropOp41
 70
     1
102
RTVSPost2010Prop42
 90
       50
102
RTVSPost2010PropOp42
 70
     1
102
RTVSPost2010Prop43
 90
        3
102
RTVSPost2010PropOp43
 70
     1
102
RTVSPost2010Prop44ColorIndex
 90
        5
102
RTVSPost2010Prop44ColorRGB
 90
      255
102
RTVSPost2010PropOp44
 70
     1
102
RTVSPost2010Prop45
280
     0
102
RTVSPost2010PropOp45
 70
     1
102
RTVSPost2010Prop46
 90
       50
102
RTVSPost2010PropOp46
 70
     1
102
RTVSPost2010Prop47
 90
       50
102
RTVSPost2010PropOp47
 70
     1
102
RTVSPost2010Prop48
 90
       50
102
RTVSPost2010PropOp48
 70
     1
102
RTVSPost2010Prop49
280
     0
102
RTVSPost2010PropOp49
 70
     1
102
RTVSPost2010Prop50
 90
       50
102
RTVSPost2010PropOp50
 70
     1
102
RTVSPost2010Prop51ColorIndex
 90
      256
102
RTVSPost2010Prop51ColorRGB
 90
-16777216
102
RTVSPost2010PropOp51
 70
     0
102
RTVSPost2010Prop52
140
1.0
102
RTVSPost2010PropOp52
 70
     0
102
RTVSPost2010Prop53
 90
        2
102
RTVSPost2010PropOp53
 70
     1
102
RTVSPost2010Prop54
  1
strokes_ogs.tif
102
RTVSPost2010PropOp54
 70
     1
102
RTVSPost2010Prop55
280
     0
102
RTVSPost2010PropOp55
 70
     1
102
RTVSPost2010Prop56
140
1.0
102
RTVSPost2010PropOp56
 70
     1
102
RTVSPost2010Prop57
140
1.0
102
RTVSPost2010PropOp57
 70
     1
  0
ENDSEC
  0
EOF
