  0
SECTION
  2
HEADER
  9
$ACADVER
  1
AC1018
  9
$ACADMAINTVER
 70
     0
  9
$DWGCODEPAGE
  3
ANSI_1252
  9
$INSBASE
 10
0.0
 20
0.0
 30
0.0
  9
$EXTMIN
 10
-0.5
 20
-0.5
 30
-0.5
  9
$EXTMAX
 10
5.0
 20
5.0
 30
5.0
  9
$LIMMIN
 10
-0.5
 20
-0.5
  9
$LIMMAX
 10
5.0
 20
5.0
  9
$ORTHOMODE
 70
     0
  9
$REGENMODE
 70
     1
  9
$FILLMODE
 70
     1
  9
$QTEXTMODE
 70
     0
  9
$MIRRTEXT
 70
     1
  9
$LTSCALE
 40
1.0
  9
$ATTMODE
 70
     1
  9
$TEXTSIZE
 40
0.2
  9
$TRACEWID
 40
0.05
  9
$TEXTSTYLE
  7
Standard
  9
$CLAYER
  8
0
  9
$CELTYPE
  6
ByLayer
  9
$CECOLOR
 62
   256
  9
$CELTSCALE
 40
1.0
  9
$DISPSILH
 70
     0
  9
$DIMSCALE
 40
1.0
  9
$DIMASZ
 40
0.18
  9
$DIMEXO
 40
0.0625
  9
$DIMDLI
 40
0.38
  9
$DIMRND
 40
0.0
  9
$DIMDLE
 40
0.0
  9
$DIMEXE
 40
0.18
  9
$DIMTP
 40
0.0
  9
$DIMTM
 40
0.0
  9
$DIMTXT
 40
0.18
  9
$DIMCEN
 40
0.09
  9
$DIMTSZ
 40
0.0
  9
$DIMTOL
 70
     0
  9
$DIMLIM
 70
     0
  9
$DIMTIH
 70
     1
  9
$DIMTOH
 70
     1
  9
$DIMSE1
 70
     0
  9
$DIMSE2
 70
     0
  9
$DIMTAD
 70
     0
  9
$DIMZIN
 70
     0
  9
$DIMBLK
  1

  9
$DIMASO
 70
     1
  9
$DIMSHO
 70
     1
  9
$DIMPOST
  1

  9
$DIMAPOST
  1

  9
$DIMALT
 70
     0
  9
$DIMALTD
 70
     2
  9
$DIMALTF
 40
25.4
  9
$DIMLFAC
 40
1.0
  9
$DIMTOFL
 70
     0
  9
$DIMTVP
 40
0.0
  9
$DIMTIX
 70
     0
  9
$DIMSOXD
 70
     0
  9
$DIMSAH
 70
     0
  9
$DIMBLK1
  1

  9
$DIMBLK2
  1

  9
$DIMSTYLE
  2
Standard
  9
$DIMCLRD
 70
     0
  9
$DIMCLRE
 70
     0
  9
$DIMCLRT
 70
     0
  9
$DIMTFAC
 40
1.0
  9
$DIMGAP
 40
0.09
  9
$DIMJUST
 70
     0
  9
$DIMSD1
 70
     0
  9
$DIMSD2
 70
     0
  9
$DIMTOLJ
 70
     1
  9
$DIMTZIN
 70
     0
  9
$DIMALTZ
 70
     0
  9
$DIMALTTZ
 70
     0
  9
$DIMUPT
 70
     0
  9
$DIMDEC
 70
     4
  9
$DIMTDEC
 70
     4
  9
$DIMALTU
 70
     2
  9
$DIMALTTD
 70
     2
  9
$DIMTXSTY
  7
Standard
  9
$DIMAUNIT
 70
     0
  9
$DIMADEC
 70
     0
  9
$DIMALTRND
 40
0.0
  9
$DIMAZIN
 70
     0
  9
$DIMDSEP
 70
    46
  9
$DIMATFIT
 70
     3
  9
$DIMFRAC
 70
     0
  9
$DIMLDRBLK
  1

  9
$DIMLUNIT
 70
     2
  9
$DIMLWD
 70
    -2
  9
$DIMLWE
 70
    -2
  9
$DIMTMOVE
 70
     0
  9
$LUNITS
 70
     2
  9
$LUPREC
 70
     4
  9
$SKETCHINC
 40
0.1
  9
$FILLETRAD
 40
0.5
  9
$AUNITS
 70
     0
  9
$AUPREC
 70
     0
  9
$MENU
  1
.
  9
$ELEVATION
 40
0.0
  9
$PELEVATION
 40
0.0
  9
$THICKNESS
 40
0.0
  9
$LIMCHECK
 70
     0
  9
$CHAMFERA
 40
0.0
  9
$CHAMFERB
 40
0.0
  9
$CHAMFERC
 40
0.0
  9
$CHAMFERD
 40
0.0
  9
$SKPOLY
 70
     0
  9
$TDCREATE
 40
2460209.268044954
  9
$TDUCREATE
 40
2460209.18471162
  9
$TDUPDATE
 40
2460209.268404606
  9
$TDUUPDATE
 40
2460209.185071273
  9
$TDINDWG
 40
0.0000000116
  9
$TDUSRTIMER
 40
0.0000000116
  9
$USRTIMER
 70
     1
  9
$ANGBASE
 50
0.0
  9
$ANGDIR
 70
     0
  9
$PDMODE
 70
     0
  9
$PDSIZE
 40
0.0
  9
$PLINEWID
 40
0.0
  9
$SPLFRAME
 70
     0
  9
$SPLINETYPE
 70
     6
  9
$SPLINESEGS
 70
     8
  9
$HANDSEED
  5
51C
  9
$SURFTAB1
 70
     6
  9
$SURFTAB2
 70
     6
  9
$SURFTYPE
 70
     6
  9
$SURFU
 70
     6
  9
$SURFV
 70
     6
  9
$UCSBASE
  2

  9
$UCSNAME
  2

  9
$UCSORG
 10
0.0
 20
0.0
 30
0.0
  9
$UCSXDIR
 10
1.0
 20
0.0
 30
0.0
  9
$UCSYDIR
 10
0.0
 20
1.0
 30
0.0
  9
$UCSORTHOREF
  2

  9
$UCSORTHOVIEW
 70
     0
  9
$UCSORGTOP
 10
0.0
 20
0.0
 30
0.0
  9
$UCSORGBOTTOM
 10
0.0
 20
0.0
 30
0.0
  9
$UCSORGLEFT
 10
0.0
 20
0.0
 30
0.0
  9
$UCSORGRIGHT
 10
0.0
 20
0.0
 30
0.0
  9
$UCSORGFRONT
 10
0.0
 20
0.0
 30
0.0
  9
$UCSORGBACK
 10
0.0
 20
0.0
 30
0.0
  9
$PUCSBASE
  2

  9
$PUCSNAME
  2

  9
$PUCSORG
 10
0.0
 20
0.0
 30
0.0
  9
$PUCSXDIR
 10
1.0
 20
0.0
 30
0.0
  9
$PUCSYDIR
 10
0.0
 20
1.0
 30
0.0
  9
$PUCSORTHOREF
  2

  9
$PUCSORTHOVIEW
 70
     0
  9
$PUCSORGTOP
 10
0.0
 20
0.0
 30
0.0
  9
$PUCSORGBOTTOM
 10
0.0
 20
0.0
 30
0.0
  9
$PUCSORGLEFT
 10
0.0
 20
0.0
 30
0.0
  9
$PUCSORGRIGHT
 10
0.0
 20
0.0
 30
0.0
  9
$PUCSORGFRONT
 10
0.0
 20
0.0
 30
0.0
  9
$PUCSORGBACK
 10
0.0
 20
0.0
 30
0.0
  9
$USERI1
 70
     0
  9
$USERI2
 70
     0
  9
$USERI3
 70
     0
  9
$USERI4
 70
     0
  9
$USERI5
 70
     0
  9
$USERR1
 40
0.0
  9
$USERR2
 40
0.0
  9
$USERR3
 40
0.0
  9
$USERR4
 40
0.0
  9
$USERR5
 40
0.0
  9
$WORLDVIEW
 70
     1
  9
$SHADEDGE
 70
     3
  9
$SHADEDIF
 70
    70
  9
$TILEMODE
 70
     1
  9
$MAXACTVP
 70
    64
  9
$PINSBASE
 10
0.0
 20
0.0
 30
0.0
  9
$PLIMCHECK
 70
     0
  9
$PEXTMIN
 10
-0.5
 20
-0.5
 30
-0.5
  9
$PEXTMAX
 10
5.0
 20
5.0
 30
5.0
  9
$PLIMMIN
 10
-0.5
 20
-0.5
  9
$PLIMMAX
 10
5.0
 20
5.0
  9
$UNITMODE
 70
     0
  9
$VISRETAIN
 70
     1
  9
$PLINEGEN
 70
     0
  9
$PSLTSCALE
 70
     1
  9
$TREEDEPTH
 70
  3020
  9
$CMLSTYLE
  2
Standard
  9
$CMLJUST
 70
     0
  9
$CMLSCALE
 40
1.0
  9
$PROXYGRAPHICS
 70
     1
  9
$MEASUREMENT
 70
     1
  9
$CELWEIGHT
370
    13
  9
$ENDCAPS
280
     0
  9
$JOINSTYLE
280
     0
  9
$LWDISPLAY
290
     0
  9
$INSUNITS
 70
     4
  9
$HYPERLINKBASE
  1

  9
$STYLESHEET
  1

  9
$XEDIT
290
     1
  9
$CEPSNTYPE
380
     0
  9
$PSTYLEMODE
290
     1
  9
$FINGERPRINTGUID
  2
{4607a16a-839f-490d-a4e4-c148d2962cc1}
  9
$VERSIONGUID
  2
{FAEB1C32-E019-11D5-929B-00C0DF256EC4}
  9
$EXTNAMES
290
     1
  9
$PSVPSCALE
 40
0.0
  9
$OLESTARTUP
290
     0
  9
$SORTENTS
280
   127
  9
$INDEXCTL
280
     0
  9
$HIDETEXT
280
     1
  9
$XCLIPFRAME
290
     0
  9
$HALOGAP
280
     0
  9
$OBSCOLOR
 70
   257
  9
$OBSLTYPE
280
     0
  9
$INTERSECTIONDISPLAY
280
     0
  9
$INTERSECTIONCOLOR
 70
   257
  9
$DIMASSOC
280
     2
  9
$PROJECTNAME
  1

  0
ENDSEC
  0
SECTION
  2
CLASSES
  0
CLASS
  1
ACDBDICTIONARYWDFLT
  2
AcDbDictionaryWithDefault
  3
ObjectDBX Classes
 90
        0
 91
        3
280
     0
281
     0
  0
CLASS
  1
VISUALSTYLE
  2
AcDbVisualStyle
  3
ObjectDBX Classes
 90
     4095
 91
        3
280
     0
281
     0
  0
CLASS
  1
MATERIAL
  2
AcDbMaterial
  3
ObjectDBX Classes
 90
     1153
 91
        3
280
     0
281
     0
  0
CLASS
  1
SCALE
  2
AcDbScale
  3
ObjectDBX Classes
 90
     1153
 91
        3
280
     0
281
     0
  0
CLASS
  1
TABLESTYLE
  2
AcDbTableStyle
  3
ObjectDBX Classes
 90
     4095
 91
        3
280
     0
281
     0
  0
CLASS
  1
MLEADERSTYLE
  2
AcDbMLeaderStyle
  3
ACDB_MLEADERSTYLE_CLASS
 90
     4095
 91
        3
280
     0
281
     0
  0
CLASS
  1
SUN
  2
AcDbSun
  3
SCENEOE
 90
     1153
 91
        3
280
     0
281
     0
  0
CLASS
  1
DIMASSOC
  2
AcDbDimAssoc
  3
"AcDbDimAssoc|Product Desc:     AcDim ARX App For Dimension|Company:          Autodesk, Inc.|WEB Address:      www.autodesk.com"
 90
        0
 91
        3
280
     0
281
     0
  0
CLASS
  1
DICTIONARYVAR
  2
AcDbDictionaryVar
  3
ObjectDBX Classes
 90
        0
 91
        3
280
     0
281
     0
  0
CLASS
  1
CELLSTYLEMAP
  2
AcDbCellStyleMap
  3
ObjectDBX Classes
 90
     1152
 91
        3
280
     0
281
     0
  0
ENDSEC
  0
SECTION
  2
TABLES
  0
TABLE
  2
VPORT
  5
8
102
{ACAD_XDICTIONARY
360
4D5
102
}
330
0
100
AcDbSymbolTable
 70
    16
  0
VPORT
  5
29
330
8
100
AcDbSymbolTableRecord
100
AcDbViewportTableRecord
  2
*Active
 70
     0
 10
0.0
 20
0.0
 11
1.0
 21
1.0
 12
200.716774
 22
164.26992
 13
0.0
 23
0.0
 14
0.5
 24
0.5
 15
0.5
 25
0.5
 16
0.0
 26
0.0
 36
1.0
 17
0.0
 27
0.0
 37
0.0
 40
254.0
 41
0.069908
 42
50.0
 43
197.983239
 44
-197.983239
 50
0.0
 51
0.0
 71
     0
 72
   100
 73
     1
 74
     3
 75
     0
 76
     0
 77
     0
 78
     0
281
     0
 65
     1
110
0.0
120
0.0
130
0.0
111
1.0
121
0.0
131
0.0
112
0.0
122
1.0
132
0.0
 79
     0
146
0.0
  0
VPORT
  5
4C1
330
8
100
AcDbSymbolTableRecord
100
AcDbViewportTableRecord
  2
L1
 70
     0
 10
0.0
 20
0.0
 11
1.0
 21
1.0
 12
200.716774
 22
164.26992
 13
0.0
 23
0.0
 14
0.5
 24
0.5
 15
0.5
 25
0.5
 16
0.0
 26
0.0
 36
1.0
 17
0.0
 27
0.0
 37
0.0
 40
254.0
 41
0.069908
 42
50.0
 43
197.983239
 44
-197.983239
 50
0.0
 51
0.0
 71
     0
 72
   100
 73
     1
 74
     3
 75
     0
 76
     0
 77
     0
 78
     0
281
     0
 65
     1
110
0.0
120
0.0
130
0.0
111
1.0
121
0.0
131
0.0
112
0.0
122
1.0
132
0.0
 79
     0
146
0.0
  0
VPORT
  5
4C2
330
8
100
AcDbSymbolTableRecord
100
AcDbViewportTableRecord
  2
L2
 70
     0
 10
0.0
 20
0.0
 11
0.5
 21
1.0
 12
0.0
 22
0.0
 13
0.0
 23
0.0
 14
0.5
 24
0.5
 15
0.5
 25
0.5
 16
0.0
 26
-1.0
 36
0.0
 17
0.0
 27
0.0
 37
0.0
 40
1618.901383
 41
0.010968
 42
50.0
 43
834.118445
 44
-834.118445
 50
0.0
 51
0.0
 71
     0
 72
   100
 73
     1
 74
     3
 75
     0
 76
     0
 77
     0
 78
     0
281
     0
 65
     1
110
0.0
120
0.0
130
0.0
111
1.0
121
0.0
131
0.0
112
0.0
122
1.0
132
0.0
 79
     0
146
0.0
  0
VPORT
  5
4C3
330
8
100
AcDbSymbolTableRecord
100
AcDbViewportTableRecord
  2
L2
 70
     0
 10
0.5
 20
0.0
 11
1.0
 21
1.0
 12
0.0
 22
0.0
 13
0.0
 23
0.0
 14
0.5
 24
0.5
 15
0.5
 25
0.5
 16
1.0
 26
0.0
 36
0.0
 17
0.0
 27
0.0
 37
0.0
 40
1618.901383
 41
0.010968
 42
50.0
 43
819.353051
 44
-819.353051
 50
0.0
 51
0.0
 71
     0
 72
   100
 73
     1
 74
     3
 75
     0
 76
     0
 77
     0
 78
     0
281
     0
 65
     1
110
0.0
120
0.0
130
0.0
111
1.0
121
0.0
131
0.0
112
0.0
122
1.0
132
0.0
 79
     0
146
0.0
  0
VPORT
  5
4C4
330
8
100
AcDbSymbolTableRecord
100
AcDbViewportTableRecord
  2
L3
 70
     0
 10
0.0
 20
0.5
 11
1.0
 21
1.0
 12
200.716774
 22
164.26992
 13
0.0
 23
0.0
 14
0.5
 24
0.5
 15
0.5
 25
0.5
 16
0.0
 26
0.0
 36
1.0
 17
0.0
 27
0.0
 37
0.0
 40
254.0
 41
0.069908
 42
50.0
 43
197.983239
 44
-197.983239
 50
0.0
 51
0.0
 71
     0
 72
   100
 73
     1
 74
     3
 75
     0
 76
     0
 77
     0
 78
     0
281
     0
 65
     1
110
0.0
120
0.0
130
0.0
111
1.0
121
0.0
131
0.0
112
0.0
122
1.0
132
0.0
 79
     0
146
0.0
  0
VPORT
  5
4C5
330
8
100
AcDbSymbolTableRecord
100
AcDbViewportTableRecord
  2
L3
 70
     0
 10
0.0
 20
0.0
 11
1.0
 21
0.5
 12
0.0
 22
0.0
 13
0.0
 23
0.0
 14
0.5
 24
0.5
 15
0.5
 25
0.5
 16
0.0
 26
-1.0
 36
0.0
 17
0.0
 27
0.0
 37
0.0
 40
1618.901383
 41
0.010968
 42
50.0
 43
834.118445
 44
-834.118445
 50
0.0
 51
0.0
 71
     0
 72
   100
 73
     1
 74
     3
 75
     0
 76
     0
 77
     0
 78
     0
281
     0
 65
     1
110
0.0
120
0.0
130
0.0
111
1.0
121
0.0
131
0.0
112
0.0
122
1.0
132
0.0
 79
     0
146
0.0
  0
VPORT
  5
4C6
330
8
100
AcDbSymbolTableRecord
100
AcDbViewportTableRecord
  2
L4
 70
     0
 10
0.0
 20
0.5
 11
0.5
 21
1.0
 12
200.716774
 22
164.26992
 13
0.0
 23
0.0
 14
0.5
 24
0.5
 15
0.5
 25
0.5
 16
0.0
 26
0.0
 36
1.0
 17
0.0
 27
0.0
 37
0.0
 40
254.0
 41
0.069908
 42
50.0
 43
197.983239
 44
-197.983239
 50
0.0
 51
0.0
 71
     0
 72
   100
 73
     1
 74
     3
 75
     0
 76
     0
 77
     0
 78
     0
281
     0
 65
     1
110
0.0
120
0.0
130
0.0
111
1.0
121
0.0
131
0.0
112
0.0
122
1.0
132
0.0
 79
     0
146
0.0
  0
VPORT
  5
4C7
330
8
100
AcDbSymbolTableRecord
100
AcDbViewportTableRecord
  2
L4
 70
     0
 10
0.0
 20
0.0
 11
0.5
 21
0.5
 12
0.0
 22
0.0
 13
0.0
 23
0.0
 14
0.5
 24
0.5
 15
0.5
 25
0.5
 16
0.0
 26
-1.0
 36
0.0
 17
0.0
 27
0.0
 37
0.0
 40
1618.901383
 41
0.010968
 42
50.0
 43
834.118445
 44
-834.118445
 50
0.0
 51
0.0
 71
     0
 72
   100
 73
     1
 74
     3
 75
     0
 76
     0
 77
     0
 78
     0
281
     0
 65
     1
110
0.0
120
0.0
130
0.0
111
1.0
121
0.0
131
0.0
112
0.0
122
1.0
132
0.0
 79
     0
146
0.0
  0
VPORT
  5
4C8
330
8
100
AcDbSymbolTableRecord
100
AcDbViewportTableRecord
  2
L4
 70
     0
 10
0.5
 20
0.0
 11
1.0
 21
0.5
 12
0.0
 22
0.0
 13
0.0
 23
0.0
 14
0.5
 24
0.5
 15
0.5
 25
0.5
 16
1.0
 26
0.0
 36
0.0
 17
0.0
 27
0.0
 37
0.0
 40
1618.901383
 41
0.010968
 42
50.0
 43
819.353051
 44
-819.353051
 50
0.0
 51
0.0
 71
     0
 72
   100
 73
     1
 74
     3
 75
     0
 76
     0
 77
     0
 78
     0
281
     0
 65
     1
110
0.0
120
0.0
130
0.0
111
1.0
121
0.0
131
0.0
112
0.0
122
1.0
132
0.0
 79
     0
146
0.0
  0
VPORT
  5
4C9
330
8
100
AcDbSymbolTableRecord
100
AcDbViewportTableRecord
  2
L4
 70
     0
 10
0.5
 20
0.5
 11
1.0
 21
1.0
 12
0.0
 22
0.0
 13
0.0
 23
0.0
 14
0.5
 24
0.5
 15
0.5
 25
0.5
 16
0.5773502691896258
 26
-0.5773502691896258
 36
0.5773502691896258
 17
0.0
 27
0.0
 37
0.0
 40
1589.926804
 41
0.011168
 42
50.0
 43
828.175562
 44
-828.175562
 50
0.0
 51
0.0
 71
     0
 72
   100
 73
     1
 74
     3
 75
     0
 76
     0
 77
     0
 78
     0
281
     0
 65
     1
110
0.0
120
0.0
130
0.0
111
1.0
121
0.0
131
0.0
112
0.0
122
1.0
132
0.0
 79
     0
146
0.0
  0
VPORT
  5
4CA
330
8
100
AcDbSymbolTableRecord
100
AcDbViewportTableRecord
  2
L6
 70
     0
 10
0.0
 20
0.5
 11
0.333333
 21
1.0
 12
0.0
 22
0.0
 13
0.0
 23
0.0
 14
0.5
 24
0.5
 15
0.5
 25
0.5
 16
0.7188730927569433
 26
-0.5850486126764433
 36
0.3754192287502549
 17
0.0
 27
0.0
 37
0.0
 40
1677.936718
 41
0.010582
 42
50.0
 43
868.771082
 44
-868.771082
 50
0.0
 51
0.0
 71
     0
 72
   100
 73
     1
 74
     3
 75
     0
 76
     0
 77
     0
 78
     0
281
     0
 65
     1
110
0.0
120
0.0
130
0.0
111
1.0
121
0.0
131
0.0
112
0.0
122
1.0
132
0.0
 79
     0
146
0.0
  0
VPORT
  5
4CB
330
8
100
AcDbSymbolTableRecord
100
AcDbViewportTableRecord
  2
L6
 70
     0
 10
0.0
 20
0.0
 11
0.333333
 21
0.5
 12
0.0
 22
0.0
 13
0.0
 23
0.0
 14
0.5
 24
0.5
 15
0.5
 25
0.5
 16
-1.0
 26
0.0
 36
0.0
 17
0.0
 27
0.0
 37
0.0
 40
1618.901383
 41
0.010968
 42
50.0
 43
819.353051
 44
-819.353051
 50
0.0
 51
0.0
 71
     0
 72
   100
 73
     1
 74
     3
 75
     0
 76
     0
 77
     0
 78
     0
281
     0
 65
     1
110
0.0
120
0.0
130
0.0
111
1.0
121
0.0
131
0.0
112
0.0
122
1.0
132
0.0
 79
     0
146
0.0
  0
VPORT
  5
4CC
330
8
100
AcDbSymbolTableRecord
100
AcDbViewportTableRecord
  2
L6
 70
     0
 10
0.333333
 20
0.5
 11
0.666667
 21
1.0
 12
200.716774
 22
164.26992
 13
0.0
 23
0.0
 14
0.5
 24
0.5
 15
0.5
 25
0.5
 16
0.0
 26
0.0
 36
1.0
 17
0.0
 27
0.0
 37
0.0
 40
254.0
 41
0.069908
 42
50.0
 43
197.983239
 44
-197.983239
 50
0.0
 51
0.0
 71
     0
 72
   100
 73
     1
 74
     3
 75
     0
 76
     0
 77
     0
 78
     0
281
     0
 65
     1
110
0.0
120
0.0
130
0.0
111
1.0
121
0.0
131
0.0
112
0.0
122
1.0
132
0.0
 79
     0
146
0.0
  0
VPORT
  5
4CD
330
8
100
AcDbSymbolTableRecord
100
AcDbViewportTableRecord
  2
L6
 70
     0
 10
0.333333
 20
0.0
 11
0.666667
 21
0.5
 12
0.0
 22
0.0
 13
0.0
 23
0.0
 14
0.5
 24
0.5
 15
0.5
 25
0.5
 16
0.0
 26
-1.0
 36
0.0
 17
0.0
 27
0.0
 37
0.0
 40
1618.901383
 41
0.010968
 42
50.0
 43
834.118445
 44
-834.118445
 50
0.0
 51
0.0
 71
     0
 72
   100
 73
     1
 74
     3
 75
     0
 76
     0
 77
     0
 78
     0
281
     0
 65
     1
110
0.0
120
0.0
130
0.0
111
1.0
121
0.0
131
0.0
112
0.0
122
1.0
132
0.0
 79
     0
146
0.0
  0
VPORT
  5
4CE
330
8
100
AcDbSymbolTableRecord
100
AcDbViewportTableRecord
  2
L6
 70
     0
 10
0.666667
 20
0.5
 11
1.0
 21
1.0
 12
0.0
 22
0.0
 13
0.0
 23
0.0
 14
0.5
 24
0.5
 15
0.5
 25
0.5
 16
0.5773502691896258
 26
-0.5773502691896258
 36
0.5773502691896258
 17
0.0
 27
0.0
 37
0.0
 40
1589.926804
 41
0.011168
 42
50.0
 43
828.175562
 44
-828.175562
 50
0.0
 51
0.0
 71
     0
 72
   100
 73
     1
 74
     3
 75
     0
 76
     0
 77
     0
 78
     0
281
     0
 65
     1
110
0.0
120
0.0
130
0.0
111
1.0
121
0.0
131
0.0
112
0.0
122
1.0
132
0.0
 79
     0
146
0.0
  0
VPORT
  5
4CF
330
8
100
AcDbSymbolTableRecord
100
AcDbViewportTableRecord
  2
L6
 70
     0
 10
0.666667
 20
0.0
 11
1.0
 21
0.5
 12
0.0
 22
0.0
 13
0.0
 23
0.0
 14
0.5
 24
0.5
 15
0.5
 25
0.5
 16
1.0
 26
0.0
 36
0.0
 17
0.0
 27
0.0
 37
0.0
 40
1618.901383
 41
0.010968
 42
50.0
 43
819.353051
 44
-819.353051
 50
0.0
 51
0.0
 71
     0
 72
   100
 73
     1
 74
     3
 75
     0
 76
     0
 77
     0
 78
     0
281
     0
 65
     1
110
0.0
120
0.0
130
0.0
111
1.0
121
0.0
131
0.0
112
0.0
122
1.0
132
0.0
 79
     0
146
0.0
  0
ENDTAB
  0
TABLE
  2
LTYPE
  5
5
330
0
100
AcDbSymbolTable
 70
     6
  0
LTYPE
  5
14
330
5
100
AcDbSymbolTableRecord
100
AcDbLinetypeTableRecord
  2
ByBlock
 70
     0
  3

 72
    65
 73
     0
 40
0.0
  0
LTYPE
  5
15
330
5
100
AcDbSymbolTableRecord
100
AcDbLinetypeTableRecord
  2
ByLayer
 70
     0
  3

 72
    65
 73
     0
 40
0.0
  0
LTYPE
  5
16
330
5
100
AcDbSymbolTableRecord
100
AcDbLinetypeTableRecord
  2
Continuous
 70
     0
  3
Solid line
 72
    65
 73
     0
 40
0.0
  0
LTYPE
  5
6E
330
5
100
AcDbSymbolTableRecord
100
AcDbLinetypeTableRecord
  2
CENTER
 70
     0
  3
____ _ ____ _ ____ _ ____
 72
    65
 73
     4
 40
47.4
 49
22.0
 74
     4
 75
     0
340
0
 46
0.0
 50
0.0
 44
0.0
 45
0.0
 49
-8.5
 74
     4
 75
     0
340
0
 46
0.0
 50
0.0
 44
0.0
 45
0.0
 49
8.5
 74
     4
 75
     0
340
0
 46
0.0
 50
0.0
 44
0.0
 45
0.0
 49
-8.5
 74
     4
 75
     0
340
0
 46
0.0
 50
0.0
 44
0.0
 45
0.0
  0
LTYPE
  5
6F
330
5
100
AcDbSymbolTableRecord
100
AcDbLinetypeTableRecord
  2
DASHDOT
 70
     0
  3
_._._._._._._._._._._._._._._._.
 72
    65
 73
     4
 40
70.0
 49
31.0
 74
     4
 75
     0
340
0
 46
0.0
 50
0.0
 44
0.0
 45
0.0
 49
-13.0
 74
     4
 75
     0
340
0
 46
0.0
 50
0.0
 44
0.0
 45
0.0
 49
13.0
 74
     4
 75
     0
340
0
 46
0.0
 50
0.0
 44
0.0
 45
0.0
 49
-13.0
 74
     4
 75
     0
340
0
 46
0.0
 50
0.0
 44
0.0
 45
0.0
  0
LTYPE
  5
70
330
5
100
AcDbSymbolTableRecord
100
AcDbLinetypeTableRecord
  2
DASHED
 70
     0
  3
__ __ __ __ __ __ __ __ __
 72
    65
 73
     2
 40
25.72
 49
12.86
 74
     4
 75
     0
340
0
 46
0.0
 50
0.0
 44
0.0
 45
0.0
 49
-12.86
 74
     4
 75
     0
340
0
 46
0.0
 50
0.0
 44
0.0
 45
0.0
  0
LTYPE
  5
71
330
5
100
AcDbSymbolTableRecord
100
AcDbLinetypeTableRecord
  2
DOT
 70
     0
  3
.........................
 72
    65
 73
     2
 40
10.0
 49
0.0
 74
     4
 75
     0
340
0
 46
0.0
 50
0.0
 44
0.0
 45
0.0
 49
-10.0
 74
     4
 75
     0
340
0
 46
0.0
 50
0.0
 44
0.0
 45
0.0
  0
LTYPE
  5
72
330
5
100
AcDbSymbolTableRecord
100
AcDbLinetypeTableRecord
  2
PHANTOM
 70
     0
  3
____ _ _ ____ _ _ _____ _ _ ____
 72
    65
 73
     6
 40
50.5
 49
18.0
 74
     4
 75
     0
340
0
 46
0.0
 50
0.0
 44
0.0
 45
0.0
 49
-6.5
 74
     4
 75
     0
340
0
 46
0.0
 50
0.0
 44
0.0
 45
0.0
 49
6.5
 74
     4
 75
     0
340
0
 46
0.0
 50
0.0
 44
0.0
 45
0.0
 49
-6.5
 74
     4
 75
     0
340
0
 46
0.0
 50
0.0
 44
0.0
 45
0.0
 49
6.5
 74
     4
 75
     0
340
0
 46
0.0
 50
0.0
 44
0.0
 45
0.0
 49
-6.5
 74
     4
 75
     0
340
0
 46
0.0
 50
0.0
 44
0.0
 45
0.0
  0
ENDTAB
  0
TABLE
  2
LAYER
  5
99901
330
0
100
AcDbSymbolTable
 70
    19
  0
LAYER
  5
99902
102
{ACAD_XDICTIONARY
360
60E
102
}
330
2
100
AcDbSymbolTableRecord
100
AcDbLayerTableRecord
  2
0
 70
     0
 62
     7
  6
CONTINUOUS
370
    -3
390
F
  0
LAYER
  5
99903
102
{ACAD_XDICTIONARY
360
610
102
}
330
2
100
AcDbSymbolTableRecord
100
AcDbLayerTableRecord
  2
1
 70
     0
 62
     4
  6
CONTINUOUS
370
    -3
390
F
  0
LAYER
  5
99904
102
{ACAD_XDICTIONARY
360
612
102
}
330
2
100
AcDbSymbolTableRecord
100
AcDbLayerTableRecord
  2
2
 70
     0
 62
     7
  6
CONTINUOUS
370
    -3
390
F
  0
LAYER
  5
99905
102
{ACAD_XDICTIONARY
360
614
102
}
330
2
100
AcDbSymbolTableRecord
100
AcDbLayerTableRecord
  2
4
 70
     0
 62
     2
  6
CENTER
370
    -3
390
F
  0
LAYER
  5
99906
102
{ACAD_XDICTIONARY
360
616
102
}
330
2
100
AcDbSymbolTableRecord
100
AcDbLayerTableRecord
  2
SK2
 70
     0
 62
     7
  6
CONTINUOUS
370
    -3
390
F
  0
LAYER
  5
99907
102
{ACAD_XDICTIONARY
360
618
102
}
330
2
100
AcDbSymbolTableRecord
100
AcDbLayerTableRecord
  2
SK3
 70
     0
 62
     1
  6
DASHED
370
    -3
390
F
  0
LAYER
  5
99908
102
{ACAD_XDICTIONARY
360
61A
102
}
330
2
100
AcDbSymbolTableRecord
100
AcDbLayerTableRecord
  2
SK4
 70
     0
 62
     2
  6
CENTER
370
    -3
390
F
  0
LAYER
  5
99909
102
{ACAD_XDICTIONARY
360
61C
102
}
330
2
100
AcDbSymbolTableRecord
100
AcDbLayerTableRecord
  2
SK6
 70
     0
 62
     5
  6
CONTINUOUS
370
    -3
390
F
  0
LAYER
  5
9990A
102
{ACAD_XDICTIONARY
360
61E
102
}
330
2
100
AcDbSymbolTableRecord
100
AcDbLayerTableRecord
  2
CUT
 70
     0
 62
     1
  6
CONTINUOUS
370
    -3
390
F
  0
LAYER
  5
9990B
102
{ACAD_XDICTIONARY
360
620
102
}
330
2
100
AcDbSymbolTableRecord
100
AcDbLayerTableRecord
  2
NOCUT
 70
     0
 62
     7
  6
CONTINUOUS
370
    -3
390
F
  0
LAYER
  5
9990C
102
{ACAD_XDICTIONARY
360
622
102
}
330
2
100
AcDbSymbolTableRecord
100
AcDbLayerTableRecord
  2
80
 70
     0
 62
     6
  6
CONTINUOUS
370
    -3
390
F
  0
LAYER
  5
9990D
102
{ACAD_XDICTIONARY
360
624
102
}
330
2
100
AcDbSymbolTableRecord
100
AcDbLayerTableRecord
  2
81
 70
     0
 62
     3
  6
CONTINUOUS
370
    -3
390
F
  0
LAYER
  5
9990E
102
{ACAD_XDICTIONARY
360
626
102
}
330
2
100
AcDbSymbolTableRecord
100
AcDbLayerTableRecord
  2
SK1
 70
     0
 62
     4
  6
CONTINUOUS
370
    -3
390
F
  0
ENDTAB
  0
TABLE
  2
STYLE
  5
3
330
0
100
AcDbSymbolTable
 70
     3
  0
STYLE
  5
11
330
3
100
AcDbSymbolTableRecord
100
AcDbTextStyleTableRecord
  2
Standard
 70
     0
 40
0.0
 41
1.0
 50
0.0
 71
     0
 42
0.2
  3
txt
  4

  0
STYLE
  5
3FE
330
3
100
AcDbSymbolTableRecord
100
AcDbTextStyleTableRecord
  2
iso_b_vert
 70
     0
 40
0.0
 41
1.0
 50
0.0
 71
     0
 42
0.2
  3
simplex.shx
  4

  0
STYLE
  5
3FF
330
3
100
AcDbSymbolTableRecord
100
AcDbTextStyleTableRecord
  2
DWGDirectTextStyle
 70
     0
 40
0.0
 41
1.0
 50
0.0
 71
     0
 42
0.2
  3
simplex
  4

  0
ENDTAB
  0
TABLE
  2
VIEW
  5
6
330
0
100
AcDbSymbolTable
 70
     8
  0
VIEW
  5
4B8
330
6
100
AcDbSymbolTableRecord
100
AcDbViewTableRecord
  2
Top
 70
     0
 40
254.0
 10
200.716774
 20
164.26992
 41
402.706633
 11
0.0
 21
0.0
 31
1.0
 12
0.0
 22
0.0
 32
0.0
 42
50.0
 43
197.983239
 44
-197.983239
 50
0.0
 71
     0
281
     0
 72
     0
  0
VIEW
  5
4B9
330
6
100
AcDbSymbolTableRecord
100
AcDbViewTableRecord
  2
Front
 70
     0
 40
1618.901383
 10
0.0
 20
0.0
 41
402.706633
 11
0.0
 21
-1.0
 31
0.0
 12
0.0
 22
0.0
 32
0.0
 42
50.0
 43
834.118445
 44
-834.118445
 50
0.0
 71
     0
281
     0
 72
     0
  0
VIEW
  5
4BA
330
6
100
AcDbSymbolTableRecord
100
AcDbViewTableRecord
  2
Right
 70
     0
 40
1618.901383
 10
0.0
 20
0.0
 41
254.0
 11
1.0
 21
0.0
 31
0.0
 12
0.0
 22
0.0
 32
0.0
 42
50.0
 43
819.353051
 44
-819.353051
 50
0.0
 71
     0
281
     0
 72
     0
  0
VIEW
  5
4BB
330
6
100
AcDbSymbolTableRecord
100
AcDbViewTableRecord
  2
Back
 70
     0
 40
1618.901383
 10
0.0
 20
0.0
 41
402.706633
 11
0.0
 21
1.0
 31
0.0
 12
0.0
 22
0.0
 32
0.0
 42
50.0
 43
834.118445
 44
-834.118445
 50
0.0
 71
     0
281
     0
 72
     0
  0
VIEW
  5
4BC
330
6
100
AcDbSymbolTableRecord
100
AcDbViewTableRecord
  2
Bottom
 70
     0
 40
254.0
 10
0.0
 20
0.0
 41
402.706633
 11
0.0
 21
0.0
 31
-1.0
 12
0.0
 22
0.0
 32
0.0
 42
50.0
 43
809.450691
 44
-809.450691
 50
180.0
 71
     0
281
     0
 72
     0
  0
VIEW
  5
4BD
330
6
100
AcDbSymbolTableRecord
100
AcDbViewTableRecord
  2
Left
 70
     0
 40
1618.901383
 10
0.0
 20
0.0
 41
254.0
 11
-1.0
 21
0.0
 31
0.0
 12
0.0
 22
0.0
 32
0.0
 42
50.0
 43
819.353051
 44
-819.353051
 50
0.0
 71
     0
281
     0
 72
     0
  0
VIEW
  5
4BE
330
6
100
AcDbSymbolTableRecord
100
AcDbViewTableRecord
  2
Isometric
 70
     0
 40
1589.926804
 10
0.0
 20
0.0
 41
464.361713
 11
0.5773502691896258
 21
-0.5773502691896258
 31
0.5773502691896258
 12
0.0
 22
0.0
 32
0.0
 42
50.0
 43
828.175562
 44
-828.175562
 50
0.0
 71
     0
281
     0
 72
     0
  0
VIEW
  5
4BF
330
6
100
AcDbSymbolTableRecord
100
AcDbViewTableRecord
  2
Trimetric
 70
     0
 40
1677.936718
 10
0.0
 20
0.0
 41
451.199671
 11
0.7188730927569433
 21
-0.5850486126764433
 31
0.3754192287502549
 12
0.0
 22
0.0
 32
0.0
 42
50.0
 43
868.771082
 44
-868.771082
 50
0.0
 71
     0
281
     0
 72
     0
  0
ENDTAB
  0
TABLE
  2
UCS
  5
7
330
0
100
AcDbSymbolTable
 70
     0
  0
ENDTAB
  0
TABLE
  2
APPID
  5
9
330
0
100
AcDbSymbolTable
 70
     8
  0
APPID
  5
12
330
9
100
AcDbSymbolTableRecord
100
AcDbRegAppTableRecord
  2
ACAD
 70
     0
  0
APPID
  5
409
330
9
100
AcDbSymbolTableRecord
100
AcDbRegAppTableRecord
  2
ACAD_DSTYLE_DIMBREAK
 70
     0
  0
APPID
  5
4D0
330
9
100
AcDbSymbolTableRecord
100
AcDbRegAppTableRecord
  2
ACAD_DSTYLE_DIM_LINETYPE
 70
     0
  0
APPID
  5
4D1
330
9
100
AcDbSymbolTableRecord
100
AcDbRegAppTableRecord
  2
ACAD_DSTYLE_DIM_EXT1_LINETYPE
 70
     0
  0
APPID
  5
4D2
330
9
100
AcDbSymbolTableRecord
100
AcDbRegAppTableRecord
  2
ACAD_DSTYLE_DIM_EXT2_LINETYPE
 70
     0
  0
APPID
  5
4D3
330
9
100
AcDbSymbolTableRecord
100
AcDbRegAppTableRecord
  2
ACAD_DSTYLE_DIMFLIPARROW_SYMBOL
 70
     0
  0
APPID
  5
4D4
330
9
100
AcDbSymbolTableRecord
100
AcDbRegAppTableRecord
  2
ACAD_DSTYLE_DIMFLIPARROW_WHICH_SYMBOL
 70
     0
  0
APPID
  5
514
330
9
100
AcDbSymbolTableRecord
100
AcDbRegAppTableRecord
  2
ACAD_MLEADERVER
 70
     0
  0
ENDTAB
  0
TABLE
  2
DIMSTYLE
  5
A
330
0
100
AcDbSymbolTable
 70
     1
100
AcDbDimStyleTable
  0
DIMSTYLE
105
27
102
{ACAD_REACTORS
330
40A
330
421
330
43A
330
453
330
46D
330
485
330
49F
102
}
330
A
100
AcDbSymbolTableRecord
100
AcDbDimStyleTableRecord
  2
Standard
 70
     0
178
     0
340
11
1001
ACAD_DSTYLE_DIMBREAK
1070
   391
1040
6.35
  0
ENDTAB
  0
TABLE
  2
BLOCK_RECORD
  5
1
330
0
100
AcDbSymbolTable
 70
    15
  0
BLOCK_RECORD
  5
1F
330
1
100
AcDbSymbolTableRecord
100
AcDbBlockTableRecord
  2
*Model_Space
340
22
  0
BLOCK_RECORD
  5
1B
330
1
100
AcDbSymbolTableRecord
100
AcDbBlockTableRecord
  2
*Paper_Space
340
1E
  0
BLOCK_RECORD
  5
23
330
1
100
AcDbSymbolTableRecord
100
AcDbBlockTableRecord
  2
*Paper_Space0
340
26
  0
BLOCK_RECORD
  5
40E
330
1
100
AcDbSymbolTableRecord
100
AcDbBlockTableRecord
  2
*D1
340
0
  0
BLOCK_RECORD
  5
419
330
1
100
AcDbSymbolTableRecord
100
AcDbBlockTableRecord
  2
_U0
340
0
  0
BLOCK_RECORD
  5
424
330
1
100
AcDbSymbolTableRecord
100
AcDbBlockTableRecord
  2
*D3
340
0
  0
BLOCK_RECORD
  5
430
330
1
100
AcDbSymbolTableRecord
100
AcDbBlockTableRecord
  2
_U1
340
0
  0
BLOCK_RECORD
  5
43D
330
1
100
AcDbSymbolTableRecord
100
AcDbBlockTableRecord
  2
*D5
340
0
  0
BLOCK_RECORD
  5
449
330
1
100
AcDbSymbolTableRecord
100
AcDbBlockTableRecord
  2
_U2
340
0
  0
BLOCK_RECORD
  5
456
330
1
100
AcDbSymbolTableRecord
100
AcDbBlockTableRecord
  2
*D7
340
0
  0
BLOCK_RECORD
  5
464
330
1
100
AcDbSymbolTableRecord
100
AcDbBlockTableRecord
  2
_U3
340
0
  0
BLOCK_RECORD
  5
470
330
1
100
AcDbSymbolTableRecord
100
AcDbBlockTableRecord
  2
*D9
340
0
  0
BLOCK_RECORD
  5
47C
330
1
100
AcDbSymbolTableRecord
100
AcDbBlockTableRecord
  2
_U4
340
0
  0
BLOCK_RECORD
  5
488
330
1
100
AcDbSymbolTableRecord
100
AcDbBlockTableRecord
  2
*D11
340
0
  0
BLOCK_RECORD
  5
496
330
1
100
AcDbSymbolTableRecord
100
AcDbBlockTableRecord
  2
_U5
340
0
  0
BLOCK_RECORD
  5
4A2
330
1
100
AcDbSymbolTableRecord
100
AcDbBlockTableRecord
  2
*D13
340
0
  0
BLOCK_RECORD
  5
4AF
330
1
100
AcDbSymbolTableRecord
100
AcDbBlockTableRecord
  2
_U6
340
0
  0
ENDTAB
  0
ENDSEC
  0
SECTION
  2
BLOCKS
  0
BLOCK
  5
20
330
1F
100
AcDbEntity
  8
0
100
AcDbBlockBegin
  2
*Model_Space
 70
     0
 10
0.0
 20
0.0
 30
0.0
  3
*Model_Space
  1

  0
ENDBLK
  5
21
330
1F
100
AcDbEntity
  8
0
100
AcDbBlockEnd
  0
BLOCK
  5
1C
330
1B
100
AcDbEntity
 67
     1
  8
0
100
AcDbBlockBegin
  2
*Paper_Space
 70
     0
 10
0.0
 20
0.0
 30
0.0
  3
*Paper_Space
  1

  0
ENDBLK
  5
1D
330
1B
100
AcDbEntity
 67
     1
  8
0
100
AcDbBlockEnd
  0
BLOCK
  5
24
330
23
100
AcDbEntity
  8
0
100
AcDbBlockBegin
  2
*Paper_Space0
 70
     0
 10
0.0
 20
0.0
 30
0.0
  3
*Paper_Space0
  1

  0
ENDBLK
  5
25
330
23
100
AcDbEntity
  8
0
100
AcDbBlockEnd
  0
BLOCK
  5
40F
330
40E
100
AcDbEntity
  8
0
100
AcDbBlockBegin
  2
*D1
 70
     1
 10
0.0
 20
0.0
 30
0.0
  3
*D1
  1

  0
LINE
  5
411
330
40E
100
AcDbEntity
  8
2
370
    -2
100
AcDbLine
 10
226.749507
 20
161.431656
 30
0.0
 11
243.914871
 21
161.431656
 31
0.0
  0
LINE
  5
412
330
40E
100
AcDbEntity
  8
2
370
    -2
100
AcDbLine
 10
227.914782
 20
186.406656
 30
0.0
 11
243.914871
 21
186.406656
 31
0.0
  0
LINE
  5
413
330
40E
100
AcDbEntity
  8
2
370
    -2
100
AcDbLine
 10
241.914871
 20
161.431656
 30
0.0
 11
241.914871
 21
186.406656
 31
0.0
  0
SOLID
  5
414
330
40E
100
AcDbEntity
  8
2
100
AcDbTrace
 10
242.444038
 20
183.231656
 30
0.0
 11
241.385704
 21
183.231656
 31
0.0
 12
241.914871
 22
186.406656
 32
0.0
 13
241.914871
 23
186.406656
 33
0.0
  0
MTEXT
  5
415
330
40E
100
AcDbEntity
  8
2
370
    13
100
AcDbMText
 10
235.914871
 20
151.328084
 30
0.0
 40
3.0
 41
0.0
 71
     5
 72
     1
  1
\A1;50
  7
iso_b_vert
 11
0.0
 21
1.0
 31
0.0
 73
     1
 44
1.0
  0
POINT
  5
416
330
40E
100
AcDbEntity
  8
Defpoints
 62
     0
100
AcDbPoint
 10
226.749507
 20
161.431656
 30
0.0
  0
POINT
  5
417
330
40E
100
AcDbEntity
  8
Defpoints
 62
     0
100
AcDbPoint
 10
227.914782
 20
186.406656
 30
0.0
  0
POINT
  5
418
330
40E
100
AcDbEntity
  8
Defpoints
 62
     0
100
AcDbPoint
 10
241.914871
 20
186.406656
 30
0.0
  0
ENDBLK
  5
410
330
40E
100
AcDbEntity
  8
0
100
AcDbBlockEnd
  0
BLOCK
  5
41F
330
419
100
AcDbEntity
  8
0
100
AcDbBlockBegin
  2
_U0
 70
     0
 10
0.0
 20
0.0
 30
0.0
  3
_U0
  1

  0
MTEXT
  5
41A
330
419
100
AcDbEntity
  8
2
370
    18
100
AcDbMText
 10
240.761257
 20
162.012616
 30
0.0
 40
3.0
 41
0.0
 71
     7
 72
     5
  1
\W0.7335;50
  7
iso_b_vert
 11
6.123233995736766E-17
 21
1.0
 31
0.0
 73
     2
 44
0.987952
  0
MTEXT
  5
41B
330
419
100
AcDbEntity
  8
2
370
    18
100
AcDbMText
 10
240.761257
 20
156.237616
 30
0.0
 40
3.0
 41
0.0
 71
     7
 72
     5
  1
\W4.3910;\H2.25;%%c\H3.00;
  7
iso_b_vert
 11
6.123233995736766E-17
 21
1.0
 31
0.0
 73
     2
 44
0.987952
  0
LINE
  5
41C
330
419
100
AcDbEntity
  8
2
370
    13
100
AcDbLine
 10
227.914782
 20
186.406656
 30
0.0
 11
243.914871
 21
186.406656
 31
0.0
  0
LINE
  5
41D
330
419
100
AcDbEntity
  8
2
370
    13
100
AcDbLine
 10
241.914871
 20
186.406656
 30
0.0
 11
241.914871
 21
156.102616
 31
0.0
  0
SOLID
  5
41E
330
419
100
AcDbEntity
  8
2
370
    13
100
AcDbTrace
 10
241.914871
 20
186.406656
 30
0.0
 11
242.332868
 21
183.231657
 31
0.0
 12
241.496874
 22
183.231654
 32
0.0
 13
241.496874
 23
183.231654
 33
0.0
  0
ENDBLK
  5
420
330
419
100
AcDbEntity
  8
0
100
AcDbBlockEnd
  0
BLOCK
  5
425
330
424
100
AcDbEntity
  8
0
100
AcDbBlockBegin
  2
*D3
 70
     1
 10
0.0
 20
0.0
 30
0.0
  3
*D3
  1

  0
LINE
  5
427
330
424
100
AcDbEntity
  8
SK2
370
    -2
100
AcDbLine
 10
188.414782
 20
185.431656
 30
0.0
 11
161.143674
 21
185.431656
 31
0.0
  0
LINE
  5
428
330
424
100
AcDbEntity
  8
SK2
370
    -2
100
AcDbLine
 10
188.414782
 20
137.431656
 30
0.0
 11
161.143674
 21
137.431656
 31
0.0
  0
LINE
  5
429
330
424
100
AcDbEntity
  8
SK2
370
    -2
100
AcDbLine
 10
163.143674
 20
182.256656
 30
0.0
 11
163.143674
 21
140.606656
 31
0.0
  0
SOLID
  5
42A
330
424
100
AcDbEntity
  8
SK2
100
AcDbTrace
 10
163.672841
 20
182.256656
 30
0.0
 11
162.614507
 21
182.256656
 31
0.0
 12
163.143674
 22
185.431656
 32
0.0
 13
163.143674
 23
185.431656
 33
0.0
  0
SOLID
  5
42B
330
424
100
AcDbEntity
  8
SK2
100
AcDbTrace
 10
162.614507
 20
140.606656
 30
0.0
 11
163.672841
 21
140.606656
 31
0.0
 12
163.143674
 22
137.431656
 32
0.0
 13
163.143674
 23
137.431656
 33
0.0
  0
MTEXT
  5
42C
330
424
100
AcDbEntity
  8
SK2
370
    13
100
AcDbMText
 10
157.143674
 20
161.431656
 30
0.0
 40
3.0
 41
0.0
 71
     5
 72
     1
  1
\A1;48
  7
iso_b_vert
 11
0.0
 21
1.0
 31
0.0
 73
     1
 44
1.0
  0
POINT
  5
42D
330
424
100
AcDbEntity
  8
Defpoints
 62
     0
100
AcDbPoint
 10
188.414782
 20
185.431656
 30
0.0
  0
POINT
  5
42E
330
424
100
AcDbEntity
  8
Defpoints
 62
     0
100
AcDbPoint
 10
188.414782
 20
137.431656
 30
0.0
  0
POINT
  5
42F
330
424
100
AcDbEntity
  8
Defpoints
 62
     0
100
AcDbPoint
 10
163.143674
 20
137.431656
 30
0.0
  0
ENDBLK
  5
426
330
424
100
AcDbEntity
  8
0
100
AcDbBlockEnd
  0
BLOCK
  5
438
330
430
100
AcDbEntity
  8
0
100
AcDbBlockBegin
  2
_U1
 70
     0
 10
0.0
 20
0.0
 30
0.0
  3
_U1
  1

  0
MTEXT
  5
431
330
430
100
AcDbEntity
  8
SK2
370
    18
100
AcDbMText
 10
161.99006
 20
162.504385
 30
0.0
 40
3.0
 41
0.0
 71
     7
 72
     5
  1
\W0.8010;48
  7
iso_b_vert
 11
6.123233995736766E-17
 21
1.0
 31
0.0
 73
     2
 44
0.987952
  0
MTEXT
  5
432
330
430
100
AcDbEntity
  8
SK2
370
    18
100
AcDbMText
 10
161.99006
 20
156.729385
 30
0.0
 40
3.0
 41
0.0
 71
     7
 72
     5
  1
\W4.3910;\H2.25;%%c\H3.00;
  7
iso_b_vert
 11
6.123233995736766E-17
 21
1.0
 31
0.0
 73
     2
 44
0.987952
  0
LINE
  5
433
330
430
100
AcDbEntity
  8
SK2
370
    13
100
AcDbLine
 10
188.414782
 20
185.431656
 30
0.0
 11
161.143674
 21
185.431656
 31
0.0
  0
LINE
  5
434
330
430
100
AcDbEntity
  8
SK2
370
    13
100
AcDbLine
 10
188.414782
 20
137.431656
 30
0.0
 11
161.143674
 21
137.431656
 31
0.0
  0
LINE
  5
435
330
430
100
AcDbEntity
  8
SK2
370
    13
100
AcDbLine
 10
163.143674
 20
185.431656
 30
0.0
 11
163.143674
 21
137.431656
 31
0.0
  0
SOLID
  5
436
330
430
100
AcDbEntity
  8
SK2
370
    13
100
AcDbTrace
 10
163.143674
 20
185.431656
 30
0.0
 11
163.561671
 21
182.256657
 31
0.0
 12
162.725677
 22
182.256654
 32
0.0
 13
162.725677
 23
182.256654
 33
0.0
  0
SOLID
  5
437
330
430
100
AcDbEntity
  8
SK2
370
    13
100
AcDbTrace
 10
163.143674
 20
137.431656
 30
0.0
 11
162.725677
 21
140.606654
 31
0.0
 12
163.561671
 22
140.606657
 32
0.0
 13
163.561671
 23
140.606657
 33
0.0
  0
ENDBLK
  5
439
330
430
100
AcDbEntity
  8
0
100
AcDbBlockEnd
  0
BLOCK
  5
43E
330
43D
100
AcDbEntity
  8
0
100
AcDbBlockBegin
  2
*D5
 70
     1
 10
0.0
 20
0.0
 30
0.0
  3
*D5
  1

  0
LINE
  5
440
330
43D
100
AcDbEntity
  8
SK2
370
    -2
100
AcDbLine
 10
195.62064
 20
172.434906
 30
0.0
 11
168.9179
 21
172.434906
 31
0.0
  0
LINE
  5
441
330
43D
100
AcDbEntity
  8
SK2
370
    -2
100
AcDbLine
 10
195.62064
 20
150.428406
 30
0.0
 11
168.9179
 21
150.428406
 31
0.0
  0
LINE
  5
442
330
43D
100
AcDbEntity
  8
SK2
370
    -2
100
AcDbLine
 10
170.9179
 20
169.259906
 30
0.0
 11
170.9179
 21
153.603406
 31
0.0
  0
SOLID
  5
443
330
43D
100
AcDbEntity
  8
SK2
100
AcDbTrace
 10
171.447066
 20
169.259906
 30
0.0
 11
170.388733
 21
169.259906
 31
0.0
 12
170.9179
 22
172.434906
 32
0.0
 13
170.9179
 23
172.434906
 33
0.0
  0
SOLID
  5
444
330
43D
100
AcDbEntity
  8
SK2
100
AcDbTrace
 10
170.388733
 20
153.603406
 30
0.0
 11
171.447066
 21
153.603406
 31
0.0
 12
170.9179
 22
150.428406
 32
0.0
 13
170.9179
 23
150.428406
 33
0.0
  0
MTEXT
  5
445
330
43D
100
AcDbEntity
  8
SK2
370
    13
100
AcDbMText
 10
164.9179
 20
161.431656
 30
0.0
 40
3.0
 41
0.0
 71
     5
 72
     1
  1
\A1;22
  7
iso_b_vert
 11
0.0
 21
1.0
 31
0.0
 73
     1
 44
1.0
  0
POINT
  5
446
330
43D
100
AcDbEntity
  8
Defpoints
 62
     0
100
AcDbPoint
 10
195.62064
 20
172.434906
 30
0.0
  0
POINT
  5
447
330
43D
100
AcDbEntity
  8
Defpoints
 62
     0
100
AcDbPoint
 10
195.62064
 20
150.428406
 30
0.0
  0
POINT
  5
448
330
43D
100
AcDbEntity
  8
Defpoints
 62
     0
100
AcDbPoint
 10
170.9179
 20
150.428406
 30
0.0
  0
ENDBLK
  5
43F
330
43D
100
AcDbEntity
  8
0
100
AcDbBlockEnd
  0
BLOCK
  5
451
330
449
100
AcDbEntity
  8
0
100
AcDbBlockBegin
  2
_U2
 70
     0
 10
0.0
 20
0.0
 30
0.0
  3
_U2
  1

  0
MTEXT
  5
44A
330
449
100
AcDbEntity
  8
SK2
370
    18
100
AcDbMText
 10
169.764285
 20
162.662328
 30
0.0
 40
3.0
 41
0.0
 71
     7
 72
     5
  1
\W0.7335;22
  7
iso_b_vert
 11
6.123233995736766E-17
 21
1.0
 31
0.0
 73
     2
 44
0.987952
  0
MTEXT
  5
44B
330
449
100
AcDbEntity
  8
SK2
370
    18
100
AcDbMText
 10
169.764285
 20
156.887328
 30
0.0
 40
3.0
 41
0.0
 71
     7
 72
     5
  1
\W4.3910;\H2.25;%%c\H3.00;
  7
iso_b_vert
 11
6.123233995736766E-17
 21
1.0
 31
0.0
 73
     2
 44
0.987952
  0
LINE
  5
44C
330
449
100
AcDbEntity
  8
SK2
370
    13
100
AcDbLine
 10
195.62064
 20
172.434906
 30
0.0
 11
168.9179
 21
172.434906
 31
0.0
  0
LINE
  5
44D
330
449
100
AcDbEntity
  8
SK2
370
    13
100
AcDbLine
 10
195.62064
 20
150.428406
 30
0.0
 11
168.9179
 21
150.428406
 31
0.0
  0
LINE
  5
44E
330
449
100
AcDbEntity
  8
SK2
370
    13
100
AcDbLine
 10
170.9179
 20
172.434906
 30
0.0
 11
170.9179
 21
150.428406
 31
0.0
  0
SOLID
  5
44F
330
449
100
AcDbEntity
  8
SK2
370
    13
100
AcDbTrace
 10
170.9179
 20
172.434906
 30
0.0
 11
171.335896
 21
169.259907
 31
0.0
 12
170.499903
 22
169.259904
 32
0.0
 13
170.499903
 23
169.259904
 33
0.0
  0
SOLID
  5
450
330
449
100
AcDbEntity
  8
SK2
370
    13
100
AcDbTrace
 10
170.9179
 20
150.428406
 30
0.0
 11
170.499903
 21
153.603404
 31
0.0
 12
171.335896
 22
153.603407
 32
0.0
 13
171.335896
 23
153.603407
 33
0.0
  0
ENDBLK
  5
452
330
449
100
AcDbEntity
  8
0
100
AcDbBlockEnd
  0
BLOCK
  5
457
330
456
100
AcDbEntity
  8
0
100
AcDbBlockBegin
  2
*D7
 70
     1
 10
0.0
 20
0.0
 30
0.0
  3
*D7
  1

  0
LINE
  5
459
330
456
100
AcDbEntity
  8
2
370
    -2
100
AcDbLine
 10
227.914782
 20
186.406656
 30
0.0
 11
227.914782
 21
196.540794
 31
0.0
  0
LINE
  5
45A
330
456
100
AcDbEntity
  8
2
370
    -2
100
AcDbLine
 10
226.028702
 20
185.806163
 30
0.0
 11
226.028702
 21
196.540794
 31
0.0
  0
LINE
  5
45B
330
456
100
AcDbEntity
  8
2
370
    -2
100
AcDbLine
 10
227.914782
 20
194.540794
 30
0.0
 11
248.836211
 21
194.540794
 31
0.0
  0
LINE
  5
45C
330
456
100
AcDbEntity
  8
2
370
    -2
100
AcDbLine
 10
231.089782
 20
194.540794
 30
0.0
 11
234.264782
 21
194.540794
 31
0.0
  0
LINE
  5
45D
330
456
100
AcDbEntity
  8
2
370
    -2
100
AcDbLine
 10
222.853702
 20
194.540794
 30
0.0
 11
219.678702
 21
194.540794
 31
0.0
  0
SOLID
  5
45E
330
456
100
AcDbEntity
  8
2
100
AcDbTrace
 10
231.089782
 20
195.069961
 30
0.0
 11
231.089782
 21
194.011628
 31
0.0
 12
227.914782
 22
194.540794
 32
0.0
 13
227.914782
 23
194.540794
 33
0.0
  0
SOLID
  5
45F
330
456
100
AcDbEntity
  8
2
100
AcDbTrace
 10
222.853702
 20
194.011628
 30
0.0
 11
222.853702
 21
195.069961
 31
0.0
 12
226.028702
 22
194.540794
 32
0.0
 13
226.028702
 23
194.540794
 33
0.0
  0
MTEXT
  5
460
330
456
100
AcDbEntity
  8
2
370
    13
100
AcDbMText
 10
241.550497
 20
200.540794
 30
0.0
 40
3.0
 41
0.0
 71
     5
 72
     1
  1
\A1;1.9
  7
iso_b_vert
 73
     1
 44
1.0
  0
POINT
  5
461
330
456
100
AcDbEntity
  8
Defpoints
 62
     0
100
AcDbPoint
 10
227.914782
 20
186.406656
 30
0.0
  0
POINT
  5
462
330
456
100
AcDbEntity
  8
Defpoints
 62
     0
100
AcDbPoint
 10
226.028702
 20
185.806163
 30
0.0
  0
POINT
  5
463
330
456
100
AcDbEntity
  8
Defpoints
 62
     0
100
AcDbPoint
 10
226.028702
 20
194.540794
 30
0.0
  0
ENDBLK
  5
458
330
456
100
AcDbEntity
  8
0
100
AcDbBlockEnd
  0
BLOCK
  5
46B
330
464
100
AcDbEntity
  8
0
100
AcDbBlockBegin
  2
_U3
 70
     0
 10
0.0
 20
0.0
 30
0.0
  3
_U3
  1

  0
MTEXT
  5
465
330
464
100
AcDbEntity
  8
2
370
    18
100
AcDbMText
 10
235.391054
 20
195.425909
 30
0.0
 40
3.0
 41
0.0
 71
     7
 72
     5
  1
\W0.6983;1,9
  7
iso_b_vert
 73
     2
 44
0.987952
  0
LINE
  5
466
330
464
100
AcDbEntity
  8
2
370
    13
100
AcDbLine
 10
227.914782
 20
186.406656
 30
0.0
 11
227.914782
 21
196.540794
 31
0.0
  0
LINE
  5
467
330
464
100
AcDbEntity
  8
2
370
    13
100
AcDbLine
 10
226.028702
 20
185.806163
 30
0.0
 11
226.028702
 21
196.540794
 31
0.0
  0
LINE
  5
468
330
464
100
AcDbEntity
  8
2
370
    13
100
AcDbLine
 10
218.528702
 20
194.540794
 30
0.0
 11
239.12331
 21
194.540794
 31
0.0
  0
SOLID
  5
469
330
464
100
AcDbEntity
  8
2
370
    13
100
AcDbTrace
 10
227.914782
 20
194.540794
 30
0.0
 11
231.089781
 21
194.958791
 31
0.0
 12
231.089784
 22
194.122798
 32
0.0
 13
231.089784
 23
194.122798
 33
0.0
  0
SOLID
  5
46A
330
464
100
AcDbEntity
  8
2
370
    13
100
AcDbTrace
 10
226.028702
 20
194.540794
 30
0.0
 11
222.853703
 21
194.122798
 31
0.0
 12
222.8537
 22
194.958791
 32
0.0
 13
222.8537
 23
194.958791
 33
0.0
  0
ENDBLK
  5
46C
330
464
100
AcDbEntity
  8
0
100
AcDbBlockEnd
  0
BLOCK
  5
471
330
470
100
AcDbEntity
  8
0
100
AcDbBlockBegin
  2
*D9
 70
     1
 10
0.0
 20
0.0
 30
0.0
  3
*D9
  1

  0
LINE
  5
473
330
470
100
AcDbEntity
  8
2
370
    -2
100
AcDbLine
 10
187.914782
 20
184.931656
 30
0.0
 11
187.914782
 21
212.241681
 31
0.0
  0
LINE
  5
474
330
470
100
AcDbEntity
  8
2
370
    -2
100
AcDbLine
 10
227.914782
 20
187.406656
 30
0.0
 11
227.914782
 21
212.241681
 31
0.0
  0
LINE
  5
475
330
470
100
AcDbEntity
  8
2
370
    -2
100
AcDbLine
 10
191.089782
 20
210.241681
 30
0.0
 11
224.739782
 21
210.241681
 31
0.0
  0
SOLID
  5
476
330
470
100
AcDbEntity
  8
2
100
AcDbTrace
 10
191.089782
 20
210.770848
 30
0.0
 11
191.089782
 21
209.712515
 31
0.0
 12
187.914782
 22
210.241681
 32
0.0
 13
187.914782
 23
210.241681
 33
0.0
  0
SOLID
  5
477
330
470
100
AcDbEntity
  8
2
100
AcDbTrace
 10
224.739782
 20
209.712515
 30
0.0
 11
224.739782
 21
210.770848
 31
0.0
 12
227.914782
 22
210.241681
 32
0.0
 13
227.914782
 23
210.241681
 33
0.0
  0
MTEXT
  5
478
330
470
100
AcDbEntity
  8
2
370
    13
100
AcDbMText
 10
207.914782
 20
216.241681
 30
0.0
 40
3.0
 41
0.0
 71
     5
 72
     1
  1
\A1;40
  7
iso_b_vert
 73
     1
 44
1.0
  0
POINT
  5
479
330
470
100
AcDbEntity
  8
Defpoints
 62
     0
100
AcDbPoint
 10
187.914782
 20
184.931656
 30
0.0
  0
POINT
  5
47A
330
470
100
AcDbEntity
  8
Defpoints
 62
     0
100
AcDbPoint
 10
227.914782
 20
187.406656
 30
0.0
  0
POINT
  5
47B
330
470
100
AcDbEntity
  8
Defpoints
 62
     0
100
AcDbPoint
 10
227.914782
 20
210.241681
 30
0.0
  0
ENDBLK
  5
472
330
470
100
AcDbEntity
  8
0
100
AcDbBlockEnd
  0
BLOCK
  5
483
330
47C
100
AcDbEntity
  8
0
100
AcDbBlockBegin
  2
_U4
 70
     0
 10
0.0
 20
0.0
 30
0.0
  3
_U4
  1

  0
MTEXT
  5
47D
330
47C
100
AcDbEntity
  8
2
370
    18
100
AcDbMText
 10
206.124011
 20
211.126796
 30
0.0
 40
3.0
 41
0.0
 71
     7
 72
     5
  1
\W0.8010;40
  7
iso_b_vert
 73
     2
 44
0.987952
  0
LINE
  5
47E
330
47C
100
AcDbEntity
  8
2
370
    13
100
AcDbLine
 10
187.914782
 20
184.931656
 30
0.0
 11
187.914782
 21
212.241681
 31
0.0
  0
LINE
  5
47F
330
47C
100
AcDbEntity
  8
2
370
    13
100
AcDbLine
 10
227.914782
 20
187.406656
 30
0.0
 11
227.914782
 21
212.241681
 31
0.0
  0
LINE
  5
480
330
47C
100
AcDbEntity
  8
2
370
    13
100
AcDbLine
 10
187.914782
 20
210.241681
 30
0.0
 11
227.914782
 21
210.241681
 31
0.0
  0
SOLID
  5
481
330
47C
100
AcDbEntity
  8
2
370
    13
100
AcDbTrace
 10
187.914782
 20
210.241681
 30
0.0
 11
191.089781
 21
210.659678
 31
0.0
 12
191.089784
 22
209.823685
 32
0.0
 13
191.089784
 23
209.823685
 33
0.0
  0
SOLID
  5
482
330
47C
100
AcDbEntity
  8
2
370
    13
100
AcDbTrace
 10
227.914782
 20
210.241681
 30
0.0
 11
224.739784
 21
209.823685
 31
0.0
 12
224.739781
 22
210.659678
 32
0.0
 13
224.739781
 23
210.659678
 33
0.0
  0
ENDBLK
  5
484
330
47C
100
AcDbEntity
  8
0
100
AcDbBlockEnd
  0
BLOCK
  5
489
330
488
100
AcDbEntity
  8
0
100
AcDbBlockBegin
  2
*D11
 70
     1
 10
0.0
 20
0.0
 30
0.0
  3
*D11
  1

  0
LINE
  5
48B
330
488
100
AcDbEntity
  8
SK2
370
    -2
100
AcDbLine
 10
187.914782
 20
137.931656
 30
0.0
 11
187.914782
 21
123.536921
 31
0.0
  0
LINE
  5
48C
330
488
100
AcDbEntity
  8
SK2
370
    -2
100
AcDbLine
 10
194.289782
 20
156.449881
 30
0.0
 11
194.289782
 21
123.536921
 31
0.0
  0
LINE
  5
48D
330
488
100
AcDbEntity
  8
SK2
370
    -2
100
AcDbLine
 10
187.914782
 20
125.536921
 30
0.0
 11
166.136211
 21
125.536921
 31
0.0
  0
LINE
  5
48E
330
488
100
AcDbEntity
  8
SK2
370
    -2
100
AcDbLine
 10
187.914782
 20
125.536921
 30
0.0
 11
184.739782
 21
125.536921
 31
0.0
  0
LINE
  5
48F
330
488
100
AcDbEntity
  8
SK2
370
    -2
100
AcDbLine
 10
194.289782
 20
125.536921
 30
0.0
 11
197.464782
 21
125.536921
 31
0.0
  0
SOLID
  5
490
330
488
100
AcDbEntity
  8
SK2
100
AcDbTrace
 10
191.089782
 20
126.066088
 30
0.0
 11
191.089782
 21
125.007754
 31
0.0
 12
187.914782
 22
125.536921
 32
0.0
 13
187.914782
 23
125.536921
 33
0.0
  0
SOLID
  5
491
330
488
100
AcDbEntity
  8
SK2
100
AcDbTrace
 10
191.114782
 20
125.007754
 30
0.0
 11
191.114782
 21
126.066088
 31
0.0
 12
194.289782
 22
125.536921
 32
0.0
 13
194.289782
 23
125.536921
 33
0.0
  0
MTEXT
  5
492
330
488
100
AcDbEntity
  8
SK2
370
    13
100
AcDbMText
 10
173.850497
 20
131.536921
 30
0.0
 40
3.0
 41
0.0
 71
     5
 72
     1
  1
\A1;6.4
  7
iso_b_vert
 73
     1
 44
1.0
  0
POINT
  5
493
330
488
100
AcDbEntity
  8
Defpoints
 62
     0
100
AcDbPoint
 10
187.914782
 20
137.931656
 30
0.0
  0
POINT
  5
494
330
488
100
AcDbEntity
  8
Defpoints
 62
     0
100
AcDbPoint
 10
194.289782
 20
156.449881
 30
0.0
  0
POINT
  5
495
330
488
100
AcDbEntity
  8
Defpoints
 62
     0
100
AcDbPoint
 10
194.289782
 20
125.536921
 30
0.0
  0
ENDBLK
  5
48A
330
488
100
AcDbEntity
  8
0
100
AcDbBlockEnd
  0
BLOCK
  5
49D
330
496
100
AcDbEntity
  8
0
100
AcDbBlockBegin
  2
_U5
 70
     0
 10
0.0
 20
0.0
 30
0.0
  3
_U5
  1

  0
MTEXT
  5
497
330
496
100
AcDbEntity
  8
SK2
370
    18
100
AcDbMText
 10
178.936457
 20
126.422035
 30
0.0
 40
3.0
 41
0.0
 71
     7
 72
     5
  1
\W0.7383;6,3
  7
iso_b_vert
 73
     2
 44
0.987952
  0
LINE
  5
498
330
496
100
AcDbEntity
  8
SK2
370
    13
100
AcDbLine
 10
187.914782
 20
137.931656
 30
0.0
 11
187.914782
 21
123.536921
 31
0.0
  0
LINE
  5
499
330
496
100
AcDbEntity
  8
SK2
370
    13
100
AcDbLine
 10
194.289782
 20
156.449881
 30
0.0
 11
194.289782
 21
123.536921
 31
0.0
  0
LINE
  5
49A
330
496
100
AcDbEntity
  8
SK2
370
    13
100
AcDbLine
 10
201.789782
 20
125.536921
 30
0.0
 11
178.777457
 21
125.536921
 31
0.0
  0
SOLID
  5
49B
330
496
100
AcDbEntity
  8
SK2
370
    13
100
AcDbTrace
 10
187.914782
 20
125.536921
 30
0.0
 11
184.739784
 21
125.118924
 31
0.0
 12
184.739781
 22
125.954918
 32
0.0
 13
184.739781
 23
125.954918
 33
0.0
  0
SOLID
  5
49C
330
496
100
AcDbEntity
  8
SK2
370
    13
100
AcDbTrace
 10
194.289782
 20
125.536921
 30
0.0
 11
197.464781
 21
125.954918
 31
0.0
 12
197.464784
 22
125.118924
 32
0.0
 13
197.464784
 23
125.118924
 33
0.0
  0
ENDBLK
  5
49E
330
496
100
AcDbEntity
  8
0
100
AcDbBlockEnd
  0
BLOCK
  5
4A3
330
4A2
100
AcDbEntity
  8
0
100
AcDbBlockBegin
  2
*D13
 70
     1
 10
0.0
 20
0.0
 30
0.0
  3
*D13
  1

  0
LINE
  5
4A5
330
4A2
100
AcDbEntity
  8
SK2
370
    -2
100
AcDbLine
 10
188.914782
 20
166.659156
 30
0.0
 11
178.429893
 21
166.659156
 31
0.0
  0
LINE
  5
4A6
330
4A2
100
AcDbEntity
  8
SK2
370
    -2
100
AcDbLine
 10
188.914782
 20
156.204156
 30
0.0
 11
178.429893
 21
156.204156
 31
0.0
  0
LINE
  5
4A7
330
4A2
100
AcDbEntity
  8
SK2
370
    -2
100
AcDbLine
 10
180.429893
 20
169.834156
 30
0.0
 11
180.429893
 21
173.009156
 31
0.0
  0
LINE
  5
4A8
330
4A2
100
AcDbEntity
  8
SK2
370
    -2
100
AcDbLine
 10
180.429893
 20
153.029156
 30
0.0
 11
180.429893
 21
149.854156
 31
0.0
  0
SOLID
  5
4A9
330
4A2
100
AcDbEntity
  8
SK2
100
AcDbTrace
 10
179.900727
 20
169.834156
 30
0.0
 11
180.95906
 21
169.834156
 31
0.0
 12
180.429893
 22
166.659156
 32
0.0
 13
180.429893
 23
166.659156
 33
0.0
  0
SOLID
  5
4AA
330
4A2
100
AcDbEntity
  8
SK2
100
AcDbTrace
 10
180.95906
 20
153.029156
 30
0.0
 11
179.900727
 21
153.029156
 31
0.0
 12
180.429893
 22
156.204156
 32
0.0
 13
180.429893
 23
156.204156
 33
0.0
  0
MTEXT
  5
4AB
330
4A2
100
AcDbEntity
  8
SK2
370
    13
100
AcDbMText
 10
174.429893
 20
161.431656
 30
0.0
 40
3.0
 41
0.0
 71
     5
 72
     1
  1
\A1;10.455
  7
iso_b_vert
 11
0.0
 21
1.0
 31
0.0
 73
     1
 44
1.0
  0
POINT
  5
4AC
330
4A2
100
AcDbEntity
  8
Defpoints
 62
     0
100
AcDbPoint
 10
188.914782
 20
166.659156
 30
0.0
  0
POINT
  5
4AD
330
4A2
100
AcDbEntity
  8
Defpoints
 62
     0
100
AcDbPoint
 10
188.914782
 20
156.204156
 30
0.0
  0
POINT
  5
4AE
330
4A2
100
AcDbEntity
  8
Defpoints
 62
     0
100
AcDbPoint
 10
180.429893
 20
156.204156
 30
0.0
  0
ENDBLK
  5
4A4
330
4A2
100
AcDbEntity
  8
0
100
AcDbBlockEnd
  0
BLOCK
  5
4B6
330
4AF
100
AcDbEntity
  8
0
100
AcDbBlockBegin
  2
_U6
 70
     0
 10
0.0
 20
0.0
 30
0.0
  3
_U6
  1

  0
MTEXT
  5
4B0
330
4AF
100
AcDbEntity
  8
SK2
370
    18
100
AcDbMText
 10
179.838779
 20
158.342171
 30
0.0
 40
3.0
 41
0.0
 71
     7
 72
     5
  1
\W0.7369;10,4
  7
iso_b_vert
 11
6.123233995736766E-17
 21
1.0
 31
0.0
 73
     2
 44
0.987952
  0
LINE
  5
4B1
330
4AF
100
AcDbEntity
  8
SK2
370
    13
100
AcDbLine
 10
188.914782
 20
166.659156
 30
0.0
 11
178.429893
 21
166.659156
 31
0.0
  0
LINE
  5
4B2
330
4AF
100
AcDbEntity
  8
SK2
370
    13
100
AcDbLine
 10
188.914782
 20
156.204156
 30
0.0
 11
178.429893
 21
156.204156
 31
0.0
  0
LINE
  5
4B3
330
4AF
100
AcDbEntity
  8
SK2
370
    13
100
AcDbLine
 10
180.429893
 20
166.659156
 30
0.0
 11
180.429893
 21
156.204156
 31
0.0
  0
SOLID
  5
4B4
330
4AF
100
AcDbEntity
  8
SK2
370
    13
100
AcDbTrace
 10
180.429893
 20
166.659156
 30
0.0
 11
180.84789
 21
163.484157
 31
0.0
 12
180.011897
 22
163.484154
 32
0.0
 13
180.011897
 23
163.484154
 33
0.0
  0
SOLID
  5
4B5
330
4AF
100
AcDbEntity
  8
SK2
370
    13
100
AcDbTrace
 10
180.429893
 20
156.204156
 30
0.0
 11
180.011897
 21
159.379154
 31
0.0
 12
180.84789
 22
159.379157
 32
0.0
 13
180.84789
 23
159.379157
 33
0.0
  0
ENDBLK
  5
4B7
330
4AF
100
AcDbEntity
  8
0
100
AcDbBlockEnd
  0
ENDSEC
  0
SECTION
  2
ENTITIES
  0
POINT
  5
73
330
1F
100
AcDbEntity
  8
80
370
    18
100
AcDbPoint
 10
187.914782
 20
161.431656
 30
0.0
  0
POINT
  5
75
330
1F
100
AcDbEntity
  8
81
370
    18
100
AcDbPoint
 10
227.914782
 20
186.406656
 30
0.0
  0
POINT
  5
76
330
1F
100
AcDbEntity
  8
4
 60
     1
370
    13
100
AcDbPoint
 10
187.914782
 20
161.431656
 30
0.0
  0
POINT
  5
78
330
1F
100
AcDbEntity
  8
4
 60
     1
370
    13
100
AcDbPoint
 10
226.749507
 20
161.431656
 30
0.0
  0
POINT
  5
79
330
1F
100
AcDbEntity
  8
SK4
 60
     1
370
    13
100
AcDbPoint
 10
187.914782
 20
161.431656
 30
0.0
  0
POINT
  5
7A
330
1F
100
AcDbEntity
  8
SK4
 60
     1
370
    13
100
AcDbPoint
 10
226.749507
 20
161.431656
 30
0.0
  0
POINT
  5
7B
102
{ACAD_REACTORS
330
455
102
}
330
1F
100
AcDbEntity
  8
SK6
 60
     1
370
    13
100
AcDbPoint
 10
226.028702
 20
185.806163
 30
0.0
  0
POINT
  5
7C
102
{ACAD_REACTORS
330
46F
102
}
330
1F
100
AcDbEntity
  8
SK6
 60
     1
370
    13
100
AcDbPoint
 10
187.914782
 20
184.931656
 30
0.0
  0
LINE
  5
7D
330
1F
100
AcDbEntity
  8
1
370
    50
100
AcDbLine
 10
224.210846
 20
178.647655
 30
0.0
 11
224.830281
 21
178.28867
 31
0.0
  0
LINE
  5
7F
330
1F
100
AcDbEntity
  8
1
370
    50
100
AcDbLine
 10
225.564782
 20
163.477518
 30
0.0
 11
225.564782
 21
161.398436
 31
0.0
  0
LINE
  5
80
330
1F
100
AcDbEntity
  8
1
370
    50
100
AcDbLine
 10
214.124743
 20
146.602788
 30
0.0
 11
213.928168
 21
145.925032
 31
0.0
  0
LINE
  5
81
330
1F
100
AcDbEntity
  8
1
370
    50
100
AcDbLine
 10
224.823489
 20
141.131741
 30
0.0
 11
224.195479
 21
138.261761
 31
0.0
  0
LINE
  5
82
330
1F
100
AcDbEntity
  8
1
370
    50
100
AcDbLine
 10
216.990985
 20
141.579174
 30
0.0
 11
216.772304
 21
139.920874
 31
0.0
  0
LINE
  5
83
330
1F
100
AcDbEntity
  8
1
370
    50
100
AcDbLine
 10
220.618216
 20
139.109753
 30
0.0
 11
220.564212
 21
138.700231
 31
0.0
  0
LINE
  5
84
330
1F
100
AcDbEntity
  8
1
370
    50
100
AcDbLine
 10
225.564782
 20
161.398436
 30
0.0
 11
225.564782
 21
161.312694
 31
0.0
  0
LINE
  5
85
330
1F
100
AcDbEntity
  8
NOCUT
370
    13
100
AcDbLine
 10
209.0712
 20
171.8249
 30
0.0
 11
207.259328
 21
173.984205
 31
0.0
  0
LINE
  5
86
330
1F
100
AcDbEntity
  8
NOCUT
370
    13
100
AcDbLine
 10
204.679841
 20
179.431656
 30
0.0
 11
207.915954
 21
179.431656
 31
0.0
  0
LINE
  5
87
330
1F
100
AcDbEntity
  8
NOCUT
370
    13
100
AcDbLine
 10
225.298644
 20
183.67771
 30
0.0
 11
225.446906
 21
183.344708
 31
0.0
  0
LINE
  5
88
330
1F
100
AcDbEntity
  8
1
370
    50
100
AcDbLine
 10
227.604405
 20
150.376611
 30
0.0
 11
227.600317
 21
150.280331
 31
0.0
  0
LINE
  5
8A
330
1F
100
AcDbEntity
  8
1
370
    50
100
AcDbLine
 10
225.564787
 20
163.396862
 30
0.0
 11
225.679898
 21
163.482114
 31
0.0
  0
LINE
  5
8B
330
1F
100
AcDbEntity
  8
1
370
    50
100
AcDbLine
 10
227.340453
 20
163.139062
 30
0.0
 11
227.214755
 21
162.548604
 31
0.0
  0
LINE
  5
8C
330
1F
100
AcDbEntity
  8
1
370
    50
100
AcDbLine
 10
227.214755
 20
162.548604
 30
0.0
 11
226.882235
 21
162.340372
 31
0.0
  0
LINE
  5
8D
330
1F
100
AcDbEntity
  8
1
370
    50
100
AcDbLine
 10
226.167309
 20
162.112813
 30
0.0
 11
225.564778
 21
162.000045
 31
0.0
  0
LINE
  5
8E
330
1F
100
AcDbEntity
  8
1
370
    50
100
AcDbLine
 10
222.991883
 20
180.964416
 30
0.0
 11
222.898754
 21
181.057545
 31
0.0
  0
LINE
  5
90
330
1F
100
AcDbEntity
  8
1
370
    50
100
AcDbLine
 10
221.898186
 20
179.990916
 30
0.0
 11
222.057993
 21
179.831109
 31
0.0
  0
LINE
  5
91
330
1F
100
AcDbEntity
  8
1
370
    50
100
AcDbLine
 10
220.113185
 20
178.132137
 30
0.0
 11
219.953378
 21
178.291943
 31
0.0
  0
LINE
  5
92
330
1F
100
AcDbEntity
  8
1
370
    50
100
AcDbLine
 10
220.256899
 20
180.45165
 30
0.0
 11
220.410668
 21
180.29788
 31
0.0
  0
LINE
  5
93
330
1F
100
AcDbEntity
  8
1
370
    50
100
AcDbLine
 10
219.831586
 20
179.782117
 30
0.0
 11
219.678089
 21
179.935614
 31
0.0
  0
LINE
  5
94
330
1F
100
AcDbEntity
  8
1
370
    50
100
AcDbLine
 10
195.448475
 20
185.431656
 30
0.0
 11
188.414782
 21
185.431656
 31
0.0
  0
LINE
  5
95
330
1F
100
AcDbEntity
  8
1
370
    50
100
AcDbLine
 10
196.214519
 20
137.788868
 30
0.0
 11
198.551486
 21
140.573957
 31
0.0
  0
LINE
  5
96
330
1F
100
AcDbEntity
  8
1
370
    50
100
AcDbLine
 10
198.551486
 20
182.289355
 30
0.0
 11
196.214519
 21
185.074443
 31
0.0
  0
LINE
  5
97
330
1F
100
AcDbEntity
  8
1
370
    50
100
AcDbLine
 10
188.414782
 20
185.431656
 30
0.0
 11
187.914782
 21
184.931656
 31
0.0
  0
LINE
  5
98
330
1F
100
AcDbEntity
  8
1
370
    50
100
AcDbLine
 10
204.679841
 20
143.431656
 30
0.0
 11
207.915954
 21
143.431656
 31
0.0
  0
LINE
  5
99
330
1F
100
AcDbEntity
  8
1
370
    50
100
AcDbLine
 10
226.749507
 20
151.243733
 30
0.0
 11
226.749507
 21
152.579357
 31
0.0
  0
LINE
  5
9A
330
1F
100
AcDbEntity
  8
1
370
    50
100
AcDbLine
 10
212.915954
 20
142.09191
 30
0.0
 11
213.652635
 21
141.666587
 31
0.0
  0
LINE
  5
9B
330
1F
100
AcDbEntity
  8
1
370
    50
100
AcDbLine
 10
226.749507
 20
160.893082
 30
0.0
 11
226.749507
 21
162.273768
 31
0.0
  0
LINE
  5
9C
330
1F
100
AcDbEntity
  8
1
370
    50
100
AcDbLine
 10
225.02399
 20
154.634947
 30
0.0
 11
224.590863
 21
150.80451
 31
0.0
  0
LINE
  5
9D
330
1F
100
AcDbEntity
  8
1
370
    50
100
AcDbLine
 10
220.730304
 20
152.475548
 30
0.0
 11
220.564212
 21
150.677718
 31
0.0
  0
LINE
  5
9E
330
1F
100
AcDbEntity
  8
1
370
    50
100
AcDbLine
 10
216.990985
 20
154.307933
 30
0.0
 11
216.772304
 21
151.940873
 31
0.0
  0
LINE
  5
9F
330
1F
100
AcDbEntity
  8
1
370
    50
100
AcDbLine
 10
215.182489
 20
147.373389
 30
0.0
 11
215.157795
 21
147.287899
 31
0.0
  0
LINE
  5
A0
330
1F
100
AcDbEntity
  8
1
370
    50
100
AcDbLine
 10
214.749674
 20
177.51997
 30
0.0
 11
213.928168
 21
181.336438
 31
0.0
  0
LINE
  5
A1
330
1F
100
AcDbEntity
  8
1
370
    50
100
AcDbLine
 10
187.914782
 20
169.202608
 30
0.0
 11
187.914782
 21
167.659156
 31
0.0
  0
LINE
  5
A2
330
1F
100
AcDbEntity
  8
1
370
    50
100
AcDbLine
 10
187.914782
 20
155.204156
 30
0.0
 11
187.914782
 21
153.660704
 31
0.0
  0
LINE
  5
A3
330
1F
100
AcDbEntity
  8
1
370
    50
100
AcDbLine
 10
218.640699
 20
172.01933
 30
0.0
 11
217.750678
 21
171.007151
 31
0.0
  0
LINE
  5
A4
330
1F
100
AcDbEntity
  8
1
370
    50
100
AcDbLine
 10
218.640699
 20
172.01933
 30
0.0
 11
223.805677
 21
171.942466
 31
0.0
  0
LINE
  5
A5
330
1F
100
AcDbEntity
  8
1
370
    50
100
AcDbLine
 10
226.170035
 20
170.771033
 30
0.0
 11
226.186505
 21
169.906454
 31
0.0
  0
LINE
  5
A6
330
1F
100
AcDbEntity
  8
1
370
    50
100
AcDbLine
 10
225.324718
 20
171.468846
 30
0.0
 11
226.170035
 21
170.771033
 31
0.0
  0
LINE
  5
A7
330
1F
100
AcDbEntity
  8
1
370
    50
100
AcDbLine
 10
214.730488
 20
168.867924
 30
0.0
 11
215.03171
 21
169.859654
 31
0.0
  0
LINE
  5
A8
330
1F
100
AcDbEntity
  8
1
370
    50
100
AcDbLine
 10
215.470797
 20
170.949047
 30
0.0
 11
215.706012
 21
171.473474
 31
0.0
  0
LINE
  5
A9
330
1F
100
AcDbEntity
  8
1
370
    50
100
AcDbLine
 10
215.706012
 20
171.473474
 30
0.0
 11
216.038532
 21
171.708566
 31
0.0
  0
LINE
  5
AA
330
1F
100
AcDbEntity
  8
1
370
    50
100
AcDbLine
 10
216.753459
 20
171.893077
 30
0.0
 11
218.640699
 21
172.01933
 31
0.0
  0
LINE
  5
AB
330
1F
100
AcDbEntity
  8
1
370
    50
100
AcDbLine
 10
216.118054
 20
167.186168
 30
0.0
 11
216.716058
 21
166.210548
 31
0.0
  0
LINE
  5
AC
330
1F
100
AcDbEntity
  8
1
370
    50
100
AcDbLine
 10
216.716058
 20
166.210548
 30
0.0
 11
217.445145
 21
165.021069
 31
0.0
  0
LINE
  5
AD
330
1F
100
AcDbEntity
  8
1
370
    50
100
AcDbLine
 10
217.421904
 20
164.769496
 30
0.0
 11
217.445145
 21
165.021069
 31
0.0
  0
LINE
  5
AE
330
1F
100
AcDbEntity
  8
1
370
    50
100
AcDbLine
 10
227.340453
 20
168.304569
 30
0.0
 11
227.214755
 21
168.965586
 31
0.0
  0
LINE
  5
AF
330
1F
100
AcDbEntity
  8
1
370
    50
100
AcDbLine
 10
226.170035
 20
170.771033
 30
0.0
 11
227.214755
 21
168.965586
 31
0.0
  0
LINE
  5
B0
330
1F
100
AcDbEntity
  8
1
370
    50
100
AcDbLine
 10
222.024719
 20
164.631916
 30
0.0
 11
225.417476
 21
164.595687
 31
0.0
  0
LINE
  5
B1
330
1F
100
AcDbEntity
  8
1
370
    50
100
AcDbLine
 10
218.177467
 20
164.672999
 30
0.0
 11
222.024719
 21
164.631916
 31
0.0
  0
LINE
  5
B2
330
1F
100
AcDbEntity
  8
1
370
    50
100
AcDbLine
 10
225.394643
 20
164.348542
 30
0.0
 11
225.417476
 21
164.595687
 31
0.0
  0
LINE
  5
B3
330
1F
100
AcDbEntity
  8
1
370
    50
100
AcDbLine
 10
215.941578
 20
144.042164
 30
0.0
 11
215.483779
 21
143.616712
 31
0.0
  0
LINE
  5
B4
330
1F
100
AcDbEntity
  8
1
370
    50
100
AcDbLine
 10
226.219983
 20
143.349556
 30
0.0
 11
226.228455
 21
142.638716
 31
0.0
  0
LINE
  5
B5
330
1F
100
AcDbEntity
  8
SK3
370
    18
100
AcDbLine
 10
209.164782
 20
155.431656
 30
0.0
 11
209.164782
 21
151.295527
 31
0.0
  0
LINE
  5
B6
330
1F
100
AcDbEntity
  8
SK3
370
    18
100
AcDbLine
 10
213.164782
 20
166.931656
 30
0.0
 11
213.664782
 21
167.431656
 31
0.0
  0
LINE
  5
B7
330
1F
100
AcDbEntity
  8
SK3
370
    18
100
AcDbLine
 10
203.914782
 20
172.434906
 30
0.0
 11
206.752911
 21
174.0735
 31
0.0
  0
LINE
  5
B8
330
1F
100
AcDbEntity
  8
80
370
    18
100
AcDbLine
 10
186.914782
 20
161.431656
 30
0.0
 11
188.914782
 21
161.431656
 31
0.0
  0
LINE
  5
B9
330
1F
100
AcDbEntity
  8
SK3
370
    18
100
AcDbLine
 10
188.914782
 20
150.331656
 30
0.0
 11
187.915782
 21
149.332656
 31
0.0
  0
LINE
  5
BA
330
1F
100
AcDbEntity
  8
SK3
370
    18
100
AcDbLine
 10
213.664782
 20
155.431656
 30
0.0
 11
213.164782
 21
155.931656
 31
0.0
  0
LINE
  5
BB
330
1F
100
AcDbEntity
  8
SK3
370
    18
100
AcDbLine
 10
209.164782
 20
171.567785
 30
0.0
 11
209.164782
 21
167.431656
 31
0.0
  0
LINE
  5
BC
330
1F
100
AcDbEntity
  8
SK3
370
    18
100
AcDbLine
 10
194.514782
 20
172.531656
 30
0.0
 11
195.62064
 21
172.434906
 31
0.0
  0
LINE
  5
BD
330
1F
100
AcDbEntity
  8
SK3
370
    18
100
AcDbLine
 10
209.664782
 20
166.931656
 30
0.0
 11
213.164782
 21
166.931656
 31
0.0
  0
LINE
  5
BE
330
1F
100
AcDbEntity
  8
80
370
    18
100
AcDbLine
 10
187.914782
 20
160.431656
 30
0.0
 11
187.914782
 21
162.431656
 31
0.0
  0
LINE
  5
BF
330
1F
100
AcDbEntity
  8
SK3
370
    18
100
AcDbLine
 10
213.164782
 20
155.931656
 30
0.0
 11
209.664782
 21
155.931656
 31
0.0
  0
LINE
  5
C0
330
1F
100
AcDbEntity
  8
SK3
370
    18
100
AcDbLine
 10
209.0712
 20
151.038412
 30
0.0
 11
207.259328
 21
148.879107
 31
0.0
  0
LINE
  5
C1
330
1F
100
AcDbEntity
  8
SK3
370
    18
100
AcDbLine
 10
213.664782
 20
152.781656
 30
0.0
 11
213.664782
 21
155.431656
 31
0.0
  0
LINE
  5
C2
330
1F
100
AcDbEntity
  8
SK3
370
    18
100
AcDbLine
 10
213.664782
 20
167.431656
 30
0.0
 11
213.664782
 21
170.081656
 31
0.0
  0
LINE
  5
C3
330
1F
100
AcDbEntity
  8
SK3
370
    18
100
AcDbLine
 10
188.914782
 20
172.531656
 30
0.0
 11
194.514782
 21
172.531656
 31
0.0
  0
LINE
  5
C4
330
1F
100
AcDbEntity
  8
SK3
370
    18
100
AcDbLine
 10
195.62064
 20
150.428406
 30
0.0
 11
194.514782
 21
150.331656
 31
0.0
  0
LINE
  5
C5
330
1F
100
AcDbEntity
  8
SK3
370
    18
100
AcDbLine
 10
207.259328
 20
173.984205
 30
0.0
 11
209.0712
 21
171.8249
 31
0.0
  0
LINE
  5
C6
330
1F
100
AcDbEntity
  8
SK3
370
    18
100
AcDbLine
 10
206.752911
 20
148.789812
 30
0.0
 11
203.914782
 21
150.428406
 31
0.0
  0
LINE
  5
C7
330
1F
100
AcDbEntity
  8
SK3
370
    18
100
AcDbLine
 10
224.100016
 20
152.381656
 30
0.0
 11
214.064782
 21
152.381656
 31
0.0
  0
LINE
  5
C8
330
1F
100
AcDbEntity
  8
SK3
370
    18
100
AcDbLine
 10
209.164782
 20
167.431656
 30
0.0
 11
209.664782
 21
166.931656
 31
0.0
  0
LINE
  5
C9
330
1F
100
AcDbEntity
  8
SK3
370
    18
100
AcDbLine
 10
194.514782
 20
150.331656
 30
0.0
 11
188.914782
 21
150.331656
 31
0.0
  0
LINE
  5
CA
330
1F
100
AcDbEntity
  8
SK3
370
    18
100
AcDbLine
 10
209.664782
 20
155.931656
 30
0.0
 11
209.164782
 21
155.431656
 31
0.0
  0
LINE
  5
CB
330
1F
100
AcDbEntity
  8
SK3
370
    18
100
AcDbLine
 10
187.915782
 20
173.530656
 30
0.0
 11
188.914782
 21
172.531656
 31
0.0
  0
LINE
  5
CC
330
1F
100
AcDbEntity
  8
SK3
370
    18
100
AcDbLine
 10
214.064782
 20
170.481656
 30
0.0
 11
224.100016
 21
170.481656
 31
0.0
  0
LINE
  5
CD
330
1F
100
AcDbEntity
  8
NOCUT
370
    13
100
AcDbLine
 10
188.914782
 20
172.531656
 30
0.0
 11
187.915782
 21
173.530656
 31
0.0
  0
LINE
  5
CE
330
1F
100
AcDbEntity
  8
NOCUT
370
    13
100
AcDbLine
 10
213.164782
 20
166.931656
 30
0.0
 11
209.664782
 21
166.931656
 31
0.0
  0
LINE
  5
CF
330
1F
100
AcDbEntity
  8
NOCUT
370
    13
100
AcDbLine
 10
187.914782
 20
184.931656
 30
0.0
 11
188.414782
 21
185.431656
 31
0.0
  0
LINE
  5
D0
330
1F
100
AcDbEntity
  8
NOCUT
370
    13
100
AcDbLine
 10
226.53459
 20
176.902081
 30
0.0
 11
225.994616
 21
176.32303
 31
0.0
  0
LINE
  5
D1
330
1F
100
AcDbEntity
  8
NOCUT
370
    13
100
AcDbLine
 10
188.414782
 20
185.431656
 30
0.0
 11
195.448475
 21
185.431656
 31
0.0
  0
LINE
  5
D2
330
1F
100
AcDbEntity
  8
NOCUT
370
    13
100
AcDbLine
 10
213.664782
 20
170.081656
 30
0.0
 11
213.664782
 21
167.431656
 31
0.0
  0
LINE
  5
D3
330
1F
100
AcDbEntity
  8
NOCUT
370
    13
100
AcDbLine
 10
213.664782
 20
167.431656
 30
0.0
 11
213.164782
 21
166.931656
 31
0.0
  0
LINE
  5
D4
330
1F
100
AcDbEntity
  8
NOCUT
370
    13
100
AcDbLine
 10
225.564782
 20
175.231832
 30
0.0
 11
225.564782
 21
172.256656
 31
0.0
  0
LINE
  5
D5
330
1F
100
AcDbEntity
  8
NOCUT
370
    13
100
AcDbLine
 10
212.915954
 20
180.771402
 30
0.0
 11
217.010211
 21
183.135222
 31
0.0
  0
LINE
  5
D6
330
1F
100
AcDbEntity
  8
NOCUT
370
    13
100
AcDbLine
 10
209.664782
 20
166.931656
 30
0.0
 11
209.164782
 21
167.431656
 31
0.0
  0
LINE
  5
D7
330
1F
100
AcDbEntity
  8
NOCUT
370
    13
100
AcDbLine
 10
196.214519
 20
185.074443
 30
0.0
 11
198.551486
 21
182.289355
 31
0.0
  0
LINE
  5
D8
330
1F
100
AcDbEntity
  8
NOCUT
370
    13
100
AcDbLine
 10
219.346918
 20
184.0322
 30
0.0
 11
223.05573
 21
184.820532
 31
0.0
  0
LINE
  5
D9
330
1F
100
AcDbEntity
  8
NOCUT
370
    13
100
AcDbLine
 10
203.914782
 20
172.434906
 30
0.0
 11
195.62064
 21
172.434906
 31
0.0
  0
LINE
  5
DA
330
1F
100
AcDbEntity
  8
NOCUT
370
    13
100
AcDbLine
 10
225.640712
 20
182.748233
 30
0.0
 11
226.732025
 21
177.614009
 31
0.0
  0
LINE
  5
DB
330
1F
100
AcDbEntity
  8
NOCUT
370
    13
100
AcDbLine
 10
194.514782
 20
172.531656
 30
0.0
 11
188.914782
 21
172.531656
 31
0.0
  0
LINE
  5
DC
330
1F
100
AcDbEntity
  8
NOCUT
370
    13
100
AcDbLine
 10
206.752911
 20
174.0735
 30
0.0
 11
203.914782
 21
172.434906
 31
0.0
  0
LINE
  5
DD
330
1F
100
AcDbEntity
  8
NOCUT
370
    13
100
AcDbLine
 10
225.564782
 20
172.256656
 30
0.0
 11
225.006324
 21
171.059038
 31
0.0
  0
LINE
  5
DE
330
1F
100
AcDbEntity
  8
NOCUT
370
    13
100
AcDbLine
 10
209.164782
 20
167.431656
 30
0.0
 11
209.164782
 21
171.567785
 31
0.0
  0
LINE
  5
DF
330
1F
100
AcDbEntity
  8
NOCUT
370
    13
100
AcDbLine
 10
187.914782
 20
173.530656
 30
0.0
 11
187.914782
 21
184.931656
 31
0.0
  0
LINE
  5
E0
330
1F
100
AcDbEntity
  8
NOCUT
370
    13
100
AcDbLine
 10
224.100016
 20
170.481656
 30
0.0
 11
214.064782
 21
170.481656
 31
0.0
  0
LINE
  5
E1
330
1F
100
AcDbEntity
  8
NOCUT
370
    13
100
AcDbLine
 10
195.62064
 20
172.434906
 30
0.0
 11
194.514782
 21
172.531656
 31
0.0
  0
LINE
  5
E2
330
1F
100
AcDbEntity
  8
1
370
    50
100
AcDbLine
 10
220.939163
 20
166.753702
 30
0.0
 11
220.850406
 21
165.792979
 31
0.0
  0
LINE
  5
E3
330
1F
100
AcDbEntity
  8
1
370
    50
100
AcDbLine
 10
226.749507
 20
169.76963
 30
0.0
 11
226.749507
 21
170.494082
 31
0.0
  0
LINE
  5
E4
330
1F
100
AcDbEntity
  8
1
370
    50
100
AcDbLine
 10
187.914782
 20
169.202608
 30
0.0
 11
187.914782
 21
184.931656
 31
0.0
  0
LINE
  5
E5
330
1F
100
AcDbEntity
  8
1
370
    50
100
AcDbLine
 10
188.414782
 20
137.431656
 30
0.0
 11
188.414782
 21
153.576102
 31
0.0
  0
LINE
  5
E6
330
1F
100
AcDbEntity
  8
1
370
    50
100
AcDbLine
 10
193.489782
 20
155.204156
 30
0.0
 11
188.914782
 21
155.204156
 31
0.0
  0
LINE
  5
E7
330
1F
100
AcDbEntity
  8
1
370
    50
100
AcDbLine
 10
193.489782
 20
167.659156
 30
0.0
 11
188.914782
 21
167.659156
 31
0.0
  0
LINE
  5
E8
330
1F
100
AcDbEntity
  8
1
370
    50
100
AcDbLine
 10
188.914782
 20
155.204156
 30
0.0
 11
188.914782
 21
156.204156
 31
0.0
  0
LINE
  5
E9
330
1F
100
AcDbEntity
  8
1
370
    50
100
AcDbLine
 10
188.914782
 20
156.204156
 30
0.0
 11
187.914782
 21
155.204156
 31
0.0
  0
LINE
  5
EA
330
1F
100
AcDbEntity
  8
1
370
    50
100
AcDbLine
 10
188.914782
 20
166.659156
 30
0.0
 11
188.914782
 21
167.659156
 31
0.0
  0
LINE
  5
EB
330
1F
100
AcDbEntity
  8
1
370
    50
100
AcDbLine
 10
188.914782
 20
166.659156
 30
0.0
 11
187.914782
 21
167.659156
 31
0.0
  0
LINE
  5
EC
330
1F
100
AcDbEntity
  8
1
370
    50
100
AcDbLine
 10
187.914782
 20
137.931656
 30
0.0
 11
187.914782
 21
153.660704
 31
0.0
  0
LINE
  5
ED
330
1F
100
AcDbEntity
  8
1
370
    50
100
AcDbLine
 10
214.13834
 20
166.879555
 30
0.0
 11
213.928168
 21
167.222443
 31
0.0
  0
LINE
  5
EE
330
1F
100
AcDbEntity
  8
1
370
    50
100
AcDbLine
 10
215.889301
 20
182.306086
 30
0.0
 11
216.716058
 21
178.465225
 31
0.0
  0
LINE
  5
EF
330
1F
100
AcDbEntity
  8
1
370
    50
100
AcDbLine
 10
216.716058
 20
178.465225
 30
0.0
 11
216.859779
 21
177.797539
 31
0.0
  0
LINE
  5
F0
330
1F
100
AcDbEntity
  8
1
370
    50
100
AcDbLine
 10
223.993939
 20
184.65575
 30
0.0
 11
220.146687
 21
183.799793
 31
0.0
  0
LINE
  5
F1
330
1F
100
AcDbEntity
  8
1
370
    50
100
AcDbLine
 10
220.146687
 20
183.799793
 30
0.0
 11
216.75393
 21
183.044955
 31
0.0
  0
LINE
  5
F2
330
1F
100
AcDbEntity
  8
1
370
    50
100
AcDbLine
 10
223.692549
 20
166.341751
 30
0.0
 11
223.730304
 21
166.750421
 31
0.0
  0
LINE
  5
F3
330
1F
100
AcDbEntity
  8
1
370
    50
100
AcDbLine
 10
218.235827
 20
167.063721
 30
0.0
 11
218.215872
 21
166.847714
 31
0.0
  0
LINE
  5
F4
330
1F
100
AcDbEntity
  8
1
370
    50
100
AcDbLine
 10
221.73223
 20
166.680347
 30
0.0
 11
221.727171
 21
166.625597
 31
0.0
  0
LINE
  5
F5
330
1F
100
AcDbEntity
  8
1
370
    50
100
AcDbLine
 10
219.730991
 20
166.571668
 30
0.0
 11
219.749956
 21
166.776955
 31
0.0
  0
LINE
  5
F6
330
1F
100
AcDbEntity
  8
1
370
    50
100
AcDbLine
 10
222.158675
 20
166.414787
 30
0.0
 11
222.120573
 21
166.002362
 31
0.0
  0
LINE
  5
F7
330
1F
100
AcDbEntity
  8
1
370
    50
100
AcDbLine
 10
220.124392
 20
165.948433
 30
0.0
 11
220.203523
 21
166.804965
 31
0.0
  0
LINE
  5
F8
330
1F
100
AcDbEntity
  8
1
370
    50
100
AcDbLine
 10
227.908252
 20
164.027391
 30
0.0
 11
227.729114
 21
165.399795
 31
0.0
  0
LINE
  5
F9
330
1F
100
AcDbEntity
  8
1
370
    50
100
AcDbLine
 10
227.492751
 20
167.210622
 30
0.0
 11
227.42011
 21
167.767134
 31
0.0
  0
LINE
  5
FA
330
1F
100
AcDbEntity
  8
1
370
    50
100
AcDbLine
 10
219.898762
 20
165.363985
 30
0.0
 11
220.348207
 21
165.149515
 31
0.0
  0
LINE
  5
FB
330
1F
100
AcDbEntity
  8
1
370
    50
100
AcDbLine
 10
223.742692
 20
153.5168
 30
0.0
 11
223.794247
 21
153.907755
 31
0.0
  0
LINE
  5
FC
330
1F
100
AcDbEntity
  8
1
370
    50
100
AcDbLine
 10
219.82858
 20
154.43071
 30
0.0
 11
219.777024
 21
154.039755
 31
0.0
  0
LINE
  5
FD
330
1F
100
AcDbEntity
  8
1
370
    50
100
AcDbLine
 10
225.042087
 20
142.642368
 30
0.0
 11
224.313554
 21
143.731371
 31
0.0
  0
LINE
  5
FE
330
1F
100
AcDbEntity
  8
1
370
    50
100
AcDbLine
 10
223.911488
 20
144.905626
 30
0.0
 11
223.805677
 21
145.466059
 31
0.0
  0
LINE
  5
FF
330
1F
100
AcDbEntity
  8
1
370
    50
100
AcDbLine
 10
223.805677
 20
145.466059
 30
0.0
 11
224.593942
 21
145.671141
 31
0.0
  0
LINE
  5
100
330
1F
100
AcDbEntity
  8
1
370
    50
100
AcDbLine
 10
217.750678
 20
145.723434
 30
0.0
 11
223.702821
 21
144.199039
 31
0.0
  0
LINE
  5
101
330
1F
100
AcDbEntity
  8
1
370
    50
100
AcDbLine
 10
218.640699
 20
146.550567
 30
0.0
 11
217.750678
 21
145.723434
 31
0.0
  0
LINE
  5
102
330
1F
100
AcDbEntity
  8
1
370
    50
100
AcDbLine
 10
218.640699
 20
146.550567
 30
0.0
 11
223.805677
 21
145.466059
 31
0.0
  0
LINE
  5
103
330
1F
100
AcDbEntity
  8
1
370
    50
100
AcDbLine
 10
227.214755
 20
151.371181
 30
0.0
 11
226.882235
 21
151.984136
 31
0.0
  0
LINE
  5
104
330
1F
100
AcDbEntity
  8
1
370
    50
100
AcDbLine
 10
226.170035
 20
147.540571
 30
0.0
 11
227.214755
 21
151.371181
 31
0.0
  0
LINE
  5
105
330
1F
100
AcDbEntity
  8
1
370
    50
100
AcDbLine
 10
225.324718
 20
146.167601
 30
0.0
 11
226.170035
 21
147.540571
 31
0.0
  0
LINE
  5
106
330
1F
100
AcDbEntity
  8
1
370
    50
100
AcDbLine
 10
216.753459
 20
147.296056
 30
0.0
 11
218.640699
 21
146.550567
 31
0.0
  0
LINE
  5
107
330
1F
100
AcDbEntity
  8
1
370
    50
100
AcDbLine
 10
215.7762
 20
148.371308
 30
0.0
 11
216.038532
 21
147.887733
 31
0.0
  0
LINE
  5
108
330
1F
100
AcDbEntity
  8
1
370
    50
100
AcDbLine
 10
217.750678
 20
145.723434
 30
0.0
 11
215.952639
 21
145.43827
 31
0.0
  0
LINE
  5
109
330
1F
100
AcDbEntity
  8
1
370
    50
100
AcDbLine
 10
214.730488
 20
145.166545
 30
0.0
 11
215.03171
 21
146.697525
 31
0.0
  0
LINE
  5
10A
330
1F
100
AcDbEntity
  8
1
370
    50
100
AcDbLine
 10
215.470797
 20
147.97488
 30
0.0
 11
215.664277
 21
148.407391
 31
0.0
  0
LINE
  5
10B
330
1F
100
AcDbEntity
  8
1
370
    50
100
AcDbLine
 10
226.170035
 20
147.540571
 30
0.0
 11
226.186505
 21
146.158605
 31
0.0
  0
LINE
  5
10C
330
1F
100
AcDbEntity
  8
1
370
    50
100
AcDbLine
 10
226.186505
 20
146.158605
 30
0.0
 11
225.731713
 21
144.230266
 31
0.0
  0
LINE
  5
10D
330
1F
100
AcDbEntity
  8
1
370
    50
100
AcDbLine
 10
226.186505
 20
146.158605
 30
0.0
 11
227.443658
 21
150.377525
 31
0.0
  0
LINE
  5
10E
330
1F
100
AcDbEntity
  8
1
370
    50
100
AcDbLine
 10
227.604405
 20
150.26252
 30
0.0
 11
227.541333
 21
150.537475
 31
0.0
  0
LINE
  5
10F
330
1F
100
AcDbEntity
  8
1
370
    50
100
AcDbLine
 10
227.340453
 20
151.066498
 30
0.0
 11
227.214755
 21
151.371181
 31
0.0
  0
LINE
  5
110
330
1F
100
AcDbEntity
  8
1
370
    50
100
AcDbLine
 10
215.478326
 20
148.43738
 30
0.0
 11
215.214899
 21
147.505949
 31
0.0
  0
LINE
  5
111
330
1F
100
AcDbEntity
  8
1
370
    50
100
AcDbLine
 10
223.911488
 20
171.396619
 30
0.0
 11
223.805677
 21
171.942466
 31
0.0
  0
LINE
  5
112
330
1F
100
AcDbEntity
  8
1
370
    50
100
AcDbLine
 10
223.805677
 20
171.942466
 30
0.0
 11
224.593942
 21
171.766949
 31
0.0
  0
LINE
  5
113
330
1F
100
AcDbEntity
  8
1
370
    50
100
AcDbLine
 10
215.941578
 20
168.949749
 30
0.0
 11
215.483779
 21
168.429115
 31
0.0
  0
LINE
  5
114
330
1F
100
AcDbEntity
  8
1
370
    50
100
AcDbLine
 10
226.219983
 20
168.149068
 30
0.0
 11
226.228455
 21
167.704355
 31
0.0
  0
LINE
  5
115
330
1F
100
AcDbEntity
  8
1
370
    50
100
AcDbLine
 10
217.750678
 20
171.007151
 30
0.0
 11
223.702821
 21
170.64088
 31
0.0
  0
LINE
  5
116
330
1F
100
AcDbEntity
  8
1
370
    50
100
AcDbLine
 10
217.750678
 20
171.007151
 30
0.0
 11
215.952639
 21
170.082362
 31
0.0
  0
LINE
  5
117
330
1F
100
AcDbEntity
  8
1
370
    50
100
AcDbLine
 10
226.186505
 20
169.906454
 30
0.0
 11
225.731713
 21
169.563231
 31
0.0
  0
LINE
  5
118
330
1F
100
AcDbEntity
  8
1
370
    50
100
AcDbLine
 10
226.186505
 20
169.906454
 30
0.0
 11
227.443658
 21
167.507462
 31
0.0
  0
LINE
  5
119
102
{ACAD_REACTORS
330
423
102
}
330
1F
100
AcDbEntity
  8
1
370
    50
100
AcDbLine
 10
188.414782
 20
185.431656
 30
0.0
 11
188.414782
 21
169.28721
 31
0.0
  0
LINE
  5
11A
102
{ACAD_REACTORS
330
423
102
}
330
1F
100
AcDbEntity
  8
1
370
    50
100
AcDbLine
 10
188.414782
 20
137.431656
 30
0.0
 11
195.448475
 21
137.431656
 31
0.0
  0
LINE
  5
11B
102
{ACAD_REACTORS
330
43C
102
}
330
1F
100
AcDbEntity
  8
SK3
370
    18
100
AcDbLine
 10
195.62064
 20
172.434906
 30
0.0
 11
203.914782
 21
172.434906
 31
0.0
  0
LINE
  5
11C
102
{ACAD_REACTORS
330
43C
102
}
330
1F
100
AcDbEntity
  8
SK3
370
    18
100
AcDbLine
 10
203.914782
 20
150.428406
 30
0.0
 11
195.62064
 21
150.428406
 31
0.0
  0
LINE
  5
11D
102
{ACAD_REACTORS
330
455
102
}
330
1F
100
AcDbEntity
  8
81
370
    18
100
AcDbLine
 10
226.914782
 20
186.406656
 30
0.0
 11
228.914782
 21
186.406656
 31
0.0
  0
LINE
  5
11E
102
{ACAD_REACTORS
330
4A1
102
}
330
1F
100
AcDbEntity
  8
1
370
    50
100
AcDbLine
 10
188.914782
 20
166.659156
 30
0.0
 11
193.489782
 21
166.659156
 31
0.0
  0
LINE
  5
11F
102
{ACAD_REACTORS
330
4A1
102
}
330
1F
100
AcDbEntity
  8
1
370
    50
100
AcDbLine
 10
188.914782
 20
156.204156
 30
0.0
 11
193.489782
 21
156.204156
 31
0.0
  0
LINE
  5
120
102
{ACAD_REACTORS
330
40C
330
46F
102
}
330
1F
100
AcDbEntity
  8
81
370
    18
100
AcDbLine
 10
227.914782
 20
185.406656
 30
0.0
 11
227.914782
 21
187.406656
 31
0.0
  0
LINE
  5
121
102
{ACAD_REACTORS
330
487
102
}
330
1F
100
AcDbEntity
  8
1
370
    50
100
AcDbLine
 10
187.914782
 20
137.931656
 30
0.0
 11
188.414782
 21
137.431656
 31
0.0
  0
LINE
  5
122
330
1F
100
AcDbEntity
  8
1
370
    13
100
AcDbLine
 10
215.452469
 20
164.755727
 30
0.0
 11
215.427964
 21
164.561407
 31
0.0
  0
LINE
  5
123
330
1F
100
AcDbEntity
  8
1
370
    13
100
AcDbLine
 10
218.473671
 20
162.577094
 30
0.0
 11
218.693978
 21
163.22741
 31
0.0
  0
LINE
  5
124
330
1F
100
AcDbEntity
  8
1
370
    13
100
AcDbLine
 10
218.693978
 20
163.22741
 30
0.0
 11
218.695364
 21
163.338023
 31
0.0
  0
LINE
  5
125
330
1F
100
AcDbEntity
  8
1
370
    13
100
AcDbLine
 10
225.298644
 20
140.759319
 30
0.0
 11
225.446906
 21
141.214499
 31
0.0
  0
LINE
  5
126
330
1F
100
AcDbEntity
  8
1
370
    13
100
AcDbLine
 10
224.224021
 20
140.606321
 30
0.0
 11
223.784292
 21
141.187861
 31
0.0
  0
LINE
  5
127
330
1F
100
AcDbEntity
  8
1
370
    13
100
AcDbLine
 10
218.275744
 20
178.517082
 30
0.0
 11
218.692892
 21
177.549284
 31
0.0
  0
LINE
  5
128
330
1F
100
AcDbEntity
  8
1
370
    13
100
AcDbLine
 10
219.65299
 20
177.868638
 30
0.0
 11
219.705729
 21
177.81803
 31
0.0
  0
LINE
  5
129
330
1F
100
AcDbEntity
  8
1
370
    13
100
AcDbLine
 10
219.172604
 20
178.751374
 30
0.0
 11
219.65299
 21
177.868638
 31
0.0
  0
LINE
  5
12A
330
1F
100
AcDbEntity
  8
1
370
    13
100
AcDbLine
 10
222.428326
 20
179.07747
 30
0.0
 11
222.367885
 21
179.059091
 31
0.0
  0
LINE
  5
12B
330
1F
100
AcDbEntity
  8
1
370
    13
100
AcDbLine
 10
222.428326
 20
179.07747
 30
0.0
 11
222.519765
 21
179.13423
 31
0.0
  0
LINE
  5
12C
330
1F
100
AcDbEntity
  8
1
370
    13
100
AcDbLine
 10
222.371111
 20
179.824832
 30
0.0
 11
222.264711
 21
179.837576
 31
0.0
  0
LINE
  5
12D
330
1F
100
AcDbEntity
  8
1
370
    13
100
AcDbLine
 10
222.202244
 20
179.82861
 30
0.0
 11
222.264711
 21
179.837576
 31
0.0
  0
LINE
  5
12E
330
1F
100
AcDbEntity
  8
1
370
    13
100
AcDbLine
 10
221.742331
 20
180.41115
 30
0.0
 11
221.727631
 21
180.349736
 31
0.0
  0
LINE
  5
12F
330
1F
100
AcDbEntity
  8
1
370
    13
100
AcDbLine
 10
221.742331
 20
180.41115
 30
0.0
 11
221.739495
 21
180.518347
 31
0.0
  0
LINE
  5
130
330
1F
100
AcDbEntity
  8
1
370
    13
100
AcDbLine
 10
221.066094
 20
180.730363
 30
0.0
 11
221.001158
 21
180.644503
 31
0.0
  0
LINE
  5
131
330
1F
100
AcDbEntity
  8
1
370
    13
100
AcDbLine
 10
220.977278
 20
180.58598
 30
0.0
 11
221.001158
 21
180.644503
 31
0.0
  0
LINE
  5
132
330
1F
100
AcDbEntity
  8
1
370
    13
100
AcDbLine
 10
220.239787
 20
180.47511
 30
0.0
 11
220.285527
 21
180.432075
 31
0.0
  0
LINE
  5
133
330
1F
100
AcDbEntity
  8
1
370
    13
100
AcDbLine
 10
220.239787
 20
180.47511
 30
0.0
 11
220.145512
 21
180.525547
 31
0.0
  0
LINE
  5
134
330
1F
100
AcDbEntity
  8
1
370
    13
100
AcDbLine
 10
219.620765
 20
180.046961
 30
0.0
 11
219.662228
 21
179.948357
 31
0.0
  0
LINE
  5
135
330
1F
100
AcDbEntity
  8
1
370
    13
100
AcDbLine
 10
219.700816
 20
179.8988
 30
0.0
 11
219.662228
 21
179.948357
 31
0.0
  0
LINE
  5
136
330
1F
100
AcDbEntity
  8
1
370
    13
100
AcDbLine
 10
219.423238
 20
179.20539
 30
0.0
 11
219.483679
 21
179.223769
 31
0.0
  0
LINE
  5
137
330
1F
100
AcDbEntity
  8
1
370
    13
100
AcDbLine
 10
219.423238
 20
179.20539
 30
0.0
 11
219.331798
 21
179.14863
 31
0.0
  0
LINE
  5
138
330
1F
100
AcDbEntity
  8
1
370
    13
100
AcDbLine
 10
219.480452
 20
178.458028
 30
0.0
 11
219.586853
 21
178.445284
 31
0.0
  0
LINE
  5
139
330
1F
100
AcDbEntity
  8
1
370
    13
100
AcDbLine
 10
219.64932
 20
178.45425
 30
0.0
 11
219.586853
 21
178.445284
 31
0.0
  0
LINE
  5
13A
330
1F
100
AcDbEntity
  8
1
370
    13
100
AcDbLine
 10
223.289767
 20
180.610712
 30
0.0
 11
222.99192
 21
180.964379
 31
0.0
  0
LINE
  5
13B
330
1F
100
AcDbEntity
  8
1
370
    13
100
AcDbLine
 10
226.44499
 20
174.21417
 30
0.0
 11
226.375383
 21
173.518278
 31
0.0
  0
LINE
  5
13C
330
1F
100
AcDbEntity
  8
1
370
    13
100
AcDbLine
 10
226.53459
 20
158.361076
 30
0.0
 11
226.406195
 21
156.759769
 31
0.0
  0
LINE
  5
13D
330
1F
100
AcDbEntity
  8
1
370
    13
100
AcDbLine
 10
223.623522
 20
166.169955
 30
0.0
 11
223.692549
 21
166.341751
 31
0.0
  0
LINE
  5
13E
330
1F
100
AcDbEntity
  8
1
370
    13
100
AcDbLine
 10
220.123933
 20
165.952687
 30
0.0
 11
219.64932
 21
166.166411
 31
0.0
  0
LINE
  5
13F
330
1F
100
AcDbEntity
  8
1
370
    13
100
AcDbLine
 10
220.112069
 20
165.897556
 30
0.0
 11
220.785469
 21
165.769897
 31
0.0
  0
LINE
  5
140
330
1F
100
AcDbEntity
  8
1
370
    13
100
AcDbLine
 10
220.785469
 20
165.769897
 30
0.0
 11
220.850406
 21
165.792979
 31
0.0
  0
LINE
  5
141
330
1F
100
AcDbEntity
  8
1
370
    13
100
AcDbLine
 10
221.566037
 20
165.803053
 30
0.0
 11
220.874286
 21
165.81044
 31
0.0
  0
LINE
  5
142
330
1F
100
AcDbEntity
  8
1
370
    13
100
AcDbLine
 10
221.611777
 20
165.784849
 30
0.0
 11
221.706052
 21
165.760066
 31
0.0
  0
LINE
  5
143
330
1F
100
AcDbEntity
  8
1
370
    13
100
AcDbLine
 10
221.706052
 20
165.760066
 30
0.0
 11
222.230799
 21
165.874931
 31
0.0
  0
LINE
  5
144
330
1F
100
AcDbEntity
  8
1
370
    13
100
AcDbLine
 10
222.230799
 20
165.874931
 30
0.0
 11
222.189336
 21
165.911273
 31
0.0
  0
LINE
  5
145
330
1F
100
AcDbEntity
  8
1
370
    13
100
AcDbLine
 10
222.428326
 20
166.138378
 30
0.0
 11
222.367885
 21
166.137381
 31
0.0
  0
LINE
  5
146
330
1F
100
AcDbEntity
  8
1
370
    13
100
AcDbLine
 10
222.428326
 20
166.138378
 30
0.0
 11
222.519765
 21
166.149526
 31
0.0
  0
LINE
  5
147
330
1F
100
AcDbEntity
  8
1
370
    13
100
AcDbLine
 10
222.371111
 20
166.392049
 30
0.0
 11
222.264711
 21
166.40531
 31
0.0
  0
LINE
  5
148
330
1F
100
AcDbEntity
  8
1
370
    13
100
AcDbLine
 10
222.202244
 20
166.407619
 30
0.0
 11
222.264711
 21
166.40531
 31
0.0
  0
LINE
  5
149
330
1F
100
AcDbEntity
  8
1
370
    13
100
AcDbLine
 10
221.727631
 20
166.621344
 30
0.0
 11
222.202244
 21
166.407619
 31
0.0
  0
LINE
  5
14A
330
1F
100
AcDbEntity
  8
1
370
    13
100
AcDbLine
 10
221.739495
 20
166.676475
 30
0.0
 11
221.066094
 21
166.804134
 31
0.0
  0
LINE
  5
14B
330
1F
100
AcDbEntity
  8
1
370
    13
100
AcDbLine
 10
221.066094
 20
166.804134
 30
0.0
 11
221.001158
 21
166.781051
 31
0.0
  0
LINE
  5
14C
330
1F
100
AcDbEntity
  8
1
370
    13
100
AcDbLine
 10
220.285527
 20
166.770978
 30
0.0
 11
220.977278
 21
166.763591
 31
0.0
  0
LINE
  5
14D
330
1F
100
AcDbEntity
  8
1
370
    13
100
AcDbLine
 10
220.239787
 20
166.789182
 30
0.0
 11
220.145512
 21
166.813964
 31
0.0
  0
LINE
  5
14E
330
1F
100
AcDbEntity
  8
1
370
    13
100
AcDbLine
 10
220.145512
 20
166.813964
 30
0.0
 11
219.620765
 21
166.699099
 31
0.0
  0
LINE
  5
14F
330
1F
100
AcDbEntity
  8
1
370
    13
100
AcDbLine
 10
219.620765
 20
166.699099
 30
0.0
 11
219.662228
 21
166.662757
 31
0.0
  0
LINE
  5
150
330
1F
100
AcDbEntity
  8
1
370
    13
100
AcDbLine
 10
219.423238
 20
166.435652
 30
0.0
 11
219.483679
 21
166.436649
 31
0.0
  0
LINE
  5
151
330
1F
100
AcDbEntity
  8
1
370
    13
100
AcDbLine
 10
219.423238
 20
166.435652
 30
0.0
 11
219.331798
 21
166.424505
 31
0.0
  0
LINE
  5
152
330
1F
100
AcDbEntity
  8
1
370
    13
100
AcDbLine
 10
219.480452
 20
166.181981
 30
0.0
 11
219.586853
 21
166.168721
 31
0.0
  0
LINE
  5
153
330
1F
100
AcDbEntity
  8
1
370
    13
100
AcDbLine
 10
219.64932
 20
166.166411
 30
0.0
 11
219.586853
 21
166.168721
 31
0.0
  0
LINE
  5
154
330
1F
100
AcDbEntity
  8
1
370
    13
100
AcDbLine
 10
223.334687
 20
153.917448
 30
0.0
 11
223.432411
 21
154.22342
 31
0.0
  0
LINE
  5
155
330
1F
100
AcDbEntity
  8
1
370
    13
100
AcDbLine
 10
204.679841
 20
147.887882
 30
0.0
 11
207.915954
 21
147.703764
 31
0.0
  0
LINE
  5
156
330
1F
100
AcDbEntity
  8
1
370
    13
100
AcDbLine
 10
215.016331
 20
147.553267
 30
0.0
 11
215.157795
 21
147.287899
 31
0.0
  0
LINE
  5
157
330
1F
100
AcDbEntity
  8
1
370
    13
100
AcDbLine
 10
215.157795
 20
147.287899
 30
0.0
 11
215.149714
 21
147.227929
 31
0.0
  0
LINE
  5
158
330
1F
100
AcDbEntity
  8
1
370
    13
100
AcDbLine
 10
213.998079
 20
146.50718
 30
0.0
 11
213.928168
 21
145.925032
 31
0.0
  0
LINE
  5
159
330
1F
100
AcDbEntity
  8
1
370
    13
100
AcDbLine
 10
226.282973
 20
159.65034
 30
0.0
 11
226.53459
 21
155.131406
 31
0.0
  0
LINE
  5
15A
330
1F
100
AcDbEntity
  8
1
370
    13
100
AcDbLine
 10
225.298644
 20
148.456326
 30
0.0
 11
225.446906
 21
148.339047
 31
0.0
  0
LINE
  5
15B
330
1F
100
AcDbEntity
  8
1
370
    13
100
AcDbLine
 10
207.915954
 20
179.389315
 30
0.0
 11
204.679841
 21
179.367775
 31
0.0
  0
LINE
  5
15C
330
1F
100
AcDbEntity
  8
1
370
    13
100
AcDbLine
 10
213.998079
 20
181.31237
 30
0.0
 11
213.928168
 21
181.336438
 31
0.0
  0
LINE
  5
15D
330
1F
100
AcDbEntity
  8
1
370
    13
100
AcDbLine
 10
188.414782
 20
153.576102
 30
0.0
 11
188.914782
 21
155.204156
 31
0.0
  0
LINE
  5
15E
330
1F
100
AcDbEntity
  8
1
370
    13
100
AcDbLine
 10
223.720268
 20
166.642053
 30
0.0
 11
223.832523
 21
166.689174
 31
0.0
  0
LINE
  5
15F
330
1F
100
AcDbEntity
  8
1
370
    13
100
AcDbLine
 10
224.287597
 20
166.162793
 30
0.0
 11
224.221573
 21
166.330981
 31
0.0
  0
LINE
  5
160
330
1F
100
AcDbEntity
  8
1
370
    13
100
AcDbLine
 10
221.285244
 20
165.28956
 30
0.0
 11
221.774121
 21
165.271344
 31
0.0
  0
LINE
  5
161
330
1F
100
AcDbEntity
  8
1
370
    13
100
AcDbLine
 10
215.941578
 20
144.042164
 30
0.0
 11
223.174204
 21
142.511398
 31
0.0
  0
LINE
  5
162
330
1F
100
AcDbEntity
  8
1
370
    13
100
AcDbLine
 10
215.441648
 20
144.252844
 30
0.0
 11
215.941578
 21
144.042164
 31
0.0
  0
LINE
  5
163
330
1F
100
AcDbEntity
  8
1
370
    13
100
AcDbLine
 10
226.219983
 20
143.349556
 30
0.0
 11
227.685274
 21
148.70502
 31
0.0
  0
LINE
  5
164
330
1F
100
AcDbEntity
  8
1
370
    13
100
AcDbLine
 10
225.99141
 20
142.994082
 30
0.0
 11
226.219983
 21
143.349556
 31
0.0
  0
LINE
  5
165
330
1F
100
AcDbEntity
  8
1
370
    13
100
AcDbLine
 10
220.259218
 20
141.532977
 30
0.0
 11
220.264636
 21
141.245494
 31
0.0
  0
LINE
  5
166
330
1F
100
AcDbEntity
  8
1
370
    13
100
AcDbLine
 10
226.448467
 20
172.850108
 30
0.0
 11
226.53459
 21
172.172123
 31
0.0
  0
LINE
  5
167
330
1F
100
AcDbEntity
  8
1
370
    13
100
AcDbLine
 10
225.298644
 20
173.325297
 30
0.0
 11
225.446906
 21
172.819296
 31
0.0
  0
LINE
  5
168
330
1F
100
AcDbEntity
  8
1
370
    13
100
AcDbLine
 10
215.129931
 20
170.107501
 30
0.0
 11
215.016331
 21
170.287783
 31
0.0
  0
LINE
  5
169
330
1F
100
AcDbEntity
  8
1
370
    13
100
AcDbLine
 10
213.998079
 20
168.1358
 30
0.0
 11
213.928168
 21
167.222443
 31
0.0
  0
LINE
  5
16A
330
1F
100
AcDbEntity
  8
1
370
    13
100
AcDbLine
 10
207.915954
 20
167.083723
 30
0.0
 11
204.679841
 21
167.350817
 31
0.0
  0
LINE
  5
16B
330
1F
100
AcDbEntity
  8
1
370
    13
100
AcDbLine
 10
221.419472
 20
182.401362
 30
0.0
 11
220.555219
 21
182.33339
 31
0.0
  0
LINE
  5
16C
330
1F
100
AcDbEntity
  8
1
370
    13
100
AcDbLine
 10
223.501933
 20
181.399776
 30
0.0
 11
223.396097
 21
181.511075
 31
0.0
  0
LINE
  5
16D
330
1F
100
AcDbEntity
  8
1
370
    13
100
AcDbLine
 10
217.986858
 20
178.725328
 30
0.0
 11
218.520532
 21
177.530828
 31
0.0
  0
LINE
  5
16E
330
1F
100
AcDbEntity
  8
1
370
    13
100
AcDbLine
 10
217.920834
 20
179.21369
 30
0.0
 11
217.986858
 21
178.725328
 31
0.0
  0
LINE
  5
16F
330
1F
100
AcDbEntity
  8
1
370
    13
100
AcDbLine
 10
220.923187
 20
182.600809
 30
0.0
 11
220.43431
 21
182.531073
 31
0.0
  0
LINE
  5
170
330
1F
100
AcDbEntity
  8
1
370
    13
100
AcDbLine
 10
224.485447
 20
184.513482
 30
0.0
 11
223.993939
 21
184.65575
 31
0.0
  0
LINE
  5
171
330
1F
100
AcDbEntity
  8
1
370
    13
100
AcDbLine
 10
217.623566
 20
164.792333
 30
0.0
 11
218.177467
 21
164.672999
 31
0.0
  0
LINE
  5
172
330
1F
100
AcDbEntity
  8
1
370
    13
100
AcDbLine
 10
226.41361
 20
146.129758
 30
0.0
 11
227.191027
 21
148.820456
 31
0.0
  0
LINE
  5
173
330
1F
100
AcDbEntity
  8
1
370
    13
100
AcDbLine
 10
225.570483
 20
143.24381
 30
0.0
 11
225.882938
 21
144.309352
 31
0.0
  0
LINE
  5
174
330
1F
100
AcDbEntity
  8
1
370
    13
100
AcDbLine
 10
215.941578
 20
168.949749
 30
0.0
 11
223.174204
 21
168.829872
 31
0.0
  0
LINE
  5
175
330
1F
100
AcDbEntity
  8
1
370
    13
100
AcDbLine
 10
225.99141
 20
168.347287
 30
0.0
 11
226.219983
 21
168.149068
 31
0.0
  0
LINE
  5
176
330
1F
100
AcDbEntity
  8
1
370
    13
100
AcDbLine
 10
226.219983
 20
168.149068
 30
0.0
 11
227.685274
 21
165.606826
 31
0.0
  0
LINE
  5
177
330
1F
100
AcDbEntity
  8
1
370
    13
100
AcDbLine
 10
215.441648
 20
168.926973
 30
0.0
 11
215.941578
 21
168.949749
 31
0.0
  0
LINE
  5
178
330
1F
100
AcDbEntity
  8
1
370
    13
100
AcDbLine
 10
202.785453
 20
145.109434
 30
0.0
 11
204.679841
 21
144.519639
 31
0.0
  0
LINE
  5
179
330
1F
100
AcDbEntity
  8
1
370
    13
100
AcDbLine
 10
213.928168
 20
145.925032
 30
0.0
 11
212.915954
 21
146.419534
 31
0.0
  0
LINE
  5
17A
330
1F
100
AcDbEntity
  8
1
370
    13
100
AcDbLine
 10
218.207115
 20
161.608641
 30
0.0
 11
217.707728
 21
161.690555
 31
0.0
  0
LINE
  5
17B
330
1F
100
AcDbEntity
  8
1
370
    13
100
AcDbLine
 10
222.391028
 20
161.436432
 30
0.0
 11
225.564782
 21
161.308386
 31
0.0
  0
LINE
  5
17C
330
1F
100
AcDbEntity
  8
1
370
    13
100
AcDbLine
 10
225.564782
 20
161.101701
 30
0.0
 11
225.564782
 21
161.308386
 31
0.0
  0
LINE
  5
17D
330
1F
100
AcDbEntity
  8
1
370
    13
100
AcDbLine
 10
210.338351
 20
157.412907
 30
0.0
 11
212.996175
 21
155.785889
 31
0.0
  0
LINE
  5
17E
330
1F
100
AcDbEntity
  8
1
370
    13
100
AcDbLine
 10
215.517128
 20
162.475646
 30
0.0
 11
215.527579
 21
162.60202
 31
0.0
  0
LINE
  5
17F
330
1F
100
AcDbEntity
  8
1
370
    13
100
AcDbLine
 10
226.272539
 20
175.606028
 30
0.0
 11
224.830281
 21
178.28867
 31
0.0
  0
LINE
  5
180
330
1F
100
AcDbEntity
  8
1
370
    13
100
AcDbLine
 10
215.268597
 20
164.194688
 30
0.0
 11
215.427964
 21
164.561407
 31
0.0
  0
LINE
  5
181
330
1F
100
AcDbEntity
  8
1
370
    13
100
AcDbLine
 10
215.205176
 20
163.493137
 30
0.0
 11
215.268597
 21
164.194688
 31
0.0
  0
LINE
  5
182
330
1F
100
AcDbEntity
  8
1
370
    13
100
AcDbLine
 10
216.987821
 20
161.737598
 30
0.0
 11
216.474363
 21
161.87338
 31
0.0
  0
LINE
  5
183
330
1F
100
AcDbEntity
  8
1
370
    13
100
AcDbLine
 10
212.883464
 20
154.56587
 30
0.0
 11
207.915954
 21
157.878998
 31
0.0
  0
LINE
  5
184
330
1F
100
AcDbEntity
  8
1
370
    13
100
AcDbLine
 10
217.338428
 20
161.720347
 30
0.0
 11
217.066722
 21
161.866618
 31
0.0
  0
LINE
  5
185
330
1F
100
AcDbEntity
  8
1
370
    13
100
AcDbLine
 10
217.696472
 20
161.6938
 30
0.0
 11
217.338428
 21
161.720347
 31
0.0
  0
LINE
  5
186
330
1F
100
AcDbEntity
  8
1
370
    13
100
AcDbLine
 10
224.823489
 20
141.131741
 30
0.0
 11
224.876395
 21
141.337801
 31
0.0
  0
LINE
  5
187
330
1F
100
AcDbEntity
  8
1
370
    13
100
AcDbLine
 10
224.823489
 20
141.131741
 30
0.0
 11
223.784292
 21
141.187861
 31
0.0
  0
LINE
  5
188
330
1F
100
AcDbEntity
  8
1
370
    13
100
AcDbLine
 10
220.916948
 20
141.750083
 30
0.0
 11
220.756642
 21
141.667557
 31
0.0
  0
LINE
  5
189
330
1F
100
AcDbEntity
  8
1
370
    13
100
AcDbLine
 10
223.784292
 20
141.187861
 30
0.0
 11
223.689599
 21
141.281872
 31
0.0
  0
LINE
  5
18A
330
1F
100
AcDbEntity
  8
1
370
    13
100
AcDbLine
 10
217.897563
 20
142.52032
 30
0.0
 11
216.990985
 21
141.579174
 31
0.0
  0
LINE
  5
18B
330
1F
100
AcDbEntity
  8
1
370
    13
100
AcDbLine
 10
220.756642
 20
141.667557
 30
0.0
 11
220.677896
 21
141.810787
 31
0.0
  0
LINE
  5
18C
330
1F
100
AcDbEntity
  8
1
370
    13
100
AcDbLine
 10
214.636473
 20
142.180514
 30
0.0
 11
212.996175
 21
142.969433
 31
0.0
  0
LINE
  5
18D
330
1F
100
AcDbEntity
  8
1
370
    13
100
AcDbLine
 10
211.702624
 20
143.600116
 30
0.0
 11
212.996175
 21
142.969433
 31
0.0
  0
LINE
  5
18E
330
1F
100
AcDbEntity
  8
1
370
    13
100
AcDbLine
 10
204.679841
 20
144.519639
 30
0.0
 11
206.740578
 21
143.985408
 31
0.0
  0
LINE
  5
18F
330
1F
100
AcDbEntity
  8
1
370
    13
100
AcDbLine
 10
216.772304
 20
139.920874
 30
0.0
 11
212.915954
 21
142.095693
 31
0.0
  0
LINE
  5
190
330
1F
100
AcDbEntity
  8
1
370
    13
100
AcDbLine
 10
218.168065
 20
139.360144
 30
0.0
 11
219.346918
 21
139.030622
 31
0.0
  0
LINE
  5
191
330
1F
100
AcDbEntity
  8
1
370
    13
100
AcDbLine
 10
220.380336
 20
141.587134
 30
0.0
 11
220.756642
 21
141.667557
 31
0.0
  0
LINE
  5
192
330
1F
100
AcDbEntity
  8
1
370
    13
100
AcDbLine
 10
223.05573
 20
138.193937
 30
0.0
 11
220.564212
 21
138.700231
 31
0.0
  0
LINE
  5
193
330
1F
100
AcDbEntity
  8
1
370
    13
100
AcDbLine
 10
204.679841
 20
147.887882
 30
0.0
 11
204.448714
 21
147.898652
 31
0.0
  0
LINE
  5
194
330
1F
100
AcDbEntity
  8
1
370
    13
100
AcDbLine
 10
222.479901
 20
179.695243
 30
0.0
 11
222.417571
 21
179.684716
 31
0.0
  0
LINE
  5
195
330
1F
100
AcDbEntity
  8
1
370
    13
100
AcDbLine
 10
222.356985
 20
179.673869
 30
0.0
 11
222.417571
 21
179.684716
 31
0.0
  0
LINE
  5
196
330
1F
100
AcDbEntity
  8
1
370
    13
100
AcDbLine
 10
222.057939
 20
179.831162
 30
0.0
 11
222.356985
 21
179.673869
 31
0.0
  0
LINE
  5
197
330
1F
100
AcDbEntity
  8
1
370
    13
100
AcDbLine
 10
204.679841
 20
179.367775
 30
0.0
 11
204.448714
 21
179.369395
 31
0.0
  0
LINE
  5
198
330
1F
100
AcDbEntity
  8
1
370
    13
100
AcDbLine
 10
204.679841
 20
167.350817
 30
0.0
 11
204.448714
 21
167.370945
 31
0.0
  0
LINE
  5
199
330
1F
100
AcDbEntity
  8
1
370
    13
100
AcDbLine
 10
217.010211
 20
151.595074
 30
0.0
 11
216.772304
 21
151.940873
 31
0.0
  0
LINE
  5
19A
330
1F
100
AcDbEntity
  8
1
370
    13
100
AcDbLine
 10
226.282973
 20
159.65034
 30
0.0
 11
225.994616
 21
159.943672
 31
0.0
  0
LINE
  5
19B
330
1F
100
AcDbEntity
  8
1
370
    13
100
AcDbLine
 10
217.010211
 20
177.731582
 30
0.0
 11
216.772304
 21
177.835922
 31
0.0
  0
LINE
  5
19C
330
1F
100
AcDbEntity
  8
1
370
    13
100
AcDbLine
 10
226.732025
 20
170.446101
 30
0.0
 11
225.640712
 21
172.274474
 31
0.0
  0
LINE
  5
19D
330
1F
100
AcDbEntity
  8
1
370
    13
100
AcDbLine
 10
225.446906
 20
172.819296
 30
0.0
 11
225.640712
 21
172.274474
 31
0.0
  0
LINE
  5
19E
330
1F
100
AcDbEntity
  8
1
370
    13
100
AcDbLine
 10
217.010211
 20
139.80906
 30
0.0
 11
216.772304
 21
139.920874
 31
0.0
  0
LINE
  5
19F
330
1F
100
AcDbEntity
  8
1
370
    13
100
AcDbLine
 10
225.640009
 20
160.560986
 30
0.0
 11
225.564782
 21
161.101701
 31
0.0
  0
LINE
  5
1A0
330
1F
100
AcDbEntity
  8
1
370
    13
100
AcDbLine
 10
220.274506
 20
152.863354
 30
0.0
 11
220.730304
 21
152.475548
 31
0.0
  0
LINE
  5
1A1
330
1F
100
AcDbEntity
  8
1
370
    13
100
AcDbLine
 10
219.643269
 20
153.773492
 30
0.0
 11
219.899716
 21
153.347305
 31
0.0
  0
LINE
  5
1A2
330
1F
100
AcDbEntity
  8
1
370
    13
100
AcDbLine
 10
215.565895
 20
162.235431
 30
0.0
 11
215.517128
 21
162.475646
 31
0.0
  0
LINE
  5
1A3
330
1F
100
AcDbEntity
  8
1
370
    13
100
AcDbLine
 10
216.474363
 20
161.87338
 30
0.0
 11
215.965806
 21
162.140727
 31
0.0
  0
LINE
  5
1A4
330
1F
100
AcDbEntity
  8
1
370
    13
100
AcDbLine
 10
207.915954
 20
157.878998
 30
0.0
 11
206.740578
 21
159.003969
 31
0.0
  0
LINE
  5
1A5
330
1F
100
AcDbEntity
  8
1
370
    13
100
AcDbLine
 10
207.915954
 20
177.643788
 30
0.0
 11
206.740578
 21
178.106666
 31
0.0
  0
LINE
  5
1A6
330
1F
100
AcDbEntity
  8
1
370
    13
100
AcDbLine
 10
207.915954
 20
143.739791
 30
0.0
 11
206.740578
 21
143.985408
 31
0.0
  0
LINE
  5
1A7
330
1F
100
AcDbEntity
  8
1
370
    13
100
AcDbLine
 10
225.446906
 20
141.214499
 30
0.0
 11
225.529059
 21
141.475153
 31
0.0
  0
LINE
  5
1A8
330
1F
100
AcDbEntity
  8
1
370
    13
100
AcDbLine
 10
217.67571
 20
161.692467
 30
0.0
 11
216.987821
 21
161.737598
 31
0.0
  0
LINE
  5
1A9
330
1F
100
AcDbEntity
  8
1
370
    13
100
AcDbLine
 10
215.427964
 20
164.561407
 30
0.0
 11
215.3168
 21
164.934991
 31
0.0
  0
LINE
  5
1AA
330
1F
100
AcDbEntity
  8
1
370
    13
100
AcDbLine
 10
215.965806
 20
162.140727
 30
0.0
 11
215.787703
 21
162.124369
 31
0.0
  0
LINE
  5
1AB
330
1F
100
AcDbEntity
  8
1
370
    13
100
AcDbLine
 10
215.965806
 20
162.140727
 30
0.0
 11
215.849591
 21
162.228555
 31
0.0
  0
LINE
  5
1AC
330
1F
100
AcDbEntity
  8
1
370
    13
100
AcDbLine
 10
227.85626
 20
175.317545
 30
0.0
 11
227.603567
 21
174.805677
 31
0.0
  0
LINE
  5
1AD
330
1F
100
AcDbEntity
  8
1
370
    13
100
AcDbLine
 10
227.603567
 20
174.805677
 30
0.0
 11
227.032404
 21
174.362853
 31
0.0
  0
LINE
  5
1AE
330
1F
100
AcDbEntity
  8
1
370
    13
100
AcDbLine
 10
214.161878
 20
181.290877
 30
0.0
 11
214.176108
 21
183.348532
 31
0.0
  0
LINE
  5
1AF
330
1F
100
AcDbEntity
  8
1
370
    13
100
AcDbLine
 10
214.226012
 20
183.635502
 30
0.0
 11
214.495765
 21
184.155499
 31
0.0
  0
LINE
  5
1B0
330
1F
100
AcDbEntity
  8
1
370
    13
100
AcDbLine
 10
214.495765
 20
184.155499
 30
0.0
 11
215.055773
 21
184.58622
 31
0.0
  0
LINE
  5
1B1
330
1F
100
AcDbEntity
  8
1
370
    13
100
AcDbLine
 10
215.320859
 20
184.67284
 30
0.0
 11
219.696982
 21
185.671587
 31
0.0
  0
LINE
  5
1B2
330
1F
100
AcDbEntity
  8
1
370
    13
100
AcDbLine
 10
222.75715
 20
186.362681
 30
0.0
 11
222.847802
 21
186.374964
 31
0.0
  0
LINE
  5
1B3
330
1F
100
AcDbEntity
  8
1
370
    13
100
AcDbLine
 10
222.847802
 20
186.374964
 30
0.0
 11
224.95513
 21
186.376553
 31
0.0
  0
LINE
  5
1B4
330
1F
100
AcDbEntity
  8
1
370
    13
100
AcDbLine
 10
225.232718
 20
186.333171
 30
0.0
 11
225.788621
 21
186.05252
 31
0.0
  0
LINE
  5
1B5
330
1F
100
AcDbEntity
  8
1
370
    13
100
AcDbLine
 10
225.788621
 20
186.05252
 30
0.0
 11
226.201835
 21
185.50957
 31
0.0
  0
LINE
  5
1B6
330
1F
100
AcDbEntity
  8
1
370
    13
100
AcDbLine
 10
226.286606
 20
185.241889
 30
0.0
 11
227.210894
 21
180.87307
 31
0.0
  0
LINE
  5
1B7
330
1F
100
AcDbEntity
  8
1
370
    13
100
AcDbLine
 10
227.853675
 20
177.817968
 30
0.0
 11
227.866054
 21
177.72741
 31
0.0
  0
LINE
  5
1B8
330
1F
100
AcDbEntity
  8
1
370
    13
100
AcDbLine
 10
227.866054
 20
177.72741
 30
0.0
 11
227.901357
 21
175.620222
 31
0.0
  0
LINE
  5
1B9
330
1F
100
AcDbEntity
  8
1
370
    13
100
AcDbLine
 10
226.234314
 20
175.677043
 30
0.0
 11
226.297828
 21
175.570989
 31
0.0
  0
LINE
  5
1BA
330
1F
100
AcDbEntity
  8
1
370
    13
100
AcDbLine
 10
227.635808
 20
150.454228
 30
0.0
 11
227.744046
 21
150.34923
 31
0.0
  0
LINE
  5
1BB
330
1F
100
AcDbEntity
  8
1
370
    13
100
AcDbLine
 10
227.604405
 20
150.376611
 30
0.0
 11
227.635808
 21
150.454228
 31
0.0
  0
LINE
  5
1BC
330
1F
100
AcDbEntity
  8
1
370
    13
100
AcDbLine
 10
226.95643
 20
152.039128
 30
0.0
 11
227.039778
 21
152.035353
 31
0.0
  0
LINE
  5
1BD
330
1F
100
AcDbEntity
  8
1
370
    13
100
AcDbLine
 10
226.869007
 20
152.002467
 30
0.0
 11
226.95643
 21
152.039128
 31
0.0
  0
LINE
  5
1BE
330
1F
100
AcDbEntity
  8
1
370
    13
100
AcDbLine
 10
227.85626
 20
151.492017
 30
0.0
 11
227.603567
 21
151.870039
 31
0.0
  0
LINE
  5
1BF
330
1F
100
AcDbEntity
  8
1
370
    13
100
AcDbLine
 10
227.603567
 20
151.870039
 30
0.0
 11
227.032404
 21
152.198673
 31
0.0
  0
LINE
  5
1C0
330
1F
100
AcDbEntity
  8
1
370
    13
100
AcDbLine
 10
227.884406
 20
151.396168
 30
0.0
 11
227.85626
 21
151.492017
 31
0.0
  0
LINE
  5
1C1
330
1F
100
AcDbEntity
  8
1
370
    13
100
AcDbLine
 10
227.901359
 20
151.271424
 30
0.0
 11
227.884406
 21
151.396168
 31
0.0
  0
LINE
  5
1C2
330
1F
100
AcDbEntity
  8
1
370
    13
100
AcDbLine
 10
227.744981
 20
150.317008
 30
0.0
 11
227.744289
 21
149.988354
 31
0.0
  0
LINE
  5
1C3
330
1F
100
AcDbEntity
  8
1
370
    13
100
AcDbLine
 10
227.866054
 20
149.712279
 30
0.0
 11
227.901357
 21
151.271425
 31
0.0
  0
LINE
  5
1C4
330
1F
100
AcDbEntity
  8
1
370
    13
100
AcDbLine
 10
227.853675
 20
149.639678
 30
0.0
 11
227.866054
 21
149.712279
 31
0.0
  0
LINE
  5
1C5
330
1F
100
AcDbEntity
  8
1
370
    13
100
AcDbLine
 10
227.603567
 20
166.698384
 30
0.0
 11
227.547418
 21
166.675249
 31
0.0
  0
LINE
  5
1C6
330
1F
100
AcDbEntity
  8
1
370
    13
100
AcDbLine
 10
227.76297
 20
167.861816
 30
0.0
 11
227.853675
 21
167.770282
 31
0.0
  0
LINE
  5
1C7
330
1F
100
AcDbEntity
  8
1
370
    13
100
AcDbLine
 10
227.866054
 20
167.746326
 30
0.0
 11
227.901357
 21
166.994924
 31
0.0
  0
LINE
  5
1C8
330
1F
100
AcDbEntity
  8
1
370
    13
100
AcDbLine
 10
227.883317
 20
166.92913
 30
0.0
 11
227.85626
 21
166.881981
 31
0.0
  0
LINE
  5
1C9
330
1F
100
AcDbEntity
  8
1
370
    13
100
AcDbLine
 10
227.90072
 20
166.989335
 30
0.0
 11
227.883317
 21
166.92913
 31
0.0
  0
LINE
  5
1CA
330
1F
100
AcDbEntity
  8
1
370
    13
100
AcDbLine
 10
227.558057
 20
166.486782
 30
0.0
 11
227.754706
 21
166.578842
 31
0.0
  0
LINE
  5
1CB
330
1F
100
AcDbEntity
  8
1
370
    13
100
AcDbLine
 10
226.882235
 20
162.340372
 30
0.0
 11
226.167309
 21
162.112813
 31
0.0
  0
LINE
  5
1CC
330
1F
100
AcDbEntity
  8
1
370
    13
100
AcDbLine
 10
227.648349
 20
165.669958
 30
0.0
 11
227.744046
 21
165.783381
 31
0.0
  0
LINE
  5
1CD
330
1F
100
AcDbEntity
  8
1
370
    13
100
AcDbLine
 10
227.418791
 20
163.585783
 30
0.0
 11
227.385414
 21
163.375473
 31
0.0
  0
LINE
  5
1CE
330
1F
100
AcDbEntity
  8
1
370
    13
100
AcDbLine
 10
227.385414
 20
163.375473
 30
0.0
 11
227.340453
 21
163.139062
 31
0.0
  0
LINE
  5
1CF
330
1F
100
AcDbEntity
  8
1
370
    13
100
AcDbLine
 10
224.465195
 20
184.532727
 30
0.0
 11
224.526316
 21
184.457933
 31
0.0
  0
LINE
  5
1D0
330
1F
100
AcDbEntity
  8
1
370
    13
100
AcDbLine
 10
225.02399
 20
154.634947
 30
0.0
 11
226.282973
 21
159.65034
 31
0.0
  0
LINE
  5
1D1
330
1F
100
AcDbEntity
  8
1
370
    13
100
AcDbLine
 10
225.02399
 20
154.634947
 30
0.0
 11
224.13155
 21
154.594782
 31
0.0
  0
LINE
  5
1D2
330
1F
100
AcDbEntity
  8
1
370
    13
100
AcDbLine
 10
204.679841
 20
178.703983
 30
0.0
 11
206.740578
 21
178.106666
 31
0.0
  0
LINE
  5
1D3
330
1F
100
AcDbEntity
  8
1
370
    13
100
AcDbLine
 10
216.772304
 20
151.940873
 30
0.0
 11
212.915954
 21
154.542955
 31
0.0
  0
LINE
  5
1D4
330
1F
100
AcDbEntity
  8
1
370
    13
100
AcDbLine
 10
217.010211
 20
147.583335
 30
0.0
 11
216.461669
 21
147.861397
 31
0.0
  0
LINE
  5
1D5
330
1F
100
AcDbEntity
  8
1
370
    13
100
AcDbLine
 10
214.293911
 20
146.5633
 30
0.0
 11
214.942501
 21
146.244183
 31
0.0
  0
LINE
  5
1D6
330
1F
100
AcDbEntity
  8
1
370
    13
100
AcDbLine
 10
214.097165
 20
146.602509
 30
0.0
 11
214.293911
 21
146.5633
 31
0.0
  0
LINE
  5
1D7
330
1F
100
AcDbEntity
  8
1
370
    13
100
AcDbLine
 10
226.650724
 20
153.920209
 30
0.0
 11
226.53459
 21
155.131406
 31
0.0
  0
LINE
  5
1D8
330
1F
100
AcDbEntity
  8
1
370
    13
100
AcDbLine
 10
226.732025
 20
152.348047
 30
0.0
 11
225.640712
 21
148.476914
 31
0.0
  0
LINE
  5
1D9
330
1F
100
AcDbEntity
  8
1
370
    13
100
AcDbLine
 10
225.548554
 20
148.320308
 30
0.0
 11
225.640712
 21
148.476914
 31
0.0
  0
LINE
  5
1DA
330
1F
100
AcDbEntity
  8
1
370
    13
100
AcDbLine
 10
225.218804
 20
148.560011
 30
0.0
 11
225.298644
 21
148.456326
 31
0.0
  0
LINE
  5
1DB
330
1F
100
AcDbEntity
  8
1
370
    13
100
AcDbLine
 10
223.981404
 20
150.3887
 30
0.0
 11
224.590863
 21
150.80451
 31
0.0
  0
LINE
  5
1DC
330
1F
100
AcDbEntity
  8
1
370
    13
100
AcDbLine
 10
223.05573
 20
150.265165
 30
0.0
 11
220.564212
 21
150.677718
 31
0.0
  0
LINE
  5
1DD
330
1F
100
AcDbEntity
  8
1
370
    13
100
AcDbLine
 10
223.05573
 20
145.902476
 30
0.0
 11
219.346918
 21
146.745105
 31
0.0
  0
LINE
  5
1DE
330
1F
100
AcDbEntity
  8
1
370
    13
100
AcDbLine
 10
225.446906
 20
146.861397
 30
0.0
 11
225.298644
 21
146.619377
 31
0.0
  0
LINE
  5
1DF
330
1F
100
AcDbEntity
  8
1
370
    13
100
AcDbLine
 10
226.732025
 20
151.117702
 30
0.0
 11
226.749489
 21
151.24701
 31
0.0
  0
LINE
  5
1E0
330
1F
100
AcDbEntity
  8
1
370
    13
100
AcDbLine
 10
225.446906
 20
146.861397
 30
0.0
 11
225.640712
 21
147.299689
 31
0.0
  0
LINE
  5
1E1
330
1F
100
AcDbEntity
  8
1
370
    13
100
AcDbLine
 10
226.732025
 20
151.117702
 30
0.0
 11
225.640712
 21
147.299689
 31
0.0
  0
LINE
  5
1E2
330
1F
100
AcDbEntity
  8
1
370
    13
100
AcDbLine
 10
213.928168
 20
181.336438
 30
0.0
 11
212.915954
 21
180.749722
 31
0.0
  0
LINE
  5
1E3
330
1F
100
AcDbEntity
  8
1
370
    13
100
AcDbLine
 10
214.058073
 20
181.331244
 30
0.0
 11
214.155755
 21
181.378869
 31
0.0
  0
LINE
  5
1E4
330
1F
100
AcDbEntity
  8
1
370
    13
100
AcDbLine
 10
214.007284
 20
181.312504
 30
0.0
 11
214.058073
 21
181.331244
 31
0.0
  0
LINE
  5
1E5
330
1F
100
AcDbEntity
  8
1
370
    13
100
AcDbLine
 10
226.640961
 20
159.489024
 30
0.0
 11
226.53459
 21
158.361076
 31
0.0
  0
LINE
  5
1E6
330
1F
100
AcDbEntity
  8
1
370
    13
100
AcDbLine
 10
187.914782
 20
169.202608
 30
0.0
 11
188.414782
 21
169.28721
 31
0.0
  0
LINE
  5
1E7
330
1F
100
AcDbEntity
  8
1
370
    13
100
AcDbLine
 10
188.414782
 20
153.576102
 30
0.0
 11
187.914782
 21
153.660704
 31
0.0
  0
LINE
  5
1E8
330
1F
100
AcDbEntity
  8
1
370
    13
100
AcDbLine
 10
214.633497
 20
168.704377
 30
0.0
 11
214.555385
 21
168.628165
 31
0.0
  0
LINE
  5
1E9
330
1F
100
AcDbEntity
  8
1
370
    13
100
AcDbLine
 10
215.03171
 20
169.859654
 30
0.0
 11
215.381268
 21
170.740007
 31
0.0
  0
LINE
  5
1EA
330
1F
100
AcDbEntity
  8
1
370
    13
100
AcDbLine
 10
215.381268
 20
170.740007
 30
0.0
 11
215.470797
 21
170.949047
 31
0.0
  0
LINE
  5
1EB
330
1F
100
AcDbEntity
  8
1
370
    13
100
AcDbLine
 10
216.087435
 20
167.252903
 30
0.0
 11
216.146394
 21
167.185327
 31
0.0
  0
LINE
  5
1EC
330
1F
100
AcDbEntity
  8
1
370
    13
100
AcDbLine
 10
215.833768
 20
167.186912
 30
0.0
 11
215.901328
 21
167.180133
 31
0.0
  0
LINE
  5
1ED
330
1F
100
AcDbEntity
  8
1
370
    13
100
AcDbLine
 10
215.749258
 20
167.243875
 30
0.0
 11
215.833768
 21
167.186912
 31
0.0
  0
LINE
  5
1EE
330
1F
100
AcDbEntity
  8
1
370
    13
100
AcDbLine
 10
217.256771
 20
164.437986
 30
0.0
 11
217.421869
 21
164.7691
 31
0.0
  0
LINE
  5
1EF
330
1F
100
AcDbEntity
  8
1
370
    13
100
AcDbLine
 10
227.729235
 20
165.398908
 30
0.0
 11
227.69876
 21
165.574011
 31
0.0
  0
LINE
  5
1F0
330
1F
100
AcDbEntity
  8
1
370
    13
100
AcDbLine
 10
226.039893
 20
164.379786
 30
0.0
 11
226.049193
 21
164.48045
 31
0.0
  0
LINE
  5
1F1
330
1F
100
AcDbEntity
  8
1
370
    13
100
AcDbLine
 10
225.871243
 20
164.607075
 30
0.0
 11
225.968582
 21
164.606181
 31
0.0
  0
LINE
  5
1F2
330
1F
100
AcDbEntity
  8
1
370
    13
100
AcDbLine
 10
225.918876
 20
163.757056
 30
0.0
 11
225.955561
 21
163.701035
 31
0.0
  0
LINE
  5
1F3
330
1F
100
AcDbEntity
  8
1
370
    13
100
AcDbLine
 10
225.417476
 20
164.595687
 30
0.0
 11
225.803158
 21
164.60583
 31
0.0
  0
LINE
  5
1F4
330
1F
100
AcDbEntity
  8
1
370
    13
100
AcDbLine
 10
227.385414
 20
168.031187
 30
0.0
 11
227.340453
 21
168.304569
 31
0.0
  0
LINE
  5
1F5
330
1F
100
AcDbEntity
  8
1
370
    13
100
AcDbLine
 10
225.848806
 20
164.364416
 30
0.0
 11
225.871229
 21
164.60712
 31
0.0
  0
LINE
  5
1F6
330
1F
100
AcDbEntity
  8
1
370
    13
100
AcDbLine
 10
217.445145
 20
165.021069
 30
0.0
 11
217.537267
 21
164.896981
 31
0.0
  0
LINE
  5
1F7
330
1F
100
AcDbEntity
  8
1
370
    13
100
AcDbLine
 10
217.365284
 20
164.295749
 30
0.0
 11
217.530306
 21
164.627022
 31
0.0
  0
LINE
  5
1F8
330
1F
100
AcDbEntity
  8
1
370
    13
100
AcDbLine
 10
217.448963
 20
164.222093
 30
0.0
 11
217.602506
 21
164.564138
 31
0.0
  0
LINE
  5
1F9
330
1F
100
AcDbEntity
  8
CUT
370
    13
100
AcDbLine
 10
225.788621
 20
186.05252
 30
0.0
 11
226.201835
 21
185.50957
 31
0.0
  0
LINE
  5
1FB
330
1F
100
AcDbEntity
  8
CUT
370
    13
100
AcDbLine
 10
227.210894
 20
180.87307
 30
0.0
 11
227.853675
 21
177.817968
 31
0.0
  0
LINE
  5
1FC
330
1F
100
AcDbEntity
  8
1
370
    13
100
AcDbLine
 10
222.847802
 20
141.283334
 30
0.0
 11
224.95513
 21
141.343246
 31
0.0
  0
LINE
  5
1FD
330
1F
100
AcDbEntity
  8
1
370
    13
100
AcDbLine
 10
224.801772
 20
142.40058
 30
0.0
 11
223.275272
 21
142.496868
 31
0.0
  0
LINE
  5
1FE
330
1F
100
AcDbEntity
  8
1
370
    13
100
AcDbLine
 10
215.320859
 20
143.180775
 30
0.0
 11
219.696982
 21
142.059978
 31
0.0
  0
LINE
  5
1FF
330
1F
100
AcDbEntity
  8
1
370
    13
100
AcDbLine
 10
215.188134
 20
147.398519
 30
0.0
 11
215.03171
 21
146.697525
 31
0.0
  0
LINE
  5
200
330
1F
100
AcDbEntity
  8
1
370
    13
100
AcDbLine
 10
222.75715
 20
141.294604
 30
0.0
 11
222.847802
 21
141.283334
 31
0.0
  0
LINE
  5
201
330
1F
100
AcDbEntity
  8
1
370
    13
100
AcDbLine
 10
223.275272
 20
142.496868
 30
0.0
 11
223.174204
 21
142.511398
 31
0.0
  0
LINE
  5
202
330
1F
100
AcDbEntity
  8
1
370
    13
100
AcDbLine
 10
226.25588
 20
142.097359
 30
0.0
 11
226.286606
 21
142.183187
 31
0.0
  0
LINE
  5
203
330
1F
100
AcDbEntity
  8
1
370
    13
100
AcDbLine
 10
226.201835
 20
141.990149
 30
0.0
 11
226.25588
 21
142.097359
 31
0.0
  0
LINE
  5
204
330
1F
100
AcDbEntity
  8
1
370
    13
100
AcDbLine
 10
225.788621
 20
141.598229
 30
0.0
 11
226.201835
 21
141.990149
 31
0.0
  0
LINE
  5
205
330
1F
100
AcDbEntity
  8
1
370
    13
100
AcDbLine
 10
226.228455
 20
142.638715
 30
0.0
 11
226.169695
 21
142.145429
 31
0.0
  0
LINE
  5
206
330
1F
100
AcDbEntity
  8
1
370
    13
100
AcDbLine
 10
215.214899
 20
147.505949
 30
0.0
 11
215.188134
 21
147.398519
 31
0.0
  0
LINE
  5
207
330
1F
100
AcDbEntity
  8
1
370
    13
100
AcDbLine
 10
227.70943
 20
150.046479
 30
0.0
 11
227.744046
 21
149.981481
 31
0.0
  0
LINE
  5
208
330
1F
100
AcDbEntity
  8
1
370
    13
100
AcDbLine
 10
227.604405
 20
150.26252
 30
0.0
 11
227.635216
 21
150.192262
 31
0.0
  0
LINE
  5
209
330
1F
100
AcDbEntity
  8
1
370
    13
100
AcDbLine
 10
214.196303
 20
144.074497
 30
0.0
 11
214.226012
 21
143.98909
 31
0.0
  0
LINE
  5
20A
330
1F
100
AcDbEntity
  8
1
370
    13
100
AcDbLine
 10
214.176106
 20
144.183548
 30
0.0
 11
214.196303
 21
144.074497
 31
0.0
  0
LINE
  5
20B
330
1F
100
AcDbEntity
  8
1
370
    13
100
AcDbLine
 10
214.226012
 20
143.98909
 30
0.0
 11
214.495765
 21
143.61281
 31
0.0
  0
LINE
  5
20C
330
1F
100
AcDbEntity
  8
1
370
    13
100
AcDbLine
 10
214.495765
 20
143.61281
 30
0.0
 11
215.055773
 21
143.263976
 31
0.0
  0
LINE
  5
20D
330
1F
100
AcDbEntity
  8
1
370
    13
100
AcDbLine
 10
227.744981
 20
149.950534
 30
0.0
 11
227.69876
 21
148.781568
 31
0.0
  0
LINE
  5
20E
330
1F
100
AcDbEntity
  8
1
370
    13
100
AcDbLine
 10
227.69876
 20
148.781568
 30
0.0
 11
227.685274
 21
148.70502
 31
0.0
  0
LINE
  5
20F
330
1F
100
AcDbEntity
  8
1
370
    13
100
AcDbLine
 10
226.286606
 20
142.183187
 30
0.0
 11
227.210894
 21
145.28499
 31
0.0
  0
LINE
  5
210
330
1F
100
AcDbEntity
  8
1
370
    13
100
AcDbLine
 10
214.554236
 20
145.207993
 30
0.0
 11
214.594152
 21
146.329148
 31
0.0
  0
LINE
  5
211
330
1F
100
AcDbEntity
  8
1
370
    13
100
AcDbLine
 10
214.161878
 20
145.563928
 30
0.0
 11
214.176108
 21
144.183548
 31
0.0
  0
LINE
  5
212
330
1F
100
AcDbEntity
  8
1
370
    13
100
AcDbLine
 10
214.594152
 20
146.329148
 30
0.0
 11
214.607293
 21
146.403075
 31
0.0
  0
LINE
  5
213
330
1F
100
AcDbEntity
  8
1
370
    13
100
AcDbLine
 10
214.173476
 20
145.628271
 30
0.0
 11
214.161878
 21
145.563928
 31
0.0
  0
LINE
  5
214
330
1F
100
AcDbEntity
  8
1
370
    13
100
AcDbLine
 10
214.22324
 20
145.812712
 30
0.0
 11
214.173476
 21
145.628271
 31
0.0
  0
LINE
  5
215
330
1F
100
AcDbEntity
  8
1
370
    13
100
AcDbLine
 10
227.385414
 20
150.953921
 30
0.0
 11
227.340453
 21
151.066498
 31
0.0
  0
LINE
  5
216
330
1F
100
AcDbEntity
  8
1
370
    13
100
AcDbLine
 10
227.541333
 20
150.537475
 30
0.0
 11
227.385414
 21
150.953921
 31
0.0
  0
LINE
  5
217
330
1F
100
AcDbEntity
  8
1
370
    13
100
AcDbLine
 10
227.866054
 20
147.537393
 30
0.0
 11
227.901357
 21
149.293394
 31
0.0
  0
LINE
  5
218
330
1F
100
AcDbEntity
  8
1
370
    13
100
AcDbLine
 10
227.853675
 20
147.467129
 30
0.0
 11
227.866054
 21
147.537393
 31
0.0
  0
LINE
  5
219
330
1F
100
AcDbEntity
  8
1
370
    13
100
AcDbLine
 10
227.79806
 20
149.812179
 30
0.0
 11
227.744046
 21
149.981481
 31
0.0
  0
LINE
  5
21A
330
1F
100
AcDbEntity
  8
1
370
    13
100
AcDbLine
 10
227.891569
 20
149.395347
 30
0.0
 11
227.876391
 21
149.474889
 31
0.0
  0
LINE
  5
21B
330
1F
100
AcDbEntity
  8
1
370
    13
100
AcDbLine
 10
227.901359
 20
149.293394
 30
0.0
 11
227.891569
 21
149.395347
 31
0.0
  0
LINE
  5
21C
330
1F
100
AcDbEntity
  8
CUT
370
    13
100
AcDbLine
 10
214.495765
 20
184.155499
 30
0.0
 11
215.055773
 21
184.58622
 31
0.0
  0
LINE
  5
21D
330
1F
100
AcDbEntity
  8
CUT
370
    13
100
AcDbLine
 10
225.232718
 20
186.333171
 30
0.0
 11
225.788621
 21
186.05252
 31
0.0
  0
LINE
  5
21E
330
1F
100
AcDbEntity
  8
CUT
370
    13
100
AcDbLine
 10
215.890476
 20
173.447201
 30
0.0
 11
215.806625
 21
173.711099
 31
0.0
  0
LINE
  5
21F
330
1F
100
AcDbEntity
  8
1
370
    13
100
AcDbLine
 10
226.772373
 20
163.52549
 30
0.0
 11
222.355161
 21
163.350059
 31
0.0
  0
LINE
  5
220
330
1F
100
AcDbEntity
  8
1
370
    13
100
AcDbLine
 10
219.270001
 20
163.249285
 30
0.0
 11
219.18013
 21
163.25694
 31
0.0
  0
LINE
  5
221
330
1F
100
AcDbEntity
  8
1
370
    13
100
AcDbLine
 10
219.18013
 20
163.25694
 30
0.0
 11
217.122335
 21
163.692747
 31
0.0
  0
LINE
  5
222
330
1F
100
AcDbEntity
  8
1
370
    13
100
AcDbLine
 10
215.890476
 20
164.177268
 30
0.0
 11
215.837444
 21
164.227848
 31
0.0
  0
LINE
  5
223
330
1F
100
AcDbEntity
  8
1
370
    13
100
AcDbLine
 10
215.806625
 20
164.265396
 30
0.0
 11
214.841248
 21
165.584464
 31
0.0
  0
LINE
  5
224
330
1F
100
AcDbEntity
  8
1
370
    13
100
AcDbLine
 10
214.302548
 20
166.32056
 30
0.0
 11
214.173476
 21
166.526049
 31
0.0
  0
LINE
  5
225
330
1F
100
AcDbEntity
  8
1
370
    13
100
AcDbLine
 10
214.161878
 20
166.56131
 30
0.0
 11
214.176108
 21
167.523594
 31
0.0
  0
LINE
  5
226
330
1F
100
AcDbEntity
  8
1
370
    13
100
AcDbLine
 10
214.19139
 20
167.585775
 30
0.0
 11
214.212914
 21
167.632872
 31
0.0
  0
LINE
  5
227
330
1F
100
AcDbEntity
  8
1
370
    13
100
AcDbLine
 10
214.176106
 20
167.523593
 30
0.0
 11
214.19139
 21
167.585775
 31
0.0
  0
LINE
  5
228
330
1F
100
AcDbEntity
  8
1
370
    13
100
AcDbLine
 10
214.226012
 20
167.654623
 30
0.0
 11
214.495765
 21
167.85298
 31
0.0
  0
LINE
  5
229
330
1F
100
AcDbEntity
  8
1
370
    13
100
AcDbLine
 10
214.495765
 20
167.85298
 30
0.0
 11
215.055773
 21
167.956586
 31
0.0
  0
LINE
  5
22A
330
1F
100
AcDbEntity
  8
1
370
    13
100
AcDbLine
 10
215.320859
 20
167.956104
 30
0.0
 11
219.696982
 21
167.68678
 31
0.0
  0
LINE
  5
22B
330
1F
100
AcDbEntity
  8
1
370
    13
100
AcDbLine
 10
222.75715
 20
167.517037
 30
0.0
 11
222.847802
 21
167.517831
 31
0.0
  0
LINE
  5
22C
330
1F
100
AcDbEntity
  8
1
370
    13
100
AcDbLine
 10
222.847802
 20
167.517831
 30
0.0
 11
224.95513
 21
167.618188
 31
0.0
  0
LINE
  5
22D
330
1F
100
AcDbEntity
  8
1
370
    13
100
AcDbLine
 10
225.788621
 20
167.528082
 30
0.0
 11
226.201835
 21
167.319385
 31
0.0
  0
LINE
  5
22E
330
1F
100
AcDbEntity
  8
1
370
    13
100
AcDbLine
 10
226.25588
 20
167.263114
 30
0.0
 11
226.286606
 21
167.216197
 31
0.0
  0
LINE
  5
22F
330
1F
100
AcDbEntity
  8
1
370
    13
100
AcDbLine
 10
226.201835
 20
167.319385
 30
0.0
 11
226.25588
 21
167.263114
 31
0.0
  0
LINE
  5
230
330
1F
100
AcDbEntity
  8
1
370
    13
100
AcDbLine
 10
226.286606
 20
167.216197
 30
0.0
 11
227.210894
 21
165.452375
 31
0.0
  0
LINE
  5
231
330
1F
100
AcDbEntity
  8
1
370
    13
100
AcDbLine
 10
227.72651
 20
164.468438
 30
0.0
 11
227.853675
 21
164.240272
 31
0.0
  0
LINE
  5
232
330
1F
100
AcDbEntity
  8
1
370
    13
100
AcDbLine
 10
227.866054
 20
164.213462
 30
0.0
 11
227.901357
 21
163.787341
 31
0.0
  0
LINE
  5
233
330
1F
100
AcDbEntity
  8
1
370
    13
100
AcDbLine
 10
221.21611
 20
180.580348
 30
0.0
 11
221.154017
 21
180.491644
 31
0.0
  0
LINE
  5
234
330
1F
100
AcDbEntity
  8
1
370
    13
100
AcDbLine
 10
221.132019
 20
180.431239
 30
0.0
 11
221.154017
 21
180.491644
 31
0.0
  0
LINE
  5
235
330
1F
100
AcDbEntity
  8
1
370
    13
100
AcDbLine
 10
219.576097
 20
179.05253
 30
0.0
 11
219.63842
 21
179.069028
 31
0.0
  0
LINE
  5
236
330
1F
100
AcDbEntity
  8
1
370
    13
100
AcDbLine
 10
219.576097
 20
179.05253
 30
0.0
 11
219.481814
 21
178.998614
 31
0.0
  0
LINE
  5
237
330
1F
100
AcDbEntity
  8
1
370
    13
100
AcDbLine
 10
219.77078
 20
179.896946
 30
0.0
 11
219.781591
 21
179.831399
 31
0.0
  0
LINE
  5
238
330
1F
100
AcDbEntity
  8
1
370
    13
100
AcDbLine
 10
220.179954
 20
178.05236
 30
0.0
 11
220.11318
 21
178.132144
 31
0.0
  0
LINE
  5
239
330
1F
100
AcDbEntity
  8
1
370
    13
100
AcDbLine
 10
193.673784
 20
155.275208
 30
0.0
 11
193.489782
 21
155.204156
 31
0.0
  0
LINE
  5
23A
330
1F
100
AcDbEntity
  8
1
370
    13
100
AcDbLine
 10
194.226816
 20
166.79778
 30
0.0
 11
194.289782
 21
166.41343
 31
0.0
  0
LINE
  5
23B
330
1F
100
AcDbEntity
  8
1
370
    13
100
AcDbLine
 10
215.668413
 20
171.743397
 30
0.0
 11
216.207799
 21
171.792764
 31
0.0
  0
LINE
  5
23C
330
1F
100
AcDbEntity
  8
1
370
    13
100
AcDbLine
 10
214.293911
 20
168.451195
 30
0.0
 11
214.498434
 21
168.473652
 31
0.0
  0
LINE
  5
23D
330
1F
100
AcDbEntity
  8
1
370
    13
100
AcDbLine
 10
213.928168
 20
167.222443
 30
0.0
 11
212.915954
 21
167.112892
 31
0.0
  0
LINE
  5
23E
330
1F
100
AcDbEntity
  8
1
370
    13
100
AcDbLine
 10
200.297066
 20
165.793269
 30
0.0
 11
200.510848
 21
165.491298
 31
0.0
  0
LINE
  5
23F
330
1F
100
AcDbEntity
  8
1
370
    13
100
AcDbLine
 10
200.397477
 20
180.66542
 30
0.0
 11
200.510848
 21
180.590372
 31
0.0
  0
LINE
  5
240
330
1F
100
AcDbEntity
  8
1
370
    13
100
AcDbLine
 10
200.16104
 20
180.829891
 30
0.0
 11
200.214019
 21
180.792107
 31
0.0
  0
LINE
  5
241
330
1F
100
AcDbEntity
  8
1
370
    13
100
AcDbLine
 10
200.334304
 20
180.709367
 30
0.0
 11
200.158558
 21
180.83167
 31
0.0
  0
LINE
  5
242
330
1F
100
AcDbEntity
  8
1
370
    13
100
AcDbLine
 10
202.785453
 20
179.385627
 30
0.0
 11
204.679841
 21
178.703983
 31
0.0
  0
LINE
  5
243
330
1F
100
AcDbEntity
  8
1
370
    13
100
AcDbLine
 10
210.207459
 20
166.981997
 30
0.0
 11
207.915954
 21
167.083723
 31
0.0
  0
LINE
  5
244
330
1F
100
AcDbEntity
  8
1
370
    13
100
AcDbLine
 10
223.05573
 20
178.568479
 30
0.0
 11
220.564212
 21
178.303364
 31
0.0
  0
LINE
  5
245
330
1F
100
AcDbEntity
  8
1
370
    13
100
AcDbLine
 10
216.772304
 20
177.835922
 30
0.0
 11
212.915954
 21
177.227899
 31
0.0
  0
LINE
  5
246
330
1F
100
AcDbEntity
  8
1
370
    13
100
AcDbLine
 10
224.702396
 20
183.823008
 30
0.0
 11
224.738483
 21
183.861388
 31
0.0
  0
LINE
  5
247
330
1F
100
AcDbEntity
  8
1
370
    13
100
AcDbLine
 10
216.631887
 20
183.313126
 30
0.0
 11
216.541644
 21
183.674746
 31
0.0
  0
LINE
  5
248
330
1F
100
AcDbEntity
  8
1
370
    13
100
AcDbLine
 10
224.655228
 20
184.58689
 30
0.0
 11
224.99143
 21
184.803712
 31
0.0
  0
LINE
  5
249
330
1F
100
AcDbEntity
  8
1
370
    13
100
AcDbLine
 10
224.531419
 20
184.475802
 30
0.0
 11
224.655228
 21
184.58689
 31
0.0
  0
LINE
  5
24A
330
1F
100
AcDbEntity
  8
1
370
    13
100
AcDbLine
 10
224.597377
 20
184.272712
 30
0.0
 11
224.632471
 21
184.311684
 31
0.0
  0
LINE
  5
24B
330
1F
100
AcDbEntity
  8
1
370
    13
100
AcDbLine
 10
216.75393
 20
183.044955
 30
0.0
 11
216.370364
 21
182.949914
 31
0.0
  0
LINE
  5
24C
330
1F
100
AcDbEntity
  8
1
370
    13
100
AcDbLine
 10
216.184378
 20
182.89581
 30
0.0
 11
216.11098
 21
182.861668
 31
0.0
  0
LINE
  5
24D
330
1F
100
AcDbEntity
  8
1
370
    13
100
AcDbLine
 10
216.302573
 20
182.933527
 30
0.0
 11
216.184378
 21
182.89581
 31
0.0
  0
LINE
  5
24E
330
1F
100
AcDbEntity
  8
1
370
    13
100
AcDbLine
 10
226.772373
 20
174.280148
 30
0.0
 11
226.317952
 21
174.181629
 31
0.0
  0
LINE
  5
24F
330
1F
100
AcDbEntity
  8
1
370
    13
100
AcDbLine
 10
214.965435
 20
177.553713
 30
0.0
 11
214.841248
 21
178.121006
 31
0.0
  0
LINE
  5
250
330
1F
100
AcDbEntity
  8
1
370
    13
100
AcDbLine
 10
214.173476
 20
181.2011
 30
0.0
 11
214.161878
 21
181.290877
 31
0.0
  0
LINE
  5
251
330
1F
100
AcDbEntity
  8
1
370
    13
100
AcDbLine
 10
224.612815
 20
184.205307
 30
0.0
 11
224.702567
 21
183.822735
 31
0.0
  0
LINE
  5
252
330
1F
100
AcDbEntity
  8
1
370
    13
100
AcDbLine
 10
224.527024
 20
184.459308
 30
0.0
 11
224.596165
 21
184.275905
 31
0.0
  0
LINE
  5
253
330
1F
100
AcDbEntity
  8
1
370
    13
100
AcDbLine
 10
224.597268
 20
184.272962
 30
0.0
 11
224.612792
 21
184.205347
 31
0.0
  0
LINE
  5
254
330
1F
100
AcDbEntity
  8
1
370
    13
100
AcDbLine
 10
224.634273
 20
166.972671
 30
0.0
 11
224.702842
 21
166.944647
 31
0.0
  0
LINE
  5
255
330
1F
100
AcDbEntity
  8
1
370
    13
100
AcDbLine
 10
214.371601
 20
168.084954
 30
0.0
 11
214.220284
 21
167.645488
 31
0.0
  0
LINE
  5
256
330
1F
100
AcDbEntity
  8
1
370
    13
100
AcDbLine
 10
224.67438
 20
166.957816
 30
0.0
 11
224.759899
 21
166.814285
 31
0.0
  0
LINE
  5
257
330
1F
100
AcDbEntity
  8
1
370
    13
100
AcDbLine
 10
216.213002
 20
167.182392
 30
0.0
 11
216.599954
 21
167.166795
 31
0.0
  0
LINE
  5
258
330
1F
100
AcDbEntity
  8
1
370
    13
100
AcDbLine
 10
216.146414
 20
167.185326
 30
0.0
 11
216.21295
 21
167.182333
 31
0.0
  0
LINE
  5
259
330
1F
100
AcDbEntity
  8
1
370
    13
100
AcDbLine
 10
215.893365
 20
167.179072
 30
0.0
 11
216.146361
 21
167.185351
 31
0.0
  0
LINE
  5
25A
330
1F
100
AcDbEntity
  8
1
370
    13
100
AcDbLine
 10
215.767063
 20
167.142256
 30
0.0
 11
215.901444
 21
167.179796
 31
0.0
  0
LINE
  5
25B
330
1F
100
AcDbEntity
  8
1
370
    13
100
AcDbLine
 10
218.174797
 20
165.752702
 30
0.0
 11
219.374837
 21
165.35219
 31
0.0
  0
LINE
  5
25C
330
1F
100
AcDbEntity
  8
1
370
    13
100
AcDbLine
 10
218.124247
 20
165.769568
 30
0.0
 11
218.174797
 21
165.752702
 31
0.0
  0
LINE
  5
25D
330
1F
100
AcDbEntity
  8
1
370
    13
100
AcDbLine
 10
217.845704
 20
165.784088
 30
0.0
 11
217.911171
 21
165.791599
 31
0.0
  0
LINE
  5
25E
330
1F
100
AcDbEntity
  8
1
370
    13
100
AcDbLine
 10
219.718417
 20
165.402382
 30
0.0
 11
219.898762
 21
165.363985
 31
0.0
  0
LINE
  5
25F
330
1F
100
AcDbEntity
  8
1
370
    13
100
AcDbLine
 10
219.562151
 20
165.395225
 30
0.0
 11
219.718417
 21
165.402382
 31
0.0
  0
LINE
  5
260
330
1F
100
AcDbEntity
  8
1
370
    13
100
AcDbLine
 10
219.37527
 20
165.353452
 30
0.0
 11
219.537666
 21
165.370077
 31
0.0
  0
LINE
  5
261
330
1F
100
AcDbEntity
  8
1
370
    13
100
AcDbLine
 10
219.563614
 20
165.356728
 30
0.0
 11
219.747583
 21
165.323905
 31
0.0
  0
LINE
  5
262
330
1F
100
AcDbEntity
  8
1
370
    13
100
AcDbLine
 10
219.485048
 20
165.258671
 30
0.0
 11
219.608524
 21
165.257237
 31
0.0
  0
LINE
  5
263
330
1F
100
AcDbEntity
  8
1
370
    13
100
AcDbLine
 10
219.364668
 20
165.221028
 30
0.0
 11
219.485205
 21
165.258747
 31
0.0
  0
LINE
  5
264
330
1F
100
AcDbEntity
  8
1
370
    13
100
AcDbLine
 10
222.300974
 20
166.917299
 30
0.0
 11
223.921997
 21
167.011242
 31
0.0
  0
LINE
  5
265
330
1F
100
AcDbEntity
  8
1
370
    13
100
AcDbLine
 10
227.876311
 20
149.475038
 30
0.0
 11
227.797064
 21
149.814726
 31
0.0
  0
LINE
  5
266
330
1F
100
AcDbEntity
  8
1
370
    13
100
AcDbLine
 10
227.743261
 20
165.777328
 30
0.0
 11
227.901918
 21
166.99861
 31
0.0
  0
LINE
  5
267
330
1F
100
AcDbEntity
  8
CUT
370
    13
100
AcDbLine
 10
227.901359
 20
175.620223
 30
0.0
 11
227.85626
 21
175.317545
 31
0.0
  0
LINE
  5
268
330
1F
100
AcDbEntity
  8
CUT
370
    13
100
AcDbLine
 10
219.18013
 20
172.643323
 30
0.0
 11
217.122335
 21
172.592201
 31
0.0
  0
LINE
  5
269
330
1F
100
AcDbEntity
  8
CUT
370
    13
100
AcDbLine
 10
214.173476
 20
181.2011
 30
0.0
 11
214.161878
 21
181.290877
 31
0.0
  0
LINE
  5
26A
330
1F
100
AcDbEntity
  8
CUT
370
    13
100
AcDbLine
 10
219.696982
 20
185.671587
 30
0.0
 11
222.75715
 21
186.362681
 31
0.0
  0
LINE
  5
26B
330
1F
100
AcDbEntity
  8
CUT
370
    13
100
AcDbLine
 10
227.032404
 20
174.362853
 30
0.0
 11
226.772373
 21
174.280148
 31
0.0
  0
LINE
  5
26C
330
1F
100
AcDbEntity
  8
CUT
370
    13
100
AcDbLine
 10
216.313619
 20
172.893285
 30
0.0
 11
215.890476
 21
173.447201
 31
0.0
  0
LINE
  5
26D
330
1F
100
AcDbEntity
  8
CUT
370
    13
100
AcDbLine
 10
214.226012
 20
183.635502
 30
0.0
 11
214.495765
 21
184.155499
 31
0.0
  0
LINE
  5
26E
330
1F
100
AcDbEntity
  8
CUT
370
    13
100
AcDbLine
 10
224.955129
 20
186.376555
 30
0.0
 11
225.232718
 21
186.333171
 31
0.0
  0
LINE
  5
26F
330
1F
100
AcDbEntity
  8
CUT
370
    13
100
AcDbLine
 10
227.866054
 20
177.72741
 30
0.0
 11
227.901357
 21
175.620222
 31
0.0
  0
LINE
  5
270
330
1F
100
AcDbEntity
  8
CUT
370
    13
100
AcDbLine
 10
219.270001
 20
172.656387
 30
0.0
 11
219.18013
 21
172.643323
 31
0.0
  0
LINE
  5
271
330
1F
100
AcDbEntity
  8
CUT
370
    13
100
AcDbLine
 10
214.841248
 20
178.121006
 30
0.0
 11
214.173476
 21
181.2011
 31
0.0
  0
LINE
  5
272
330
1F
100
AcDbEntity
  8
CUT
370
    13
100
AcDbLine
 10
215.320859
 20
184.67284
 30
0.0
 11
219.696982
 21
185.671587
 31
0.0
  0
LINE
  5
273
330
1F
100
AcDbEntity
  8
CUT
370
    13
100
AcDbLine
 10
226.201835
 20
185.50957
 30
0.0
 11
226.286606
 21
185.241889
 31
0.0
  0
LINE
  5
274
330
1F
100
AcDbEntity
  8
CUT
370
    13
100
AcDbLine
 10
227.603567
 20
174.805677
 30
0.0
 11
227.032404
 21
174.362853
 31
0.0
  0
LINE
  5
275
330
1F
100
AcDbEntity
  8
CUT
370
    13
100
AcDbLine
 10
216.826968
 20
172.635113
 30
0.0
 11
216.313619
 21
172.893285
 31
0.0
  0
LINE
  5
276
330
1F
100
AcDbEntity
  8
CUT
370
    13
100
AcDbLine
 10
214.176106
 20
183.348531
 30
0.0
 11
214.226012
 21
183.635502
 31
0.0
  0
LINE
  5
277
330
1F
100
AcDbEntity
  8
CUT
370
    13
100
AcDbLine
 10
222.847802
 20
186.374964
 30
0.0
 11
224.95513
 21
186.376553
 31
0.0
  0
LINE
  5
278
330
1F
100
AcDbEntity
  8
CUT
370
    13
100
AcDbLine
 10
227.853675
 20
177.817968
 30
0.0
 11
227.866054
 21
177.72741
 31
0.0
  0
LINE
  5
279
330
1F
100
AcDbEntity
  8
CUT
370
    13
100
AcDbLine
 10
222.355161
 20
173.32249
 30
0.0
 11
219.270001
 21
172.656387
 31
0.0
  0
LINE
  5
27A
330
1F
100
AcDbEntity
  8
CUT
370
    13
100
AcDbLine
 10
215.806625
 20
173.711099
 30
0.0
 11
214.841248
 21
178.121006
 31
0.0
  0
LINE
  5
27B
330
1F
100
AcDbEntity
  8
CUT
370
    13
100
AcDbLine
 10
215.055773
 20
184.58622
 30
0.0
 11
215.320859
 21
184.67284
 31
0.0
  0
LINE
  5
27C
330
1F
100
AcDbEntity
  8
CUT
370
    13
100
AcDbLine
 10
227.85626
 20
175.317545
 30
0.0
 11
227.603567
 21
174.805677
 31
0.0
  0
LINE
  5
27D
330
1F
100
AcDbEntity
  8
CUT
370
    13
100
AcDbLine
 10
217.122336
 20
172.592199
 30
0.0
 11
216.826968
 21
172.635113
 31
0.0
  0
LINE
  5
27E
330
1F
100
AcDbEntity
  8
CUT
370
    13
100
AcDbLine
 10
214.161878
 20
181.290877
 30
0.0
 11
214.176108
 21
183.348532
 31
0.0
  0
LINE
  5
27F
330
1F
100
AcDbEntity
  8
CUT
370
    13
100
AcDbLine
 10
222.75715
 20
186.362681
 30
0.0
 11
222.847802
 21
186.374964
 31
0.0
  0
LINE
  5
280
330
1F
100
AcDbEntity
  8
CUT
370
    13
100
AcDbLine
 10
226.772373
 20
174.280148
 30
0.0
 11
222.355161
 21
173.32249
 31
0.0
  0
LINE
  5
281
330
1F
100
AcDbEntity
  8
1
370
    13
100
AcDbLine
 10
217.530302
 20
164.626972
 30
0.0
 11
217.553188
 21
164.874695
 31
0.0
  0
LINE
  5
282
330
1F
100
AcDbEntity
  8
1
370
    13
100
AcDbLine
 10
217.553138
 20
164.874666
 30
0.0
 11
217.589961
 21
164.828181
 31
0.0
  0
LINE
  5
283
330
1F
100
AcDbEntity
  8
1
370
    13
100
AcDbLine
 10
217.60252
 20
164.564585
 30
0.0
 11
217.623561
 21
164.792344
 31
0.0
  0
LINE
  5
284
330
1F
100
AcDbEntity
  8
1
370
    13
100
AcDbLine
 10
225.434302
 20
142.682221
 30
0.0
 11
225.428532
 21
142.761287
 31
0.0
  0
LINE
  5
285
330
1F
100
AcDbEntity
  8
1
370
    13
100
AcDbLine
 10
225.628499
 20
142.663354
 30
0.0
 11
225.99141
 21
142.994082
 31
0.0
  0
LINE
  5
286
330
1F
100
AcDbEntity
  8
1
370
    13
100
AcDbLine
 10
225.005551
 20
142.48729
 30
0.0
 11
224.841801
 21
142.39988
 31
0.0
  0
LINE
  5
287
330
1F
100
AcDbEntity
  8
1
370
    13
100
AcDbLine
 10
224.313554
 20
143.731371
 30
0.0
 11
223.969228
 21
144.681374
 31
0.0
  0
LINE
  5
288
330
1F
100
AcDbEntity
  8
1
370
    13
100
AcDbLine
 10
223.969228
 20
144.681374
 30
0.0
 11
223.911488
 21
144.905626
 31
0.0
  0
LINE
  5
289
330
1F
100
AcDbEntity
  8
1
370
    13
100
AcDbLine
 10
215.310535
 20
145.16927
 30
0.0
 11
214.916094
 21
144.866404
 31
0.0
  0
LINE
  5
28A
330
1F
100
AcDbEntity
  8
1
370
    13
100
AcDbLine
 10
214.878834
 20
144.802456
 30
0.0
 11
214.916094
 21
144.866404
 31
0.0
  0
LINE
  5
28B
330
1F
100
AcDbEntity
  8
1
370
    13
100
AcDbLine
 10
214.962788
 20
144.564892
 30
0.0
 11
215.441648
 21
144.252844
 31
0.0
  0
LINE
  5
28C
330
1F
100
AcDbEntity
  8
1
370
    13
100
AcDbLine
 10
226.882235
 20
151.984136
 30
0.0
 11
226.749585
 21
152.175227
 31
0.0
  0
LINE
  5
28D
330
1F
100
AcDbEntity
  8
1
370
    13
100
AcDbLine
 10
223.702821
 20
144.199039
 30
0.0
 11
223.806656
 21
144.147663
 31
0.0
  0
LINE
  5
28E
330
1F
100
AcDbEntity
  8
1
370
    13
100
AcDbLine
 10
214.658884
 20
145.081807
 30
0.0
 11
214.555385
 21
145.178675
 31
0.0
  0
LINE
  5
28F
330
1F
100
AcDbEntity
  8
1
370
    13
100
AcDbLine
 10
214.730488
 20
145.166545
 30
0.0
 11
214.658884
 21
145.081807
 31
0.0
  0
LINE
  5
290
330
1F
100
AcDbEntity
  8
1
370
    13
100
AcDbLine
 10
215.03171
 20
146.697525
 30
0.0
 11
215.381268
 21
147.749486
 31
0.0
  0
LINE
  5
291
330
1F
100
AcDbEntity
  8
1
370
    13
100
AcDbLine
 10
215.381268
 20
147.749486
 30
0.0
 11
215.470797
 21
147.97488
 31
0.0
  0
LINE
  5
292
330
1F
100
AcDbEntity
  8
1
370
    13
100
AcDbLine
 10
223.806656
 20
144.147663
 30
0.0
 11
224.313554
 21
143.731371
 31
0.0
  0
LINE
  5
293
330
1F
100
AcDbEntity
  8
1
370
    13
100
AcDbLine
 10
227.443658
 20
150.377525
 30
0.0
 11
227.463095
 21
150.429392
 31
0.0
  0
LINE
  5
294
330
1F
100
AcDbEntity
  8
1
370
    13
100
AcDbLine
 10
227.463095
 20
150.429392
 30
0.0
 11
227.541333
 21
150.537475
 31
0.0
  0
LINE
  5
295
330
1F
100
AcDbEntity
  8
CUT
370
    13
100
AcDbLine
 10
226.286606
 20
185.241889
 30
0.0
 11
227.210894
 21
180.87307
 31
0.0
  0
LINE
  5
296
330
1F
100
AcDbEntity
  8
1
370
    13
100
AcDbLine
 10
224.801772
 20
168.751087
 30
0.0
 11
223.275272
 21
168.827879
 31
0.0
  0
LINE
  5
297
330
1F
100
AcDbEntity
  8
1
370
    13
100
AcDbLine
 10
224.593942
 20
171.766949
 30
0.0
 11
225.324718
 21
171.468846
 31
0.0
  0
LINE
  5
298
330
1F
100
AcDbEntity
  8
1
370
    13
100
AcDbLine
 10
225.434302
 20
168.711045
 30
0.0
 11
225.428532
 21
168.781793
 31
0.0
  0
LINE
  5
299
330
1F
100
AcDbEntity
  8
1
370
    13
100
AcDbLine
 10
226.169695
 20
167.512529
 30
0.0
 11
225.438919
 21
167.810626
 31
0.0
  0
LINE
  5
29A
330
1F
100
AcDbEntity
  8
1
370
    13
100
AcDbLine
 10
226.228455
 20
167.704355
 30
0.0
 11
226.192149
 21
167.503514
 31
0.0
  0
LINE
  5
29B
330
1F
100
AcDbEntity
  8
1
370
    13
100
AcDbLine
 10
224.933195
 20
168.740224
 30
0.0
 11
224.841801
 21
168.74862
 31
0.0
  0
LINE
  5
29C
330
1F
100
AcDbEntity
  8
1
370
    13
100
AcDbLine
 10
223.969228
 20
171.171216
 30
0.0
 11
223.911488
 21
171.396619
 31
0.0
  0
LINE
  5
29D
330
1F
100
AcDbEntity
  8
1
370
    13
100
AcDbLine
 10
223.275272
 20
168.827879
 30
0.0
 11
223.174204
 21
168.829872
 31
0.0
  0
LINE
  5
29E
330
1F
100
AcDbEntity
  8
1
370
    13
100
AcDbLine
 10
216.599611
 20
167.166581
 30
0.0
 11
216.541644
 21
167.233614
 31
0.0
  0
LINE
  5
29F
330
1F
100
AcDbEntity
  8
1
370
    13
100
AcDbLine
 10
214.878834
 20
168.910615
 30
0.0
 11
214.916094
 21
168.98341
 31
0.0
  0
LINE
  5
2A0
330
1F
100
AcDbEntity
  8
1
370
    13
100
AcDbLine
 10
214.890627
 20
168.853001
 30
0.0
 11
214.878834
 21
168.910615
 31
0.0
  0
LINE
  5
2A1
330
1F
100
AcDbEntity
  8
1
370
    13
100
AcDbLine
 10
214.962788
 20
168.859484
 30
0.0
 11
214.890627
 21
168.853001
 31
0.0
  0
LINE
  5
2A2
330
1F
100
AcDbEntity
  8
1
370
    13
100
AcDbLine
 10
224.70282
 20
166.944798
 30
0.0
 11
224.99143
 21
166.921588
 31
0.0
  0
LINE
  5
2A3
330
1F
100
AcDbEntity
  8
1
370
    13
100
AcDbLine
 10
223.702821
 20
170.64088
 30
0.0
 11
223.806656
 21
170.600076
 31
0.0
  0
LINE
  5
2A4
330
1F
100
AcDbEntity
  8
1
370
    13
100
AcDbLine
 10
223.806656
 20
170.600076
 30
0.0
 11
224.313554
 21
170.171085
 31
0.0
  0
LINE
  5
2A5
330
1F
100
AcDbEntity
  8
1
370
    13
100
AcDbLine
 10
215.310535
 20
169.519982
 30
0.0
 11
214.916094
 21
168.98341
 31
0.0
  0
LINE
  5
2A6
330
1F
100
AcDbEntity
  8
1
370
    13
100
AcDbLine
 10
227.443658
 20
167.507462
 30
0.0
 11
227.463095
 21
167.430118
 31
0.0
  0
LINE
  5
2A7
330
1F
100
AcDbEntity
  8
1
370
    13
100
AcDbLine
 10
227.463095
 20
167.430118
 30
0.0
 11
227.541333
 21
166.815536
 31
0.0
  0
LINE
  5
2A8
330
1F
100
AcDbEntity
  8
1
370
    13
100
AcDbLine
 10
214.21283
 20
167.629892
 30
0.0
 11
214.372003
 21
168.089677
 31
0.0
  0
LINE
  5
2A9
330
1F
100
AcDbEntity
  8
1
370
    13
100
AcDbLine
 10
215.090847
 20
168.133786
 30
0.0
 11
214.375919
 21
167.949271
 31
0.0
  0
LINE
  5
2AA
330
1F
100
AcDbEntity
  8
1
370
    13
100
AcDbLine
 10
215.483778
 20
168.429115
 30
0.0
 11
215.090847
 21
168.133786
 31
0.0
  0
LINE
  5
2AB
330
1F
100
AcDbEntity
  8
1
370
    13
100
AcDbLine
 10
216.038532
 20
171.708566
 30
0.0
 11
216.753459
 21
171.893077
 31
0.0
  0
LINE
  5
2AC
330
1F
100
AcDbEntity
  8
1
370
    13
100
AcDbLine
 10
214.962788
 20
168.859484
 30
0.0
 11
215.441648
 21
168.926973
 31
0.0
  0
LINE
  5
2AD
102
{ACAD_REACTORS
330
487
102
}
330
1F
100
AcDbEntity
  8
1
370
    50
100
AcDbLine
 10
194.289782
 20
166.41343
 30
0.0
 11
194.289782
 21
156.449881
 31
0.0
  0
LINE
  5
2AE
330
1F
100
AcDbEntity
  8
1
370
    50
100
AcDbLine
 10
227.582605
 20
165.777681
 30
0.0
 11
227.541333
 21
166.815536
 31
0.0
  0
LINE
  5
2AF
102
{ACAD_REACTORS
330
4C0
102
}
330
1F
100
AcDbEntity
  8
2
370
    13
100
AcDbLine
 10
227.853675
 20
177.817968
 30
0.0
 11
222.495506
 21
203.144343
 31
0.0
  0
LINE
  5
2B0
102
{ACAD_REACTORS
330
4C0
102
}
330
1F
100
AcDbEntity
  8
2
370
    13
100
AcDbLine
 10
227.914782
 20
187.406656
 30
0.0
 11
227.914782
 21
203.711332
 31
0.0
  0
LINE
  5
2B1
330
1F
100
AcDbEntity
  8
2
 60
     1
370
    13
100
AcDbLine
 10
222.909473
 20
201.187654
 30
0.0
 11
219.926308
 21
200.023152
 31
0.0
  0
LINE
  5
2B2
330
1F
100
AcDbEntity
  8
2
 60
     1
370
    13
100
AcDbLine
 10
219.926308
 20
200.023152
 30
0.0
 11
219.726559
 21
200.834931
 31
0.0
  0
LINE
  5
2B3
330
1F
100
AcDbEntity
  8
2
 60
     1
370
    13
100
AcDbLine
 10
219.726559
 20
200.834931
 30
0.0
 11
222.909473
 21
201.187654
 31
0.0
  0
LINE
  5
2B4
330
1F
100
AcDbEntity
  8
2
 60
     1
370
    13
100
AcDbLine
 10
227.914782
 20
201.711332
 30
0.0
 11
231.101774
 21
202.025057
 31
0.0
  0
LINE
  5
2B5
330
1F
100
AcDbEntity
  8
2
 60
     1
370
    13
100
AcDbLine
 10
231.101774
 20
202.025057
 30
0.0
 11
231.07438
 21
201.189513
 31
0.0
  0
LINE
  5
2B6
330
1F
100
AcDbEntity
  8
2
 60
     1
370
    13
100
AcDbLine
 10
231.07438
 20
201.189513
 30
0.0
 11
227.914782
 21
201.711332
 31
0.0
  0
ARC
  5
2B7
330
1F
100
AcDbEntity
  8
1
370
    13
100
AcDbCircle
 10
217.434706
 20
163.318271
 30
0.0
 40
1.276240850067149
100
AcDbArc
 50
262.943758
 51
324.496703
  0
ARC
  5
2B8
330
1F
100
AcDbEntity
  8
1
370
    13
100
AcDbCircle
 10
223.197885
 20
140.181014
 30
0.0
 40
1.110783422974317
100
AcDbArc
 50
313.249483
 51
22.512764
  0
ARC
  5
2B9
330
1F
100
AcDbEntity
  8
1
370
    13
100
AcDbCircle
 10
222.319083
 20
141.143144
 30
0.0
 40
2.413786632448835
100
AcDbArc
 50
272.285802
 51
312.795417
  0
ARC
  5
2BA
330
1F
100
AcDbEntity
  8
1
370
    13
100
AcDbCircle
 10
222.145061
 20
141.903796
 30
0.0
 40
3.184012111840882
100
AcDbArc
 50
241.344968
 51
274.869769
  0
ARC
  5
2BB
330
1F
100
AcDbEntity
  8
1
370
    13
100
AcDbCircle
 10
220.953109
 20
179.092863
 30
0.0
 40
2.738577329142385
100
AcDbArc
 50
164.261386
 51
192.136879
  0
ARC
  5
2BC
330
1F
100
AcDbEntity
  8
1
370
    13
100
AcDbCircle
 10
220.981998
 20
179.085358
 30
0.0
 40
2.768419256500552
100
AcDbArc
 50
120.81619
 51
164.274065
  0
ARC
  5
2BD
330
1F
100
AcDbEntity
  8
1
370
    13
100
AcDbCircle
 10
220.974297
 20
179.10372
 30
0.0
 40
2.748705569739066
100
AcDbArc
 50
77.203804
 51
120.874417
  0
ARC
  5
2BE
330
1F
100
AcDbEntity
  8
1
370
    13
100
AcDbCircle
 10
220.981129
 20
179.139977
 30
0.0
 40
2.711836894687729
100
AcDbArc
 50
33.099377
 51
77.1749
  0
ARC
  5
2BF
330
1F
100
AcDbEntity
  8
1
370
    13
100
AcDbCircle
 10
220.965751
 20
179.133459
 30
0.0
 40
2.728279665660474
100
AcDbArc
 50
349.143886
 51
33.037677
  0
ARC
  5
2C0
330
1F
100
AcDbEntity
  8
1
370
    13
100
AcDbCircle
 10
220.933979
 20
179.128154
 30
0.0
 40
1.801223327283586
100
AcDbArc
 50
141.731728
 51
192.074302
  0
ARC
  5
2C1
330
1F
100
AcDbEntity
  8
1
370
    13
100
AcDbCircle
 10
220.941195
 20
179.126875
 30
0.0
 40
1.807683281223048
100
AcDbArc
 50
87.998048
 51
141.841569
  0
ARC
  5
2C2
330
1F
100
AcDbEntity
  8
1
370
    13
100
AcDbCircle
 10
220.942001
 20
179.157463
 30
0.0
 40
1.777086270909528
100
AcDbArc
 50
33.50554
 51
87.989586
  0
ARC
  5
2C3
330
1F
100
AcDbEntity
  8
1
370
    13
100
AcDbCircle
 10
220.930145
 20
179.15381
 30
0.0
 40
1.788991618651278
100
AcDbArc
 50
339.160905
 51
33.393484
  0
ARC
  5
2C4
330
1F
100
AcDbEntity
  8
1
370
    13
100
AcDbCircle
 10
219.534239
 20
177.87282
 30
0.0
 40
0.5927098862277541
100
AcDbArc
 50
13.6845
 51
78.804291
  0
ARC
  5
2C5
330
1F
100
AcDbEntity
  8
1
370
    13
100
AcDbCircle
 10
222.722399
 20
178.572467
 30
0.0
 40
0.6020646434250732
100
AcDbArc
 50
126.073971
 51
189.856505
  0
ARC
  5
2C6
330
1F
100
AcDbEntity
  8
1
370
    13
100
AcDbCircle
 10
221.976662
 20
179.378626
 30
0.0
 40
0.5955587825681369
100
AcDbArc
 50
335.77235
 51
48.523108
  0
ARC
  5
2C7
330
1F
100
AcDbEntity
  8
1
370
    13
100
AcDbCircle
 10
222.317288
 20
180.410075
 30
0.0
 40
0.5927367609552268
100
AcDbArc
 50
185.842652
 51
258.808453
  0
ARC
  5
2C8
330
1F
100
AcDbEntity
  8
1
370
    13
100
AcDbCircle
 10
221.258652
 20
180.166531
 30
0.0
 40
0.5958063931118609
100
AcDbArc
 50
36.191652
 51
108.855825
  0
ARC
  5
2C9
330
1F
100
AcDbEntity
  8
1
370
    13
100
AcDbCircle
 10
220.525783
 20
180.983753
 30
0.0
 40
0.6017232362916078
100
AcDbArc
 50
246.466823
 51
318.619512
  0
ARC
  5
2CA
330
1F
100
AcDbEntity
  8
1
370
    13
100
AcDbCircle
 10
220.212849
 20
179.924742
 30
0.0
 40
0.6045669271818895
100
AcDbArc
 50
96.394939
 51
168.3367
  0
ARC
  5
2CB
330
1F
100
AcDbEntity
  8
1
370
    13
100
AcDbCircle
 10
219.129722
 20
179.710065
 30
0.0
 40
0.6014721404279523
100
AcDbArc
 50
306.049453
 51
18.287678
  0
ARC
  5
2CC
330
1F
100
AcDbEntity
  8
1
370
    13
100
AcDbCircle
 10
219.874902
 20
178.904234
 30
0.0
 40
0.5955587825678751
100
AcDbArc
 50
155.77235
 51
228.523108
  0
ARC
  5
2CD
330
1F
100
AcDbEntity
  8
1
370
    13
100
AcDbCircle
 10
221.060859
 20
179.04078
 30
0.0
 40
2.72630091005525
100
AcDbArc
 50
351.2434
 51
35.158963
  0
ARC
  5
2CE
330
1F
100
AcDbEntity
  8
1
370
    13
100
AcDbCircle
 10
218.560829
 20
166.817376
 30
0.0
 40
0.3448553577811236
100
AcDbArc
 50
130.147553
 51
214.240792
  0
ARC
  5
2CF
330
1F
100
AcDbEntity
  8
1
370
    13
100
AcDbCircle
 10
222.905193
 20
166.190262
 30
0.0
 40
0.8017976871428011
100
AcDbArc
 50
10.890766
 51
69.953566
  0
ARC
  5
2D0
330
1F
100
AcDbEntity
  8
1
370
    13
100
AcDbCircle
 10
222.410555
 20
167.530496
 30
0.0
 40
1.82273371778133
100
AcDbArc
 50
271.403461
 51
311.718056
  0
ARC
  5
2D1
330
1F
100
AcDbEntity
  8
1
370
    13
100
AcDbCircle
 10
219.787612
 20
167.961513
 30
0.0
 40
2.019025756761766
100
AcDbArc
 50
221.512544
 51
256.504158
  0
ARC
  5
2D2
330
1F
100
AcDbEntity
  8
1
370
    13
100
AcDbCircle
 10
222.341158
 20
166.194294
 30
0.0
 40
0.383968567591235
100
AcDbArc
 50
272.836933
 51
349.060508
  0
ARC
  5
2D3
330
1F
100
AcDbEntity
  8
1
370
    13
100
AcDbCircle
 10
221.334319
 20
169.386788
 30
0.0
 40
3.720225255476715
100
AcDbArc
 50
263.198353
 51
286.006569
  0
ARC
  5
2D4
330
1F
100
AcDbEntity
  8
1
370
    13
100
AcDbCircle
 10
221.12435
 20
169.536437
 30
0.0
 40
3.850603963547187
100
AcDbArc
 50
244.289188
 51
266.566293
  0
ARC
  5
2D5
330
1F
100
AcDbEntity
  8
1
370
    13
100
AcDbCircle
 10
219.478226
 20
166.398608
 30
0.0
 40
0.3324420151677447
100
AcDbArc
 50
137.403829
 51
265.794449
  0
ARC
  5
2D6
330
1F
100
AcDbEntity
  8
1
370
    13
100
AcDbCircle
 10
220.275103
 20
164.8442
 30
0.0
 40
2.061855630773624
100
AcDbArc
 50
86.102537
 51
120.343089
  0
ARC
  5
2D7
330
1F
100
AcDbEntity
  8
1
370
    13
100
AcDbCircle
 10
220.511362
 20
161.884984
 30
0.0
 40
5.017223124604821
100
AcDbArc
 50
72.501017
 51
91.097662
  0
ARC
  5
2D8
330
1F
100
AcDbEntity
  8
1
370
    13
100
AcDbCircle
 10
221.944195
 20
165.855014
 30
0.0
 40
0.8185238279557917
100
AcDbArc
 50
18.994633
 51
84.687132
  0
ARC
  5
2D9
330
1F
100
AcDbEntity
  8
1
370
    13
100
AcDbCircle
 10
222.276574
 20
166.016051
 30
0.0
 40
0.1518507405007937
100
AcDbArc
 50
53.035495
 51
214.042905
  0
ARC
  5
2DA
330
1F
100
AcDbEntity
  8
1
370
    13
100
AcDbCircle
 10
222.383771
 20
166.232989
 30
0.0
 40
0.1595635501648876
100
AcDbArc
 50
328.461574
 51
94.550591
  0
ARC
  5
2DB
330
1F
100
AcDbEntity
  8
1
370
    13
100
AcDbCircle
 10
219.574989
 20
166.557979
 30
0.0
 40
0.1518507405006406
100
AcDbArc
 50
233.035495
 51
34.042905
  0
ARC
  5
2DC
330
1F
100
AcDbEntity
  8
1
370
    13
100
AcDbCircle
 10
219.467793
 20
166.341042
 30
0.0
 40
0.1595635501649212
100
AcDbArc
 50
148.461574
 51
274.550591
  0
ARC
  5
2DD
330
1F
100
AcDbEntity
  8
1
370
    13
100
AcDbCircle
 10
222.111204
 20
154.676881
 30
0.0
 40
1.440016847254252
100
AcDbArc
 50
272.206436
 51
328.171557
  0
ARC
  5
2DE
330
1F
100
AcDbEntity
  8
1
370
    13
100
AcDbCircle
 10
221.957878
 20
155.256428
 30
0.0
 40
2.029264103183198
100
AcDbArc
 50
231.784046
 51
275.904929
  0
ARC
  5
2DF
330
1F
100
AcDbEntity
  8
1
370
    13
100
AcDbCircle
 10
221.320728
 20
154.525024
 30
0.0
 40
1.061544808350958
100
AcDbArc
 50
165.09723
 51
234.382829
  0
ARC
  5
2E0
330
1F
100
AcDbEntity
  8
1
370
    13
100
AcDbCircle
 10
221.494498
 20
154.314976
 30
0.0
 40
1.293214153332235
100
AcDbArc
 50
97.740097
 51
158.066439
  0
ARC
  5
2E1
330
1F
100
AcDbEntity
  8
1
370
    13
100
AcDbCircle
 10
221.728471
 20
153.560841
 30
0.0
 40
2.076080813787946
100
AcDbArc
 50
57.905705
 51
101.337786
  0
ARC
  5
2E2
330
1F
100
AcDbEntity
  8
1
370
    13
100
AcDbCircle
 10
222.270197
 20
154.299159
 30
0.0
 40
1.164679429271805
100
AcDbArc
 50
356.271435
 51
61.186706
  0
ARC
  5
2E3
330
1F
100
AcDbEntity
  8
1
370
    13
100
AcDbCircle
 10
222.414359
 20
154.166173
 30
0.0
 40
1.404592598211927
100
AcDbArc
 50
289.43889
 51
348.839774
  0
ARC
  5
2E4
330
1F
100
AcDbEntity
  8
1
370
    13
100
AcDbCircle
 10
221.94706
 20
155.202098
 30
0.0
 40
2.53879599006705
100
AcDbArc
 50
252.11478
 51
291.603799
  0
ARC
  5
2E5
330
1F
100
AcDbEntity
  8
1
370
    13
100
AcDbCircle
 10
221.688653
 20
154.70052
 30
0.0
 40
1.984226418377308
100
AcDbArc
 50
207.99475
 51
254.768795
  0
ARC
  5
2E6
330
1F
100
AcDbEntity
  8
1
370
    13
100
AcDbCircle
 10
220.980107
 20
154.279124
 30
0.0
 40
1.161459714810495
100
AcDbArc
 50
138.234176
 51
206.045608
  0
ARC
  5
2E7
330
1F
100
AcDbEntity
  8
1
370
    13
100
AcDbCircle
 10
221.560513
 20
153.675207
 30
0.0
 40
1.997651273120001
100
AcDbArc
 50
89.845393
 51
136.402716
  0
ARC
  5
2E8
330
1F
100
AcDbEntity
  8
1
370
    13
100
AcDbCircle
 10
221.676276
 20
153.142967
 30
0.0
 40
2.532290285758176
100
AcDbArc
 50
52.939583
 51
92.498091
  0
ARC
  5
2E9
330
1F
100
AcDbEntity
  8
1
370
    13
100
AcDbCircle
 10
222.403453
 20
154.019804
 30
0.0
 40
1.395299922992626
100
AcDbArc
 50
355.39393
 51
55.069454
  0
ARC
  5
2EA
330
1F
100
AcDbEntity
  8
1
370
    13
100
AcDbCircle
 10
221.673791
 20
154.758901
 30
0.0
 40
2.463232210224132
100
AcDbArc
 50
324.83167
 51
356.179688
  0
ARC
  5
2EB
330
1F
100
AcDbEntity
  8
1
370
    13
100
AcDbCircle
 10
221.565024
 20
154.801679
 30
0.0
 40
2.576932703708612
100
AcDbArc
 50
282.292389
 51
325.447092
  0
ARC
  5
2EC
330
1F
100
AcDbEntity
  8
1
370
    13
100
AcDbCircle
 10
222.667836
 20
165.023507
 30
0.0
 40
2.030661705423091
100
AcDbArc
 50
40.080727
 51
71.786917
  0
ARC
  5
2ED
330
1F
100
AcDbEntity
  8
1
370
    13
100
AcDbCircle
 10
218.391376
 20
166.632499
 30
0.0
 40
0.4677945888490116
100
AcDbArc
 50
104.767294
 51
210.147669
  0
ARC
  5
2EE
330
1F
100
AcDbEntity
  8
1
370
    13
100
AcDbCircle
 10
223.575936
 20
166.223695
 30
0.0
 40
0.7142625154878356
100
AcDbArc
 50
275.17118
 51
355.108721
  0
ARC
  5
2EF
330
1F
100
AcDbEntity
  8
1
370
    13
100
AcDbCircle
 10
221.986782
 20
170.970653
 30
0.0
 40
5.703275471231214
100
AcDbArc
 50
267.863085
 51
286.85356
  0
ARC
  5
2F0
330
1F
100
AcDbEntity
  8
1
370
    13
100
AcDbCircle
 10
221.764312
 20
173.823254
 30
0.0
 40
8.547130514516178
100
AcDbArc
 50
252.341691
 51
266.786879
  0
ARC
  5
2F1
330
1F
100
AcDbEntity
  8
1
370
    13
100
AcDbCircle
 10
219.695066
 20
167.877582
 30
0.0
 40
2.260186316545596
100
AcDbArc
 50
220.906281
 51
256.609251
  0
ARC
  5
2F2
330
1F
100
AcDbEntity
  8
1
370
    13
100
AcDbCircle
 10
222.034971
 20
141.677631
 30
0.0
 40
1.424172883260457
100
AcDbArc
 50
297.481658
 51
343.393225
  0
ARC
  5
2F3
330
1F
100
AcDbEntity
  8
1
370
    13
100
AcDbCircle
 10
221.757664
 20
142.078156
 30
0.0
 40
1.908450528296256
100
AcDbArc
 50
251.836241
 51
299.318933
  0
ARC
  5
2F4
330
1F
100
AcDbEntity
  8
1
370
    13
100
AcDbCircle
 10
221.516344
 20
141.490212
 30
0.0
 40
1.275405985109755
100
AcDbArc
 50
191.062188
 51
253.903718
  0
ARC
  5
2F5
330
1F
100
AcDbEntity
  8
1
370
    13
100
AcDbCircle
 10
221.961383
 20
142.027463
 30
0.0
 40
1.891219359008798
100
AcDbArc
 50
293.809863
 51
336.619649
  0
ARC
  5
2F6
330
1F
100
AcDbEntity
  8
1
370
    13
100
AcDbCircle
 10
221.700257
 20
142.456024
 30
0.0
 40
2.389632200974653
100
AcDbArc
 50
252.932485
 51
295.389907
  0
ARC
  5
2F7
330
1F
100
AcDbEntity
  8
1
370
    13
100
AcDbCircle
 10
221.4404
 20
141.767545
 30
0.0
 40
1.655855158433387
100
AcDbArc
 50
199.869898
 51
254.536321
  0
ARC
  5
2F8
330
1F
100
AcDbEntity
  8
1
370
    13
100
AcDbCircle
 10
246.303634
 20
175.501163
 30
0.0
 40
20.03136891710109
100
AcDbArc
 50
179.700054
 51
187.605133
  0
ARC
  5
2F9
330
1F
100
AcDbEntity
  8
1
370
    13
100
AcDbCircle
 10
216.414676
 20
182.418485
 30
0.0
 40
0.537263379130801
100
AcDbArc
 50
124.425162
 51
192.075808
  0
ARC
  5
2FA
330
1F
100
AcDbEntity
  8
1
370
    13
100
AcDbCircle
 10
221.105866
 20
179.442419
 30
0.0
 40
3.186939157964152
100
AcDbArc
 50
345.509367
 51
12.136762
  0
ARC
  5
2FB
330
1F
100
AcDbEntity
  8
1
370
    13
100
AcDbCircle
 10
221.180834
 20
179.292176
 30
0.0
 40
3.064856715311411
100
AcDbArc
 50
184.533727
 51
214.729568
  0
ARC
  5
2FC
330
1F
100
AcDbEntity
  8
1
370
    13
100
AcDbCircle
 10
221.221992
 20
179.294492
 30
0.0
 40
3.106070011067902
100
AcDbArc
 50
143.45956
 51
184.516311
  0
ARC
  5
2FD
330
1F
100
AcDbEntity
  8
1
370
    13
100
AcDbCircle
 10
221.234255
 20
179.289014
 30
0.0
 40
3.119184913968915
100
AcDbArc
 50
102.573772
 51
143.51282
  0
ARC
  5
2FE
330
1F
100
AcDbEntity
  8
1
370
    13
100
AcDbCircle
 10
221.231256
 20
179.344079
 30
0.0
 40
3.063071007043694
100
AcDbArc
 50
45.028497
 51
86.477141
  0
ARC
  5
2FF
330
1F
100
AcDbEntity
  8
1
370
    13
100
AcDbCircle
 10
221.226925
 20
179.345261
 30
0.0
 40
3.065402895826557
100
AcDbArc
 50
0.657423
 51
42.084575
  0
ARC
  5
300
330
1F
100
AcDbEntity
  8
1
370
    13
100
AcDbCircle
 10
221.12372
 20
179.393194
 30
0.0
 40
3.207912436395018
100
AcDbArc
 50
142.811945
 51
183.207759
  0
ARC
  5
301
330
1F
100
AcDbEntity
  8
1
370
    13
100
AcDbCircle
 10
221.135326
 20
179.388001
 30
0.0
 40
3.220298701340405
100
AcDbArc
 50
102.573205
 51
142.863159
  0
ARC
  5
302
330
1F
100
AcDbEntity
  8
1
370
    13
100
AcDbCircle
 10
221.129768
 20
179.438204
 30
0.0
 40
3.16934434596041
100
AcDbArc
 50
53.007327
 51
93.73725
  0
ARC
  5
303
330
1F
100
AcDbEntity
  8
1
370
    13
100
AcDbCircle
 10
221.134873
 20
179.449772
 30
0.0
 40
3.157035139254993
100
AcDbArc
 50
12.116993
 51
52.955005
  0
ARC
  5
304
330
1F
100
AcDbEntity
  8
1
370
    13
100
AcDbCircle
 10
198.408943
 20
129.66669
 30
0.0
 40
16.05092436236152
100
AcDbArc
 50
74.177145
 51
82.475374
  0
ARC
  5
305
330
1F
100
AcDbEntity
  8
1
370
    13
100
AcDbCircle
 10
-3624.280159
 20
-95134.650493
 30
0.0
 40
95373.69166816967
100
AcDbArc
 50
87.688484
 51
87.689698
  0
ARC
  5
306
330
1F
100
AcDbEntity
  8
1
370
    13
100
AcDbCircle
 10
234.358262
 20
521.109124
 30
0.0
 40
359.8631083902794
100
AcDbArc
 50
267.427623
 51
267.77266
  0
ARC
  5
307
330
1F
100
AcDbEntity
  8
1
370
    13
100
AcDbCircle
 10
198.795974
 20
136.176064
 30
0.0
 40
24.17085015044134
100
AcDbArc
 50
61.475601
 51
70.810999
  0
ARC
  5
308
330
1F
100
AcDbEntity
  8
1
370
    13
100
AcDbCircle
 10
217.20741
 20
163.713658
 30
0.0
 40
2.014340508733769
100
AcDbArc
 50
186.285064
 51
213.494828
  0
ARC
  5
309
330
1F
100
AcDbEntity
  8
1
370
    13
100
AcDbCircle
 10
211.024519
 20
162.185977
 30
0.0
 40
0.7450289150009523
100
AcDbArc
 50
100.975591
 51
149.794196
  0
ARC
  5
30A
330
1F
100
AcDbEntity
  8
1
370
    13
100
AcDbCircle
 10
212.106722
 20
158.598744
 30
0.0
 40
4.488752451485127
100
AcDbArc
 50
87.626591
 51
105.824556
  0
ARC
  5
30B
330
1F
100
AcDbEntity
  8
1
370
    13
100
AcDbCircle
 10
212.175174
 20
156.742488
 30
0.0
 40
6.342245549900319
100
AcDbArc
 50
73.451099
 51
88.939025
  0
ARC
  5
30C
330
1F
100
AcDbEntity
  8
1
370
    13
100
AcDbCircle
 10
213.00302
 20
159.294311
 30
0.0
 40
3.660936316286446
100
AcDbArc
 50
44.264657
 51
74.495196
  0
ARC
  5
30D
330
1F
100
AcDbEntity
  8
1
370
    13
100
AcDbCircle
 10
211.305046
 20
187.805741
 30
0.0
 40
10.712200686279
100
AcDbArc
 50
251.556048
 51
263.58646
  0
ARC
  5
30E
330
1F
100
AcDbEntity
  8
1
370
    13
100
AcDbCircle
 10
211.267671
 20
187.39386
 30
0.0
 40
10.29872586638835
100
AcDbArc
 50
263.537128
 51
279.026571
  0
ARC
  5
30F
330
1F
100
AcDbEntity
  8
1
370
    13
100
AcDbCircle
 10
217.133416
 20
161.961623
 30
0.0
 40
0.1160776046310385
100
AcDbArc
 50
158.484381
 51
234.930891
  0
ARC
  5
310
330
1F
100
AcDbEntity
  8
1
370
    13
100
AcDbCircle
 10
217.192889
 20
161.808883
 30
0.0
 40
0.2572741174681561
100
AcDbArc
 50
70.698388
 51
130.609913
  0
ARC
  5
311
330
1F
100
AcDbEntity
  8
1
370
    13
100
AcDbCircle
 10
218.255537
 20
151.440604
 30
0.0
 40
9.942177759573115
100
AcDbArc
 50
248.653257
 51
262.692721
  0
ARC
  5
312
330
1F
100
AcDbEntity
  8
1
370
    13
100
AcDbCircle
 10
208.486435
 20
135.738268
 30
0.0
 40
8.494264056077052
100
AcDbArc
 50
67.751109
 51
85.568481
  0
ARC
  5
313
330
1F
100
AcDbEntity
  8
1
370
    13
100
AcDbCircle
 10
208.598814
 20
136.976897
 30
0.0
 40
7.250672733474904
100
AcDbArc
 50
85.697576
 51
104.849715
  0
ARC
  5
314
330
1F
100
AcDbEntity
  8
1
370
    13
100
AcDbCircle
 10
205.759298
 20
127.795791
 30
0.0
 40
16.08919867723429
100
AcDbArc
 50
74.316975
 51
82.296672
  0
ARC
  5
315
330
1F
100
AcDbEntity
  8
1
370
    13
100
AcDbCircle
 10
206.840724
 20
131.671319
 30
0.0
 40
12.06562529622658
100
AcDbArc
 50
59.945551
 51
74.286357
  0
ARC
  5
316
330
1F
100
AcDbEntity
  8
1
370
    13
100
AcDbCircle
 10
209.231974
 20
146.075126
 30
0.0
 40
16.92322861002135
100
AcDbArc
 50
338.328071
 51
341.692724
  0
ARC
  5
317
330
1F
100
AcDbEntity
  8
1
370
    13
100
AcDbCircle
 10
210.227893
 20
145.642341
 30
0.0
 40
15.83792141093607
100
AcDbArc
 50
335.962533
 51
338.452548
  0
ARC
  5
318
330
1F
100
AcDbEntity
  8
1
370
    13
100
AcDbCircle
 10
219.627668
 20
141.301562
 30
0.0
 40
5.486828874905477
100
AcDbArc
 50
326.356911
 51
337.377589
  0
ARC
  5
319
330
1F
100
AcDbEntity
  8
1
370
    13
100
AcDbCircle
 10
214.590784
 20
119.144404
 30
0.0
 40
20.44706564743299
100
AcDbArc
 50
74.897215
 51
76.549387
  0
ARC
  5
31A
330
1F
100
AcDbEntity
  8
1
370
    13
100
AcDbCircle
 10
214.148995
 20
117.521594
 30
0.0
 40
22.12893280560286
100
AcDbArc
 50
73.147926
 51
74.887624
  0
ARC
  5
31B
330
1F
100
AcDbEntity
  8
1
370
    13
100
AcDbCircle
 10
221.218728
 20
148.946133
 30
0.0
 40
10.05970797349596
100
AcDbArc
 50
245.269304
 51
252.346755
  0
ARC
  5
31C
330
1F
100
AcDbEntity
  8
1
370
    13
100
AcDbCircle
 10
220.747502
 20
140.603111
 30
0.0
 40
1.050291090982094
100
AcDbArc
 50
110.461929
 51
151.031602
  0
ARC
  5
31D
330
1F
100
AcDbEntity
  8
1
370
    13
100
AcDbCircle
 10
220.763303
 20
140.626822
 30
0.0
 40
1.053014350333157
100
AcDbArc
 50
152.576931
 51
202.28434
  0
ARC
  5
31E
330
1F
100
AcDbEntity
  8
1
370
    13
100
AcDbCircle
 10
222.704155
 20
141.523843
 30
0.0
 40
3.190450354814206
100
AcDbArc
 50
203.973544
 51
229.170731
  0
ARC
  5
31F
330
1F
100
AcDbEntity
  8
1
370
    13
100
AcDbCircle
 10
223.499057
 20
140.354416
 30
0.0
 40
2.205495058246202
100
AcDbArc
 50
258.403949
 51
288.407107
  0
ARC
  5
320
330
1F
100
AcDbEntity
  8
1
370
    13
100
AcDbCircle
 10
221.411469
 20
180.031176
 30
0.0
 40
0.5828856182226677
100
AcDbArc
 50
55.261076
 51
109.582173
  0
ARC
  5
321
330
1F
100
AcDbEntity
  8
1
370
    13
100
AcDbCircle
 10
220.012307
 20
178.752736
 30
0.0
 40
0.5847047545094731
100
AcDbArc
 50
155.132696
 51
212.532684
  0
ARC
  5
322
330
1F
100
AcDbEntity
  8
1
370
    13
100
AcDbCircle
 10
219.312891
 20
179.546179
 30
0.0
 40
0.5776177557416594
100
AcDbArc
 50
304.303096
 51
20.034036
  0
ARC
  5
323
330
1F
100
AcDbEntity
  8
1
370
    13
100
AcDbCircle
 10
220.687446
 20
180.7979
 30
0.0
 40
0.5762690280091921
100
AcDbArc
 50
244.60046
 51
320.485875
  0
ARC
  5
324
330
1F
100
AcDbEntity
  8
1
370
    13
100
AcDbCircle
 10
227.062713
 20
160.967731
 30
0.0
 40
1.479705529387765
100
AcDbArc
 50
195.955019
 51
223.794185
  0
ARC
  5
325
330
1F
100
AcDbEntity
  8
1
370
    13
100
AcDbCircle
 10
223.348677
 20
163.843455
 30
0.0
 40
3.043288274663353
100
AcDbArc
 50
317.509872
 51
323.728676
  0
ARC
  5
326
330
1F
100
AcDbEntity
  8
1
370
    13
100
AcDbCircle
 10
221.714925
 20
154.493396
 30
0.0
 40
2.245259107826722
100
AcDbArc
 50
243.989658
 51
280.229255
  0
ARC
  5
327
330
1F
100
AcDbEntity
  8
1
370
    13
100
AcDbCircle
 10
220.682473
 20
154.1925
 30
0.0
 40
1.120496495928043
100
AcDbArc
 50
167.674884
 51
201.95937
  0
ARC
  5
328
330
1F
100
AcDbEntity
  8
1
370
    13
100
AcDbCircle
 10
215.764231
 20
162.354515
 30
0.0
 40
0.2313395717393006
100
AcDbArc
 50
210.981072
 51
275.823236
  0
ARC
  5
329
330
1F
100
AcDbEntity
  8
1
370
    13
100
AcDbCircle
 10
217.12534
 20
163.441237
 30
0.0
 40
1.760150949523835
100
AcDbArc
 50
217.507696
 51
223.548184
  0
ARC
  5
32A
330
1F
100
AcDbEntity
  8
1
370
    13
100
AcDbCircle
 10
214.328597
 20
161.304199
 30
0.0
 40
1.759615803807502
100
AcDbArc
 50
37.260371
 51
45.682809
  0
ARC
  5
32B
330
1F
100
AcDbEntity
  8
1
370
    13
100
AcDbCircle
 10
226.465441
 20
175.69731
 30
0.0
 40
1.450018914765489
100
AcDbArc
 50
282.220483
 51
286.97252
  0
ARC
  5
32C
330
1F
100
AcDbEntity
  8
1
370
    13
100
AcDbCircle
 10
226.470786
 20
175.67948
 30
0.0
 40
1.431404787676974
100
AcDbArc
 50
286.976223
 51
293.101049
  0
ARC
  5
32D
330
1F
100
AcDbEntity
  8
1
370
    13
100
AcDbCircle
 10
215.52535
 20
183.260962
 30
0.0
 40
1.352242292320342
100
AcDbArc
 50
163.920117
 51
169.372405
  0
ARC
  5
32E
330
1F
100
AcDbEntity
  8
1
370
    13
100
AcDbCircle
 10
215.503903
 20
183.264971
 30
0.0
 40
1.33042382159682
100
AcDbArc
 50
169.371736
 51
176.399017
  0
ARC
  5
32F
330
1F
100
AcDbEntity
  8
1
370
    13
100
AcDbCircle
 10
215.662234
 20
183.17274
 30
0.0
 40
1.538452004449129
100
AcDbArc
 50
102.820381
 51
107.39018
  0
ARC
  5
330
330
1F
100
AcDbEntity
  8
1
370
    13
100
AcDbCircle
 10
215.644008
 20
183.231837
 30
0.0
 40
1.476608880696022
100
AcDbArc
 50
107.400635
 51
113.476244
  0
ARC
  5
331
330
1F
100
AcDbEntity
  8
1
370
    13
100
AcDbCircle
 10
228.218066
 20
159.409629
 30
0.0
 40
27.50070201586638
100
AcDbArc
 50
101.453564
 51
103.37135
  0
ARC
  5
332
330
1F
100
AcDbEntity
  8
1
370
    13
100
AcDbCircle
 10
-18128.443354
 20
80585.954191
 30
0.0
 40
82467.32502366434
100
AcDbArc
 50
282.855314
 51
282.856855
  0
ARC
  5
333
330
1F
100
AcDbEntity
  8
1
370
    13
100
AcDbCircle
 10
224.87907
 20
184.982159
 30
0.0
 40
1.396531347353344
100
AcDbArc
 50
75.33108
 51
80.413039
  0
ARC
  5
334
330
1F
100
AcDbEntity
  8
1
370
    13
100
AcDbCircle
 10
224.880692
 20
184.991746
 30
0.0
 40
1.386808086000282
100
AcDbArc
 50
80.413163
 51
86.923164
  0
ARC
  5
335
330
1F
100
AcDbEntity
  8
1
370
    13
100
AcDbCircle
 10
224.88236
 20
184.945147
 30
0.0
 40
1.43525714693465
100
AcDbArc
 50
11.932084
 51
16.866162
  0
ARC
  5
336
330
1F
100
AcDbEntity
  8
1
370
    13
100
AcDbCircle
 10
224.9014
 20
184.950826
 30
0.0
 40
1.415388219957866
100
AcDbArc
 50
16.869761
 51
23.251212
  0
ARC
  5
337
330
1F
100
AcDbEntity
  8
1
370
    13
100
AcDbCircle
 10
173.057283
 20
166.911174
 30
0.0
 40
55.87130489738083
100
AcDbArc
 50
11.257155
 51
12.197993
  0
ARC
  5
338
330
1F
100
AcDbEntity
  8
1
370
    13
100
AcDbCircle
 10
163273.336144
 20
34674.36742
 30
0.0
 40
166654.853248612
100
AcDbArc
 50
191.945175
 51
191.945933
  0
ARC
  5
339
330
1F
100
AcDbEntity
  8
1
370
    13
100
AcDbCircle
 10
226.519026
 20
175.671879
 30
0.0
 40
1.383381877835813
100
AcDbArc
 50
345.159071
 51
350.746475
  0
ARC
  5
33A
330
1F
100
AcDbEntity
  8
1
370
    13
100
AcDbCircle
 10
226.529882
 20
175.670121
 30
0.0
 40
1.372384529321846
100
AcDbArc
 50
350.746068
 51
357.916349
  0
ARC
  5
33B
330
1F
100
AcDbEntity
  8
1
370
    13
100
AcDbCircle
 10
226.710058
 20
150.886593
 30
0.0
 40
1.195142583715868
100
AcDbArc
 50
29.063982
 51
73.985337
  0
ARC
  5
33C
330
1F
100
AcDbEntity
  8
1
370
    13
100
AcDbCircle
 10
221.091434
 20
151.241557
 30
0.0
 40
6.71218981507211
100
AcDbArc
 50
352.360408
 51
358.765092
  0
ARC
  5
33D
330
1F
100
AcDbEntity
  8
1
370
    13
100
AcDbCircle
 10
226.747562
 20
151.150193
 30
0.0
 40
1.055849024794785
100
AcDbArc
 50
357.106779
 51
17.470636
  0
ARC
  5
33E
330
1F
100
AcDbEntity
  8
1
370
    13
100
AcDbCircle
 10
226.438268
 20
150.113636
 30
0.0
 40
2.169198588132349
100
AcDbArc
 50
78.014824
 51
81.139902
  0
ARC
  5
33F
330
1F
100
AcDbEntity
  8
1
370
    13
100
AcDbCircle
 10
226.518583
 20
150.495001
 30
0.0
 40
1.779468861841473
100
AcDbArc
 50
73.216894
 51
77.994562
  0
ARC
  5
340
330
1F
100
AcDbEntity
  8
1
370
    13
100
AcDbCircle
 10
227.253866
 20
167.511832
 30
0.0
 40
0.8854318910879997
100
AcDbArc
 50
293.262846
 51
303.283367
  0
ARC
  5
341
330
1F
100
AcDbEntity
  8
1
370
    13
100
AcDbCircle
 10
227.506477
 20
167.134589
 30
0.0
 40
0.4314609576634827
100
AcDbArc
 50
302.732217
 51
324.163801
  0
ARC
  5
342
330
1F
100
AcDbEntity
  8
1
370
    13
100
AcDbCircle
 10
59.749919
 20
-55.226189
 30
0.0
 40
279.2787909431573
100
AcDbArc
 50
53.0157
 51
53.118114
  0
ARC
  5
343
330
1F
100
AcDbEntity
  8
1
370
    13
100
AcDbCircle
 10
226.402868
 20
166.239886
 30
0.0
 40
1.41674127963723
100
AcDbArc
 50
341.202655
 51
13.803022
  0
ARC
  5
344
330
1F
100
AcDbEntity
  8
1
370
    13
100
AcDbCircle
 10
469.070766
 20
230.933293
 30
0.0
 40
248.8250318778171
100
AcDbArc
 50
191.862117
 51
192.613204
  0
ARC
  5
345
330
1F
100
AcDbEntity
  8
1
370
    13
100
AcDbCircle
 10
-60671.940578
 20
-12743.897478
 30
0.0
 40
62253.73146823169
100
AcDbArc
 50
11.981563
 51
11.985361
  0
ARC
  5
346
330
1F
100
AcDbEntity
  8
1
370
    13
100
AcDbCircle
 10
225.73504
 20
176.472168
 30
0.0
 40
0.5291806585686613
100
AcDbArc
 50
304.601811
 51
13.693667
  0
ARC
  5
347
330
1F
100
AcDbEntity
  8
1
370
    13
100
AcDbCircle
 10
221.879225
 20
153.63924
 30
0.0
 40
2.576936806535129
100
AcDbArc
 50
105.05654
 51
135.147211
  0
ARC
  5
348
330
1F
100
AcDbEntity
  8
1
370
    13
100
AcDbCircle
 10
222.027857
 20
153.264703
 30
0.0
 40
2.977585474267369
100
AcDbArc
 50
78.721222
 51
105.946247
  0
ARC
  5
349
330
1F
100
AcDbEntity
  8
1
370
    13
100
AcDbCircle
 10
222.22429
 20
154.072133
 30
0.0
 40
2.147610141526763
100
AcDbArc
 50
45.453457
 51
79.647565
  0
ARC
  5
34A
330
1F
100
AcDbEntity
  8
1
370
    13
100
AcDbCircle
 10
222.769812
 20
154.636989
 30
0.0
 40
1.362391594803007
100
AcDbArc
 50
358.224692
 51
45.139855
  0
ARC
  5
34B
330
1F
100
AcDbEntity
  8
1
370
    13
100
AcDbCircle
 10
220.817227
 20
151.269101
 30
0.0
 40
4.88616654797872
100
AcDbArc
 50
121.300366
 51
141.543119
  0
ARC
  5
34C
330
1F
100
AcDbEntity
  8
1
370
    13
100
AcDbCircle
 10
219.268594
 20
153.737992
 30
0.0
 40
1.972473552827899
100
AcDbArc
 50
92.327854
 51
120.121286
  0
ARC
  5
34D
330
1F
100
AcDbEntity
  8
1
370
    13
100
AcDbCircle
 10
219.212681
 20
154.185593
 30
0.0
 40
1.523437366508978
100
AcDbArc
 50
56.551529
 51
90.91034
  0
ARC
  5
34E
330
1F
100
AcDbEntity
  8
1
370
    13
100
AcDbCircle
 10
218.327768
 20
163.419262
 30
0.0
 40
9.310975690233796
100
AcDbArc
 50
235.06731
 51
246.64384
  0
ARC
  5
34F
330
1F
100
AcDbEntity
  8
1
370
    13
100
AcDbCircle
 10
217.416202
 20
161.287557
 30
0.0
 40
6.992564904025603
100
AcDbArc
 50
246.576364
 51
266.513698
  0
ARC
  5
350
330
1F
100
AcDbEntity
  8
1
370
    13
100
AcDbCircle
 10
216.506051
 20
172.22145
 30
0.0
 40
16.43369249252843
100
AcDbArc
 50
223.975902
 51
233.541895
  0
ARC
  5
351
330
1F
100
AcDbEntity
  8
1
370
    13
100
AcDbCircle
 10
207.156366
 20
134.234208
 30
0.0
 40
13.49095726486613
100
AcDbArc
 50
76.928995
 51
86.772338
  0
ARC
  5
352
330
1F
100
AcDbEntity
  8
1
370
    13
100
AcDbCircle
 10
207.341294
 20
134.941594
 30
0.0
 40
12.76009175948451
100
AcDbArc
 50
64.094863
 51
77.019499
  0
ARC
  5
353
330
1F
100
AcDbEntity
  8
1
370
    13
100
AcDbCircle
 10
215.245205
 20
146.93867
 30
0.0
 40
1.526830515196769
100
AcDbArc
 50
37.181481
 51
76.982757
  0
ARC
  5
354
330
1F
100
AcDbEntity
  8
1
370
    13
100
AcDbCircle
 10
215.420973
 20
147.923541
 30
0.0
 40
0.5300960664784251
100
AcDbArc
 50
71.506887
 51
158.379428
  0
ARC
  5
355
330
1F
100
AcDbEntity
  8
1
370
    13
100
AcDbCircle
 10
215.660849
 20
147.943396
 30
0.0
 40
0.7533946207465938
100
AcDbArc
 50
166.532254
 51
211.18663
  0
ARC
  5
356
330
1F
100
AcDbEntity
  8
1
370
    13
100
AcDbCircle
 10
214.106865
 20
146.493268
 30
0.0
 40
0.1096713508780114
100
AcDbArc
 50
95.074182
 51
172.712433
  0
ARC
  5
357
330
1F
100
AcDbEntity
  8
1
370
    13
100
AcDbCircle
 10
199.78198
 20
151.133768
 30
0.0
 40
27.01284185313843
100
AcDbArc
 50
3.641173
 51
5.920731
  0
ARC
  5
358
330
1F
100
AcDbEntity
  8
1
370
    13
100
AcDbCircle
 10
224.233804
 20
152.639941
 30
0.0
 40
2.515215763500986
100
AcDbArc
 50
353.335732
 51
4.774457
  0
ARC
  5
359
330
1F
100
AcDbEntity
  8
1
370
    13
100
AcDbCircle
 10
225.51179
 20
148.405944
 30
0.0
 40
0.0931945263218724
100
AcDbArc
 50
225.87517
 51
293.234069
  0
ARC
  5
35A
330
1F
100
AcDbEntity
  8
1
370
    13
100
AcDbCircle
 10
228.081288
 20
150.065338
 30
0.0
 40
3.234165470809496
100
AcDbArc
 50
193.653365
 51
207.739053
  0
ARC
  5
35B
330
1F
100
AcDbEntity
  8
1
370
    13
100
AcDbCircle
 10
241.231146
 20
153.863042
 30
0.0
 40
16.91903246295394
100
AcDbArc
 50
190.414884
 51
195.639583
  0
ARC
  5
35C
330
1F
100
AcDbEntity
  8
1
370
    13
100
AcDbCircle
 10
222.544294
 20
153.709515
 30
0.0
 40
3.043413823410159
100
AcDbArc
 50
144.963764
 51
166.27348
  0
ARC
  5
35D
330
1F
100
AcDbEntity
  8
1
370
    13
100
AcDbCircle
 10
223.311159
 20
151.881075
 30
0.0
 40
1.635974230002645
100
AcDbArc
 50
261.017496
 51
294.185457
  0
ARC
  5
35E
330
1F
100
AcDbEntity
  8
1
370
    13
100
AcDbCircle
 10
219.149486
 20
152.829507
 30
0.0
 40
2.575198216253143
100
AcDbArc
 50
274.396989
 51
303.323514
  0
ARC
  5
35F
330
1F
100
AcDbEntity
  8
1
370
    13
100
AcDbCircle
 10
219.203211
 20
152.353724
 30
0.0
 40
2.096766839903731
100
AcDbArc
 50
240.416804
 51
273.929962
  0
ARC
  5
360
330
1F
100
AcDbEntity
  8
1
370
    13
100
AcDbCircle
 10
219.994873
 20
153.678704
 30
0.0
 40
3.64001646177159
100
AcDbArc
 50
214.919376
 51
239.876339
  0
ARC
  5
361
330
1F
100
AcDbEntity
  8
1
370
    13
100
AcDbCircle
 10
221.603002
 20
156.710418
 30
0.0
 40
10.21750358790551
100
AcDbArc
 50
243.288249
 51
257.243635
  0
ARC
  5
362
330
1F
100
AcDbEntity
  8
1
370
    13
100
AcDbCircle
 10
223.971328
 20
147.483905
 30
0.0
 40
1.584038080400367
100
AcDbArc
 50
290.336135
 51
326.922378
  0
ARC
  5
363
330
1F
100
AcDbEntity
  8
1
370
    13
100
AcDbCircle
 10
223.631842
 20
148.344108
 30
0.0
 40
2.508679695435548
100
AcDbArc
 50
256.723665
 51
290.778796
  0
ARC
  5
364
330
1F
100
AcDbEntity
  8
1
370
    13
100
AcDbCircle
 10
207.85533
 20
189.480034
 30
0.0
 40
10.09090163722703
100
AcDbArc
 50
270.344224
 51
283.479299
  0
ARC
  5
365
330
1F
100
AcDbEntity
  8
1
370
    13
100
AcDbCircle
 10
207.856631
 20
189.477689
 30
0.0
 40
10.08831754376197
100
AcDbArc
 50
283.475219
 51
300.0995
  0
ARC
  5
366
330
1F
100
AcDbEntity
  8
1
370
    13
100
AcDbCircle
 10
202.532929
 20
162.057425
 30
0.0
 40
24.24446163890882
100
AcDbArc
 50
353.918807
 51
357.25033
  0
ARC
  5
367
330
1F
100
AcDbEntity
  8
1
370
    13
100
AcDbCircle
 10
214.231153
 20
169.053519
 30
0.0
 40
0.5327107433596249
100
AcDbArc
 50
319.049444
 51
339.610643
  0
ARC
  5
368
330
1F
100
AcDbEntity
  8
1
370
    13
100
AcDbCircle
 10
216.900145
 20
164.818687
 30
0.0
 40
0.5216467992201428
100
AcDbArc
 50
259.966397
 51
313.129948
  0
ARC
  5
369
330
1F
100
AcDbEntity
  8
1
370
    13
100
AcDbCircle
 10
226.652248
 20
164.242043
 30
0.0
 40
0.6275606805163727
100
AcDbArc
 50
167.356144
 51
235.614464
  0
ARC
  5
36A
330
1F
100
AcDbEntity
  8
1
370
    13
100
AcDbCircle
 10
227.311684
 20
164.225432
 30
0.0
 40
1.469452473796747
100
AcDbArc
 50
174.575398
 51
198.58687
  0
ARC
  5
36B
330
1F
100
AcDbEntity
  8
1
370
    13
100
AcDbCircle
 10
227.177316
 20
164.229556
 30
0.0
 40
1.786641050525677
100
AcDbArc
 50
176.19461
 51
193.865162
  0
ARC
  5
36C
330
1F
100
AcDbEntity
  8
1
370
    13
100
AcDbCircle
 10
225.687443
 20
163.850741
 30
0.0
 40
0.2496329277289646
100
AcDbArc
 50
191.39754
 51
221.587165
  0
ARC
  5
36D
330
1F
100
AcDbEntity
  8
1
370
    13
100
AcDbCircle
 10
217.008317
 20
164.676159
 30
0.0
 40
0.5216673810245875
100
AcDbArc
 50
259.964007
 51
313.179029
  0
ARC
  5
36E
330
1F
100
AcDbEntity
  8
1
370
    13
100
AcDbCircle
 10
217.071684
 20
164.533151
 30
0.0
 40
0.4889739630717151
100
AcDbArc
 50
267.486831
 51
320.495209
  0
ARC
  5
36F
330
1F
100
AcDbEntity
  8
1
370
    13
100
AcDbCircle
 10
224.841365
 20
152.151069
 30
0.0
 40
11.0547180250772
100
AcDbArc
 50
254.344466
 51
259.132627
  0
ARC
  5
370
330
1F
100
AcDbEntity
  8
1
370
    13
100
AcDbCircle
 10
-8080.325903
 20
-32270.454301
 30
0.0
 40
33458.35414032073
100
AcDbArc
 50
75.63283
 51
75.63665
  0
ARC
  5
371
330
1F
100
AcDbEntity
  8
1
370
    13
100
AcDbCircle
 10
224.915563
 20
143.106109
 30
0.0
 40
1.742392380580374
100
AcDbArc
 50
291.674102
 51
300.070711
  0
ARC
  5
372
330
1F
100
AcDbEntity
  8
1
370
    13
100
AcDbCircle
 10
224.698426
 20
143.659385
 30
0.0
 40
2.336747906653329
100
AcDbArc
 50
283.217459
 51
291.611468
  0
ARC
  5
373
330
1F
100
AcDbEntity
  8
1
370
    13
100
AcDbCircle
 10
224.819599
 20
143.213401
 30
0.0
 40
1.87494032918847
100
AcDbArc
 50
278.961317
 51
282.728826
  0
ARC
  5
374
330
1F
100
AcDbEntity
  8
1
370
    13
100
AcDbCircle
 10
224.814039
 20
143.248917
 30
0.0
 40
1.910888898839807
100
AcDbArc
 50
274.234281
 51
278.960125
  0
ARC
  5
375
330
1F
100
AcDbEntity
  8
1
370
    13
100
AcDbCircle
 10
232.376148
 20
152.513952
 30
0.0
 40
5.278890244615305
100
AcDbArc
 50
206.091533
 51
207.867133
  0
ARC
  5
376
330
1F
100
AcDbEntity
  8
1
370
    13
100
AcDbCircle
 10
215.120912
 20
143.895875
 30
0.0
 40
0.4578257806362026
100
AcDbArc
 50
266.234826
 51
322.427894
  0
ARC
  5
377
330
1F
100
AcDbEntity
  8
1
370
    13
100
AcDbCircle
 10
215.994516
 20
145.832415
 30
0.0
 40
2.735874797727889
100
AcDbArc
 50
253.170786
 51
255.745406
  0
ARC
  5
378
330
1F
100
AcDbEntity
  8
1
370
    13
100
AcDbCircle
 10
215.826522
 20
145.273698
 30
0.0
 40
2.152449156053123
100
AcDbArc
 50
249.017657
 51
253.145208
  0
ARC
  5
379
330
1F
100
AcDbEntity
  8
1
370
    13
100
AcDbCircle
 10
213.166054
 20
151.323392
 30
0.0
 40
15.18542018300363
100
AcDbArc
 50
342.7343
 51
345.288915
  0
ARC
  5
37A
330
1F
100
AcDbEntity
  8
1
370
    13
100
AcDbCircle
 10
41217.204223
 20
-12068.109144
 30
0.0
 40
42770.86098385855
100
AcDbArc
 50
163.405888
 51
163.408028
  0
ARC
  5
37B
330
1F
100
AcDbEntity
  8
1
370
    13
100
AcDbCircle
 10
261.631083
 20
132.666363
 30
0.0
 40
49.19685075680493
100
AcDbArc
 50
164.101722
 51
164.501133
  0
ARC
  5
37C
330
1F
100
AcDbEntity
  8
1
370
    13
100
AcDbCircle
 10
-342232.535315
 20
97000.168764
 30
0.0
 40
355879.9633735079
100
AcDbArc
 50
344.207539
 51
344.207599
  0
ARC
  5
37D
330
1F
100
AcDbEntity
  8
1
370
    13
100
AcDbCircle
 10
227.213771
 20
165.015836
 30
0.0
 40
1.440746006135696
100
AcDbArc
 50
285.69709
 51
291.413138
  0
ARC
  5
37E
330
1F
100
AcDbEntity
  8
1
370
    13
100
AcDbCircle
 10
227.451619
 20
164.41454
 30
0.0
 40
0.7941231551806142
100
AcDbArc
 50
291.275843
 51
300.633434
  0
ARC
  5
37F
330
1F
100
AcDbEntity
  8
1
370
    13
100
AcDbCircle
 10
226.815738
 20
166.977913
 30
0.0
 40
3.446945462999259
100
AcDbArc
 50
273.603839
 51
278.267024
  0
ARC
  5
380
330
1F
100
AcDbEntity
  8
1
370
    13
100
AcDbCircle
 10
226.976519
 20
165.863187
 30
0.0
 40
2.320684689262397
100
AcDbArc
 50
278.295973
 51
285.67616
  0
ARC
  5
381
330
1F
100
AcDbEntity
  8
1
370
    13
100
AcDbCircle
 10
225.688686
 20
192.521556
 30
0.0
 40
29.01631022087355
100
AcDbArc
 50
272.140353
 51
272.370272
  0
ARC
  5
382
330
1F
100
AcDbEntity
  8
1
370
    13
100
AcDbCircle
 10
226.631734
 20
169.660312
 30
0.0
 40
6.135624680966139
100
AcDbArc
 50
272.400493
 51
273.744199
  0
ARC
  5
383
330
1F
100
AcDbEntity
  8
1
370
    13
100
AcDbCircle
 10
219.586166
 20
171.918718
 30
0.0
 40
8.675196552942412
100
AcDbArc
 50
267.911406
 51
273.882969
  0
ARC
  5
384
330
1F
100
AcDbEntity
  8
1
370
    13
100
AcDbCircle
 10
1262.939975
 20
-26070.137956
 30
0.0
 40
26254.1179670082
100
AcDbArc
 50
92.271519
 51
92.276284
  0
ARC
  5
385
330
1F
100
AcDbEntity
  8
1
370
    13
100
AcDbCircle
 10
218.173962
 20
168.159527
 30
0.0
 40
4.588722550931416
100
AcDbArc
 50
252.929718
 51
254.603304
  0
ARC
  5
386
330
1F
100
AcDbEntity
  8
1
370
    13
100
AcDbCircle
 10
218.252246
 20
168.445155
 30
0.0
 40
4.884883579749095
100
AcDbArc
 50
254.607531
 51
256.625941
  0
ARC
  5
387
330
1F
100
AcDbEntity
  8
1
370
    13
100
AcDbCircle
 10
218.143006
 20
168.615249
 30
0.0
 40
5.011546000489633
100
AcDbArc
 50
248.590293
 51
251.192772
  0
ARC
  5
388
330
1F
100
AcDbEntity
  8
1
370
    13
100
AcDbCircle
 10
221.917867
 20
179.792485
 30
0.0
 40
16.80899918259168
100
AcDbArc
 50
251.295232
 51
252.370089
  0
ARC
  5
389
330
1F
100
AcDbEntity
  8
1
370
    13
100
AcDbCircle
 10
216.50719
 20
164.924628
 30
0.0
 40
0.9689595916235123
100
AcDbArc
 50
230.470851
 51
241.334244
  0
ARC
  5
38A
330
1F
100
AcDbEntity
  8
1
370
    13
100
AcDbCircle
 10
217.079484
 20
165.969664
 30
0.0
 40
2.160437913136489
100
AcDbArc
 50
241.311791
 51
249.237469
  0
ARC
  5
38B
330
1F
100
AcDbEntity
  8
1
370
    13
100
AcDbCircle
 10
-6830.233623
 20
-4989.680789
 30
0.0
 40
8729.82472776604
100
AcDbArc
 50
36.194968
 51
36.200955
  0
ARC
  5
38C
330
1F
100
AcDbEntity
  8
1
370
    13
100
AcDbCircle
 10
215.191707
 20
165.791961
 30
0.0
 40
2.167993044786895
100
AcDbArc
 50
86.584758
 51
89.716728
  0
ARC
  5
38D
330
1F
100
AcDbEntity
  8
1
370
    13
100
AcDbCircle
 10
215.18782
 20
165.380724
 30
0.0
 40
2.579244403862248
100
AcDbArc
 50
89.675531
 51
92.93459
  0
ARC
  5
38E
330
1F
100
AcDbEntity
  8
1
370
    13
100
AcDbCircle
 10
222.720372
 20
177.631216
 30
0.0
 40
10.11424633374037
100
AcDbArc
 50
265.110062
 51
270.208346
  0
ARC
  5
38F
330
1F
100
AcDbEntity
  8
1
370
    13
100
AcDbCircle
 10
-1637.194809
 20
-30024.829645
 30
0.0
 40
30249.56355377511
100
AcDbArc
 50
86.476542
 51
86.480644
  0
ARC
  5
390
330
1F
100
AcDbEntity
  8
1
370
    13
100
AcDbCircle
 10
225.089485
 20
164.029606
 30
0.0
 40
3.591066266955217
100
AcDbArc
 50
87.714095
 51
89.646281
  0
ARC
  5
391
330
1F
100
AcDbEntity
  8
1
370
    13
100
AcDbCircle
 10
225.089016
 20
164.015462
 30
0.0
 40
3.605213030874052
100
AcDbArc
 50
89.640217
 51
92.12828
  0
ARC
  5
392
330
1F
100
AcDbEntity
  8
1
370
    13
100
AcDbCircle
 10
225.202157
 20
165.614053
 30
0.0
 40
2.001861316838279
100
AcDbArc
 50
72.964788
 51
79.729638
  0
ARC
  5
393
330
1F
100
AcDbEntity
  8
1
370
    13
100
AcDbCircle
 10
225.177407
 20
165.502124
 30
0.0
 40
2.11641387739246
100
AcDbArc
 50
79.610577
 51
88.502432
  0
ARC
  5
394
330
1F
100
AcDbEntity
  8
1
370
    13
100
AcDbCircle
 10
-27858.920568
 20
-14553.237631
 30
0.0
 40
31709.15665912905
100
AcDbArc
 50
27.655023
 51
27.657031
  0
ARC
  5
395
330
1F
100
AcDbEntity
  8
1
370
    13
100
AcDbCircle
 10
220.351148
 20
179.787573
 30
0.0
 40
0.5905841678056666
100
AcDbArc
 50
95.404139
 51
169.327501
  0
ARC
  5
396
330
1F
100
AcDbEntity
  8
1
370
    13
100
AcDbCircle
 10
262.305493
 20
183.27754
 30
0.0
 40
38.32171708379553
100
AcDbArc
 50
191.105409
 51
195.052407
  0
ARC
  5
397
330
1F
100
AcDbEntity
  8
1
370
    13
100
AcDbCircle
 10
284.244289
 20
187.930917
 30
0.0
 40
60.74696073970657
100
AcDbArc
 50
188.790301
 51
191.426573
  0
ARC
  5
398
330
1F
100
AcDbEntity
  8
1
370
    13
100
AcDbCircle
 10
192.721532
 20
156.507912
 30
0.0
 40
1.557672554883821
100
AcDbArc
 50
307.685749
 51
329.360667
  0
ARC
  5
399
330
1F
100
AcDbEntity
  8
1
370
    13
100
AcDbCircle
 10
192.88031
 20
156.483461
 30
0.0
 40
1.409872177599581
100
AcDbArc
 50
326.926424
 51
358.635231
  0
ARC
  5
39A
330
1F
100
AcDbEntity
  8
1
370
    13
100
AcDbCircle
 10
192.558699
 20
166.22881
 30
0.0
 40
1.762481447430147
100
AcDbArc
 50
18.83375
 51
44.210917
  0
ARC
  5
39B
330
1F
100
AcDbEntity
  8
1
370
    13
100
AcDbCircle
 10
193.3822
 20
167.106916
 30
0.0
 40
0.5626213277718934
100
AcDbArc
 50
38.582662
 51
78.976223
  0
ARC
  5
39C
330
1F
100
AcDbEntity
  8
1
370
    13
100
AcDbCircle
 10
211.220872
 20
169.382595
 30
0.0
 40
15.56571349636127
100
AcDbArc
 50
3.978789
 51
10.323737
  0
ARC
  5
39D
330
1F
100
AcDbEntity
  8
1
370
    13
100
AcDbCircle
 10
216.111278
 20
170.611228
 30
0.0
 40
1.215703995547899
100
AcDbArc
 50
111.36371
 51
170.294824
  0
ARC
  5
39E
330
1F
100
AcDbEntity
  8
1
370
    13
100
AcDbCircle
 10
215.689484
 20
170.693762
 30
0.0
 40
0.7861003028946892
100
AcDbArc
 50
171.041717
 51
211.094205
  0
ARC
  5
39F
330
1F
100
AcDbEntity
  8
1
370
    13
100
AcDbCircle
 10
214.348551
 20
168.103505
 30
0.0
 40
0.35195659559689
100
AcDbArc
 50
98.931067
 51
174.735291
  0
ARC
  5
3A0
330
1F
100
AcDbEntity
  8
1
370
    13
100
AcDbCircle
 10
200.89078
 20
166.220907
 30
0.0
 40
0.7316896909079759
100
AcDbArc
 50
158.629309
 51
215.764274
  0
ARC
  5
3A1
330
1F
100
AcDbEntity
  8
1
370
    13
100
AcDbCircle
 10
201.180757
 20
165.877337
 30
0.0
 40
1.1471166117004
100
AcDbArc
 50
104.615253
 51
147.863362
  0
ARC
  5
3A2
330
1F
100
AcDbEntity
  8
1
370
    13
100
AcDbCircle
 10
202.888553
 20
161.433994
 30
0.0
 40
5.90157462507891
100
AcDbArc
 50
98.479882
 51
109.780988
  0
ARC
  5
3A3
330
1F
100
AcDbEntity
  8
1
370
    13
100
AcDbCircle
 10
203.644442
 20
157.322843
 30
0.0
 40
10.08023865472223
100
AcDbArc
 50
85.423677
 51
99.283539
  0
ARC
  5
3A4
330
1F
100
AcDbEntity
  8
1
370
    13
100
AcDbCircle
 10
258.31072
 20
212.77562
 30
0.0
 40
74.67685255285566
100
AcDbArc
 50
219.285558
 51
224.096178
  0
ARC
  5
3A5
330
1F
100
AcDbEntity
  8
1
370
    13
100
AcDbCircle
 10
200.483927
 20
145.96357
 30
0.0
 40
0.3851172702592754
100
AcDbArc
 50
213.648111
 51
274.008464
  0
ARC
  5
3A6
330
1F
100
AcDbEntity
  8
1
370
    13
100
AcDbCircle
 10
200.842707
 20
145.746938
 30
0.0
 40
0.6793812104882029
100
AcDbArc
 50
129.433303
 51
179.726542
  0
ARC
  5
3A7
330
1F
100
AcDbEntity
  8
1
370
    13
100
AcDbCircle
 10
204.180165
 20
142.566155
 30
0.0
 40
5.28545956098083
100
AcDbArc
 50
111.250599
 51
135.486549
  0
ARC
  5
3A8
330
1F
100
AcDbEntity
  8
1
370
    13
100
AcDbCircle
 10
204.317797
 20
142.529637
 30
0.0
 40
5.370611626064187
100
AcDbArc
 50
88.60319
 51
112.477958
  0
ARC
  5
3A9
330
1F
100
AcDbEntity
  8
1
370
    13
100
AcDbCircle
 10
205.569684
 20
188.351626
 30
0.0
 40
9.26442000349864
100
AcDbArc
 50
234.683709
 51
236.062572
  0
ARC
  5
3AA
330
1F
100
AcDbEntity
  8
1
370
    13
100
AcDbCircle
 10
204.859642
 20
187.405256
 30
0.0
 40
8.081684002070647
100
AcDbArc
 50
235.947664
 51
241.28904
  0
ARC
  5
3AB
330
1F
100
AcDbEntity
  8
1
370
    13
100
AcDbCircle
 10
204.807666
 20
187.307775
 30
0.0
 40
7.971218732977284
100
AcDbArc
 50
241.280106
 51
247.31309
  0
ARC
  5
3AC
330
1F
100
AcDbEntity
  8
1
370
    13
100
AcDbCircle
 10
204.632091
 20
186.828313
 30
0.0
 40
7.461171586775161
100
AcDbArc
 50
247.136956
 51
268.591666
  0
ARC
  5
3AD
330
1F
100
AcDbEntity
  8
1
370
    13
100
AcDbCircle
 10
208.76625
 20
193.427248
 30
0.0
 40
15.26227594674353
100
AcDbArc
 50
237.254907
 51
246.929217
  0
ARC
  5
3AE
330
1F
100
AcDbEntity
  8
1
370
    13
100
AcDbCircle
 10
224.620683
 20
164.563277
 30
0.0
 40
14.09033949268607
100
AcDbArc
 50
91.666763
 51
93.645975
  0
ARC
  5
3AF
330
1F
100
AcDbEntity
  8
1
370
    13
100
AcDbCircle
 10
224.720986
 20
162.874004
 30
0.0
 40
15.78257310806679
100
AcDbArc
 50
93.619388
 51
96.056684
  0
ARC
  5
3B0
330
1F
100
AcDbEntity
  8
1
370
    13
100
AcDbCircle
 10
210.394364
 20
191.202267
 30
0.0
 40
24.22099089422531
100
AcDbArc
 50
269.557864
 51
275.975757
  0
ARC
  5
3B1
330
1F
100
AcDbEntity
  8
1
370
    13
100
AcDbCircle
 10
218.188093
 20
181.518308
 30
0.0
 40
3.997724547053723
100
AcDbArc
 50
286.850234
 51
306.467573
  0
ARC
  5
3B2
330
1F
100
AcDbEntity
  8
1
370
    13
100
AcDbCircle
 10
218.188832
 20
181.48942
 30
0.0
 40
3.969870738110313
100
AcDbArc
 50
269.700278
 51
286.96088
  0
ARC
  5
3B3
330
1F
100
AcDbEntity
  8
1
370
    13
100
AcDbCircle
 10
218.174222
 20
180.821409
 30
0.0
 40
3.301810431617854
100
AcDbArc
 50
249.357422
 51
269.893164
  0
ARC
  5
3B4
330
1F
100
AcDbEntity
  8
1
370
    13
100
AcDbCircle
 10
215.38737
 20
161.584609
 30
0.0
 40
0.3556948850429613
100
AcDbArc
 50
350.015983
 51
48.145992
  0
ARC
  5
3B5
330
1F
100
AcDbEntity
  8
1
370
    13
100
AcDbCircle
 10
215.134995
 20
161.799692
 30
0.0
 40
0.6631881331452028
100
AcDbArc
 50
285.705755
 51
335.33553
  0
ARC
  5
3B6
330
1F
100
AcDbEntity
  8
1
370
    13
100
AcDbCircle
 10
213.797214
 20
165.329055
 30
0.0
 40
4.435390864219663
100
AcDbArc
 50
265.396252
 51
290.00427
  0
ARC
  5
3B7
330
1F
100
AcDbEntity
  8
1
370
    13
100
AcDbCircle
 10
213.598433
 20
166.409299
 30
0.0
 40
5.503570856340412
100
AcDbArc
 50
247.975625
 51
268.362996
  0
ARC
  5
3B8
330
1F
100
AcDbEntity
  8
1
370
    13
100
AcDbCircle
 10
212.385308
 20
163.607582
 30
0.0
 40
2.452502046457924
100
AcDbArc
 50
219.580068
 51
249.70351
  0
ARC
  5
3B9
330
1F
100
AcDbEntity
  8
1
370
    13
100
AcDbCircle
 10
210.936458
 20
162.413485
 30
0.0
 40
0.5750040649483462
100
AcDbArc
 50
165.154733
 51
219.860215
  0
ARC
  5
3BA
330
1F
100
AcDbEntity
  8
1
370
    13
100
AcDbCircle
 10
225.487899
 20
182.32404
 30
0.0
 40
1.710281383409389
100
AcDbArc
 50
98.795172
 51
115.98798
  0
ARC
  5
3BB
330
1F
100
AcDbEntity
  8
1
370
    13
100
AcDbCircle
 10
217.888004
 20
183.645297
 30
0.0
 40
1.299294318674165
100
AcDbArc
 50
194.812436
 51
204.754428
  0
ARC
  5
3BC
330
1F
100
AcDbEntity
  8
1
370
    13
100
AcDbCircle
 10
225.461926
 20
182.548542
 30
0.0
 40
1.948503493475491
100
AcDbArc
 50
100.063274
 51
115.194218
  0
ARC
  5
3BD
330
1F
100
AcDbEntity
  8
1
370
    13
100
AcDbCircle
 10
218.18235
 20
184.374557
 30
0.0
 40
2.569553555684886
100
AcDbArc
 50
211.448871
 51
215.528371
  0
ARC
  5
3BE
330
1F
100
AcDbEntity
  8
1
370
    13
100
AcDbCircle
 10
228.347786
 20
190.837248
 30
0.0
 40
14.61508086502097
100
AcDbArc
 50
210.455568
 51
212.270879
  0
ARC
  5
3BF
330
1F
100
AcDbEntity
  8
1
370
    13
100
AcDbCircle
 10
218.638425
 20
184.001222
 30
0.0
 40
2.588332951375404
100
AcDbArc
 50
189.744453
 51
202.870254
  0
ARC
  5
3C0
330
1F
100
AcDbEntity
  8
1
370
    13
100
AcDbCircle
 10
244.495258
 20
187.149471
 30
0.0
 40
30.89973418609354
100
AcDbArc
 50
191.099042
 51
192.809053
  0
ARC
  5
3C1
330
1F
100
AcDbEntity
  8
1
370
    13
100
AcDbCircle
 10
-91427.041231
 20
-19881.946239
 30
0.0
 40
93811.73126150625
100
AcDbArc
 50
12.347086
 51
12.348447
  0
ARC
  5
3C2
330
1F
100
AcDbEntity
  8
1
370
    13
100
AcDbCircle
 10
224.19375
 20
165.39133
 30
0.0
 40
1.641554088207295
100
AcDbArc
 50
74.433463
 51
99.513958
  0
ARC
  5
3C3
330
1F
100
AcDbEntity
  8
1
370
    13
100
AcDbCircle
 10
228.393661
 20
166.123677
 30
0.0
 40
2.866039048482687
100
AcDbArc
 50
207.326181
 51
225.863928
  0
ARC
  5
3C4
330
1F
100
AcDbEntity
  8
1
370
    13
100
AcDbCircle
 10
305.695212
 20
209.426016
 30
0.0
 40
91.46820055288403
100
AcDbArc
 50
207.75491
 51
209.195956
  0
ARC
  5
3C5
330
1F
100
AcDbEntity
  8
1
370
    13
100
AcDbCircle
 10
217.939882
 20
165.02788
 30
0.0
 40
0.7642588795423056
100
AcDbArc
 50
76.040577
 51
92.152935
  0
ARC
  5
3C6
330
1F
100
AcDbEntity
  8
1
370
    13
100
AcDbCircle
 10
226.255497
 20
322.642417
 30
0.0
 40
155.7753203907736
100
AcDbArc
 50
266.44618
 51
268.545329
  0
ARC
  5
3C7
330
1F
100
AcDbEntity
  8
1
370
    13
100
AcDbCircle
 10
224.34595
 20
146.82225
 30
0.0
 40
1.177519492560134
100
AcDbArc
 50
282.157823
 51
326.223452
  0
ARC
  5
3C8
330
1F
100
AcDbEntity
  8
1
370
    13
100
AcDbCircle
 10
287.069462
 20
131.034646
 30
0.0
 40
62.74646083277128
100
AcDbArc
 50
168.63903
 51
169.228699
  0
ARC
  5
3C9
330
1F
100
AcDbEntity
  8
1
370
    13
100
AcDbCircle
 10
254.314516
 20
137.659783
 30
0.0
 40
29.32827811072879
100
AcDbArc
 50
167.054016
 51
168.722916
  0
ARC
  5
3CA
330
1F
100
AcDbEntity
  8
1
370
    13
100
AcDbCircle
 10
225.538549
 20
142.746362
 30
0.0
 40
0.1223989900669927
100
AcDbArc
 50
211.602942
 51
317.298432
  0
ARC
  5
3CB
330
1F
100
AcDbEntity
  8
1
370
    13
100
AcDbCircle
 10
225.173181
 20
142.826185
 30
0.0
 40
1.206842587751288
100
AcDbArc
 50
282.720381
 51
325.661557
  0
ARC
  5
3CC
330
1F
100
AcDbEntity
  8
1
370
    13
100
AcDbCircle
 10
226.979681
 20
143.206579
 30
0.0
 40
2.28501488115193
100
AcDbArc
 50
200.673289
 51
219.43944
  0
ARC
  5
3CD
330
1F
100
AcDbEntity
  8
1
370
    13
100
AcDbCircle
 10
225.423269
 20
141.90542
 30
0.0
 40
0.2569340331289959
100
AcDbArc
 50
215.835428
 51
273.492177
  0
ARC
  5
3CE
330
1F
100
AcDbEntity
  8
1
370
    13
100
AcDbCircle
 10
224.940741
 20
142.584402
 30
0.0
 40
0.1167522625205913
100
AcDbArc
 50
303.718292
 51
29.767866
  0
ARC
  5
3CF
330
1F
100
AcDbEntity
  8
1
370
    13
100
AcDbCircle
 10
216.291277
 20
143.729085
 30
0.0
 40
1.742408944436729
100
AcDbArc
 50
101.206791
 51
124.254204
  0
ARC
  5
3D0
330
1F
100
AcDbEntity
  8
1
370
    13
100
AcDbCircle
 10
215.12088
 20
144.754377
 30
0.0
 40
0.2467748075803898
100
AcDbArc
 50
168.765339
 51
230.16088
  0
ARC
  5
3D1
330
1F
100
AcDbEntity
  8
1
370
    13
100
AcDbCircle
 10
215.547247
 20
144.718282
 30
0.0
 40
1.358221489484636
100
AcDbArc
 50
210.41299
 51
250.364955
  0
ARC
  5
3D2
330
1F
100
AcDbEntity
  8
1
370
    13
100
AcDbCircle
 10
217.23102
 20
148.600858
 30
0.0
 40
1.389450672615076
100
AcDbArc
 50
210.880033
 51
249.897242
  0
ARC
  5
3D3
330
1F
100
AcDbEntity
  8
1
370
    13
100
AcDbCircle
 10
220.420931
 20
143.364515
 30
0.0
 40
6.139690916720564
100
AcDbArc
 50
162.813636
 51
170.241985
  0
ARC
  5
3D4
330
1F
100
AcDbEntity
  8
1
370
    13
100
AcDbCircle
 10
215.179939
 20
144.230524
 30
0.0
 40
0.8284772498882789
100
AcDbArc
 50
167.834479
 51
193.956338
  0
ARC
  5
3D5
330
1F
100
AcDbEntity
  8
1
370
    13
100
AcDbCircle
 10
229.470471
 20
167.815457
 30
0.0
 40
4.155848780392311
100
AcDbArc
 50
157.611852
 51
166.55426
  0
ARC
  5
3D6
330
1F
100
AcDbEntity
  8
1
370
    13
100
AcDbCircle
 10
226.084351
 20
169.226014
 30
0.0
 40
0.4879231279896937
100
AcDbArc
 50
136.280638
 51
159.318839
  0
ARC
  5
3D7
330
1F
100
AcDbEntity
  8
1
370
    13
100
AcDbCircle
 10
225.713435
 20
168.852636
 30
0.0
 40
0.3129916127080444
100
AcDbArc
 50
206.896563
 51
254.254317
  0
ARC
  5
3D8
330
1F
100
AcDbEntity
  8
1
370
    13
100
AcDbCircle
 10
228.691154
 20
170.202938
 30
0.0
 40
4.114918782744425
100
AcDbArc
 50
200.696997
 51
211.259418
  0
ARC
  5
3D9
330
1F
100
AcDbEntity
  8
1
370
    13
100
AcDbCircle
 10
225.716861
 20
168.362966
 30
0.0
 40
0.6183293690985107
100
AcDbArc
 50
208.528971
 51
243.288152
  0
ARC
  5
3DA
330
1F
100
AcDbEntity
  8
1
370
    13
100
AcDbCircle
 10
217.129311
 20
168.091131
 30
0.0
 40
2.312911050006772
100
AcDbArc
 50
120.579977
 51
141.846426
  0
ARC
  5
3DB
330
1F
100
AcDbEntity
  8
1
370
    13
100
AcDbCircle
 10
225.038182
 20
167.244114
 30
0.0
 40
0.4608003701745645
100
AcDbArc
 50
219.086186
 51
280.411061
  0
ARC
  5
3DC
330
1F
100
AcDbEntity
  8
1
370
    13
100
AcDbCircle
 10
215.671893
 20
167.930347
 30
0.0
 40
1.316639383565444
100
AcDbArc
 50
147.994581
 51
179.323196
  0
ARC
  5
3DD
330
1F
100
AcDbEntity
  8
1
370
    13
100
AcDbCircle
 10
225.143126
 20
167.059721
 30
0.0
 40
0.4552854616778926
100
AcDbArc
 50
212.635796
 51
280.538109
  0
ARC
  5
3DE
330
1F
100
AcDbEntity
  8
NOCUT
370
    13
100
AcDbCircle
 10
225.949507
 20
177.44768
 30
0.0
 40
0.8
100
AcDbArc
 50
317.0
 51
12.0
  0
ARC
  5
3DF
330
1F
100
AcDbEntity
  8
NOCUT
370
    13
100
AcDbCircle
 10
222.70627
 20
182.124498
 30
0.0
 40
3.0
100
AcDbArc
 50
12.0
 51
24.0
  0
ARC
  5
3E0
330
1F
100
AcDbEntity
  8
NOCUT
370
    13
100
AcDbCircle
 10
207.915954
 20
189.431656
 30
0.0
 40
10.0
100
AcDbArc
 50
270.0
 51
300.0
  0
ARC
  5
3E1
330
1F
100
AcDbEntity
  8
1
370
    50
100
AcDbCircle
 10
195.448475
 20
138.431656
 30
0.0
 40
1.0
100
AcDbArc
 50
270.0
 51
320.0
  0
ARC
  5
3E2
330
1F
100
AcDbEntity
  8
1
370
    50
100
AcDbCircle
 10
195.448475
 20
184.431656
 30
0.0
 40
1.0
100
AcDbArc
 50
40.0
 51
90.0
  0
ARC
  5
3E3
330
1F
100
AcDbEntity
  8
1
370
    50
100
AcDbCircle
 10
204.679841
 20
135.431656
 30
0.0
 40
8.0
100
AcDbArc
 50
90.0
 51
140.0
  0
ARC
  5
3E4
330
1F
100
AcDbEntity
  8
1
370
    50
100
AcDbCircle
 10
207.915954
 20
133.431656
 30
0.0
 40
10.0
100
AcDbArc
 50
60.0
 51
90.0
  0
ARC
  5
3E5
330
1F
100
AcDbEntity
  8
1
370
    50
100
AcDbCircle
 10
204.679841
 20
187.431656
 30
0.0
 40
8.0
100
AcDbArc
 50
220.0
 51
235.563721
  0
ARC
  5
3E6
330
1F
100
AcDbEntity
  8
1
370
    50
100
AcDbCircle
 10
165.736813
 20
161.431656
 30
0.0
 40
23.99999999533878
100
AcDbArc
 50
15.03916
 51
19.105872
  0
ARC
  5
3E7
330
1F
100
AcDbEntity
  8
SK3
370
    18
100
AcDbCircle
 10
208.764782
 20
171.567785
 30
0.0
 40
0.4
100
AcDbArc
 50
0.0
 51
40.0
  0
ARC
  5
3E8
330
1F
100
AcDbEntity
  8
SK3
370
    18
100
AcDbCircle
 10
208.764782
 20
151.295527
 30
0.0
 40
0.4
100
AcDbArc
 50
320.0
 51
0.0
  0
ARC
  5
3E9
330
1F
100
AcDbEntity
  8
SK3
370
    18
100
AcDbCircle
 10
206.952911
 20
149.136222
 30
0.0
 40
0.4
100
AcDbArc
 50
240.0
 51
320.0
  0
ARC
  5
3EA
330
1F
100
AcDbEntity
  8
SK3
370
    18
100
AcDbCircle
 10
206.952911
 20
173.72709
 30
0.0
 40
0.4
100
AcDbArc
 50
40.0
 51
120.0
  0
ARC
  5
3EB
330
1F
100
AcDbEntity
  8
SK3
370
    18
100
AcDbCircle
 10
214.064782
 20
170.081656
 30
0.0
 40
0.4
100
AcDbArc
 50
90.0
 51
180.0
  0
ARC
  5
3EC
330
1F
100
AcDbEntity
  8
SK3
370
    18
100
AcDbCircle
 10
214.064782
 20
152.781656
 30
0.0
 40
0.4
100
AcDbArc
 50
180.0
 51
270.0
  0
ARC
  5
3ED
330
1F
100
AcDbEntity
  8
NOCUT
370
    13
100
AcDbCircle
 10
204.679841
 20
187.431656
 30
0.0
 40
8.0
100
AcDbArc
 50
220.0
 51
270.0
  0
ARC
  5
3EE
330
1F
100
AcDbEntity
  8
NOCUT
370
    13
100
AcDbCircle
 10
208.764782
 20
171.567785
 30
0.0
 40
0.4
100
AcDbArc
 50
0.0
 51
40.0
  0
ARC
  5
3EF
330
1F
100
AcDbEntity
  8
NOCUT
370
    13
100
AcDbCircle
 10
214.064782
 20
170.081656
 30
0.0
 40
0.4
100
AcDbArc
 50
90.0
 51
180.0
  0
ARC
  5
3F0
330
1F
100
AcDbEntity
  8
NOCUT
370
    13
100
AcDbCircle
 10
195.448475
 20
184.431656
 30
0.0
 40
1.0
100
AcDbArc
 50
40.0
 51
90.0
  0
ARC
  5
3F1
330
1F
100
AcDbEntity
  8
NOCUT
370
    13
100
AcDbCircle
 10
227.164782
 20
175.231832
 30
0.0
 40
1.6
100
AcDbArc
 50
137.0
 51
180.0
  0
ARC
  5
3F2
330
1F
100
AcDbEntity
  8
NOCUT
370
    13
100
AcDbCircle
 10
221.010211
 20
176.207019
 30
0.0
 40
8.0
100
AcDbArc
 50
102.0
 51
120.0
  0
ARC
  5
3F3
330
1F
100
AcDbEntity
  8
NOCUT
370
    13
100
AcDbCircle
 10
224.100016
 20
171.481656
 30
0.0
 40
1.0
100
AcDbArc
 50
270.0
 51
335.0
  0
ARC
  5
3F4
330
1F
100
AcDbEntity
  8
NOCUT
370
    13
100
AcDbCircle
 10
223.471553
 20
182.864237
 30
0.0
 40
2.0
100
AcDbArc
 50
24.0
 51
102.0
  0
ARC
  5
3F5
330
1F
100
AcDbEntity
  8
NOCUT
370
    13
100
AcDbCircle
 10
206.952911
 20
173.72709
 30
0.0
 40
0.4
100
AcDbArc
 50
40.0
 51
120.0
  0
ARC
  5
3F6
330
1F
100
AcDbEntity
  8
1
370
    50
100
AcDbCircle
 10
193.489782
 20
165.859156
 30
0.0
 40
0.8
100
AcDbArc
 50
0.0
 51
90.0
  0
ARC
  5
3F7
330
1F
100
AcDbEntity
  8
1
370
    50
100
AcDbCircle
 10
193.489782
 20
157.004156
 30
0.0
 40
0.8
100
AcDbArc
 50
270.0
 51
360.0
  0
ARC
  5
3F8
330
1F
100
AcDbEntity
  8
1
370
    50
100
AcDbCircle
 10
221.51313
 20
172.644627
 30
0.0
 40
6.999999999999999
100
AcDbArc
 50
251.709326
 51
277.734091
  0
ARC
  5
3F9
102
{ACAD_REACTORS
330
4C0
102
}
330
1F
100
AcDbEntity
  8
2
370
    13
100
AcDbCircle
 10
227.914782
 20
177.529133
 30
0.0
 40
24.1821988354673
100
AcDbArc
 50
72.768959
 51
101.94562
  0
ARC
  5
3FA
102
{ACAD_REACTORS
330
4C0
102
}
330
1F
100
AcDbEntity
  8
2
370
    13
100
AcDbCircle
 10
227.914782
 20
177.529133
 30
0.0
 40
24.1821988354673
100
AcDbArc
 50
101.94562
 51
116.630063
  0
LINE
  5
3FB
102
{ACAD_REACTORS
330
40C
102
}
330
1F
100
AcDbEntity
  8
4
370
    13
100
AcDbLine
 10
207.914782
 20
161.431656
 30
0.0
 11
231.749507
 21
161.431656
 31
0.0
  0
LINE
  5
3FC
330
1F
100
AcDbEntity
  8
SK4
370
    13
100
AcDbLine
 10
182.914782
 20
161.431656
 30
0.0
 11
207.749507
 21
161.431656
 31
0.0
  0
MTEXT
  5
3FD
102
{ACAD_REACTORS
330
4C0
102
}
330
1F
100
AcDbEntity
  8
2
370
    18
100
AcDbMText
 10
216.91349
 20
200.084785
 30
0.0
 40
3.0
 41
0.0
 71
     7
 72
     5
  1
\W0.8285;12%%d
  7
iso_b_vert
 11
0.9333781934318021
 21
0.3588943410336606
 31
0.0
 73
     2
 44
0.987952
  0
LINE
  5
400
102
{ACAD_REACTORS
330
403
102
}
330
1F
100
AcDbEntity
  8
2
 60
     1
370
    13
100
AcDbLine
 10
222.909473
 20
201.187654
 30
0.0
 11
219.926308
 21
200.023152
 31
0.0
  0
LINE
  5
401
102
{ACAD_REACTORS
330
403
102
}
330
1F
100
AcDbEntity
  8
2
 60
     1
370
    13
100
AcDbLine
 10
219.926308
 20
200.023152
 30
0.0
 11
219.726559
 21
200.834931
 31
0.0
  0
LINE
  5
402
102
{ACAD_REACTORS
330
403
102
}
330
1F
100
AcDbEntity
  8
2
 60
     1
370
    13
100
AcDbLine
 10
219.726559
 20
200.834931
 30
0.0
 11
222.909473
 21
201.187654
 31
0.0
  0
HATCH
  5
403
102
{ACAD_REACTORS
330
4C0
102
}
330
1F
100
AcDbEntity
  8
2
370
    13
100
AcDbHatch
 10
0.0
 20
0.0
 30
0.0
210
0.0
220
0.0
230
1.0
  2
ANSI31
 70
     0
 71
     1
 91
        1
 92
        0
 93
        3
 72
     1
 10
222.9094726931109
 20
201.1876544720426
 11
219.9263081736924
 21
200.0231520354933
 72
     1
 10
219.9263081736924
 20
200.0231520354933
 11
219.7265586051083
 21
200.8349309507649
 72
     1
 10
219.7265586051083
 20
200.8349309507649
 11
222.9094726931109
 21
201.1876544720426
 97
        3
330
400
330
401
330
402
 75
     0
 76
     1
 52
0.0
 41
0.0062
 77
     0
 78
     1
 53
44.99999999999996
 43
0.0
 44
0.0
 45
-0.0139193969876572
 46
0.0139193969876572
 79
     0
 98
        0
  0
LINE
  5
404
102
{ACAD_REACTORS
330
407
102
}
330
1F
100
AcDbEntity
  8
2
 60
     1
370
    13
100
AcDbLine
 10
227.914782
 20
201.711332
 30
0.0
 11
231.101774
 21
202.025057
 31
0.0
  0
LINE
  5
405
102
{ACAD_REACTORS
330
407
102
}
330
1F
100
AcDbEntity
  8
2
 60
     1
370
    13
100
AcDbLine
 10
231.101774
 20
202.025057
 30
0.0
 11
231.07438
 21
201.189513
 31
0.0
  0
LINE
  5
406
102
{ACAD_REACTORS
330
407
102
}
330
1F
100
AcDbEntity
  8
2
 60
     1
370
    13
100
AcDbLine
 10
231.07438
 20
201.189513
 30
0.0
 11
227.914782
 21
201.711332
 31
0.0
  0
HATCH
  5
407
102
{ACAD_REACTORS
330
4C0
102
}
330
1F
100
AcDbEntity
  8
2
370
    13
100
AcDbHatch
 10
0.0
 20
0.0
 30
0.0
210
0.0
220
0.0
230
1.0
  2
ANSI31
 70
     0
 71
     1
 91
        1
 92
        0
 93
        3
 72
     1
 10
227.914782336456
 20
201.7113323078297
 11
231.1017735831921
 21
202.0250571361013
 72
     1
 10
231.1017735831921
 20
202.0250571361013
 11
231.0743804541287
 21
201.1895126944891
 72
     1
 10
231.0743804541287
 20
201.1895126944891
 11
227.914782336456
 21
201.7113323078297
 97
        3
330
404
330
405
330
406
 75
     0
 76
     1
 52
0.0
 41
0.0062
 77
     0
 78
     1
 53
44.99999999999995
 43
0.0
 44
0.0
 45
-0.0139193969876572
 46
0.0139193969876572
 79
     0
 98
        0
  0
MTEXT
  5
408
330
1F
100
AcDbEntity
  8
SK6
370
    18
100
AcDbMText
 10
190.228445
 20
113.183271
 30
0.0
 40
3.0
 41
0.0
 71
     7
 72
     5
  1
\W0.7781;50A05R-SMOSO12-C
  7
iso_b_vert
 73
     2
 44
1.084337
  0
DIMENSION
  5
40A
102
{ACAD_REACTORS
330
40C
102
}
102
{ACAD_XDICTIONARY
360
40B
102
}
330
1F
100
AcDbEntity
  8
2
370
    18
100
AcDbDimension
  2
_U0
 10
241.914871
 20
186.406656
 30
0.0
 11
241.914871
 21
151.328084
 31
0.0
 70
   160
  1
\C254;\H2.25;%%c\H3.00;\C254;50
 71
     1
 42
49.95
 52
90.0
  3
Standard
100
AcDbAlignedDimension
 13
226.749507
 23
161.431656
 33
0.0
 14
227.914782
 24
186.406656
 34
0.0
 50
90.0
100
AcDbRotatedDimension
1001
ACAD
1000
DSTYLE
1002
{
1070
   371
1070
    13
1070
   372
1070
    13
1070
     3
1000

1070
   170
1070
     0
1070
   277
1070
     2
1070
   284
1070
     8
1070
   278
1070
    44
1070
   146
1040
1.0
1070
   345
1005
16
1070
   347
1005
16
1070
   346
1005
16
1070
   344
1005
0
1070
   343
1005
0
1070
   172
1070
     1
1070
    75
1070
     1
1070
   282
1070
     0
1070
    71
1070
     0
1070
   144
1040
2.0
1070
    74
1070
     0
1070
   279
1070
     0
1070
   173
1070
     1
1070
   340
1005
3FE
1070
   271
1070
     1
1070
   272
1070
     3
1070
    77
1070
     1
1070
    73
1070
     0
1070
   171
1070
     3
1070
   274
1070
     4
1070
   281
1070
     1
1070
   177
1070
   254
1070
   176
1070
   254
1070
   178
1070
   254
1070
    78
1070
     8
1070
    48
1040
-0.1
1070
    41
1040
3.175
1070
   147
1040
1.5
1070
    42
1040
0.0
1070
    44
1040
2.0
1070
   140
1040
3.0
1002
}
1001
ACAD_DSTYLE_DIM_LINETYPE
1070
   380
1005
16
1001
ACAD_DSTYLE_DIM_EXT1_LINETYPE
1070
   381
1005
16
1001
ACAD_DSTYLE_DIM_EXT2_LINETYPE
1070
   382
1005
16
  0
DIMENSION
  5
421
102
{ACAD_REACTORS
330
423
102
}
102
{ACAD_XDICTIONARY
360
422
102
}
330
1F
100
AcDbEntity
  8
SK2
370
    18
100
AcDbDimension
  2
_U1
 10
163.143674
 20
137.431656
 30
0.0
 11
163.143674
 21
161.431656
 31
0.0
 70
   160
 71
     1
 42
48.0
 52
90.0
  3
Standard
100
AcDbAlignedDimension
 13
188.414782
 23
185.431656
 33
0.0
 14
188.414782
 24
137.431656
 34
0.0
 50
-90.0
100
AcDbRotatedDimension
1001
ACAD
1000
DSTYLE
1002
{
1070
   371
1070
    13
1070
   372
1070
    13
1070
     3
1000
\C95;\H2.25;%%c\H3.00;<>
1070
   170
1070
     0
1070
   144
1040
1.0
1070
   277
1070
     2
1070
   284
1070
     8
1070
   278
1070
    44
1070
   146
1040
1.0
1070
   345
1005
16
1070
   347
1005
16
1070
   346
1005
16
1070
   344
1005
0
1070
   343
1005
0
1070
   172
1070
     1
1070
    76
1070
     0
1070
    75
1070
     0
1070
   282
1070
     0
1070
   281
1070
     0
1070
    71
1070
     0
1070
    74
1070
     0
1070
   279
1070
     0
1070
   173
1070
     1
1070
   340
1005
3FE
1070
   271
1070
     3
1070
   272
1070
     3
1070
    77
1070
     1
1070
    73
1070
     0
1070
   171
1070
     3
1070
   274
1070
     4
1070
   177
1070
    95
1070
   176
1070
    95
1070
   178
1070
    95
1070
    78
1070
     8
1070
    48
1040
-0.1
1070
    41
1040
3.175
1070
   147
1040
1.5
1070
    42
1040
0.0
1070
    44
1040
2.0
1070
   140
1040
3.0
1002
}
1001
ACAD_DSTYLE_DIM_LINETYPE
1070
   380
1005
16
1001
ACAD_DSTYLE_DIM_EXT1_LINETYPE
1070
   381
1005
16
1001
ACAD_DSTYLE_DIM_EXT2_LINETYPE
1070
   382
1005
16
  0
DIMENSION
  5
43A
102
{ACAD_REACTORS
330
43C
102
}
102
{ACAD_XDICTIONARY
360
43B
102
}
330
1F
100
AcDbEntity
  8
SK2
370
    18
100
AcDbDimension
  2
_U2
 10
170.9179
 20
150.428406
 30
0.0
 11
170.9179
 21
161.431656
 31
0.0
 70
   160
 71
     1
 42
22.0065
 52
90.0
  3
Standard
100
AcDbAlignedDimension
 13
195.62064
 23
172.434906
 33
0.0
 14
195.62064
 24
150.428406
 34
0.0
 50
-90.0
100
AcDbRotatedDimension
1001
ACAD
1000
DSTYLE
1002
{
1070
   371
1070
    13
1070
   372
1070
    13
1070
     3
1000
\C95;\H2.25;%%c\H3.00;<>
1070
   170
1070
     0
1070
   144
1040
1.0
1070
   277
1070
     2
1070
   284
1070
     8
1070
   278
1070
    44
1070
   146
1040
1.0
1070
   345
1005
16
1070
   347
1005
16
1070
   346
1005
16
1070
   344
1005
0
1070
   343
1005
0
1070
   172
1070
     1
1070
    76
1070
     0
1070
    75
1070
     0
1070
   282
1070
     0
1070
   281
1070
     0
1070
    71
1070
     0
1070
    74
1070
     0
1070
   279
1070
     0
1070
   173
1070
     1
1070
   340
1005
3FE
1070
   271
1070
     1
1070
   272
1070
     3
1070
    77
1070
     1
1070
    73
1070
     0
1070
   171
1070
     3
1070
   274
1070
     4
1070
   177
1070
    95
1070
   176
1070
    95
1070
   178
1070
    95
1070
    78
1070
     8
1070
    48
1040
-0.1
1070
    41
1040
3.175
1070
   147
1040
1.5
1070
    42
1040
0.0
1070
    44
1040
2.0
1070
   140
1040
3.0
1002
}
1001
ACAD_DSTYLE_DIM_LINETYPE
1070
   380
1005
16
1001
ACAD_DSTYLE_DIM_EXT1_LINETYPE
1070
   381
1005
16
1001
ACAD_DSTYLE_DIM_EXT2_LINETYPE
1070
   382
1005
16
  0
DIMENSION
  5
453
102
{ACAD_REACTORS
330
455
102
}
102
{ACAD_XDICTIONARY
360
454
102
}
330
1F
100
AcDbEntity
  8
2
370
    18
100
AcDbDimension
  2
_U3
 10
226.028702
 20
194.540794
 30
0.0
 11
241.550497
 21
194.540794
 31
0.0
 70
   160
 71
     1
 42
1.886081
 52
90.0
  3
Standard
100
AcDbAlignedDimension
 13
227.914782
 23
186.406656
 33
0.0
 14
226.028702
 24
185.806163
 34
0.0
100
AcDbRotatedDimension
1001
ACAD
1000
DSTYLE
1002
{
1070
   371
1070
    13
1070
   372
1070
    13
1070
   170
1070
     0
1070
   144
1040
1.0
1070
   277
1070
     2
1070
   284
1070
     8
1070
   278
1070
    44
1070
   146
1040
1.0
1070
   345
1005
16
1070
   347
1005
16
1070
   346
1005
16
1070
   344
1005
0
1070
   343
1005
0
1070
   172
1070
     1
1070
    76
1070
     0
1070
    75
1070
     0
1070
   282
1070
     0
1070
   281
1070
     0
1070
    71
1070
     0
1070
    74
1070
     0
1070
   279
1070
     0
1070
   173
1070
     1
1070
   340
1005
3FE
1070
   271
1070
     1
1070
   272
1070
     3
1070
    77
1070
     1
1070
    73
1070
     1
1070
   171
1070
     3
1070
   274
1070
     4
1070
   177
1070
   254
1070
   176
1070
   254
1070
   178
1070
   254
1070
    78
1070
     8
1070
    48
1040
-0.1
1070
    41
1040
3.175
1070
   147
1040
1.5
1070
    42
1040
0.0
1070
    44
1040
2.0
1070
   140
1040
3.0
1002
}
1001
ACAD_DSTYLE_DIM_LINETYPE
1070
   380
1005
16
1001
ACAD_DSTYLE_DIM_EXT1_LINETYPE
1070
   381
1005
16
1001
ACAD_DSTYLE_DIM_EXT2_LINETYPE
1070
   382
1005
16
  0
DIMENSION
  5
46D
102
{ACAD_REACTORS
330
46F
102
}
102
{ACAD_XDICTIONARY
360
46E
102
}
330
1F
100
AcDbEntity
  8
2
370
    18
100
AcDbDimension
  2
_U4
 10
227.914782
 20
210.241681
 30
0.0
 11
207.914782
 21
210.241681
 31
0.0
 70
   160
 71
     1
 42
40.0
 52
90.0
  3
Standard
100
AcDbAlignedDimension
 13
187.914782
 23
184.931656
 33
0.0
 14
227.914782
 24
187.406656
 34
0.0
100
AcDbRotatedDimension
1001
ACAD
1000
DSTYLE
1002
{
1070
   371
1070
    13
1070
   372
1070
    13
1070
   170
1070
     0
1070
   144
1040
1.0
1070
   277
1070
     2
1070
   284
1070
     8
1070
   278
1070
    44
1070
   146
1040
1.0
1070
   345
1005
16
1070
   347
1005
16
1070
   346
1005
16
1070
   344
1005
0
1070
   343
1005
0
1070
   172
1070
     1
1070
    76
1070
     0
1070
    75
1070
     0
1070
   282
1070
     0
1070
   281
1070
     0
1070
    71
1070
     0
1070
    74
1070
     0
1070
   279
1070
     0
1070
   173
1070
     1
1070
   340
1005
3FE
1070
   271
1070
     3
1070
   272
1070
     3
1070
    77
1070
     1
1070
    73
1070
     1
1070
   171
1070
     3
1070
   274
1070
     4
1070
   177
1070
   254
1070
   176
1070
   254
1070
   178
1070
   254
1070
    78
1070
     8
1070
    48
1040
-0.1
1070
    41
1040
3.175
1070
   147
1040
1.5
1070
    42
1040
0.0
1070
    44
1040
2.0
1070
   140
1040
3.0
1002
}
1001
ACAD_DSTYLE_DIM_LINETYPE
1070
   380
1005
16
1001
ACAD_DSTYLE_DIM_EXT1_LINETYPE
1070
   381
1005
16
1001
ACAD_DSTYLE_DIM_EXT2_LINETYPE
1070
   382
1005
16
  0
DIMENSION
  5
485
102
{ACAD_REACTORS
330
487
102
}
102
{ACAD_XDICTIONARY
360
486
102
}
330
1F
100
AcDbEntity
  8
SK2
370
    18
100
AcDbDimension
  2
_U5
 10
194.289782
 20
125.536921
 30
0.0
 11
173.850497
 21
125.536921
 31
0.0
 70
   160
  1
\C95;6,3
 71
     1
 42
6.375
 52
90.0
  3
Standard
100
AcDbAlignedDimension
 13
187.914782
 23
137.931656
 33
0.0
 14
194.289782
 24
156.449881
 34
0.0
100
AcDbRotatedDimension
1001
ACAD
1000
DSTYLE
1002
{
1070
   371
1070
    13
1070
   372
1070
    13
1070
     3
1000

1070
   170
1070
     0
1070
   144
1040
1.0
1070
   277
1070
     2
1070
   284
1070
     8
1070
   278
1070
    44
1070
   146
1040
1.0
1070
   345
1005
16
1070
   347
1005
16
1070
   346
1005
16
1070
   344
1005
0
1070
   343
1005
0
1070
   172
1070
     1
1070
    76
1070
     0
1070
    75
1070
     0
1070
   282
1070
     0
1070
   281
1070
     0
1070
    71
1070
     0
1070
    74
1070
     0
1070
   279
1070
     0
1070
   173
1070
     1
1070
   340
1005
3FE
1070
   271
1070
     1
1070
   272
1070
     3
1070
    77
1070
     1
1070
    73
1070
     1
1070
   171
1070
     3
1070
   274
1070
     4
1070
   177
1070
    95
1070
   176
1070
    95
1070
   178
1070
    95
1070
    78
1070
     8
1070
    48
1040
-0.1
1070
    41
1040
3.175
1070
   147
1040
1.5
1070
    42
1040
0.0
1070
    44
1040
2.0
1070
   140
1040
3.0
1002
}
1001
ACAD_DSTYLE_DIM_LINETYPE
1070
   380
1005
16
1001
ACAD_DSTYLE_DIM_EXT1_LINETYPE
1070
   381
1005
16
1001
ACAD_DSTYLE_DIM_EXT2_LINETYPE
1070
   382
1005
16
1001
ACAD_DSTYLE_DIM_LINETYPE
1070
   385
1070
     0
1001
ACAD_DSTYLE_DIM_LINETYPE
1070
   386
1070
     3
  0
DIMENSION
  5
49F
102
{ACAD_REACTORS
330
4A1
102
}
102
{ACAD_XDICTIONARY
360
4A0
102
}
330
1F
100
AcDbEntity
  8
SK2
370
    18
100
AcDbDimension
  2
_U6
 10
180.429893
 20
156.204156
 30
0.0
 11
180.429893
 21
161.431656
 31
0.0
 70
   160
  1
\C95;10,4
 71
     1
 42
10.455
 52
90.0
  3
Standard
100
AcDbAlignedDimension
 13
188.914782
 23
166.659156
 33
0.0
 14
188.914782
 24
156.204156
 34
0.0
 50
90.0
100
AcDbRotatedDimension
1001
ACAD
1000
DSTYLE
1002
{
1070
   371
1070
    13
1070
   372
1070
    13
1070
     3
1000

1070
   170
1070
     0
1070
   144
1040
1.0
1070
   277
1070
     2
1070
   284
1070
     8
1070
   278
1070
    44
1070
   146
1040
1.0
1070
   345
1005
16
1070
   347
1005
16
1070
   346
1005
16
1070
   344
1005
0
1070
   343
1005
0
1070
   172
1070
     1
1070
    76
1070
     0
1070
    75
1070
     0
1070
   282
1070
     0
1070
   281
1070
     0
1070
    71
1070
     0
1070
    74
1070
     0
1070
   279
1070
     0
1070
   173
1070
     1
1070
   340
1005
3FE
1070
   271
1070
     3
1070
   272
1070
     3
1070
    77
1070
     1
1070
    73
1070
     0
1070
   171
1070
     3
1070
   274
1070
     4
1070
   177
1070
    95
1070
   176
1070
    95
1070
   178
1070
    95
1070
    78
1070
     8
1070
    48
1040
-0.1
1070
    41
1040
3.175
1070
   147
1040
1.5
1070
    42
1040
0.0
1070
    44
1040
2.0
1070
   140
1040
3.0
1002
}
1001
ACAD_DSTYLE_DIM_LINETYPE
1070
   380
1005
16
1001
ACAD_DSTYLE_DIM_EXT1_LINETYPE
1070
   381
1005
16
1001
ACAD_DSTYLE_DIM_EXT2_LINETYPE
1070
   382
1005
16
  0
ENDSEC
  0
SECTION
  2
OBJECTS
  0
DICTIONARY
  5
C
330
0
100
AcDbDictionary
281
     1
  3
ACAD_DETAILVIEWSTYLE
350
51A
  3
ACAD_GROUP
350
D
  3
ACAD_LAYOUT
350
1A
  3
ACAD_MATERIAL
350
43
  3
ACAD_MLEADERSTYLE
350
6B
  3
ACAD_MLINESTYLE
350
17
  3
ACAD_PLOTSETTINGS
350
19
  3
ACAD_PLOTSTYLENAME
350
E
  3
ACAD_SCALELIST
350
47
  3
ACAD_SECTIONVIEWSTYLE
350
51B
  3
ACAD_TABLESTYLE
350
69
  3
ACAD_VISUALSTYLE
350
2A
  3
ACDB_RECOMPOSE_DATA
350
517
  3
AcDbVariableDictionary
350
4D7
  0
DICTIONARY
  5
4D5
330
8
100
AcDbDictionary
280
     1
281
     1
  3
ACAD_XREC_ROUNDTRIP
360
4D6
  0
DICTIONARY
  5
40B
330
40A
100
AcDbDictionary
280
     1
281
     1
  3
ACAD_DIMASSOC
360
40C
  0
DICTIONARY
  5
422
330
421
100
AcDbDictionary
280
     1
281
     1
  3
ACAD_DIMASSOC
360
423
  0
DICTIONARY
  5
43B
330
43A
100
AcDbDictionary
280
     1
281
     1
  3
ACAD_DIMASSOC
360
43C
  0
DICTIONARY
  5
454
330
453
100
AcDbDictionary
280
     1
281
     1
  3
ACAD_DIMASSOC
360
455
  0
DICTIONARY
  5
46E
330
46D
100
AcDbDictionary
280
     1
281
     1
  3
ACAD_DIMASSOC
360
46F
  0
DICTIONARY
  5
486
330
485
100
AcDbDictionary
280
     1
281
     1
  3
ACAD_DIMASSOC
360
487
  0
DICTIONARY
  5
4A0
330
49F
100
AcDbDictionary
280
     1
281
     1
  3
ACAD_DIMASSOC
360
4A1
  0
DICTIONARY
  5
51A
102
{ACAD_REACTORS
330
C
102
}
330
C
100
AcDbDictionary
281
     1
  0
DICTIONARY
  5
D
102
{ACAD_REACTORS
330
C
102
}
330
C
100
AcDbDictionary
281
     1
  3
ANNOTATION
350
4C0
  0
DICTIONARY
  5
1A
102
{ACAD_REACTORS
330
C
102
}
330
C
100
AcDbDictionary
281
     1
  3
Layout1
350
1E
  3
Layout2
350
26
  3
Model
350
22
  0
DICTIONARY
  5
43
102
{ACAD_REACTORS
330
C
102
}
330
C
100
AcDbDictionary
281
     1
  3
ByBlock
350
45
  3
ByLayer
350
44
  3
Global
350
46
  0
DICTIONARY
  5
6B
102
{ACAD_REACTORS
330
C
102
}
330
C
100
AcDbDictionary
281
     1
  3
Standard
350
6C
  0
DICTIONARY
  5
17
102
{ACAD_REACTORS
330
C
102
}
330
C
100
AcDbDictionary
281
     1
  3
Standard
350
18
  0
DICTIONARY
  5
19
102
{ACAD_REACTORS
330
C
102
}
330
C
100
AcDbDictionary
281
     1
  0
ACDBDICTIONARYWDFLT
  5
E
102
{ACAD_REACTORS
330
C
102
}
330
C
100
AcDbDictionary
281
     1
  3
Normal
350
F
100
AcDbDictionaryWithDefault
340
F
  0
DICTIONARY
  5
47
102
{ACAD_REACTORS
330
C
102
}
330
C
100
AcDbDictionary
281
     1
  3
A0
350
48
  3
A1
350
49
  3
A2
350
4A
  3
A3
350
4B
  3
A4
350
4C
  3
A5
350
4D
  3
A6
350
4E
  3
A7
350
4F
  3
A8
350
50
  3
A9
350
51
  3
B0
350
52
  3
B1
350
53
  3
B2
350
54
  3
B3
350
55
  3
B4
350
56
  3
B5
350
57
  3
B6
350
58
  3
B7
350
59
  3
B8
350
5A
  3
B9
350
5B
  3
C0
350
5C
  3
C1
350
5D
  3
C2
350
5E
  3
C3
350
5F
  3
C4
350
60
  3
C5
350
61
  3
C6
350
62
  3
C7
350
63
  3
C8
350
64
  3
C9
350
65
  3
D0
350
66
  3
D1
350
67
  3
D2
350
68
  0
DICTIONARY
  5
51B
102
{ACAD_REACTORS
330
C
102
}
330
C
100
AcDbDictionary
281
     1
  0
DICTIONARY
  5
69
102
{ACAD_REACTORS
330
C
102
}
330
C
100
AcDbDictionary
281
     1
  3
Standard
350
6A
  0
DICTIONARY
  5
2A
102
{ACAD_REACTORS
330
C
102
}
330
C
100
AcDbDictionary
281
     1
  3
2dWireframe
350
2F
  3
Basic
350
32
  3
Brighten
350
36
  3
ColorChange
350
3A
  3
Conceptual
350
34
  3
Dim
350
35
  3
EdgeColorOff
350
3D
  3
Facepattern
350
39
  3
Flat
350
2B
  3
FlatWithEdges
350
2C
  3
Gouraud
350
2D
  3
GouraudWithEdges
350
2E
  3
Hidden
350
31
  3
JitterOff
350
3B
  3
Linepattern
350
38
  3
OverhangOff
350
3C
  3
Realistic
350
33
  3
Shaded
350
42
  3
Shaded with edges
350
41
  3
Shades of Gray
350
3E
  3
Sketchy
350
3F
  3
Thicken
350
37
  3
Wireframe
350
30
  3
X-Ray
350
40
  0
XRECORD
  5
517
102
{ACAD_REACTORS
330
C
102
}
330
C
100
AcDbXrecord
280
     1
 90
        1
330
6A
  0
DICTIONARY
  5
4D7
102
{ACAD_REACTORS
330
C
102
}
330
C
100
AcDbDictionary
281
     1
  3
CANNOSCALE
350
4D8
  3
CMLEADERSTYLE
350
519
  3
CTABLESTYLE
350
518
  3
MSLTSCALE
350
4D9
  3
XCLIPFRAME
350
4DA
  0
XRECORD
  5
4D6
102
{ACAD_REACTORS
330
4D5
102
}
330
4D5
100
AcDbXrecord
280
     1
102
VTR_0.000_0.000_1.000_1.000_VISUALSTYLE
340
2F
102
VTR_0.000_0.000_1.000_1.000_GRIDDISPLAY
 70
     3
102
VTR_0.000_0.000_1.000_1.000_GRIDMAJOR
 70
     5
102
VTR_0.000_0.000_1.000_1.000_DEFAULTLIGHTING
280
     1
102
VTR_0.000_0.000_1.000_1.000_DEFAULTLIGHTINGTYPE
 70
     1
102
VTR_0.000_0.000_1.000_1.000_BRIGHTNESS
141
0.0
102
VTR_0.000_0.000_1.000_1.000_CONTRAST
142
0.0
102
VTR_0.000_0.000_0.500_1.000_VISUALSTYLE
340
2F
102
VTR_0.000_0.000_0.500_1.000_GRIDDISPLAY
 70
     3
102
VTR_0.000_0.000_0.500_1.000_GRIDMAJOR
 70
     5
102
VTR_0.000_0.000_0.500_1.000_DEFAULTLIGHTING
280
     1
102
VTR_0.000_0.000_0.500_1.000_DEFAULTLIGHTINGTYPE
 70
     1
102
VTR_0.000_0.000_0.500_1.000_BRIGHTNESS
141
0.0
102
VTR_0.000_0.000_0.500_1.000_CONTRAST
142
0.0
102
VTR_0.500_0.000_1.000_1.000_VISUALSTYLE
340
2F
102
VTR_0.500_0.000_1.000_1.000_GRIDDISPLAY
 70
     3
102
VTR_0.500_0.000_1.000_1.000_GRIDMAJOR
 70
     5
102
VTR_0.500_0.000_1.000_1.000_DEFAULTLIGHTING
280
     1
102
VTR_0.500_0.000_1.000_1.000_DEFAULTLIGHTINGTYPE
 70
     1
102
VTR_0.500_0.000_1.000_1.000_BRIGHTNESS
141
0.0
102
VTR_0.500_0.000_1.000_1.000_CONTRAST
142
0.0
102
VTR_0.000_0.500_1.000_1.000_VISUALSTYLE
340
2F
102
VTR_0.000_0.500_1.000_1.000_GRIDDISPLAY
 70
     3
102
VTR_0.000_0.500_1.000_1.000_GRIDMAJOR
 70
     5
102
VTR_0.000_0.500_1.000_1.000_DEFAULTLIGHTING
280
     1
102
VTR_0.000_0.500_1.000_1.000_DEFAULTLIGHTINGTYPE
 70
     1
102
VTR_0.000_0.500_1.000_1.000_BRIGHTNESS
141
0.0
102
VTR_0.000_0.500_1.000_1.000_CONTRAST
142
0.0
102
VTR_0.000_0.000_1.000_0.500_VISUALSTYLE
340
2F
102
VTR_0.000_0.000_1.000_0.500_GRIDDISPLAY
 70
     3
102
VTR_0.000_0.000_1.000_0.500_GRIDMAJOR
 70
     5
102
VTR_0.000_0.000_1.000_0.500_DEFAULTLIGHTING
280
     1
102
VTR_0.000_0.000_1.000_0.500_DEFAULTLIGHTINGTYPE
 70
     1
102
VTR_0.000_0.000_1.000_0.500_BRIGHTNESS
141
0.0
102
VTR_0.000_0.000_1.000_0.500_CONTRAST
142
0.0
102
VTR_0.000_0.500_0.500_1.000_VISUALSTYLE
340
2F
102
VTR_0.000_0.500_0.500_1.000_GRIDDISPLAY
 70
     3
102
VTR_0.000_0.500_0.500_1.000_GRIDMAJOR
 70
     5
102
VTR_0.000_0.500_0.500_1.000_DEFAULTLIGHTING
280
     1
102
VTR_0.000_0.500_0.500_1.000_DEFAULTLIGHTINGTYPE
 70
     1
102
VTR_0.000_0.500_0.500_1.000_BRIGHTNESS
141
0.0
102
VTR_0.000_0.500_0.500_1.000_CONTRAST
142
0.0
102
VTR_0.000_0.000_0.500_0.500_VISUALSTYLE
340
2F
102
VTR_0.000_0.000_0.500_0.500_GRIDDISPLAY
 70
     3
102
VTR_0.000_0.000_0.500_0.500_GRIDMAJOR
 70
     5
102
VTR_0.000_0.000_0.500_0.500_DEFAULTLIGHTING
280
     1
102
VTR_0.000_0.000_0.500_0.500_DEFAULTLIGHTINGTYPE
 70
     1
102
VTR_0.000_0.000_0.500_0.500_BRIGHTNESS
141
0.0
102
VTR_0.000_0.000_0.500_0.500_CONTRAST
142
0.0
102
VTR_0.500_0.000_1.000_0.500_VISUALSTYLE
340
2F
102
VTR_0.500_0.000_1.000_0.500_GRIDDISPLAY
 70
     3
102
VTR_0.500_0.000_1.000_0.500_GRIDMAJOR
 70
     5
102
VTR_0.500_0.000_1.000_0.500_DEFAULTLIGHTING
280
     1
102
VTR_0.500_0.000_1.000_0.500_DEFAULTLIGHTINGTYPE
 70
     1
102
VTR_0.500_0.000_1.000_0.500_BRIGHTNESS
141
0.0
102
VTR_0.500_0.000_1.000_0.500_CONTRAST
142
0.0
102
VTR_0.500_0.500_1.000_1.000_VISUALSTYLE
340
2F
102
VTR_0.500_0.500_1.000_1.000_GRIDDISPLAY
 70
     3
102
VTR_0.500_0.500_1.000_1.000_GRIDMAJOR
 70
     5
102
VTR_0.500_0.500_1.000_1.000_DEFAULTLIGHTING
280
     1
102
VTR_0.500_0.500_1.000_1.000_DEFAULTLIGHTINGTYPE
 70
     1
102
VTR_0.500_0.500_1.000_1.000_BRIGHTNESS
141
0.0
102
VTR_0.500_0.500_1.000_1.000_CONTRAST
142
0.0
102
VTR_0.000_0.500_0.333_1.000_VISUALSTYLE
340
2F
102
VTR_0.000_0.500_0.333_1.000_GRIDDISPLAY
 70
     3
102
VTR_0.000_0.500_0.333_1.000_GRIDMAJOR
 70
     5
102
VTR_0.000_0.500_0.333_1.000_DEFAULTLIGHTING
280
     1
102
VTR_0.000_0.500_0.333_1.000_DEFAULTLIGHTINGTYPE
 70
     1
102
VTR_0.000_0.500_0.333_1.000_BRIGHTNESS
141
0.0
102
VTR_0.000_0.500_0.333_1.000_CONTRAST
142
0.0
102
VTR_0.000_0.000_0.333_0.500_VISUALSTYLE
340
2F
102
VTR_0.000_0.000_0.333_0.500_GRIDDISPLAY
 70
     3
102
VTR_0.000_0.000_0.333_0.500_GRIDMAJOR
 70
     5
102
VTR_0.000_0.000_0.333_0.500_DEFAULTLIGHTING
280
     1
102
VTR_0.000_0.000_0.333_0.500_DEFAULTLIGHTINGTYPE
 70
     1
102
VTR_0.000_0.000_0.333_0.500_BRIGHTNESS
141
0.0
102
VTR_0.000_0.000_0.333_0.500_CONTRAST
142
0.0
102
VTR_0.333_0.500_0.667_1.000_VISUALSTYLE
340
2F
102
VTR_0.333_0.500_0.667_1.000_GRIDDISPLAY
 70
     3
102
VTR_0.333_0.500_0.667_1.000_GRIDMAJOR
 70
     5
102
VTR_0.333_0.500_0.667_1.000_DEFAULTLIGHTING
280
     1
102
VTR_0.333_0.500_0.667_1.000_DEFAULTLIGHTINGTYPE
 70
     1
102
VTR_0.333_0.500_0.667_1.000_BRIGHTNESS
141
0.0
102
VTR_0.333_0.500_0.667_1.000_CONTRAST
142
0.0
102
VTR_0.333_0.000_0.667_0.500_VISUALSTYLE
340
2F
102
VTR_0.333_0.000_0.667_0.500_GRIDDISPLAY
 70
     3
102
VTR_0.333_0.000_0.667_0.500_GRIDMAJOR
 70
     5
102
VTR_0.333_0.000_0.667_0.500_DEFAULTLIGHTING
280
     1
102
VTR_0.333_0.000_0.667_0.500_DEFAULTLIGHTINGTYPE
 70
     1
102
VTR_0.333_0.000_0.667_0.500_BRIGHTNESS
141
0.0
102
VTR_0.333_0.000_0.667_0.500_CONTRAST
142
0.0
102
VTR_0.667_0.500_1.000_1.000_VISUALSTYLE
340
2F
102
VTR_0.667_0.500_1.000_1.000_GRIDDISPLAY
 70
     3
102
VTR_0.667_0.500_1.000_1.000_GRIDMAJOR
 70
     5
102
VTR_0.667_0.500_1.000_1.000_DEFAULTLIGHTING
280
     1
102
VTR_0.667_0.500_1.000_1.000_DEFAULTLIGHTINGTYPE
 70
     1
102
VTR_0.667_0.500_1.000_1.000_BRIGHTNESS
141
0.0
102
VTR_0.667_0.500_1.000_1.000_CONTRAST
142
0.0
102
VTR_0.667_0.000_1.000_0.500_VISUALSTYLE
340
2F
102
VTR_0.667_0.000_1.000_0.500_GRIDDISPLAY
 70
     3
102
VTR_0.667_0.000_1.000_0.500_GRIDMAJOR
 70
     5
102
VTR_0.667_0.000_1.000_0.500_DEFAULTLIGHTING
280
     1
102
VTR_0.667_0.000_1.000_0.500_DEFAULTLIGHTINGTYPE
 70
     1
102
VTR_0.667_0.000_1.000_0.500_BRIGHTNESS
141
0.0
102
VTR_0.667_0.000_1.000_0.500_CONTRAST
142
0.0
  0
DIMASSOC
  5
40C
102
{ACAD_REACTORS
330
40B
102
}
330
40B
100
AcDbDimAssoc
330
40A
 90
        3
 70
     0
 71
     1
  1
AcDbOsnapPointRef
 72
    10
331
3FB
 73
     2
 91
        1
 40
18.834725
 10
226.749507
 20
161.431656
 30
0.0
 75
     0
  1
AcDbOsnapPointRef
 72
     2
331
120
 73
     2
 91
        2
 40
1.0
 10
227.914782
 20
186.406656
 30
0.0
 75
     0
  0
DIMASSOC
  5
423
102
{ACAD_REACTORS
330
422
102
}
330
422
100
AcDbDimAssoc
330
421
 90
        3
 70
     0
 71
     1
  1
AcDbOsnapPointRef
 72
    13
331
119
 73
     2
 91
        1
 40
0.0
 10
188.414782
 20
185.431656
 30
0.0
 75
     0
  1
AcDbOsnapPointRef
 72
    13
331
11A
 73
     2
 91
        2
 40
0.0
 10
188.414782
 20
137.431656
 30
0.0
 75
     0
  0
DIMASSOC
  5
43C
102
{ACAD_REACTORS
330
43B
102
}
330
43B
100
AcDbDimAssoc
330
43A
 90
        3
 70
     0
 71
     1
  1
AcDbOsnapPointRef
 72
    13
331
11B
 73
     2
 91
        1
 40
0.0
 10
195.62064
 20
172.434906
 30
0.0
 75
     0
  1
AcDbOsnapPointRef
 72
     1
331
11C
 73
     2
 91
        2
 40
1.0
 10
195.62064
 20
150.428406
 30
0.0
 75
     0
  0
DIMASSOC
  5
455
102
{ACAD_REACTORS
330
454
102
}
330
454
100
AcDbDimAssoc
330
453
 90
        3
 70
     0
 71
     1
  1
AcDbOsnapPointRef
 72
     2
331
11D
 73
     2
 91
        1
 40
1.0
 10
227.914782
 20
186.406656
 30
0.0
 75
     0
  1
AcDbOsnapPointRef
 72
     4
331
7B
 73
     3
 91
        2
 40
0.0
 10
226.028702
 20
185.806163
 30
0.0
 75
     0
  0
DIMASSOC
  5
46F
102
{ACAD_REACTORS
330
46E
102
}
330
46E
100
AcDbDimAssoc
330
46D
 90
        3
 70
     0
 71
     1
  1
AcDbOsnapPointRef
 72
     4
331
7C
 73
     3
 91
        1
 40
0.0
 10
187.914782
 20
184.931656
 30
0.0
 75
     0
  1
AcDbOsnapPointRef
 72
     1
331
120
 73
     2
 91
        2
 40
1.0
 10
227.914782
 20
187.406656
 30
0.0
 75
     0
  0
DIMASSOC
  5
487
102
{ACAD_REACTORS
330
486
102
}
330
486
100
AcDbDimAssoc
330
485
 90
        3
 70
     0
 71
     1
  1
AcDbOsnapPointRef
 72
    13
331
121
 73
     2
 91
        1
 40
0.0
 10
187.914782
 20
137.931656
 30
0.0
 75
     0
  1
AcDbOsnapPointRef
 72
     1
331
2AD
 73
     2
 91
        2
 40
1.0
 10
194.289782
 20
156.449881
 30
0.0
 75
     0
  0
DIMASSOC
  5
4A1
102
{ACAD_REACTORS
330
4A0
102
}
330
4A0
100
AcDbDimAssoc
330
49F
 90
        3
 70
     0
 71
     1
  1
AcDbOsnapPointRef
 72
    13
331
11E
 73
     2
 91
        1
 40
0.0
 10
188.914782
 20
166.659156
 30
0.0
 75
     0
  1
AcDbOsnapPointRef
 72
    13
331
11F
 73
     2
 91
        2
 40
0.0
 10
188.914782
 20
156.204156
 30
0.0
 75
     0
  0
GROUP
  5
4C0
102
{ACAD_REACTORS
330
D
102
}
330
D
100
AcDbGroup
300

 70
     0
 71
     1
340
3FD
340
2AF
340
2B0
340
3F9
340
3FA
340
403
340
407
  0
LAYOUT
  5
1E
102
{ACAD_REACTORS
330
1A
102
}
330
1A
100
AcDbPlotSettings
  1

  2
none_device
  4

  6

 40
0.0
 41
0.0
 42
0.0
 43
0.0
 44
0.0
 45
0.0
 46
0.0
 47
0.0
 48
0.0
 49
0.0
140
0.0
141
0.0
142
1.0
143
1.0
 70
   688
 72
     0
 73
     0
 74
     5
  7

 75
    16
 76
     0
 77
     2
 78
   300
147
1.0
148
0.0
149
0.0
100
AcDbLayout
  1
Layout1
 70
     1
 71
     1
 10
-0.5
 20
-0.5
 11
5.0
 21
5.0
 12
0.0
 22
0.0
 32
0.0
 14
-0.5
 24
-0.5
 34
-0.5
 15
5.0
 25
5.0
 35
5.0
146
0.0
 13
0.0
 23
0.0
 33
0.0
 16
1.0
 26
0.0
 36
0.0
 17
0.0
 27
1.0
 37
0.0
 76
     0
330
1B
  0
LAYOUT
  5
26
102
{ACAD_REACTORS
330
1A
102
}
330
1A
100
AcDbPlotSettings
  1

  2
none_device
  4

  6

 40
0.0
 41
0.0
 42
0.0
 43
0.0
 44
0.0
 45
0.0
 46
0.0
 47
0.0
 48
0.0
 49
0.0
140
0.0
141
0.0
142
1.0
143
1.0
 70
   688
 72
     0
 73
     0
 74
     5
  7

 75
    16
 76
     0
 77
     2
 78
   300
147
1.0
148
0.0
149
0.0
100
AcDbLayout
  1
Layout2
 70
     1
 71
     2
 10
0.0
 20
0.0
 11
0.0
 21
0.0
 12
0.0
 22
0.0
 32
0.0
 14
0.0
 24
0.0
 34
0.0
 15
0.0
 25
0.0
 35
0.0
146
0.0
 13
0.0
 23
0.0
 33
0.0
 16
1.0
 26
0.0
 36
0.0
 17
0.0
 27
1.0
 37
0.0
 76
     0
330
23
  0
LAYOUT
  5
22
102
{ACAD_REACTORS
330
1A
102
}
330
1A
100
AcDbPlotSettings
  1

  2
none_device
  4
Letter_(8.50_x_11.00_Inches)
  6

 40
6.35
 41
6.35
 42
6.350005
 43
6.350005
 44
215.9
 45
279.4
 46
0.0
 47
0.0
 48
0.0
 49
0.0
140
0.0
141
0.0
142
1.0
143
1.0
 70
  1712
 72
     0
 73
     0
 74
     0
  7

 75
     0
 76
     0
 77
     2
 78
   300
147
1.0
148
0.0
149
0.0
100
AcDbLayout
  1
Model
 70
     1
 71
     0
 10
-0.5
 20
-0.5
 11
5.0
 21
5.0
 12
0.0
 22
0.0
 32
0.0
 14
-0.5
 24
-0.5
 34
-0.5
 15
5.0
 25
5.0
 35
5.0
146
0.0
 13
0.0
 23
0.0
 33
0.0
 16
1.0
 26
0.0
 36
0.0
 17
0.0
 27
1.0
 37
0.0
 76
     0
330
1F
331
29
  0
MATERIAL
  5
45
102
{ACAD_REACTORS
330
43
102
}
102
{ACAD_XDICTIONARY
360
50D
102
}
330
43
100
AcDbMaterial
  1
ByBlock
  0
MATERIAL
  5
44
102
{ACAD_REACTORS
330
43
102
}
102
{ACAD_XDICTIONARY
360
50B
102
}
330
43
100
AcDbMaterial
  1
ByLayer
  0
MATERIAL
  5
46
102
{ACAD_REACTORS
330
43
102
}
102
{ACAD_XDICTIONARY
360
50F
102
}
330
43
100
AcDbMaterial
  1
Global
  0
MLEADERSTYLE
  5
6C
102
{ACAD_REACTORS
330
6B
102
}
102
{ACAD_XDICTIONARY
360
515
102
}
330
6B
100
AcDbMLeaderStyle
170
     2
171
     1
172
     0
 90
        2
 40
0.0
 41
0.0
173
     1
 91
-1056964608
340
14
 92
       -2
290
     1
 42
0.09
291
     1
 43
0.36
  3
Standard
341
0
 44
0.18
300

342
11
174
     1
178
     6
175
     1
176
     0
 93
-1056964608
 45
0.18
292
     0
297
     0
 46
0.18
343
0
 94
-1056964608
 47
1.0
 49
1.0
140
1.0
293
     1
141
0.0
294
     1
177
     0
142
1.0
295
     0
296
     0
143
0.125
1001
ACAD_MLEADERVER
1070
     2
  0
MLINESTYLE
  5
18
102
{ACAD_REACTORS
330
17
102
}
330
17
100
AcDbMlineStyle
  2
Standard
 70
     0
  3

 62
   256
 51
90.0
 52
90.0
 71
     2
 49
0.5
 62
   256
  6
BYLAYER
 49
-0.5
 62
   256
  6
BYLAYER
  0
ACDBPLACEHOLDER
  5
F
102
{ACAD_REACTORS
330
E
102
}
330
E
  0
SCALE
  5
48
102
{ACAD_REACTORS
330
47
102
}
330
47
100
AcDbScale
 70
     0
300
1:1
140
1.0
141
1.0
290
     1
  0
SCALE
  5
49
102
{ACAD_REACTORS
330
47
102
}
330
47
100
AcDbScale
 70
     0
300
1:2
140
1.0
141
2.0
290
     0
  0
SCALE
  5
4A
102
{ACAD_REACTORS
330
47
102
}
330
47
100
AcDbScale
 70
     0
300
1:4
140
1.0
141
4.0
290
     0
  0
SCALE
  5
4B
102
{ACAD_REACTORS
330
47
102
}
330
47
100
AcDbScale
 70
     0
300
1:5
140
1.0
141
5.0
290
     0
  0
SCALE
  5
4C
102
{ACAD_REACTORS
330
47
102
}
330
47
100
AcDbScale
 70
     0
300
1:8
140
1.0
141
8.0
290
     0
  0
SCALE
  5
4D
102
{ACAD_REACTORS
330
47
102
}
330
47
100
AcDbScale
 70
     0
300
1:10
140
1.0
141
10.0
290
     0
  0
SCALE
  5
4E
102
{ACAD_REACTORS
330
47
102
}
330
47
100
AcDbScale
 70
     0
300
1:16
140
1.0
141
16.0
290
     0
  0
SCALE
  5
4F
102
{ACAD_REACTORS
330
47
102
}
330
47
100
AcDbScale
 70
     0
300
1:20
140
1.0
141
20.0
290
     0
  0
SCALE
  5
50
102
{ACAD_REACTORS
330
47
102
}
330
47
100
AcDbScale
 70
     0
300
1:30
140
1.0
141
30.0
290
     0
  0
SCALE
  5
51
102
{ACAD_REACTORS
330
47
102
}
330
47
100
AcDbScale
 70
     0
300
1:40
140
1.0
141
40.0
290
     0
  0
SCALE
  5
52
102
{ACAD_REACTORS
330
47
102
}
330
47
100
AcDbScale
 70
     0
300
1:50
140
1.0
141
50.0
290
     0
  0
SCALE
  5
53
102
{ACAD_REACTORS
330
47
102
}
330
47
100
AcDbScale
 70
     0
300
1:100
140
1.0
141
100.0
290
     0
  0
SCALE
  5
54
102
{ACAD_REACTORS
330
47
102
}
330
47
100
AcDbScale
 70
     0
300
2:1
140
2.0
141
1.0
290
     0
  0
SCALE
  5
55
102
{ACAD_REACTORS
330
47
102
}
330
47
100
AcDbScale
 70
     0
300
4:1
140
4.0
141
1.0
290
     0
  0
SCALE
  5
56
102
{ACAD_REACTORS
330
47
102
}
330
47
100
AcDbScale
 70
     0
300
8:1
140
8.0
141
1.0
290
     0
  0
SCALE
  5
57
102
{ACAD_REACTORS
330
47
102
}
330
47
100
AcDbScale
 70
     0
300
10:1
140
10.0
141
1.0
290
     0
  0
SCALE
  5
58
102
{ACAD_REACTORS
330
47
102
}
330
47
100
AcDbScale
 70
     0
300
100:1
140
100.0
141
1.0
290
     0
  0
SCALE
  5
59
102
{ACAD_REACTORS
330
47
102
}
330
47
100
AcDbScale
 70
     0
300
1/128" = 1'-0"
140
0.007812
141
12.0
290
     0
  0
SCALE
  5
5A
102
{ACAD_REACTORS
330
47
102
}
330
47
100
AcDbScale
 70
     0
300
1/64" = 1'-0"
140
0.015625
141
12.0
290
     0
  0
SCALE
  5
5B
102
{ACAD_REACTORS
330
47
102
}
330
47
100
AcDbScale
 70
     0
300
1/32" = 1'-0"
140
0.03125
141
12.0
290
     0
  0
SCALE
  5
5C
102
{ACAD_REACTORS
330
47
102
}
330
47
100
AcDbScale
 70
     0
300
1/16" = 1'-0"
140
0.0625
141
12.0
290
     0
  0
SCALE
  5
5D
102
{ACAD_REACTORS
330
47
102
}
330
47
100
AcDbScale
 70
     0
300
3/32" = 1'-0"
140
0.09375
141
12.0
290
     0
  0
SCALE
  5
5E
102
{ACAD_REACTORS
330
47
102
}
330
47
100
AcDbScale
 70
     0
300
1/8" = 1'-0"
140
0.125
141
12.0
290
     0
  0
SCALE
  5
5F
102
{ACAD_REACTORS
330
47
102
}
330
47
100
AcDbScale
 70
     0
300
3/16" = 1'-0"
140
0.1875
141
12.0
290
     0
  0
SCALE
  5
60
102
{ACAD_REACTORS
330
47
102
}
330
47
100
AcDbScale
 70
     0
300
1/4" = 1'-0"
140
0.25
141
12.0
290
     0
  0
SCALE
  5
61
102
{ACAD_REACTORS
330
47
102
}
330
47
100
AcDbScale
 70
     0
300
3/8" = 1'-0"
140
0.375
141
12.0
290
     0
  0
SCALE
  5
62
102
{ACAD_REACTORS
330
47
102
}
330
47
100
AcDbScale
 70
     0
300
1/2" = 1'-0"
140
0.5
141
12.0
290
     0
  0
SCALE
  5
63
102
{ACAD_REACTORS
330
47
102
}
330
47
100
AcDbScale
 70
     0
300
3/4" = 1'-0"
140
0.75
141
12.0
290
     0
  0
SCALE
  5
64
102
{ACAD_REACTORS
330
47
102
}
330
47
100
AcDbScale
 70
     0
300
1" = 1'-0"
140
1.0
141
12.0
290
     0
  0
SCALE
  5
65
102
{ACAD_REACTORS
330
47
102
}
330
47
100
AcDbScale
 70
     0
300
1-1/2" = 1'-0"
140
1.5
141
12.0
290
     0
  0
SCALE
  5
66
102
{ACAD_REACTORS
330
47
102
}
330
47
100
AcDbScale
 70
     0
300
3" = 1'-0"
140
3.0
141
12.0
290
     0
  0
SCALE
  5
67
102
{ACAD_REACTORS
330
47
102
}
330
47
100
AcDbScale
 70
     0
300
6" = 1'-0"
140
6.0
141
12.0
290
     0
  0
SCALE
  5
68
102
{ACAD_REACTORS
330
47
102
}
330
47
100
AcDbScale
 70
     0
300
1'-0" = 1'-0"
140
12.0
141
12.0
290
     0
  0
TABLESTYLE
  5
6A
102
{ACAD_REACTORS
330
69
102
}
102
{ACAD_XDICTIONARY
360
511
102
}
330
69
100
AcDbTableStyle
  3
Standard
 70
     0
 71
     0
 40
0.06
 41
0.06
280
     0
281
     0
  7
Standard
140
0.18
170
     2
 62
     0
 63
   257
283
     0
274
    -2
284
     1
 64
     0
275
    -2
285
     1
 65
     0
276
    -2
286
     1
 66
     0
277
    -2
287
     1
 67
     0
278
    -2
288
     1
 68
     0
279
    -2
289
     1
 69
     0
  7
Standard
140
0.25
170
     5
 62
     0
 63
   257
283
     0
274
    -2
284
     1
 64
     0
275
    -2
285
     1
 65
     0
276
    -2
286
     1
 66
     0
277
    -2
287
     1
 67
     0
278
    -2
288
     1
 68
     0
279
    -2
289
     1
 69
     0
  7
Standard
140
0.18
170
     5
 62
     0
 63
   257
283
     0
274
    -2
284
     1
 64
     0
275
    -2
285
     1
 65
     0
276
    -2
286
     1
 66
     0
277
    -2
287
     1
 67
     0
278
    -2
288
     1
 68
     0
279
    -2
289
     1
 69
     0
  0
VISUALSTYLE
  5
2F
102
{ACAD_REACTORS
330
2A
102
}
102
{ACAD_XDICTIONARY
360
4E3
102
}
330
2A
100
AcDbVisualStyle
  2
2dWireframe
 70
     4
 71
     0
 72
     2
 73
     0
 90
        0
 40
0.6
 41
30.0
 62
     5
 63
     7
421
 16777215
 74
     1
 91
        4
 64
     7
 65
   257
 75
     1
175
     1
 42
1.0
 92
        0
 66
   257
 43
1.0
 76
     1
 77
     6
 78
     2
 67
     7
 79
     5
170
     0
171
     0
290
     0
174
     0
 93
        1
 44
0.0
173
     0
291
     0
 45
0.0
1001
ACAD
1000
AcDbSavedByObjectVersion
1070
     0
  0
VISUALSTYLE
  5
32
102
{ACAD_REACTORS
330
2A
102
}
102
{ACAD_XDICTIONARY
360
4E9
102
}
330
2A
100
AcDbVisualStyle
  2
Basic
 70
     7
 71
     1
 72
     0
 73
     1
 90
        0
 40
0.6
 41
30.0
 62
     5
 63
     7
421
 16777215
 74
     0
 91
        4
 64
     7
 65
   257
 75
     1
175
     1
 42
1.0
 92
        8
 66
     7
 43
1.0
 76
     1
 77
     6
 78
     2
 67
     7
 79
     5
170
     0
171
     0
290
     0
174
     0
 93
        1
 44
0.0
173
     0
291
     1
 45
0.0
1001
ACAD
1000
AcDbSavedByObjectVersion
1070
     0
  0
VISUALSTYLE
  5
36
102
{ACAD_REACTORS
330
2A
102
}
102
{ACAD_XDICTIONARY
360
4F1
102
}
330
2A
100
AcDbVisualStyle
  2
Brighten
 70
    12
 71
     2
 72
     2
 73
     0
 90
        0
 40
0.6
 41
30.0
 62
     5
 63
     7
421
 16777215
 74
     1
 91
        4
 64
     7
 65
   257
 75
     1
175
     1
 42
1.0
 92
        8
 66
     7
 43
1.0
 76
     1
 77
     6
 78
     2
 67
     7
 79
     5
170
     0
171
     0
290
     0
174
     0
 93
        1
 44
50.0
173
     0
291
     1
 45
0.0
1001
ACAD
1000
AcDbSavedByObjectVersion
1070
     0
  0
VISUALSTYLE
  5
3A
102
{ACAD_REACTORS
330
2A
102
}
102
{ACAD_XDICTIONARY
360
4F9
102
}
330
2A
100
AcDbVisualStyle
  2
ColorChange
 70
    16
 71
     2
 72
     2
 73
     3
 90
        0
 40
0.6
 41
30.0
 62
     5
 63
     8
421
  8421504
 74
     1
 91
        4
 64
     7
 65
   257
 75
     1
175
     1
 42
1.0
 92
        8
 66
     8
424
  8421504
 43
1.0
 76
     1
 77
     6
 78
     2
 67
     7
 79
     5
170
     0
171
     0
290
     0
174
     0
 93
        1
 44
0.0
173
     0
291
     1
 45
0.0
1001
ACAD
1000
AcDbSavedByObjectVersion
1070
     0
  0
VISUALSTYLE
  5
34
102
{ACAD_REACTORS
330
2A
102
}
102
{ACAD_XDICTIONARY
360
4ED
102
}
330
2A
100
AcDbVisualStyle
  2
Conceptual
 70
     9
 71
     3
 72
     2
 73
     0
 90
        0
 40
0.6
 41
30.0
 62
     5
 63
     7
421
 16777215
 74
     2
 91
        2
 64
     7
 65
   257
 75
     1
175
     1
 42
179.0
 92
        8
 66
     7
 43
1.0
 76
     1
 77
     6
 78
     2
 67
     7
 79
     3
170
     0
171
     0
290
     0
174
     0
 93
        1
 44
0.0
173
     0
291
     0
 45
0.0
1001
ACAD
1000
AcDbSavedByObjectVersion
1070
     0
  0
VISUALSTYLE
  5
35
102
{ACAD_REACTORS
330
2A
102
}
102
{ACAD_XDICTIONARY
360
4EF
102
}
330
2A
100
AcDbVisualStyle
  2
Dim
 70
    11
 71
     2
 72
     2
 73
     0
 90
        0
 40
0.6
 41
30.0
 62
     5
 63
     7
421
 16777215
 74
     1
 91
        4
 64
     7
 65
   257
 75
     1
175
     1
 42
1.0
 92
        8
 66
     7
 43
1.0
 76
     1
 77
     6
 78
     2
 67
     7
 79
     5
170
     0
171
     0
290
     0
174
     0
 93
        1
 44
-50.0
173
     0
291
     1
 45
0.0
1001
ACAD
1000
AcDbSavedByObjectVersion
1070
     0
  0
VISUALSTYLE
  5
3D
102
{ACAD_REACTORS
330
2A
102
}
102
{ACAD_XDICTIONARY
360
4FF
102
}
330
2A
100
AcDbVisualStyle
  2
EdgeColorOff
 70
    22
 71
     2
 72
     2
 73
     0
 90
        0
 40
0.6
 41
30.0
 62
     5
 63
     7
421
 16777215
 74
     1
 91
        4
 64
     7
 65
   257
 75
     1
175
     1
 42
1.0
 92
        8
 66
     7
 43
1.0
 76
     1
 77
     6
 78
     2
 67
     7
 79
     5
170
     0
171
     0
290
     0
174
     0
 93
        1
 44
0.0
173
     0
291
     1
 45
0.0
1001
ACAD
1000
AcDbSavedByObjectVersion
1070
     0
  0
VISUALSTYLE
  5
39
102
{ACAD_REACTORS
330
2A
102
}
102
{ACAD_XDICTIONARY
360
4F7
102
}
330
2A
100
AcDbVisualStyle
  2
Facepattern
 70
    15
 71
     2
 72
     2
 73
     0
 90
        0
 40
0.6
 41
30.0
 62
     5
 63
     7
421
 16777215
 74
     1
 91
        4
 64
     7
 65
   257
 75
     1
175
     1
 42
1.0
 92
        8
 66
     7
 43
1.0
 76
     1
 77
     6
 78
     2
 67
     7
 79
     5
170
     0
171
     0
290
     0
174
     0
 93
        1
 44
0.0
173
     0
291
     1
 45
0.0
1001
ACAD
1000
AcDbSavedByObjectVersion
1070
     0
  0
VISUALSTYLE
  5
2B
102
{ACAD_REACTORS
330
2A
102
}
102
{ACAD_XDICTIONARY
360
4DB
102
}
330
2A
100
AcDbVisualStyle
  2
Flat
 70
     0
 71
     2
 72
     1
 73
     1
 90
        2
 40
0.6
 41
30.0
 62
     5
 63
     7
421
 16777215
 74
     0
 91
        0
 64
     7
 65
   257
 75
     1
175
     1
 42
1.0
 92
        8
 66
     7
 43
1.0
 76
     1
 77
     6
 78
     2
 67
     7
 79
     5
170
     0
171
     0
290
     0
174
     0
 93
       13
 44
0.0
173
     0
291
     1
 45
0.0
1001
ACAD
1000
AcDbSavedByObjectVersion
1070
     0
  0
VISUALSTYLE
  5
2C
102
{ACAD_REACTORS
330
2A
102
}
102
{ACAD_XDICTIONARY
360
4DD
102
}
330
2A
100
AcDbVisualStyle
  2
FlatWithEdges
 70
     1
 71
     2
 72
     1
 73
     1
 90
        2
 40
0.6
 41
30.0
 62
     5
 63
     7
421
 16777215
 74
     1
 91
        0
 64
     7
 65
   257
 75
     1
175
     1
 42
1.0
 92
        0
 66
   257
 43
1.0
 76
     1
 77
     6
 78
     2
 67
     7
 79
     5
170
     0
171
     0
290
     0
174
     0
 93
       13
 44
0.0
173
     0
291
     1
 45
0.0
1001
ACAD
1000
AcDbSavedByObjectVersion
1070
     0
  0
VISUALSTYLE
  5
2D
102
{ACAD_REACTORS
330
2A
102
}
102
{ACAD_XDICTIONARY
360
4DF
102
}
330
2A
100
AcDbVisualStyle
  2
Gouraud
 70
     2
 71
     2
 72
     2
 73
     1
 90
        2
 40
0.6
 41
30.0
 62
     5
 63
     7
421
 16777215
 74
     0
 91
        0
 64
     7
 65
   257
 75
     1
175
     1
 42
1.0
 92
        0
 66
     7
 43
1.0
 76
     1
 77
     6
 78
     2
 67
     7
 79
     5
170
     0
171
     0
290
     0
174
     0
 93
       13
 44
0.0
173
     0
291
     1
 45
0.0
1001
ACAD
1000
AcDbSavedByObjectVersion
1070
     0
  0
VISUALSTYLE
  5
2E
102
{ACAD_REACTORS
330
2A
102
}
102
{ACAD_XDICTIONARY
360
4E1
102
}
330
2A
100
AcDbVisualStyle
  2
GouraudWithEdges
 70
     3
 71
     2
 72
     2
 73
     1
 90
        2
 40
0.6
 41
30.0
 62
     5
 63
     7
421
 16777215
 74
     1
 91
        0
 64
     7
 65
   257
 75
     1
175
     1
 42
1.0
 92
        0
 66
   257
 43
1.0
 76
     1
 77
     6
 78
     2
 67
     7
 79
     5
170
     0
171
     0
290
     0
174
     0
 93
       13
 44
0.0
173
     0
291
     1
 45
0.0
1001
ACAD
1000
AcDbSavedByObjectVersion
1070
     0
  0
VISUALSTYLE
  5
31
102
{ACAD_REACTORS
330
2A
102
}
102
{ACAD_XDICTIONARY
360
4E7
102
}
330
2A
100
AcDbVisualStyle
  2
Hidden
 70
     6
 71
     1
 72
     2
 73
     2
 90
        0
 40
0.6
 41
30.0
 62
     5
 63
     7
421
 16777215
 74
     2
 91
        2
 64
     7
 65
   257
 75
     2
175
     1
 42
40.0
 92
        0
 66
   257
 43
1.0
 76
     1
 77
     6
 78
     2
 67
     7
 79
     3
170
     0
171
     0
290
     0
174
     0
 93
        1
 44
0.0
173
     0
291
     0
 45
0.0
1001
ACAD
1000
AcDbSavedByObjectVersion
1070
     0
  0
VISUALSTYLE
  5
3B
102
{ACAD_REACTORS
330
2A
102
}
102
{ACAD_XDICTIONARY
360
4FB
102
}
330
2A
100
AcDbVisualStyle
  2
JitterOff
 70
    20
 71
     2
 72
     2
 73
     0
 90
        0
 40
0.6
 41
30.0
 62
     5
 63
     7
421
 16777215
 74
     1
 91
        4
 64
     7
 65
   257
 75
     1
175
     1
 42
1.0
 92
       10
 66
     7
 43
1.0
 76
     1
 77
     6
 78
     2
 67
     7
 79
     5
170
     0
171
     0
290
     0
174
     0
 93
        1
 44
0.0
173
     0
291
     1
 45
0.0
1001
ACAD
1000
AcDbSavedByObjectVersion
1070
     0
  0
VISUALSTYLE
  5
38
102
{ACAD_REACTORS
330
2A
102
}
102
{ACAD_XDICTIONARY
360
4F5
102
}
330
2A
100
AcDbVisualStyle
  2
Linepattern
 70
    14
 71
     2
 72
     2
 73
     0
 90
        0
 40
0.6
 41
30.0
 62
     5
 63
     7
421
 16777215
 74
     1
 91
        4
 64
     7
 65
   257
 75
     7
175
     7
 42
1.0
 92
        8
 66
     7
 43
1.0
 76
     1
 77
     6
 78
     2
 67
     7
 79
     5
170
     0
171
     0
290
     0
174
     0
 93
        1
 44
0.0
173
     0
291
     1
 45
0.0
1001
ACAD
1000
AcDbSavedByObjectVersion
1070
     0
  0
VISUALSTYLE
  5
3C
102
{ACAD_REACTORS
330
2A
102
}
102
{ACAD_XDICTIONARY
360
4FD
102
}
330
2A
100
AcDbVisualStyle
  2
OverhangOff
 70
    21
 71
     2
 72
     2
 73
     0
 90
        0
 40
0.6
 41
30.0
 62
     5
 63
     7
421
 16777215
 74
     1
 91
        4
 64
     7
 65
   257
 75
     1
175
     1
 42
1.0
 92
        9
 66
     7
 43
1.0
 76
     1
 77
     6
 78
     2
 67
     7
 79
     5
170
     0
171
     0
290
     0
174
     0
 93
        1
 44
0.0
173
     0
291
     1
 45
0.0
1001
ACAD
1000
AcDbSavedByObjectVersion
1070
     0
  0
VISUALSTYLE
  5
33
102
{ACAD_REACTORS
330
2A
102
}
102
{ACAD_XDICTIONARY
360
4EB
102
}
330
2A
100
AcDbVisualStyle
  2
Realistic
 70
     8
 71
     2
 72
     3
 73
     0
 90
        2
 40
0.6
 41
30.0
 62
     5
 63
     7
421
 16777215
 74
     0
 91
        0
 64
     7
 65
   257
 75
     1
175
     1
 42
1.0
 92
        8
 66
   257
 43
1.0
 76
     1
 77
     6
 78
     2
 67
     7
 79
     3
170
     0
171
     0
290
     0
174
     0
 93
       13
 44
0.0
173
     0
291
     0
 45
0.0
1001
ACAD
1000
AcDbSavedByObjectVersion
1070
     0
  0
VISUALSTYLE
  5
42
102
{ACAD_REACTORS
330
2A
102
}
102
{ACAD_XDICTIONARY
360
509
102
}
330
2A
100
AcDbVisualStyle
  2
Shaded
 70
    27
 71
     2
 72
     2
 73
     1
 90
        2
 40
0.6
 41
30.0
 62
     5
 63
     7
421
 16777215
 74
     0
 91
        4
 64
     7
 65
   257
 75
     1
175
     1
 42
1.0
 92
        8
 66
   257
 43
1.0
 76
     1
 77
     6
 78
     2
 67
     8
425
  7895160
 79
     3
170
     0
171
     0
290
     0
174
     0
 93
        5
 44
0.0
173
     0
291
     0
 45
0.0
1001
ACAD
1000
AcDbSavedByObjectVersion
1070
     0
  0
VISUALSTYLE
  5
41
102
{ACAD_REACTORS
330
2A
102
}
102
{ACAD_XDICTIONARY
360
507
102
}
330
2A
100
AcDbVisualStyle
  2
Shaded with edges
 70
    26
 71
     2
 72
     2
 73
     1
 90
        2
 40
0.6
 41
30.0
 62
     5
 63
     7
421
 16777215
 74
     1
 91
       10
 64
     7
 65
   257
 75
     2
175
     1
 42
1.0
 92
        8
 66
   257
 43
1.0
 76
     1
 77
     6
 78
     2
 67
     7
 79
     3
170
     0
171
     0
290
     0
174
     0
 93
        5
 44
0.0
173
     0
291
     0
 45
0.0
1001
ACAD
1000
AcDbSavedByObjectVersion
1070
     0
  0
VISUALSTYLE
  5
3E
102
{ACAD_REACTORS
330
2A
102
}
102
{ACAD_XDICTIONARY
360
501
102
}
330
2A
100
AcDbVisualStyle
  2
Shades of Gray
 70
    23
 71
     2
 72
     2
 73
     3
 90
        0
 40
0.6
 41
30.0
 62
     5
 63
     7
421
 16777215
 74
     2
 91
        2
 64
     7
 65
     7
 75
     1
175
     1
 42
40.0
 92
        8
 66
     7
 43
1.0
 76
     1
 77
     6
 78
     2
 67
     7
 79
     3
170
     0
171
     0
290
     0
174
     0
 93
        1
 44
0.0
173
     0
291
     0
 45
0.0
1001
ACAD
1000
AcDbSavedByObjectVersion
1070
     0
  0
VISUALSTYLE
  5
3F
102
{ACAD_REACTORS
330
2A
102
}
102
{ACAD_XDICTIONARY
360
503
102
}
330
2A
100
AcDbVisualStyle
  2
Sketchy
 70
    24
 71
     1
 72
     2
 73
     2
 90
        0
 40
0.6
 41
30.0
 62
     5
 63
     7
421
 16777215
 74
     2
 91
        2
 64
     7
 65
     7
 75
     1
175
     1
 42
40.0
 92
       11
 66
     7
 43
1.0
 76
     1
 77
     6
 78
     2
 67
     7
 79
     6
170
     0
171
     0
290
     0
174
     0
 93
        1
 44
0.0
173
     0
291
     0
 45
0.0
1001
ACAD
1000
AcDbSavedByObjectVersion
1070
     0
  0
VISUALSTYLE
  5
37
102
{ACAD_REACTORS
330
2A
102
}
102
{ACAD_XDICTIONARY
360
4F3
102
}
330
2A
100
AcDbVisualStyle
  2
Thicken
 70
    13
 71
     2
 72
     2
 73
     0
 90
        0
 40
0.6
 41
30.0
 62
     5
 63
     7
421
 16777215
 74
     1
 91
        4
 64
     7
 65
   257
 75
     1
175
     1
 42
1.0
 92
       12
 66
     7
 43
1.0
 76
     1
 77
     6
 78
     2
 67
     7
 79
     5
170
     0
171
     0
290
     0
174
     0
 93
        1
 44
0.0
173
     0
291
     1
 45
0.0
1001
ACAD
1000
AcDbSavedByObjectVersion
1070
     0
  0
VISUALSTYLE
  5
30
102
{ACAD_REACTORS
330
2A
102
}
102
{ACAD_XDICTIONARY
360
4E5
102
}
330
2A
100
AcDbVisualStyle
  2
Wireframe
 70
     5
 71
     0
 72
     2
 73
     0
 90
        0
 40
0.6
 41
30.0
 62
     5
 63
     7
421
 16777215
 74
     1
 91
        4
 64
     7
 65
   257
 75
     1
175
     1
 42
1.0
 92
        0
 66
   257
 43
1.0
 76
     1
 77
     6
 78
     2
 67
     7
 79
     3
170
     0
171
     0
290
     0
174
     0
 93
        1
 44
0.0
173
     0
291
     0
 45
0.0
1001
ACAD
1000
AcDbSavedByObjectVersion
1070
     0
  0
VISUALSTYLE
  5
40
102
{ACAD_REACTORS
330
2A
102
}
102
{ACAD_XDICTIONARY
360
505
102
}
330
2A
100
AcDbVisualStyle
  2
X-Ray
 70
    25
 71
     2
 72
     2
 73
     1
 90
        1
 40
0.5
 41
30.0
 62
     5
 63
     7
421
 16777215
 74
     1
 91
        0
 64
     7
 65
   257
 75
     1
175
     1
 42
1.0
 92
        8
 66
     7
 43
1.0
 76
     1
 77
     6
 78
     2
 67
     7
 79
     3
170
     0
171
     0
290
     0
174
     0
 93
       13
 44
0.0
173
     0
291
     0
 45
0.0
1001
ACAD
1000
AcDbSavedByObjectVersion
1070
     0
  0
DICTIONARYVAR
  5
4D8
102
{ACAD_REACTORS
330
4D7
102
}
330
4D7
100
DictionaryVariables
280
     0
  1
1:1
  0
DICTIONARYVAR
  5
519
102
{ACAD_REACTORS
330
4D7
102
}
330
4D7
100
DictionaryVariables
280
     0
  1
Standard
  0
DICTIONARYVAR
  5
518
102
{ACAD_REACTORS
330
4D7
102
}
330
4D7
100
DictionaryVariables
280
     0
  1
Standard
  0
DICTIONARYVAR
  5
4D9
102
{ACAD_REACTORS
330
4D7
102
}
330
4D7
100
DictionaryVariables
280
     0
  1
1
  0
DICTIONARYVAR
  5
4DA
102
{ACAD_REACTORS
330
4D7
102
}
330
4D7
100
DictionaryVariables
280
     0
  1
2
  0
DICTIONARY
  5
50D
330
45
100
AcDbDictionary
280
     1
281
     1
  3
ACAD_XREC_ROUNDTRIP
360
50E
  0
DICTIONARY
  5
50B
330
44
100
AcDbDictionary
280
     1
281
     1
  3
ACAD_XREC_ROUNDTRIP
360
50C
  0
DICTIONARY
  5
50F
330
46
100
AcDbDictionary
280
     1
281
     1
  3
ACAD_XREC_ROUNDTRIP
360
510
  0
DICTIONARY
  5
515
330
6C
100
AcDbDictionary
280
     1
281
     1
  3
ACAD_XREC_ROUNDTRIP
360
516
  0
DICTIONARY
  5
511
330
6A
100
AcDbDictionary
280
     1
281
     1
  3
ACAD_ROUNDTRIP_2008_TABLESTYLE_CELLSTYLEMAP
360
513
  3
ACAD_XREC_ROUNDTRIP
360
512
  0
DICTIONARY
  5
4E3
330
2F
100
AcDbDictionary
280
     1
281
     1
  3
ACAD_XREC_ROUNDTRIP
360
4E4
  0
DICTIONARY
  5
4E9
330
32
100
AcDbDictionary
280
     1
281
     1
  3
ACAD_XREC_ROUNDTRIP
360
4EA
  0
DICTIONARY
  5
4F1
330
36
100
AcDbDictionary
280
     1
281
     1
  3
ACAD_XREC_ROUNDTRIP
360
4F2
  0
DICTIONARY
  5
4F9
330
3A
100
AcDbDictionary
280
     1
281
     1
  3
ACAD_XREC_ROUNDTRIP
360
4FA
  0
DICTIONARY
  5
4ED
330
34
100
AcDbDictionary
280
     1
281
     1
  3
ACAD_XREC_ROUNDTRIP
360
4EE
  0
DICTIONARY
  5
4EF
330
35
100
AcDbDictionary
280
     1
281
     1
  3
ACAD_XREC_ROUNDTRIP
360
4F0
  0
DICTIONARY
  5
4FF
330
3D
100
AcDbDictionary
280
     1
281
     1
  3
ACAD_XREC_ROUNDTRIP
360
500
  0
DICTIONARY
  5
4F7
330
39
100
AcDbDictionary
280
     1
281
     1
  3
ACAD_XREC_ROUNDTRIP
360
4F8
  0
DICTIONARY
  5
4DB
330
2B
100
AcDbDictionary
280
     1
281
     1
  3
ACAD_XREC_ROUNDTRIP
360
4DC
  0
DICTIONARY
  5
4DD
330
2C
100
AcDbDictionary
280
     1
281
     1
  3
ACAD_XREC_ROUNDTRIP
360
4DE
  0
DICTIONARY
  5
4DF
330
2D
100
AcDbDictionary
280
     1
281
     1
  3
ACAD_XREC_ROUNDTRIP
360
4E0
  0
DICTIONARY
  5
4E1
330
2E
100
AcDbDictionary
280
     1
281
     1
  3
ACAD_XREC_ROUNDTRIP
360
4E2
  0
DICTIONARY
  5
4E7
330
31
100
AcDbDictionary
280
     1
281
     1
  3
ACAD_XREC_ROUNDTRIP
360
4E8
  0
DICTIONARY
  5
4FB
330
3B
100
AcDbDictionary
280
     1
281
     1
  3
ACAD_XREC_ROUNDTRIP
360
4FC
  0
DICTIONARY
  5
4F5
330
38
100
AcDbDictionary
280
     1
281
     1
  3
ACAD_XREC_ROUNDTRIP
360
4F6
  0
DICTIONARY
  5
4FD
330
3C
100
AcDbDictionary
280
     1
281
     1
  3
ACAD_XREC_ROUNDTRIP
360
4FE
  0
DICTIONARY
  5
4EB
330
33
100
AcDbDictionary
280
     1
281
     1
  3
ACAD_XREC_ROUNDTRIP
360
4EC
  0
DICTIONARY
  5
509
330
42
100
AcDbDictionary
280
     1
281
     1
  3
ACAD_XREC_ROUNDTRIP
360
50A
  0
DICTIONARY
  5
507
330
41
100
AcDbDictionary
280
     1
281
     1
  3
ACAD_XREC_ROUNDTRIP
360
508
  0
DICTIONARY
  5
501
330
3E
100
AcDbDictionary
280
     1
281
     1
  3
ACAD_XREC_ROUNDTRIP
360
502
  0
DICTIONARY
  5
503
330
3F
100
AcDbDictionary
280
     1
281
     1
  3
ACAD_XREC_ROUNDTRIP
360
504
  0
DICTIONARY
  5
4F3
330
37
100
AcDbDictionary
280
     1
281
     1
  3
ACAD_XREC_ROUNDTRIP
360
4F4
  0
DICTIONARY
  5
4E5
330
30
100
AcDbDictionary
280
     1
281
     1
  3
ACAD_XREC_ROUNDTRIP
360
4E6
  0
DICTIONARY
  5
505
330
40
100
AcDbDictionary
280
     1
281
     1
  3
ACAD_XREC_ROUNDTRIP
360
506
  0
XRECORD
  5
50E
102
{ACAD_REACTORS
330
50D
102
}
330
50D
100
AcDbXrecord
280
     1
102
MATERIAL
148
0.0
149
0.0
149
0.0
 93
        0
 94
      127
282
     0
 72
     1
 77
     1
171
     1
175
     1
179
     1
273
     0
  0
XRECORD
  5
50C
102
{ACAD_REACTORS
330
50B
102
}
330
50B
100
AcDbXrecord
280
     1
102
MATERIAL
148
0.0
149
0.0
149
0.0
 93
        0
 94
      127
282
     0
 72
     1
 77
     1
171
     1
175
     1
179
     1
273
     0
  0
XRECORD
  5
510
102
{ACAD_REACTORS
330
50F
102
}
330
50F
100
AcDbXrecord
280
     1
102
MATERIAL
148
0.0
149
0.0
149
0.0
 93
        0
 94
      127
282
     0
 72
     1
 77
     1
171
     1
175
     1
179
     1
273
     0
  0
XRECORD
  5
516
102
{ACAD_REACTORS
330
515
102
}
330
515
100
AcDbXrecord
280
     1
102
ACAD_ROUNDTRIP_2010_MLEADER_STYLE
  0
CELLSTYLEMAP
  5
513
102
{ACAD_REACTORS
330
511
102
}
330
511
100
AcDbCellStyleMap
 90
        3
300
CELLSTYLE
  1
TABLEFORMAT_BEGIN
 90
        5
170
     1
 91
        0
 92
    32768
 62
   257
 93
        1
300
CONTENTFORMAT
  1
CONTENTFORMAT_BEGIN
 90
        0
 91
        0
 92
        4
 93
        0
300

 40
0.0
140
1.0
 94
        5
 62
     0
340
11
144
0.25
309
CONTENTFORMAT_END
171
     1
301
MARGIN
  1
CELLMARGIN_BEGIN
 40
0.06
 40
0.06
 40
0.06
 40
0.06
 40
0.06
 40
0.06
309
CELLMARGIN_END
 94
        6
 95
        1
302
GRIDFORMAT
  1
GRIDFORMAT_BEGIN
 90
        0
 91
        1
 62
     0
 92
       -2
340
14
 93
        0
 40
0.045
309
GRIDFORMAT_END
 95
        2
302
GRIDFORMAT
  1
GRIDFORMAT_BEGIN
 90
        0
 91
        1
 62
     0
 92
       -2
340
14
 93
        0
 40
0.045
309
GRIDFORMAT_END
 95
        4
302
GRIDFORMAT
  1
GRIDFORMAT_BEGIN
 90
        0
 91
        1
 62
     0
 92
       -2
340
14
 93
        0
 40
0.045
309
GRIDFORMAT_END
 95
        8
302
GRIDFORMAT
  1
GRIDFORMAT_BEGIN
 90
        0
 91
        1
 62
     0
 92
       -2
340
14
 93
        0
 40
0.045
309
GRIDFORMAT_END
 95
       16
302
GRIDFORMAT
  1
GRIDFORMAT_BEGIN
 90
        0
 91
        1
 62
     0
 92
       -2
340
14
 93
        0
 40
0.045
309
GRIDFORMAT_END
 95
       32
302
GRIDFORMAT
  1
GRIDFORMAT_BEGIN
 90
        0
 91
        1
 62
     0
 92
       -2
340
14
 93
        0
 40
0.045
309
GRIDFORMAT_END
309
TABLEFORMAT_END
  1
CELLSTYLE_BEGIN
 90
        1
 91
        1
300
_TITLE
309
CELLSTYLE_END
300
CELLSTYLE
  1
TABLEFORMAT_BEGIN
 90
        5
170
     1
 91
        0
 92
        0
 62
   257
 93
        1
300
CONTENTFORMAT
  1
CONTENTFORMAT_BEGIN
 90
        0
 91
        0
 92
        4
 93
        0
300

 40
0.0
140
1.0
 94
        5
 62
     0
340
11
144
0.18
309
CONTENTFORMAT_END
171
     1
301
MARGIN
  1
CELLMARGIN_BEGIN
 40
0.06
 40
0.06
 40
0.06
 40
0.06
 40
0.06
 40
0.06
309
CELLMARGIN_END
 94
        6
 95
        1
302
GRIDFORMAT
  1
GRIDFORMAT_BEGIN
 90
        0
 91
        1
 62
     0
 92
       -2
340
14
 93
        0
 40
0.045
309
GRIDFORMAT_END
 95
        2
302
GRIDFORMAT
  1
GRIDFORMAT_BEGIN
 90
        0
 91
        1
 62
     0
 92
       -2
340
14
 93
        0
 40
0.045
309
GRIDFORMAT_END
 95
        4
302
GRIDFORMAT
  1
GRIDFORMAT_BEGIN
 90
        0
 91
        1
 62
     0
 92
       -2
340
14
 93
        0
 40
0.045
309
GRIDFORMAT_END
 95
        8
302
GRIDFORMAT
  1
GRIDFORMAT_BEGIN
 90
        0
 91
        1
 62
     0
 92
       -2
340
14
 93
        0
 40
0.045
309
GRIDFORMAT_END
 95
       16
302
GRIDFORMAT
  1
GRIDFORMAT_BEGIN
 90
        0
 91
        1
 62
     0
 92
       -2
340
14
 93
        0
 40
0.045
309
GRIDFORMAT_END
 95
       32
302
GRIDFORMAT
  1
GRIDFORMAT_BEGIN
 90
        0
 91
        1
 62
     0
 92
       -2
340
14
 93
        0
 40
0.045
309
GRIDFORMAT_END
309
TABLEFORMAT_END
  1
CELLSTYLE_BEGIN
 90
        2
 91
        1
300
_HEADER
309
CELLSTYLE_END
300
CELLSTYLE
  1
TABLEFORMAT_BEGIN
 90
        5
170
     1
 91
        0
 92
        0
 62
   257
 93
        1
300
CONTENTFORMAT
  1
CONTENTFORMAT_BEGIN
 90
        0
 91
        0
 92
        4
 93
        0
300

 40
0.0
140
1.0
 94
        2
 62
     0
340
11
144
0.18
309
CONTENTFORMAT_END
171
     1
301
MARGIN
  1
CELLMARGIN_BEGIN
 40
0.06
 40
0.06
 40
0.06
 40
0.06
 40
0.06
 40
0.06
309
CELLMARGIN_END
 94
        6
 95
        1
302
GRIDFORMAT
  1
GRIDFORMAT_BEGIN
 90
        0
 91
        1
 62
     0
 92
       -2
340
14
 93
        0
 40
0.045
309
GRIDFORMAT_END
 95
        2
302
GRIDFORMAT
  1
GRIDFORMAT_BEGIN
 90
        0
 91
        1
 62
     0
 92
       -2
340
14
 93
        0
 40
0.045
309
GRIDFORMAT_END
 95
        4
302
GRIDFORMAT
  1
GRIDFORMAT_BEGIN
 90
        0
 91
        1
 62
     0
 92
       -2
340
14
 93
        0
 40
0.045
309
GRIDFORMAT_END
 95
        8
302
GRIDFORMAT
  1
GRIDFORMAT_BEGIN
 90
        0
 91
        1
 62
     0
 92
       -2
340
14
 93
        0
 40
0.045
309
GRIDFORMAT_END
 95
       16
302
GRIDFORMAT
  1
GRIDFORMAT_BEGIN
 90
        0
 91
        1
 62
     0
 92
       -2
340
14
 93
        0
 40
0.045
309
GRIDFORMAT_END
 95
       32
302
GRIDFORMAT
  1
GRIDFORMAT_BEGIN
 90
        0
 91
        1
 62
     0
 92
       -2
340
14
 93
        0
 40
0.045
309
GRIDFORMAT_END
309
TABLEFORMAT_END
  1
CELLSTYLE_BEGIN
 90
        3
 91
        2
300
_DATA
309
CELLSTYLE_END
  0
XRECORD
  5
512
102
{ACAD_REACTORS
330
511
102
}
330
511
100
AcDbXrecord
280
     1
102
ACAD_ROUNDTRIP_PRE2007_TABLESTYLE
 90
        4
 91
        0
  1

 92
        4
 93
        0
  2

 94
        4
 95
        0
  3

  0
XRECORD
  5
4E4
102
{ACAD_REACTORS
330
4E3
102
}
330
4E3
100
AcDbXrecord
280
     1
102
RTVSPropertyOp0
 70
     1
102
RTVSPropertyOp1
 70
     1
102
RTVSPropertyOp2
 70
     1
102
RTVSPropertyOp3
 70
     1
102
RTVSPropertyOp4
 70
     1
102
RTVSPropertyOp5
 70
     1
102
RTVSPropertyOp6
 70
     1
102
RTVSPropertyOp7
 70
     1
102
RTVSPropertyOp8
 70
     1
102
RTVSPropertyOp9
 70
     1
102
RTVSPropertyOp10
 70
     1
102
RTVSPropertyOp11
 70
     1
102
RTVSPropertyOp12
 70
     1
102
RTVSPropertyOp13
 70
     1
102
RTVSPropertyOp14
 70
     1
102
RTVSPropertyOp15
 70
     1
102
RTVSPropertyOp16
 70
     1
102
RTVSPropertyOp17
 70
     1
102
RTVSPropertyOp18
 70
     1
102
RTVSPropertyOp19
 70
     1
102
RTVSPropertyOp20
 70
     1
102
RTVSPropertyOp21
 70
     1
102
RTVSPropertyOp22
 70
     1
102
RTVSPropertyOp23
 70
     1
102
RTVSPropertyOp24
 70
     1
102
RTVSPropertyOp25
 70
     1
102
RTVSPropertyOp26
 70
     1
102
RTVSPropertyOp27
 70
     1
102
RTVSPropertyOp28
 70
     1
102
RTVSPropertyOp29
 70
     1
102
RTVSPropertyOp30
 70
     1
102
RTVSPropertyOp31
 70
     1
102
RTVSPropertyOp32
 70
     1
102
RTVSPropertyOp33
 70
     1
102
RTVSPropertyOp34
 70
     1
102
RTVSPropertyOp35
 70
     1
102
RTVSPropertyOp36
 70
     1
102
RTVSPropertyOp37
 70
     1
102
RTVSPropertyOp38
 70
     1
102
RTVSPropertyOp39
 70
     1
102
RTVSPropertyOp40
 70
     1
102
RTVSPropertyOp41
 70
     1
102
RTVSPropertyOp42
 70
     1
102
RTVSPropertyOp43
 70
     1
102
RTVSPropertyOp44
 70
     1
102
RTVSPropertyOp45
 70
     1
102
RTVSPropertyOp46
 70
     1
102
RTVSPropertyOp47
 70
     1
102
RTVSPropertyOp48
 70
     1
102
RTVSPropertyOp49
 70
     1
102
RTVSPropertyOp50
 70
     1
102
RTVSPropertyOp51
 70
     0
102
RTVSPropertyOp52
 70
     0
102
RTVSPropertyOp53
 70
     1
102
RTVSPropertyOp54
 70
     1
102
RTVSPropertyOp55
 70
     1
102
RTVSPropertyOp56
 70
     1
102
RTVSPropertyOp57
 70
     1
102
RTVSPost2010Prop28
280
     1
102
RTVSPost2010PropOp28
 70
     1
102
RTVSPost2010Prop29
280
     1
102
RTVSPost2010PropOp29
 70
     1
102
RTVSPost2010Prop30
280
     0
102
RTVSPost2010PropOp30
 70
     1
102
RTVSPost2010Prop31
280
     0
102
RTVSPost2010PropOp31
 70
     1
102
RTVSPost2010Prop32
280
     0
102
RTVSPost2010PropOp32
 70
     1
102
RTVSPost2010Prop33
280
     0
102
RTVSPost2010PropOp33
 70
     1
102
RTVSPost2010Prop34
280
     0
102
RTVSPost2010PropOp34
 70
     1
102
RTVSPost2010Prop35
280
     0
102
RTVSPost2010PropOp35
 70
     1
102
RTVSPost2010Prop36
280
     0
102
RTVSPost2010PropOp36
 70
     1
102
RTVSPost2010Prop37
 90
       50
102
RTVSPost2010PropOp37
 70
     1
102
RTVSPost2010Prop38
140
0.0
102
RTVSPost2010PropOp38
 70
     1
102
RTVSPost2010Prop39
140
1.0
102
RTVSPost2010PropOp39
 70
     1
102
RTVSPost2010Prop40
 90
        0
102
RTVSPost2010PropOp40
 70
     1
102
RTVSPost2010Prop41ColorIndex
 90
       18
102
RTVSPost2010Prop41ColorRGB
 90
        0
102
RTVSPost2010PropOp41
 70
     1
102
RTVSPost2010Prop42
 90
       50
102
RTVSPost2010PropOp42
 70
     1
102
RTVSPost2010Prop43
 90
        3
102
RTVSPost2010PropOp43
 70
     1
102
RTVSPost2010Prop44ColorIndex
 90
        5
102
RTVSPost2010Prop44ColorRGB
 90
      255
102
RTVSPost2010PropOp44
 70
     1
102
RTVSPost2010Prop45
280
     0
102
RTVSPost2010PropOp45
 70
     1
102
RTVSPost2010Prop46
 90
       50
102
RTVSPost2010PropOp46
 70
     1
102
RTVSPost2010Prop47
 90
       50
102
RTVSPost2010PropOp47
 70
     1
102
RTVSPost2010Prop48
 90
       50
102
RTVSPost2010PropOp48
 70
     1
102
RTVSPost2010Prop49
280
     0
102
RTVSPost2010PropOp49
 70
     1
102
RTVSPost2010Prop50
 90
       50
102
RTVSPost2010PropOp50
 70
     1
102
RTVSPost2010Prop51ColorIndex
 90
      256
102
RTVSPost2010Prop51ColorRGB
 90
-16777216
102
RTVSPost2010PropOp51
 70
     0
102
RTVSPost2010Prop52
140
1.0
102
RTVSPost2010PropOp52
 70
     0
102
RTVSPost2010Prop53
 90
        2
102
RTVSPost2010PropOp53
 70
     1
102
RTVSPost2010Prop54
  1
strokes_ogs.tif
102
RTVSPost2010PropOp54
 70
     1
102
RTVSPost2010Prop55
280
     0
102
RTVSPost2010PropOp55
 70
     1
102
RTVSPost2010Prop56
140
1.0
102
RTVSPost2010PropOp56
 70
     1
102
RTVSPost2010Prop57
140
1.0
102
RTVSPost2010PropOp57
 70
     1
  0
XRECORD
  5
4EA
102
{ACAD_REACTORS
330
4E9
102
}
330
4E9
100
AcDbXrecord
280
     1
102
RTVSPropertyOp0
 70
     1
102
RTVSPropertyOp1
 70
     1
102
RTVSPropertyOp2
 70
     1
102
RTVSPropertyOp3
 70
     1
102
RTVSPropertyOp4
 70
     1
102
RTVSPropertyOp5
 70
     1
102
RTVSPropertyOp6
 70
     1
102
RTVSPropertyOp7
 70
     1
102
RTVSPropertyOp8
 70
     1
102
RTVSPropertyOp9
 70
     1
102
RTVSPropertyOp10
 70
     1
102
RTVSPropertyOp11
 70
     1
102
RTVSPropertyOp12
 70
     1
102
RTVSPropertyOp13
 70
     1
102
RTVSPropertyOp14
 70
     1
102
RTVSPropertyOp15
 70
     1
102
RTVSPropertyOp16
 70
     1
102
RTVSPropertyOp17
 70
     1
102
RTVSPropertyOp18
 70
     1
102
RTVSPropertyOp19
 70
     1
102
RTVSPropertyOp20
 70
     1
102
RTVSPropertyOp21
 70
     1
102
RTVSPropertyOp22
 70
     1
102
RTVSPropertyOp23
 70
     1
102
RTVSPropertyOp24
 70
     1
102
RTVSPropertyOp25
 70
     1
102
RTVSPropertyOp26
 70
     1
102
RTVSPropertyOp27
 70
     1
102
RTVSPropertyOp28
 70
     1
102
RTVSPropertyOp29
 70
     1
102
RTVSPropertyOp30
 70
     1
102
RTVSPropertyOp31
 70
     1
102
RTVSPropertyOp32
 70
     1
102
RTVSPropertyOp33
 70
     1
102
RTVSPropertyOp34
 70
     1
102
RTVSPropertyOp35
 70
     1
102
RTVSPropertyOp36
 70
     1
102
RTVSPropertyOp37
 70
     1
102
RTVSPropertyOp38
 70
     1
102
RTVSPropertyOp39
 70
     1
102
RTVSPropertyOp40
 70
     1
102
RTVSPropertyOp41
 70
     1
102
RTVSPropertyOp42
 70
     1
102
RTVSPropertyOp43
 70
     1
102
RTVSPropertyOp44
 70
     1
102
RTVSPropertyOp45
 70
     1
102
RTVSPropertyOp46
 70
     1
102
RTVSPropertyOp47
 70
     1
102
RTVSPropertyOp48
 70
     1
102
RTVSPropertyOp49
 70
     1
102
RTVSPropertyOp50
 70
     1
102
RTVSPropertyOp51
 70
     0
102
RTVSPropertyOp52
 70
     0
102
RTVSPropertyOp53
 70
     1
102
RTVSPropertyOp54
 70
     1
102
RTVSPropertyOp55
 70
     1
102
RTVSPropertyOp56
 70
     1
102
RTVSPropertyOp57
 70
     1
102
RTVSPost2010Prop28
280
     0
102
RTVSPost2010PropOp28
 70
     1
102
RTVSPost2010Prop29
280
     1
102
RTVSPost2010PropOp29
 70
     1
102
RTVSPost2010Prop30
280
     1
102
RTVSPost2010PropOp30
 70
     1
102
RTVSPost2010Prop31
280
     0
102
RTVSPost2010PropOp31
 70
     1
102
RTVSPost2010Prop32
280
     0
102
RTVSPost2010PropOp32
 70
     1
102
RTVSPost2010Prop33
280
     0
102
RTVSPost2010PropOp33
 70
     1
102
RTVSPost2010Prop34
280
     0
102
RTVSPost2010PropOp34
 70
     1
102
RTVSPost2010Prop35
280
     0
102
RTVSPost2010PropOp35
 70
     1
102
RTVSPost2010Prop36
280
     0
102
RTVSPost2010PropOp36
 70
     1
102
RTVSPost2010Prop37
 90
       50
102
RTVSPost2010PropOp37
 70
     1
102
RTVSPost2010Prop38
140
0.0
102
RTVSPost2010PropOp38
 70
     1
102
RTVSPost2010Prop39
140
1.0
102
RTVSPost2010PropOp39
 70
     1
102
RTVSPost2010Prop40
 90
        0
102
RTVSPost2010PropOp40
 70
     1
102
RTVSPost2010Prop41ColorIndex
 90
       18
102
RTVSPost2010Prop41ColorRGB
 90
        0
102
RTVSPost2010PropOp41
 70
     1
102
RTVSPost2010Prop42
 90
       50
102
RTVSPost2010PropOp42
 70
     1
102
RTVSPost2010Prop43
 90
        3
102
RTVSPost2010PropOp43
 70
     1
102
RTVSPost2010Prop44ColorIndex
 90
        5
102
RTVSPost2010Prop44ColorRGB
 90
      255
102
RTVSPost2010PropOp44
 70
     1
102
RTVSPost2010Prop45
280
     0
102
RTVSPost2010PropOp45
 70
     1
102
RTVSPost2010Prop46
 90
       50
102
RTVSPost2010PropOp46
 70
     1
102
RTVSPost2010Prop47
 90
       50
102
RTVSPost2010PropOp47
 70
     1
102
RTVSPost2010Prop48
 90
       50
102
RTVSPost2010PropOp48
 70
     1
102
RTVSPost2010Prop49
280
     0
102
RTVSPost2010PropOp49
 70
     1
102
RTVSPost2010Prop50
 90
       50
102
RTVSPost2010PropOp50
 70
     1
102
RTVSPost2010Prop51ColorIndex
 90
      256
102
RTVSPost2010Prop51ColorRGB
 90
-16777216
102
RTVSPost2010PropOp51
 70
     0
102
RTVSPost2010Prop52
140
1.0
102
RTVSPost2010PropOp52
 70
     0
102
RTVSPost2010Prop53
 90
        2
102
RTVSPost2010PropOp53
 70
     1
102
RTVSPost2010Prop54
  1
strokes_ogs.tif
102
RTVSPost2010PropOp54
 70
     1
102
RTVSPost2010Prop55
280
     0
102
RTVSPost2010PropOp55
 70
     1
102
RTVSPost2010Prop56
140
1.0
102
RTVSPost2010PropOp56
 70
     1
102
RTVSPost2010Prop57
140
1.0
102
RTVSPost2010PropOp57
 70
     1
  0
XRECORD
  5
4F2
102
{ACAD_REACTORS
330
4F1
102
}
330
4F1
100
AcDbXrecord
280
     1
102
RTVSPropertyOp0
 70
     1
102
RTVSPropertyOp1
 70
     1
102
RTVSPropertyOp2
 70
     1
102
RTVSPropertyOp3
 70
     1
102
RTVSPropertyOp4
 70
     1
102
RTVSPropertyOp5
 70
     1
102
RTVSPropertyOp6
 70
     1
102
RTVSPropertyOp7
 70
     1
102
RTVSPropertyOp8
 70
     1
102
RTVSPropertyOp9
 70
     1
102
RTVSPropertyOp10
 70
     1
102
RTVSPropertyOp11
 70
     1
102
RTVSPropertyOp12
 70
     1
102
RTVSPropertyOp13
 70
     1
102
RTVSPropertyOp14
 70
     1
102
RTVSPropertyOp15
 70
     1
102
RTVSPropertyOp16
 70
     1
102
RTVSPropertyOp17
 70
     1
102
RTVSPropertyOp18
 70
     1
102
RTVSPropertyOp19
 70
     1
102
RTVSPropertyOp20
 70
     1
102
RTVSPropertyOp21
 70
     1
102
RTVSPropertyOp22
 70
     1
102
RTVSPropertyOp23
 70
     1
102
RTVSPropertyOp24
 70
     1
102
RTVSPropertyOp25
 70
     1
102
RTVSPropertyOp26
 70
     1
102
RTVSPropertyOp27
 70
     1
102
RTVSPropertyOp28
 70
     1
102
RTVSPropertyOp29
 70
     1
102
RTVSPropertyOp30
 70
     1
102
RTVSPropertyOp31
 70
     1
102
RTVSPropertyOp32
 70
     1
102
RTVSPropertyOp33
 70
     1
102
RTVSPropertyOp34
 70
     1
102
RTVSPropertyOp35
 70
     1
102
RTVSPropertyOp36
 70
     1
102
RTVSPropertyOp37
 70
     1
102
RTVSPropertyOp38
 70
     1
102
RTVSPropertyOp39
 70
     1
102
RTVSPropertyOp40
 70
     1
102
RTVSPropertyOp41
 70
     1
102
RTVSPropertyOp42
 70
     1
102
RTVSPropertyOp43
 70
     1
102
RTVSPropertyOp44
 70
     1
102
RTVSPropertyOp45
 70
     1
102
RTVSPropertyOp46
 70
     1
102
RTVSPropertyOp47
 70
     1
102
RTVSPropertyOp48
 70
     1
102
RTVSPropertyOp49
 70
     1
102
RTVSPropertyOp50
 70
     1
102
RTVSPropertyOp51
 70
     0
102
RTVSPropertyOp52
 70
     0
102
RTVSPropertyOp53
 70
     1
102
RTVSPropertyOp54
 70
     1
102
RTVSPropertyOp55
 70
     1
102
RTVSPropertyOp56
 70
     1
102
RTVSPropertyOp57
 70
     1
102
RTVSPost2010Prop28
280
     0
102
RTVSPost2010PropOp28
 70
     1
102
RTVSPost2010Prop29
280
     1
102
RTVSPost2010PropOp29
 70
     1
102
RTVSPost2010Prop30
280
     1
102
RTVSPost2010PropOp30
 70
     1
102
RTVSPost2010Prop31
280
     0
102
RTVSPost2010PropOp31
 70
     1
102
RTVSPost2010Prop32
280
     0
102
RTVSPost2010PropOp32
 70
     1
102
RTVSPost2010Prop33
280
     0
102
RTVSPost2010PropOp33
 70
     1
102
RTVSPost2010Prop34
280
     0
102
RTVSPost2010PropOp34
 70
     1
102
RTVSPost2010Prop35
280
     0
102
RTVSPost2010PropOp35
 70
     1
102
RTVSPost2010Prop36
280
     0
102
RTVSPost2010PropOp36
 70
     1
102
RTVSPost2010Prop37
 90
       50
102
RTVSPost2010PropOp37
 70
     1
102
RTVSPost2010Prop38
140
0.0
102
RTVSPost2010PropOp38
 70
     1
102
RTVSPost2010Prop39
140
1.0
102
RTVSPost2010PropOp39
 70
     1
102
RTVSPost2010Prop40
 90
        0
102
RTVSPost2010PropOp40
 70
     1
102
RTVSPost2010Prop41ColorIndex
 90
       18
102
RTVSPost2010Prop41ColorRGB
 90
        0
102
RTVSPost2010PropOp41
 70
     1
102
RTVSPost2010Prop42
 90
       50
102
RTVSPost2010PropOp42
 70
     1
102
RTVSPost2010Prop43
 90
        3
102
RTVSPost2010PropOp43
 70
     1
102
RTVSPost2010Prop44ColorIndex
 90
        5
102
RTVSPost2010Prop44ColorRGB
 90
      255
102
RTVSPost2010PropOp44
 70
     1
102
RTVSPost2010Prop45
280
     0
102
RTVSPost2010PropOp45
 70
     1
102
RTVSPost2010Prop46
 90
       50
102
RTVSPost2010PropOp46
 70
     1
102
RTVSPost2010Prop47
 90
       50
102
RTVSPost2010PropOp47
 70
     1
102
RTVSPost2010Prop48
 90
       50
102
RTVSPost2010PropOp48
 70
     1
102
RTVSPost2010Prop49
280
     0
102
RTVSPost2010PropOp49
 70
     1
102
RTVSPost2010Prop50
 90
       50
102
RTVSPost2010PropOp50
 70
     1
102
RTVSPost2010Prop51ColorIndex
 90
      256
102
RTVSPost2010Prop51ColorRGB
 90
-16777216
102
RTVSPost2010PropOp51
 70
     0
102
RTVSPost2010Prop52
140
1.0
102
RTVSPost2010PropOp52
 70
     0
102
RTVSPost2010Prop53
 90
        2
102
RTVSPost2010PropOp53
 70
     1
102
RTVSPost2010Prop54
  1
strokes_ogs.tif
102
RTVSPost2010PropOp54
 70
     1
102
RTVSPost2010Prop55
280
     0
102
RTVSPost2010PropOp55
 70
     1
102
RTVSPost2010Prop56
140
1.0
102
RTVSPost2010PropOp56
 70
     1
102
RTVSPost2010Prop57
140
1.0
102
RTVSPost2010PropOp57
 70
     1
  0
XRECORD
  5
4FA
102
{ACAD_REACTORS
330
4F9
102
}
330
4F9
100
AcDbXrecord
280
     1
102
RTVSPropertyOp0
 70
     1
102
RTVSPropertyOp1
 70
     1
102
RTVSPropertyOp2
 70
     1
102
RTVSPropertyOp3
 70
     1
102
RTVSPropertyOp4
 70
     1
102
RTVSPropertyOp5
 70
     1
102
RTVSPropertyOp6
 70
     1
102
RTVSPropertyOp7
 70
     1
102
RTVSPropertyOp8
 70
     1
102
RTVSPropertyOp9
 70
     1
102
RTVSPropertyOp10
 70
     1
102
RTVSPropertyOp11
 70
     1
102
RTVSPropertyOp12
 70
     1
102
RTVSPropertyOp13
 70
     1
102
RTVSPropertyOp14
 70
     1
102
RTVSPropertyOp15
 70
     1
102
RTVSPropertyOp16
 70
     1
102
RTVSPropertyOp17
 70
     1
102
RTVSPropertyOp18
 70
     1
102
RTVSPropertyOp19
 70
     1
102
RTVSPropertyOp20
 70
     1
102
RTVSPropertyOp21
 70
     1
102
RTVSPropertyOp22
 70
     1
102
RTVSPropertyOp23
 70
     1
102
RTVSPropertyOp24
 70
     1
102
RTVSPropertyOp25
 70
     1
102
RTVSPropertyOp26
 70
     1
102
RTVSPropertyOp27
 70
     1
102
RTVSPropertyOp28
 70
     1
102
RTVSPropertyOp29
 70
     1
102
RTVSPropertyOp30
 70
     1
102
RTVSPropertyOp31
 70
     1
102
RTVSPropertyOp32
 70
     1
102
RTVSPropertyOp33
 70
     1
102
RTVSPropertyOp34
 70
     1
102
RTVSPropertyOp35
 70
     1
102
RTVSPropertyOp36
 70
     1
102
RTVSPropertyOp37
 70
     1
102
RTVSPropertyOp38
 70
     1
102
RTVSPropertyOp39
 70
     1
102
RTVSPropertyOp40
 70
     1
102
RTVSPropertyOp41
 70
     1
102
RTVSPropertyOp42
 70
     1
102
RTVSPropertyOp43
 70
     1
102
RTVSPropertyOp44
 70
     1
102
RTVSPropertyOp45
 70
     1
102
RTVSPropertyOp46
 70
     1
102
RTVSPropertyOp47
 70
     1
102
RTVSPropertyOp48
 70
     1
102
RTVSPropertyOp49
 70
     1
102
RTVSPropertyOp50
 70
     1
102
RTVSPropertyOp51
 70
     0
102
RTVSPropertyOp52
 70
     0
102
RTVSPropertyOp53
 70
     1
102
RTVSPropertyOp54
 70
     1
102
RTVSPropertyOp55
 70
     1
102
RTVSPropertyOp56
 70
     1
102
RTVSPropertyOp57
 70
     1
102
RTVSPost2010Prop28
280
     0
102
RTVSPost2010PropOp28
 70
     1
102
RTVSPost2010Prop29
280
     1
102
RTVSPost2010PropOp29
 70
     1
102
RTVSPost2010Prop30
280
     1
102
RTVSPost2010PropOp30
 70
     1
102
RTVSPost2010Prop31
280
     0
102
RTVSPost2010PropOp31
 70
     1
102
RTVSPost2010Prop32
280
     0
102
RTVSPost2010PropOp32
 70
     1
102
RTVSPost2010Prop33
280
     0
102
RTVSPost2010PropOp33
 70
     1
102
RTVSPost2010Prop34
280
     0
102
RTVSPost2010PropOp34
 70
     1
102
RTVSPost2010Prop35
280
     0
102
RTVSPost2010PropOp35
 70
     1
102
RTVSPost2010Prop36
280
     0
102
RTVSPost2010PropOp36
 70
     1
102
RTVSPost2010Prop37
 90
       50
102
RTVSPost2010PropOp37
 70
     1
102
RTVSPost2010Prop38
140
0.0
102
RTVSPost2010PropOp38
 70
     1
102
RTVSPost2010Prop39
140
1.0
102
RTVSPost2010PropOp39
 70
     1
102
RTVSPost2010Prop40
 90
        0
102
RTVSPost2010PropOp40
 70
     1
102
RTVSPost2010Prop41ColorIndex
 90
       18
102
RTVSPost2010Prop41ColorRGB
 90
        0
102
RTVSPost2010PropOp41
 70
     1
102
RTVSPost2010Prop42
 90
       50
102
RTVSPost2010PropOp42
 70
     1
102
RTVSPost2010Prop43
 90
        3
102
RTVSPost2010PropOp43
 70
     1
102
RTVSPost2010Prop44ColorIndex
 90
        5
102
RTVSPost2010Prop44ColorRGB
 90
      255
102
RTVSPost2010PropOp44
 70
     1
102
RTVSPost2010Prop45
280
     0
102
RTVSPost2010PropOp45
 70
     1
102
RTVSPost2010Prop46
 90
       50
102
RTVSPost2010PropOp46
 70
     1
102
RTVSPost2010Prop47
 90
       50
102
RTVSPost2010PropOp47
 70
     1
102
RTVSPost2010Prop48
 90
       50
102
RTVSPost2010PropOp48
 70
     1
102
RTVSPost2010Prop49
280
     0
102
RTVSPost2010PropOp49
 70
     1
102
RTVSPost2010Prop50
 90
       50
102
RTVSPost2010PropOp50
 70
     1
102
RTVSPost2010Prop51ColorIndex
 90
      256
102
RTVSPost2010Prop51ColorRGB
 90
-16777216
102
RTVSPost2010PropOp51
 70
     0
102
RTVSPost2010Prop52
140
1.0
102
RTVSPost2010PropOp52
 70
     0
102
RTVSPost2010Prop53
 90
        2
102
RTVSPost2010PropOp53
 70
     1
102
RTVSPost2010Prop54
  1
strokes_ogs.tif
102
RTVSPost2010PropOp54
 70
     1
102
RTVSPost2010Prop55
280
     0
102
RTVSPost2010PropOp55
 70
     1
102
RTVSPost2010Prop56
140
1.0
102
RTVSPost2010PropOp56
 70
     1
102
RTVSPost2010Prop57
140
1.0
102
RTVSPost2010PropOp57
 70
     1
  0
XRECORD
  5
4EE
102
{ACAD_REACTORS
330
4ED
102
}
330
4ED
100
AcDbXrecord
280
     1
102
RTVSPropertyOp0
 70
     1
102
RTVSPropertyOp1
 70
     1
102
RTVSPropertyOp2
 70
     1
102
RTVSPropertyOp3
 70
     1
102
RTVSPropertyOp4
 70
     1
102
RTVSPropertyOp5
 70
     1
102
RTVSPropertyOp6
 70
     1
102
RTVSPropertyOp7
 70
     1
102
RTVSPropertyOp8
 70
     1
102
RTVSPropertyOp9
 70
     1
102
RTVSPropertyOp10
 70
     1
102
RTVSPropertyOp11
 70
     1
102
RTVSPropertyOp12
 70
     1
102
RTVSPropertyOp13
 70
     1
102
RTVSPropertyOp14
 70
     1
102
RTVSPropertyOp15
 70
     1
102
RTVSPropertyOp16
 70
     1
102
RTVSPropertyOp17
 70
     1
102
RTVSPropertyOp18
 70
     1
102
RTVSPropertyOp19
 70
     1
102
RTVSPropertyOp20
 70
     1
102
RTVSPropertyOp21
 70
     1
102
RTVSPropertyOp22
 70
     1
102
RTVSPropertyOp23
 70
     1
102
RTVSPropertyOp24
 70
     1
102
RTVSPropertyOp25
 70
     1
102
RTVSPropertyOp26
 70
     1
102
RTVSPropertyOp27
 70
     1
102
RTVSPropertyOp28
 70
     1
102
RTVSPropertyOp29
 70
     1
102
RTVSPropertyOp30
 70
     1
102
RTVSPropertyOp31
 70
     1
102
RTVSPropertyOp32
 70
     1
102
RTVSPropertyOp33
 70
     1
102
RTVSPropertyOp34
 70
     1
102
RTVSPropertyOp35
 70
     1
102
RTVSPropertyOp36
 70
     1
102
RTVSPropertyOp37
 70
     1
102
RTVSPropertyOp38
 70
     1
102
RTVSPropertyOp39
 70
     1
102
RTVSPropertyOp40
 70
     1
102
RTVSPropertyOp41
 70
     1
102
RTVSPropertyOp42
 70
     1
102
RTVSPropertyOp43
 70
     1
102
RTVSPropertyOp44
 70
     1
102
RTVSPropertyOp45
 70
     1
102
RTVSPropertyOp46
 70
     1
102
RTVSPropertyOp47
 70
     1
102
RTVSPropertyOp48
 70
     1
102
RTVSPropertyOp49
 70
     1
102
RTVSPropertyOp50
 70
     1
102
RTVSPropertyOp51
 70
     0
102
RTVSPropertyOp52
 70
     0
102
RTVSPropertyOp53
 70
     1
102
RTVSPropertyOp54
 70
     1
102
RTVSPropertyOp55
 70
     1
102
RTVSPropertyOp56
 70
     1
102
RTVSPropertyOp57
 70
     1
102
RTVSPost2010Prop28
280
     0
102
RTVSPost2010PropOp28
 70
     1
102
RTVSPost2010Prop29
280
     1
102
RTVSPost2010PropOp29
 70
     1
102
RTVSPost2010Prop30
280
     1
102
RTVSPost2010PropOp30
 70
     1
102
RTVSPost2010Prop31
280
     0
102
RTVSPost2010PropOp31
 70
     1
102
RTVSPost2010Prop32
280
     0
102
RTVSPost2010PropOp32
 70
     1
102
RTVSPost2010Prop33
280
     0
102
RTVSPost2010PropOp33
 70
     1
102
RTVSPost2010Prop34
280
     0
102
RTVSPost2010PropOp34
 70
     1
102
RTVSPost2010Prop35
280
     0
102
RTVSPost2010PropOp35
 70
     1
102
RTVSPost2010Prop36
280
     0
102
RTVSPost2010PropOp36
 70
     1
102
RTVSPost2010Prop37
 90
       50
102
RTVSPost2010PropOp37
 70
     1
102
RTVSPost2010Prop38
140
0.0
102
RTVSPost2010PropOp38
 70
     1
102
RTVSPost2010Prop39
140
1.0
102
RTVSPost2010PropOp39
 70
     1
102
RTVSPost2010Prop40
 90
        0
102
RTVSPost2010PropOp40
 70
     1
102
RTVSPost2010Prop41ColorIndex
 90
       18
102
RTVSPost2010Prop41ColorRGB
 90
        0
102
RTVSPost2010PropOp41
 70
     1
102
RTVSPost2010Prop42
 90
       50
102
RTVSPost2010PropOp42
 70
     1
102
RTVSPost2010Prop43
 90
        3
102
RTVSPost2010PropOp43
 70
     1
102
RTVSPost2010Prop44ColorIndex
 90
        5
102
RTVSPost2010Prop44ColorRGB
 90
      255
102
RTVSPost2010PropOp44
 70
     1
102
RTVSPost2010Prop45
280
     0
102
RTVSPost2010PropOp45
 70
     1
102
RTVSPost2010Prop46
 90
       50
102
RTVSPost2010PropOp46
 70
     1
102
RTVSPost2010Prop47
 90
       50
102
RTVSPost2010PropOp47
 70
     1
102
RTVSPost2010Prop48
 90
       50
102
RTVSPost2010PropOp48
 70
     1
102
RTVSPost2010Prop49
280
     0
102
RTVSPost2010PropOp49
 70
     1
102
RTVSPost2010Prop50
 90
       50
102
RTVSPost2010PropOp50
 70
     1
102
RTVSPost2010Prop51ColorIndex
 90
      256
102
RTVSPost2010Prop51ColorRGB
 90
-16777216
102
RTVSPost2010PropOp51
 70
     0
102
RTVSPost2010Prop52
140
1.0
102
RTVSPost2010PropOp52
 70
     0
102
RTVSPost2010Prop53
 90
        2
102
RTVSPost2010PropOp53
 70
     1
102
RTVSPost2010Prop54
  1
strokes_ogs.tif
102
RTVSPost2010PropOp54
 70
     1
102
RTVSPost2010Prop55
280
     0
102
RTVSPost2010PropOp55
 70
     1
102
RTVSPost2010Prop56
140
1.0
102
RTVSPost2010PropOp56
 70
     1
102
RTVSPost2010Prop57
140
1.0
102
RTVSPost2010PropOp57
 70
     1
  0
XRECORD
  5
4F0
102
{ACAD_REACTORS
330
4EF
102
}
330
4EF
100
AcDbXrecord
280
     1
102
RTVSPropertyOp0
 70
     1
102
RTVSPropertyOp1
 70
     1
102
RTVSPropertyOp2
 70
     1
102
RTVSPropertyOp3
 70
     1
102
RTVSPropertyOp4
 70
     1
102
RTVSPropertyOp5
 70
     1
102
RTVSPropertyOp6
 70
     1
102
RTVSPropertyOp7
 70
     1
102
RTVSPropertyOp8
 70
     1
102
RTVSPropertyOp9
 70
     1
102
RTVSPropertyOp10
 70
     1
102
RTVSPropertyOp11
 70
     1
102
RTVSPropertyOp12
 70
     1
102
RTVSPropertyOp13
 70
     1
102
RTVSPropertyOp14
 70
     1
102
RTVSPropertyOp15
 70
     1
102
RTVSPropertyOp16
 70
     1
102
RTVSPropertyOp17
 70
     1
102
RTVSPropertyOp18
 70
     1
102
RTVSPropertyOp19
 70
     1
102
RTVSPropertyOp20
 70
     1
102
RTVSPropertyOp21
 70
     1
102
RTVSPropertyOp22
 70
     1
102
RTVSPropertyOp23
 70
     1
102
RTVSPropertyOp24
 70
     1
102
RTVSPropertyOp25
 70
     1
102
RTVSPropertyOp26
 70
     1
102
RTVSPropertyOp27
 70
     1
102
RTVSPropertyOp28
 70
     1
102
RTVSPropertyOp29
 70
     1
102
RTVSPropertyOp30
 70
     1
102
RTVSPropertyOp31
 70
     1
102
RTVSPropertyOp32
 70
     1
102
RTVSPropertyOp33
 70
     1
102
RTVSPropertyOp34
 70
     1
102
RTVSPropertyOp35
 70
     1
102
RTVSPropertyOp36
 70
     1
102
RTVSPropertyOp37
 70
     1
102
RTVSPropertyOp38
 70
     1
102
RTVSPropertyOp39
 70
     1
102
RTVSPropertyOp40
 70
     1
102
RTVSPropertyOp41
 70
     1
102
RTVSPropertyOp42
 70
     1
102
RTVSPropertyOp43
 70
     1
102
RTVSPropertyOp44
 70
     1
102
RTVSPropertyOp45
 70
     1
102
RTVSPropertyOp46
 70
     1
102
RTVSPropertyOp47
 70
     1
102
RTVSPropertyOp48
 70
     1
102
RTVSPropertyOp49
 70
     1
102
RTVSPropertyOp50
 70
     1
102
RTVSPropertyOp51
 70
     0
102
RTVSPropertyOp52
 70
     0
102
RTVSPropertyOp53
 70
     1
102
RTVSPropertyOp54
 70
     1
102
RTVSPropertyOp55
 70
     1
102
RTVSPropertyOp56
 70
     1
102
RTVSPropertyOp57
 70
     1
102
RTVSPost2010Prop28
280
     0
102
RTVSPost2010PropOp28
 70
     1
102
RTVSPost2010Prop29
280
     1
102
RTVSPost2010PropOp29
 70
     1
102
RTVSPost2010Prop30
280
     1
102
RTVSPost2010PropOp30
 70
     1
102
RTVSPost2010Prop31
280
     0
102
RTVSPost2010PropOp31
 70
     1
102
RTVSPost2010Prop32
280
     0
102
RTVSPost2010PropOp32
 70
     1
102
RTVSPost2010Prop33
280
     0
102
RTVSPost2010PropOp33
 70
     1
102
RTVSPost2010Prop34
280
     0
102
RTVSPost2010PropOp34
 70
     1
102
RTVSPost2010Prop35
280
     0
102
RTVSPost2010PropOp35
 70
     1
102
RTVSPost2010Prop36
280
     0
102
RTVSPost2010PropOp36
 70
     1
102
RTVSPost2010Prop37
 90
       50
102
RTVSPost2010PropOp37
 70
     1
102
RTVSPost2010Prop38
140
0.0
102
RTVSPost2010PropOp38
 70
     1
102
RTVSPost2010Prop39
140
1.0
102
RTVSPost2010PropOp39
 70
     1
102
RTVSPost2010Prop40
 90
        0
102
RTVSPost2010PropOp40
 70
     1
102
RTVSPost2010Prop41ColorIndex
 90
       18
102
RTVSPost2010Prop41ColorRGB
 90
        0
102
RTVSPost2010PropOp41
 70
     1
102
RTVSPost2010Prop42
 90
       50
102
RTVSPost2010PropOp42
 70
     1
102
RTVSPost2010Prop43
 90
        3
102
RTVSPost2010PropOp43
 70
     1
102
RTVSPost2010Prop44ColorIndex
 90
        5
102
RTVSPost2010Prop44ColorRGB
 90
      255
102
RTVSPost2010PropOp44
 70
     1
102
RTVSPost2010Prop45
280
     0
102
RTVSPost2010PropOp45
 70
     1
102
RTVSPost2010Prop46
 90
       50
102
RTVSPost2010PropOp46
 70
     1
102
RTVSPost2010Prop47
 90
       50
102
RTVSPost2010PropOp47
 70
     1
102
RTVSPost2010Prop48
 90
       50
102
RTVSPost2010PropOp48
 70
     1
102
RTVSPost2010Prop49
280
     0
102
RTVSPost2010PropOp49
 70
     1
102
RTVSPost2010Prop50
 90
       50
102
RTVSPost2010PropOp50
 70
     1
102
RTVSPost2010Prop51ColorIndex
 90
      256
102
RTVSPost2010Prop51ColorRGB
 90
-16777216
102
RTVSPost2010PropOp51
 70
     0
102
RTVSPost2010Prop52
140
1.0
102
RTVSPost2010PropOp52
 70
     0
102
RTVSPost2010Prop53
 90
        2
102
RTVSPost2010PropOp53
 70
     1
102
RTVSPost2010Prop54
  1
strokes_ogs.tif
102
RTVSPost2010PropOp54
 70
     1
102
RTVSPost2010Prop55
280
     0
102
RTVSPost2010PropOp55
 70
     1
102
RTVSPost2010Prop56
140
1.0
102
RTVSPost2010PropOp56
 70
     1
102
RTVSPost2010Prop57
140
1.0
102
RTVSPost2010PropOp57
 70
     1
  0
XRECORD
  5
500
102
{ACAD_REACTORS
330
4FF
102
}
330
4FF
100
AcDbXrecord
280
     1
102
RTVSPropertyOp0
 70
     0
102
RTVSPropertyOp1
 70
     0
102
RTVSPropertyOp2
 70
     0
102
RTVSPropertyOp3
 70
     0
102
RTVSPropertyOp4
 70
     0
102
RTVSPropertyOp5
 70
     0
102
RTVSPropertyOp6
 70
     0
102
RTVSPropertyOp7
 70
     0
102
RTVSPropertyOp8
 70
     0
102
RTVSPropertyOp9
 70
     0
102
RTVSPropertyOp10
 70
     0
102
RTVSPropertyOp11
 70
     0
102
RTVSPropertyOp12
 70
     0
102
RTVSPropertyOp13
 70
     0
102
RTVSPropertyOp14
 70
     2
102
RTVSPropertyOp15
 70
     0
102
RTVSPropertyOp16
 70
     0
102
RTVSPropertyOp17
 70
     0
102
RTVSPropertyOp18
 70
     0
102
RTVSPropertyOp19
 70
     0
102
RTVSPropertyOp20
 70
     0
102
RTVSPropertyOp21
 70
     0
102
RTVSPropertyOp22
 70
     0
102
RTVSPropertyOp23
 70
     0
102
RTVSPropertyOp24
 70
     0
102
RTVSPropertyOp25
 70
     0
102
RTVSPropertyOp26
 70
     0
102
RTVSPropertyOp27
 70
     0
102
RTVSPropertyOp28
 70
     0
102
RTVSPropertyOp29
 70
     0
102
RTVSPropertyOp30
 70
     0
102
RTVSPropertyOp31
 70
     0
102
RTVSPropertyOp32
 70
     0
102
RTVSPropertyOp33
 70
     0
102
RTVSPropertyOp34
 70
     0
102
RTVSPropertyOp35
 70
     0
102
RTVSPropertyOp36
 70
     0
102
RTVSPropertyOp37
 70
     0
102
RTVSPropertyOp38
 70
     0
102
RTVSPropertyOp39
 70
     0
102
RTVSPropertyOp40
 70
     0
102
RTVSPropertyOp41
 70
     0
102
RTVSPropertyOp42
 70
     0
102
RTVSPropertyOp43
 70
     0
102
RTVSPropertyOp44
 70
     0
102
RTVSPropertyOp45
 70
     0
102
RTVSPropertyOp46
 70
     0
102
RTVSPropertyOp47
 70
     0
102
RTVSPropertyOp48
 70
     0
102
RTVSPropertyOp49
 70
     0
102
RTVSPropertyOp50
 70
     0
102
RTVSPropertyOp51
 70
     0
102
RTVSPropertyOp52
 70
     0
102
RTVSPropertyOp53
 70
     0
102
RTVSPropertyOp54
 70
     0
102
RTVSPropertyOp55
 70
     0
102
RTVSPropertyOp56
 70
     0
102
RTVSPropertyOp57
 70
     0
102
RTVSPost2010Prop28
280
     0
102
RTVSPost2010PropOp28
 70
     0
102
RTVSPost2010Prop29
280
     1
102
RTVSPost2010PropOp29
 70
     0
102
RTVSPost2010Prop30
280
     1
102
RTVSPost2010PropOp30
 70
     0
102
RTVSPost2010Prop31
280
     0
102
RTVSPost2010PropOp31
 70
     0
102
RTVSPost2010Prop32
280
     0
102
RTVSPost2010PropOp32
 70
     0
102
RTVSPost2010Prop33
280
     0
102
RTVSPost2010PropOp33
 70
     0
102
RTVSPost2010Prop34
280
     0
102
RTVSPost2010PropOp34
 70
     0
102
RTVSPost2010Prop35
280
     0
102
RTVSPost2010PropOp35
 70
     0
102
RTVSPost2010Prop36
280
     0
102
RTVSPost2010PropOp36
 70
     0
102
RTVSPost2010Prop37
 90
       50
102
RTVSPost2010PropOp37
 70
     0
102
RTVSPost2010Prop38
140
0.0
102
RTVSPost2010PropOp38
 70
     0
102
RTVSPost2010Prop39
140
1.0
102
RTVSPost2010PropOp39
 70
     0
102
RTVSPost2010Prop40
 90
        0
102
RTVSPost2010PropOp40
 70
     0
102
RTVSPost2010Prop41ColorIndex
 90
       18
102
RTVSPost2010Prop41ColorRGB
 90
        0
102
RTVSPost2010PropOp41
 70
     0
102
RTVSPost2010Prop42
 90
       50
102
RTVSPost2010PropOp42
 70
     0
102
RTVSPost2010Prop43
 90
        3
102
RTVSPost2010PropOp43
 70
     0
102
RTVSPost2010Prop44ColorIndex
 90
        5
102
RTVSPost2010Prop44ColorRGB
 90
      255
102
RTVSPost2010PropOp44
 70
     0
102
RTVSPost2010Prop45
280
     0
102
RTVSPost2010PropOp45
 70
     0
102
RTVSPost2010Prop46
 90
       50
102
RTVSPost2010PropOp46
 70
     0
102
RTVSPost2010Prop47
 90
       50
102
RTVSPost2010PropOp47
 70
     0
102
RTVSPost2010Prop48
 90
       50
102
RTVSPost2010PropOp48
 70
     0
102
RTVSPost2010Prop49
280
     0
102
RTVSPost2010PropOp49
 70
     0
102
RTVSPost2010Prop50
 90
       50
102
RTVSPost2010PropOp50
 70
     0
102
RTVSPost2010Prop51ColorIndex
 90
      256
102
RTVSPost2010Prop51ColorRGB
 90
-16777216
102
RTVSPost2010PropOp51
 70
     0
102
RTVSPost2010Prop52
140
1.0
102
RTVSPost2010PropOp52
 70
     0
102
RTVSPost2010Prop53
 90
        2
102
RTVSPost2010PropOp53
 70
     0
102
RTVSPost2010Prop54
  1
strokes_ogs.tif
102
RTVSPost2010PropOp54
 70
     0
102
RTVSPost2010Prop55
280
     0
102
RTVSPost2010PropOp55
 70
     0
102
RTVSPost2010Prop56
140
1.0
102
RTVSPost2010PropOp56
 70
     0
102
RTVSPost2010Prop57
140
1.0
102
RTVSPost2010PropOp57
 70
     0
  0
XRECORD
  5
4F8
102
{ACAD_REACTORS
330
4F7
102
}
330
4F7
100
AcDbXrecord
280
     1
102
RTVSPropertyOp0
 70
     1
102
RTVSPropertyOp1
 70
     1
102
RTVSPropertyOp2
 70
     1
102
RTVSPropertyOp3
 70
     1
102
RTVSPropertyOp4
 70
     1
102
RTVSPropertyOp5
 70
     1
102
RTVSPropertyOp6
 70
     1
102
RTVSPropertyOp7
 70
     1
102
RTVSPropertyOp8
 70
     1
102
RTVSPropertyOp9
 70
     1
102
RTVSPropertyOp10
 70
     1
102
RTVSPropertyOp11
 70
     1
102
RTVSPropertyOp12
 70
     1
102
RTVSPropertyOp13
 70
     1
102
RTVSPropertyOp14
 70
     1
102
RTVSPropertyOp15
 70
     1
102
RTVSPropertyOp16
 70
     1
102
RTVSPropertyOp17
 70
     1
102
RTVSPropertyOp18
 70
     1
102
RTVSPropertyOp19
 70
     1
102
RTVSPropertyOp20
 70
     1
102
RTVSPropertyOp21
 70
     1
102
RTVSPropertyOp22
 70
     1
102
RTVSPropertyOp23
 70
     1
102
RTVSPropertyOp24
 70
     1
102
RTVSPropertyOp25
 70
     1
102
RTVSPropertyOp26
 70
     1
102
RTVSPropertyOp27
 70
     1
102
RTVSPropertyOp28
 70
     1
102
RTVSPropertyOp29
 70
     1
102
RTVSPropertyOp30
 70
     1
102
RTVSPropertyOp31
 70
     1
102
RTVSPropertyOp32
 70
     1
102
RTVSPropertyOp33
 70
     1
102
RTVSPropertyOp34
 70
     1
102
RTVSPropertyOp35
 70
     1
102
RTVSPropertyOp36
 70
     1
102
RTVSPropertyOp37
 70
     1
102
RTVSPropertyOp38
 70
     1
102
RTVSPropertyOp39
 70
     1
102
RTVSPropertyOp40
 70
     1
102
RTVSPropertyOp41
 70
     1
102
RTVSPropertyOp42
 70
     1
102
RTVSPropertyOp43
 70
     1
102
RTVSPropertyOp44
 70
     1
102
RTVSPropertyOp45
 70
     1
102
RTVSPropertyOp46
 70
     1
102
RTVSPropertyOp47
 70
     1
102
RTVSPropertyOp48
 70
     1
102
RTVSPropertyOp49
 70
     1
102
RTVSPropertyOp50
 70
     1
102
RTVSPropertyOp51
 70
     0
102
RTVSPropertyOp52
 70
     0
102
RTVSPropertyOp53
 70
     1
102
RTVSPropertyOp54
 70
     1
102
RTVSPropertyOp55
 70
     1
102
RTVSPropertyOp56
 70
     1
102
RTVSPropertyOp57
 70
     1
102
RTVSPost2010Prop28
280
     0
102
RTVSPost2010PropOp28
 70
     1
102
RTVSPost2010Prop29
280
     1
102
RTVSPost2010PropOp29
 70
     1
102
RTVSPost2010Prop30
280
     1
102
RTVSPost2010PropOp30
 70
     1
102
RTVSPost2010Prop31
280
     0
102
RTVSPost2010PropOp31
 70
     1
102
RTVSPost2010Prop32
280
     0
102
RTVSPost2010PropOp32
 70
     1
102
RTVSPost2010Prop33
280
     0
102
RTVSPost2010PropOp33
 70
     1
102
RTVSPost2010Prop34
280
     0
102
RTVSPost2010PropOp34
 70
     1
102
RTVSPost2010Prop35
280
     0
102
RTVSPost2010PropOp35
 70
     1
102
RTVSPost2010Prop36
280
     0
102
RTVSPost2010PropOp36
 70
     1
102
RTVSPost2010Prop37
 90
       50
102
RTVSPost2010PropOp37
 70
     1
102
RTVSPost2010Prop38
140
0.0
102
RTVSPost2010PropOp38
 70
     1
102
RTVSPost2010Prop39
140
1.0
102
RTVSPost2010PropOp39
 70
     1
102
RTVSPost2010Prop40
 90
        0
102
RTVSPost2010PropOp40
 70
     1
102
RTVSPost2010Prop41ColorIndex
 90
       18
102
RTVSPost2010Prop41ColorRGB
 90
        0
102
RTVSPost2010PropOp41
 70
     1
102
RTVSPost2010Prop42
 90
       50
102
RTVSPost2010PropOp42
 70
     1
102
RTVSPost2010Prop43
 90
        3
102
RTVSPost2010PropOp43
 70
     1
102
RTVSPost2010Prop44ColorIndex
 90
        5
102
RTVSPost2010Prop44ColorRGB
 90
      255
102
RTVSPost2010PropOp44
 70
     1
102
RTVSPost2010Prop45
280
     0
102
RTVSPost2010PropOp45
 70
     1
102
RTVSPost2010Prop46
 90
       50
102
RTVSPost2010PropOp46
 70
     1
102
RTVSPost2010Prop47
 90
       50
102
RTVSPost2010PropOp47
 70
     1
102
RTVSPost2010Prop48
 90
       50
102
RTVSPost2010PropOp48
 70
     1
102
RTVSPost2010Prop49
280
     0
102
RTVSPost2010PropOp49
 70
     1
102
RTVSPost2010Prop50
 90
       50
102
RTVSPost2010PropOp50
 70
     1
102
RTVSPost2010Prop51ColorIndex
 90
      256
102
RTVSPost2010Prop51ColorRGB
 90
-16777216
102
RTVSPost2010PropOp51
 70
     0
102
RTVSPost2010Prop52
140
1.0
102
RTVSPost2010PropOp52
 70
     0
102
RTVSPost2010Prop53
 90
        2
102
RTVSPost2010PropOp53
 70
     1
102
RTVSPost2010Prop54
  1
strokes_ogs.tif
102
RTVSPost2010PropOp54
 70
     1
102
RTVSPost2010Prop55
280
     0
102
RTVSPost2010PropOp55
 70
     1
102
RTVSPost2010Prop56
140
1.0
102
RTVSPost2010PropOp56
 70
     1
102
RTVSPost2010Prop57
140
1.0
102
RTVSPost2010PropOp57
 70
     1
  0
XRECORD
  5
4DC
102
{ACAD_REACTORS
330
4DB
102
}
330
4DB
100
AcDbXrecord
280
     1
102
RTVSPropertyOp0
 70
     1
102
RTVSPropertyOp1
 70
     1
102
RTVSPropertyOp2
 70
     1
102
RTVSPropertyOp3
 70
     1
102
RTVSPropertyOp4
 70
     1
102
RTVSPropertyOp5
 70
     1
102
RTVSPropertyOp6
 70
     1
102
RTVSPropertyOp7
 70
     1
102
RTVSPropertyOp8
 70
     1
102
RTVSPropertyOp9
 70
     1
102
RTVSPropertyOp10
 70
     1
102
RTVSPropertyOp11
 70
     1
102
RTVSPropertyOp12
 70
     1
102
RTVSPropertyOp13
 70
     1
102
RTVSPropertyOp14
 70
     1
102
RTVSPropertyOp15
 70
     1
102
RTVSPropertyOp16
 70
     1
102
RTVSPropertyOp17
 70
     1
102
RTVSPropertyOp18
 70
     1
102
RTVSPropertyOp19
 70
     1
102
RTVSPropertyOp20
 70
     1
102
RTVSPropertyOp21
 70
     1
102
RTVSPropertyOp22
 70
     1
102
RTVSPropertyOp23
 70
     1
102
RTVSPropertyOp24
 70
     1
102
RTVSPropertyOp25
 70
     1
102
RTVSPropertyOp26
 70
     1
102
RTVSPropertyOp27
 70
     1
102
RTVSPropertyOp28
 70
     1
102
RTVSPropertyOp29
 70
     1
102
RTVSPropertyOp30
 70
     1
102
RTVSPropertyOp31
 70
     1
102
RTVSPropertyOp32
 70
     1
102
RTVSPropertyOp33
 70
     1
102
RTVSPropertyOp34
 70
     1
102
RTVSPropertyOp35
 70
     1
102
RTVSPropertyOp36
 70
     1
102
RTVSPropertyOp37
 70
     1
102
RTVSPropertyOp38
 70
     1
102
RTVSPropertyOp39
 70
     1
102
RTVSPropertyOp40
 70
     1
102
RTVSPropertyOp41
 70
     1
102
RTVSPropertyOp42
 70
     1
102
RTVSPropertyOp43
 70
     1
102
RTVSPropertyOp44
 70
     1
102
RTVSPropertyOp45
 70
     1
102
RTVSPropertyOp46
 70
     1
102
RTVSPropertyOp47
 70
     1
102
RTVSPropertyOp48
 70
     1
102
RTVSPropertyOp49
 70
     1
102
RTVSPropertyOp50
 70
     1
102
RTVSPropertyOp51
 70
     0
102
RTVSPropertyOp52
 70
     0
102
RTVSPropertyOp53
 70
     1
102
RTVSPropertyOp54
 70
     1
102
RTVSPropertyOp55
 70
     1
102
RTVSPropertyOp56
 70
     1
102
RTVSPropertyOp57
 70
     1
102
RTVSPost2010Prop28
280
     0
102
RTVSPost2010PropOp28
 70
     1
102
RTVSPost2010Prop29
280
     1
102
RTVSPost2010PropOp29
 70
     1
102
RTVSPost2010Prop30
280
     1
102
RTVSPost2010PropOp30
 70
     1
102
RTVSPost2010Prop31
280
     0
102
RTVSPost2010PropOp31
 70
     1
102
RTVSPost2010Prop32
280
     0
102
RTVSPost2010PropOp32
 70
     1
102
RTVSPost2010Prop33
280
     0
102
RTVSPost2010PropOp33
 70
     1
102
RTVSPost2010Prop34
280
     0
102
RTVSPost2010PropOp34
 70
     1
102
RTVSPost2010Prop35
280
     0
102
RTVSPost2010PropOp35
 70
     1
102
RTVSPost2010Prop36
280
     0
102
RTVSPost2010PropOp36
 70
     1
102
RTVSPost2010Prop37
 90
       50
102
RTVSPost2010PropOp37
 70
     1
102
RTVSPost2010Prop38
140
0.0
102
RTVSPost2010PropOp38
 70
     1
102
RTVSPost2010Prop39
140
1.0
102
RTVSPost2010PropOp39
 70
     1
102
RTVSPost2010Prop40
 90
        0
102
RTVSPost2010PropOp40
 70
     1
102
RTVSPost2010Prop41ColorIndex
 90
       18
102
RTVSPost2010Prop41ColorRGB
 90
        0
102
RTVSPost2010PropOp41
 70
     1
102
RTVSPost2010Prop42
 90
       50
102
RTVSPost2010PropOp42
 70
     1
102
RTVSPost2010Prop43
 90
        3
102
RTVSPost2010PropOp43
 70
     1
102
RTVSPost2010Prop44ColorIndex
 90
        5
102
RTVSPost2010Prop44ColorRGB
 90
      255
102
RTVSPost2010PropOp44
 70
     1
102
RTVSPost2010Prop45
280
     0
102
RTVSPost2010PropOp45
 70
     1
102
RTVSPost2010Prop46
 90
       50
102
RTVSPost2010PropOp46
 70
     1
102
RTVSPost2010Prop47
 90
       50
102
RTVSPost2010PropOp47
 70
     1
102
RTVSPost2010Prop48
 90
       50
102
RTVSPost2010PropOp48
 70
     1
102
RTVSPost2010Prop49
280
     0
102
RTVSPost2010PropOp49
 70
     1
102
RTVSPost2010Prop50
 90
       50
102
RTVSPost2010PropOp50
 70
     1
102
RTVSPost2010Prop51ColorIndex
 90
      256
102
RTVSPost2010Prop51ColorRGB
 90
-16777216
102
RTVSPost2010PropOp51
 70
     0
102
RTVSPost2010Prop52
140
1.0
102
RTVSPost2010PropOp52
 70
     0
102
RTVSPost2010Prop53
 90
        2
102
RTVSPost2010PropOp53
 70
     1
102
RTVSPost2010Prop54
  1
strokes_ogs.tif
102
RTVSPost2010PropOp54
 70
     1
102
RTVSPost2010Prop55
280
     0
102
RTVSPost2010PropOp55
 70
     1
102
RTVSPost2010Prop56
140
1.0
102
RTVSPost2010PropOp56
 70
     1
102
RTVSPost2010Prop57
140
1.0
102
RTVSPost2010PropOp57
 70
     1
  0
XRECORD
  5
4DE
102
{ACAD_REACTORS
330
4DD
102
}
330
4DD
100
AcDbXrecord
280
     1
102
RTVSPropertyOp0
 70
     1
102
RTVSPropertyOp1
 70
     1
102
RTVSPropertyOp2
 70
     1
102
RTVSPropertyOp3
 70
     1
102
RTVSPropertyOp4
 70
     1
102
RTVSPropertyOp5
 70
     1
102
RTVSPropertyOp6
 70
     1
102
RTVSPropertyOp7
 70
     1
102
RTVSPropertyOp8
 70
     1
102
RTVSPropertyOp9
 70
     1
102
RTVSPropertyOp10
 70
     1
102
RTVSPropertyOp11
 70
     1
102
RTVSPropertyOp12
 70
     1
102
RTVSPropertyOp13
 70
     1
102
RTVSPropertyOp14
 70
     1
102
RTVSPropertyOp15
 70
     1
102
RTVSPropertyOp16
 70
     1
102
RTVSPropertyOp17
 70
     1
102
RTVSPropertyOp18
 70
     1
102
RTVSPropertyOp19
 70
     1
102
RTVSPropertyOp20
 70
     1
102
RTVSPropertyOp21
 70
     1
102
RTVSPropertyOp22
 70
     1
102
RTVSPropertyOp23
 70
     1
102
RTVSPropertyOp24
 70
     1
102
RTVSPropertyOp25
 70
     1
102
RTVSPropertyOp26
 70
     1
102
RTVSPropertyOp27
 70
     1
102
RTVSPropertyOp28
 70
     1
102
RTVSPropertyOp29
 70
     1
102
RTVSPropertyOp30
 70
     1
102
RTVSPropertyOp31
 70
     1
102
RTVSPropertyOp32
 70
     1
102
RTVSPropertyOp33
 70
     1
102
RTVSPropertyOp34
 70
     1
102
RTVSPropertyOp35
 70
     1
102
RTVSPropertyOp36
 70
     1
102
RTVSPropertyOp37
 70
     1
102
RTVSPropertyOp38
 70
     1
102
RTVSPropertyOp39
 70
     1
102
RTVSPropertyOp40
 70
     1
102
RTVSPropertyOp41
 70
     1
102
RTVSPropertyOp42
 70
     1
102
RTVSPropertyOp43
 70
     1
102
RTVSPropertyOp44
 70
     1
102
RTVSPropertyOp45
 70
     1
102
RTVSPropertyOp46
 70
     1
102
RTVSPropertyOp47
 70
     1
102
RTVSPropertyOp48
 70
     1
102
RTVSPropertyOp49
 70
     1
102
RTVSPropertyOp50
 70
     1
102
RTVSPropertyOp51
 70
     0
102
RTVSPropertyOp52
 70
     0
102
RTVSPropertyOp53
 70
     1
102
RTVSPropertyOp54
 70
     1
102
RTVSPropertyOp55
 70
     1
102
RTVSPropertyOp56
 70
     1
102
RTVSPropertyOp57
 70
     1
102
RTVSPost2010Prop28
280
     0
102
RTVSPost2010PropOp28
 70
     1
102
RTVSPost2010Prop29
280
     1
102
RTVSPost2010PropOp29
 70
     1
102
RTVSPost2010Prop30
280
     1
102
RTVSPost2010PropOp30
 70
     1
102
RTVSPost2010Prop31
280
     0
102
RTVSPost2010PropOp31
 70
     1
102
RTVSPost2010Prop32
280
     0
102
RTVSPost2010PropOp32
 70
     1
102
RTVSPost2010Prop33
280
     0
102
RTVSPost2010PropOp33
 70
     1
102
RTVSPost2010Prop34
280
     0
102
RTVSPost2010PropOp34
 70
     1
102
RTVSPost2010Prop35
280
     0
102
RTVSPost2010PropOp35
 70
     1
102
RTVSPost2010Prop36
280
     0
102
RTVSPost2010PropOp36
 70
     1
102
RTVSPost2010Prop37
 90
       50
102
RTVSPost2010PropOp37
 70
     1
102
RTVSPost2010Prop38
140
0.0
102
RTVSPost2010PropOp38
 70
     1
102
RTVSPost2010Prop39
140
1.0
102
RTVSPost2010PropOp39
 70
     1
102
RTVSPost2010Prop40
 90
        0
102
RTVSPost2010PropOp40
 70
     1
102
RTVSPost2010Prop41ColorIndex
 90
       18
102
RTVSPost2010Prop41ColorRGB
 90
        0
102
RTVSPost2010PropOp41
 70
     1
102
RTVSPost2010Prop42
 90
       50
102
RTVSPost2010PropOp42
 70
     1
102
RTVSPost2010Prop43
 90
        3
102
RTVSPost2010PropOp43
 70
     1
102
RTVSPost2010Prop44ColorIndex
 90
        5
102
RTVSPost2010Prop44ColorRGB
 90
      255
102
RTVSPost2010PropOp44
 70
     1
102
RTVSPost2010Prop45
280
     0
102
RTVSPost2010PropOp45
 70
     1
102
RTVSPost2010Prop46
 90
       50
102
RTVSPost2010PropOp46
 70
     1
102
RTVSPost2010Prop47
 90
       50
102
RTVSPost2010PropOp47
 70
     1
102
RTVSPost2010Prop48
 90
       50
102
RTVSPost2010PropOp48
 70
     1
102
RTVSPost2010Prop49
280
     0
102
RTVSPost2010PropOp49
 70
     1
102
RTVSPost2010Prop50
 90
       50
102
RTVSPost2010PropOp50
 70
     1
102
RTVSPost2010Prop51ColorIndex
 90
      256
102
RTVSPost2010Prop51ColorRGB
 90
-16777216
102
RTVSPost2010PropOp51
 70
     0
102
RTVSPost2010Prop52
140
1.0
102
RTVSPost2010PropOp52
 70
     0
102
RTVSPost2010Prop53
 90
        2
102
RTVSPost2010PropOp53
 70
     1
102
RTVSPost2010Prop54
  1
strokes_ogs.tif
102
RTVSPost2010PropOp54
 70
     1
102
RTVSPost2010Prop55
280
     0
102
RTVSPost2010PropOp55
 70
     1
102
RTVSPost2010Prop56
140
1.0
102
RTVSPost2010PropOp56
 70
     1
102
RTVSPost2010Prop57
140
1.0
102
RTVSPost2010PropOp57
 70
     1
  0
XRECORD
  5
4E0
102
{ACAD_REACTORS
330
4DF
102
}
330
4DF
100
AcDbXrecord
280
     1
102
RTVSPropertyOp0
 70
     1
102
RTVSPropertyOp1
 70
     1
102
RTVSPropertyOp2
 70
     1
102
RTVSPropertyOp3
 70
     1
102
RTVSPropertyOp4
 70
     1
102
RTVSPropertyOp5
 70
     1
102
RTVSPropertyOp6
 70
     1
102
RTVSPropertyOp7
 70
     1
102
RTVSPropertyOp8
 70
     1
102
RTVSPropertyOp9
 70
     1
102
RTVSPropertyOp10
 70
     1
102
RTVSPropertyOp11
 70
     1
102
RTVSPropertyOp12
 70
     1
102
RTVSPropertyOp13
 70
     1
102
RTVSPropertyOp14
 70
     1
102
RTVSPropertyOp15
 70
     1
102
RTVSPropertyOp16
 70
     1
102
RTVSPropertyOp17
 70
     1
102
RTVSPropertyOp18
 70
     1
102
RTVSPropertyOp19
 70
     1
102
RTVSPropertyOp20
 70
     1
102
RTVSPropertyOp21
 70
     1
102
RTVSPropertyOp22
 70
     1
102
RTVSPropertyOp23
 70
     1
102
RTVSPropertyOp24
 70
     1
102
RTVSPropertyOp25
 70
     1
102
RTVSPropertyOp26
 70
     1
102
RTVSPropertyOp27
 70
     1
102
RTVSPropertyOp28
 70
     1
102
RTVSPropertyOp29
 70
     1
102
RTVSPropertyOp30
 70
     1
102
RTVSPropertyOp31
 70
     1
102
RTVSPropertyOp32
 70
     1
102
RTVSPropertyOp33
 70
     1
102
RTVSPropertyOp34
 70
     1
102
RTVSPropertyOp35
 70
     1
102
RTVSPropertyOp36
 70
     1
102
RTVSPropertyOp37
 70
     1
102
RTVSPropertyOp38
 70
     1
102
RTVSPropertyOp39
 70
     1
102
RTVSPropertyOp40
 70
     1
102
RTVSPropertyOp41
 70
     1
102
RTVSPropertyOp42
 70
     1
102
RTVSPropertyOp43
 70
     1
102
RTVSPropertyOp44
 70
     1
102
RTVSPropertyOp45
 70
     1
102
RTVSPropertyOp46
 70
     1
102
RTVSPropertyOp47
 70
     1
102
RTVSPropertyOp48
 70
     1
102
RTVSPropertyOp49
 70
     1
102
RTVSPropertyOp50
 70
     1
102
RTVSPropertyOp51
 70
     0
102
RTVSPropertyOp52
 70
     0
102
RTVSPropertyOp53
 70
     1
102
RTVSPropertyOp54
 70
     1
102
RTVSPropertyOp55
 70
     1
102
RTVSPropertyOp56
 70
     1
102
RTVSPropertyOp57
 70
     1
102
RTVSPost2010Prop28
280
     0
102
RTVSPost2010PropOp28
 70
     1
102
RTVSPost2010Prop29
280
     1
102
RTVSPost2010PropOp29
 70
     1
102
RTVSPost2010Prop30
280
     1
102
RTVSPost2010PropOp30
 70
     1
102
RTVSPost2010Prop31
280
     0
102
RTVSPost2010PropOp31
 70
     1
102
RTVSPost2010Prop32
280
     0
102
RTVSPost2010PropOp32
 70
     1
102
RTVSPost2010Prop33
280
     0
102
RTVSPost2010PropOp33
 70
     1
102
RTVSPost2010Prop34
280
     0
102
RTVSPost2010PropOp34
 70
     1
102
RTVSPost2010Prop35
280
     0
102
RTVSPost2010PropOp35
 70
     1
102
RTVSPost2010Prop36
280
     0
102
RTVSPost2010PropOp36
 70
     1
102
RTVSPost2010Prop37
 90
       50
102
RTVSPost2010PropOp37
 70
     1
102
RTVSPost2010Prop38
140
0.0
102
RTVSPost2010PropOp38
 70
     1
102
RTVSPost2010Prop39
140
1.0
102
RTVSPost2010PropOp39
 70
     1
102
RTVSPost2010Prop40
 90
        0
102
RTVSPost2010PropOp40
 70
     1
102
RTVSPost2010Prop41ColorIndex
 90
       18
102
RTVSPost2010Prop41ColorRGB
 90
        0
102
RTVSPost2010PropOp41
 70
     1
102
RTVSPost2010Prop42
 90
       50
102
RTVSPost2010PropOp42
 70
     1
102
RTVSPost2010Prop43
 90
        3
102
RTVSPost2010PropOp43
 70
     1
102
RTVSPost2010Prop44ColorIndex
 90
        5
102
RTVSPost2010Prop44ColorRGB
 90
      255
102
RTVSPost2010PropOp44
 70
     1
102
RTVSPost2010Prop45
280
     0
102
RTVSPost2010PropOp45
 70
     1
102
RTVSPost2010Prop46
 90
       50
102
RTVSPost2010PropOp46
 70
     1
102
RTVSPost2010Prop47
 90
       50
102
RTVSPost2010PropOp47
 70
     1
102
RTVSPost2010Prop48
 90
       50
102
RTVSPost2010PropOp48
 70
     1
102
RTVSPost2010Prop49
280
     0
102
RTVSPost2010PropOp49
 70
     1
102
RTVSPost2010Prop50
 90
       50
102
RTVSPost2010PropOp50
 70
     1
102
RTVSPost2010Prop51ColorIndex
 90
      256
102
RTVSPost2010Prop51ColorRGB
 90
-16777216
102
RTVSPost2010PropOp51
 70
     0
102
RTVSPost2010Prop52
140
1.0
102
RTVSPost2010PropOp52
 70
     0
102
RTVSPost2010Prop53
 90
        2
102
RTVSPost2010PropOp53
 70
     1
102
RTVSPost2010Prop54
  1
strokes_ogs.tif
102
RTVSPost2010PropOp54
 70
     1
102
RTVSPost2010Prop55
280
     0
102
RTVSPost2010PropOp55
 70
     1
102
RTVSPost2010Prop56
140
1.0
102
RTVSPost2010PropOp56
 70
     1
102
RTVSPost2010Prop57
140
1.0
102
RTVSPost2010PropOp57
 70
     1
  0
XRECORD
  5
4E2
102
{ACAD_REACTORS
330
4E1
102
}
330
4E1
100
AcDbXrecord
280
     1
102
RTVSPropertyOp0
 70
     1
102
RTVSPropertyOp1
 70
     1
102
RTVSPropertyOp2
 70
     1
102
RTVSPropertyOp3
 70
     1
102
RTVSPropertyOp4
 70
     1
102
RTVSPropertyOp5
 70
     1
102
RTVSPropertyOp6
 70
     1
102
RTVSPropertyOp7
 70
     1
102
RTVSPropertyOp8
 70
     1
102
RTVSPropertyOp9
 70
     1
102
RTVSPropertyOp10
 70
     1
102
RTVSPropertyOp11
 70
     1
102
RTVSPropertyOp12
 70
     1
102
RTVSPropertyOp13
 70
     1
102
RTVSPropertyOp14
 70
     1
102
RTVSPropertyOp15
 70
     1
102
RTVSPropertyOp16
 70
     1
102
RTVSPropertyOp17
 70
     1
102
RTVSPropertyOp18
 70
     1
102
RTVSPropertyOp19
 70
     1
102
RTVSPropertyOp20
 70
     1
102
RTVSPropertyOp21
 70
     1
102
RTVSPropertyOp22
 70
     1
102
RTVSPropertyOp23
 70
     1
102
RTVSPropertyOp24
 70
     1
102
RTVSPropertyOp25
 70
     1
102
RTVSPropertyOp26
 70
     1
102
RTVSPropertyOp27
 70
     1
102
RTVSPropertyOp28
 70
     1
102
RTVSPropertyOp29
 70
     1
102
RTVSPropertyOp30
 70
     1
102
RTVSPropertyOp31
 70
     1
102
RTVSPropertyOp32
 70
     1
102
RTVSPropertyOp33
 70
     1
102
RTVSPropertyOp34
 70
     1
102
RTVSPropertyOp35
 70
     1
102
RTVSPropertyOp36
 70
     1
102
RTVSPropertyOp37
 70
     1
102
RTVSPropertyOp38
 70
     1
102
RTVSPropertyOp39
 70
     1
102
RTVSPropertyOp40
 70
     1
102
RTVSPropertyOp41
 70
     1
102
RTVSPropertyOp42
 70
     1
102
RTVSPropertyOp43
 70
     1
102
RTVSPropertyOp44
 70
     1
102
RTVSPropertyOp45
 70
     1
102
RTVSPropertyOp46
 70
     1
102
RTVSPropertyOp47
 70
     1
102
RTVSPropertyOp48
 70
     1
102
RTVSPropertyOp49
 70
     1
102
RTVSPropertyOp50
 70
     1
102
RTVSPropertyOp51
 70
     0
102
RTVSPropertyOp52
 70
     0
102
RTVSPropertyOp53
 70
     1
102
RTVSPropertyOp54
 70
     1
102
RTVSPropertyOp55
 70
     1
102
RTVSPropertyOp56
 70
     1
102
RTVSPropertyOp57
 70
     1
102
RTVSPost2010Prop28
280
     0
102
RTVSPost2010PropOp28
 70
     1
102
RTVSPost2010Prop29
280
     1
102
RTVSPost2010PropOp29
 70
     1
102
RTVSPost2010Prop30
280
     1
102
RTVSPost2010PropOp30
 70
     1
102
RTVSPost2010Prop31
280
     0
102
RTVSPost2010PropOp31
 70
     1
102
RTVSPost2010Prop32
280
     0
102
RTVSPost2010PropOp32
 70
     1
102
RTVSPost2010Prop33
280
     0
102
RTVSPost2010PropOp33
 70
     1
102
RTVSPost2010Prop34
280
     0
102
RTVSPost2010PropOp34
 70
     1
102
RTVSPost2010Prop35
280
     0
102
RTVSPost2010PropOp35
 70
     1
102
RTVSPost2010Prop36
280
     0
102
RTVSPost2010PropOp36
 70
     1
102
RTVSPost2010Prop37
 90
       50
102
RTVSPost2010PropOp37
 70
     1
102
RTVSPost2010Prop38
140
0.0
102
RTVSPost2010PropOp38
 70
     1
102
RTVSPost2010Prop39
140
1.0
102
RTVSPost2010PropOp39
 70
     1
102
RTVSPost2010Prop40
 90
        0
102
RTVSPost2010PropOp40
 70
     1
102
RTVSPost2010Prop41ColorIndex
 90
       18
102
RTVSPost2010Prop41ColorRGB
 90
        0
102
RTVSPost2010PropOp41
 70
     1
102
RTVSPost2010Prop42
 90
       50
102
RTVSPost2010PropOp42
 70
     1
102
RTVSPost2010Prop43
 90
        3
102
RTVSPost2010PropOp43
 70
     1
102
RTVSPost2010Prop44ColorIndex
 90
        5
102
RTVSPost2010Prop44ColorRGB
 90
      255
102
RTVSPost2010PropOp44
 70
     1
102
RTVSPost2010Prop45
280
     0
102
RTVSPost2010PropOp45
 70
     1
102
RTVSPost2010Prop46
 90
       50
102
RTVSPost2010PropOp46
 70
     1
102
RTVSPost2010Prop47
 90
       50
102
RTVSPost2010PropOp47
 70
     1
102
RTVSPost2010Prop48
 90
       50
102
RTVSPost2010PropOp48
 70
     1
102
RTVSPost2010Prop49
280
     0
102
RTVSPost2010PropOp49
 70
     1
102
RTVSPost2010Prop50
 90
       50
102
RTVSPost2010PropOp50
 70
     1
102
RTVSPost2010Prop51ColorIndex
 90
      256
102
RTVSPost2010Prop51ColorRGB
 90
-16777216
102
RTVSPost2010PropOp51
 70
     0
102
RTVSPost2010Prop52
140
1.0
102
RTVSPost2010PropOp52
 70
     0
102
RTVSPost2010Prop53
 90
        2
102
RTVSPost2010PropOp53
 70
     1
102
RTVSPost2010Prop54
  1
strokes_ogs.tif
102
RTVSPost2010PropOp54
 70
     1
102
RTVSPost2010Prop55
280
     0
102
RTVSPost2010PropOp55
 70
     1
102
RTVSPost2010Prop56
140
1.0
102
RTVSPost2010PropOp56
 70
     1
102
RTVSPost2010Prop57
140
1.0
102
RTVSPost2010PropOp57
 70
     1
  0
XRECORD
  5
4E8
102
{ACAD_REACTORS
330
4E7
102
}
330
4E7
100
AcDbXrecord
280
     1
102
RTVSPropertyOp0
 70
     1
102
RTVSPropertyOp1
 70
     1
102
RTVSPropertyOp2
 70
     1
102
RTVSPropertyOp3
 70
     1
102
RTVSPropertyOp4
 70
     1
102
RTVSPropertyOp5
 70
     1
102
RTVSPropertyOp6
 70
     1
102
RTVSPropertyOp7
 70
     1
102
RTVSPropertyOp8
 70
     1
102
RTVSPropertyOp9
 70
     1
102
RTVSPropertyOp10
 70
     1
102
RTVSPropertyOp11
 70
     1
102
RTVSPropertyOp12
 70
     1
102
RTVSPropertyOp13
 70
     1
102
RTVSPropertyOp14
 70
     1
102
RTVSPropertyOp15
 70
     1
102
RTVSPropertyOp16
 70
     1
102
RTVSPropertyOp17
 70
     1
102
RTVSPropertyOp18
 70
     1
102
RTVSPropertyOp19
 70
     1
102
RTVSPropertyOp20
 70
     1
102
RTVSPropertyOp21
 70
     1
102
RTVSPropertyOp22
 70
     1
102
RTVSPropertyOp23
 70
     1
102
RTVSPropertyOp24
 70
     1
102
RTVSPropertyOp25
 70
     1
102
RTVSPropertyOp26
 70
     1
102
RTVSPropertyOp27
 70
     1
102
RTVSPropertyOp28
 70
     1
102
RTVSPropertyOp29
 70
     1
102
RTVSPropertyOp30
 70
     1
102
RTVSPropertyOp31
 70
     1
102
RTVSPropertyOp32
 70
     1
102
RTVSPropertyOp33
 70
     1
102
RTVSPropertyOp34
 70
     1
102
RTVSPropertyOp35
 70
     1
102
RTVSPropertyOp36
 70
     1
102
RTVSPropertyOp37
 70
     1
102
RTVSPropertyOp38
 70
     1
102
RTVSPropertyOp39
 70
     1
102
RTVSPropertyOp40
 70
     1
102
RTVSPropertyOp41
 70
     1
102
RTVSPropertyOp42
 70
     1
102
RTVSPropertyOp43
 70
     1
102
RTVSPropertyOp44
 70
     1
102
RTVSPropertyOp45
 70
     1
102
RTVSPropertyOp46
 70
     1
102
RTVSPropertyOp47
 70
     1
102
RTVSPropertyOp48
 70
     1
102
RTVSPropertyOp49
 70
     1
102
RTVSPropertyOp50
 70
     1
102
RTVSPropertyOp51
 70
     0
102
RTVSPropertyOp52
 70
     0
102
RTVSPropertyOp53
 70
     1
102
RTVSPropertyOp54
 70
     1
102
RTVSPropertyOp55
 70
     1
102
RTVSPropertyOp56
 70
     1
102
RTVSPropertyOp57
 70
     1
102
RTVSPost2010Prop28
280
     0
102
RTVSPost2010PropOp28
 70
     1
102
RTVSPost2010Prop29
280
     1
102
RTVSPost2010PropOp29
 70
     1
102
RTVSPost2010Prop30
280
     1
102
RTVSPost2010PropOp30
 70
     1
102
RTVSPost2010Prop31
280
     0
102
RTVSPost2010PropOp31
 70
     1
102
RTVSPost2010Prop32
280
     0
102
RTVSPost2010PropOp32
 70
     1
102
RTVSPost2010Prop33
280
     0
102
RTVSPost2010PropOp33
 70
     1
102
RTVSPost2010Prop34
280
     0
102
RTVSPost2010PropOp34
 70
     1
102
RTVSPost2010Prop35
280
     0
102
RTVSPost2010PropOp35
 70
     1
102
RTVSPost2010Prop36
280
     0
102
RTVSPost2010PropOp36
 70
     1
102
RTVSPost2010Prop37
 90
       50
102
RTVSPost2010PropOp37
 70
     1
102
RTVSPost2010Prop38
140
0.0
102
RTVSPost2010PropOp38
 70
     1
102
RTVSPost2010Prop39
140
1.0
102
RTVSPost2010PropOp39
 70
     1
102
RTVSPost2010Prop40
 90
        0
102
RTVSPost2010PropOp40
 70
     1
102
RTVSPost2010Prop41ColorIndex
 90
       18
102
RTVSPost2010Prop41ColorRGB
 90
        0
102
RTVSPost2010PropOp41
 70
     1
102
RTVSPost2010Prop42
 90
       50
102
RTVSPost2010PropOp42
 70
     1
102
RTVSPost2010Prop43
 90
        3
102
RTVSPost2010PropOp43
 70
     1
102
RTVSPost2010Prop44ColorIndex
 90
        5
102
RTVSPost2010Prop44ColorRGB
 90
      255
102
RTVSPost2010PropOp44
 70
     1
102
RTVSPost2010Prop45
280
     0
102
RTVSPost2010PropOp45
 70
     1
102
RTVSPost2010Prop46
 90
       50
102
RTVSPost2010PropOp46
 70
     1
102
RTVSPost2010Prop47
 90
       50
102
RTVSPost2010PropOp47
 70
     1
102
RTVSPost2010Prop48
 90
       50
102
RTVSPost2010PropOp48
 70
     1
102
RTVSPost2010Prop49
280
     0
102
RTVSPost2010PropOp49
 70
     1
102
RTVSPost2010Prop50
 90
       50
102
RTVSPost2010PropOp50
 70
     1
102
RTVSPost2010Prop51ColorIndex
 90
      256
102
RTVSPost2010Prop51ColorRGB
 90
-16777216
102
RTVSPost2010PropOp51
 70
     0
102
RTVSPost2010Prop52
140
1.0
102
RTVSPost2010PropOp52
 70
     0
102
RTVSPost2010Prop53
 90
        2
102
RTVSPost2010PropOp53
 70
     1
102
RTVSPost2010Prop54
  1
strokes_ogs.tif
102
RTVSPost2010PropOp54
 70
     1
102
RTVSPost2010Prop55
280
     0
102
RTVSPost2010PropOp55
 70
     1
102
RTVSPost2010Prop56
140
1.0
102
RTVSPost2010PropOp56
 70
     1
102
RTVSPost2010Prop57
140
1.0
102
RTVSPost2010PropOp57
 70
     1
  0
XRECORD
  5
4FC
102
{ACAD_REACTORS
330
4FB
102
}
330
4FB
100
AcDbXrecord
280
     1
102
RTVSPropertyOp0
 70
     0
102
RTVSPropertyOp1
 70
     0
102
RTVSPropertyOp2
 70
     0
102
RTVSPropertyOp3
 70
     0
102
RTVSPropertyOp4
 70
     0
102
RTVSPropertyOp5
 70
     0
102
RTVSPropertyOp6
 70
     0
102
RTVSPropertyOp7
 70
     0
102
RTVSPropertyOp8
 70
     0
102
RTVSPropertyOp9
 70
     0
102
RTVSPropertyOp10
 70
     0
102
RTVSPropertyOp11
 70
     0
102
RTVSPropertyOp12
 70
     0
102
RTVSPropertyOp13
 70
     0
102
RTVSPropertyOp14
 70
     2
102
RTVSPropertyOp15
 70
     0
102
RTVSPropertyOp16
 70
     0
102
RTVSPropertyOp17
 70
     0
102
RTVSPropertyOp18
 70
     0
102
RTVSPropertyOp19
 70
     0
102
RTVSPropertyOp20
 70
     0
102
RTVSPropertyOp21
 70
     0
102
RTVSPropertyOp22
 70
     0
102
RTVSPropertyOp23
 70
     0
102
RTVSPropertyOp24
 70
     0
102
RTVSPropertyOp25
 70
     0
102
RTVSPropertyOp26
 70
     0
102
RTVSPropertyOp27
 70
     0
102
RTVSPropertyOp28
 70
     0
102
RTVSPropertyOp29
 70
     0
102
RTVSPropertyOp30
 70
     0
102
RTVSPropertyOp31
 70
     0
102
RTVSPropertyOp32
 70
     0
102
RTVSPropertyOp33
 70
     0
102
RTVSPropertyOp34
 70
     0
102
RTVSPropertyOp35
 70
     0
102
RTVSPropertyOp36
 70
     0
102
RTVSPropertyOp37
 70
     0
102
RTVSPropertyOp38
 70
     0
102
RTVSPropertyOp39
 70
     0
102
RTVSPropertyOp40
 70
     0
102
RTVSPropertyOp41
 70
     0
102
RTVSPropertyOp42
 70
     0
102
RTVSPropertyOp43
 70
     0
102
RTVSPropertyOp44
 70
     0
102
RTVSPropertyOp45
 70
     0
102
RTVSPropertyOp46
 70
     0
102
RTVSPropertyOp47
 70
     0
102
RTVSPropertyOp48
 70
     0
102
RTVSPropertyOp49
 70
     0
102
RTVSPropertyOp50
 70
     0
102
RTVSPropertyOp51
 70
     0
102
RTVSPropertyOp52
 70
     0
102
RTVSPropertyOp53
 70
     0
102
RTVSPropertyOp54
 70
     0
102
RTVSPropertyOp55
 70
     0
102
RTVSPropertyOp56
 70
     0
102
RTVSPropertyOp57
 70
     0
102
RTVSPost2010Prop28
280
     0
102
RTVSPost2010PropOp28
 70
     0
102
RTVSPost2010Prop29
280
     1
102
RTVSPost2010PropOp29
 70
     0
102
RTVSPost2010Prop30
280
     1
102
RTVSPost2010PropOp30
 70
     0
102
RTVSPost2010Prop31
280
     0
102
RTVSPost2010PropOp31
 70
     0
102
RTVSPost2010Prop32
280
     0
102
RTVSPost2010PropOp32
 70
     0
102
RTVSPost2010Prop33
280
     0
102
RTVSPost2010PropOp33
 70
     0
102
RTVSPost2010Prop34
280
     0
102
RTVSPost2010PropOp34
 70
     0
102
RTVSPost2010Prop35
280
     0
102
RTVSPost2010PropOp35
 70
     0
102
RTVSPost2010Prop36
280
     0
102
RTVSPost2010PropOp36
 70
     0
102
RTVSPost2010Prop37
 90
       50
102
RTVSPost2010PropOp37
 70
     0
102
RTVSPost2010Prop38
140
0.0
102
RTVSPost2010PropOp38
 70
     0
102
RTVSPost2010Prop39
140
1.0
102
RTVSPost2010PropOp39
 70
     0
102
RTVSPost2010Prop40
 90
        0
102
RTVSPost2010PropOp40
 70
     0
102
RTVSPost2010Prop41ColorIndex
 90
       18
102
RTVSPost2010Prop41ColorRGB
 90
        0
102
RTVSPost2010PropOp41
 70
     0
102
RTVSPost2010Prop42
 90
       50
102
RTVSPost2010PropOp42
 70
     0
102
RTVSPost2010Prop43
 90
        3
102
RTVSPost2010PropOp43
 70
     0
102
RTVSPost2010Prop44ColorIndex
 90
        5
102
RTVSPost2010Prop44ColorRGB
 90
      255
102
RTVSPost2010PropOp44
 70
     0
102
RTVSPost2010Prop45
280
     0
102
RTVSPost2010PropOp45
 70
     0
102
RTVSPost2010Prop46
 90
       50
102
RTVSPost2010PropOp46
 70
     0
102
RTVSPost2010Prop47
 90
       50
102
RTVSPost2010PropOp47
 70
     0
102
RTVSPost2010Prop48
 90
       50
102
RTVSPost2010PropOp48
 70
     0
102
RTVSPost2010Prop49
280
     0
102
RTVSPost2010PropOp49
 70
     0
102
RTVSPost2010Prop50
 90
       50
102
RTVSPost2010PropOp50
 70
     0
102
RTVSPost2010Prop51ColorIndex
 90
      256
102
RTVSPost2010Prop51ColorRGB
 90
-16777216
102
RTVSPost2010PropOp51
 70
     0
102
RTVSPost2010Prop52
140
1.0
102
RTVSPost2010PropOp52
 70
     0
102
RTVSPost2010Prop53
 90
        2
102
RTVSPost2010PropOp53
 70
     0
102
RTVSPost2010Prop54
  1
strokes_ogs.tif
102
RTVSPost2010PropOp54
 70
     0
102
RTVSPost2010Prop55
280
     0
102
RTVSPost2010PropOp55
 70
     0
102
RTVSPost2010Prop56
140
1.0
102
RTVSPost2010PropOp56
 70
     0
102
RTVSPost2010Prop57
140
1.0
102
RTVSPost2010PropOp57
 70
     0
  0
XRECORD
  5
4F6
102
{ACAD_REACTORS
330
4F5
102
}
330
4F5
100
AcDbXrecord
280
     1
102
RTVSPropertyOp0
 70
     1
102
RTVSPropertyOp1
 70
     1
102
RTVSPropertyOp2
 70
     1
102
RTVSPropertyOp3
 70
     1
102
RTVSPropertyOp4
 70
     1
102
RTVSPropertyOp5
 70
     1
102
RTVSPropertyOp6
 70
     1
102
RTVSPropertyOp7
 70
     1
102
RTVSPropertyOp8
 70
     1
102
RTVSPropertyOp9
 70
     1
102
RTVSPropertyOp10
 70
     1
102
RTVSPropertyOp11
 70
     1
102
RTVSPropertyOp12
 70
     1
102
RTVSPropertyOp13
 70
     1
102
RTVSPropertyOp14
 70
     1
102
RTVSPropertyOp15
 70
     1
102
RTVSPropertyOp16
 70
     1
102
RTVSPropertyOp17
 70
     1
102
RTVSPropertyOp18
 70
     1
102
RTVSPropertyOp19
 70
     1
102
RTVSPropertyOp20
 70
     1
102
RTVSPropertyOp21
 70
     1
102
RTVSPropertyOp22
 70
     1
102
RTVSPropertyOp23
 70
     1
102
RTVSPropertyOp24
 70
     1
102
RTVSPropertyOp25
 70
     1
102
RTVSPropertyOp26
 70
     1
102
RTVSPropertyOp27
 70
     1
102
RTVSPropertyOp28
 70
     1
102
RTVSPropertyOp29
 70
     1
102
RTVSPropertyOp30
 70
     1
102
RTVSPropertyOp31
 70
     1
102
RTVSPropertyOp32
 70
     1
102
RTVSPropertyOp33
 70
     1
102
RTVSPropertyOp34
 70
     1
102
RTVSPropertyOp35
 70
     1
102
RTVSPropertyOp36
 70
     1
102
RTVSPropertyOp37
 70
     1
102
RTVSPropertyOp38
 70
     1
102
RTVSPropertyOp39
 70
     1
102
RTVSPropertyOp40
 70
     1
102
RTVSPropertyOp41
 70
     1
102
RTVSPropertyOp42
 70
     1
102
RTVSPropertyOp43
 70
     1
102
RTVSPropertyOp44
 70
     1
102
RTVSPropertyOp45
 70
     1
102
RTVSPropertyOp46
 70
     1
102
RTVSPropertyOp47
 70
     1
102
RTVSPropertyOp48
 70
     1
102
RTVSPropertyOp49
 70
     1
102
RTVSPropertyOp50
 70
     1
102
RTVSPropertyOp51
 70
     0
102
RTVSPropertyOp52
 70
     0
102
RTVSPropertyOp53
 70
     1
102
RTVSPropertyOp54
 70
     1
102
RTVSPropertyOp55
 70
     1
102
RTVSPropertyOp56
 70
     1
102
RTVSPropertyOp57
 70
     1
102
RTVSPost2010Prop28
280
     0
102
RTVSPost2010PropOp28
 70
     1
102
RTVSPost2010Prop29
280
     1
102
RTVSPost2010PropOp29
 70
     1
102
RTVSPost2010Prop30
280
     1
102
RTVSPost2010PropOp30
 70
     1
102
RTVSPost2010Prop31
280
     0
102
RTVSPost2010PropOp31
 70
     1
102
RTVSPost2010Prop32
280
     0
102
RTVSPost2010PropOp32
 70
     1
102
RTVSPost2010Prop33
280
     0
102
RTVSPost2010PropOp33
 70
     1
102
RTVSPost2010Prop34
280
     0
102
RTVSPost2010PropOp34
 70
     1
102
RTVSPost2010Prop35
280
     0
102
RTVSPost2010PropOp35
 70
     1
102
RTVSPost2010Prop36
280
     0
102
RTVSPost2010PropOp36
 70
     1
102
RTVSPost2010Prop37
 90
       50
102
RTVSPost2010PropOp37
 70
     1
102
RTVSPost2010Prop38
140
0.0
102
RTVSPost2010PropOp38
 70
     1
102
RTVSPost2010Prop39
140
1.0
102
RTVSPost2010PropOp39
 70
     1
102
RTVSPost2010Prop40
 90
        0
102
RTVSPost2010PropOp40
 70
     1
102
RTVSPost2010Prop41ColorIndex
 90
       18
102
RTVSPost2010Prop41ColorRGB
 90
        0
102
RTVSPost2010PropOp41
 70
     1
102
RTVSPost2010Prop42
 90
       50
102
RTVSPost2010PropOp42
 70
     1
102
RTVSPost2010Prop43
 90
        3
102
RTVSPost2010PropOp43
 70
     1
102
RTVSPost2010Prop44ColorIndex
 90
        5
102
RTVSPost2010Prop44ColorRGB
 90
      255
102
RTVSPost2010PropOp44
 70
     1
102
RTVSPost2010Prop45
280
     0
102
RTVSPost2010PropOp45
 70
     1
102
RTVSPost2010Prop46
 90
       50
102
RTVSPost2010PropOp46
 70
     1
102
RTVSPost2010Prop47
 90
       50
102
RTVSPost2010PropOp47
 70
     1
102
RTVSPost2010Prop48
 90
       50
102
RTVSPost2010PropOp48
 70
     1
102
RTVSPost2010Prop49
280
     0
102
RTVSPost2010PropOp49
 70
     1
102
RTVSPost2010Prop50
 90
       50
102
RTVSPost2010PropOp50
 70
     1
102
RTVSPost2010Prop51ColorIndex
 90
      256
102
RTVSPost2010Prop51ColorRGB
 90
-16777216
102
RTVSPost2010PropOp51
 70
     0
102
RTVSPost2010Prop52
140
1.0
102
RTVSPost2010PropOp52
 70
     0
102
RTVSPost2010Prop53
 90
        2
102
RTVSPost2010PropOp53
 70
     1
102
RTVSPost2010Prop54
  1
strokes_ogs.tif
102
RTVSPost2010PropOp54
 70
     1
102
RTVSPost2010Prop55
280
     0
102
RTVSPost2010PropOp55
 70
     1
102
RTVSPost2010Prop56
140
1.0
102
RTVSPost2010PropOp56
 70
     1
102
RTVSPost2010Prop57
140
1.0
102
RTVSPost2010PropOp57
 70
     1
  0
XRECORD
  5
4FE
102
{ACAD_REACTORS
330
4FD
102
}
330
4FD
100
AcDbXrecord
280
     1
102
RTVSPropertyOp0
 70
     0
102
RTVSPropertyOp1
 70
     0
102
RTVSPropertyOp2
 70
     0
102
RTVSPropertyOp3
 70
     0
102
RTVSPropertyOp4
 70
     0
102
RTVSPropertyOp5
 70
     0
102
RTVSPropertyOp6
 70
     0
102
RTVSPropertyOp7
 70
     0
102
RTVSPropertyOp8
 70
     0
102
RTVSPropertyOp9
 70
     0
102
RTVSPropertyOp10
 70
     0
102
RTVSPropertyOp11
 70
     0
102
RTVSPropertyOp12
 70
     0
102
RTVSPropertyOp13
 70
     0
102
RTVSPropertyOp14
 70
     2
102
RTVSPropertyOp15
 70
     0
102
RTVSPropertyOp16
 70
     0
102
RTVSPropertyOp17
 70
     0
102
RTVSPropertyOp18
 70
     0
102
RTVSPropertyOp19
 70
     0
102
RTVSPropertyOp20
 70
     0
102
RTVSPropertyOp21
 70
     0
102
RTVSPropertyOp22
 70
     0
102
RTVSPropertyOp23
 70
     0
102
RTVSPropertyOp24
 70
     0
102
RTVSPropertyOp25
 70
     0
102
RTVSPropertyOp26
 70
     0
102
RTVSPropertyOp27
 70
     0
102
RTVSPropertyOp28
 70
     0
102
RTVSPropertyOp29
 70
     0
102
RTVSPropertyOp30
 70
     0
102
RTVSPropertyOp31
 70
     0
102
RTVSPropertyOp32
 70
     0
102
RTVSPropertyOp33
 70
     0
102
RTVSPropertyOp34
 70
     0
102
RTVSPropertyOp35
 70
     0
102
RTVSPropertyOp36
 70
     0
102
RTVSPropertyOp37
 70
     0
102
RTVSPropertyOp38
 70
     0
102
RTVSPropertyOp39
 70
     0
102
RTVSPropertyOp40
 70
     0
102
RTVSPropertyOp41
 70
     0
102
RTVSPropertyOp42
 70
     0
102
RTVSPropertyOp43
 70
     0
102
RTVSPropertyOp44
 70
     0
102
RTVSPropertyOp45
 70
     0
102
RTVSPropertyOp46
 70
     0
102
RTVSPropertyOp47
 70
     0
102
RTVSPropertyOp48
 70
     0
102
RTVSPropertyOp49
 70
     0
102
RTVSPropertyOp50
 70
     0
102
RTVSPropertyOp51
 70
     0
102
RTVSPropertyOp52
 70
     0
102
RTVSPropertyOp53
 70
     0
102
RTVSPropertyOp54
 70
     0
102
RTVSPropertyOp55
 70
     0
102
RTVSPropertyOp56
 70
     0
102
RTVSPropertyOp57
 70
     0
102
RTVSPost2010Prop28
280
     0
102
RTVSPost2010PropOp28
 70
     0
102
RTVSPost2010Prop29
280
     1
102
RTVSPost2010PropOp29
 70
     0
102
RTVSPost2010Prop30
280
     1
102
RTVSPost2010PropOp30
 70
     0
102
RTVSPost2010Prop31
280
     0
102
RTVSPost2010PropOp31
 70
     0
102
RTVSPost2010Prop32
280
     0
102
RTVSPost2010PropOp32
 70
     0
102
RTVSPost2010Prop33
280
     0
102
RTVSPost2010PropOp33
 70
     0
102
RTVSPost2010Prop34
280
     0
102
RTVSPost2010PropOp34
 70
     0
102
RTVSPost2010Prop35
280
     0
102
RTVSPost2010PropOp35
 70
     0
102
RTVSPost2010Prop36
280
     0
102
RTVSPost2010PropOp36
 70
     0
102
RTVSPost2010Prop37
 90
       50
102
RTVSPost2010PropOp37
 70
     0
102
RTVSPost2010Prop38
140
0.0
102
RTVSPost2010PropOp38
 70
     0
102
RTVSPost2010Prop39
140
1.0
102
RTVSPost2010PropOp39
 70
     0
102
RTVSPost2010Prop40
 90
        0
102
RTVSPost2010PropOp40
 70
     0
102
RTVSPost2010Prop41ColorIndex
 90
       18
102
RTVSPost2010Prop41ColorRGB
 90
        0
102
RTVSPost2010PropOp41
 70
     0
102
RTVSPost2010Prop42
 90
       50
102
RTVSPost2010PropOp42
 70
     0
102
RTVSPost2010Prop43
 90
        3
102
RTVSPost2010PropOp43
 70
     0
102
RTVSPost2010Prop44ColorIndex
 90
        5
102
RTVSPost2010Prop44ColorRGB
 90
      255
102
RTVSPost2010PropOp44
 70
     0
102
RTVSPost2010Prop45
280
     0
102
RTVSPost2010PropOp45
 70
     0
102
RTVSPost2010Prop46
 90
       50
102
RTVSPost2010PropOp46
 70
     0
102
RTVSPost2010Prop47
 90
       50
102
RTVSPost2010PropOp47
 70
     0
102
RTVSPost2010Prop48
 90
       50
102
RTVSPost2010PropOp48
 70
     0
102
RTVSPost2010Prop49
280
     0
102
RTVSPost2010PropOp49
 70
     0
102
RTVSPost2010Prop50
 90
       50
102
RTVSPost2010PropOp50
 70
     0
102
RTVSPost2010Prop51ColorIndex
 90
      256
102
RTVSPost2010Prop51ColorRGB
 90
-16777216
102
RTVSPost2010PropOp51
 70
     0
102
RTVSPost2010Prop52
140
1.0
102
RTVSPost2010PropOp52
 70
     0
102
RTVSPost2010Prop53
 90
        2
102
RTVSPost2010PropOp53
 70
     0
102
RTVSPost2010Prop54
  1
strokes_ogs.tif
102
RTVSPost2010PropOp54
 70
     0
102
RTVSPost2010Prop55
280
     0
102
RTVSPost2010PropOp55
 70
     0
102
RTVSPost2010Prop56
140
1.0
102
RTVSPost2010PropOp56
 70
     0
102
RTVSPost2010Prop57
140
1.0
102
RTVSPost2010PropOp57
 70
     0
  0
XRECORD
  5
4EC
102
{ACAD_REACTORS
330
4EB
102
}
330
4EB
100
AcDbXrecord
280
     1
102
RTVSPropertyOp0
 70
     1
102
RTVSPropertyOp1
 70
     1
102
RTVSPropertyOp2
 70
     1
102
RTVSPropertyOp3
 70
     1
102
RTVSPropertyOp4
 70
     1
102
RTVSPropertyOp5
 70
     1
102
RTVSPropertyOp6
 70
     1
102
RTVSPropertyOp7
 70
     1
102
RTVSPropertyOp8
 70
     1
102
RTVSPropertyOp9
 70
     1
102
RTVSPropertyOp10
 70
     1
102
RTVSPropertyOp11
 70
     1
102
RTVSPropertyOp12
 70
     1
102
RTVSPropertyOp13
 70
     1
102
RTVSPropertyOp14
 70
     1
102
RTVSPropertyOp15
 70
     1
102
RTVSPropertyOp16
 70
     1
102
RTVSPropertyOp17
 70
     1
102
RTVSPropertyOp18
 70
     1
102
RTVSPropertyOp19
 70
     1
102
RTVSPropertyOp20
 70
     1
102
RTVSPropertyOp21
 70
     1
102
RTVSPropertyOp22
 70
     1
102
RTVSPropertyOp23
 70
     1
102
RTVSPropertyOp24
 70
     1
102
RTVSPropertyOp25
 70
     1
102
RTVSPropertyOp26
 70
     1
102
RTVSPropertyOp27
 70
     1
102
RTVSPropertyOp28
 70
     1
102
RTVSPropertyOp29
 70
     1
102
RTVSPropertyOp30
 70
     1
102
RTVSPropertyOp31
 70
     1
102
RTVSPropertyOp32
 70
     1
102
RTVSPropertyOp33
 70
     1
102
RTVSPropertyOp34
 70
     1
102
RTVSPropertyOp35
 70
     1
102
RTVSPropertyOp36
 70
     1
102
RTVSPropertyOp37
 70
     1
102
RTVSPropertyOp38
 70
     1
102
RTVSPropertyOp39
 70
     1
102
RTVSPropertyOp40
 70
     1
102
RTVSPropertyOp41
 70
     1
102
RTVSPropertyOp42
 70
     1
102
RTVSPropertyOp43
 70
     1
102
RTVSPropertyOp44
 70
     1
102
RTVSPropertyOp45
 70
     1
102
RTVSPropertyOp46
 70
     1
102
RTVSPropertyOp47
 70
     1
102
RTVSPropertyOp48
 70
     1
102
RTVSPropertyOp49
 70
     1
102
RTVSPropertyOp50
 70
     1
102
RTVSPropertyOp51
 70
     0
102
RTVSPropertyOp52
 70
     0
102
RTVSPropertyOp53
 70
     1
102
RTVSPropertyOp54
 70
     1
102
RTVSPropertyOp55
 70
     1
102
RTVSPropertyOp56
 70
     1
102
RTVSPropertyOp57
 70
     1
102
RTVSPost2010Prop28
280
     0
102
RTVSPost2010PropOp28
 70
     1
102
RTVSPost2010Prop29
280
     1
102
RTVSPost2010PropOp29
 70
     1
102
RTVSPost2010Prop30
280
     1
102
RTVSPost2010PropOp30
 70
     1
102
RTVSPost2010Prop31
280
     0
102
RTVSPost2010PropOp31
 70
     1
102
RTVSPost2010Prop32
280
     0
102
RTVSPost2010PropOp32
 70
     1
102
RTVSPost2010Prop33
280
     0
102
RTVSPost2010PropOp33
 70
     1
102
RTVSPost2010Prop34
280
     0
102
RTVSPost2010PropOp34
 70
     1
102
RTVSPost2010Prop35
280
     0
102
RTVSPost2010PropOp35
 70
     1
102
RTVSPost2010Prop36
280
     0
102
RTVSPost2010PropOp36
 70
     1
102
RTVSPost2010Prop37
 90
       50
102
RTVSPost2010PropOp37
 70
     1
102
RTVSPost2010Prop38
140
0.0
102
RTVSPost2010PropOp38
 70
     1
102
RTVSPost2010Prop39
140
1.0
102
RTVSPost2010PropOp39
 70
     1
102
RTVSPost2010Prop40
 90
        0
102
RTVSPost2010PropOp40
 70
     1
102
RTVSPost2010Prop41ColorIndex
 90
       18
102
RTVSPost2010Prop41ColorRGB
 90
        0
102
RTVSPost2010PropOp41
 70
     1
102
RTVSPost2010Prop42
 90
       50
102
RTVSPost2010PropOp42
 70
     1
102
RTVSPost2010Prop43
 90
        3
102
RTVSPost2010PropOp43
 70
     1
102
RTVSPost2010Prop44ColorIndex
 90
        5
102
RTVSPost2010Prop44ColorRGB
 90
      255
102
RTVSPost2010PropOp44
 70
     1
102
RTVSPost2010Prop45
280
     0
102
RTVSPost2010PropOp45
 70
     1
102
RTVSPost2010Prop46
 90
       50
102
RTVSPost2010PropOp46
 70
     1
102
RTVSPost2010Prop47
 90
       50
102
RTVSPost2010PropOp47
 70
     1
102
RTVSPost2010Prop48
 90
       50
102
RTVSPost2010PropOp48
 70
     1
102
RTVSPost2010Prop49
280
     0
102
RTVSPost2010PropOp49
 70
     1
102
RTVSPost2010Prop50
 90
       50
102
RTVSPost2010PropOp50
 70
     1
102
RTVSPost2010Prop51ColorIndex
 90
      256
102
RTVSPost2010Prop51ColorRGB
 90
-16777216
102
RTVSPost2010PropOp51
 70
     0
102
RTVSPost2010Prop52
140
1.0
102
RTVSPost2010PropOp52
 70
     0
102
RTVSPost2010Prop53
 90
        2
102
RTVSPost2010PropOp53
 70
     1
102
RTVSPost2010Prop54
  1
strokes_ogs.tif
102
RTVSPost2010PropOp54
 70
     1
102
RTVSPost2010Prop55
280
     0
102
RTVSPost2010PropOp55
 70
     1
102
RTVSPost2010Prop56
140
1.0
102
RTVSPost2010PropOp56
 70
     1
102
RTVSPost2010Prop57
140
1.0
102
RTVSPost2010PropOp57
 70
     1
  0
XRECORD
  5
50A
102
{ACAD_REACTORS
330
509
102
}
330
509
100
AcDbXrecord
280
     1
102
RTVSPropertyOp0
 70
     1
102
RTVSPropertyOp1
 70
     1
102
RTVSPropertyOp2
 70
     1
102
RTVSPropertyOp3
 70
     1
102
RTVSPropertyOp4
 70
     1
102
RTVSPropertyOp5
 70
     1
102
RTVSPropertyOp6
 70
     1
102
RTVSPropertyOp7
 70
     1
102
RTVSPropertyOp8
 70
     1
102
RTVSPropertyOp9
 70
     1
102
RTVSPropertyOp10
 70
     1
102
RTVSPropertyOp11
 70
     1
102
RTVSPropertyOp12
 70
     1
102
RTVSPropertyOp13
 70
     1
102
RTVSPropertyOp14
 70
     1
102
RTVSPropertyOp15
 70
     1
102
RTVSPropertyOp16
 70
     1
102
RTVSPropertyOp17
 70
     1
102
RTVSPropertyOp18
 70
     1
102
RTVSPropertyOp19
 70
     1
102
RTVSPropertyOp20
 70
     1
102
RTVSPropertyOp21
 70
     1
102
RTVSPropertyOp22
 70
     1
102
RTVSPropertyOp23
 70
     1
102
RTVSPropertyOp24
 70
     1
102
RTVSPropertyOp25
 70
     1
102
RTVSPropertyOp26
 70
     1
102
RTVSPropertyOp27
 70
     1
102
RTVSPropertyOp28
 70
     1
102
RTVSPropertyOp29
 70
     1
102
RTVSPropertyOp30
 70
     1
102
RTVSPropertyOp31
 70
     1
102
RTVSPropertyOp32
 70
     1
102
RTVSPropertyOp33
 70
     1
102
RTVSPropertyOp34
 70
     1
102
RTVSPropertyOp35
 70
     1
102
RTVSPropertyOp36
 70
     1
102
RTVSPropertyOp37
 70
     1
102
RTVSPropertyOp38
 70
     1
102
RTVSPropertyOp39
 70
     1
102
RTVSPropertyOp40
 70
     1
102
RTVSPropertyOp41
 70
     1
102
RTVSPropertyOp42
 70
     1
102
RTVSPropertyOp43
 70
     1
102
RTVSPropertyOp44
 70
     1
102
RTVSPropertyOp45
 70
     1
102
RTVSPropertyOp46
 70
     1
102
RTVSPropertyOp47
 70
     1
102
RTVSPropertyOp48
 70
     1
102
RTVSPropertyOp49
 70
     1
102
RTVSPropertyOp50
 70
     1
102
RTVSPropertyOp51
 70
     0
102
RTVSPropertyOp52
 70
     0
102
RTVSPropertyOp53
 70
     1
102
RTVSPropertyOp54
 70
     1
102
RTVSPropertyOp55
 70
     1
102
RTVSPropertyOp56
 70
     1
102
RTVSPropertyOp57
 70
     1
102
RTVSPost2010Prop28
280
     0
102
RTVSPost2010PropOp28
 70
     1
102
RTVSPost2010Prop29
280
     1
102
RTVSPost2010PropOp29
 70
     1
102
RTVSPost2010Prop30
280
     1
102
RTVSPost2010PropOp30
 70
     1
102
RTVSPost2010Prop31
280
     0
102
RTVSPost2010PropOp31
 70
     1
102
RTVSPost2010Prop32
280
     0
102
RTVSPost2010PropOp32
 70
     1
102
RTVSPost2010Prop33
280
     0
102
RTVSPost2010PropOp33
 70
     1
102
RTVSPost2010Prop34
280
     0
102
RTVSPost2010PropOp34
 70
     1
102
RTVSPost2010Prop35
280
     0
102
RTVSPost2010PropOp35
 70
     1
102
RTVSPost2010Prop36
280
     0
102
RTVSPost2010PropOp36
 70
     1
102
RTVSPost2010Prop37
 90
       50
102
RTVSPost2010PropOp37
 70
     1
102
RTVSPost2010Prop38
140
0.0
102
RTVSPost2010PropOp38
 70
     1
102
RTVSPost2010Prop39
140
1.0
102
RTVSPost2010PropOp39
 70
     1
102
RTVSPost2010Prop40
 90
        0
102
RTVSPost2010PropOp40
 70
     1
102
RTVSPost2010Prop41ColorIndex
 90
       18
102
RTVSPost2010Prop41ColorRGB
 90
        0
102
RTVSPost2010PropOp41
 70
     1
102
RTVSPost2010Prop42
 90
       50
102
RTVSPost2010PropOp42
 70
     1
102
RTVSPost2010Prop43
 90
        3
102
RTVSPost2010PropOp43
 70
     1
102
RTVSPost2010Prop44ColorIndex
 90
        5
102
RTVSPost2010Prop44ColorRGB
 90
      255
102
RTVSPost2010PropOp44
 70
     1
102
RTVSPost2010Prop45
280
     0
102
RTVSPost2010PropOp45
 70
     1
102
RTVSPost2010Prop46
 90
       50
102
RTVSPost2010PropOp46
 70
     1
102
RTVSPost2010Prop47
 90
       50
102
RTVSPost2010PropOp47
 70
     1
102
RTVSPost2010Prop48
 90
       50
102
RTVSPost2010PropOp48
 70
     1
102
RTVSPost2010Prop49
280
     0
102
RTVSPost2010PropOp49
 70
     1
102
RTVSPost2010Prop50
 90
       50
102
RTVSPost2010PropOp50
 70
     1
102
RTVSPost2010Prop51ColorIndex
 90
      256
102
RTVSPost2010Prop51ColorRGB
 90
-16777216
102
RTVSPost2010PropOp51
 70
     0
102
RTVSPost2010Prop52
140
1.0
102
RTVSPost2010PropOp52
 70
     0
102
RTVSPost2010Prop53
 90
        2
102
RTVSPost2010PropOp53
 70
     1
102
RTVSPost2010Prop54
  1
strokes_ogs.tif
102
RTVSPost2010PropOp54
 70
     1
102
RTVSPost2010Prop55
280
     0
102
RTVSPost2010PropOp55
 70
     1
102
RTVSPost2010Prop56
140
1.0
102
RTVSPost2010PropOp56
 70
     1
102
RTVSPost2010Prop57
140
1.0
102
RTVSPost2010PropOp57
 70
     1
  0
XRECORD
  5
508
102
{ACAD_REACTORS
330
507
102
}
330
507
100
AcDbXrecord
280
     1
102
RTVSPropertyOp0
 70
     1
102
RTVSPropertyOp1
 70
     1
102
RTVSPropertyOp2
 70
     1
102
RTVSPropertyOp3
 70
     1
102
RTVSPropertyOp4
 70
     1
102
RTVSPropertyOp5
 70
     1
102
RTVSPropertyOp6
 70
     1
102
RTVSPropertyOp7
 70
     1
102
RTVSPropertyOp8
 70
     1
102
RTVSPropertyOp9
 70
     1
102
RTVSPropertyOp10
 70
     1
102
RTVSPropertyOp11
 70
     1
102
RTVSPropertyOp12
 70
     1
102
RTVSPropertyOp13
 70
     1
102
RTVSPropertyOp14
 70
     1
102
RTVSPropertyOp15
 70
     1
102
RTVSPropertyOp16
 70
     1
102
RTVSPropertyOp17
 70
     1
102
RTVSPropertyOp18
 70
     1
102
RTVSPropertyOp19
 70
     1
102
RTVSPropertyOp20
 70
     1
102
RTVSPropertyOp21
 70
     1
102
RTVSPropertyOp22
 70
     1
102
RTVSPropertyOp23
 70
     1
102
RTVSPropertyOp24
 70
     1
102
RTVSPropertyOp25
 70
     1
102
RTVSPropertyOp26
 70
     1
102
RTVSPropertyOp27
 70
     1
102
RTVSPropertyOp28
 70
     1
102
RTVSPropertyOp29
 70
     1
102
RTVSPropertyOp30
 70
     1
102
RTVSPropertyOp31
 70
     1
102
RTVSPropertyOp32
 70
     1
102
RTVSPropertyOp33
 70
     1
102
RTVSPropertyOp34
 70
     1
102
RTVSPropertyOp35
 70
     1
102
RTVSPropertyOp36
 70
     1
102
RTVSPropertyOp37
 70
     1
102
RTVSPropertyOp38
 70
     1
102
RTVSPropertyOp39
 70
     1
102
RTVSPropertyOp40
 70
     1
102
RTVSPropertyOp41
 70
     1
102
RTVSPropertyOp42
 70
     1
102
RTVSPropertyOp43
 70
     1
102
RTVSPropertyOp44
 70
     1
102
RTVSPropertyOp45
 70
     1
102
RTVSPropertyOp46
 70
     1
102
RTVSPropertyOp47
 70
     1
102
RTVSPropertyOp48
 70
     1
102
RTVSPropertyOp49
 70
     1
102
RTVSPropertyOp50
 70
     1
102
RTVSPropertyOp51
 70
     0
102
RTVSPropertyOp52
 70
     0
102
RTVSPropertyOp53
 70
     1
102
RTVSPropertyOp54
 70
     1
102
RTVSPropertyOp55
 70
     1
102
RTVSPropertyOp56
 70
     1
102
RTVSPropertyOp57
 70
     1
102
RTVSPost2010Prop28
280
     0
102
RTVSPost2010PropOp28
 70
     1
102
RTVSPost2010Prop29
280
     1
102
RTVSPost2010PropOp29
 70
     1
102
RTVSPost2010Prop30
280
     1
102
RTVSPost2010PropOp30
 70
     1
102
RTVSPost2010Prop31
280
     0
102
RTVSPost2010PropOp31
 70
     1
102
RTVSPost2010Prop32
280
     0
102
RTVSPost2010PropOp32
 70
     1
102
RTVSPost2010Prop33
280
     0
102
RTVSPost2010PropOp33
 70
     1
102
RTVSPost2010Prop34
280
     0
102
RTVSPost2010PropOp34
 70
     1
102
RTVSPost2010Prop35
280
     0
102
RTVSPost2010PropOp35
 70
     1
102
RTVSPost2010Prop36
280
     0
102
RTVSPost2010PropOp36
 70
     1
102
RTVSPost2010Prop37
 90
       50
102
RTVSPost2010PropOp37
 70
     1
102
RTVSPost2010Prop38
140
0.0
102
RTVSPost2010PropOp38
 70
     1
102
RTVSPost2010Prop39
140
1.0
102
RTVSPost2010PropOp39
 70
     1
102
RTVSPost2010Prop40
 90
        0
102
RTVSPost2010PropOp40
 70
     1
102
RTVSPost2010Prop41ColorIndex
 90
       18
102
RTVSPost2010Prop41ColorRGB
 90
        0
102
RTVSPost2010PropOp41
 70
     1
102
RTVSPost2010Prop42
 90
       50
102
RTVSPost2010PropOp42
 70
     1
102
RTVSPost2010Prop43
 90
        3
102
RTVSPost2010PropOp43
 70
     1
102
RTVSPost2010Prop44ColorIndex
 90
        5
102
RTVSPost2010Prop44ColorRGB
 90
      255
102
RTVSPost2010PropOp44
 70
     1
102
RTVSPost2010Prop45
280
     0
102
RTVSPost2010PropOp45
 70
     1
102
RTVSPost2010Prop46
 90
       50
102
RTVSPost2010PropOp46
 70
     1
102
RTVSPost2010Prop47
 90
       50
102
RTVSPost2010PropOp47
 70
     1
102
RTVSPost2010Prop48
 90
       50
102
RTVSPost2010PropOp48
 70
     1
102
RTVSPost2010Prop49
280
     0
102
RTVSPost2010PropOp49
 70
     1
102
RTVSPost2010Prop50
 90
       50
102
RTVSPost2010PropOp50
 70
     1
102
RTVSPost2010Prop51ColorIndex
 90
      256
102
RTVSPost2010Prop51ColorRGB
 90
-16777216
102
RTVSPost2010PropOp51
 70
     0
102
RTVSPost2010Prop52
140
1.0
102
RTVSPost2010PropOp52
 70
     0
102
RTVSPost2010Prop53
 90
        2
102
RTVSPost2010PropOp53
 70
     1
102
RTVSPost2010Prop54
  1
strokes_ogs.tif
102
RTVSPost2010PropOp54
 70
     1
102
RTVSPost2010Prop55
280
     0
102
RTVSPost2010PropOp55
 70
     1
102
RTVSPost2010Prop56
140
1.0
102
RTVSPost2010PropOp56
 70
     1
102
RTVSPost2010Prop57
140
1.0
102
RTVSPost2010PropOp57
 70
     1
  0
XRECORD
  5
502
102
{ACAD_REACTORS
330
501
102
}
330
501
100
AcDbXrecord
280
     1
102
RTVSPropertyOp0
 70
     1
102
RTVSPropertyOp1
 70
     1
102
RTVSPropertyOp2
 70
     1
102
RTVSPropertyOp3
 70
     1
102
RTVSPropertyOp4
 70
     1
102
RTVSPropertyOp5
 70
     1
102
RTVSPropertyOp6
 70
     1
102
RTVSPropertyOp7
 70
     1
102
RTVSPropertyOp8
 70
     1
102
RTVSPropertyOp9
 70
     1
102
RTVSPropertyOp10
 70
     1
102
RTVSPropertyOp11
 70
     1
102
RTVSPropertyOp12
 70
     1
102
RTVSPropertyOp13
 70
     1
102
RTVSPropertyOp14
 70
     1
102
RTVSPropertyOp15
 70
     1
102
RTVSPropertyOp16
 70
     1
102
RTVSPropertyOp17
 70
     1
102
RTVSPropertyOp18
 70
     1
102
RTVSPropertyOp19
 70
     1
102
RTVSPropertyOp20
 70
     1
102
RTVSPropertyOp21
 70
     1
102
RTVSPropertyOp22
 70
     1
102
RTVSPropertyOp23
 70
     1
102
RTVSPropertyOp24
 70
     1
102
RTVSPropertyOp25
 70
     1
102
RTVSPropertyOp26
 70
     1
102
RTVSPropertyOp27
 70
     1
102
RTVSPropertyOp28
 70
     1
102
RTVSPropertyOp29
 70
     1
102
RTVSPropertyOp30
 70
     1
102
RTVSPropertyOp31
 70
     1
102
RTVSPropertyOp32
 70
     1
102
RTVSPropertyOp33
 70
     1
102
RTVSPropertyOp34
 70
     1
102
RTVSPropertyOp35
 70
     1
102
RTVSPropertyOp36
 70
     1
102
RTVSPropertyOp37
 70
     1
102
RTVSPropertyOp38
 70
     1
102
RTVSPropertyOp39
 70
     1
102
RTVSPropertyOp40
 70
     1
102
RTVSPropertyOp41
 70
     1
102
RTVSPropertyOp42
 70
     1
102
RTVSPropertyOp43
 70
     1
102
RTVSPropertyOp44
 70
     1
102
RTVSPropertyOp45
 70
     1
102
RTVSPropertyOp46
 70
     1
102
RTVSPropertyOp47
 70
     1
102
RTVSPropertyOp48
 70
     1
102
RTVSPropertyOp49
 70
     1
102
RTVSPropertyOp50
 70
     1
102
RTVSPropertyOp51
 70
     0
102
RTVSPropertyOp52
 70
     0
102
RTVSPropertyOp53
 70
     1
102
RTVSPropertyOp54
 70
     1
102
RTVSPropertyOp55
 70
     1
102
RTVSPropertyOp56
 70
     1
102
RTVSPropertyOp57
 70
     1
102
RTVSPost2010Prop28
280
     0
102
RTVSPost2010PropOp28
 70
     1
102
RTVSPost2010Prop29
280
     1
102
RTVSPost2010PropOp29
 70
     1
102
RTVSPost2010Prop30
280
     1
102
RTVSPost2010PropOp30
 70
     1
102
RTVSPost2010Prop31
280
     0
102
RTVSPost2010PropOp31
 70
     1
102
RTVSPost2010Prop32
280
     0
102
RTVSPost2010PropOp32
 70
     1
102
RTVSPost2010Prop33
280
     0
102
RTVSPost2010PropOp33
 70
     1
102
RTVSPost2010Prop34
280
     0
102
RTVSPost2010PropOp34
 70
     1
102
RTVSPost2010Prop35
280
     0
102
RTVSPost2010PropOp35
 70
     1
102
RTVSPost2010Prop36
280
     0
102
RTVSPost2010PropOp36
 70
     1
102
RTVSPost2010Prop37
 90
       50
102
RTVSPost2010PropOp37
 70
     1
102
RTVSPost2010Prop38
140
0.0
102
RTVSPost2010PropOp38
 70
     1
102
RTVSPost2010Prop39
140
1.0
102
RTVSPost2010PropOp39
 70
     1
102
RTVSPost2010Prop40
 90
        0
102
RTVSPost2010PropOp40
 70
     1
102
RTVSPost2010Prop41ColorIndex
 90
       18
102
RTVSPost2010Prop41ColorRGB
 90
        0
102
RTVSPost2010PropOp41
 70
     1
102
RTVSPost2010Prop42
 90
       50
102
RTVSPost2010PropOp42
 70
     1
102
RTVSPost2010Prop43
 90
        3
102
RTVSPost2010PropOp43
 70
     1
102
RTVSPost2010Prop44ColorIndex
 90
        5
102
RTVSPost2010Prop44ColorRGB
 90
      255
102
RTVSPost2010PropOp44
 70
     1
102
RTVSPost2010Prop45
280
     0
102
RTVSPost2010PropOp45
 70
     1
102
RTVSPost2010Prop46
 90
       50
102
RTVSPost2010PropOp46
 70
     1
102
RTVSPost2010Prop47
 90
       50
102
RTVSPost2010PropOp47
 70
     1
102
RTVSPost2010Prop48
 90
       50
102
RTVSPost2010PropOp48
 70
     1
102
RTVSPost2010Prop49
280
     0
102
RTVSPost2010PropOp49
 70
     1
102
RTVSPost2010Prop50
 90
       50
102
RTVSPost2010PropOp50
 70
     1
102
RTVSPost2010Prop51ColorIndex
 90
      256
102
RTVSPost2010Prop51ColorRGB
 90
-16777216
102
RTVSPost2010PropOp51
 70
     0
102
RTVSPost2010Prop52
140
1.0
102
RTVSPost2010PropOp52
 70
     0
102
RTVSPost2010Prop53
 90
        2
102
RTVSPost2010PropOp53
 70
     1
102
RTVSPost2010Prop54
  1
strokes_ogs.tif
102
RTVSPost2010PropOp54
 70
     1
102
RTVSPost2010Prop55
280
     0
102
RTVSPost2010PropOp55
 70
     1
102
RTVSPost2010Prop56
140
1.0
102
RTVSPost2010PropOp56
 70
     1
102
RTVSPost2010Prop57
140
1.0
102
RTVSPost2010PropOp57
 70
     1
  0
XRECORD
  5
504
102
{ACAD_REACTORS
330
503
102
}
330
503
100
AcDbXrecord
280
     1
102
RTVSPropertyOp0
 70
     1
102
RTVSPropertyOp1
 70
     1
102
RTVSPropertyOp2
 70
     1
102
RTVSPropertyOp3
 70
     1
102
RTVSPropertyOp4
 70
     1
102
RTVSPropertyOp5
 70
     1
102
RTVSPropertyOp6
 70
     1
102
RTVSPropertyOp7
 70
     1
102
RTVSPropertyOp8
 70
     1
102
RTVSPropertyOp9
 70
     1
102
RTVSPropertyOp10
 70
     1
102
RTVSPropertyOp11
 70
     1
102
RTVSPropertyOp12
 70
     1
102
RTVSPropertyOp13
 70
     1
102
RTVSPropertyOp14
 70
     1
102
RTVSPropertyOp15
 70
     1
102
RTVSPropertyOp16
 70
     1
102
RTVSPropertyOp17
 70
     1
102
RTVSPropertyOp18
 70
     1
102
RTVSPropertyOp19
 70
     1
102
RTVSPropertyOp20
 70
     1
102
RTVSPropertyOp21
 70
     1
102
RTVSPropertyOp22
 70
     1
102
RTVSPropertyOp23
 70
     1
102
RTVSPropertyOp24
 70
     1
102
RTVSPropertyOp25
 70
     1
102
RTVSPropertyOp26
 70
     1
102
RTVSPropertyOp27
 70
     1
102
RTVSPropertyOp28
 70
     1
102
RTVSPropertyOp29
 70
     1
102
RTVSPropertyOp30
 70
     1
102
RTVSPropertyOp31
 70
     1
102
RTVSPropertyOp32
 70
     1
102
RTVSPropertyOp33
 70
     1
102
RTVSPropertyOp34
 70
     1
102
RTVSPropertyOp35
 70
     1
102
RTVSPropertyOp36
 70
     1
102
RTVSPropertyOp37
 70
     1
102
RTVSPropertyOp38
 70
     1
102
RTVSPropertyOp39
 70
     1
102
RTVSPropertyOp40
 70
     1
102
RTVSPropertyOp41
 70
     1
102
RTVSPropertyOp42
 70
     1
102
RTVSPropertyOp43
 70
     1
102
RTVSPropertyOp44
 70
     1
102
RTVSPropertyOp45
 70
     1
102
RTVSPropertyOp46
 70
     1
102
RTVSPropertyOp47
 70
     1
102
RTVSPropertyOp48
 70
     1
102
RTVSPropertyOp49
 70
     1
102
RTVSPropertyOp50
 70
     1
102
RTVSPropertyOp51
 70
     0
102
RTVSPropertyOp52
 70
     0
102
RTVSPropertyOp53
 70
     1
102
RTVSPropertyOp54
 70
     1
102
RTVSPropertyOp55
 70
     1
102
RTVSPropertyOp56
 70
     1
102
RTVSPropertyOp57
 70
     1
102
RTVSPost2010Prop28
280
     0
102
RTVSPost2010PropOp28
 70
     1
102
RTVSPost2010Prop29
280
     1
102
RTVSPost2010PropOp29
 70
     1
102
RTVSPost2010Prop30
280
     1
102
RTVSPost2010PropOp30
 70
     1
102
RTVSPost2010Prop31
280
     0
102
RTVSPost2010PropOp31
 70
     1
102
RTVSPost2010Prop32
280
     0
102
RTVSPost2010PropOp32
 70
     1
102
RTVSPost2010Prop33
280
     0
102
RTVSPost2010PropOp33
 70
     1
102
RTVSPost2010Prop34
280
     0
102
RTVSPost2010PropOp34
 70
     1
102
RTVSPost2010Prop35
280
     0
102
RTVSPost2010PropOp35
 70
     1
102
RTVSPost2010Prop36
280
     0
102
RTVSPost2010PropOp36
 70
     1
102
RTVSPost2010Prop37
 90
       50
102
RTVSPost2010PropOp37
 70
     1
102
RTVSPost2010Prop38
140
0.0
102
RTVSPost2010PropOp38
 70
     1
102
RTVSPost2010Prop39
140
1.0
102
RTVSPost2010PropOp39
 70
     1
102
RTVSPost2010Prop40
 90
        0
102
RTVSPost2010PropOp40
 70
     1
102
RTVSPost2010Prop41ColorIndex
 90
       18
102
RTVSPost2010Prop41ColorRGB
 90
        0
102
RTVSPost2010PropOp41
 70
     1
102
RTVSPost2010Prop42
 90
       50
102
RTVSPost2010PropOp42
 70
     1
102
RTVSPost2010Prop43
 90
        3
102
RTVSPost2010PropOp43
 70
     1
102
RTVSPost2010Prop44ColorIndex
 90
        5
102
RTVSPost2010Prop44ColorRGB
 90
      255
102
RTVSPost2010PropOp44
 70
     1
102
RTVSPost2010Prop45
280
     0
102
RTVSPost2010PropOp45
 70
     1
102
RTVSPost2010Prop46
 90
       50
102
RTVSPost2010PropOp46
 70
     1
102
RTVSPost2010Prop47
 90
       50
102
RTVSPost2010PropOp47
 70
     1
102
RTVSPost2010Prop48
 90
       50
102
RTVSPost2010PropOp48
 70
     1
102
RTVSPost2010Prop49
280
     0
102
RTVSPost2010PropOp49
 70
     1
102
RTVSPost2010Prop50
 90
       50
102
RTVSPost2010PropOp50
 70
     1
102
RTVSPost2010Prop51ColorIndex
 90
      256
102
RTVSPost2010Prop51ColorRGB
 90
-16777216
102
RTVSPost2010PropOp51
 70
     0
102
RTVSPost2010Prop52
140
1.0
102
RTVSPost2010PropOp52
 70
     0
102
RTVSPost2010Prop53
 90
        2
102
RTVSPost2010PropOp53
 70
     1
102
RTVSPost2010Prop54
  1
strokes_ogs.tif
102
RTVSPost2010PropOp54
 70
     1
102
RTVSPost2010Prop55
280
     0
102
RTVSPost2010PropOp55
 70
     1
102
RTVSPost2010Prop56
140
1.0
102
RTVSPost2010PropOp56
 70
     1
102
RTVSPost2010Prop57
140
1.0
102
RTVSPost2010PropOp57
 70
     1
  0
XRECORD
  5
4F4
102
{ACAD_REACTORS
330
4F3
102
}
330
4F3
100
AcDbXrecord
280
     1
102
RTVSPropertyOp0
 70
     1
102
RTVSPropertyOp1
 70
     1
102
RTVSPropertyOp2
 70
     1
102
RTVSPropertyOp3
 70
     1
102
RTVSPropertyOp4
 70
     1
102
RTVSPropertyOp5
 70
     1
102
RTVSPropertyOp6
 70
     1
102
RTVSPropertyOp7
 70
     1
102
RTVSPropertyOp8
 70
     1
102
RTVSPropertyOp9
 70
     1
102
RTVSPropertyOp10
 70
     1
102
RTVSPropertyOp11
 70
     1
102
RTVSPropertyOp12
 70
     1
102
RTVSPropertyOp13
 70
     1
102
RTVSPropertyOp14
 70
     1
102
RTVSPropertyOp15
 70
     1
102
RTVSPropertyOp16
 70
     1
102
RTVSPropertyOp17
 70
     1
102
RTVSPropertyOp18
 70
     1
102
RTVSPropertyOp19
 70
     1
102
RTVSPropertyOp20
 70
     1
102
RTVSPropertyOp21
 70
     1
102
RTVSPropertyOp22
 70
     1
102
RTVSPropertyOp23
 70
     1
102
RTVSPropertyOp24
 70
     1
102
RTVSPropertyOp25
 70
     1
102
RTVSPropertyOp26
 70
     1
102
RTVSPropertyOp27
 70
     1
102
RTVSPropertyOp28
 70
     1
102
RTVSPropertyOp29
 70
     1
102
RTVSPropertyOp30
 70
     1
102
RTVSPropertyOp31
 70
     1
102
RTVSPropertyOp32
 70
     1
102
RTVSPropertyOp33
 70
     1
102
RTVSPropertyOp34
 70
     1
102
RTVSPropertyOp35
 70
     1
102
RTVSPropertyOp36
 70
     1
102
RTVSPropertyOp37
 70
     1
102
RTVSPropertyOp38
 70
     1
102
RTVSPropertyOp39
 70
     1
102
RTVSPropertyOp40
 70
     1
102
RTVSPropertyOp41
 70
     1
102
RTVSPropertyOp42
 70
     1
102
RTVSPropertyOp43
 70
     1
102
RTVSPropertyOp44
 70
     1
102
RTVSPropertyOp45
 70
     1
102
RTVSPropertyOp46
 70
     1
102
RTVSPropertyOp47
 70
     1
102
RTVSPropertyOp48
 70
     1
102
RTVSPropertyOp49
 70
     1
102
RTVSPropertyOp50
 70
     1
102
RTVSPropertyOp51
 70
     0
102
RTVSPropertyOp52
 70
     0
102
RTVSPropertyOp53
 70
     1
102
RTVSPropertyOp54
 70
     1
102
RTVSPropertyOp55
 70
     1
102
RTVSPropertyOp56
 70
     1
102
RTVSPropertyOp57
 70
     1
102
RTVSPost2010Prop28
280
     0
102
RTVSPost2010PropOp28
 70
     1
102
RTVSPost2010Prop29
280
     1
102
RTVSPost2010PropOp29
 70
     1
102
RTVSPost2010Prop30
280
     1
102
RTVSPost2010PropOp30
 70
     1
102
RTVSPost2010Prop31
280
     0
102
RTVSPost2010PropOp31
 70
     1
102
RTVSPost2010Prop32
280
     0
102
RTVSPost2010PropOp32
 70
     1
102
RTVSPost2010Prop33
280
     0
102
RTVSPost2010PropOp33
 70
     1
102
RTVSPost2010Prop34
280
     0
102
RTVSPost2010PropOp34
 70
     1
102
RTVSPost2010Prop35
280
     0
102
RTVSPost2010PropOp35
 70
     1
102
RTVSPost2010Prop36
280
     0
102
RTVSPost2010PropOp36
 70
     1
102
RTVSPost2010Prop37
 90
       50
102
RTVSPost2010PropOp37
 70
     1
102
RTVSPost2010Prop38
140
0.0
102
RTVSPost2010PropOp38
 70
     1
102
RTVSPost2010Prop39
140
1.0
102
RTVSPost2010PropOp39
 70
     1
102
RTVSPost2010Prop40
 90
        0
102
RTVSPost2010PropOp40
 70
     1
102
RTVSPost2010Prop41ColorIndex
 90
       18
102
RTVSPost2010Prop41ColorRGB
 90
        0
102
RTVSPost2010PropOp41
 70
     1
102
RTVSPost2010Prop42
 90
       50
102
RTVSPost2010PropOp42
 70
     1
102
RTVSPost2010Prop43
 90
        3
102
RTVSPost2010PropOp43
 70
     1
102
RTVSPost2010Prop44ColorIndex
 90
        5
102
RTVSPost2010Prop44ColorRGB
 90
      255
102
RTVSPost2010PropOp44
 70
     1
102
RTVSPost2010Prop45
280
     0
102
RTVSPost2010PropOp45
 70
     1
102
RTVSPost2010Prop46
 90
       50
102
RTVSPost2010PropOp46
 70
     1
102
RTVSPost2010Prop47
 90
       50
102
RTVSPost2010PropOp47
 70
     1
102
RTVSPost2010Prop48
 90
       50
102
RTVSPost2010PropOp48
 70
     1
102
RTVSPost2010Prop49
280
     0
102
RTVSPost2010PropOp49
 70
     1
102
RTVSPost2010Prop50
 90
       50
102
RTVSPost2010PropOp50
 70
     1
102
RTVSPost2010Prop51ColorIndex
 90
      256
102
RTVSPost2010Prop51ColorRGB
 90
-16777216
102
RTVSPost2010PropOp51
 70
     0
102
RTVSPost2010Prop52
140
1.0
102
RTVSPost2010PropOp52
 70
     0
102
RTVSPost2010Prop53
 90
        2
102
RTVSPost2010PropOp53
 70
     1
102
RTVSPost2010Prop54
  1
strokes_ogs.tif
102
RTVSPost2010PropOp54
 70
     1
102
RTVSPost2010Prop55
280
     0
102
RTVSPost2010PropOp55
 70
     1
102
RTVSPost2010Prop56
140
1.0
102
RTVSPost2010PropOp56
 70
     1
102
RTVSPost2010Prop57
140
1.0
102
RTVSPost2010PropOp57
 70
     1
  0
XRECORD
  5
4E6
102
{ACAD_REACTORS
330
4E5
102
}
330
4E5
100
AcDbXrecord
280
     1
102
RTVSPropertyOp0
 70
     1
102
RTVSPropertyOp1
 70
     1
102
RTVSPropertyOp2
 70
     1
102
RTVSPropertyOp3
 70
     1
102
RTVSPropertyOp4
 70
     1
102
RTVSPropertyOp5
 70
     1
102
RTVSPropertyOp6
 70
     1
102
RTVSPropertyOp7
 70
     1
102
RTVSPropertyOp8
 70
     1
102
RTVSPropertyOp9
 70
     1
102
RTVSPropertyOp10
 70
     1
102
RTVSPropertyOp11
 70
     1
102
RTVSPropertyOp12
 70
     1
102
RTVSPropertyOp13
 70
     1
102
RTVSPropertyOp14
 70
     1
102
RTVSPropertyOp15
 70
     1
102
RTVSPropertyOp16
 70
     1
102
RTVSPropertyOp17
 70
     1
102
RTVSPropertyOp18
 70
     1
102
RTVSPropertyOp19
 70
     1
102
RTVSPropertyOp20
 70
     1
102
RTVSPropertyOp21
 70
     1
102
RTVSPropertyOp22
 70
     1
102
RTVSPropertyOp23
 70
     1
102
RTVSPropertyOp24
 70
     1
102
RTVSPropertyOp25
 70
     1
102
RTVSPropertyOp26
 70
     1
102
RTVSPropertyOp27
 70
     1
102
RTVSPropertyOp28
 70
     1
102
RTVSPropertyOp29
 70
     1
102
RTVSPropertyOp30
 70
     1
102
RTVSPropertyOp31
 70
     1
102
RTVSPropertyOp32
 70
     1
102
RTVSPropertyOp33
 70
     1
102
RTVSPropertyOp34
 70
     1
102
RTVSPropertyOp35
 70
     1
102
RTVSPropertyOp36
 70
     1
102
RTVSPropertyOp37
 70
     1
102
RTVSPropertyOp38
 70
     1
102
RTVSPropertyOp39
 70
     1
102
RTVSPropertyOp40
 70
     1
102
RTVSPropertyOp41
 70
     1
102
RTVSPropertyOp42
 70
     1
102
RTVSPropertyOp43
 70
     1
102
RTVSPropertyOp44
 70
     1
102
RTVSPropertyOp45
 70
     1
102
RTVSPropertyOp46
 70
     1
102
RTVSPropertyOp47
 70
     1
102
RTVSPropertyOp48
 70
     1
102
RTVSPropertyOp49
 70
     1
102
RTVSPropertyOp50
 70
     1
102
RTVSPropertyOp51
 70
     0
102
RTVSPropertyOp52
 70
     0
102
RTVSPropertyOp53
 70
     1
102
RTVSPropertyOp54
 70
     1
102
RTVSPropertyOp55
 70
     1
102
RTVSPropertyOp56
 70
     1
102
RTVSPropertyOp57
 70
     1
102
RTVSPost2010Prop28
280
     0
102
RTVSPost2010PropOp28
 70
     1
102
RTVSPost2010Prop29
280
     1
102
RTVSPost2010PropOp29
 70
     1
102
RTVSPost2010Prop30
280
     1
102
RTVSPost2010PropOp30
 70
     1
102
RTVSPost2010Prop31
280
     0
102
RTVSPost2010PropOp31
 70
     1
102
RTVSPost2010Prop32
280
     0
102
RTVSPost2010PropOp32
 70
     1
102
RTVSPost2010Prop33
280
     0
102
RTVSPost2010PropOp33
 70
     1
102
RTVSPost2010Prop34
280
     0
102
RTVSPost2010PropOp34
 70
     1
102
RTVSPost2010Prop35
280
     0
102
RTVSPost2010PropOp35
 70
     1
102
RTVSPost2010Prop36
280
     0
102
RTVSPost2010PropOp36
 70
     1
102
RTVSPost2010Prop37
 90
       50
102
RTVSPost2010PropOp37
 70
     1
102
RTVSPost2010Prop38
140
0.0
102
RTVSPost2010PropOp38
 70
     1
102
RTVSPost2010Prop39
140
1.0
102
RTVSPost2010PropOp39
 70
     1
102
RTVSPost2010Prop40
 90
        0
102
RTVSPost2010PropOp40
 70
     1
102
RTVSPost2010Prop41ColorIndex
 90
       18
102
RTVSPost2010Prop41ColorRGB
 90
        0
102
RTVSPost2010PropOp41
 70
     1
102
RTVSPost2010Prop42
 90
       50
102
RTVSPost2010PropOp42
 70
     1
102
RTVSPost2010Prop43
 90
        3
102
RTVSPost2010PropOp43
 70
     1
102
RTVSPost2010Prop44ColorIndex
 90
        5
102
RTVSPost2010Prop44ColorRGB
 90
      255
102
RTVSPost2010PropOp44
 70
     1
102
RTVSPost2010Prop45
280
     0
102
RTVSPost2010PropOp45
 70
     1
102
RTVSPost2010Prop46
 90
       50
102
RTVSPost2010PropOp46
 70
     1
102
RTVSPost2010Prop47
 90
       50
102
RTVSPost2010PropOp47
 70
     1
102
RTVSPost2010Prop48
 90
       50
102
RTVSPost2010PropOp48
 70
     1
102
RTVSPost2010Prop49
280
     0
102
RTVSPost2010PropOp49
 70
     1
102
RTVSPost2010Prop50
 90
       50
102
RTVSPost2010PropOp50
 70
     1
102
RTVSPost2010Prop51ColorIndex
 90
      256
102
RTVSPost2010Prop51ColorRGB
 90
-16777216
102
RTVSPost2010PropOp51
 70
     0
102
RTVSPost2010Prop52
140
1.0
102
RTVSPost2010PropOp52
 70
     0
102
RTVSPost2010Prop53
 90
        2
102
RTVSPost2010PropOp53
 70
     1
102
RTVSPost2010Prop54
  1
strokes_ogs.tif
102
RTVSPost2010PropOp54
 70
     1
102
RTVSPost2010Prop55
280
     0
102
RTVSPost2010PropOp55
 70
     1
102
RTVSPost2010Prop56
140
1.0
102
RTVSPost2010PropOp56
 70
     1
102
RTVSPost2010Prop57
140
1.0
102
RTVSPost2010PropOp57
 70
     1
  0
XRECORD
  5
506
102
{ACAD_REACTORS
330
505
102
}
330
505
100
AcDbXrecord
280
     1
102
RTVSPropertyOp0
 70
     1
102
RTVSPropertyOp1
 70
     1
102
RTVSPropertyOp2
 70
     1
102
RTVSPropertyOp3
 70
     1
102
RTVSPropertyOp4
 70
     1
102
RTVSPropertyOp5
 70
     1
102
RTVSPropertyOp6
 70
     1
102
RTVSPropertyOp7
 70
     1
102
RTVSPropertyOp8
 70
     1
102
RTVSPropertyOp9
 70
     1
102
RTVSPropertyOp10
 70
     1
102
RTVSPropertyOp11
 70
     1
102
RTVSPropertyOp12
 70
     1
102
RTVSPropertyOp13
 70
     1
102
RTVSPropertyOp14
 70
     1
102
RTVSPropertyOp15
 70
     1
102
RTVSPropertyOp16
 70
     1
102
RTVSPropertyOp17
 70
     1
102
RTVSPropertyOp18
 70
     1
102
RTVSPropertyOp19
 70
     1
102
RTVSPropertyOp20
 70
     1
102
RTVSPropertyOp21
 70
     1
102
RTVSPropertyOp22
 70
     1
102
RTVSPropertyOp23
 70
     1
102
RTVSPropertyOp24
 70
     1
102
RTVSPropertyOp25
 70
     1
102
RTVSPropertyOp26
 70
     1
102
RTVSPropertyOp27
 70
     1
102
RTVSPropertyOp28
 70
     1
102
RTVSPropertyOp29
 70
     1
102
RTVSPropertyOp30
 70
     1
102
RTVSPropertyOp31
 70
     1
102
RTVSPropertyOp32
 70
     1
102
RTVSPropertyOp33
 70
     1
102
RTVSPropertyOp34
 70
     1
102
RTVSPropertyOp35
 70
     1
102
RTVSPropertyOp36
 70
     1
102
RTVSPropertyOp37
 70
     1
102
RTVSPropertyOp38
 70
     1
102
RTVSPropertyOp39
 70
     1
102
RTVSPropertyOp40
 70
     1
102
RTVSPropertyOp41
 70
     1
102
RTVSPropertyOp42
 70
     1
102
RTVSPropertyOp43
 70
     1
102
RTVSPropertyOp44
 70
     1
102
RTVSPropertyOp45
 70
     1
102
RTVSPropertyOp46
 70
     1
102
RTVSPropertyOp47
 70
     1
102
RTVSPropertyOp48
 70
     1
102
RTVSPropertyOp49
 70
     1
102
RTVSPropertyOp50
 70
     1
102
RTVSPropertyOp51
 70
     0
102
RTVSPropertyOp52
 70
     0
102
RTVSPropertyOp53
 70
     1
102
RTVSPropertyOp54
 70
     1
102
RTVSPropertyOp55
 70
     1
102
RTVSPropertyOp56
 70
     1
102
RTVSPropertyOp57
 70
     1
102
RTVSPost2010Prop28
280
     0
102
RTVSPost2010PropOp28
 70
     1
102
RTVSPost2010Prop29
280
     1
102
RTVSPost2010PropOp29
 70
     1
102
RTVSPost2010Prop30
280
     1
102
RTVSPost2010PropOp30
 70
     1
102
RTVSPost2010Prop31
280
     0
102
RTVSPost2010PropOp31
 70
     1
102
RTVSPost2010Prop32
280
     0
102
RTVSPost2010PropOp32
 70
     1
102
RTVSPost2010Prop33
280
     0
102
RTVSPost2010PropOp33
 70
     1
102
RTVSPost2010Prop34
280
     0
102
RTVSPost2010PropOp34
 70
     1
102
RTVSPost2010Prop35
280
     0
102
RTVSPost2010PropOp35
 70
     1
102
RTVSPost2010Prop36
280
     0
102
RTVSPost2010PropOp36
 70
     1
102
RTVSPost2010Prop37
 90
       50
102
RTVSPost2010PropOp37
 70
     1
102
RTVSPost2010Prop38
140
0.0
102
RTVSPost2010PropOp38
 70
     1
102
RTVSPost2010Prop39
140
1.0
102
RTVSPost2010PropOp39
 70
     1
102
RTVSPost2010Prop40
 90
        0
102
RTVSPost2010PropOp40
 70
     1
102
RTVSPost2010Prop41ColorIndex
 90
       18
102
RTVSPost2010Prop41ColorRGB
 90
        0
102
RTVSPost2010PropOp41
 70
     1
102
RTVSPost2010Prop42
 90
       50
102
RTVSPost2010PropOp42
 70
     1
102
RTVSPost2010Prop43
 90
        3
102
RTVSPost2010PropOp43
 70
     1
102
RTVSPost2010Prop44ColorIndex
 90
        5
102
RTVSPost2010Prop44ColorRGB
 90
      255
102
RTVSPost2010PropOp44
 70
     1
102
RTVSPost2010Prop45
280
     0
102
RTVSPost2010PropOp45
 70
     1
102
RTVSPost2010Prop46
 90
       50
102
RTVSPost2010PropOp46
 70
     1
102
RTVSPost2010Prop47
 90
       50
102
RTVSPost2010PropOp47
 70
     1
102
RTVSPost2010Prop48
 90
       50
102
RTVSPost2010PropOp48
 70
     1
102
RTVSPost2010Prop49
280
     0
102
RTVSPost2010PropOp49
 70
     1
102
RTVSPost2010Prop50
 90
       50
102
RTVSPost2010PropOp50
 70
     1
102
RTVSPost2010Prop51ColorIndex
 90
      256
102
RTVSPost2010Prop51ColorRGB
 90
-16777216
102
RTVSPost2010PropOp51
 70
     0
102
RTVSPost2010Prop52
140
1.0
102
RTVSPost2010PropOp52
 70
     0
102
RTVSPost2010Prop53
 90
        2
102
RTVSPost2010PropOp53
 70
     1
102
RTVSPost2010Prop54
  1
strokes_ogs.tif
102
RTVSPost2010PropOp54
 70
     1
102
RTVSPost2010Prop55
280
     0
102
RTVSPost2010PropOp55
 70
     1
102
RTVSPost2010Prop56
140
1.0
102
RTVSPost2010PropOp56
 70
     1
102
RTVSPost2010Prop57
140
1.0
102
RTVSPost2010PropOp57
 70
     1
  0
ENDSEC
  0
EOF
