  0
SECTION
  2
HEADER
  9
$ACADVER
  1
AC1018
  9
$ACADMAINTVER
 70
     0
  9
$DWGCODEPAGE
  3
ANSI_1252
  9
$INSBASE
 10
0.0
 20
0.0
 30
0.0
  9
$EXTMIN
 10
-0.5
 20
-0.5
 30
-0.5
  9
$EXTMAX
 10
5.0
 20
5.0
 30
5.0
  9
$LIMMIN
 10
-0.5
 20
-0.5
  9
$LIMMAX
 10
5.0
 20
5.0
  9
$ORTHOMODE
 70
     0
  9
$REGENMODE
 70
     1
  9
$FILLMODE
 70
     1
  9
$QTEXTMODE
 70
     0
  9
$MIRRTEXT
 70
     1
  9
$LTSCALE
 40
1.0
  9
$ATTMODE
 70
     1
  9
$TEXTSIZE
 40
0.2
  9
$TRACEWID
 40
0.05
  9
$TEXTSTYLE
  7
Standard
  9
$CLAYER
  8
0
  9
$CELTYPE
  6
ByLayer
  9
$CECOLOR
 62
   256
  9
$CELTSCALE
 40
1.0
  9
$DISPSILH
 70
     0
  9
$DIMSCALE
 40
1.0
  9
$DIMASZ
 40
0.18
  9
$DIMEXO
 40
0.0625
  9
$DIMDLI
 40
0.38
  9
$DIMRND
 40
0.0
  9
$DIMDLE
 40
0.0
  9
$DIMEXE
 40
0.18
  9
$DIMTP
 40
0.0
  9
$DIMTM
 40
0.0
  9
$DIMTXT
 40
0.18
  9
$DIMCEN
 40
0.09
  9
$DIMTSZ
 40
0.0
  9
$DIMTOL
 70
     0
  9
$DIMLIM
 70
     0
  9
$DIMTIH
 70
     1
  9
$DIMTOH
 70
     1
  9
$DIMSE1
 70
     0
  9
$DIMSE2
 70
     0
  9
$DIMTAD
 70
     0
  9
$DIMZIN
 70
     0
  9
$DIMBLK
  1

  9
$DIMASO
 70
     1
  9
$DIMSHO
 70
     1
  9
$DIMPOST
  1

  9
$DIMAPOST
  1

  9
$DIMALT
 70
     0
  9
$DIMALTD
 70
     2
  9
$DIMALTF
 40
25.4
  9
$DIMLFAC
 40
1.0
  9
$DIMTOFL
 70
     0
  9
$DIMTVP
 40
0.0
  9
$DIMTIX
 70
     0
  9
$DIMSOXD
 70
     0
  9
$DIMSAH
 70
     0
  9
$DIMBLK1
  1

  9
$DIMBLK2
  1

  9
$DIMSTYLE
  2
Standard
  9
$DIMCLRD
 70
     0
  9
$DIMCLRE
 70
     0
  9
$DIMCLRT
 70
     0
  9
$DIMTFAC
 40
1.0
  9
$DIMGAP
 40
0.09
  9
$DIMJUST
 70
     0
  9
$DIMSD1
 70
     0
  9
$DIMSD2
 70
     0
  9
$DIMTOLJ
 70
     1
  9
$DIMTZIN
 70
     0
  9
$DIMALTZ
 70
     0
  9
$DIMALTTZ
 70
     0
  9
$DIMUPT
 70
     0
  9
$DIMDEC
 70
     4
  9
$DIMTDEC
 70
     4
  9
$DIMALTU
 70
     2
  9
$DIMALTTD
 70
     2
  9
$DIMTXSTY
  7
Standard
  9
$DIMAUNIT
 70
     0
  9
$DIMADEC
 70
     0
  9
$DIMALTRND
 40
0.0
  9
$DIMAZIN
 70
     0
  9
$DIMDSEP
 70
    46
  9
$DIMATFIT
 70
     3
  9
$DIMFRAC
 70
     0
  9
$DIMLDRBLK
  1

  9
$DIMLUNIT
 70
     2
  9
$DIMLWD
 70
    -2
  9
$DIMLWE
 70
    -2
  9
$DIMTMOVE
 70
     0
  9
$LUNITS
 70
     2
  9
$LUPREC
 70
     4
  9
$SKETCHINC
 40
0.1
  9
$FILLETRAD
 40
0.5
  9
$AUNITS
 70
     0
  9
$AUPREC
 70
     0
  9
$MENU
  1
.
  9
$ELEVATION
 40
0.0
  9
$PELEVATION
 40
0.0
  9
$THICKNESS
 40
0.0
  9
$LIMCHECK
 70
     0
  9
$CHAMFERA
 40
0.0
  9
$CHAMFERB
 40
0.0
  9
$CHAMFERC
 40
0.0
  9
$CHAMFERD
 40
0.0
  9
$SKPOLY
 70
     0
  9
$TDCREATE
 40
2460209.245020879
  9
$TDUCREATE
 40
2460209.161687546
  9
$TDUPDATE
 40
2460209.245382893
  9
$TDUUPDATE
 40
2460209.16204956
  9
$TDINDWG
 40
0.0000000116
  9
$TDUSRTIMER
 40
0.0000000116
  9
$USRTIMER
 70
     1
  9
$ANGBASE
 50
0.0
  9
$ANGDIR
 70
     0
  9
$PDMODE
 70
     0
  9
$PDSIZE
 40
0.0
  9
$PLINEWID
 40
0.0
  9
$SPLFRAME
 70
     0
  9
$SPLINETYPE
 70
     6
  9
$SPLINESEGS
 70
     8
  9
$HANDSEED
  5
4A7
  9
$SURFTAB1
 70
     6
  9
$SURFTAB2
 70
     6
  9
$SURFTYPE
 70
     6
  9
$SURFU
 70
     6
  9
$SURFV
 70
     6
  9
$UCSBASE
  2

  9
$UCSNAME
  2

  9
$UCSORG
 10
0.0
 20
0.0
 30
0.0
  9
$UCSXDIR
 10
1.0
 20
0.0
 30
0.0
  9
$UCSYDIR
 10
0.0
 20
1.0
 30
0.0
  9
$UCSORTHOREF
  2

  9
$UCSORTHOVIEW
 70
     0
  9
$UCSORGTOP
 10
0.0
 20
0.0
 30
0.0
  9
$UCSORGBOTTOM
 10
0.0
 20
0.0
 30
0.0
  9
$UCSORGLEFT
 10
0.0
 20
0.0
 30
0.0
  9
$UCSORGRIGHT
 10
0.0
 20
0.0
 30
0.0
  9
$UCSORGFRONT
 10
0.0
 20
0.0
 30
0.0
  9
$UCSORGBACK
 10
0.0
 20
0.0
 30
0.0
  9
$PUCSBASE
  2

  9
$PUCSNAME
  2

  9
$PUCSORG
 10
0.0
 20
0.0
 30
0.0
  9
$PUCSXDIR
 10
1.0
 20
0.0
 30
0.0
  9
$PUCSYDIR
 10
0.0
 20
1.0
 30
0.0
  9
$PUCSORTHOREF
  2

  9
$PUCSORTHOVIEW
 70
     0
  9
$PUCSORGTOP
 10
0.0
 20
0.0
 30
0.0
  9
$PUCSORGBOTTOM
 10
0.0
 20
0.0
 30
0.0
  9
$PUCSORGLEFT
 10
0.0
 20
0.0
 30
0.0
  9
$PUCSORGRIGHT
 10
0.0
 20
0.0
 30
0.0
  9
$PUCSORGFRONT
 10
0.0
 20
0.0
 30
0.0
  9
$PUCSORGBACK
 10
0.0
 20
0.0
 30
0.0
  9
$USERI1
 70
     0
  9
$USERI2
 70
     0
  9
$USERI3
 70
     0
  9
$USERI4
 70
     0
  9
$USERI5
 70
     0
  9
$USERR1
 40
0.0
  9
$USERR2
 40
0.0
  9
$USERR3
 40
0.0
  9
$USERR4
 40
0.0
  9
$USERR5
 40
0.0
  9
$WORLDVIEW
 70
     1
  9
$SHADEDGE
 70
     3
  9
$SHADEDIF
 70
    70
  9
$TILEMODE
 70
     1
  9
$MAXACTVP
 70
    64
  9
$PINSBASE
 10
0.0
 20
0.0
 30
0.0
  9
$PLIMCHECK
 70
     0
  9
$PEXTMIN
 10
-0.5
 20
-0.5
 30
-0.5
  9
$PEXTMAX
 10
5.0
 20
5.0
 30
5.0
  9
$PLIMMIN
 10
-0.5
 20
-0.5
  9
$PLIMMAX
 10
5.0
 20
5.0
  9
$UNITMODE
 70
     0
  9
$VISRETAIN
 70
     1
  9
$PLINEGEN
 70
     0
  9
$PSLTSCALE
 70
     1
  9
$TREEDEPTH
 70
  3020
  9
$CMLSTYLE
  2
Standard
  9
$CMLJUST
 70
     0
  9
$CMLSCALE
 40
1.0
  9
$PROXYGRAPHICS
 70
     1
  9
$MEASUREMENT
 70
     1
  9
$CELWEIGHT
370
    13
  9
$ENDCAPS
280
     0
  9
$JOINSTYLE
280
     0
  9
$LWDISPLAY
290
     0
  9
$INSUNITS
 70
     4
  9
$HYPERLINKBASE
  1

  9
$STYLESHEET
  1

  9
$XEDIT
290
     1
  9
$CEPSNTYPE
380
     0
  9
$PSTYLEMODE
290
     1
  9
$FINGERPRINTGUID
  2
{4b5313f8-ad10-491d-8b0c-262238aaac4d}
  9
$VERSIONGUID
  2
{FAEB1C32-E019-11D5-929B-00C0DF256EC4}
  9
$EXTNAMES
290
     1
  9
$PSVPSCALE
 40
0.0
  9
$OLESTARTUP
290
     0
  9
$SORTENTS
280
   127
  9
$INDEXCTL
280
     0
  9
$HIDETEXT
280
     1
  9
$XCLIPFRAME
290
     0
  9
$HALOGAP
280
     0
  9
$OBSCOLOR
 70
   257
  9
$OBSLTYPE
280
     0
  9
$INTERSECTIONDISPLAY
280
     0
  9
$INTERSECTIONCOLOR
 70
   257
  9
$DIMASSOC
280
     2
  9
$PROJECTNAME
  1

  0
ENDSEC
  0
SECTION
  2
CLASSES
  0
CLASS
  1
ACDBDICTIONARYWDFLT
  2
AcDbDictionaryWithDefault
  3
ObjectDBX Classes
 90
        0
 91
        3
280
     0
281
     0
  0
CLASS
  1
VISUALSTYLE
  2
AcDbVisualStyle
  3
ObjectDBX Classes
 90
     4095
 91
        3
280
     0
281
     0
  0
CLASS
  1
MATERIAL
  2
AcDbMaterial
  3
ObjectDBX Classes
 90
     1153
 91
        3
280
     0
281
     0
  0
CLASS
  1
SCALE
  2
AcDbScale
  3
ObjectDBX Classes
 90
     1153
 91
        3
280
     0
281
     0
  0
CLASS
  1
TABLESTYLE
  2
AcDbTableStyle
  3
ObjectDBX Classes
 90
     4095
 91
        3
280
     0
281
     0
  0
CLASS
  1
MLEADERSTYLE
  2
AcDbMLeaderStyle
  3
ACDB_MLEADERSTYLE_CLASS
 90
     4095
 91
        3
280
     0
281
     0
  0
CLASS
  1
SUN
  2
AcDbSun
  3
SCENEOE
 90
     1153
 91
        3
280
     0
281
     0
  0
CLASS
  1
DIMASSOC
  2
AcDbDimAssoc
  3
"AcDbDimAssoc|Product Desc:     AcDim ARX App For Dimension|Company:          Autodesk, Inc.|WEB Address:      www.autodesk.com"
 90
        0
 91
        3
280
     0
281
     0
  0
CLASS
  1
DICTIONARYVAR
  2
AcDbDictionaryVar
  3
ObjectDBX Classes
 90
        0
 91
        3
280
     0
281
     0
  0
CLASS
  1
CELLSTYLEMAP
  2
AcDbCellStyleMap
  3
ObjectDBX Classes
 90
     1152
 91
        3
280
     0
281
     0
  0
ENDSEC
  0
SECTION
  2
TABLES
  0
TABLE
  2
VPORT
  5
8
102
{ACAD_XDICTIONARY
360
460
102
}
330
0
100
AcDbSymbolTable
 70
    16
  0
VPORT
  5
29
330
8
100
AcDbSymbolTableRecord
100
AcDbViewportTableRecord
  2
*Active
 70
     0
 10
0.0
 20
0.0
 11
1.0
 21
1.0
 12
197.621071
 22
162.564579
 13
0.0
 23
0.0
 14
0.5
 24
0.5
 15
0.5
 25
0.5
 16
0.0
 26
0.0
 36
1.0
 17
0.0
 27
0.0
 37
0.0
 40
254.0
 41
0.069908
 42
50.0
 43
179.256266
 44
-179.256266
 50
0.0
 51
0.0
 71
     0
 72
   100
 73
     1
 74
     3
 75
     0
 76
     0
 77
     0
 78
     0
281
     0
 65
     1
110
0.0
120
0.0
130
0.0
111
1.0
121
0.0
131
0.0
112
0.0
122
1.0
132
0.0
 79
     0
146
0.0
  0
VPORT
  5
44C
330
8
100
AcDbSymbolTableRecord
100
AcDbViewportTableRecord
  2
L1
 70
     0
 10
0.0
 20
0.0
 11
1.0
 21
1.0
 12
197.621071
 22
162.564579
 13
0.0
 23
0.0
 14
0.5
 24
0.5
 15
0.5
 25
0.5
 16
0.0
 26
0.0
 36
1.0
 17
0.0
 27
0.0
 37
0.0
 40
254.0
 41
0.069908
 42
50.0
 43
179.256266
 44
-179.256266
 50
0.0
 51
0.0
 71
     0
 72
   100
 73
     1
 74
     3
 75
     0
 76
     0
 77
     0
 78
     0
281
     0
 65
     1
110
0.0
120
0.0
130
0.0
111
1.0
121
0.0
131
0.0
112
0.0
122
1.0
132
0.0
 79
     0
146
0.0
  0
VPORT
  5
44D
330
8
100
AcDbSymbolTableRecord
100
AcDbViewportTableRecord
  2
L2
 70
     0
 10
0.0
 20
0.0
 11
0.5
 21
1.0
 12
0.0
 22
0.0
 13
0.0
 23
0.0
 14
0.5
 24
0.5
 15
0.5
 25
0.5
 16
0.0
 26
-1.0
 36
0.0
 17
0.0
 27
0.0
 37
0.0
 40
1618.901383
 41
0.010968
 42
50.0
 43
834.118445
 44
-834.118445
 50
0.0
 51
0.0
 71
     0
 72
   100
 73
     1
 74
     3
 75
     0
 76
     0
 77
     0
 78
     0
281
     0
 65
     1
110
0.0
120
0.0
130
0.0
111
1.0
121
0.0
131
0.0
112
0.0
122
1.0
132
0.0
 79
     0
146
0.0
  0
VPORT
  5
44E
330
8
100
AcDbSymbolTableRecord
100
AcDbViewportTableRecord
  2
L2
 70
     0
 10
0.5
 20
0.0
 11
1.0
 21
1.0
 12
0.0
 22
0.0
 13
0.0
 23
0.0
 14
0.5
 24
0.5
 15
0.5
 25
0.5
 16
1.0
 26
0.0
 36
0.0
 17
0.0
 27
0.0
 37
0.0
 40
1618.901383
 41
0.010968
 42
50.0
 43
819.353051
 44
-819.353051
 50
0.0
 51
0.0
 71
     0
 72
   100
 73
     1
 74
     3
 75
     0
 76
     0
 77
     0
 78
     0
281
     0
 65
     1
110
0.0
120
0.0
130
0.0
111
1.0
121
0.0
131
0.0
112
0.0
122
1.0
132
0.0
 79
     0
146
0.0
  0
VPORT
  5
44F
330
8
100
AcDbSymbolTableRecord
100
AcDbViewportTableRecord
  2
L3
 70
     0
 10
0.0
 20
0.5
 11
1.0
 21
1.0
 12
197.621071
 22
162.564579
 13
0.0
 23
0.0
 14
0.5
 24
0.5
 15
0.5
 25
0.5
 16
0.0
 26
0.0
 36
1.0
 17
0.0
 27
0.0
 37
0.0
 40
254.0
 41
0.069908
 42
50.0
 43
179.256266
 44
-179.256266
 50
0.0
 51
0.0
 71
     0
 72
   100
 73
     1
 74
     3
 75
     0
 76
     0
 77
     0
 78
     0
281
     0
 65
     1
110
0.0
120
0.0
130
0.0
111
1.0
121
0.0
131
0.0
112
0.0
122
1.0
132
0.0
 79
     0
146
0.0
  0
VPORT
  5
450
330
8
100
AcDbSymbolTableRecord
100
AcDbViewportTableRecord
  2
L3
 70
     0
 10
0.0
 20
0.0
 11
1.0
 21
0.5
 12
0.0
 22
0.0
 13
0.0
 23
0.0
 14
0.5
 24
0.5
 15
0.5
 25
0.5
 16
0.0
 26
-1.0
 36
0.0
 17
0.0
 27
0.0
 37
0.0
 40
1618.901383
 41
0.010968
 42
50.0
 43
834.118445
 44
-834.118445
 50
0.0
 51
0.0
 71
     0
 72
   100
 73
     1
 74
     3
 75
     0
 76
     0
 77
     0
 78
     0
281
     0
 65
     1
110
0.0
120
0.0
130
0.0
111
1.0
121
0.0
131
0.0
112
0.0
122
1.0
132
0.0
 79
     0
146
0.0
  0
VPORT
  5
451
330
8
100
AcDbSymbolTableRecord
100
AcDbViewportTableRecord
  2
L4
 70
     0
 10
0.0
 20
0.5
 11
0.5
 21
1.0
 12
197.621071
 22
162.564579
 13
0.0
 23
0.0
 14
0.5
 24
0.5
 15
0.5
 25
0.5
 16
0.0
 26
0.0
 36
1.0
 17
0.0
 27
0.0
 37
0.0
 40
254.0
 41
0.069908
 42
50.0
 43
179.256266
 44
-179.256266
 50
0.0
 51
0.0
 71
     0
 72
   100
 73
     1
 74
     3
 75
     0
 76
     0
 77
     0
 78
     0
281
     0
 65
     1
110
0.0
120
0.0
130
0.0
111
1.0
121
0.0
131
0.0
112
0.0
122
1.0
132
0.0
 79
     0
146
0.0
  0
VPORT
  5
452
330
8
100
AcDbSymbolTableRecord
100
AcDbViewportTableRecord
  2
L4
 70
     0
 10
0.0
 20
0.0
 11
0.5
 21
0.5
 12
0.0
 22
0.0
 13
0.0
 23
0.0
 14
0.5
 24
0.5
 15
0.5
 25
0.5
 16
0.0
 26
-1.0
 36
0.0
 17
0.0
 27
0.0
 37
0.0
 40
1618.901383
 41
0.010968
 42
50.0
 43
834.118445
 44
-834.118445
 50
0.0
 51
0.0
 71
     0
 72
   100
 73
     1
 74
     3
 75
     0
 76
     0
 77
     0
 78
     0
281
     0
 65
     1
110
0.0
120
0.0
130
0.0
111
1.0
121
0.0
131
0.0
112
0.0
122
1.0
132
0.0
 79
     0
146
0.0
  0
VPORT
  5
453
330
8
100
AcDbSymbolTableRecord
100
AcDbViewportTableRecord
  2
L4
 70
     0
 10
0.5
 20
0.0
 11
1.0
 21
0.5
 12
0.0
 22
0.0
 13
0.0
 23
0.0
 14
0.5
 24
0.5
 15
0.5
 25
0.5
 16
1.0
 26
0.0
 36
0.0
 17
0.0
 27
0.0
 37
0.0
 40
1618.901383
 41
0.010968
 42
50.0
 43
819.353051
 44
-819.353051
 50
0.0
 51
0.0
 71
     0
 72
   100
 73
     1
 74
     3
 75
     0
 76
     0
 77
     0
 78
     0
281
     0
 65
     1
110
0.0
120
0.0
130
0.0
111
1.0
121
0.0
131
0.0
112
0.0
122
1.0
132
0.0
 79
     0
146
0.0
  0
VPORT
  5
454
330
8
100
AcDbSymbolTableRecord
100
AcDbViewportTableRecord
  2
L4
 70
     0
 10
0.5
 20
0.5
 11
1.0
 21
1.0
 12
0.0
 22
0.0
 13
0.0
 23
0.0
 14
0.5
 24
0.5
 15
0.5
 25
0.5
 16
0.5773502691896258
 26
-0.5773502691896258
 36
0.5773502691896258
 17
0.0
 27
0.0
 37
0.0
 40
1589.926804
 41
0.011168
 42
50.0
 43
828.175562
 44
-828.175562
 50
0.0
 51
0.0
 71
     0
 72
   100
 73
     1
 74
     3
 75
     0
 76
     0
 77
     0
 78
     0
281
     0
 65
     1
110
0.0
120
0.0
130
0.0
111
1.0
121
0.0
131
0.0
112
0.0
122
1.0
132
0.0
 79
     0
146
0.0
  0
VPORT
  5
455
330
8
100
AcDbSymbolTableRecord
100
AcDbViewportTableRecord
  2
L6
 70
     0
 10
0.0
 20
0.5
 11
0.333333
 21
1.0
 12
0.0
 22
0.0
 13
0.0
 23
0.0
 14
0.5
 24
0.5
 15
0.5
 25
0.5
 16
0.7188730927569433
 26
-0.5850486126764433
 36
0.3754192287502549
 17
0.0
 27
0.0
 37
0.0
 40
1677.936718
 41
0.010582
 42
50.0
 43
868.771082
 44
-868.771082
 50
0.0
 51
0.0
 71
     0
 72
   100
 73
     1
 74
     3
 75
     0
 76
     0
 77
     0
 78
     0
281
     0
 65
     1
110
0.0
120
0.0
130
0.0
111
1.0
121
0.0
131
0.0
112
0.0
122
1.0
132
0.0
 79
     0
146
0.0
  0
VPORT
  5
456
330
8
100
AcDbSymbolTableRecord
100
AcDbViewportTableRecord
  2
L6
 70
     0
 10
0.0
 20
0.0
 11
0.333333
 21
0.5
 12
0.0
 22
0.0
 13
0.0
 23
0.0
 14
0.5
 24
0.5
 15
0.5
 25
0.5
 16
-1.0
 26
0.0
 36
0.0
 17
0.0
 27
0.0
 37
0.0
 40
1618.901383
 41
0.010968
 42
50.0
 43
819.353051
 44
-819.353051
 50
0.0
 51
0.0
 71
     0
 72
   100
 73
     1
 74
     3
 75
     0
 76
     0
 77
     0
 78
     0
281
     0
 65
     1
110
0.0
120
0.0
130
0.0
111
1.0
121
0.0
131
0.0
112
0.0
122
1.0
132
0.0
 79
     0
146
0.0
  0
VPORT
  5
457
330
8
100
AcDbSymbolTableRecord
100
AcDbViewportTableRecord
  2
L6
 70
     0
 10
0.333333
 20
0.5
 11
0.666667
 21
1.0
 12
197.621071
 22
162.564579
 13
0.0
 23
0.0
 14
0.5
 24
0.5
 15
0.5
 25
0.5
 16
0.0
 26
0.0
 36
1.0
 17
0.0
 27
0.0
 37
0.0
 40
254.0
 41
0.069908
 42
50.0
 43
179.256266
 44
-179.256266
 50
0.0
 51
0.0
 71
     0
 72
   100
 73
     1
 74
     3
 75
     0
 76
     0
 77
     0
 78
     0
281
     0
 65
     1
110
0.0
120
0.0
130
0.0
111
1.0
121
0.0
131
0.0
112
0.0
122
1.0
132
0.0
 79
     0
146
0.0
  0
VPORT
  5
458
330
8
100
AcDbSymbolTableRecord
100
AcDbViewportTableRecord
  2
L6
 70
     0
 10
0.333333
 20
0.0
 11
0.666667
 21
0.5
 12
0.0
 22
0.0
 13
0.0
 23
0.0
 14
0.5
 24
0.5
 15
0.5
 25
0.5
 16
0.0
 26
-1.0
 36
0.0
 17
0.0
 27
0.0
 37
0.0
 40
1618.901383
 41
0.010968
 42
50.0
 43
834.118445
 44
-834.118445
 50
0.0
 51
0.0
 71
     0
 72
   100
 73
     1
 74
     3
 75
     0
 76
     0
 77
     0
 78
     0
281
     0
 65
     1
110
0.0
120
0.0
130
0.0
111
1.0
121
0.0
131
0.0
112
0.0
122
1.0
132
0.0
 79
     0
146
0.0
  0
VPORT
  5
459
330
8
100
AcDbSymbolTableRecord
100
AcDbViewportTableRecord
  2
L6
 70
     0
 10
0.666667
 20
0.5
 11
1.0
 21
1.0
 12
0.0
 22
0.0
 13
0.0
 23
0.0
 14
0.5
 24
0.5
 15
0.5
 25
0.5
 16
0.5773502691896258
 26
-0.5773502691896258
 36
0.5773502691896258
 17
0.0
 27
0.0
 37
0.0
 40
1589.926804
 41
0.011168
 42
50.0
 43
828.175562
 44
-828.175562
 50
0.0
 51
0.0
 71
     0
 72
   100
 73
     1
 74
     3
 75
     0
 76
     0
 77
     0
 78
     0
281
     0
 65
     1
110
0.0
120
0.0
130
0.0
111
1.0
121
0.0
131
0.0
112
0.0
122
1.0
132
0.0
 79
     0
146
0.0
  0
VPORT
  5
45A
330
8
100
AcDbSymbolTableRecord
100
AcDbViewportTableRecord
  2
L6
 70
     0
 10
0.666667
 20
0.0
 11
1.0
 21
0.5
 12
0.0
 22
0.0
 13
0.0
 23
0.0
 14
0.5
 24
0.5
 15
0.5
 25
0.5
 16
1.0
 26
0.0
 36
0.0
 17
0.0
 27
0.0
 37
0.0
 40
1618.901383
 41
0.010968
 42
50.0
 43
819.353051
 44
-819.353051
 50
0.0
 51
0.0
 71
     0
 72
   100
 73
     1
 74
     3
 75
     0
 76
     0
 77
     0
 78
     0
281
     0
 65
     1
110
0.0
120
0.0
130
0.0
111
1.0
121
0.0
131
0.0
112
0.0
122
1.0
132
0.0
 79
     0
146
0.0
  0
ENDTAB
  0
TABLE
  2
LTYPE
  5
5
330
0
100
AcDbSymbolTable
 70
     6
  0
LTYPE
  5
14
330
5
100
AcDbSymbolTableRecord
100
AcDbLinetypeTableRecord
  2
ByBlock
 70
     0
  3

 72
    65
 73
     0
 40
0.0
  0
LTYPE
  5
15
330
5
100
AcDbSymbolTableRecord
100
AcDbLinetypeTableRecord
  2
ByLayer
 70
     0
  3

 72
    65
 73
     0
 40
0.0
  0
LTYPE
  5
16
330
5
100
AcDbSymbolTableRecord
100
AcDbLinetypeTableRecord
  2
Continuous
 70
     0
  3
Solid line
 72
    65
 73
     0
 40
0.0
  0
LTYPE
  5
6E
330
5
100
AcDbSymbolTableRecord
100
AcDbLinetypeTableRecord
  2
CENTER
 70
     0
  3
____ _ ____ _ ____ _ ____
 72
    65
 73
     4
 40
47.4
 49
22.0
 74
     4
 75
     0
340
0
 46
0.0
 50
0.0
 44
0.0
 45
0.0
 49
-8.5
 74
     4
 75
     0
340
0
 46
0.0
 50
0.0
 44
0.0
 45
0.0
 49
8.5
 74
     4
 75
     0
340
0
 46
0.0
 50
0.0
 44
0.0
 45
0.0
 49
-8.5
 74
     4
 75
     0
340
0
 46
0.0
 50
0.0
 44
0.0
 45
0.0
  0
LTYPE
  5
6F
330
5
100
AcDbSymbolTableRecord
100
AcDbLinetypeTableRecord
  2
DASHDOT
 70
     0
  3
_._._._._._._._._._._._._._._._.
 72
    65
 73
     4
 40
70.0
 49
31.0
 74
     4
 75
     0
340
0
 46
0.0
 50
0.0
 44
0.0
 45
0.0
 49
-13.0
 74
     4
 75
     0
340
0
 46
0.0
 50
0.0
 44
0.0
 45
0.0
 49
13.0
 74
     4
 75
     0
340
0
 46
0.0
 50
0.0
 44
0.0
 45
0.0
 49
-13.0
 74
     4
 75
     0
340
0
 46
0.0
 50
0.0
 44
0.0
 45
0.0
  0
LTYPE
  5
70
330
5
100
AcDbSymbolTableRecord
100
AcDbLinetypeTableRecord
  2
DASHED
 70
     0
  3
__ __ __ __ __ __ __ __ __
 72
    65
 73
     2
 40
25.72
 49
12.86
 74
     4
 75
     0
340
0
 46
0.0
 50
0.0
 44
0.0
 45
0.0
 49
-12.86
 74
     4
 75
     0
340
0
 46
0.0
 50
0.0
 44
0.0
 45
0.0
  0
LTYPE
  5
71
330
5
100
AcDbSymbolTableRecord
100
AcDbLinetypeTableRecord
  2
DOT
 70
     0
  3
.........................
 72
    65
 73
     2
 40
10.0
 49
0.0
 74
     4
 75
     0
340
0
 46
0.0
 50
0.0
 44
0.0
 45
0.0
 49
-10.0
 74
     4
 75
     0
340
0
 46
0.0
 50
0.0
 44
0.0
 45
0.0
  0
LTYPE
  5
72
330
5
100
AcDbSymbolTableRecord
100
AcDbLinetypeTableRecord
  2
PHANTOM
 70
     0
  3
____ _ _ ____ _ _ _____ _ _ ____
 72
    65
 73
     6
 40
50.5
 49
18.0
 74
     4
 75
     0
340
0
 46
0.0
 50
0.0
 44
0.0
 45
0.0
 49
-6.5
 74
     4
 75
     0
340
0
 46
0.0
 50
0.0
 44
0.0
 45
0.0
 49
6.5
 74
     4
 75
     0
340
0
 46
0.0
 50
0.0
 44
0.0
 45
0.0
 49
-6.5
 74
     4
 75
     0
340
0
 46
0.0
 50
0.0
 44
0.0
 45
0.0
 49
6.5
 74
     4
 75
     0
340
0
 46
0.0
 50
0.0
 44
0.0
 45
0.0
 49
-6.5
 74
     4
 75
     0
340
0
 46
0.0
 50
0.0
 44
0.0
 45
0.0
  0
ENDTAB
  0
TABLE
  2
LAYER
  5
99901
330
0
100
AcDbSymbolTable
 70
    19
  0
LAYER
  5
99902
102
{ACAD_XDICTIONARY
360
60E
102
}
330
2
100
AcDbSymbolTableRecord
100
AcDbLayerTableRecord
  2
0
 70
     0
 62
     7
  6
CONTINUOUS
370
    -3
390
F
  0
LAYER
  5
99903
102
{ACAD_XDICTIONARY
360
610
102
}
330
2
100
AcDbSymbolTableRecord
100
AcDbLayerTableRecord
  2
1
 70
     0
 62
     4
  6
CONTINUOUS
370
    -3
390
F
  0
LAYER
  5
99904
102
{ACAD_XDICTIONARY
360
612
102
}
330
2
100
AcDbSymbolTableRecord
100
AcDbLayerTableRecord
  2
2
 70
     0
 62
     7
  6
CONTINUOUS
370
    -3
390
F
  0
LAYER
  5
99905
102
{ACAD_XDICTIONARY
360
614
102
}
330
2
100
AcDbSymbolTableRecord
100
AcDbLayerTableRecord
  2
4
 70
     0
 62
     2
  6
CENTER
370
    -3
390
F
  0
LAYER
  5
99906
102
{ACAD_XDICTIONARY
360
616
102
}
330
2
100
AcDbSymbolTableRecord
100
AcDbLayerTableRecord
  2
SK2
 70
     0
 62
     7
  6
CONTINUOUS
370
    -3
390
F
  0
LAYER
  5
99907
102
{ACAD_XDICTIONARY
360
618
102
}
330
2
100
AcDbSymbolTableRecord
100
AcDbLayerTableRecord
  2
SK3
 70
     0
 62
     1
  6
DASHED
370
    -3
390
F
  0
LAYER
  5
99908
102
{ACAD_XDICTIONARY
360
61A
102
}
330
2
100
AcDbSymbolTableRecord
100
AcDbLayerTableRecord
  2
SK4
 70
     0
 62
     2
  6
CENTER
370
    -3
390
F
  0
LAYER
  5
99909
102
{ACAD_XDICTIONARY
360
61C
102
}
330
2
100
AcDbSymbolTableRecord
100
AcDbLayerTableRecord
  2
SK6
 70
     0
 62
     5
  6
CONTINUOUS
370
    -3
390
F
  0
LAYER
  5
9990A
102
{ACAD_XDICTIONARY
360
61E
102
}
330
2
100
AcDbSymbolTableRecord
100
AcDbLayerTableRecord
  2
CUT
 70
     0
 62
     1
  6
CONTINUOUS
370
    -3
390
F
  0
LAYER
  5
9990B
102
{ACAD_XDICTIONARY
360
620
102
}
330
2
100
AcDbSymbolTableRecord
100
AcDbLayerTableRecord
  2
NOCUT
 70
     0
 62
     7
  6
CONTINUOUS
370
    -3
390
F
  0
LAYER
  5
9990C
102
{ACAD_XDICTIONARY
360
622
102
}
330
2
100
AcDbSymbolTableRecord
100
AcDbLayerTableRecord
  2
80
 70
     0
 62
     6
  6
CONTINUOUS
370
    -3
390
F
  0
LAYER
  5
9990D
102
{ACAD_XDICTIONARY
360
624
102
}
330
2
100
AcDbSymbolTableRecord
100
AcDbLayerTableRecord
  2
81
 70
     0
 62
     3
  6
CONTINUOUS
370
    -3
390
F
  0
LAYER
  5
9990E
102
{ACAD_XDICTIONARY
360
626
102
}
330
2
100
AcDbSymbolTableRecord
100
AcDbLayerTableRecord
  2
SK1
 70
     0
 62
     4
  6
CONTINUOUS
370
    -3
390
F
  0
ENDTAB
  0
TABLE
  2
STYLE
  5
3
330
0
100
AcDbSymbolTable
 70
     3
  0
STYLE
  5
11
330
3
100
AcDbSymbolTableRecord
100
AcDbTextStyleTableRecord
  2
Standard
 70
     0
 40
0.0
 41
1.0
 50
0.0
 71
     0
 42
0.2
  3
txt
  4

  0
STYLE
  5
389
330
3
100
AcDbSymbolTableRecord
100
AcDbTextStyleTableRecord
  2
iso_b_vert
 70
     0
 40
0.0
 41
1.0
 50
0.0
 71
     0
 42
0.2
  3
simplex.shx
  4

  0
STYLE
  5
38A
330
3
100
AcDbSymbolTableRecord
100
AcDbTextStyleTableRecord
  2
DWGDirectTextStyle
 70
     0
 40
0.0
 41
1.0
 50
0.0
 71
     0
 42
0.2
  3
simplex
  4

  0
ENDTAB
  0
TABLE
  2
VIEW
  5
6
330
0
100
AcDbSymbolTable
 70
     8
  0
VIEW
  5
443
330
6
100
AcDbSymbolTableRecord
100
AcDbViewTableRecord
  2
Top
 70
     0
 40
254.0
 10
197.621071
 20
162.564579
 41
402.706633
 11
0.0
 21
0.0
 31
1.0
 12
0.0
 22
0.0
 32
0.0
 42
50.0
 43
179.256266
 44
-179.256266
 50
0.0
 71
     0
281
     0
 72
     0
  0
VIEW
  5
444
330
6
100
AcDbSymbolTableRecord
100
AcDbViewTableRecord
  2
Front
 70
     0
 40
1618.901383
 10
0.0
 20
0.0
 41
402.706633
 11
0.0
 21
-1.0
 31
0.0
 12
0.0
 22
0.0
 32
0.0
 42
50.0
 43
834.118445
 44
-834.118445
 50
0.0
 71
     0
281
     0
 72
     0
  0
VIEW
  5
445
330
6
100
AcDbSymbolTableRecord
100
AcDbViewTableRecord
  2
Right
 70
     0
 40
1618.901383
 10
0.0
 20
0.0
 41
254.0
 11
1.0
 21
0.0
 31
0.0
 12
0.0
 22
0.0
 32
0.0
 42
50.0
 43
819.353051
 44
-819.353051
 50
0.0
 71
     0
281
     0
 72
     0
  0
VIEW
  5
446
330
6
100
AcDbSymbolTableRecord
100
AcDbViewTableRecord
  2
Back
 70
     0
 40
1618.901383
 10
0.0
 20
0.0
 41
402.706633
 11
0.0
 21
1.0
 31
0.0
 12
0.0
 22
0.0
 32
0.0
 42
50.0
 43
834.118445
 44
-834.118445
 50
0.0
 71
     0
281
     0
 72
     0
  0
VIEW
  5
447
330
6
100
AcDbSymbolTableRecord
100
AcDbViewTableRecord
  2
Bottom
 70
     0
 40
254.0
 10
0.0
 20
0.0
 41
402.706633
 11
0.0
 21
0.0
 31
-1.0
 12
0.0
 22
0.0
 32
0.0
 42
50.0
 43
809.450691
 44
-809.450691
 50
180.0
 71
     0
281
     0
 72
     0
  0
VIEW
  5
448
330
6
100
AcDbSymbolTableRecord
100
AcDbViewTableRecord
  2
Left
 70
     0
 40
1618.901383
 10
0.0
 20
0.0
 41
254.0
 11
-1.0
 21
0.0
 31
0.0
 12
0.0
 22
0.0
 32
0.0
 42
50.0
 43
819.353051
 44
-819.353051
 50
0.0
 71
     0
281
     0
 72
     0
  0
VIEW
  5
449
330
6
100
AcDbSymbolTableRecord
100
AcDbViewTableRecord
  2
Isometric
 70
     0
 40
1589.926804
 10
0.0
 20
0.0
 41
464.361713
 11
0.5773502691896258
 21
-0.5773502691896258
 31
0.5773502691896258
 12
0.0
 22
0.0
 32
0.0
 42
50.0
 43
828.175562
 44
-828.175562
 50
0.0
 71
     0
281
     0
 72
     0
  0
VIEW
  5
44A
330
6
100
AcDbSymbolTableRecord
100
AcDbViewTableRecord
  2
Trimetric
 70
     0
 40
1677.936718
 10
0.0
 20
0.0
 41
451.199671
 11
0.7188730927569433
 21
-0.5850486126764433
 31
0.3754192287502549
 12
0.0
 22
0.0
 32
0.0
 42
50.0
 43
868.771082
 44
-868.771082
 50
0.0
 71
     0
281
     0
 72
     0
  0
ENDTAB
  0
TABLE
  2
UCS
  5
7
330
0
100
AcDbSymbolTable
 70
     0
  0
ENDTAB
  0
TABLE
  2
APPID
  5
9
330
0
100
AcDbSymbolTable
 70
     8
  0
APPID
  5
12
330
9
100
AcDbSymbolTableRecord
100
AcDbRegAppTableRecord
  2
ACAD
 70
     0
  0
APPID
  5
394
330
9
100
AcDbSymbolTableRecord
100
AcDbRegAppTableRecord
  2
ACAD_DSTYLE_DIMBREAK
 70
     0
  0
APPID
  5
45B
330
9
100
AcDbSymbolTableRecord
100
AcDbRegAppTableRecord
  2
ACAD_DSTYLE_DIM_LINETYPE
 70
     0
  0
APPID
  5
45C
330
9
100
AcDbSymbolTableRecord
100
AcDbRegAppTableRecord
  2
ACAD_DSTYLE_DIM_EXT1_LINETYPE
 70
     0
  0
APPID
  5
45D
330
9
100
AcDbSymbolTableRecord
100
AcDbRegAppTableRecord
  2
ACAD_DSTYLE_DIM_EXT2_LINETYPE
 70
     0
  0
APPID
  5
45E
330
9
100
AcDbSymbolTableRecord
100
AcDbRegAppTableRecord
  2
ACAD_DSTYLE_DIMFLIPARROW_SYMBOL
 70
     0
  0
APPID
  5
45F
330
9
100
AcDbSymbolTableRecord
100
AcDbRegAppTableRecord
  2
ACAD_DSTYLE_DIMFLIPARROW_WHICH_SYMBOL
 70
     0
  0
APPID
  5
49F
330
9
100
AcDbSymbolTableRecord
100
AcDbRegAppTableRecord
  2
ACAD_MLEADERVER
 70
     0
  0
ENDTAB
  0
TABLE
  2
DIMSTYLE
  5
A
330
0
100
AcDbSymbolTable
 70
     1
100
AcDbDimStyleTable
  0
DIMSTYLE
105
27
102
{ACAD_REACTORS
330
395
330
3AC
330
3C5
330
3DE
330
3F8
330
412
330
42A
102
}
330
A
100
AcDbSymbolTableRecord
100
AcDbDimStyleTableRecord
  2
Standard
 70
     0
178
     0
340
11
1001
ACAD_DSTYLE_DIMBREAK
1070
   391
1040
6.35
  0
ENDTAB
  0
TABLE
  2
BLOCK_RECORD
  5
1
330
0
100
AcDbSymbolTable
 70
    15
  0
BLOCK_RECORD
  5
1F
330
1
100
AcDbSymbolTableRecord
100
AcDbBlockTableRecord
  2
*Model_Space
340
22
  0
BLOCK_RECORD
  5
1B
330
1
100
AcDbSymbolTableRecord
100
AcDbBlockTableRecord
  2
*Paper_Space
340
1E
  0
BLOCK_RECORD
  5
23
330
1
100
AcDbSymbolTableRecord
100
AcDbBlockTableRecord
  2
*Paper_Space0
340
26
  0
BLOCK_RECORD
  5
399
330
1
100
AcDbSymbolTableRecord
100
AcDbBlockTableRecord
  2
*D1
340
0
  0
BLOCK_RECORD
  5
3A4
330
1
100
AcDbSymbolTableRecord
100
AcDbBlockTableRecord
  2
_U0
340
0
  0
BLOCK_RECORD
  5
3AF
330
1
100
AcDbSymbolTableRecord
100
AcDbBlockTableRecord
  2
*D3
340
0
  0
BLOCK_RECORD
  5
3BB
330
1
100
AcDbSymbolTableRecord
100
AcDbBlockTableRecord
  2
_U1
340
0
  0
BLOCK_RECORD
  5
3C8
330
1
100
AcDbSymbolTableRecord
100
AcDbBlockTableRecord
  2
*D5
340
0
  0
BLOCK_RECORD
  5
3D4
330
1
100
AcDbSymbolTableRecord
100
AcDbBlockTableRecord
  2
_U2
340
0
  0
BLOCK_RECORD
  5
3E1
330
1
100
AcDbSymbolTableRecord
100
AcDbBlockTableRecord
  2
*D7
340
0
  0
BLOCK_RECORD
  5
3EF
330
1
100
AcDbSymbolTableRecord
100
AcDbBlockTableRecord
  2
_U3
340
0
  0
BLOCK_RECORD
  5
3FB
330
1
100
AcDbSymbolTableRecord
100
AcDbBlockTableRecord
  2
*D9
340
0
  0
BLOCK_RECORD
  5
409
330
1
100
AcDbSymbolTableRecord
100
AcDbBlockTableRecord
  2
_U4
340
0
  0
BLOCK_RECORD
  5
415
330
1
100
AcDbSymbolTableRecord
100
AcDbBlockTableRecord
  2
*D11
340
0
  0
BLOCK_RECORD
  5
421
330
1
100
AcDbSymbolTableRecord
100
AcDbBlockTableRecord
  2
_U5
340
0
  0
BLOCK_RECORD
  5
42D
330
1
100
AcDbSymbolTableRecord
100
AcDbBlockTableRecord
  2
*D13
340
0
  0
BLOCK_RECORD
  5
43A
330
1
100
AcDbSymbolTableRecord
100
AcDbBlockTableRecord
  2
_U6
340
0
  0
ENDTAB
  0
ENDSEC
  0
SECTION
  2
BLOCKS
  0
BLOCK
  5
20
330
1F
100
AcDbEntity
  8
0
100
AcDbBlockBegin
  2
*Model_Space
 70
     0
 10
0.0
 20
0.0
 30
0.0
  3
*Model_Space
  1

  0
ENDBLK
  5
21
330
1F
100
AcDbEntity
  8
0
100
AcDbBlockEnd
  0
BLOCK
  5
1C
330
1B
100
AcDbEntity
 67
     1
  8
0
100
AcDbBlockBegin
  2
*Paper_Space
 70
     0
 10
0.0
 20
0.0
 30
0.0
  3
*Paper_Space
  1

  0
ENDBLK
  5
1D
330
1B
100
AcDbEntity
 67
     1
  8
0
100
AcDbBlockEnd
  0
BLOCK
  5
24
330
23
100
AcDbEntity
  8
0
100
AcDbBlockBegin
  2
*Paper_Space0
 70
     0
 10
0.0
 20
0.0
 30
0.0
  3
*Paper_Space0
  1

  0
ENDBLK
  5
25
330
23
100
AcDbEntity
  8
0
100
AcDbBlockEnd
  0
BLOCK
  5
39A
330
399
100
AcDbEntity
  8
0
100
AcDbBlockBegin
  2
*D1
 70
     1
 10
0.0
 20
0.0
 30
0.0
  3
*D1
  1

  0
LINE
  5
39C
330
399
100
AcDbEntity
  8
2
370
    -2
100
AcDbLine
 10
224.553585
 20
158.230504
 30
0.0
 11
239.24782
 21
158.230504
 31
0.0
  0
LINE
  5
39D
330
399
100
AcDbEntity
  8
2
370
    -2
100
AcDbLine
 10
225.667743
 20
179.205504
 30
0.0
 11
239.24782
 21
179.205504
 31
0.0
  0
LINE
  5
39E
330
399
100
AcDbEntity
  8
2
370
    -2
100
AcDbLine
 10
237.24782
 20
158.230504
 30
0.0
 11
237.24782
 21
179.205504
 31
0.0
  0
SOLID
  5
39F
330
399
100
AcDbEntity
  8
2
100
AcDbTrace
 10
237.776987
 20
176.030504
 30
0.0
 11
236.718654
 21
176.030504
 31
0.0
 12
237.24782
 22
179.205504
 32
0.0
 13
237.24782
 23
179.205504
 33
0.0
  0
MTEXT
  5
3A0
330
399
100
AcDbEntity
  8
2
370
    13
100
AcDbMText
 10
231.24782
 20
148.126933
 30
0.0
 40
3.0
 41
0.0
 71
     5
 72
     1
  1
\A1;42
  7
iso_b_vert
 11
0.0
 21
1.0
 31
0.0
 73
     1
 44
1.0
  0
POINT
  5
3A1
330
399
100
AcDbEntity
  8
Defpoints
 62
     0
100
AcDbPoint
 10
224.553585
 20
158.230504
 30
0.0
  0
POINT
  5
3A2
330
399
100
AcDbEntity
  8
Defpoints
 62
     0
100
AcDbPoint
 10
225.667743
 20
179.205504
 30
0.0
  0
POINT
  5
3A3
330
399
100
AcDbEntity
  8
Defpoints
 62
     0
100
AcDbPoint
 10
237.24782
 20
179.205504
 30
0.0
  0
ENDBLK
  5
39B
330
399
100
AcDbEntity
  8
0
100
AcDbBlockEnd
  0
BLOCK
  5
3AA
330
3A4
100
AcDbEntity
  8
0
100
AcDbBlockBegin
  2
_U0
 70
     0
 10
0.0
 20
0.0
 30
0.0
  3
_U0
  1

  0
MTEXT
  5
3A5
330
3A4
100
AcDbEntity
  8
2
370
    18
100
AcDbMText
 10
236.094206
 20
157.691246
 30
0.0
 40
3.0
 41
0.0
 71
     7
 72
     5
  1
\W0.8010;42
  7
iso_b_vert
 11
6.123233995736766E-17
 21
1.0
 31
0.0
 73
     2
 44
0.987952
  0
MTEXT
  5
3A6
330
3A4
100
AcDbEntity
  8
2
370
    18
100
AcDbMText
 10
236.094206
 20
151.916246
 30
0.0
 40
3.0
 41
0.0
 71
     7
 72
     5
  1
\W4.3910;\H2.25;%%c\H3.00;
  7
iso_b_vert
 11
6.123233995736766E-17
 21
1.0
 31
0.0
 73
     2
 44
0.987952
  0
LINE
  5
3A7
330
3A4
100
AcDbEntity
  8
2
370
    13
100
AcDbLine
 10
225.667743
 20
179.205504
 30
0.0
 11
239.24782
 21
179.205504
 31
0.0
  0
LINE
  5
3A8
330
3A4
100
AcDbEntity
  8
2
370
    13
100
AcDbLine
 10
237.24782
 20
179.205504
 30
0.0
 11
237.24782
 21
151.781246
 31
0.0
  0
SOLID
  5
3A9
330
3A4
100
AcDbEntity
  8
2
370
    13
100
AcDbTrace
 10
237.24782
 20
179.205504
 30
0.0
 11
237.665817
 21
176.030506
 31
0.0
 12
236.829824
 22
176.030503
 32
0.0
 13
236.829824
 23
176.030503
 33
0.0
  0
ENDBLK
  5
3AB
330
3A4
100
AcDbEntity
  8
0
100
AcDbBlockEnd
  0
BLOCK
  5
3B0
330
3AF
100
AcDbEntity
  8
0
100
AcDbBlockBegin
  2
*D3
 70
     1
 10
0.0
 20
0.0
 30
0.0
  3
*D3
  1

  0
LINE
  5
3B2
330
3AF
100
AcDbEntity
  8
SK2
370
    -2
100
AcDbLine
 10
186.167743
 20
177.230504
 30
0.0
 11
159.619316
 21
177.230504
 31
0.0
  0
LINE
  5
3B3
330
3AF
100
AcDbEntity
  8
SK2
370
    -2
100
AcDbLine
 10
186.167743
 20
139.230504
 30
0.0
 11
159.619316
 21
139.230504
 31
0.0
  0
LINE
  5
3B4
330
3AF
100
AcDbEntity
  8
SK2
370
    -2
100
AcDbLine
 10
161.619316
 20
174.055504
 30
0.0
 11
161.619316
 21
142.405504
 31
0.0
  0
SOLID
  5
3B5
330
3AF
100
AcDbEntity
  8
SK2
100
AcDbTrace
 10
162.148483
 20
174.055504
 30
0.0
 11
161.09015
 21
174.055504
 31
0.0
 12
161.619316
 22
177.230504
 32
0.0
 13
161.619316
 23
177.230504
 33
0.0
  0
SOLID
  5
3B6
330
3AF
100
AcDbEntity
  8
SK2
100
AcDbTrace
 10
161.09015
 20
142.405504
 30
0.0
 11
162.148483
 21
142.405504
 31
0.0
 12
161.619316
 22
139.230504
 32
0.0
 13
161.619316
 23
139.230504
 33
0.0
  0
MTEXT
  5
3B7
330
3AF
100
AcDbEntity
  8
SK2
370
    13
100
AcDbMText
 10
155.619316
 20
158.230504
 30
0.0
 40
3.0
 41
0.0
 71
     5
 72
     1
  1
\A1;38
  7
iso_b_vert
 11
0.0
 21
1.0
 31
0.0
 73
     1
 44
1.0
  0
POINT
  5
3B8
330
3AF
100
AcDbEntity
  8
Defpoints
 62
     0
100
AcDbPoint
 10
186.167743
 20
177.230504
 30
0.0
  0
POINT
  5
3B9
330
3AF
100
AcDbEntity
  8
Defpoints
 62
     0
100
AcDbPoint
 10
186.167743
 20
139.230504
 30
0.0
  0
POINT
  5
3BA
330
3AF
100
AcDbEntity
  8
Defpoints
 62
     0
100
AcDbPoint
 10
161.619316
 20
139.230504
 30
0.0
  0
ENDBLK
  5
3B1
330
3AF
100
AcDbEntity
  8
0
100
AcDbBlockEnd
  0
BLOCK
  5
3C3
330
3BB
100
AcDbEntity
  8
0
100
AcDbBlockBegin
  2
_U1
 70
     0
 10
0.0
 20
0.0
 30
0.0
  3
_U1
  1

  0
MTEXT
  5
3BC
330
3BB
100
AcDbEntity
  8
SK2
370
    18
100
AcDbMText
 10
160.465702
 20
159.461176
 30
0.0
 40
3.0
 41
0.0
 71
     7
 72
     5
  1
\W0.7335;38
  7
iso_b_vert
 11
6.123233995736766E-17
 21
1.0
 31
0.0
 73
     2
 44
0.987952
  0
MTEXT
  5
3BD
330
3BB
100
AcDbEntity
  8
SK2
370
    18
100
AcDbMText
 10
160.465702
 20
153.686176
 30
0.0
 40
3.0
 41
0.0
 71
     7
 72
     5
  1
\W4.3910;\H2.25;%%c\H3.00;
  7
iso_b_vert
 11
6.123233995736766E-17
 21
1.0
 31
0.0
 73
     2
 44
0.987952
  0
LINE
  5
3BE
330
3BB
100
AcDbEntity
  8
SK2
370
    13
100
AcDbLine
 10
186.167743
 20
177.230504
 30
0.0
 11
159.619316
 21
177.230504
 31
0.0
  0
LINE
  5
3BF
330
3BB
100
AcDbEntity
  8
SK2
370
    13
100
AcDbLine
 10
186.167743
 20
139.230504
 30
0.0
 11
159.619316
 21
139.230504
 31
0.0
  0
LINE
  5
3C0
330
3BB
100
AcDbEntity
  8
SK2
370
    13
100
AcDbLine
 10
161.619316
 20
177.230504
 30
0.0
 11
161.619316
 21
139.230504
 31
0.0
  0
SOLID
  5
3C1
330
3BB
100
AcDbEntity
  8
SK2
370
    13
100
AcDbTrace
 10
161.619316
 20
177.230504
 30
0.0
 11
162.037313
 21
174.055506
 31
0.0
 12
161.20132
 22
174.055503
 32
0.0
 13
161.20132
 23
174.055503
 33
0.0
  0
SOLID
  5
3C2
330
3BB
100
AcDbEntity
  8
SK2
370
    13
100
AcDbTrace
 10
161.619316
 20
139.230504
 30
0.0
 11
161.20132
 21
142.405503
 31
0.0
 12
162.037313
 22
142.405506
 32
0.0
 13
162.037313
 23
142.405506
 33
0.0
  0
ENDBLK
  5
3C4
330
3BB
100
AcDbEntity
  8
0
100
AcDbBlockEnd
  0
BLOCK
  5
3C9
330
3C8
100
AcDbEntity
  8
0
100
AcDbBlockBegin
  2
*D5
 70
     1
 10
0.0
 20
0.0
 30
0.0
  3
*D5
  1

  0
LINE
  5
3CB
330
3C8
100
AcDbEntity
  8
SK2
370
    -2
100
AcDbLine
 10
192.679315
 20
166.233254
 30
0.0
 11
167.393542
 21
166.233254
 31
0.0
  0
LINE
  5
3CC
330
3C8
100
AcDbEntity
  8
SK2
370
    -2
100
AcDbLine
 10
192.679315
 20
150.227754
 30
0.0
 11
167.393542
 21
150.227754
 31
0.0
  0
LINE
  5
3CD
330
3C8
100
AcDbEntity
  8
SK2
370
    -2
100
AcDbLine
 10
169.393542
 20
163.058254
 30
0.0
 11
169.393542
 21
153.402754
 31
0.0
  0
SOLID
  5
3CE
330
3C8
100
AcDbEntity
  8
SK2
100
AcDbTrace
 10
169.922708
 20
163.058254
 30
0.0
 11
168.864375
 21
163.058254
 31
0.0
 12
169.393542
 22
166.233254
 32
0.0
 13
169.393542
 23
166.233254
 33
0.0
  0
SOLID
  5
3CF
330
3C8
100
AcDbEntity
  8
SK2
100
AcDbTrace
 10
168.864375
 20
153.402754
 30
0.0
 11
169.922708
 21
153.402754
 31
0.0
 12
169.393542
 22
150.227754
 32
0.0
 13
169.393542
 23
150.227754
 33
0.0
  0
MTEXT
  5
3D0
330
3C8
100
AcDbEntity
  8
SK2
370
    13
100
AcDbMText
 10
163.393542
 20
158.230504
 30
0.0
 40
3.0
 41
0.0
 71
     5
 72
     1
  1
\A1;16
  7
iso_b_vert
 11
0.0
 21
1.0
 31
0.0
 73
     1
 44
1.0
  0
POINT
  5
3D1
330
3C8
100
AcDbEntity
  8
Defpoints
 62
     0
100
AcDbPoint
 10
192.679315
 20
166.233254
 30
0.0
  0
POINT
  5
3D2
330
3C8
100
AcDbEntity
  8
Defpoints
 62
     0
100
AcDbPoint
 10
192.679315
 20
150.227754
 30
0.0
  0
POINT
  5
3D3
330
3C8
100
AcDbEntity
  8
Defpoints
 62
     0
100
AcDbPoint
 10
169.393542
 20
150.227754
 30
0.0
  0
ENDBLK
  5
3CA
330
3C8
100
AcDbEntity
  8
0
100
AcDbBlockEnd
  0
BLOCK
  5
3DC
330
3D4
100
AcDbEntity
  8
0
100
AcDbBlockBegin
  2
_U2
 70
     0
 10
0.0
 20
0.0
 30
0.0
  3
_U2
  1

  0
MTEXT
  5
3D5
330
3D4
100
AcDbEntity
  8
SK2
370
    18
100
AcDbMText
 10
168.239927
 20
159.836119
 30
0.0
 40
3.0
 41
0.0
 71
     7
 72
     5
  1
\W0.6789;16
  7
iso_b_vert
 11
6.123233995736766E-17
 21
1.0
 31
0.0
 73
     2
 44
0.987952
  0
MTEXT
  5
3D6
330
3D4
100
AcDbEntity
  8
SK2
370
    18
100
AcDbMText
 10
168.239927
 20
154.061119
 30
0.0
 40
3.0
 41
0.0
 71
     7
 72
     5
  1
\W4.3910;\H2.25;%%c\H3.00;
  7
iso_b_vert
 11
6.123233995736766E-17
 21
1.0
 31
0.0
 73
     2
 44
0.987952
  0
LINE
  5
3D7
330
3D4
100
AcDbEntity
  8
SK2
370
    13
100
AcDbLine
 10
192.679315
 20
166.233254
 30
0.0
 11
167.393542
 21
166.233254
 31
0.0
  0
LINE
  5
3D8
330
3D4
100
AcDbEntity
  8
SK2
370
    13
100
AcDbLine
 10
192.679315
 20
150.227754
 30
0.0
 11
167.393542
 21
150.227754
 31
0.0
  0
LINE
  5
3D9
330
3D4
100
AcDbEntity
  8
SK2
370
    13
100
AcDbLine
 10
169.393542
 20
166.233254
 30
0.0
 11
169.393542
 21
150.227754
 31
0.0
  0
SOLID
  5
3DA
330
3D4
100
AcDbEntity
  8
SK2
370
    13
100
AcDbTrace
 10
169.393542
 20
166.233254
 30
0.0
 11
169.811538
 21
163.058256
 31
0.0
 12
168.975545
 22
163.058253
 32
0.0
 13
168.975545
 23
163.058253
 33
0.0
  0
SOLID
  5
3DB
330
3D4
100
AcDbEntity
  8
SK2
370
    13
100
AcDbTrace
 10
169.393542
 20
150.227754
 30
0.0
 11
168.975545
 21
153.402753
 31
0.0
 12
169.811538
 22
153.402756
 32
0.0
 13
169.811538
 23
153.402756
 33
0.0
  0
ENDBLK
  5
3DD
330
3D4
100
AcDbEntity
  8
0
100
AcDbBlockEnd
  0
BLOCK
  5
3E2
330
3E1
100
AcDbEntity
  8
0
100
AcDbBlockBegin
  2
*D7
 70
     1
 10
0.0
 20
0.0
 30
0.0
  3
*D7
  1

  0
LINE
  5
3E4
330
3E1
100
AcDbEntity
  8
SK2
370
    -2
100
AcDbLine
 10
185.667743
 20
139.730504
 30
0.0
 11
185.667743
 21
128.007285
 31
0.0
  0
LINE
  5
3E5
330
3E1
100
AcDbEntity
  8
SK2
370
    -2
100
AcDbLine
 10
191.327743
 20
154.243683
 30
0.0
 11
191.327743
 21
128.007285
 31
0.0
  0
LINE
  5
3E6
330
3E1
100
AcDbEntity
  8
SK2
370
    -2
100
AcDbLine
 10
185.667743
 20
130.007285
 30
0.0
 11
164.032028
 21
130.007285
 31
0.0
  0
LINE
  5
3E7
330
3E1
100
AcDbEntity
  8
SK2
370
    -2
100
AcDbLine
 10
185.667743
 20
130.007285
 30
0.0
 11
182.492743
 21
130.007285
 31
0.0
  0
LINE
  5
3E8
330
3E1
100
AcDbEntity
  8
SK2
370
    -2
100
AcDbLine
 10
191.327743
 20
130.007285
 30
0.0
 11
194.502743
 21
130.007285
 31
0.0
  0
SOLID
  5
3E9
330
3E1
100
AcDbEntity
  8
SK2
100
AcDbTrace
 10
188.842743
 20
130.536452
 30
0.0
 11
188.842743
 21
129.478119
 31
0.0
 12
185.667743
 22
130.007285
 32
0.0
 13
185.667743
 23
130.007285
 33
0.0
  0
SOLID
  5
3EA
330
3E1
100
AcDbEntity
  8
SK2
100
AcDbTrace
 10
188.152743
 20
129.478119
 30
0.0
 11
188.152743
 21
130.536452
 31
0.0
 12
191.327743
 22
130.007285
 32
0.0
 13
191.327743
 23
130.007285
 33
0.0
  0
MTEXT
  5
3EB
330
3E1
100
AcDbEntity
  8
SK2
370
    13
100
AcDbMText
 10
171.674886
 20
136.007285
 30
0.0
 40
3.0
 41
0.0
 71
     5
 72
     1
  1
\A1;5.7
  7
iso_b_vert
 73
     1
 44
1.0
  0
POINT
  5
3EC
330
3E1
100
AcDbEntity
  8
Defpoints
 62
     0
100
AcDbPoint
 10
185.667743
 20
139.730504
 30
0.0
  0
POINT
  5
3ED
330
3E1
100
AcDbEntity
  8
Defpoints
 62
     0
100
AcDbPoint
 10
191.327743
 20
154.243683
 30
0.0
  0
POINT
  5
3EE
330
3E1
100
AcDbEntity
  8
Defpoints
 62
     0
100
AcDbPoint
 10
191.327743
 20
130.007285
 30
0.0
  0
ENDBLK
  5
3E3
330
3E1
100
AcDbEntity
  8
0
100
AcDbBlockEnd
  0
BLOCK
  5
3F6
330
3EF
100
AcDbEntity
  8
0
100
AcDbBlockBegin
  2
_U3
 70
     0
 10
0.0
 20
0.0
 30
0.0
  3
_U3
  1

  0
MTEXT
  5
3F0
330
3EF
100
AcDbEntity
  8
SK2
370
    18
100
AcDbMText
 10
176.609296
 20
130.8924
 30
0.0
 40
3.0
 41
0.0
 71
     7
 72
     5
  1
\W0.7555;5,6
  7
iso_b_vert
 73
     2
 44
0.987952
  0
LINE
  5
3F1
330
3EF
100
AcDbEntity
  8
SK2
370
    13
100
AcDbLine
 10
185.667743
 20
139.730504
 30
0.0
 11
185.667743
 21
128.007285
 31
0.0
  0
LINE
  5
3F2
330
3EF
100
AcDbEntity
  8
SK2
370
    13
100
AcDbLine
 10
191.327743
 20
154.243683
 30
0.0
 11
191.327743
 21
128.007285
 31
0.0
  0
LINE
  5
3F3
330
3EF
100
AcDbEntity
  8
SK2
370
    13
100
AcDbLine
 10
198.827743
 20
130.007285
 30
0.0
 11
176.450296
 21
130.007285
 31
0.0
  0
SOLID
  5
3F4
330
3EF
100
AcDbEntity
  8
SK2
370
    13
100
AcDbTrace
 10
185.667743
 20
130.007285
 30
0.0
 11
182.492744
 21
129.589289
 31
0.0
 12
182.492741
 22
130.425282
 32
0.0
 13
182.492741
 23
130.425282
 33
0.0
  0
SOLID
  5
3F5
330
3EF
100
AcDbEntity
  8
SK2
370
    13
100
AcDbTrace
 10
191.327743
 20
130.007285
 30
0.0
 11
194.502741
 21
130.425282
 31
0.0
 12
194.502744
 22
129.589289
 32
0.0
 13
194.502744
 23
129.589289
 33
0.0
  0
ENDBLK
  5
3F7
330
3EF
100
AcDbEntity
  8
0
100
AcDbBlockEnd
  0
BLOCK
  5
3FC
330
3FB
100
AcDbEntity
  8
0
100
AcDbBlockBegin
  2
*D9
 70
     1
 10
0.0
 20
0.0
 30
0.0
  3
*D9
  1

  0
LINE
  5
3FE
330
3FB
100
AcDbEntity
  8
2
370
    -2
100
AcDbLine
 10
225.667743
 20
179.205504
 30
0.0
 11
225.667743
 21
188.499991
 31
0.0
  0
LINE
  5
3FF
330
3FB
100
AcDbEntity
  8
2
370
    -2
100
AcDbLine
 10
223.778828
 20
178.605008
 30
0.0
 11
223.778828
 21
188.499991
 31
0.0
  0
LINE
  5
400
330
3FB
100
AcDbEntity
  8
2
370
    -2
100
AcDbLine
 10
225.667743
 20
186.499991
 30
0.0
 11
246.589171
 21
186.499991
 31
0.0
  0
LINE
  5
401
330
3FB
100
AcDbEntity
  8
2
370
    -2
100
AcDbLine
 10
228.842743
 20
186.499991
 30
0.0
 11
232.017743
 21
186.499991
 31
0.0
  0
LINE
  5
402
330
3FB
100
AcDbEntity
  8
2
370
    -2
100
AcDbLine
 10
220.603828
 20
186.499991
 30
0.0
 11
217.428828
 21
186.499991
 31
0.0
  0
SOLID
  5
403
330
3FB
100
AcDbEntity
  8
2
100
AcDbTrace
 10
228.842743
 20
187.029158
 30
0.0
 11
228.842743
 21
185.970824
 31
0.0
 12
225.667743
 22
186.499991
 32
0.0
 13
225.667743
 23
186.499991
 33
0.0
  0
SOLID
  5
404
330
3FB
100
AcDbEntity
  8
2
100
AcDbTrace
 10
220.603828
 20
185.970824
 30
0.0
 11
220.603828
 21
187.029158
 31
0.0
 12
223.778828
 22
186.499991
 32
0.0
 13
223.778828
 23
186.499991
 33
0.0
  0
MTEXT
  5
405
330
3FB
100
AcDbEntity
  8
2
370
    13
100
AcDbMText
 10
239.303457
 20
192.499991
 30
0.0
 40
3.0
 41
0.0
 71
     5
 72
     1
  1
\A1;1.9
  7
iso_b_vert
 73
     1
 44
1.0
  0
POINT
  5
406
330
3FB
100
AcDbEntity
  8
Defpoints
 62
     0
100
AcDbPoint
 10
225.667743
 20
179.205504
 30
0.0
  0
POINT
  5
407
330
3FB
100
AcDbEntity
  8
Defpoints
 62
     0
100
AcDbPoint
 10
223.778828
 20
178.605008
 30
0.0
  0
POINT
  5
408
330
3FB
100
AcDbEntity
  8
Defpoints
 62
     0
100
AcDbPoint
 10
223.778828
 20
186.499991
 30
0.0
  0
ENDBLK
  5
3FD
330
3FB
100
AcDbEntity
  8
0
100
AcDbBlockEnd
  0
BLOCK
  5
410
330
409
100
AcDbEntity
  8
0
100
AcDbBlockBegin
  2
_U4
 70
     0
 10
0.0
 20
0.0
 30
0.0
  3
_U4
  1

  0
MTEXT
  5
40A
330
409
100
AcDbEntity
  8
2
370
    18
100
AcDbMText
 10
232.553233
 20
187.385105
 30
0.0
 40
3.0
 41
0.0
 71
     7
 72
     5
  1
\W0.6983;1,9
  7
iso_b_vert
 73
     2
 44
0.987952
  0
LINE
  5
40B
330
409
100
AcDbEntity
  8
2
370
    13
100
AcDbLine
 10
225.667743
 20
179.205504
 30
0.0
 11
225.667743
 21
188.499991
 31
0.0
  0
LINE
  5
40C
330
409
100
AcDbEntity
  8
2
370
    13
100
AcDbLine
 10
223.778828
 20
178.605008
 30
0.0
 11
223.778828
 21
188.499991
 31
0.0
  0
LINE
  5
40D
330
409
100
AcDbEntity
  8
2
370
    13
100
AcDbLine
 10
216.278828
 20
186.499991
 30
0.0
 11
236.285489
 21
186.499991
 31
0.0
  0
SOLID
  5
40E
330
409
100
AcDbEntity
  8
2
370
    13
100
AcDbTrace
 10
225.667743
 20
186.499991
 30
0.0
 11
228.842741
 21
186.917988
 31
0.0
 12
228.842744
 22
186.081994
 32
0.0
 13
228.842744
 23
186.081994
 33
0.0
  0
SOLID
  5
40F
330
409
100
AcDbEntity
  8
2
370
    13
100
AcDbTrace
 10
223.778828
 20
186.499991
 30
0.0
 11
220.603829
 21
186.081994
 31
0.0
 12
220.603826
 22
186.917988
 32
0.0
 13
220.603826
 23
186.917988
 33
0.0
  0
ENDBLK
  5
411
330
409
100
AcDbEntity
  8
0
100
AcDbBlockEnd
  0
BLOCK
  5
416
330
415
100
AcDbEntity
  8
0
100
AcDbBlockBegin
  2
*D11
 70
     1
 10
0.0
 20
0.0
 30
0.0
  3
*D11
  1

  0
LINE
  5
418
330
415
100
AcDbEntity
  8
2
370
    -2
100
AcDbLine
 10
185.667743
 20
176.730504
 30
0.0
 11
185.667743
 21
203.011879
 31
0.0
  0
LINE
  5
419
330
415
100
AcDbEntity
  8
2
370
    -2
100
AcDbLine
 10
225.667743
 20
180.205504
 30
0.0
 11
225.667743
 21
203.011879
 31
0.0
  0
LINE
  5
41A
330
415
100
AcDbEntity
  8
2
370
    -2
100
AcDbLine
 10
188.842743
 20
201.011879
 30
0.0
 11
222.492743
 21
201.011879
 31
0.0
  0
SOLID
  5
41B
330
415
100
AcDbEntity
  8
2
100
AcDbTrace
 10
188.842743
 20
201.541045
 30
0.0
 11
188.842743
 21
200.482712
 31
0.0
 12
185.667743
 22
201.011879
 32
0.0
 13
185.667743
 23
201.011879
 33
0.0
  0
SOLID
  5
41C
330
415
100
AcDbEntity
  8
2
100
AcDbTrace
 10
222.492743
 20
200.482712
 30
0.0
 11
222.492743
 21
201.541045
 31
0.0
 12
225.667743
 22
201.011879
 32
0.0
 13
225.667743
 23
201.011879
 33
0.0
  0
MTEXT
  5
41D
330
415
100
AcDbEntity
  8
2
370
    13
100
AcDbMText
 10
205.667743
 20
207.011879
 30
0.0
 40
3.0
 41
0.0
 71
     5
 72
     1
  1
\A1;40
  7
iso_b_vert
 73
     1
 44
1.0
  0
POINT
  5
41E
330
415
100
AcDbEntity
  8
Defpoints
 62
     0
100
AcDbPoint
 10
185.667743
 20
176.730504
 30
0.0
  0
POINT
  5
41F
330
415
100
AcDbEntity
  8
Defpoints
 62
     0
100
AcDbPoint
 10
225.667743
 20
180.205504
 30
0.0
  0
POINT
  5
420
330
415
100
AcDbEntity
  8
Defpoints
 62
     0
100
AcDbPoint
 10
225.667743
 20
201.011879
 30
0.0
  0
ENDBLK
  5
417
330
415
100
AcDbEntity
  8
0
100
AcDbBlockEnd
  0
BLOCK
  5
428
330
421
100
AcDbEntity
  8
0
100
AcDbBlockBegin
  2
_U5
 70
     0
 10
0.0
 20
0.0
 30
0.0
  3
_U5
  1

  0
MTEXT
  5
422
330
421
100
AcDbEntity
  8
2
370
    18
100
AcDbMText
 10
203.876972
 20
201.896993
 30
0.0
 40
3.0
 41
0.0
 71
     7
 72
     5
  1
\W0.8010;40
  7
iso_b_vert
 73
     2
 44
0.987952
  0
LINE
  5
423
330
421
100
AcDbEntity
  8
2
370
    13
100
AcDbLine
 10
185.667743
 20
176.730504
 30
0.0
 11
185.667743
 21
203.011879
 31
0.0
  0
LINE
  5
424
330
421
100
AcDbEntity
  8
2
370
    13
100
AcDbLine
 10
225.667743
 20
180.205504
 30
0.0
 11
225.667743
 21
203.011879
 31
0.0
  0
LINE
  5
425
330
421
100
AcDbEntity
  8
2
370
    13
100
AcDbLine
 10
185.667743
 20
201.011879
 30
0.0
 11
225.667743
 21
201.011879
 31
0.0
  0
SOLID
  5
426
330
421
100
AcDbEntity
  8
2
370
    13
100
AcDbTrace
 10
185.667743
 20
201.011879
 30
0.0
 11
188.842741
 21
201.429875
 31
0.0
 12
188.842744
 22
200.593882
 32
0.0
 13
188.842744
 23
200.593882
 33
0.0
  0
SOLID
  5
427
330
421
100
AcDbEntity
  8
2
370
    13
100
AcDbTrace
 10
225.667743
 20
201.011879
 30
0.0
 11
222.492744
 21
200.593882
 31
0.0
 12
222.492741
 22
201.429875
 32
0.0
 13
222.492741
 23
201.429875
 33
0.0
  0
ENDBLK
  5
429
330
421
100
AcDbEntity
  8
0
100
AcDbBlockEnd
  0
BLOCK
  5
42E
330
42D
100
AcDbEntity
  8
0
100
AcDbBlockBegin
  2
*D13
 70
     1
 10
0.0
 20
0.0
 30
0.0
  3
*D13
  1

  0
LINE
  5
430
330
42D
100
AcDbEntity
  8
SK2
370
    -2
100
AcDbLine
 10
186.367743
 20
162.453004
 30
0.0
 11
176.905535
 21
162.453004
 31
0.0
  0
LINE
  5
431
330
42D
100
AcDbEntity
  8
SK2
370
    -2
100
AcDbLine
 10
186.367743
 20
154.008004
 30
0.0
 11
176.905535
 21
154.008004
 31
0.0
  0
LINE
  5
432
330
42D
100
AcDbEntity
  8
SK2
370
    -2
100
AcDbLine
 10
178.905535
 20
165.628004
 30
0.0
 11
178.905535
 21
168.803004
 31
0.0
  0
LINE
  5
433
330
42D
100
AcDbEntity
  8
SK2
370
    -2
100
AcDbLine
 10
178.905535
 20
150.833004
 30
0.0
 11
178.905535
 21
147.658004
 31
0.0
  0
SOLID
  5
434
330
42D
100
AcDbEntity
  8
SK2
100
AcDbTrace
 10
178.376369
 20
165.628004
 30
0.0
 11
179.434702
 21
165.628004
 31
0.0
 12
178.905535
 22
162.453004
 32
0.0
 13
178.905535
 23
162.453004
 33
0.0
  0
SOLID
  5
435
330
42D
100
AcDbEntity
  8
SK2
100
AcDbTrace
 10
179.434702
 20
150.833004
 30
0.0
 11
178.376369
 21
150.833004
 31
0.0
 12
178.905535
 22
154.008004
 32
0.0
 13
178.905535
 23
154.008004
 33
0.0
  0
MTEXT
  5
436
330
42D
100
AcDbEntity
  8
SK2
370
    13
100
AcDbMText
 10
172.905535
 20
158.230504
 30
0.0
 40
3.0
 41
0.0
 71
     5
 72
     1
  1
\A1;8.445
  7
iso_b_vert
 11
0.0
 21
1.0
 31
0.0
 73
     1
 44
1.0
  0
POINT
  5
437
330
42D
100
AcDbEntity
  8
Defpoints
 62
     0
100
AcDbPoint
 10
186.367743
 20
162.453004
 30
0.0
  0
POINT
  5
438
330
42D
100
AcDbEntity
  8
Defpoints
 62
     0
100
AcDbPoint
 10
186.367743
 20
154.008004
 30
0.0
  0
POINT
  5
439
330
42D
100
AcDbEntity
  8
Defpoints
 62
     0
100
AcDbPoint
 10
178.905535
 20
154.008004
 30
0.0
  0
ENDBLK
  5
42F
330
42D
100
AcDbEntity
  8
0
100
AcDbBlockEnd
  0
BLOCK
  5
441
330
43A
100
AcDbEntity
  8
0
100
AcDbBlockBegin
  2
_U6
 70
     0
 10
0.0
 20
0.0
 30
0.0
  3
_U6
  1

  0
MTEXT
  5
43B
330
43A
100
AcDbEntity
  8
SK2
370
    18
100
AcDbMText
 10
178.314421
 20
155.886991
 30
0.0
 40
3.0
 41
0.0
 71
     7
 72
     5
  1
\W0.7656;8,4
  7
iso_b_vert
 11
6.123233995736766E-17
 21
1.0
 31
0.0
 73
     2
 44
0.987952
  0
LINE
  5
43C
330
43A
100
AcDbEntity
  8
SK2
370
    13
100
AcDbLine
 10
186.367743
 20
162.453004
 30
0.0
 11
176.905535
 21
162.453004
 31
0.0
  0
LINE
  5
43D
330
43A
100
AcDbEntity
  8
SK2
370
    13
100
AcDbLine
 10
186.367743
 20
154.008004
 30
0.0
 11
176.905535
 21
154.008004
 31
0.0
  0
LINE
  5
43E
330
43A
100
AcDbEntity
  8
SK2
370
    13
100
AcDbLine
 10
178.905535
 20
162.453004
 30
0.0
 11
178.905535
 21
154.008004
 31
0.0
  0
SOLID
  5
43F
330
43A
100
AcDbEntity
  8
SK2
370
    13
100
AcDbTrace
 10
178.905535
 20
162.453004
 30
0.0
 11
179.323532
 21
159.278006
 31
0.0
 12
178.487539
 22
159.278003
 32
0.0
 13
178.487539
 23
159.278003
 33
0.0
  0
SOLID
  5
440
330
43A
100
AcDbEntity
  8
SK2
370
    13
100
AcDbTrace
 10
178.905535
 20
154.008004
 30
0.0
 11
178.487539
 21
157.183003
 31
0.0
 12
179.323532
 22
157.183006
 32
0.0
 13
179.323532
 23
157.183006
 33
0.0
  0
ENDBLK
  5
442
330
43A
100
AcDbEntity
  8
0
100
AcDbBlockEnd
  0
ENDSEC
  0
SECTION
  2
ENTITIES
  0
POINT
  5
73
330
1F
100
AcDbEntity
  8
80
370
    18
100
AcDbPoint
 10
185.667743
 20
158.230504
 30
0.0
  0
POINT
  5
75
330
1F
100
AcDbEntity
  8
81
370
    18
100
AcDbPoint
 10
225.667743
 20
179.205504
 30
0.0
  0
POINT
  5
76
330
1F
100
AcDbEntity
  8
4
 60
     1
370
    13
100
AcDbPoint
 10
185.667743
 20
158.230504
 30
0.0
  0
POINT
  5
78
330
1F
100
AcDbEntity
  8
4
 60
     1
370
    13
100
AcDbPoint
 10
224.553585
 20
158.230504
 30
0.0
  0
POINT
  5
79
330
1F
100
AcDbEntity
  8
SK4
 60
     1
370
    13
100
AcDbPoint
 10
185.667743
 20
158.230504
 30
0.0
  0
POINT
  5
7A
330
1F
100
AcDbEntity
  8
SK4
 60
     1
370
    13
100
AcDbPoint
 10
224.553585
 20
158.230504
 30
0.0
  0
POINT
  5
7B
102
{ACAD_REACTORS
330
3FA
102
}
330
1F
100
AcDbEntity
  8
SK6
 60
     1
370
    13
100
AcDbPoint
 10
223.778828
 20
178.605008
 30
0.0
  0
POINT
  5
7C
102
{ACAD_REACTORS
330
414
102
}
330
1F
100
AcDbEntity
  8
SK6
 60
     1
370
    13
100
AcDbPoint
 10
185.667743
 20
176.730504
 30
0.0
  0
LINE
  5
7D
330
1F
100
AcDbEntity
  8
1
370
    50
100
AcDbLine
 10
212.679849
 20
169.491214
 30
0.0
 11
211.664179
 21
174.203105
 31
0.0
  0
LINE
  5
7F
330
1F
100
AcDbEntity
  8
1
370
    50
100
AcDbLine
 10
185.667743
 20
164.027911
 30
0.0
 11
185.667743
 21
163.453004
 31
0.0
  0
LINE
  5
80
330
1F
100
AcDbEntity
  8
1
370
    50
100
AcDbLine
 10
185.667743
 20
153.008004
 30
0.0
 11
185.667743
 21
152.433098
 31
0.0
  0
LINE
  5
81
330
1F
100
AcDbEntity
  8
1
370
    50
100
AcDbLine
 10
185.667743
 20
163.153004
 30
0.0
 11
185.667743
 21
163.453004
 31
0.0
  0
LINE
  5
82
330
1F
100
AcDbEntity
  8
1
370
    50
100
AcDbLine
 10
185.667743
 20
153.308004
 30
0.0
 11
185.667743
 21
153.008004
 31
0.0
  0
LINE
  5
83
330
1F
100
AcDbEntity
  8
1
370
    50
100
AcDbLine
 10
222.190989
 20
170.577144
 30
0.0
 11
223.20813
 21
170.177855
 31
0.0
  0
LINE
  5
84
330
1F
100
AcDbEntity
  8
1
370
    50
100
AcDbLine
 10
211.949058
 20
158.97535
 30
0.0
 11
211.664179
 21
159.1159
 31
0.0
  0
LINE
  5
85
330
1F
100
AcDbEntity
  8
1
370
    50
100
AcDbLine
 10
218.008516
 20
173.24885
 30
0.0
 11
218.162284
 21
173.095082
 31
0.0
  0
LINE
  5
87
330
1F
100
AcDbEntity
  8
1
370
    50
100
AcDbLine
 10
217.58339
 20
172.579113
 30
0.0
 11
217.429892
 21
172.732611
 31
0.0
  0
LINE
  5
88
330
1F
100
AcDbEntity
  8
1
370
    50
100
AcDbLine
 10
193.201435
 20
177.230504
 30
0.0
 11
186.167743
 21
177.230504
 31
0.0
  0
LINE
  5
89
330
1F
100
AcDbEntity
  8
1
370
    50
100
AcDbLine
 10
193.967479
 20
139.587717
 30
0.0
 11
195.045797
 21
140.872805
 31
0.0
  0
LINE
  5
8A
330
1F
100
AcDbEntity
  8
1
370
    50
100
AcDbLine
 10
195.045797
 20
175.588203
 30
0.0
 11
193.967479
 21
176.873292
 31
0.0
  0
LINE
  5
8B
330
1F
100
AcDbEntity
  8
1
370
    50
100
AcDbLine
 10
186.167743
 20
177.230504
 30
0.0
 11
185.667743
 21
176.730504
 31
0.0
  0
LINE
  5
8C
330
1F
100
AcDbEntity
  8
1
370
    50
100
AcDbLine
 10
224.553585
 20
146.861775
 30
0.0
 11
224.553585
 21
147.53954
 31
0.0
  0
LINE
  5
8D
330
1F
100
AcDbEntity
  8
1
370
    50
100
AcDbLine
 10
224.553585
 20
152.74717
 30
0.0
 11
224.553585
 21
154.340941
 31
0.0
  0
LINE
  5
8E
330
1F
100
AcDbEntity
  8
1
370
    50
100
AcDbLine
 10
225.667057
 20
156.99233
 30
0.0
 11
225.497944
 21
158.360617
 31
0.0
  0
LINE
  5
90
330
1F
100
AcDbEntity
  8
1
370
    50
100
AcDbLine
 10
225.514025
 20
158.230507
 30
0.0
 11
225.667057
 21
159.468678
 31
0.0
  0
LINE
  5
91
330
1F
100
AcDbEntity
  8
1
370
    50
100
AcDbLine
 10
220.926086
 20
143.942064
 30
0.0
 11
220.977642
 21
143.993619
 31
0.0
  0
LINE
  5
92
330
1F
100
AcDbEntity
  8
1
370
    50
100
AcDbLine
 10
218.149215
 20
146.822047
 30
0.0
 11
218.097659
 21
146.770491
 31
0.0
  0
LINE
  5
93
330
1F
100
AcDbEntity
  8
1
370
    50
100
AcDbLine
 10
223.317743
 20
154.978862
 30
0.0
 11
223.317743
 21
154.704914
 31
0.0
  0
LINE
  5
94
330
1F
100
AcDbEntity
  8
1
370
    50
100
AcDbLine
 10
223.317743
 20
156.992981
 30
0.0
 11
223.317743
 21
154.978862
 31
0.0
  0
LINE
  5
95
330
1F
100
AcDbEntity
  8
1
370
    50
100
AcDbLine
 10
212.986141
 20
142.294974
 30
0.0
 11
212.908173
 21
141.932117
 31
0.0
  0
LINE
  5
96
330
1F
100
AcDbEntity
  8
1
370
    50
100
AcDbLine
 10
223.950232
 20
154.376696
 30
0.0
 11
223.335165
 21
154.334873
 31
0.0
  0
LINE
  5
97
330
1F
100
AcDbEntity
  8
1
370
    50
100
AcDbLine
 10
222.792171
 20
159.663555
 30
0.0
 11
222.06369
 21
161.082217
 31
0.0
  0
LINE
  5
98
330
1F
100
AcDbEntity
  8
1
370
    50
100
AcDbLine
 10
213.640401
 20
175.102013
 30
0.0
 11
214.468264
 21
171.261398
 31
0.0
  0
LINE
  5
99
330
1F
100
AcDbEntity
  8
1
370
    50
100
AcDbLine
 10
214.468264
 20
171.261398
 30
0.0
 11
214.798104
 21
169.731206
 31
0.0
  0
LINE
  5
9A
330
1F
100
AcDbEntity
  8
1
370
    50
100
AcDbLine
 10
221.74438
 20
177.454002
 30
0.0
 11
217.897366
 21
176.596941
 31
0.0
  0
LINE
  5
9B
330
1F
100
AcDbEntity
  8
1
370
    50
100
AcDbLine
 10
217.897366
 20
176.596941
 30
0.0
 11
214.504819
 21
175.841128
 31
0.0
  0
LINE
  5
9C
330
1F
100
AcDbEntity
  8
SK3
370
    18
100
AcDbLine
 10
205.917743
 20
153.530504
 30
0.0
 11
205.917743
 21
151.119554
 31
0.0
  0
LINE
  5
9D
330
1F
100
AcDbEntity
  8
SK3
370
    18
100
AcDbLine
 10
200.667743
 20
166.233254
 30
0.0
 11
203.834485
 21
168.061574
 31
0.0
  0
LINE
  5
9E
330
1F
100
AcDbEntity
  8
80
370
    18
100
AcDbLine
 10
184.667743
 20
158.230504
 30
0.0
 11
186.667743
 21
158.230504
 31
0.0
  0
LINE
  5
9F
330
1F
100
AcDbEntity
  8
SK3
370
    18
100
AcDbLine
 10
186.167743
 20
150.130504
 30
0.0
 11
185.668743
 21
149.631504
 31
0.0
  0
LINE
  5
A0
330
1F
100
AcDbEntity
  8
SK3
370
    18
100
AcDbLine
 10
205.917743
 20
165.341454
 30
0.0
 11
205.917743
 21
162.930504
 31
0.0
  0
LINE
  5
A1
330
1F
100
AcDbEntity
  8
SK3
370
    18
100
AcDbLine
 10
191.567743
 20
166.330504
 30
0.0
 11
192.679315
 21
166.233254
 31
0.0
  0
LINE
  5
A2
330
1F
100
AcDbEntity
  8
SK3
370
    18
100
AcDbLine
 10
206.417743
 20
162.430504
 30
0.0
 11
218.517743
 21
162.430504
 31
0.0
  0
LINE
  5
A3
330
1F
100
AcDbEntity
  8
80
370
    18
100
AcDbLine
 10
185.667743
 20
157.230504
 30
0.0
 11
185.667743
 21
159.230504
 31
0.0
  0
LINE
  5
A4
330
1F
100
AcDbEntity
  8
SK3
370
    18
100
AcDbLine
 10
218.517743
 20
154.030504
 30
0.0
 11
206.417743
 21
154.030504
 31
0.0
  0
LINE
  5
A5
330
1F
100
AcDbEntity
  8
SK3
370
    18
100
AcDbLine
 10
205.856962
 20
150.907586
 30
0.0
 11
204.373704
 21
148.533877
 31
0.0
  0
LINE
  5
A6
330
1F
100
AcDbEntity
  8
SK3
370
    18
100
AcDbLine
 10
186.167743
 20
166.330504
 30
0.0
 11
191.567743
 21
166.330504
 31
0.0
  0
LINE
  5
A7
330
1F
100
AcDbEntity
  8
SK3
370
    18
100
AcDbLine
 10
192.679315
 20
150.227754
 30
0.0
 11
191.567743
 21
150.130504
 31
0.0
  0
LINE
  5
A8
330
1F
100
AcDbEntity
  8
SK3
370
    18
100
AcDbLine
 10
204.373704
 20
167.927131
 30
0.0
 11
205.856962
 21
165.553422
 31
0.0
  0
LINE
  5
A9
330
1F
100
AcDbEntity
  8
SK3
370
    18
100
AcDbLine
 10
203.834485
 20
148.399435
 30
0.0
 11
200.667743
 21
150.227754
 31
0.0
  0
LINE
  5
AA
330
1F
100
AcDbEntity
  8
SK3
370
    18
100
AcDbLine
 10
222.97967
 20
152.030504
 30
0.0
 11
220.81848
 21
152.030504
 31
0.0
  0
LINE
  5
AB
330
1F
100
AcDbEntity
  8
SK3
370
    18
100
AcDbLine
 10
205.917743
 20
162.930504
 30
0.0
 11
206.417743
 21
162.430504
 31
0.0
  0
LINE
  5
AC
330
1F
100
AcDbEntity
  8
SK3
370
    18
100
AcDbLine
 10
191.567743
 20
150.130504
 30
0.0
 11
186.167743
 21
150.130504
 31
0.0
  0
LINE
  5
AD
330
1F
100
AcDbEntity
  8
SK3
370
    18
100
AcDbLine
 10
206.417743
 20
154.030504
 30
0.0
 11
205.917743
 21
153.530504
 31
0.0
  0
LINE
  5
AE
330
1F
100
AcDbEntity
  8
SK3
370
    18
100
AcDbLine
 10
185.668743
 20
166.829504
 30
0.0
 11
186.167743
 21
166.330504
 31
0.0
  0
LINE
  5
AF
330
1F
100
AcDbEntity
  8
SK3
370
    18
100
AcDbLine
 10
220.81848
 20
164.430504
 30
0.0
 11
222.97967
 21
164.430504
 31
0.0
  0
LINE
  5
B0
330
1F
100
AcDbEntity
  8
SK3
370
    18
100
AcDbLine
 10
220.81848
 20
152.030504
 30
0.0
 11
218.517743
 21
154.030504
 31
0.0
  0
LINE
  5
B1
330
1F
100
AcDbEntity
  8
SK3
370
    18
100
AcDbLine
 10
218.517743
 20
162.430504
 30
0.0
 11
220.81848
 21
164.430504
 31
0.0
  0
LINE
  5
B2
330
1F
100
AcDbEntity
  8
NOCUT
370
    13
100
AcDbLine
 10
186.167743
 20
166.330504
 30
0.0
 11
185.668743
 21
166.829504
 31
0.0
  0
LINE
  5
B3
330
1F
100
AcDbEntity
  8
NOCUT
370
    13
100
AcDbLine
 10
218.517743
 20
162.430504
 30
0.0
 11
206.417743
 21
162.430504
 31
0.0
  0
LINE
  5
B4
330
1F
100
AcDbEntity
  8
NOCUT
370
    13
100
AcDbLine
 10
185.667743
 20
176.730504
 30
0.0
 11
186.167743
 21
177.230504
 31
0.0
  0
LINE
  5
B5
330
1F
100
AcDbEntity
  8
NOCUT
370
    13
100
AcDbLine
 10
224.338668
 20
169.700929
 30
0.0
 11
223.747577
 21
169.067062
 31
0.0
  0
LINE
  5
B6
330
1F
100
AcDbEntity
  8
NOCUT
370
    13
100
AcDbLine
 10
186.167743
 20
177.230504
 30
0.0
 11
193.201435
 21
177.230504
 31
0.0
  0
LINE
  5
B7
330
1F
100
AcDbEntity
  8
NOCUT
370
    13
100
AcDbLine
 10
220.81848
 20
164.430504
 30
0.0
 11
218.517743
 21
162.430504
 31
0.0
  0
LINE
  5
B8
330
1F
100
AcDbEntity
  8
NOCUT
370
    13
100
AcDbLine
 10
223.317743
 20
167.975864
 30
0.0
 11
223.317743
 21
165.155504
 31
0.0
  0
LINE
  5
B9
330
1F
100
AcDbEntity
  8
NOCUT
370
    13
100
AcDbLine
 10
211.391596
 20
174.07025
 30
0.0
 11
214.793033
 21
176.03407
 31
0.0
  0
LINE
  5
BA
330
1F
100
AcDbEntity
  8
NOCUT
370
    13
100
AcDbLine
 10
206.417743
 20
162.430504
 30
0.0
 11
205.917743
 21
162.930504
 31
0.0
  0
LINE
  5
BB
330
1F
100
AcDbEntity
  8
NOCUT
370
    13
100
AcDbLine
 10
193.967479
 20
176.873292
 30
0.0
 11
195.045797
 21
175.588203
 31
0.0
  0
LINE
  5
BC
330
1F
100
AcDbEntity
  8
NOCUT
370
    13
100
AcDbLine
 10
217.129739
 20
176.931048
 30
0.0
 11
220.838551
 21
177.71938
 31
0.0
  0
LINE
  5
BD
330
1F
100
AcDbEntity
  8
NOCUT
370
    13
100
AcDbLine
 10
200.667743
 20
166.233254
 30
0.0
 11
192.679315
 21
166.233254
 31
0.0
  0
LINE
  5
BE
330
1F
100
AcDbEntity
  8
NOCUT
370
    13
100
AcDbLine
 10
223.423534
 20
175.647082
 30
0.0
 11
224.536103
 21
170.412857
 31
0.0
  0
LINE
  5
BF
330
1F
100
AcDbEntity
  8
NOCUT
370
    13
100
AcDbLine
 10
223.081466
 20
176.576558
 30
0.0
 11
223.229728
 21
176.243557
 31
0.0
  0
LINE
  5
C0
330
1F
100
AcDbEntity
  8
NOCUT
370
    13
100
AcDbLine
 10
191.567743
 20
166.330504
 30
0.0
 11
186.167743
 21
166.330504
 31
0.0
  0
LINE
  5
C1
330
1F
100
AcDbEntity
  8
NOCUT
370
    13
100
AcDbLine
 10
203.834485
 20
168.061574
 30
0.0
 11
200.667743
 21
166.233254
 31
0.0
  0
LINE
  5
C2
330
1F
100
AcDbEntity
  8
NOCUT
370
    13
100
AcDbLine
 10
201.174152
 20
172.730504
 30
0.0
 11
206.391596
 21
172.730504
 31
0.0
  0
LINE
  5
C3
330
1F
100
AcDbEntity
  8
NOCUT
370
    13
100
AcDbLine
 10
205.917743
 20
162.930504
 30
0.0
 11
205.917743
 21
165.341454
 31
0.0
  0
LINE
  5
C4
330
1F
100
AcDbEntity
  8
NOCUT
370
    13
100
AcDbLine
 10
185.667743
 20
166.829504
 30
0.0
 11
185.667743
 21
176.730504
 31
0.0
  0
LINE
  5
C5
330
1F
100
AcDbEntity
  8
NOCUT
370
    13
100
AcDbLine
 10
222.97967
 20
164.430504
 30
0.0
 11
220.81848
 21
164.430504
 31
0.0
  0
LINE
  5
C6
330
1F
100
AcDbEntity
  8
NOCUT
370
    13
100
AcDbLine
 10
192.679315
 20
166.233254
 30
0.0
 11
191.567743
 21
166.330504
 31
0.0
  0
LINE
  5
C7
330
1F
100
AcDbEntity
  8
1
370
    50
100
AcDbLine
 10
223.20813
 20
148.529183
 30
0.0
 11
222.190989
 21
143.396779
 31
0.0
  0
LINE
  5
C8
330
1F
100
AcDbEntity
  8
1
370
    50
100
AcDbLine
 10
215.002455
 20
148.547885
 30
0.0
 11
214.672739
 21
144.779214
 31
0.0
  0
LINE
  5
C9
330
1F
100
AcDbEntity
  8
1
370
    50
100
AcDbLine
 10
218.907715
 20
148.419797
 30
0.0
 11
218.835853
 21
147.598411
 31
0.0
  0
LINE
  5
CA
330
1F
100
AcDbEntity
  8
1
370
    50
100
AcDbLine
 10
218.486735
 20
143.607985
 30
0.0
 11
218.479359
 21
143.523668
 31
0.0
  0
LINE
  5
CB
330
1F
100
AcDbEntity
  8
1
370
    50
100
AcDbLine
 10
221.661717
 20
162.460817
 30
0.0
 11
221.555958
 21
163.084857
 31
0.0
  0
LINE
  5
CC
330
1F
100
AcDbEntity
  8
1
370
    50
100
AcDbLine
 10
221.555958
 20
163.084857
 30
0.0
 11
222.344318
 21
162.987338
 31
0.0
  0
LINE
  5
CD
330
1F
100
AcDbEntity
  8
1
370
    50
100
AcDbLine
 10
213.692055
 20
160.104513
 30
0.0
 11
213.234238
 21
159.538483
 31
0.0
  0
LINE
  5
CE
330
1F
100
AcDbEntity
  8
1
370
    50
100
AcDbLine
 10
215.501225
 20
162.341311
 30
0.0
 11
221.452998
 21
161.615369
 31
0.0
  0
LINE
  5
CF
330
1F
100
AcDbEntity
  8
1
370
    50
100
AcDbLine
 10
215.501225
 20
162.341311
 30
0.0
 11
213.703292
 21
161.461804
 31
0.0
  0
LINE
  5
D0
330
1F
100
AcDbEntity
  8
1
370
    50
100
AcDbLine
 10
223.937403
 20
161.502086
 30
0.0
 11
223.482119
 21
160.687885
 31
0.0
  0
LINE
  5
D1
330
1F
100
AcDbEntity
  8
1
370
    50
100
AcDbLine
 10
223.937403
 20
161.502086
 30
0.0
 11
225.196276
 21
160.54788
 31
0.0
  0
LINE
  5
D2
330
1F
100
AcDbEntity
  8
1
370
    50
100
AcDbLine
 10
225.357455
 20
158.538769
 30
0.0
 11
225.294139
 21
159.989785
 31
0.0
  0
LINE
  5
D3
330
1F
100
AcDbEntity
  8
1
370
    50
100
AcDbLine
 10
223.970422
 20
159.224038
 30
0.0
 11
223.978777
 21
158.64757
 31
0.0
  0
LINE
  5
D4
330
1F
100
AcDbEntity
  8
1
370
    50
100
AcDbLine
 10
216.39128
 20
163.441747
 30
0.0
 11
215.501225
 21
162.341311
 31
0.0
  0
LINE
  5
D5
330
1F
100
AcDbEntity
  8
1
370
    50
100
AcDbLine
 10
216.39128
 20
163.441747
 30
0.0
 11
221.555958
 21
163.084857
 31
0.0
  0
LINE
  5
D6
330
1F
100
AcDbEntity
  8
1
370
    50
100
AcDbLine
 10
223.921159
 20
162.622816
 30
0.0
 11
223.937403
 21
161.502086
 31
0.0
  0
LINE
  5
D7
330
1F
100
AcDbEntity
  8
1
370
    50
100
AcDbLine
 10
223.0753
 20
162.861343
 30
0.0
 11
223.921159
 21
162.622816
 31
0.0
  0
LINE
  5
D8
330
1F
100
AcDbEntity
  8
1
370
    50
100
AcDbLine
 10
214.504283
 20
163.531583
 30
0.0
 11
216.39128
 21
163.441747
 31
0.0
  0
LINE
  5
D9
330
1F
100
AcDbEntity
  8
1
370
    50
100
AcDbLine
 10
212.481309
 20
160.334359
 30
0.0
 11
212.782775
 21
161.605405
 31
0.0
  0
LINE
  5
DA
330
1F
100
AcDbEntity
  8
1
370
    50
100
AcDbLine
 10
213.457274
 20
163.489567
 30
0.0
 11
213.789567
 21
163.529687
 31
0.0
  0
LINE
  5
DB
330
1F
100
AcDbEntity
  8
1
370
    50
100
AcDbLine
 10
225.093109
 20
161.424533
 30
0.0
 11
224.967365
 21
162.080142
 31
0.0
  0
LINE
  5
DC
330
1F
100
AcDbEntity
  8
1
370
    50
100
AcDbLine
 10
223.921159
 20
162.622816
 30
0.0
 11
224.967365
 21
162.080142
 31
0.0
  0
LINE
  5
DD
330
1F
100
AcDbEntity
  8
1
370
    50
100
AcDbLine
 10
213.222013
 20
162.893388
 30
0.0
 11
213.457274
 21
163.489567
 31
0.0
  0
LINE
  5
DE
330
1F
100
AcDbEntity
  8
1
370
    50
100
AcDbLine
 10
215.175085
 20
158.173498
 30
0.0
 11
215.195421
 21
158.40594
 31
0.0
  0
LINE
  5
DF
330
1F
100
AcDbEntity
  8
1
370
    50
100
AcDbLine
 10
221.568275
 20
157.916594
 30
0.0
 11
222.703347
 21
157.839412
 31
0.0
  0
LINE
  5
E0
330
1F
100
AcDbEntity
  8
1
370
    50
100
AcDbLine
 10
215.930897
 20
158.299921
 30
0.0
 11
216.571185
 21
158.256383
 31
0.0
  0
LINE
  5
E1
330
1F
100
AcDbEntity
  8
1
370
    50
100
AcDbLine
 10
224.967365
 20
154.380866
 30
0.0
 11
224.635072
 21
154.420986
 31
0.0
  0
LINE
  5
E2
330
1F
100
AcDbEntity
  8
1
370
    50
100
AcDbLine
 10
224.553574
 20
154.16623
 30
0.0
 11
224.967365
 21
154.380866
 31
0.0
  0
LINE
  5
E3
330
1F
100
AcDbEntity
  8
1
370
    50
100
AcDbLine
 10
225.313407
 20
156.912808
 30
0.0
 11
225.294139
 21
156.471223
 31
0.0
  0
LINE
  5
E4
330
1F
100
AcDbEntity
  8
1
370
    50
100
AcDbLine
 10
225.093109
 20
155.036476
 30
0.0
 11
224.967365
 21
154.380866
 31
0.0
  0
LINE
  5
E5
330
1F
100
AcDbEntity
  8
1
370
    50
100
AcDbLine
 10
223.317767
 20
156.002468
 30
0.0
 11
224.340764
 21
156.703186
 31
0.0
  0
LINE
  5
E6
330
1F
100
AcDbEntity
  8
1
370
    50
100
AcDbLine
 10
223.920356
 20
154.422882
 30
0.0
 11
223.327839
 21
154.394673
 31
0.0
  0
LINE
  5
E7
330
1F
100
AcDbEntity
  8
1
370
    50
100
AcDbLine
 10
224.553585
 20
162.294779
 30
0.0
 11
224.553585
 21
163.722293
 31
0.0
  0
LINE
  5
E8
330
1F
100
AcDbEntity
  8
1
370
    50
100
AcDbLine
 10
185.667743
 20
164.027911
 30
0.0
 11
185.667743
 21
176.730504
 31
0.0
  0
LINE
  5
E9
330
1F
100
AcDbEntity
  8
1
370
    50
100
AcDbLine
 10
212.481309
 20
140.484145
 30
0.0
 11
212.782775
 21
141.449365
 31
0.0
  0
LINE
  5
EA
330
1F
100
AcDbEntity
  8
1
370
    50
100
AcDbLine
 10
213.568083
 20
142.037273
 30
0.0
 11
213.789567
 21
141.510139
 31
0.0
  0
LINE
  5
EB
330
1F
100
AcDbEntity
  8
1
370
    50
100
AcDbLine
 10
224.967365
 20
146.90071
 30
0.0
 11
224.635072
 21
147.691571
 31
0.0
  0
LINE
  5
EC
330
1F
100
AcDbEntity
  8
1
370
    50
100
AcDbLine
 10
223.921159
 20
141.744129
 30
0.0
 11
224.967365
 21
146.90071
 31
0.0
  0
LINE
  5
ED
330
1F
100
AcDbEntity
  8
1
370
    50
100
AcDbLine
 10
223.0753
 20
139.863611
 30
0.0
 11
223.921159
 21
141.744129
 31
0.0
  0
LINE
  5
EE
330
1F
100
AcDbEntity
  8
1
370
    50
100
AcDbLine
 10
221.555958
 20
138.828173
 30
0.0
 11
222.344318
 21
139.154468
 31
0.0
  0
LINE
  5
EF
330
1F
100
AcDbEntity
  8
1
370
    50
100
AcDbLine
 10
216.39128
 20
139.91358
 30
0.0
 11
221.555958
 21
138.828173
 31
0.0
  0
LINE
  5
F0
330
1F
100
AcDbEntity
  8
1
370
    50
100
AcDbLine
 10
214.504283
 20
140.773749
 30
0.0
 11
216.39128
 21
139.91358
 31
0.0
  0
LINE
  5
F1
330
1F
100
AcDbEntity
  8
1
370
    50
100
AcDbLine
 10
216.39128
 20
139.91358
 30
0.0
 11
215.501225
 21
139.696983
 31
0.0
  0
LINE
  5
F2
330
1F
100
AcDbEntity
  8
1
370
    50
100
AcDbLine
 10
215.501225
 20
139.696983
 30
0.0
 11
213.703292
 21
139.991003
 31
0.0
  0
LINE
  5
F3
330
1F
100
AcDbEntity
  8
1
370
    50
100
AcDbLine
 10
221.661717
 20
138.591698
 30
0.0
 11
221.555958
 21
138.828173
 31
0.0
  0
LINE
  5
F4
330
1F
100
AcDbEntity
  8
1
370
    50
100
AcDbLine
 10
215.501225
 20
139.696983
 30
0.0
 11
221.452998
 21
138.336848
 31
0.0
  0
LINE
  5
F5
330
1F
100
AcDbEntity
  8
1
370
    50
100
AcDbLine
 10
222.792171
 20
137.840613
 30
0.0
 11
222.06369
 21
138.148511
 31
0.0
  0
LINE
  5
F6
330
1F
100
AcDbEntity
  8
1
370
    50
100
AcDbLine
 10
223.921159
 20
141.744129
 30
0.0
 11
223.937403
 21
140.853188
 31
0.0
  0
LINE
  5
F7
330
1F
100
AcDbEntity
  8
1
370
    50
100
AcDbLine
 10
223.937403
 20
140.853188
 30
0.0
 11
223.482119
 21
139.058102
 31
0.0
  0
LINE
  5
F8
330
1F
100
AcDbEntity
  8
1
370
    50
100
AcDbLine
 10
223.937403
 20
140.853188
 30
0.0
 11
225.196276
 21
146.795014
 31
0.0
  0
LINE
  5
F9
330
1F
100
AcDbEntity
  8
1
370
    50
100
AcDbLine
 10
225.093109
 20
147.005093
 30
0.0
 11
224.967365
 21
146.90071
 31
0.0
  0
LINE
  5
FA
330
1F
100
AcDbEntity
  8
1
370
    50
100
AcDbLine
 10
225.357455
 20
148.131691
 30
0.0
 11
225.294139
 21
147.40462
 31
0.0
  0
LINE
  5
FB
330
1F
100
AcDbEntity
  8
1
370
    50
100
AcDbLine
 10
213.692055
 20
139.256717
 30
0.0
 11
213.234238
 21
139.145306
 31
0.0
  0
LINE
  5
FC
330
1F
100
AcDbEntity
  8
1
370
    50
100
AcDbLine
 10
223.970422
 20
139.042221
 30
0.0
 11
223.978777
 21
138.583949
 31
0.0
  0
LINE
  5
FD
330
1F
100
AcDbEntity
  8
1
370
    50
100
AcDbLine
 10
213.222013
 20
142.0871
 30
0.0
 11
213.313658
 21
142.170424
 31
0.0
  0
LINE
  5
FE
330
1F
100
AcDbEntity
  8
1
370
    50
100
AcDbLine
 10
212.998364
 20
142.291429
 30
0.0
 11
212.966152
 21
142.144485
 31
0.0
  0
LINE
  5
FF
330
1F
100
AcDbEntity
  8
1
370
    50
100
AcDbLine
 10
219.925702
 20
171.145002
 30
0.0
 11
219.974476
 21
171.096228
 31
0.0
  0
LINE
  5
100
330
1F
100
AcDbEntity
  8
1
370
    50
100
AcDbLine
 10
219.41593
 20
170.559911
 30
0.0
 11
219.347078
 21
170.628763
 31
0.0
  0
LINE
  5
101
330
1F
100
AcDbEntity
  8
1
370
    50
100
AcDbLine
 10
216.761682
 20
169.965834
 30
0.0
 11
216.835837
 21
169.891679
 31
0.0
  0
LINE
  5
102
330
1F
100
AcDbEntity
  8
1
370
    50
100
AcDbLine
 10
220.743898
 20
173.761793
 30
0.0
 11
220.650769
 21
173.854922
 31
0.0
  0
LINE
  5
103
330
1F
100
AcDbEntity
  8
1
370
    50
100
AcDbLine
 10
219.649838
 20
172.788692
 30
0.0
 11
219.809644
 21
172.628885
 31
0.0
  0
LINE
  5
104
330
1F
100
AcDbEntity
  8
1
370
    50
100
AcDbLine
 10
217.865563
 20
170.929114
 30
0.0
 11
217.705757
 21
171.088921
 31
0.0
  0
LINE
  5
105
330
1F
100
AcDbEntity
  8
1
370
    50
100
AcDbLine
 10
186.167743
 20
139.230504
 30
0.0
 11
186.167743
 21
152.35328
 31
0.0
  0
LINE
  5
106
330
1F
100
AcDbEntity
  8
1
370
    50
100
AcDbLine
 10
190.527743
 20
153.008004
 30
0.0
 11
186.367743
 21
153.008004
 31
0.0
  0
LINE
  5
107
330
1F
100
AcDbEntity
  8
1
370
    50
100
AcDbLine
 10
190.527743
 20
163.453004
 30
0.0
 11
186.367743
 21
163.453004
 31
0.0
  0
LINE
  5
108
330
1F
100
AcDbEntity
  8
1
370
    50
100
AcDbLine
 10
186.367743
 20
153.008004
 30
0.0
 11
186.367743
 21
154.008004
 31
0.0
  0
LINE
  5
109
330
1F
100
AcDbEntity
  8
1
370
    50
100
AcDbLine
 10
186.367743
 20
154.008004
 30
0.0
 11
185.667743
 21
153.308004
 31
0.0
  0
LINE
  5
10A
330
1F
100
AcDbEntity
  8
1
370
    50
100
AcDbLine
 10
186.367743
 20
162.453004
 30
0.0
 11
186.367743
 21
163.453004
 31
0.0
  0
LINE
  5
10B
330
1F
100
AcDbEntity
  8
1
370
    50
100
AcDbLine
 10
186.367743
 20
162.453004
 30
0.0
 11
185.667743
 21
163.153004
 31
0.0
  0
LINE
  5
10C
330
1F
100
AcDbEntity
  8
1
370
    50
100
AcDbLine
 10
185.667743
 20
139.730504
 30
0.0
 11
185.667743
 21
152.433098
 31
0.0
  0
LINE
  5
10D
330
1F
100
AcDbEntity
  8
NOCUT
370
    13
100
AcDbLine
 10
205.856962
 20
165.553422
 30
0.0
 11
204.373704
 21
167.927131
 31
0.0
  0
LINE
  5
10E
102
{ACAD_REACTORS
330
3AE
102
}
330
1F
100
AcDbEntity
  8
1
370
    50
100
AcDbLine
 10
186.167743
 20
177.230504
 30
0.0
 11
186.167743
 21
164.107729
 31
0.0
  0
LINE
  5
10F
102
{ACAD_REACTORS
330
3AE
102
}
330
1F
100
AcDbEntity
  8
1
370
    50
100
AcDbLine
 10
186.167743
 20
139.230504
 30
0.0
 11
193.201435
 21
139.230504
 31
0.0
  0
LINE
  5
110
102
{ACAD_REACTORS
330
3C7
102
}
330
1F
100
AcDbEntity
  8
SK3
370
    18
100
AcDbLine
 10
192.679315
 20
166.233254
 30
0.0
 11
200.667743
 21
166.233254
 31
0.0
  0
LINE
  5
111
102
{ACAD_REACTORS
330
3C7
102
}
330
1F
100
AcDbEntity
  8
SK3
370
    18
100
AcDbLine
 10
200.667743
 20
150.227754
 30
0.0
 11
192.679315
 21
150.227754
 31
0.0
  0
LINE
  5
112
102
{ACAD_REACTORS
330
3E0
102
}
330
1F
100
AcDbEntity
  8
1
370
    50
100
AcDbLine
 10
185.667743
 20
139.730504
 30
0.0
 11
186.167743
 21
139.230504
 31
0.0
  0
LINE
  5
113
102
{ACAD_REACTORS
330
3E0
102
}
330
1F
100
AcDbEntity
  8
1
370
    50
100
AcDbLine
 10
191.327743
 20
162.217325
 30
0.0
 11
191.327743
 21
154.243683
 31
0.0
  0
LINE
  5
114
102
{ACAD_REACTORS
330
3FA
102
}
330
1F
100
AcDbEntity
  8
81
370
    18
100
AcDbLine
 10
224.667743
 20
179.205504
 30
0.0
 11
226.667743
 21
179.205504
 31
0.0
  0
LINE
  5
115
102
{ACAD_REACTORS
330
42C
102
}
330
1F
100
AcDbEntity
  8
1
370
    50
100
AcDbLine
 10
186.367743
 20
162.453004
 30
0.0
 11
190.527743
 21
162.453004
 31
0.0
  0
LINE
  5
116
102
{ACAD_REACTORS
330
42C
102
}
330
1F
100
AcDbEntity
  8
1
370
    50
100
AcDbLine
 10
186.367743
 20
154.008004
 30
0.0
 11
190.527743
 21
154.008004
 31
0.0
  0
LINE
  5
117
330
1F
100
AcDbEntity
  8
1
370
    13
100
AcDbLine
 10
206.391596
 20
172.679645
 30
0.0
 11
202.656299
 21
172.64876
 31
0.0
  0
LINE
  5
118
330
1F
100
AcDbEntity
  8
1
370
    13
100
AcDbLine
 10
211.737164
 20
174.164692
 30
0.0
 11
211.664179
 21
174.203105
 31
0.0
  0
LINE
  5
119
330
1F
100
AcDbEntity
  8
1
370
    13
100
AcDbLine
 10
186.167743
 20
152.35328
 30
0.0
 11
186.367743
 21
153.008004
 31
0.0
  0
LINE
  5
11A
330
1F
100
AcDbEntity
  8
1
370
    13
100
AcDbLine
 10
186.367743
 20
163.453004
 30
0.0
 11
186.167743
 21
164.107729
 31
0.0
  0
LINE
  5
11B
330
1F
100
AcDbEntity
  8
1
370
    13
100
AcDbLine
 10
223.081466
 20
165.14784
 30
0.0
 11
223.229728
 21
164.638396
 31
0.0
  0
LINE
  5
11C
330
1F
100
AcDbEntity
  8
1
370
    13
100
AcDbLine
 10
212.769206
 20
162.205441
 30
0.0
 11
212.899973
 21
161.956244
 31
0.0
  0
LINE
  5
11D
330
1F
100
AcDbEntity
  8
1
370
    13
100
AcDbLine
 10
211.737164
 20
160.063398
 30
0.0
 11
211.664179
 21
159.1159
 31
0.0
  0
LINE
  5
11E
330
1F
100
AcDbEntity
  8
1
370
    13
100
AcDbLine
 10
206.391596
 20
159.443906
 30
0.0
 11
202.656299
 21
159.768
 31
0.0
  0
LINE
  5
11F
330
1F
100
AcDbEntity
  8
1
370
    13
100
AcDbLine
 10
216.227694
 20
156.631403
 30
0.0
 11
216.447607
 21
157.292942
 31
0.0
  0
LINE
  5
120
330
1F
100
AcDbEntity
  8
1
370
    13
100
AcDbLine
 10
215.142094
 20
155.569303
 30
0.0
 11
215.325435
 21
155.447409
 31
0.0
  0
LINE
  5
121
330
1F
100
AcDbEntity
  8
1
370
    13
100
AcDbLine
 10
216.924292
 20
169.665067
 30
0.0
 11
217.067378
 21
169.563306
 31
0.0
  0
LINE
  5
122
330
1F
100
AcDbEntity
  8
1
370
    13
100
AcDbLine
 10
215.672822
 20
172.010202
 30
0.0
 11
215.738987
 21
171.521861
 31
0.0
  0
LINE
  5
123
330
1F
100
AcDbEntity
  8
1
370
    13
100
AcDbLine
 10
222.009284
 20
172.71401
 30
0.0
 11
221.973316
 21
172.910782
 31
0.0
  0
LINE
  5
124
330
1F
100
AcDbEntity
  8
1
370
    13
100
AcDbLine
 10
216.802902
 20
169.886198
 30
0.0
 11
217.165623
 21
169.586578
 31
0.0
  0
LINE
  5
125
330
1F
100
AcDbEntity
  8
1
370
    13
100
AcDbLine
 10
219.171408
 20
175.19879
 30
0.0
 11
218.306286
 21
175.130624
 31
0.0
  0
LINE
  5
126
330
1F
100
AcDbEntity
  8
1
370
    13
100
AcDbLine
 10
221.253883
 20
174.197187
 30
0.0
 11
221.148033
 21
174.308502
 31
0.0
  0
LINE
  5
127
330
1F
100
AcDbEntity
  8
1
370
    13
100
AcDbLine
 10
218.674207
 20
175.398177
 30
0.0
 11
218.185349
 21
175.328301
 31
0.0
  0
LINE
  5
128
330
1F
100
AcDbEntity
  8
1
370
    13
100
AcDbLine
 10
222.236042
 20
177.311764
 30
0.0
 11
221.74438
 21
177.454002
 31
0.0
  0
LINE
  5
129
330
1F
100
AcDbEntity
  8
1
370
    13
100
AcDbLine
 10
202.656299
 20
143.812248
 30
0.0
 11
206.391596
 21
143.781364
 31
0.0
  0
LINE
  5
12A
330
1F
100
AcDbEntity
  8
1
370
    13
100
AcDbLine
 10
223.081466
 20
141.238501
 30
0.0
 11
223.229728
 21
141.395749
 31
0.0
  0
LINE
  5
12B
330
1F
100
AcDbEntity
  8
1
370
    13
100
AcDbLine
 10
221.209497
 20
143.876337
 30
0.0
 11
221.605
 21
144.500246
 31
0.0
  0
LINE
  5
12C
330
1F
100
AcDbEntity
  8
1
370
    13
100
AcDbLine
 10
218.625716
 20
147.436483
 30
0.0
 11
217.974926
 21
147.000807
 31
0.0
  0
LINE
  5
12D
330
1F
100
AcDbEntity
  8
1
370
    13
100
AcDbLine
 10
218.486735
 20
143.607985
 30
0.0
 11
218.750639
 21
143.472589
 31
0.0
  0
LINE
  5
12E
330
1F
100
AcDbEntity
  8
1
370
    13
100
AcDbLine
 10
219.124987
 20
147.692506
 30
0.0
 11
218.835853
 21
147.598411
 31
0.0
  0
LINE
  5
12F
330
1F
100
AcDbEntity
  8
1
370
    13
100
AcDbLine
 10
212.769206
 20
142.077277
 30
0.0
 11
212.908173
 21
141.932117
 31
0.0
  0
LINE
  5
130
330
1F
100
AcDbEntity
  8
1
370
    13
100
AcDbLine
 10
212.758209
 20
141.734246
 30
0.0
 11
212.908173
 21
141.932117
 31
0.0
  0
LINE
  5
131
330
1F
100
AcDbEntity
  8
1
370
    13
100
AcDbLine
 10
211.664179
 20
142.257903
 30
0.0
 11
211.737164
 21
142.296316
 31
0.0
  0
LINE
  5
132
330
1F
100
AcDbEntity
  8
1
370
    13
100
AcDbLine
 10
213.692055
 20
160.104513
 30
0.0
 11
220.92426
 21
159.59088
 31
0.0
  0
LINE
  5
133
330
1F
100
AcDbEntity
  8
1
370
    13
100
AcDbLine
 10
223.741704
 20
159.301035
 30
0.0
 11
223.970422
 21
159.224038
 31
0.0
  0
LINE
  5
134
330
1F
100
AcDbEntity
  8
1
370
    13
100
AcDbLine
 10
223.970422
 20
159.224038
 30
0.0
 11
225.437792
 21
158.449624
 31
0.0
  0
LINE
  5
135
330
1F
100
AcDbEntity
  8
1
370
    13
100
AcDbLine
 10
213.192191
 20
160.141109
 30
0.0
 11
213.692055
 21
160.104513
 31
0.0
  0
LINE
  5
136
330
1F
100
AcDbEntity
  8
1
370
    13
100
AcDbLine
 10
215.376933
 20
158.367396
 30
0.0
 11
215.930897
 21
158.299921
 31
0.0
  0
LINE
  5
137
330
1F
100
AcDbEntity
  8
1
370
    13
100
AcDbLine
 10
213.319688
 20
139.949191
 30
0.0
 11
214.806544
 21
139.614409
 31
0.0
  0
LINE
  5
138
330
1F
100
AcDbEntity
  8
1
370
    13
100
AcDbLine
 10
212.749505
 20
141.738911
 30
0.0
 11
212.481309
 21
140.484145
 31
0.0
  0
LINE
  5
139
330
1F
100
AcDbEntity
  8
1
370
    13
100
AcDbLine
 10
213.692055
 20
139.256717
 30
0.0
 11
220.92426
 21
137.73198
 31
0.0
  0
LINE
  5
13A
330
1F
100
AcDbEntity
  8
1
370
    13
100
AcDbLine
 10
213.192191
 20
139.491545
 30
0.0
 11
213.692055
 21
139.256717
 31
0.0
  0
LINE
  5
13B
330
1F
100
AcDbEntity
  8
1
370
    13
100
AcDbLine
 10
223.970422
 20
139.042221
 30
0.0
 11
225.437792
 21
146.263061
 31
0.0
  0
LINE
  5
13C
330
1F
100
AcDbEntity
  8
1
370
    13
100
AcDbLine
 10
223.741704
 20
138.544118
 30
0.0
 11
223.970422
 21
139.042221
 31
0.0
  0
LINE
  5
13D
330
1F
100
AcDbEntity
  8
1
370
    13
100
AcDbLine
 10
224.609021
 20
149.086739
 30
0.0
 11
224.435577
 21
149.167097
 31
0.0
  0
LINE
  5
13E
330
1F
100
AcDbEntity
  8
1
370
    13
100
AcDbLine
 10
220.39258
 20
144.054688
 30
0.0
 11
220.72953
 21
144.311193
 31
0.0
  0
LINE
  5
13F
330
1F
100
AcDbEntity
  8
1
370
    13
100
AcDbLine
 10
215.990379
 20
171.529668
 30
0.0
 11
216.027925
 21
171.31369
 31
0.0
  0
LINE
  5
140
330
1F
100
AcDbEntity
  8
1
370
    13
100
AcDbLine
 10
216.761682
 20
169.965834
 30
0.0
 11
217.215864
 21
169.600361
 31
0.0
  0
LINE
  5
141
330
1F
100
AcDbEntity
  8
1
370
    13
100
AcDbLine
 10
216.924727
 20
171.548247
 30
0.0
 11
217.405005
 21
170.666014
 31
0.0
  0
LINE
  5
142
330
1F
100
AcDbEntity
  8
1
370
    13
100
AcDbLine
 10
217.861611
 20
170.668855
 30
0.0
 11
217.876294
 21
170.730272
 31
0.0
  0
LINE
  5
143
330
1F
100
AcDbEntity
  8
1
370
    13
100
AcDbLine
 10
217.861611
 20
170.668855
 30
0.0
 11
217.864478
 21
170.561658
 31
0.0
  0
LINE
  5
144
330
1F
100
AcDbEntity
  8
1
370
    13
100
AcDbLine
 10
218.537941
 20
170.349836
 30
0.0
 11
218.602854
 21
170.435715
 31
0.0
  0
LINE
  5
145
330
1F
100
AcDbEntity
  8
1
370
    13
100
AcDbLine
 10
218.626716
 20
170.494245
 30
0.0
 11
218.602854
 21
170.435715
 31
0.0
  0
LINE
  5
146
330
1F
100
AcDbEntity
  8
1
370
    13
100
AcDbLine
 10
219.364177
 20
170.605327
 30
0.0
 11
219.318424
 21
170.648348
 31
0.0
  0
LINE
  5
147
330
1F
100
AcDbEntity
  8
1
370
    13
100
AcDbLine
 10
219.364177
 20
170.605327
 30
0.0
 11
219.458467
 21
170.554917
 31
0.0
  0
LINE
  5
148
330
1F
100
AcDbEntity
  8
1
370
    13
100
AcDbLine
 10
219.983077
 20
171.033653
 30
0.0
 11
219.941585
 21
171.132244
 31
0.0
  0
LINE
  5
149
330
1F
100
AcDbEntity
  8
1
370
    13
100
AcDbLine
 10
219.902984
 20
171.181791
 30
0.0
 11
219.941585
 21
171.132244
 31
0.0
  0
LINE
  5
14A
330
1F
100
AcDbEntity
  8
1
370
    13
100
AcDbLine
 10
220.180363
 20
171.875279
 30
0.0
 11
220.119927
 21
171.856882
 31
0.0
  0
LINE
  5
14B
330
1F
100
AcDbEntity
  8
1
370
    13
100
AcDbLine
 10
220.180363
 20
171.875279
 30
0.0
 11
220.271786
 21
171.932065
 31
0.0
  0
LINE
  5
14C
330
1F
100
AcDbEntity
  8
1
370
    13
100
AcDbLine
 10
220.122933
 20
172.622623
 30
0.0
 11
220.016529
 21
172.635336
 31
0.0
  0
LINE
  5
14D
330
1F
100
AcDbEntity
  8
1
370
    13
100
AcDbLine
 10
219.954064
 20
172.626352
 30
0.0
 11
220.016529
 21
172.635336
 31
0.0
  0
LINE
  5
14E
330
1F
100
AcDbEntity
  8
1
370
    13
100
AcDbLine
 10
219.493983
 20
173.208758
 30
0.0
 11
219.4793
 21
173.147341
 31
0.0
  0
LINE
  5
14F
330
1F
100
AcDbEntity
  8
1
370
    13
100
AcDbLine
 10
219.493983
 20
173.208758
 30
0.0
 11
219.491116
 21
173.315955
 31
0.0
  0
LINE
  5
150
330
1F
100
AcDbEntity
  8
1
370
    13
100
AcDbLine
 10
218.817653
 20
173.527777
 30
0.0
 11
218.752741
 21
173.441898
 31
0.0
  0
LINE
  5
151
330
1F
100
AcDbEntity
  8
1
370
    13
100
AcDbLine
 10
218.728878
 20
173.383368
 30
0.0
 11
218.752741
 21
173.441898
 31
0.0
  0
LINE
  5
152
330
1F
100
AcDbEntity
  8
1
370
    13
100
AcDbLine
 10
217.991417
 20
173.272286
 30
0.0
 11
218.03717
 21
173.229265
 31
0.0
  0
LINE
  5
153
330
1F
100
AcDbEntity
  8
1
370
    13
100
AcDbLine
 10
217.991417
 20
173.272286
 30
0.0
 11
217.897127
 21
173.322696
 31
0.0
  0
LINE
  5
154
330
1F
100
AcDbEntity
  8
1
370
    13
100
AcDbLine
 10
217.372517
 20
172.843961
 30
0.0
 11
217.414009
 21
172.745369
 31
0.0
  0
LINE
  5
155
330
1F
100
AcDbEntity
  8
1
370
    13
100
AcDbLine
 10
217.45261
 20
172.695822
 30
0.0
 11
217.414009
 21
172.745369
 31
0.0
  0
LINE
  5
156
330
1F
100
AcDbEntity
  8
1
370
    13
100
AcDbLine
 10
217.175231
 20
172.002334
 30
0.0
 11
217.235667
 21
172.020731
 31
0.0
  0
LINE
  5
157
330
1F
100
AcDbEntity
  8
1
370
    13
100
AcDbLine
 10
217.175231
 20
172.002334
 30
0.0
 11
217.083808
 21
171.945548
 31
0.0
  0
LINE
  5
158
330
1F
100
AcDbEntity
  8
1
370
    13
100
AcDbLine
 10
217.232661
 20
171.25499
 30
0.0
 11
217.339065
 21
171.242277
 31
0.0
  0
LINE
  5
159
330
1F
100
AcDbEntity
  8
1
370
    13
100
AcDbLine
 10
217.40153
 20
171.251261
 30
0.0
 11
217.339065
 21
171.242277
 31
0.0
  0
LINE
  5
15A
330
1F
100
AcDbEntity
  8
1
370
    13
100
AcDbLine
 10
223.970062
 20
156.99289
 30
0.0
 11
224.374995
 21
156.904202
 31
0.0
  0
LINE
  5
15B
330
1F
100
AcDbEntity
  8
1
370
    13
100
AcDbLine
 10
211.664179
 20
174.203105
 30
0.0
 11
211.391596
 21
174.044922
 31
0.0
  0
LINE
  5
15C
330
1F
100
AcDbEntity
  8
1
370
    13
100
AcDbLine
 10
211.790065
 20
174.176998
 30
0.0
 11
211.904107
 21
174.230065
 31
0.0
  0
LINE
  5
15D
330
1F
100
AcDbEntity
  8
1
370
    13
100
AcDbLine
 10
211.737164
 20
174.164692
 30
0.0
 11
211.790065
 21
174.176998
 31
0.0
  0
LINE
  5
15E
330
1F
100
AcDbEntity
  8
1
370
    13
100
AcDbLine
 10
185.667743
 20
164.027911
 30
0.0
 11
186.167743
 21
164.107729
 31
0.0
  0
LINE
  5
15F
330
1F
100
AcDbEntity
  8
1
370
    13
100
AcDbLine
 10
186.167743
 20
152.35328
 30
0.0
 11
185.667743
 21
152.433098
 31
0.0
  0
LINE
  5
160
330
1F
100
AcDbEntity
  8
1
370
    13
100
AcDbLine
 10
214.793033
 20
169.729954
 30
0.0
 11
214.672739
 21
169.787389
 31
0.0
  0
LINE
  5
161
330
1F
100
AcDbEntity
  8
1
370
    13
100
AcDbLine
 10
211.391596
 20
169.298416
 30
0.0
 11
211.134401
 21
169.260323
 31
0.0
  0
LINE
  5
162
330
1F
100
AcDbEntity
  8
1
370
    13
100
AcDbLine
 10
202.725422
 20
171.61469
 30
0.0
 11
202.181286
 21
172.102382
 31
0.0
  0
LINE
  5
163
330
1F
100
AcDbEntity
  8
1
370
    13
100
AcDbLine
 10
202.656299
 20
172.64876
 30
0.0
 11
201.174152
 21
172.663378
 31
0.0
  0
LINE
  5
164
330
1F
100
AcDbEntity
  8
1
370
    13
100
AcDbLine
 10
218.750639
 20
170.26873
 30
0.0
 11
218.479359
 21
170.24012
 31
0.0
  0
LINE
  5
165
330
1F
100
AcDbEntity
  8
1
370
    13
100
AcDbLine
 10
220.838551
 20
170.488911
 30
0.0
 11
219.745271
 21
170.373623
 31
0.0
  0
LINE
  5
166
330
1F
100
AcDbEntity
  8
1
370
    13
100
AcDbLine
 10
224.387337
 20
168.316638
 30
0.0
 11
223.20813
 21
170.177855
 31
0.0
  0
LINE
  5
167
330
1F
100
AcDbEntity
  8
1
370
    13
100
AcDbLine
 10
224.360544
 20
167.299756
 30
0.0
 11
224.387337
 21
168.316638
 31
0.0
  0
LINE
  5
168
330
1F
100
AcDbEntity
  8
1
370
    13
100
AcDbLine
 10
224.551487
 20
163.638594
 30
0.0
 11
224.550708
 21
163.822059
 31
0.0
  0
LINE
  5
169
330
1F
100
AcDbEntity
  8
1
370
    13
100
AcDbLine
 10
224.536103
 20
163.595001
 30
0.0
 11
223.423534
 21
164.167896
 31
0.0
  0
LINE
  5
16A
330
1F
100
AcDbEntity
  8
1
370
    13
100
AcDbLine
 10
199.805282
 20
157.327959
 30
0.0
 11
201.174152
 21
155.268462
 31
0.0
  0
LINE
  5
16B
330
1F
100
AcDbEntity
  8
1
370
    13
100
AcDbLine
 10
212.034232
 20
160.351699
 30
0.0
 11
212.4762
 21
160.335728
 31
0.0
  0
LINE
  5
16C
330
1F
100
AcDbEntity
  8
1
370
    13
100
AcDbLine
 10
211.664179
 20
159.1159
 30
0.0
 11
211.391596
 21
159.125909
 31
0.0
  0
LINE
  5
16D
330
1F
100
AcDbEntity
  8
1
370
    13
100
AcDbLine
 10
211.391596
 20
159.125909
 30
0.0
 11
206.391596
 21
159.443906
 31
0.0
  0
LINE
  5
16E
330
1F
100
AcDbEntity
  8
1
370
    13
100
AcDbLine
 10
213.028161
 20
157.872742
 30
0.0
 11
213.150732
 21
158.103273
 31
0.0
  0
LINE
  5
16F
330
1F
100
AcDbEntity
  8
1
370
    13
100
AcDbLine
 10
212.958249
 20
157.260057
 30
0.0
 11
213.028161
 21
157.872742
 31
0.0
  0
LINE
  5
170
330
1F
100
AcDbEntity
  8
CUT
370
    13
100
AcDbLine
 10
224.036895
 20
178.040811
 30
0.0
 11
224.962448
 21
173.672273
 31
0.0
  0
LINE
  5
172
330
1F
100
AcDbEntity
  8
1
370
    13
100
AcDbLine
 10
222.215725
 20
177.331068
 30
0.0
 11
222.276822
 21
177.256343
 31
0.0
  0
LINE
  5
173
330
1F
100
AcDbEntity
  8
1
370
    13
100
AcDbLine
 10
222.363395
 20
177.003742
 30
0.0
 11
222.453257
 21
176.621197
 31
0.0
  0
LINE
  5
174
330
1F
100
AcDbEntity
  8
1
370
    13
100
AcDbLine
 10
222.27753
 20
177.257719
 30
0.0
 11
222.346724
 21
177.074336
 31
0.0
  0
LINE
  5
175
330
1F
100
AcDbEntity
  8
1
370
    13
100
AcDbLine
 10
222.347827
 20
177.071393
 30
0.0
 11
222.363371
 21
177.003782
 31
0.0
  0
LINE
  5
176
330
1F
100
AcDbEntity
  8
1
370
    13
100
AcDbLine
 10
224.001952
 20
169.39637
 30
0.0
 11
223.948615
 21
169.010296
 31
0.0
  0
LINE
  5
177
330
1F
100
AcDbEntity
  8
1
370
    13
100
AcDbLine
 10
224.377158
 20
156.903294
 30
0.0
 11
225.620946
 21
156.92609
 31
0.0
  0
LINE
  5
178
330
1F
100
AcDbEntity
  8
1
370
    13
100
AcDbLine
 10
222.473172
 20
157.928657
 30
0.0
 11
222.605706
 21
157.91117
 31
0.0
  0
LINE
  5
179
330
1F
100
AcDbEntity
  8
1
370
    13
100
AcDbLine
 10
212.308239
 20
160.135868
 30
0.0
 11
211.924899
 21
158.897358
 31
0.0
  0
LINE
  5
17A
330
1F
100
AcDbEntity
  8
1
370
    13
100
AcDbLine
 10
213.931608
 20
158.542752
 30
0.0
 11
214.31968
 21
158.501884
 31
0.0
  0
LINE
  5
17B
330
1F
100
AcDbEntity
  8
1
370
    13
100
AcDbLine
 10
213.865851
 20
158.549858
 30
0.0
 11
213.931584
 21
158.542693
 31
0.0
  0
LINE
  5
17C
330
1F
100
AcDbEntity
  8
1
370
    13
100
AcDbLine
 10
213.570921
 20
158.571668
 30
0.0
 11
213.866157
 21
158.549661
 31
0.0
  0
LINE
  5
17D
330
1F
100
AcDbEntity
  8
1
370
    13
100
AcDbLine
 10
222.592651
 20
157.913996
 30
0.0
 11
222.670981
 21
157.86397
 31
0.0
  0
LINE
  5
17E
330
1F
100
AcDbEntity
  8
1
370
    13
100
AcDbLine
 10
223.699622
 20
156.98329
 30
0.0
 11
224.029031
 21
156.973342
 31
0.0
  0
LINE
  5
17F
330
1F
100
AcDbEntity
  8
1
370
    13
100
AcDbLine
 10
223.244972
 20
156.994837
 30
0.0
 11
223.636062
 21
156.985078
 31
0.0
  0
LINE
  5
180
330
1F
100
AcDbEntity
  8
1
370
    13
100
AcDbLine
 10
223.636002
 20
156.984756
 30
0.0
 11
223.699827
 21
156.983335
 31
0.0
  0
LINE
  5
181
330
1F
100
AcDbEntity
  8
1
370
    13
100
AcDbLine
 10
220.025421
 20
157.913719
 30
0.0
 11
221.648085
 21
157.922207
 31
0.0
  0
LINE
  5
182
330
1F
100
AcDbEntity
  8
1
370
    13
100
AcDbLine
 10
225.641463
 20
159.532959
 30
0.0
 11
225.31335
 21
159.549512
 31
0.0
  0
LINE
  5
183
330
1F
100
AcDbEntity
  8
CUT
370
    13
100
AcDbLine
 10
225.654421
 20
168.419632
 30
0.0
 11
225.609407
 21
168.116941
 31
0.0
  0
LINE
  5
184
330
1F
100
AcDbEntity
  8
CUT
370
    13
100
AcDbLine
 10
216.934036
 20
165.440239
 30
0.0
 11
214.876245
 21
165.388517
 31
0.0
  0
LINE
  5
185
330
1F
100
AcDbEntity
  8
CUT
370
    13
100
AcDbLine
 10
211.92491
 20
173.996557
 30
0.0
 11
211.913286
 21
174.08633
 31
0.0
  0
LINE
  5
186
330
1F
100
AcDbEntity
  8
CUT
370
    13
100
AcDbLine
 10
217.447139
 20
178.468618
 30
0.0
 11
220.507119
 21
179.160594
 31
0.0
  0
LINE
  5
187
330
1F
100
AcDbEntity
  8
CUT
370
    13
100
AcDbLine
 10
224.785823
 20
167.162013
 30
0.0
 11
224.525815
 21
167.079234
 31
0.0
  0
LINE
  5
188
330
1F
100
AcDbEntity
  8
CUT
370
    13
100
AcDbLine
 10
214.067438
 20
165.689366
 30
0.0
 11
213.644134
 21
166.243159
 31
0.0
  0
LINE
  5
189
330
1F
100
AcDbEntity
  8
CUT
370
    13
100
AcDbLine
 10
211.976738
 20
176.43096
 30
0.0
 11
212.246341
 21
176.951032
 31
0.0
  0
LINE
  5
18A
330
1F
100
AcDbEntity
  8
CUT
370
    13
100
AcDbLine
 10
222.705091
 20
179.175094
 30
0.0
 11
222.982692
 21
179.131788
 31
0.0
  0
LINE
  5
18B
330
1F
100
AcDbEntity
  8
CUT
370
    13
100
AcDbLine
 10
225.618517
 20
170.526812
 30
0.0
 11
225.654419
 21
168.419632
 31
0.0
  0
LINE
  5
18C
330
1F
100
AcDbEntity
  8
CUT
370
    13
100
AcDbLine
 10
217.023903
 20
165.453329
 30
0.0
 11
216.934036
 21
165.440239
 31
0.0
  0
LINE
  5
18D
330
1F
100
AcDbEntity
  8
CUT
370
    13
100
AcDbLine
 10
212.593567
 20
170.916658
 30
0.0
 11
211.92491
 21
173.996557
 31
0.0
  0
LINE
  5
18E
330
1F
100
AcDbEntity
  8
CUT
370
    13
100
AcDbLine
 10
213.071288
 20
177.468609
 30
0.0
 11
217.447139
 21
178.468618
 31
0.0
  0
LINE
  5
18F
330
1F
100
AcDbEntity
  8
CUT
370
    13
100
AcDbLine
 10
223.952046
 20
178.308466
 30
0.0
 11
224.036895
 21
178.040811
 31
0.0
  0
LINE
  5
190
330
1F
100
AcDbEntity
  8
CUT
370
    13
100
AcDbLine
 10
225.35686
 20
167.605001
 30
0.0
 11
224.785823
 21
167.162013
 31
0.0
  0
LINE
  5
191
330
1F
100
AcDbEntity
  8
CUT
370
    13
100
AcDbLine
 10
214.580863
 20
165.431343
 30
0.0
 11
214.067438
 21
165.689366
 31
0.0
  0
LINE
  5
192
330
1F
100
AcDbEntity
  8
CUT
370
    13
100
AcDbLine
 10
211.926915
 20
176.143976
 30
0.0
 11
211.976738
 21
176.43096
 31
0.0
  0
LINE
  5
193
330
1F
100
AcDbEntity
  8
CUT
370
    13
100
AcDbLine
 10
220.597767
 20
179.172904
 30
0.0
 11
222.705092
 21
179.175092
 31
0.0
  0
LINE
  5
194
330
1F
100
AcDbEntity
  8
CUT
370
    13
100
AcDbLine
 10
225.606112
 20
170.617366
 30
0.0
 11
225.618517
 21
170.526812
 31
0.0
  0
LINE
  5
195
330
1F
100
AcDbEntity
  8
CUT
370
    13
100
AcDbLine
 10
220.108875
 20
166.120313
 30
0.0
 11
217.023903
 21
165.453329
 31
0.0
  0
LINE
  5
196
330
1F
100
AcDbEntity
  8
CUT
370
    13
100
AcDbLine
 10
213.560208
 20
166.507032
 30
0.0
 11
212.593567
 21
170.916658
 31
0.0
  0
LINE
  5
197
330
1F
100
AcDbEntity
  8
CUT
370
    13
100
AcDbLine
 10
212.806226
 20
177.381913
 30
0.0
 11
213.071288
 21
177.468609
 31
0.0
  0
LINE
  5
198
330
1F
100
AcDbEntity
  8
1
370
    13
100
AcDbLine
 10
213.461664
 20
156.263594
 30
0.0
 11
213.603382
 21
156.050393
 31
0.0
  0
LINE
  5
199
330
1F
100
AcDbEntity
  8
1
370
    13
100
AcDbLine
 10
214.779503
 20
156.074714
 30
0.0
 11
214.82074
 21
155.875916
 31
0.0
  0
LINE
  5
19A
330
1F
100
AcDbEntity
  8
1
370
    13
100
AcDbLine
 10
215.092295
 20
155.58334
 30
0.0
 11
214.82074
 21
155.875916
 31
0.0
  0
LINE
  5
19B
330
1F
100
AcDbEntity
  8
1
370
    13
100
AcDbLine
 10
215.369036
 20
155.425153
 30
0.0
 11
215.092295
 21
155.58334
 31
0.0
  0
LINE
  5
19C
330
1F
100
AcDbEntity
  8
1
370
    13
100
AcDbLine
 10
223.229728
 20
140.797821
 30
0.0
 11
223.081466
 21
140.464742
 31
0.0
  0
LINE
  5
19D
330
1F
100
AcDbEntity
  8
1
370
    13
100
AcDbLine
 10
223.229728
 20
140.797821
 30
0.0
 11
223.423534
 21
141.396326
 31
0.0
  0
LINE
  5
19E
330
1F
100
AcDbEntity
  8
1
370
    13
100
AcDbLine
 10
224.536103
 20
146.691212
 30
0.0
 11
223.423534
 21
141.396326
 31
0.0
  0
LINE
  5
19F
330
1F
100
AcDbEntity
  8
1
370
    13
100
AcDbLine
 10
224.417587
 20
167.057545
 30
0.0
 11
224.382898
 21
166.383761
 31
0.0
  0
LINE
  5
1A0
330
1F
100
AcDbEntity
  8
1
370
    13
100
AcDbLine
 10
223.403378
 20
154.197889
 30
0.0
 11
223.342237
 21
154.268619
 31
0.0
  0
LINE
  5
1A1
330
1F
100
AcDbEntity
  8
1
370
    13
100
AcDbLine
 10
223.950232
 20
154.376696
 30
0.0
 11
223.747577
 21
154.249456
 31
0.0
  0
LINE
  5
1A2
330
1F
100
AcDbEntity
  8
1
370
    13
100
AcDbLine
 10
223.950232
 20
154.376696
 30
0.0
 11
224.338668
 21
154.372039
 31
0.0
  0
LINE
  5
1A3
330
1F
100
AcDbEntity
  8
1
370
    13
100
AcDbLine
 10
224.539574
 20
154.353417
 30
0.0
 11
224.338668
 21
154.372039
 31
0.0
  0
LINE
  5
1A4
330
1F
100
AcDbEntity
  8
1
370
    13
100
AcDbLine
 10
224.45078
 20
151.246882
 30
0.0
 11
224.383177
 21
150.095654
 31
0.0
  0
LINE
  5
1A5
330
1F
100
AcDbEntity
  8
1
370
    13
100
AcDbLine
 10
213.262016
 20
156.236259
 30
0.0
 11
213.274901
 21
156.396201
 31
0.0
  0
LINE
  5
1A6
330
1F
100
AcDbEntity
  8
1
370
    13
100
AcDbLine
 10
213.722739
 20
155.901229
 30
0.0
 11
213.536844
 21
155.873913
 31
0.0
  0
LINE
  5
1A7
330
1F
100
AcDbEntity
  8
1
370
    13
100
AcDbLine
 10
213.722739
 20
155.901229
 30
0.0
 11
213.603382
 21
156.050393
 31
0.0
  0
LINE
  5
1A8
330
1F
100
AcDbEntity
  8
1
370
    13
100
AcDbLine
 10
225.609407
 20
168.116941
 30
0.0
 11
225.35686
 21
167.605001
 31
0.0
  0
LINE
  5
1A9
330
1F
100
AcDbEntity
  8
1
370
    13
100
AcDbLine
 10
225.35686
 20
167.605001
 30
0.0
 11
224.785823
 21
167.162013
 31
0.0
  0
LINE
  5
1AA
330
1F
100
AcDbEntity
  8
1
370
    13
100
AcDbLine
 10
211.913286
 20
174.08633
 30
0.0
 11
211.926917
 21
176.143977
 31
0.0
  0
LINE
  5
1AB
330
1F
100
AcDbEntity
  8
1
370
    13
100
AcDbLine
 10
211.976738
 20
176.43096
 30
0.0
 11
212.246341
 21
176.951032
 31
0.0
  0
LINE
  5
1AC
330
1F
100
AcDbEntity
  8
1
370
    13
100
AcDbLine
 10
212.246341
 20
176.951032
 30
0.0
 11
212.806226
 21
177.381913
 31
0.0
  0
LINE
  5
1AD
330
1F
100
AcDbEntity
  8
1
370
    13
100
AcDbLine
 10
213.071288
 20
177.468609
 30
0.0
 11
217.447139
 21
178.468618
 31
0.0
  0
LINE
  5
1AE
330
1F
100
AcDbEntity
  8
1
370
    13
100
AcDbLine
 10
220.507119
 20
179.160594
 30
0.0
 11
220.597767
 21
179.172904
 31
0.0
  0
LINE
  5
1AF
330
1F
100
AcDbEntity
  8
1
370
    13
100
AcDbLine
 10
220.597767
 20
179.172904
 30
0.0
 11
222.705092
 21
179.175092
 31
0.0
  0
LINE
  5
1B0
330
1F
100
AcDbEntity
  8
1
370
    13
100
AcDbLine
 10
222.982692
 20
179.131788
 30
0.0
 11
223.538676
 21
178.851296
 31
0.0
  0
LINE
  5
1B1
330
1F
100
AcDbEntity
  8
1
370
    13
100
AcDbLine
 10
223.538676
 20
178.851296
 30
0.0
 11
223.952046
 21
178.308466
 31
0.0
  0
LINE
  5
1B2
330
1F
100
AcDbEntity
  8
1
370
    13
100
AcDbLine
 10
224.036895
 20
178.040811
 30
0.0
 11
224.962448
 21
173.672273
 31
0.0
  0
LINE
  5
1B3
330
1F
100
AcDbEntity
  8
1
370
    13
100
AcDbLine
 10
225.606112
 20
170.617366
 30
0.0
 11
225.618517
 21
170.526812
 31
0.0
  0
LINE
  5
1B4
330
1F
100
AcDbEntity
  8
1
370
    13
100
AcDbLine
 10
225.618517
 20
170.526812
 30
0.0
 11
225.654419
 21
168.419632
 31
0.0
  0
LINE
  5
1B5
330
1F
100
AcDbEntity
  8
1
370
    13
100
AcDbLine
 10
222.453086
 20
176.621471
 30
0.0
 11
222.489163
 21
176.659866
 31
0.0
  0
LINE
  5
1B6
330
1F
100
AcDbEntity
  8
1
370
    13
100
AcDbLine
 10
224.525815
 20
167.079234
 30
0.0
 11
224.363769
 21
167.044053
 31
0.0
  0
LINE
  5
1B7
330
1F
100
AcDbEntity
  8
1
370
    13
100
AcDbLine
 10
211.913286
 20
158.437509
 30
0.0
 11
211.926917
 21
158.903756
 31
0.0
  0
LINE
  5
1B8
330
1F
100
AcDbEntity
  8
1
370
    13
100
AcDbLine
 10
213.071288
 20
159.011011
 30
0.0
 11
217.447139
 21
158.477246
 31
0.0
  0
LINE
  5
1B9
330
1F
100
AcDbEntity
  8
1
370
    13
100
AcDbLine
 10
220.507119
 20
158.125057
 30
0.0
 11
220.597767
 21
158.122733
 31
0.0
  0
LINE
  5
1BA
330
1F
100
AcDbEntity
  8
1
370
    13
100
AcDbLine
 10
220.597767
 20
158.122733
 30
0.0
 11
222.705092
 21
158.225976
 31
0.0
  0
LINE
  5
1BB
330
1F
100
AcDbEntity
  8
1
370
    13
100
AcDbLine
 10
223.952046
 20
158.139652
 30
0.0
 11
224.006134
 21
158.119479
 31
0.0
  0
LINE
  5
1BC
330
1F
100
AcDbEntity
  8
1
370
    13
100
AcDbLine
 10
224.036895
 20
158.101706
 30
0.0
 11
224.962448
 21
157.400116
 31
0.0
  0
LINE
  5
1BD
330
1F
100
AcDbEntity
  8
1
370
    13
100
AcDbLine
 10
225.478769
 20
157.00875
 30
0.0
 11
225.606112
 21
156.931517
 31
0.0
  0
LINE
  5
1BE
330
1F
100
AcDbEntity
  8
1
370
    13
100
AcDbLine
 10
225.643216
 20
156.92819
 30
0.0
 11
225.667062
 21
156.992289
 31
0.0
  0
LINE
  5
1BF
330
1F
100
AcDbEntity
  8
1
370
    13
100
AcDbLine
 10
222.551811
 20
159.492839
 30
0.0
 11
221.025323
 21
159.585263
 31
0.0
  0
LINE
  5
1C0
330
1F
100
AcDbEntity
  8
1
370
    13
100
AcDbLine
 10
222.344318
 20
162.987338
 30
0.0
 11
223.0753
 21
162.861343
 31
0.0
  0
LINE
  5
1C1
330
1F
100
AcDbEntity
  8
1
370
    13
100
AcDbLine
 10
223.302717
 20
160.149973
 30
0.0
 11
223.178669
 21
159.616064
 31
0.0
  0
LINE
  5
1C2
330
1F
100
AcDbEntity
  8
1
370
    13
100
AcDbLine
 10
223.184431
 20
159.533461
 30
0.0
 11
223.178669
 21
159.616064
 31
0.0
  0
LINE
  5
1C3
330
1F
100
AcDbEntity
  8
1
370
    13
100
AcDbLine
 10
223.378656
 20
159.389762
 30
0.0
 11
223.741704
 21
159.301035
 31
0.0
  0
LINE
  5
1C4
330
1F
100
AcDbEntity
  8
1
370
    13
100
AcDbLine
 10
223.978777
 20
158.647569
 30
0.0
 11
223.942383
 21
158.355099
 31
0.0
  0
LINE
  5
1C5
330
1F
100
AcDbEntity
  8
1
370
    13
100
AcDbLine
 10
222.755615
 20
159.516811
 30
0.0
 11
222.59184
 21
159.49051
 31
0.0
  0
LINE
  5
1C6
330
1F
100
AcDbEntity
  8
1
370
    13
100
AcDbLine
 10
222.06369
 20
161.082217
 30
0.0
 11
221.719437
 21
162.205046
 31
0.0
  0
LINE
  5
1C7
330
1F
100
AcDbEntity
  8
1
370
    13
100
AcDbLine
 10
214.382716
 20
176.10928
 30
0.0
 11
214.29237
 21
176.470876
 31
0.0
  0
LINE
  5
1C8
330
1F
100
AcDbEntity
  8
1
370
    13
100
AcDbLine
 10
222.405696
 20
177.38534
 30
0.0
 11
222.741849
 21
177.602269
 31
0.0
  0
LINE
  5
1C9
330
1F
100
AcDbEntity
  8
1
370
    13
100
AcDbLine
 10
222.281918
 20
177.274212
 30
0.0
 11
222.405696
 21
177.38534
 31
0.0
  0
LINE
  5
1CA
330
1F
100
AcDbEntity
  8
1
370
    13
100
AcDbLine
 10
222.347937
 20
177.071143
 30
0.0
 11
222.38302
 21
177.11013
 31
0.0
  0
LINE
  5
1CB
330
1F
100
AcDbEntity
  8
1
370
    13
100
AcDbLine
 10
214.504819
 20
175.841128
 30
0.0
 11
214.121279
 21
175.745977
 31
0.0
  0
LINE
  5
1CC
330
1F
100
AcDbEntity
  8
1
370
    13
100
AcDbLine
 10
213.935308
 20
175.69182
 30
0.0
 11
213.86192
 21
175.657657
 31
0.0
  0
LINE
  5
1CD
330
1F
100
AcDbEntity
  8
1
370
    13
100
AcDbLine
 10
214.053493
 20
175.72957
 30
0.0
 11
213.935308
 21
175.69182
 31
0.0
  0
LINE
  5
1CE
330
1F
100
AcDbEntity
  8
1
370
    13
100
AcDbLine
 10
212.898874
 20
169.523905
 30
0.0
 11
212.593567
 21
170.916658
 31
0.0
  0
LINE
  5
1CF
330
1F
100
AcDbEntity
  8
1
370
    13
100
AcDbLine
 10
211.92491
 20
173.996557
 30
0.0
 11
211.913286
 21
174.08633
 31
0.0
  0
LINE
  5
1D0
330
1F
100
AcDbEntity
  8
CUT
370
    13
100
AcDbLine
 10
225.609407
 20
168.116941
 30
0.0
 11
225.35686
 21
167.605001
 31
0.0
  0
LINE
  5
1D1
330
1F
100
AcDbEntity
  8
CUT
370
    13
100
AcDbLine
 10
214.876245
 20
165.388515
 30
0.0
 11
214.580863
 21
165.431343
 31
0.0
  0
LINE
  5
1D2
330
1F
100
AcDbEntity
  8
CUT
370
    13
100
AcDbLine
 10
211.913286
 20
174.08633
 30
0.0
 11
211.926917
 21
176.143977
 31
0.0
  0
LINE
  5
1D3
330
1F
100
AcDbEntity
  8
CUT
370
    13
100
AcDbLine
 10
220.507119
 20
179.160594
 30
0.0
 11
220.597767
 21
179.172904
 31
0.0
  0
LINE
  5
1D4
330
1F
100
AcDbEntity
  8
CUT
370
    13
100
AcDbLine
 10
224.525815
 20
167.079234
 30
0.0
 11
220.108875
 21
166.120313
 31
0.0
  0
LINE
  5
1D5
330
1F
100
AcDbEntity
  8
CUT
370
    13
100
AcDbLine
 10
212.246341
 20
176.951032
 30
0.0
 11
212.806226
 21
177.381913
 31
0.0
  0
LINE
  5
1D6
330
1F
100
AcDbEntity
  8
CUT
370
    13
100
AcDbLine
 10
222.982692
 20
179.131788
 30
0.0
 11
223.538676
 21
178.851296
 31
0.0
  0
LINE
  5
1D7
330
1F
100
AcDbEntity
  8
CUT
370
    13
100
AcDbLine
 10
213.644134
 20
166.243159
 30
0.0
 11
213.560208
 21
166.507032
 31
0.0
  0
LINE
  5
1D8
330
1F
100
AcDbEntity
  8
1
370
    13
100
AcDbLine
 10
213.31244
 20
155.982699
 30
0.0
 11
213.262016
 21
156.236259
 31
0.0
  0
LINE
  5
1D9
330
1F
100
AcDbEntity
  8
1
370
    13
100
AcDbLine
 10
214.259461
 20
155.597341
 30
0.0
 11
213.722739
 21
155.901229
 31
0.0
  0
LINE
  5
1DA
330
1F
100
AcDbEntity
  8
1
370
    13
100
AcDbLine
 10
215.480235
 20
155.382719
 30
0.0
 11
215.369036
 21
155.425153
 31
0.0
  0
LINE
  5
1DB
330
1F
100
AcDbEntity
  8
1
370
    13
100
AcDbLine
 10
210.973448
 20
155.487837
 30
0.0
 11
211.01092
 21
155.806031
 31
0.0
  0
LINE
  5
1DC
330
1F
100
AcDbEntity
  8
1
370
    13
100
AcDbLine
 10
215.985078
 20
155.276393
 30
0.0
 11
215.480235
 21
155.382719
 31
0.0
  0
LINE
  5
1DD
330
1F
100
AcDbEntity
  8
1
370
    13
100
AcDbLine
 10
223.317743
 20
154.602246
 30
0.0
 11
223.317743
 21
154.714555
 31
0.0
  0
LINE
  5
1DE
330
1F
100
AcDbEntity
  8
1
370
    13
100
AcDbLine
 10
223.394653
 20
154.022362
 30
0.0
 11
223.317743
 21
154.602246
 31
0.0
  0
LINE
  5
1DF
330
1F
100
AcDbEntity
  8
1
370
    13
100
AcDbLine
 10
224.338668
 20
152.707328
 30
0.0
 11
223.747577
 21
153.362193
 31
0.0
  0
LINE
  5
1E0
330
1F
100
AcDbEntity
  8
1
370
    13
100
AcDbLine
 10
224.338668
 20
152.707328
 30
0.0
 11
224.387337
 21
152.648375
 31
0.0
  0
LINE
  5
1E1
330
1F
100
AcDbEntity
  8
1
370
    13
100
AcDbLine
 10
223.20813
 20
148.529183
 30
0.0
 11
224.387337
 21
152.648375
 31
0.0
  0
LINE
  5
1E2
330
1F
100
AcDbEntity
  8
1
370
    13
100
AcDbLine
 10
223.20813
 20
148.529183
 30
0.0
 11
218.907715
 21
148.419797
 31
0.0
  0
LINE
  5
1E3
330
1F
100
AcDbEntity
  8
1
370
    13
100
AcDbLine
 10
212.898282
 20
149.418969
 30
0.0
 11
211.43113
 21
150.45451
 31
0.0
  0
LINE
  5
1E4
330
1F
100
AcDbEntity
  8
1
370
    13
100
AcDbLine
 10
201.174152
 20
155.268462
 30
0.0
 11
202.181286
 21
154.00901
 31
0.0
  0
LINE
  5
1E5
330
1F
100
AcDbEntity
  8
1
370
    13
100
AcDbLine
 10
202.725426
 20
152.652542
 30
0.0
 11
202.181286
 21
154.00901
 31
0.0
  0
LINE
  5
1E6
330
1F
100
AcDbEntity
  8
1
370
    13
100
AcDbLine
 10
208.513326
 20
148.41984
 30
0.0
 11
206.391596
 21
149.309787
 31
0.0
  0
LINE
  5
1E7
330
1F
100
AcDbEntity
  8
1
370
    13
100
AcDbLine
 10
202.656299
 20
143.812248
 30
0.0
 11
201.174152
 21
143.79763
 31
0.0
  0
LINE
  5
1E8
330
1F
100
AcDbEntity
  8
1
370
    13
100
AcDbLine
 10
222.986687
 20
141.189008
 30
0.0
 11
223.081466
 21
141.238501
 31
0.0
  0
LINE
  5
1E9
330
1F
100
AcDbEntity
  8
1
370
    13
100
AcDbLine
 10
220.838551
 20
143.079671
 30
0.0
 11
219.745271
 21
143.285366
 31
0.0
  0
LINE
  5
1EA
330
1F
100
AcDbEntity
  8
1
370
    13
100
AcDbLine
 10
224.360541
 20
151.339004
 30
0.0
 11
224.387337
 21
152.648375
 31
0.0
  0
LINE
  5
1EB
330
1F
100
AcDbEntity
  8
1
370
    13
100
AcDbLine
 10
224.536103
 20
147.292867
 30
0.0
 11
223.423534
 21
141.857216
 31
0.0
  0
LINE
  5
1EC
330
1F
100
AcDbEntity
  8
1
370
    13
100
AcDbLine
 10
223.229728
 20
141.395749
 30
0.0
 11
223.423534
 21
141.857216
 31
0.0
  0
LINE
  5
1ED
330
1F
100
AcDbEntity
  8
1
370
    13
100
AcDbLine
 10
220.838551
 20
139.360059
 30
0.0
 11
217.129739
 21
140.243868
 31
0.0
  0
LINE
  5
1EE
330
1F
100
AcDbEntity
  8
1
370
    13
100
AcDbLine
 10
218.750639
 20
143.472589
 30
0.0
 11
218.479359
 21
143.523668
 31
0.0
  0
LINE
  5
1EF
330
1F
100
AcDbEntity
  8
1
370
    13
100
AcDbLine
 10
214.793033
 20
144.638977
 30
0.0
 11
214.672739
 21
144.779214
 31
0.0
  0
LINE
  5
1F0
330
1F
100
AcDbEntity
  8
1
370
    13
100
AcDbLine
 10
211.391596
 20
146.899181
 30
0.0
 11
211.134401
 21
147.062884
 31
0.0
  0
LINE
  5
1F1
330
1F
100
AcDbEntity
  8
1
370
    13
100
AcDbLine
 10
214.672739
 20
144.779214
 30
0.0
 11
211.391596
 21
146.899181
 31
0.0
  0
LINE
  5
1F2
330
1F
100
AcDbEntity
  8
1
370
    13
100
AcDbLine
 10
214.793033
 20
141.214679
 30
0.0
 11
214.225552
 21
141.563801
 31
0.0
  0
LINE
  5
1F3
330
1F
100
AcDbEntity
  8
1
370
    13
100
AcDbLine
 10
212.663328
 20
142.271687
 30
0.0
 11
212.794512
 21
142.330232
 31
0.0
  0
LINE
  5
1F4
330
1F
100
AcDbEntity
  8
1
370
    13
100
AcDbLine
 10
212.034232
 20
142.159112
 30
0.0
 11
212.758209
 21
141.734246
 31
0.0
  0
LINE
  5
1F5
330
1F
100
AcDbEntity
  8
1
370
    13
100
AcDbLine
 10
211.837099
 20
142.263762
 30
0.0
 11
212.034232
 21
142.159112
 31
0.0
  0
LINE
  5
1F6
330
1F
100
AcDbEntity
  8
1
370
    13
100
AcDbLine
 10
211.737164
 20
142.296316
 30
0.0
 11
211.837099
 21
142.263762
 31
0.0
  0
LINE
  5
1F7
330
1F
100
AcDbEntity
  8
1
370
    13
100
AcDbLine
 10
211.664179
 20
142.257903
 30
0.0
 11
211.391596
 21
142.416087
 31
0.0
  0
LINE
  5
1F8
330
1F
100
AcDbEntity
  8
1
370
    13
100
AcDbLine
 10
224.536103
 20
146.691212
 30
0.0
 11
224.553569
 21
146.866431
 31
0.0
  0
LINE
  5
1F9
330
1F
100
AcDbEntity
  8
1
370
    13
100
AcDbLine
 10
221.719437
 20
162.205046
 30
0.0
 11
221.661717
 21
162.460817
 31
0.0
  0
LINE
  5
1FA
330
1F
100
AcDbEntity
  8
1
370
    13
100
AcDbLine
 10
221.025323
 20
159.585263
 30
0.0
 11
220.92426
 21
159.59088
 31
0.0
  0
LINE
  5
1FB
330
1F
100
AcDbEntity
  8
1
370
    13
100
AcDbLine
 10
212.624696
 20
160.223318
 30
0.0
 11
212.666804
 21
160.354327
 31
0.0
  0
LINE
  5
1FC
330
1F
100
AcDbEntity
  8
1
370
    13
100
AcDbLine
 10
212.683468
 20
160.168826
 30
0.0
 11
212.624696
 21
160.223318
 31
0.0
  0
LINE
  5
1FD
330
1F
100
AcDbEntity
  8
1
370
    13
100
AcDbLine
 10
221.452998
 20
161.615369
 30
0.0
 11
221.556826
 21
161.566184
 31
0.0
  0
LINE
  5
1FE
330
1F
100
AcDbEntity
  8
1
370
    13
100
AcDbLine
 10
221.556826
 20
161.566184
 30
0.0
 11
222.06369
 21
161.082217
 31
0.0
  0
LINE
  5
1FF
330
1F
100
AcDbEntity
  8
1
370
    13
100
AcDbLine
 10
213.061224
 20
160.901387
 30
0.0
 11
212.666804
 21
160.354327
 31
0.0
  0
LINE
  5
200
330
1F
100
AcDbEntity
  8
1
370
    13
100
AcDbLine
 10
225.357455
 20
158.538769
 30
0.0
 11
225.364732
 21
158.483806
 31
0.0
  0
LINE
  5
201
330
1F
100
AcDbEntity
  8
1
370
    13
100
AcDbLine
 10
225.196276
 20
160.54788
 30
0.0
 11
225.215744
 21
160.494593
 31
0.0
  0
LINE
  5
202
330
1F
100
AcDbEntity
  8
1
370
    13
100
AcDbLine
 10
225.215744
 20
160.494593
 30
0.0
 11
225.294139
 21
159.989785
 31
0.0
  0
LINE
  5
203
330
1F
100
AcDbEntity
  8
1
370
    13
100
AcDbLine
 10
222.605679
 20
157.911253
 30
0.0
 11
222.741849
 21
157.909799
 31
0.0
  0
LINE
  5
204
330
1F
100
AcDbEntity
  8
1
370
    13
100
AcDbLine
 10
213.789567
 20
163.529687
 30
0.0
 11
214.504283
 21
163.531583
 31
0.0
  0
LINE
  5
205
330
1F
100
AcDbEntity
  8
1
370
    13
100
AcDbLine
 10
212.713436
 20
160.166005
 30
0.0
 11
213.192191
 21
160.141109
 31
0.0
  0
LINE
  5
206
330
1F
100
AcDbEntity
  8
1
370
    13
100
AcDbLine
 10
213.234238
 20
159.538482
 30
0.0
 11
212.841315
 21
159.234438
 31
0.0
  0
LINE
  5
207
330
1F
100
AcDbEntity
  8
1
370
    13
100
AcDbLine
 10
212.161812
 20
159.62551
 30
0.0
 11
212.30626
 21
160.129381
 31
0.0
  0
LINE
  5
208
330
1F
100
AcDbEntity
  8
1
370
    13
100
AcDbLine
 10
222.670826
 20
157.863782
 30
0.0
 11
222.977039
 21
157.792585
 31
0.0
  0
LINE
  5
209
330
1F
100
AcDbEntity
  8
1
370
    13
100
AcDbLine
 10
212.481309
 20
160.334359
 30
0.0
 11
212.30626
 21
160.129381
 31
0.0
  0
LINE
  5
20A
330
1F
100
AcDbEntity
  8
1
370
    13
100
AcDbLine
 10
212.782775
 20
161.605405
 30
0.0
 11
213.13246
 21
162.651517
 31
0.0
  0
LINE
  5
20B
330
1F
100
AcDbEntity
  8
1
370
    13
100
AcDbLine
 10
213.500052
 20
158.594352
 30
0.0
 11
213.575517
 21
158.571625
 31
0.0
  0
LINE
  5
20C
330
1F
100
AcDbEntity
  8
1
370
    13
100
AcDbLine
 10
225.498083
 20
158.359511
 30
0.0
 11
225.451308
 21
158.441614
 31
0.0
  0
LINE
  5
20D
330
1F
100
AcDbEntity
  8
1
370
    13
100
AcDbLine
 10
225.138093
 20
161.156982
 30
0.0
 11
225.093109
 21
161.424533
 31
0.0
  0
LINE
  5
20E
330
1F
100
AcDbEntity
  8
1
370
    13
100
AcDbLine
 10
225.294139
 20
159.989785
 30
0.0
 11
225.138093
 21
161.156982
 31
0.0
  0
LINE
  5
20F
330
1F
100
AcDbEntity
  8
1
370
    13
100
AcDbLine
 10
212.018089
 20
158.379439
 30
0.0
 11
211.92491
 21
158.424108
 31
0.0
  0
LINE
  5
210
330
1F
100
AcDbEntity
  8
1
370
    13
100
AcDbLine
 10
214.803697
 20
157.657377
 30
0.0
 11
214.670722
 21
157.691468
 31
0.0
  0
LINE
  5
211
330
1F
100
AcDbEntity
  8
1
370
    13
100
AcDbLine
 10
213.13246
 20
162.651517
 30
0.0
 11
213.222013
 21
162.893388
 31
0.0
  0
LINE
  5
212
330
1F
100
AcDbEntity
  8
1
370
    13
100
AcDbLine
 10
215.009966
 20
157.835141
 30
0.0
 11
215.175051
 21
158.173083
 31
0.0
  0
LINE
  5
213
330
1F
100
AcDbEntity
  8
1
370
    13
100
AcDbLine
 10
223.94626
 20
157.003579
 30
0.0
 11
224.027426
 21
156.973398
 31
0.0
  0
LINE
  5
214
330
1F
100
AcDbEntity
  8
1
370
    13
100
AcDbLine
 10
223.614153
 20
157.197325
 30
0.0
 11
223.673852
 21
156.998297
 31
0.0
  0
LINE
  5
215
330
1F
100
AcDbEntity
  8
1
370
    13
100
AcDbLine
 10
223.244971
 20
156.99457
 30
0.0
 11
223.201692
 21
157.03656
 31
0.0
  0
LINE
  5
216
330
1F
100
AcDbEntity
  8
1
370
    13
100
AcDbLine
 10
215.118608
 20
157.804426
 30
0.0
 11
215.283618
 21
158.142546
 31
0.0
  0
LINE
  5
217
330
1F
100
AcDbEntity
  8
1
370
    13
100
AcDbLine
 10
215.283613
 20
158.142493
 30
0.0
 11
215.306499
 21
158.404081
 31
0.0
  0
LINE
  5
218
330
1F
100
AcDbEntity
  8
1
370
    13
100
AcDbLine
 10
215.20235
 20
157.784077
 30
0.0
 11
215.355872
 21
158.126437
 31
0.0
  0
LINE
  5
219
330
1F
100
AcDbEntity
  8
1
370
    13
100
AcDbLine
 10
215.355886
 20
158.126897
 30
0.0
 11
215.376928
 21
158.367402
 31
0.0
  0
LINE
  5
21A
330
1F
100
AcDbEntity
  8
1
370
    13
100
AcDbLine
 10
225.641557
 20
159.534081
 30
0.0
 11
225.667551
 21
159.479691
 31
0.0
  0
LINE
  5
21B
330
1F
100
AcDbEntity
  8
1
370
    13
100
AcDbLine
 10
224.340764
 20
156.703186
 30
0.0
 11
224.562081
 21
156.901409
 31
0.0
  0
LINE
  5
21C
330
1F
100
AcDbEntity
  8
1
370
    13
100
AcDbLine
 10
224.635072
 20
154.420986
 30
0.0
 11
223.920356
 21
154.422882
 31
0.0
  0
LINE
  5
21D
330
1F
100
AcDbEntity
  8
1
370
    13
100
AcDbLine
 10
225.332801
 20
159.166483
 30
0.0
 11
225.507899
 21
159.155215
 31
0.0
  0
LINE
  5
21E
330
1F
100
AcDbEntity
  8
1
370
    13
100
AcDbLine
 10
225.551062
 20
158.755254
 30
0.0
 11
225.511174
 21
158.255824
 31
0.0
  0
LINE
  5
21F
330
1F
100
AcDbEntity
  8
1
370
    13
100
AcDbLine
 10
225.507899
 20
159.155215
 30
0.0
 11
225.542667
 21
159.095542
 31
0.0
  0
LINE
  5
220
330
1F
100
AcDbEntity
  8
1
370
    13
100
AcDbLine
 10
225.294139
 20
156.471223
 30
0.0
 11
225.138093
 21
155.304026
 31
0.0
  0
LINE
  5
221
330
1F
100
AcDbEntity
  8
1
370
    13
100
AcDbLine
 10
225.138093
 20
155.304026
 30
0.0
 11
225.093109
 21
155.036476
 31
0.0
  0
LINE
  5
222
330
1F
100
AcDbEntity
  8
1
370
    13
100
AcDbLine
 10
212.713436
 20
139.86087
 30
0.0
 11
213.192191
 21
139.491545
 31
0.0
  0
LINE
  5
223
330
1F
100
AcDbEntity
  8
CUT
370
    13
100
AcDbLine
 10
223.538676
 20
178.851296
 30
0.0
 11
223.952046
 21
178.308466
 31
0.0
  0
LINE
  5
224
330
1F
100
AcDbEntity
  8
CUT
370
    13
100
AcDbLine
 10
224.962448
 20
173.672273
 30
0.0
 11
225.606112
 21
170.617366
 31
0.0
  0
LINE
  5
225
330
1F
100
AcDbEntity
  8
1
370
    13
100
AcDbLine
 10
212.177103
 20
140.372505
 30
0.0
 11
212.30626
 21
140.650204
 31
0.0
  0
LINE
  5
226
330
1F
100
AcDbEntity
  8
1
370
    13
100
AcDbLine
 10
212.362886
 20
140.541459
 30
0.0
 11
212.30626
 21
140.650204
 31
0.0
  0
LINE
  5
227
330
1F
100
AcDbEntity
  8
1
370
    13
100
AcDbLine
 10
212.782775
 20
141.449365
 30
0.0
 11
213.13246
 21
141.985324
 31
0.0
  0
LINE
  5
228
330
1F
100
AcDbEntity
  8
1
370
    13
100
AcDbLine
 10
224.635072
 20
147.691571
 30
0.0
 11
224.544804
 21
147.869796
 31
0.0
  0
LINE
  5
229
330
1F
100
AcDbEntity
  8
1
370
    13
100
AcDbLine
 10
222.703856
 20
137.722742
 30
0.0
 11
222.59184
 21
137.666954
 31
0.0
  0
LINE
  5
22A
330
1F
100
AcDbEntity
  8
1
370
    13
100
AcDbLine
 10
222.06369
 20
138.148511
 30
0.0
 11
221.719437
 21
138.50154
 31
0.0
  0
LINE
  5
22B
330
1F
100
AcDbEntity
  8
1
370
    13
100
AcDbLine
 10
221.719437
 20
138.50154
 30
0.0
 11
221.661717
 21
138.591698
 31
0.0
  0
LINE
  5
22C
330
1F
100
AcDbEntity
  8
1
370
    13
100
AcDbLine
 10
223.378656
 20
138.068144
 30
0.0
 11
223.741704
 21
138.544118
 31
0.0
  0
LINE
  5
22D
330
1F
100
AcDbEntity
  8
1
370
    13
100
AcDbLine
 10
212.939357
 20
142.033508
 30
0.0
 11
212.782775
 21
141.449365
 31
0.0
  0
LINE
  5
22E
330
1F
100
AcDbEntity
  8
1
370
    13
100
AcDbLine
 10
221.452998
 20
138.336848
 30
0.0
 11
221.556826
 21
138.309237
 31
0.0
  0
LINE
  5
22F
330
1F
100
AcDbEntity
  8
1
370
    13
100
AcDbLine
 10
221.556826
 20
138.309237
 30
0.0
 11
222.06369
 21
138.148511
 31
0.0
  0
LINE
  5
230
330
1F
100
AcDbEntity
  8
1
370
    13
100
AcDbLine
 10
225.543393
 20
148.125063
 30
0.0
 11
225.497043
 21
147.93017
 31
0.0
  0
LINE
  5
231
330
1F
100
AcDbEntity
  8
1
370
    13
100
AcDbLine
 10
225.444114
 20
148.042571
 30
0.0
 11
225.497043
 21
147.93017
 31
0.0
  0
LINE
  5
232
330
1F
100
AcDbEntity
  8
1
370
    13
100
AcDbLine
 10
225.294139
 20
147.40462
 30
0.0
 11
225.138093
 21
147.0623
 31
0.0
  0
LINE
  5
233
330
1F
100
AcDbEntity
  8
1
370
    13
100
AcDbLine
 10
225.138093
 20
147.0623
 30
0.0
 11
225.093109
 21
147.005093
 31
0.0
  0
LINE
  5
234
330
1F
100
AcDbEntity
  8
1
370
    13
100
AcDbLine
 10
225.090417
 20
148.720054
 30
0.0
 11
225.19473
 21
148.524418
 31
0.0
  0
LINE
  5
235
330
1F
100
AcDbEntity
  8
1
370
    13
100
AcDbLine
 10
225.090417
 20
148.720054
 30
0.0
 11
224.609021
 21
149.086739
 31
0.0
  0
LINE
  5
236
330
1F
100
AcDbEntity
  8
1
370
    13
100
AcDbLine
 10
225.196276
 20
146.795014
 30
0.0
 11
225.215744
 21
146.898664
 31
0.0
  0
LINE
  5
237
330
1F
100
AcDbEntity
  8
1
370
    13
100
AcDbLine
 10
225.215744
 20
146.898664
 30
0.0
 11
225.294139
 21
147.40462
 31
0.0
  0
LINE
  5
238
330
1F
100
AcDbEntity
  8
1
370
    13
100
AcDbLine
 10
212.246341
 20
139.509976
 30
0.0
 11
212.806226
 21
139.079095
 31
0.0
  0
LINE
  5
239
330
1F
100
AcDbEntity
  8
1
370
    13
100
AcDbLine
 10
211.976738
 20
140.030048
 30
0.0
 11
212.246341
 21
139.509976
 31
0.0
  0
LINE
  5
23A
330
1F
100
AcDbEntity
  8
1
370
    13
100
AcDbLine
 10
213.234238
 20
139.145306
 30
0.0
 11
212.841315
 21
139.148661
 31
0.0
  0
LINE
  5
23B
330
1F
100
AcDbEntity
  8
1
370
    13
100
AcDbLine
 10
211.904328
 20
142.230461
 30
0.0
 11
211.926917
 21
140.317031
 31
0.0
  0
LINE
  5
23C
330
1F
100
AcDbEntity
  8
1
370
    13
100
AcDbLine
 10
212.305122
 20
140.690025
 30
0.0
 11
212.331756
 21
141.982798
 31
0.0
  0
LINE
  5
23D
330
1F
100
AcDbEntity
  8
1
370
    13
100
AcDbLine
 10
222.551811
 20
137.66612
 30
0.0
 11
221.025323
 21
137.718044
 31
0.0
  0
LINE
  5
23E
330
1F
100
AcDbEntity
  8
1
370
    13
100
AcDbLine
 10
221.025323
 20
137.718044
 30
0.0
 11
220.92426
 21
137.73198
 31
0.0
  0
LINE
  5
23F
330
1F
100
AcDbEntity
  8
1
370
    13
100
AcDbLine
 10
213.071288
 20
138.9924
 30
0.0
 11
217.447139
 21
137.99239
 31
0.0
  0
LINE
  5
240
330
1F
100
AcDbEntity
  8
1
370
    13
100
AcDbLine
 10
220.597767
 20
137.288105
 30
0.0
 11
222.705092
 21
137.285917
 31
0.0
  0
LINE
  5
241
330
1F
100
AcDbEntity
  8
1
370
    13
100
AcDbLine
 10
220.507119
 20
137.300414
 30
0.0
 11
220.597767
 21
137.288105
 31
0.0
  0
LINE
  5
242
330
1F
100
AcDbEntity
  8
1
370
    13
100
AcDbLine
 10
223.538676
 20
137.609712
 30
0.0
 11
223.952046
 21
138.152542
 31
0.0
  0
LINE
  5
243
330
1F
100
AcDbEntity
  8
1
370
    13
100
AcDbLine
 10
222.982692
 20
137.32922
 30
0.0
 11
223.538676
 21
137.609712
 31
0.0
  0
LINE
  5
244
330
1F
100
AcDbEntity
  8
1
370
    13
100
AcDbLine
 10
223.978777
 20
138.583949
 30
0.0
 11
223.919912
 21
138.191263
 31
0.0
  0
LINE
  5
245
330
1F
100
AcDbEntity
  8
1
370
    13
100
AcDbLine
 10
225.497966
 20
147.890134
 30
0.0
 11
225.451308
 21
146.36402
 31
0.0
  0
LINE
  5
246
330
1F
100
AcDbEntity
  8
1
370
    13
100
AcDbLine
 10
225.451308
 20
146.36402
 30
0.0
 11
225.437792
 21
146.263061
 31
0.0
  0
LINE
  5
247
330
1F
100
AcDbEntity
  8
1
370
    13
100
AcDbLine
 10
224.036895
 20
138.420198
 30
0.0
 11
224.962448
 21
142.788735
 31
0.0
  0
LINE
  5
248
330
1F
100
AcDbEntity
  8
1
370
    13
100
AcDbLine
 10
225.618517
 20
145.934196
 30
0.0
 11
225.654419
 21
148.041377
 31
0.0
  0
LINE
  5
249
330
1F
100
AcDbEntity
  8
1
370
    13
100
AcDbLine
 10
225.606112
 20
145.843642
 30
0.0
 11
225.618517
 21
145.934196
 31
0.0
  0
LINE
  5
24A
330
1F
100
AcDbEntity
  8
1
370
    13
100
AcDbLine
 10
225.609407
 20
148.344067
 30
0.0
 11
225.35686
 21
148.856008
 31
0.0
  0
LINE
  5
24B
330
1F
100
AcDbEntity
  8
1
370
    13
100
AcDbLine
 10
225.35686
 20
148.856008
 30
0.0
 11
224.785823
 21
149.298995
 31
0.0
  0
LINE
  5
24C
330
1F
100
AcDbEntity
  8
1
370
    13
100
AcDbLine
 10
213.13246
 20
141.985324
 30
0.0
 11
213.222013
 21
142.0871
 31
0.0
  0
LINE
  5
24D
330
1F
100
AcDbEntity
  8
1
370
    13
100
AcDbLine
 10
212.966152
 20
142.144485
 30
0.0
 11
212.939357
 21
142.033508
 31
0.0
  0
LINE
  5
24E
330
1F
100
AcDbEntity
  8
1
370
    13
100
AcDbLine
 10
224.525815
 20
149.381775
 30
0.0
 11
224.419256
 21
149.404909
 31
0.0
  0
LINE
  5
24F
330
1F
100
AcDbEntity
  8
1
370
    13
100
AcDbLine
 10
220.231814
 20
172.493003
 30
0.0
 11
220.169388
 21
172.482476
 31
0.0
  0
LINE
  5
250
330
1F
100
AcDbEntity
  8
1
370
    13
100
AcDbLine
 10
220.108805
 20
172.471611
 30
0.0
 11
220.169388
 21
172.482476
 31
0.0
  0
LINE
  5
251
330
1F
100
AcDbEntity
  8
1
370
    13
100
AcDbLine
 10
219.809593
 20
172.628935
 30
0.0
 11
220.108805
 21
172.471611
 31
0.0
  0
LINE
  5
252
330
1F
100
AcDbEntity
  8
1
370
    13
100
AcDbLine
 10
218.014471
 20
170.515995
 30
0.0
 11
218.014493
 21
170.411643
 31
0.0
  0
LINE
  5
253
330
1F
100
AcDbEntity
  8
1
370
    13
100
AcDbLine
 10
218.014471
 20
170.515995
 30
0.0
 11
218.031035
 21
170.575531
 31
0.0
  0
LINE
  5
254
330
1F
100
AcDbEntity
  8
1
370
    13
100
AcDbLine
 10
218.031035
 20
170.575531
 30
0.0
 11
217.865556
 21
170.929123
 31
0.0
  0
LINE
  5
255
330
1F
100
AcDbEntity
  8
1
370
    13
100
AcDbLine
 10
218.967668
 20
173.377762
 30
0.0
 11
218.9056
 21
173.289039
 31
0.0
  0
LINE
  5
256
330
1F
100
AcDbEntity
  8
1
370
    13
100
AcDbLine
 10
218.883619
 20
173.228627
 30
0.0
 11
218.9056
 21
173.289039
 31
0.0
  0
LINE
  5
257
330
1F
100
AcDbEntity
  8
1
370
    13
100
AcDbLine
 10
217.328091
 20
171.849475
 30
0.0
 11
217.390408
 21
171.86599
 31
0.0
  0
LINE
  5
258
330
1F
100
AcDbEntity
  8
1
370
    13
100
AcDbLine
 10
217.328091
 20
171.849475
 30
0.0
 11
217.233823
 21
171.795533
 31
0.0
  0
LINE
  5
259
330
1F
100
AcDbEntity
  8
1
370
    13
100
AcDbLine
 10
217.522532
 20
172.693945
 30
0.0
 11
217.533298
 21
172.628515
 31
0.0
  0
LINE
  5
25A
330
1F
100
AcDbEntity
  8
1
370
    13
100
AcDbLine
 10
190.712483
 20
153.076159
 30
0.0
 11
190.527743
 21
153.008004
 31
0.0
  0
LINE
  5
25B
330
1F
100
AcDbEntity
  8
1
370
    13
100
AcDbLine
 10
191.265449
 20
162.600324
 30
0.0
 11
191.327743
 21
162.217325
 31
0.0
  0
LINE
  5
25C
330
1F
100
AcDbEntity
  8
1
370
    13
100
AcDbLine
 10
199.805282
 20
172.820598
 30
0.0
 11
201.174152
 21
172.424739
 31
0.0
  0
LINE
  5
25D
330
1F
100
AcDbEntity
  8
1
370
    13
100
AcDbLine
 10
214.672739
 20
169.787389
 30
0.0
 11
211.391596
 21
169.298416
 31
0.0
  0
LINE
  5
25E
330
1F
100
AcDbEntity
  8
1
370
    13
100
AcDbLine
 10
201.174152
 20
172.424739
 30
0.0
 11
202.181286
 21
172.102382
 31
0.0
  0
LINE
  5
25F
330
1F
100
AcDbEntity
  8
1
370
    13
100
AcDbLine
 10
218.430932
 20
157.123281
 30
0.0
 11
223.244991
 21
156.994042
 31
0.0
  0
LINE
  5
260
102
{ACAD_REACTORS
330
397
330
414
102
}
330
1F
100
AcDbEntity
  8
81
370
    18
100
AcDbLine
 10
225.667743
 20
178.205504
 30
0.0
 11
225.667743
 21
180.205504
 31
0.0
  0
LINE
  5
261
330
1F
100
AcDbEntity
  8
NOCUT
370
    13
100
AcDbLine
 10
223.317743
 20
165.155504
 30
0.0
 11
222.97967
 21
164.430504
 31
0.0
  0
LINE
  5
262
102
{ACAD_REACTORS
330
44B
102
}
330
1F
100
AcDbEntity
  8
2
370
    13
100
AcDbLine
 10
225.606112
 20
170.617366
 30
0.0
 11
220.226605
 21
196.008228
 31
0.0
  0
LINE
  5
263
102
{ACAD_REACTORS
330
44B
102
}
330
1F
100
AcDbEntity
  8
2
370
    13
100
AcDbLine
 10
225.667743
 20
180.205504
 30
0.0
 11
225.667743
 21
196.578302
 31
0.0
  0
LINE
  5
264
330
1F
100
AcDbEntity
  8
2
 60
     1
370
    13
100
AcDbLine
 10
220.641139
 20
194.051659
 30
0.0
 11
217.658203
 21
192.886571
 31
0.0
  0
LINE
  5
265
330
1F
100
AcDbEntity
  8
2
 60
     1
370
    13
100
AcDbLine
 10
217.658203
 20
192.886571
 30
0.0
 11
217.458294
 21
193.698311
 31
0.0
  0
LINE
  5
266
330
1F
100
AcDbEntity
  8
2
 60
     1
370
    13
100
AcDbLine
 10
217.458294
 20
193.698311
 30
0.0
 11
220.641139
 21
194.051659
 31
0.0
  0
LINE
  5
267
330
1F
100
AcDbEntity
  8
2
 60
     1
370
    13
100
AcDbLine
 10
225.667743
 20
194.578302
 30
0.0
 11
228.854704
 21
194.892326
 31
0.0
  0
LINE
  5
268
330
1F
100
AcDbEntity
  8
2
 60
     1
370
    13
100
AcDbLine
 10
228.854704
 20
194.892326
 30
0.0
 11
228.82739
 21
194.056779
 31
0.0
  0
LINE
  5
269
330
1F
100
AcDbEntity
  8
2
 60
     1
370
    13
100
AcDbLine
 10
228.82739
 20
194.056779
 30
0.0
 11
225.667743
 21
194.578302
 31
0.0
  0
ARC
  5
26A
330
1F
100
AcDbEntity
  8
1
370
    13
100
AcDbCircle
 10
215.256053
 20
157.299014
 30
0.0
 40
1.178893431945134
100
AcDbArc
 50
259.045179
 51
325.507216
  0
ARC
  5
26B
330
1F
100
AcDbEntity
  8
1
370
    13
100
AcDbCircle
 10
218.825486
 20
172.185439
 30
0.0
 40
3.157026791701154
100
AcDbArc
 50
192.133547
 51
232.971633
  0
ARC
  5
26C
330
1F
100
AcDbEntity
  8
1
370
    13
100
AcDbCircle
 10
218.875639
 20
172.190626
 30
0.0
 40
3.207895711798316
100
AcDbArc
 50
142.828281
 51
183.224239
  0
ARC
  5
26D
330
1F
100
AcDbEntity
  8
1
370
    13
100
AcDbCircle
 10
218.887267
 20
172.185421
 30
0.0
 40
3.220307113882699
100
AcDbArc
 50
102.589604
 51
142.879487
  0
ARC
  5
26E
330
1F
100
AcDbEntity
  8
1
370
    13
100
AcDbCircle
 10
214.16574
 20
175.214562
 30
0.0
 40
0.5372607986455088
100
AcDbArc
 50
124.441429
 51
192.092323
  0
ARC
  5
26F
330
1F
100
AcDbEntity
  8
1
370
    13
100
AcDbCircle
 10
218.842234
 20
172.240529
 30
0.0
 40
3.202247854051937
100
AcDbArc
 50
328.058416
 51
8.502874
  0
ARC
  5
270
330
1F
100
AcDbEntity
  8
1
370
    13
100
AcDbCircle
 10
218.93026
 20
172.088933
 30
0.0
 40
3.062302124919752
100
AcDbArc
 50
184.541553
 51
225.99729
  0
ARC
  5
271
330
1F
100
AcDbEntity
  8
1
370
    13
100
AcDbCircle
 10
218.973912
 20
172.091925
 30
0.0
 40
3.106053469009005
100
AcDbArc
 50
143.475905
 51
184.532806
  0
ARC
  5
272
330
1F
100
AcDbEntity
  8
1
370
    13
100
AcDbCircle
 10
218.986195
 20
172.086435
 30
0.0
 40
3.11919285276225
100
AcDbArc
 50
102.590179
 51
143.529156
  0
ARC
  5
273
330
1F
100
AcDbEntity
  8
1
370
    13
100
AcDbCircle
 10
218.983192
 20
172.141507
 30
0.0
 40
3.063071007043876
100
AcDbArc
 50
45.028497
 51
86.477141
  0
ARC
  5
274
330
1F
100
AcDbEntity
  8
1
370
    13
100
AcDbCircle
 10
218.97886
 20
172.142688
 30
0.0
 40
3.065403245523655
100
AcDbArc
 50
0.657014
 51
42.084163
  0
ARC
  5
275
330
1F
100
AcDbEntity
  8
1
370
    13
100
AcDbCircle
 10
218.881699
 20
172.235615
 30
0.0
 40
3.169360991716919
100
AcDbArc
 50
53.023946
 51
93.753724
  0
ARC
  5
276
330
1F
100
AcDbEntity
  8
1
370
    13
100
AcDbCircle
 10
218.886816
 20
172.247204
 30
0.0
 40
3.157026791701305
100
AcDbArc
 50
12.133547
 51
52.971633
  0
ARC
  5
277
330
1F
100
AcDbEntity
  8
1
370
    13
100
AcDbCircle
 10
219.694667
 20
145.465613
 30
0.0
 40
2.298605916477833
100
AcDbArc
 50
56.82574
 51
104.349577
  0
ARC
  5
278
330
1F
100
AcDbEntity
  8
1
370
    13
100
AcDbCircle
 10
219.739758
 20
145.534627
 30
0.0
 40
2.216167196783184
100
AcDbArc
 50
8.093702
 51
56.825153
  0
ARC
  5
279
330
1F
100
AcDbEntity
  8
1
370
    13
100
AcDbCircle
 10
219.727618
 20
145.540835
 30
0.0
 40
2.227325419143686
100
AcDbArc
 50
319.328102
 51
7.89164
  0
ARC
  5
27A
330
1F
100
AcDbEntity
  8
1
370
    13
100
AcDbCircle
 10
219.665445
 20
145.591461
 30
0.0
 40
2.307476183267658
100
AcDbArc
 50
271.982498
 51
319.380798
  0
ARC
  5
27B
330
1F
100
AcDbEntity
  8
1
370
    13
100
AcDbCircle
 10
219.60878
 20
145.442025
 30
0.0
 40
1.593438241974929
100
AcDbArc
 50
242.006446
 51
299.465019
  0
ARC
  5
27C
330
1F
100
AcDbEntity
  8
1
370
    13
100
AcDbCircle
 10
219.613372
 20
145.457628
 30
0.0
 40
1.609375033062055
100
AcDbArc
 50
185.06094
 51
242.122842
  0
ARC
  5
27D
330
1F
100
AcDbEntity
  8
1
370
    13
100
AcDbCircle
 10
219.585693
 20
145.455865
 30
0.0
 40
1.581648351689496
100
AcDbArc
 50
127.329302
 51
185.085763
  0
ARC
  5
27E
330
1F
100
AcDbEntity
  8
1
370
    13
100
AcDbCircle
 10
219.587143
 20
145.447658
 30
0.0
 40
1.589057733816573
100
AcDbArc
 50
69.622629
 51
127.191436
  0
ARC
  5
27F
330
1F
100
AcDbEntity
  8
1
370
    13
100
AcDbCircle
 10
219.582075
 20
145.42661
 30
0.0
 40
1.610555232057642
100
AcDbArc
 50
12.681576
 51
69.714373
  0
ARC
  5
280
330
1F
100
AcDbEntity
  8
1
370
    13
100
AcDbCircle
 10
219.607344
 20
145.43058
 30
0.0
 40
1.585032929485875
100
AcDbArc
 50
315.071547
 51
12.7421
  0
ARC
  5
281
330
1F
100
AcDbEntity
  8
1
370
    13
100
AcDbCircle
 10
219.579268
 20
145.394754
 30
0.0
 40
1.979569730745271
100
AcDbArc
 50
262.837921
 51
314.422018
  0
ARC
  5
282
330
1F
100
AcDbEntity
  8
1
370
    13
100
AcDbCircle
 10
219.582385
 20
145.426816
 30
0.0
 40
2.011770604294308
100
AcDbArc
 50
211.850707
 51
262.863693
  0
ARC
  5
283
330
1F
100
AcDbEntity
  8
1
370
    13
100
AcDbCircle
 10
219.568107
 20
145.421753
 30
0.0
 40
1.996973402158471
100
AcDbArc
 50
160.670032
 51
211.9435
  0
ARC
  5
284
330
1F
100
AcDbEntity
  8
1
370
    13
100
AcDbCircle
 10
219.543164
 20
145.428107
 30
0.0
 40
1.971334364500287
100
AcDbArc
 50
108.871609
 51
160.604333
  0
ARC
  5
285
330
1F
100
AcDbEntity
  8
1
370
    13
100
AcDbCircle
 10
219.549461
 20
145.402768
 30
0.0
 40
1.997349370553828
100
AcDbArc
 50
57.540621
 51
108.807429
  0
ARC
  5
286
330
1F
100
AcDbEntity
  8
1
370
    13
100
AcDbCircle
 10
219.544584
 20
145.388979
 30
0.0
 40
2.01160467232972
100
AcDbArc
 50
6.618323
 51
57.634211
  0
ARC
  5
287
330
1F
100
AcDbEntity
  8
1
370
    13
100
AcDbCircle
 10
219.576801
 20
145.391884
 30
0.0
 40
1.979267698928239
100
AcDbArc
 50
315.052738
 51
6.642268
  0
ARC
  5
288
330
1F
100
AcDbEntity
  8
1
370
    13
100
AcDbCircle
 10
218.720562
 20
171.889195
 30
0.0
 40
2.753753069764418
100
AcDbArc
 50
143.886005
 51
187.501902
  0
ARC
  5
289
330
1F
100
AcDbEntity
  8
1
370
    13
100
AcDbCircle
 10
218.732644
 20
171.884138
 30
0.0
 40
2.766496364501846
100
AcDbArc
 50
100.470376
 51
143.948888
  0
ARC
  5
28A
330
1F
100
AcDbEntity
  8
1
370
    13
100
AcDbCircle
 10
218.726757
 20
171.922266
 30
0.0
 40
2.727933845200303
100
AcDbArc
 50
56.596708
 51
100.494302
  0
ARC
  5
28B
330
1F
100
AcDbEntity
  8
1
370
    13
100
AcDbCircle
 10
218.733095
 20
171.937213
 30
0.0
 40
2.711968014813205
100
AcDbArc
 50
12.460594
 51
56.53466
  0
ARC
  5
28C
330
1F
100
AcDbEntity
  8
1
370
    13
100
AcDbCircle
 10
218.696583
 20
171.930526
 30
0.0
 40
2.749063760271592
100
AcDbArc
 50
328.765742
 51
12.432466
  0
ARC
  5
28D
330
1F
100
AcDbEntity
  8
1
370
    13
100
AcDbCircle
 10
218.680483
 20
171.884061
 30
0.0
 40
2.713188266534092
100
AcDbArc
 50
192.135338
 51
224.991413
  0
ARC
  5
28E
330
1F
100
AcDbEntity
  8
1
370
    13
100
AcDbCircle
 10
218.685039
 20
171.925635
 30
0.0
 40
1.800310692714009
100
AcDbArc
 50
144.047229
 51
192.100318
  0
ARC
  5
28F
330
1F
100
AcDbEntity
  8
1
370
    13
100
AcDbCircle
 10
218.693688
 20
171.923382
 30
0.0
 40
1.808638213240724
100
AcDbArc
 50
90.326488
 51
144.150317
  0
ARC
  5
290
330
1F
100
AcDbEntity
  8
1
370
    13
100
AcDbCircle
 10
218.693556
 20
171.954084
 30
0.0
 40
1.77793615572254
100
AcDbArc
 50
35.861859
 51
90.327858
  0
ARC
  5
291
330
1F
100
AcDbEntity
  8
1
370
    13
100
AcDbCircle
 10
218.683689
 20
171.951403
 30
0.0
 40
1.787506471391305
100
AcDbArc
 50
341.482434
 51
35.746225
  0
ARC
  5
292
330
1F
100
AcDbEntity
  8
1
370
    13
100
AcDbCircle
 10
218.659526
 20
171.957089
 30
0.0
 40
1.812225974046577
100
AcDbArc
 50
287.804575
 51
341.554584
  0
ARC
  5
293
330
1F
100
AcDbEntity
  8
1
370
    13
100
AcDbCircle
 10
218.661926
 20
171.924389
 30
0.0
 40
1.778583134644848
100
AcDbArc
 50
225.033102
 51
261.057862
  0
ARC
  5
294
330
1F
100
AcDbEntity
  8
1
370
    13
100
AcDbCircle
 10
217.286654
 20
170.669763
 30
0.0
 40
0.5927368435681697
100
AcDbArc
 50
5.859268
 51
78.82504
  0
ARC
  5
295
330
1F
100
AcDbEntity
  8
1
370
    13
100
AcDbCircle
 10
218.345221
 20
170.913616
 30
0.0
 40
0.5958093740950712
100
AcDbArc
 50
216.208337
 51
288.872238
  0
ARC
  5
296
330
1F
100
AcDbEntity
  8
1
370
    13
100
AcDbCircle
 10
219.078326
 20
170.096599
 30
0.0
 40
0.6017261490323501
100
AcDbArc
 50
66.483367
 51
138.635817
  0
ARC
  5
297
330
1F
100
AcDbEntity
  8
1
370
    13
100
AcDbCircle
 10
219.390958
 20
171.155703
 30
0.0
 40
0.6045668422438217
100
AcDbArc
 50
276.411278
 51
348.353067
  0
ARC
  5
298
330
1F
100
AcDbEntity
  8
1
370
    13
100
AcDbCircle
 10
220.47402
 20
171.370689
 30
0.0
 40
0.6014691450601161
100
AcDbArc
 50
126.065724
 51
198.304217
  0
ARC
  5
299
330
1F
100
AcDbEntity
  8
1
370
    13
100
AcDbCircle
 10
219.728615
 20
172.176304
 30
0.0
 40
0.595555886537078
100
AcDbArc
 50
335.788758
 51
48.539759
  0
ARC
  5
29A
330
1F
100
AcDbEntity
  8
1
370
    13
100
AcDbCircle
 10
220.06894
 20
173.207851
 30
0.0
 40
0.5927368435685068
100
AcDbArc
 50
185.859268
 51
258.82504
  0
ARC
  5
29B
330
1F
100
AcDbEntity
  8
1
370
    13
100
AcDbCircle
 10
219.010373
 20
172.963997
 30
0.0
 40
0.5958093740948177
100
AcDbArc
 50
36.208337
 51
108.872238
  0
ARC
  5
29C
330
1F
100
AcDbEntity
  8
1
370
    13
100
AcDbCircle
 10
218.277268
 20
173.781014
 30
0.0
 40
0.6017261490323909
100
AcDbArc
 50
246.483367
 51
318.635817
  0
ARC
  5
29D
330
1F
100
AcDbEntity
  8
1
370
    13
100
AcDbCircle
 10
217.964636
 20
172.72191
 30
0.0
 40
0.6045668422435923
100
AcDbArc
 50
96.411278
 51
168.353067
  0
ARC
  5
29E
330
1F
100
AcDbEntity
  8
1
370
    13
100
AcDbCircle
 10
216.881574
 20
172.506924
 30
0.0
 40
0.6014691450602102
100
AcDbArc
 50
306.065724
 51
18.304217
  0
ARC
  5
29F
330
1F
100
AcDbEntity
  8
1
370
    13
100
AcDbCircle
 10
217.626979
 20
171.701309
 30
0.0
 40
0.5955558865369627
100
AcDbArc
 50
155.788758
 51
228.539759
  0
ARC
  5
2A0
330
1F
100
AcDbEntity
  8
1
370
    13
100
AcDbCircle
 10
218.825964
 20
171.84419
 30
0.0
 40
2.712134357334823
100
AcDbArc
 50
15.100269
 51
44.993525
  0
ARC
  5
2A1
330
1F
100
AcDbEntity
  8
1
370
    13
100
AcDbCircle
 10
218.792366
 20
171.837002
 30
0.0
 40
2.746444857679397
100
AcDbArc
 50
331.367286
 51
15.062461
  0
ARC
  5
2A2
330
1F
100
AcDbEntity
  8
1
370
    13
100
AcDbCircle
 10
218.226788
 20
168.619735
 30
0.0
 40
11.47309816401262
100
AcDbArc
 50
263.883075
 51
265.911279
  0
ARC
  5
2A3
330
1F
100
AcDbEntity
  8
1
370
    13
100
AcDbCircle
 10
217.900226
 20
165.364396
 30
0.0
 40
8.201525956973045
100
AcDbArc
 50
259.493877
 51
263.728134
  0
ARC
  5
2A4
330
1F
100
AcDbEntity
  8
1
370
    13
100
AcDbCircle
 10
225.419505
 20
159.938746
 30
0.0
 40
3.283132361871808
100
AcDbArc
 50
233.397073
 51
243.801531
  0
ARC
  5
2A5
330
1F
100
AcDbEntity
  8
1
370
    13
100
AcDbCircle
 10
57.990779
 20
-75.796707
 30
0.0
 40
285.8604601446758
100
AcDbArc
 50
54.63011
 51
54.829336
  0
ARC
  5
2A6
330
1F
100
AcDbEntity
  8
1
370
    13
100
AcDbCircle
 10
206.317357
 20
182.787938
 30
0.0
 40
10.10856643535341
100
AcDbArc
 50
270.420794
 51
283.535782
  0
ARC
  5
2A7
330
1F
100
AcDbEntity
  8
1
370
    13
100
AcDbCircle
 10
206.318258
 20
182.788053
 30
0.0
 40
10.10846742275805
100
AcDbArc
 50
283.530668
 51
300.12512
  0
ARC
  5
2A8
330
1F
100
AcDbEntity
  8
1
370
    13
100
AcDbCircle
 10
209.691697
 20
180.071561
 30
0.0
 40
10.92049326705816
100
AcDbArc
 50
252.410612
 51
263.805463
  0
ARC
  5
2A9
330
1F
100
AcDbEntity
  8
1
370
    13
100
AcDbCircle
 10
209.644486
 20
179.572274
 30
0.0
 40
10.41902970060729
100
AcDbArc
 50
263.767298
 51
278.221449
  0
ARC
  5
2AA
330
1F
100
AcDbEntity
  8
1
370
    13
100
AcDbCircle
 10
209.229035
 20
179.566512
 30
0.0
 40
10.27270460889341
100
AcDbArc
 50
230.72105
 51
241.410934
  0
ARC
  5
2AB
330
1F
100
AcDbEntity
  8
1
370
    13
100
AcDbCircle
 10
209.881256
 20
180.743141
 30
0.0
 40
11.61797990098663
100
AcDbArc
 50
241.363329
 51
252.520341
  0
ARC
  5
2AC
330
1F
100
AcDbEntity
  8
1
370
    13
100
AcDbCircle
 10
249.480007
 20
171.818845
 30
0.0
 40
27.22839119937135
100
AcDbArc
 50
188.706371
 51
194.181941
  0
ARC
  5
2AD
330
1F
100
AcDbEntity
  8
1
370
    13
100
AcDbCircle
 10
269.057844
 20
175.20545
 30
0.0
 40
47.09483328742889
100
AcDbArc
 50
185.639921
 51
189.173637
  0
ARC
  5
2AE
330
1F
100
AcDbEntity
  8
1
370
    13
100
AcDbCircle
 10
219.089678
 20
171.82201
 30
0.0
 40
1.589850993115186
100
AcDbArc
 50
257.687007
 51
294.353249
  0
ARC
  5
2AF
330
1F
100
AcDbEntity
  8
1
370
    13
100
AcDbCircle
 10
258.080836
 20
167.681993
 30
0.0
 40
33.7224585588258
100
AcDbArc
 50
180.649451
 51
184.877745
  0
ARC
  5
2B0
330
1F
100
AcDbEntity
  8
1
370
    13
100
AcDbCircle
 10
193.425515
 20
162.119307
 30
0.0
 40
31.17173397347377
100
AcDbArc
 50
3.131334
 51
4.960282
  0
ARC
  5
2B1
330
1F
100
AcDbEntity
  8
1
370
    13
100
AcDbCircle
 10
224.952229
 20
165.032621
 30
0.0
 40
1.767038268120416
100
AcDbArc
 50
192.891141
 51
207.952096
  0
ARC
  5
2B2
330
1F
100
AcDbEntity
  8
1
370
    13
100
AcDbCircle
 10
202.412831
 20
131.664023
 30
0.0
 40
12.23775999120138
100
AcDbArc
 50
100.922001
 51
103.292268
  0
ARC
  5
2B3
330
1F
100
AcDbEntity
  8
1
370
    13
100
AcDbCircle
 10
201.397251
 20
136.725717
 30
0.0
 40
7.075431200629956
100
AcDbArc
 50
91.806918
 51
100.613208
  0
ARC
  5
2B4
330
1F
100
AcDbEntity
  8
1
370
    13
100
AcDbCircle
 10
200.958366
 20
158.075315
 30
0.0
 40
1.374097544304623
100
AcDbArc
 50
179.983301
 51
212.948792
  0
ARC
  5
2B5
330
1F
100
AcDbEntity
  8
1
370
    13
100
AcDbCircle
 10
200.803469
 20
158.026436
 30
0.0
 40
1.220196695537476
100
AcDbArc
 50
140.541569
 51
177.685392
  0
ARC
  5
2B6
330
1F
100
AcDbEntity
  8
1
370
    13
100
AcDbCircle
 10
201.899327
 20
157.00716
 30
0.0
 40
2.715571286563274
100
AcDbArc
 50
105.488396
 51
138.631092
  0
ARC
  5
2B7
330
1F
100
AcDbEntity
  8
1
370
    13
100
AcDbCircle
 10
213.663798
 20
162.929779
 30
0.0
 40
0.7912717518589993
100
AcDbArc
 50
50.950665
 51
93.826325
  0
ARC
  5
2B8
330
1F
100
AcDbEntity
  8
1
370
    13
100
AcDbCircle
 10
213.681939
 20
162.755879
 30
0.0
 40
0.9660164063934347
100
AcDbArc
 50
94.211599
 51
133.022186
  0
ARC
  5
2B9
330
1F
100
AcDbEntity
  8
1
370
    13
100
AcDbCircle
 10
213.773278
 20
162.641018
 30
0.0
 40
1.112369720832955
100
AcDbArc
 50
132.425166
 51
168.787013
  0
ARC
  5
2BA
330
1F
100
AcDbEntity
  8
1
370
    13
100
AcDbCircle
 10
213.654513
 20
162.655436
 30
0.0
 40
0.9931082749476804
100
AcDbArc
 50
168.270564
 51
206.943908
  0
ARC
  5
2BB
330
1F
100
AcDbEntity
  8
1
370
    13
100
AcDbCircle
 10
212.038214
 20
160.050394
 30
0.0
 40
0.3013311441160768
100
AcDbArc
 50
90.75732
 51
177.526717
  0
ARC
  5
2BC
330
1F
100
AcDbEntity
  8
1
370
    13
100
AcDbCircle
 10
214.970857
 20
157.507828
 30
0.0
 40
2.027802717069223
100
AcDbArc
 50
187.018352
 51
213.243125
  0
ARC
  5
2BD
330
1F
100
AcDbEntity
  8
1
370
    13
100
AcDbCircle
 10
466.915983
 20
223.825573
 30
0.0
 40
248.9356392648561
100
AcDbArc
 50
191.878773
 51
192.629525
  0
ARC
  5
2BE
330
1F
100
AcDbEntity
  8
1
370
    13
100
AcDbCircle
 10
-60696.616694
 20
-12774.307512
 30
0.0
 40
62280.49151683587
100
AcDbArc
 50
11.998165
 51
12.001963
  0
ARC
  5
2BF
330
1F
100
AcDbEntity
  8
1
370
    13
100
AcDbCircle
 10
222.105376
 20
153.123919
 30
0.0
 40
4.818795014037866
100
AcDbArc
 50
85.622628
 51
95.439677
  0
ARC
  5
2C0
330
1F
100
AcDbEntity
  8
1
370
    13
100
AcDbCircle
 10
213.535112
 20
157.40874
 30
0.0
 40
1.163303435362518
100
AcDbArc
 50
88.007498
 51
97.422722
  0
ARC
  5
2C1
330
1F
100
AcDbEntity
  8
1
370
    13
100
AcDbCircle
 10
223.957003
 20
192.975288
 30
0.0
 40
36.48544721405185
100
AcDbArc
 50
254.318125
 51
255.292597
  0
ARC
  5
2C2
330
1F
100
AcDbEntity
  8
1
370
    13
100
AcDbCircle
 10
198.208862
 20
101.036039
 30
0.0
 40
58.99122342537852
100
AcDbArc
 50
74.377446
 51
74.971353
  0
ARC
  5
2C3
330
1F
100
AcDbEntity
  8
1
370
    13
100
AcDbCircle
 10
202.08633
 20
114.932691
 30
0.0
 40
44.56467733317918
100
AcDbArc
 50
75.153168
 51
76.558547
  0
ARC
  5
2C4
330
1F
100
AcDbEntity
  8
1
370
    13
100
AcDbCircle
 10
232.406929
 20
306.023105
 30
0.0
 40
148.6260141906813
100
AcDbArc
 50
263.00992
 51
265.221353
  0
ARC
  5
2C5
330
1F
100
AcDbEntity
  8
1
370
    13
100
AcDbCircle
 10
213.25797
 20
156.170935
 30
0.0
 40
0.2237777984513942
100
AcDbArc
 50
24.460461
 51
76.10944
  0
ARC
  5
2C6
330
1F
100
AcDbEntity
  8
1
370
    13
100
AcDbCircle
 10
214.946309
 20
155.955089
 30
0.0
 40
0.2052660433219431
100
AcDbArc
 50
65.318446
 51
144.35358
  0
ARC
  5
2C7
330
1F
100
AcDbEntity
  8
1
370
    13
100
AcDbCircle
 10
223.52646
 20
154.550853
 30
0.0
 40
0.3738087295166994
100
AcDbArc
 50
250.775895
 51
306.265205
  0
ARC
  5
2C8
330
1F
100
AcDbEntity
  8
1
370
    13
100
AcDbCircle
 10
173.961783
 20
155.455063
 30
0.0
 40
50.66406685074166
100
AcDbArc
 50
355.235497
 51
356.939266
  0
ARC
  5
2C9
330
1F
100
AcDbEntity
  8
1
370
    13
100
AcDbCircle
 10
224.218479
 20
168.496305
 30
0.0
 40
1.450015710680225
100
AcDbArc
 50
282.236854
 51
286.988905
  0
ARC
  5
2CA
330
1F
100
AcDbEntity
  8
1
370
    13
100
AcDbCircle
 10
224.223828
 20
168.478481
 30
0.0
 40
1.431407057611653
100
AcDbArc
 50
286.992607
 51
293.117431
  0
ARC
  5
2CB
330
1F
100
AcDbEntity
  8
1
370
    13
100
AcDbCircle
 10
213.276164
 20
176.056801
 30
0.0
 40
1.352221625319905
100
AcDbArc
 50
163.936658
 51
169.388996
  0
ARC
  5
2CC
330
1F
100
AcDbEntity
  8
1
370
    13
100
AcDbCircle
 10
213.254716
 20
176.060803
 30
0.0
 40
1.330402846633771
100
AcDbArc
 50
169.388327
 51
176.415676
  0
ARC
  5
2CD
330
1F
100
AcDbEntity
  8
1
370
    13
100
AcDbCircle
 10
213.413099
 20
175.968587
 30
0.0
 40
1.538473358382399
100
AcDbArc
 50
102.836857
 51
107.406608
  0
ARC
  5
2CE
330
1F
100
AcDbEntity
  8
1
370
    13
100
AcDbCircle
 10
213.394853
 20
176.027687
 30
0.0
 40
1.476621304335035
100
AcDbArc
 50
107.417063
 51
113.492634
  0
ARC
  5
2CF
330
1F
100
AcDbEntity
  8
1
370
    13
100
AcDbCircle
 10
225.975478
 20
152.210456
 30
0.0
 40
27.4993254572672
100
AcDbArc
 50
101.46997
 51
103.387858
  0
ARC
  5
2D0
330
1F
100
AcDbEntity
  8
1
370
    13
100
AcDbCircle
 10
-18152.939552
 20
80569.624651
 30
0.0
 40
82463.38020846914
100
AcDbArc
 50
282.871795
 51
282.873335
  0
ARC
  5
2D1
330
1F
100
AcDbEntity
  8
1
370
    13
100
AcDbCircle
 10
222.629428
 20
177.780672
 30
0.0
 40
1.396535023226936
100
AcDbArc
 50
75.347389
 51
80.429332
  0
ARC
  5
2D2
330
1F
100
AcDbEntity
  8
1
370
    13
100
AcDbCircle
 10
222.631047
 20
177.790261
 30
0.0
 40
1.386810754468259
100
AcDbArc
 50
80.429455
 51
86.939438
  0
ARC
  5
2D3
330
1F
100
AcDbEntity
  8
1
370
    13
100
AcDbCircle
 10
222.632732
 20
177.74366
 30
0.0
 40
1.435260797154055
100
AcDbArc
 50
11.9487
 51
16.882752
  0
ARC
  5
2D4
330
1F
100
AcDbEntity
  8
1
370
    13
100
AcDbCircle
 10
222.651774
 20
177.749347
 30
0.0
 40
1.415387334250871
100
AcDbArc
 50
16.886352
 51
23.267795
  0
ARC
  5
2D5
330
1F
100
AcDbEntity
  8
1
370
    13
100
AcDbCircle
 10
170.823281
 20
159.69688
 30
0.0
 40
55.86068053034582
100
AcDbArc
 50
11.273644
 51
12.214659
  0
ARC
  5
2D6
330
1F
100
AcDbEntity
  8
1
370
    13
100
AcDbCircle
 10
163229.840624
 20
34707.839225
 30
0.0
 40
166622.9245824026
100
AcDbArc
 50
191.961794
 51
191.962552
  0
ARC
  5
2D7
330
1F
100
AcDbEntity
  8
1
370
    13
100
AcDbCircle
 10
224.272069
 20
168.470897
 30
0.0
 40
1.383386195666538
100
AcDbArc
 50
345.175353
 51
350.762751
  0
ARC
  5
2D8
330
1F
100
AcDbEntity
  8
1
370
    13
100
AcDbCircle
 10
224.282926
 20
168.469141
 30
0.0
 40
1.372388111045516
100
AcDbArc
 50
350.762344
 51
357.932618
  0
ARC
  5
2D9
330
1F
100
AcDbEntity
  8
1
370
    13
100
AcDbCircle
 10
223.238995
 20
175.122888
 30
0.0
 40
1.710131526872474
100
AcDbArc
 50
98.811184
 51
116.005965
  0
ARC
  5
2DA
330
1F
100
AcDbEntity
  8
1
370
    13
100
AcDbCircle
 10
212.324219
 20
157.981927
 30
0.0
 40
1.058007458638314
100
AcDbArc
 50
94.221248
 51
102.10736
  0
ARC
  5
2DB
330
1F
100
AcDbEntity
  8
1
370
    13
100
AcDbCircle
 10
212.168954
 20
158.671625
 30
0.0
 40
0.3511579207204429
100
AcDbArc
 50
100.940469
 51
123.187178
  0
ARC
  5
2DC
330
1F
100
AcDbEntity
  8
1
370
    13
100
AcDbCircle
 10
212.432396
 20
152.639856
 30
0.0
 40
6.404755142615771
100
AcDbArc
 50
86.653885
 51
89.090169
  0
ARC
  5
2DD
330
1F
100
AcDbEntity
  8
1
370
    13
100
AcDbCircle
 10
212.465057
 20
155.844912
 30
0.0
 40
3.199636674597627
100
AcDbArc
 50
88.763617
 51
93.919602
  0
ARC
  5
2DE
330
1F
100
AcDbEntity
  8
1
370
    13
100
AcDbCircle
 10
212.657404
 20
155.555459
 30
0.0
 40
3.480249388331389
100
AcDbArc
 50
83.170009
 51
85.129942
  0
ARC
  5
2DF
330
1F
100
AcDbEntity
  8
1
370
    13
100
AcDbCircle
 10
212.499861
 20
153.749971
 30
0.0
 40
5.292595522327792
100
AcDbArc
 50
85.089947
 51
86.681548
  0
ARC
  5
2E0
330
1F
100
AcDbEntity
  8
1
370
    13
100
AcDbCircle
 10
220.942372
 20
167.145527
 30
0.0
 40
9.030965200200034
100
AcDbArc
 50
261.504658
 51
267.237523
  0
ARC
  5
2E1
330
1F
100
AcDbEntity
  8
1
370
    13
100
AcDbCircle
 10
-3066.941134
 20
-26777.761407
 30
0.0
 40
27135.73583065247
100
AcDbArc
 50
83.043533
 51
83.04813
  0
ARC
  5
2E2
330
1F
100
AcDbEntity
  8
1
370
    13
100
AcDbCircle
 10
223.265122
 20
147.273725
 30
0.0
 40
10.96662355779927
100
AcDbArc
 50
91.475734
 51
92.10859
  0
ARC
  5
2E3
330
1F
100
AcDbEntity
  8
1
370
    13
100
AcDbCircle
 10
223.237573
 20
147.995243
 30
0.0
 40
10.24458064241213
100
AcDbArc
 50
92.103094
 51
92.979403
  0
ARC
  5
2E4
330
1F
100
AcDbEntity
  8
1
370
    13
100
AcDbCircle
 10
223.11224
 20
154.382864
 30
0.0
 40
3.856773020151203
100
AcDbArc
 50
83.651939
 51
87.074403
  0
ARC
  5
2E5
330
1F
100
AcDbEntity
  8
1
370
    13
100
AcDbCircle
 10
223.123366
 20
154.736628
 30
0.0
 40
3.502909186257698
100
AcDbArc
 50
86.960811
 51
92.301564
  0
ARC
  5
2E6
330
1F
100
AcDbEntity
  8
1
370
    13
100
AcDbCircle
 10
223.527928
 20
156.71073
 30
0.0
 40
1.490534226643359
100
AcDbArc
 50
73.468602
 51
79.349699
  0
ARC
  5
2E7
330
1F
100
AcDbEntity
  8
1
370
    13
100
AcDbCircle
 10
223.180935
 20
154.984468
 30
0.0
 40
3.251262556124944
100
AcDbArc
 50
78.96238
 51
83.682874
  0
ARC
  5
2E8
330
1F
100
AcDbEntity
  8
1
370
    13
100
AcDbCircle
 10
-2627.260161
 20
-3606.022253
 30
0.0
 40
4722.13105849868
100
AcDbArc
 50
52.834378
 51
52.842239
  0
ARC
  5
2E9
330
1F
100
AcDbEntity
  8
1
370
    13
100
AcDbCircle
 10
226.046293
 20
159.533822
 30
0.0
 40
2.811911481231606
100
AcDbArc
 50
155.768817
 51
167.342554
  0
ARC
  5
2EA
330
1F
100
AcDbEntity
  8
1
370
    13
100
AcDbCircle
 10
223.403744
 20
159.626779
 30
0.0
 40
0.2383411413681738
100
AcDbArc
 50
203.049872
 51
263.957758
  0
ARC
  5
2EB
330
1F
100
AcDbEntity
  8
1
370
    13
100
AcDbCircle
 10
222.001032
 20
148.728455
 30
0.0
 40
9.818605839409752
100
AcDbArc
 50
80.764954
 51
83.051074
  0
ARC
  5
2EC
330
1F
100
AcDbEntity
  8
1
370
    13
100
AcDbCircle
 10
223.021299
 20
154.862958
 30
0.0
 40
3.599949223296185
100
AcDbArc
 50
75.545068
 51
81.12381
  0
ARC
  5
2ED
330
1F
100
AcDbEntity
  8
1
370
    13
100
AcDbCircle
 10
226.819028
 20
160.908636
 30
0.0
 40
4.458721305013852
100
AcDbArc
 50
198.545431
 51
209.113063
  0
ARC
  5
2EE
330
1F
100
AcDbEntity
  8
1
370
    13
100
AcDbCircle
 10
223.427276
 20
158.979445
 30
0.0
 40
0.5579757641608705
100
AcDbArc
 50
205.490548
 51
244.712545
  0
ARC
  5
2EF
330
1F
100
AcDbEntity
  8
1
370
    13
100
AcDbCircle
 10
222.70952
 20
159.606219
 30
0.0
 40
0.1005908525946686
100
AcDbArc
 50
297.273423
 51
34.74947
  0
ARC
  5
2F0
330
1F
100
AcDbEntity
  8
1
370
    13
100
AcDbCircle
 10
215.639165
 20
176.441916
 30
0.0
 40
1.299735149748141
100
AcDbArc
 50
194.828445
 51
204.767217
  0
ARC
  5
2F1
330
1F
100
AcDbEntity
  8
1
370
    13
100
AcDbCircle
 10
223.212951
 20
175.347403
 30
0.0
 40
1.948330206922571
100
AcDbArc
 50
100.079393
 51
115.212085
  0
ARC
  5
2F2
330
1F
100
AcDbEntity
  8
1
370
    13
100
AcDbCircle
 10
215.936966
 20
177.173668
 30
0.0
 40
2.574358875666856
100
AcDbArc
 50
211.465438
 51
215.537372
  0
ARC
  5
2F3
330
1F
100
AcDbEntity
  8
1
370
    13
100
AcDbCircle
 10
226.110962
 20
183.645474
 30
0.0
 40
14.63200103538287
100
AcDbArc
 50
210.472595
 51
212.28581
  0
ARC
  5
2F4
330
1F
100
AcDbEntity
  8
1
370
    13
100
AcDbCircle
 10
216.389838
 20
176.798139
 30
0.0
 40
2.589135498042494
100
AcDbArc
 50
189.762007
 51
202.88382
  0
ARC
  5
2F5
330
1F
100
AcDbEntity
  8
1
370
    13
100
AcDbCircle
 10
242.247855
 20
179.954258
 30
0.0
 40
30.90267205725413
100
AcDbArc
 50
191.115603
 51
192.825448
  0
ARC
  5
2F6
330
1F
100
AcDbEntity
  8
1
370
    13
100
AcDbCircle
 10
-91432.374583
 20
-19917.383455
 30
0.0
 40
93820.78654851326
100
AcDbArc
 50
12.363525
 51
12.364887
  0
ARC
  5
2F7
330
1F
100
AcDbEntity
  8
1
370
    13
100
AcDbCircle
 10
213.503771
 20
156.091533
 30
0.0
 40
0.2201192497935034
100
AcDbArc
 50
209.632341
 51
278.6416
  0
ARC
  5
2F8
330
1F
100
AcDbEntity
  8
1
370
    13
100
AcDbCircle
 10
215.20787
 20
158.047728
 30
0.0
 40
2.627522448514451
100
AcDbArc
 50
248.841335
 51
273.516586
  0
ARC
  5
2F9
330
1F
100
AcDbEntity
  8
1
370
    13
100
AcDbCircle
 10
207.025632
 20
156.477123
 30
0.0
 40
0.5407145806254616
100
AcDbArc
 50
121.503488
 51
196.512067
  0
ARC
  5
2FA
330
1F
100
AcDbEntity
  8
1
370
    13
100
AcDbCircle
 10
207.855815
 20
155.388385
 30
0.0
 40
1.907857028145098
100
AcDbArc
 50
104.43008
 51
125.678553
  0
ARC
  5
2FB
330
1F
100
AcDbEntity
  8
1
370
    13
100
AcDbCircle
 10
208.463191
 20
153.155943
 30
0.0
 40
4.221347636065142
100
AcDbArc
 50
75.798552
 51
104.862975
  0
ARC
  5
2FC
330
1F
100
AcDbEntity
  8
1
370
    13
100
AcDbCircle
 10
208.940261
 20
155.027533
 30
0.0
 40
2.289916883759671
100
AcDbArc
 50
48.725525
 51
75.88187
  0
ARC
  5
2FD
330
1F
100
AcDbEntity
  8
1
370
    13
100
AcDbCircle
 10
209.18389
 20
155.358
 30
0.0
 40
1.881161740399185
100
AcDbArc
 50
13.778387
 51
47.662615
  0
ARC
  5
2FE
330
1F
100
AcDbEntity
  8
1
370
    13
100
AcDbCircle
 10
202.281131
 20
155.92692
 30
0.0
 40
3.859358133789957
100
AcDbArc
 50
84.421467
 51
106.668252
  0
ARC
  5
2FF
330
1F
100
AcDbEntity
  8
1
370
    13
100
AcDbCircle
 10
210.165239
 20
156.00884
 30
0.0
 40
0.961585124514624
100
AcDbArc
 50
288.376404
 51
327.19256
  0
ARC
  5
300
330
1F
100
AcDbEntity
  8
1
370
    13
100
AcDbCircle
 10
209.392494
 20
157.953827
 30
0.0
 40
3.053368950544785
100
AcDbArc
 50
265.402526
 51
290.631898
  0
ARC
  5
301
330
1F
100
AcDbEntity
  8
1
370
    13
100
AcDbCircle
 10
209.27708
 20
158.807209
 30
0.0
 40
3.899071864902681
100
AcDbArc
 50
239.451984
 51
268.099198
  0
ARC
  5
302
330
1F
100
AcDbEntity
  8
1
370
    13
100
AcDbCircle
 10
208.190424
 20
157.048682
 30
0.0
 40
1.832800555702746
100
AcDbArc
 50
203.309665
 51
240.766416
  0
ARC
  5
303
330
1F
100
AcDbEntity
  8
1
370
    13
100
AcDbCircle
 10
43322.724266
 20
568828.336957
 30
0.0
 40
570304.52186324
100
AcDbArc
 50
265.665437
 51
265.665876
  0
ARC
  5
304
330
1F
100
AcDbEntity
  8
1
370
    13
100
AcDbCircle
 10
249.621572
 20
568.190153
 30
0.0
 40
414.2815302908677
100
AcDbArc
 50
265.342894
 51
265.756344
  0
ARC
  5
305
330
1F
100
AcDbEntity
  8
1
370
    13
100
AcDbCircle
 10
225.000441
 20
154.45639
 30
0.0
 40
1.663410625887625
100
AcDbArc
 50
195.125063
 51
221.132553
  0
ARC
  5
306
330
1F
100
AcDbEntity
  8
1
370
    13
100
AcDbCircle
 10
218.838853
 20
145.634
 30
0.0
 40
4.817538711056074
100
AcDbArc
 50
127.662347
 51
142.78199
  0
ARC
  5
307
330
1F
100
AcDbEntity
  8
1
370
    13
100
AcDbCircle
 10
217.354183
 20
147.627135
 30
0.0
 40
2.332966490403754
100
AcDbArc
 50
96.114527
 51
128.706587
  0
ARC
  5
308
330
1F
100
AcDbEntity
  8
1
370
    13
100
AcDbCircle
 10
217.139515
 20
148.468179
 30
0.0
 40
1.479037010879602
100
AcDbArc
 50
41.205708
 51
91.310682
  0
ARC
  5
309
330
1F
100
AcDbEntity
  8
1
370
    13
100
AcDbCircle
 10
215.621021
 20
147.034791
 30
0.0
 40
3.566594880023238
100
AcDbArc
 50
22.850472
 51
42.460107
  0
ARC
  5
30A
330
1F
100
AcDbEntity
  8
1
370
    13
100
AcDbCircle
 10
216.906513
 20
156.124239
 30
0.0
 40
7.811950844404568
100
AcDbArc
 50
239.130146
 51
255.892817
  0
ARC
  5
30B
330
1F
100
AcDbEntity
  8
1
370
    13
100
AcDbCircle
 10
203.173965
 20
146.672368
 30
0.0
 40
7.403493607238531
100
AcDbArc
 50
77.669316
 51
97.705564
  0
ARC
  5
30C
330
1F
100
AcDbEntity
  8
1
370
    13
100
AcDbCircle
 10
202.104941
 20
141.489479
 30
0.0
 40
12.69526764656923
100
AcDbArc
 50
62.266906
 51
77.951219
  0
ARC
  5
30D
330
1F
100
AcDbEntity
  8
1
370
    13
100
AcDbCircle
 10
199.291369
 20
135.895932
 30
0.0
 40
18.9558956535255
100
AcDbArc
 50
50.176752
 51
62.60729
  0
ARC
  5
30E
330
1F
100
AcDbEntity
  8
1
370
    13
100
AcDbCircle
 10
208.861584
 20
155.702634
 30
0.0
 40
6.852408330384296
100
AcDbArc
 50
206.430533
 51
228.413516
  0
ARC
  5
30F
330
1F
100
AcDbEntity
  8
1
370
    13
100
AcDbCircle
 10
209.055286
 20
156.014769
 30
0.0
 40
7.214709631395863
100
AcDbArc
 50
228.908276
 51
248.333552
  0
ARC
  5
310
330
1F
100
AcDbEntity
  8
1
370
    13
100
AcDbCircle
 10
199.386979
 20
127.581641
 30
0.0
 40
22.74908214312946
100
AcDbArc
 50
58.909521
 51
66.348392
  0
ARC
  5
311
330
1F
100
AcDbEntity
  8
1
370
    13
100
AcDbCircle
 10
222.995031
 20
141.453983
 30
0.0
 40
0.2651061795849022
100
AcDbArc
 50
205.136509
 51
268.196433
  0
ARC
  5
312
330
1F
100
AcDbEntity
  8
1
370
    13
100
AcDbCircle
 10
224.766148
 20
142.625259
 30
0.0
 40
2.385991394216203
100
AcDbArc
 50
193.838834
 51
212.553942
  0
ARC
  5
313
330
1F
100
AcDbEntity
  8
1
370
    13
100
AcDbCircle
 10
231.41472
 20
144.47668
 30
0.0
 40
9.286732030569635
100
AcDbArc
 50
186.677707
 51
195.118503
  0
ARC
  5
314
330
1F
100
AcDbEntity
  8
1
370
    13
100
AcDbCircle
 10
221.29851
 20
141.255616
 30
0.0
 40
1.950490813172086
100
AcDbArc
 50
301.094345
 51
336.079136
  0
ARC
  5
315
330
1F
100
AcDbEntity
  8
1
370
    13
100
AcDbCircle
 10
221.296233
 20
141.269806
 30
0.0
 40
1.963825037129395
100
AcDbArc
 50
256.522917
 51
300.937399
  0
ARC
  5
316
330
1F
100
AcDbEntity
  8
1
370
    13
100
AcDbCircle
 10
221.141328
 20
144.830918
 30
0.0
 40
1.777228692231831
100
AcDbArc
 50
260.190978
 51
306.200776
  0
ARC
  5
317
330
1F
100
AcDbEntity
  8
1
370
    13
100
AcDbCircle
 10
253.136911
 20
151.218285
 30
0.0
 40
28.77662327571731
100
AcDbArc
 50
179.759641
 51
184.650449
  0
ARC
  5
318
330
1F
100
AcDbEntity
  8
1
370
    13
100
AcDbCircle
 10
105.854421
 20
138.38493
 30
0.0
 40
119.0645130772099
100
AcDbArc
 50
4.60599
 51
5.059462
  0
ARC
  5
319
330
1F
100
AcDbEntity
  8
1
370
    13
100
AcDbCircle
 10
221.296502
 20
147.61115
 30
0.0
 40
3.255198435302327
100
AcDbArc
 50
354.388836
 51
5.907489
  0
ARC
  5
31A
330
1F
100
AcDbEntity
  8
1
370
    13
100
AcDbCircle
 10
217.410181
 20
146.843959
 30
0.0
 40
3.488190385059875
100
AcDbArc
 50
265.388584
 51
287.849244
  0
ARC
  5
31B
330
1F
100
AcDbEntity
  8
1
370
    13
100
AcDbCircle
 10
219.605307
 20
145.277434
 30
0.0
 40
1.996978238593716
100
AcDbArc
 50
244.66052
 51
274.019021
  0
ARC
  5
31C
330
1F
100
AcDbEntity
  8
1
370
    13
100
AcDbCircle
 10
219.840787
 20
145.239101
 30
0.0
 40
2.564417664217777
100
AcDbArc
 50
113.071295
 51
140.655603
  0
ARC
  5
31D
330
1F
100
AcDbEntity
  8
1
370
    13
100
AcDbCircle
 10
219.597556
 20
145.449593
 30
0.0
 40
2.242883747396028
100
AcDbArc
 50
140.874783
 51
174.767479
  0
ARC
  5
31E
330
1F
100
AcDbEntity
  8
1
370
    13
100
AcDbCircle
 10
219.474862
 20
145.461376
 30
0.0
 40
2.119626472709558
100
AcDbArc
 50
174.782206
 51
210.11239
  0
ARC
  5
31F
330
1F
100
AcDbEntity
  8
1
370
    13
100
AcDbCircle
 10
219.375068
 20
145.406073
 30
0.0
 40
2.005555803506051
100
AcDbArc
 50
210.176
 51
243.708665
  0
ARC
  5
320
330
1F
100
AcDbEntity
  8
1
370
    13
100
AcDbCircle
 10
217.349152
 20
146.319223
 30
0.0
 40
2.960305473568743
100
AcDbArc
 50
242.356022
 51
265.749433
  0
ARC
  5
321
330
1F
100
AcDbEntity
  8
1
370
    13
100
AcDbCircle
 10
217.873678
 20
147.292643
 30
0.0
 40
4.065995720481812
100
AcDbArc
 50
220.741594
 51
242.172742
  0
ARC
  5
322
330
1F
100
AcDbEntity
  8
1
370
    13
100
AcDbCircle
 10
206.317357
 20
133.67307
 30
0.0
 40
10.10856643535207
100
AcDbArc
 50
76.464218
 51
89.579206
  0
ARC
  5
323
330
1F
100
AcDbEntity
  8
1
370
    13
100
AcDbCircle
 10
206.318258
 20
133.672955
 30
0.0
 40
10.10846742275739
100
AcDbArc
 50
59.87488
 51
76.469332
  0
ARC
  5
324
330
1F
100
AcDbEntity
  8
1
370
    13
100
AcDbCircle
 10
219.011201
 20
148.070063
 30
0.0
 40
8.049175825193508
100
AcDbArc
 50
238.395706
 51
256.48229
  0
ARC
  5
325
330
1F
100
AcDbEntity
  8
1
370
    13
100
AcDbCircle
 10
211.677841
 20
138.724579
 30
0.0
 40
3.814709663601116
100
AcDbArc
 50
48.097517
 51
63.845579
  0
ARC
  5
326
330
1F
100
AcDbEntity
  8
1
370
    13
100
AcDbCircle
 10
212.662798
 20
140.950967
 30
0.0
 40
1.38554007248645
100
AcDbArc
 50
59.819999
 51
84.545044
  0
ARC
  5
327
330
1F
100
AcDbEntity
  8
1
370
    13
100
AcDbCircle
 10
212.899219
 20
142.274119
 30
0.0
 40
0.2359028532486702
100
AcDbArc
 50
180.59086
 51
236.555429
  0
ARC
  5
328
330
1F
100
AcDbEntity
  8
1
370
    13
100
AcDbCircle
 10
214.782763
 20
159.577042
 30
0.0
 40
2.172000589868912
100
AcDbArc
 50
119.801326
 51
142.42963
  0
ARC
  5
329
330
1F
100
AcDbEntity
  8
1
370
    13
100
AcDbCircle
 10
222.819274
 20
158.338371
 30
0.0
 40
0.4801389123972255
100
AcDbArc
 50
261.49504
 51
276.300773
  0
ARC
  5
32A
330
1F
100
AcDbEntity
  8
1
370
    13
100
AcDbCircle
 10
222.817722
 20
158.327761
 30
0.0
 40
0.4694163370325188
100
AcDbArc
 50
242.359985
 51
261.490871
  0
ARC
  5
32B
330
1F
100
AcDbEntity
  8
1
370
    13
100
AcDbCircle
 10
212.371999
 20
156.85371
 30
0.0
 40
2.391450534652924
100
AcDbArc
 50
89.999395
 51
95.889847
  0
ARC
  5
32C
330
1F
100
AcDbEntity
  8
1
370
    13
100
AcDbCircle
 10
212.424761
 20
151.27815
 30
0.0
 40
7.967185678830589
100
AcDbArc
 50
87.002996
 51
90.379261
  0
ARC
  5
32D
330
1F
100
AcDbEntity
  8
1
370
    13
100
AcDbCircle
 10
213.151499
 20
159.286409
 30
0.0
 40
1.046169088436384
100
AcDbArc
 50
161.08677
 51
182.116606
  0
ARC
  5
32E
330
1F
100
AcDbEntity
  8
1
370
    13
100
AcDbCircle
 10
260.76665
 20
360.223148
 30
0.0
 40
207.6470682404798
100
AcDbArc
 50
256.422145
 51
256.543431
  0
ARC
  5
32F
330
1F
100
AcDbEntity
  8
1
370
    13
100
AcDbCircle
 10
221.609013
 20
185.229372
 30
0.0
 40
28.39942340003713
100
AcDbArc
 50
256.135374
 51
256.987933
  0
ARC
  5
330
330
1F
100
AcDbEntity
  8
1
370
    13
100
AcDbCircle
 10
236.89493
 20
250.696058
 30
0.0
 40
95.62694207181583
100
AcDbArc
 50
256.896153
 51
257.316294
  0
ARC
  5
331
330
1F
100
AcDbEntity
  8
1
370
    13
100
AcDbCircle
 10
218.458479
 20
169.015907
 30
0.0
 40
11.89207550446077
100
AcDbArc
 50
257.567487
 51
269.881911
  0
ARC
  5
332
330
1F
100
AcDbEntity
  8
1
370
    13
100
AcDbCircle
 10
214.682169
 20
158.190956
 30
0.0
 40
0.4837927166439857
100
AcDbArc
 50
255.677036
 51
312.652969
  0
ARC
  5
333
330
1F
100
AcDbEntity
  8
1
370
    13
100
AcDbCircle
 10
224.229232
 20
157.399791
 30
0.0
 40
1.089850964354497
100
AcDbArc
 50
173.340163
 51
199.468259
  0
ARC
  5
334
330
1F
100
AcDbEntity
  8
1
370
    13
100
AcDbCircle
 10
214.790798
 20
158.159787
 30
0.0
 40
0.4834686251244002
100
AcDbArc
 50
255.624321
 51
312.69062
  0
ARC
  5
335
330
1F
100
AcDbEntity
  8
1
370
    13
100
AcDbCircle
 10
214.896052
 20
158.057303
 30
0.0
 40
0.4104516674354882
100
AcDbArc
 50
256.996565
 51
318.266192
  0
ARC
  5
336
330
1F
100
AcDbEntity
  8
1
370
    13
100
AcDbCircle
 10
225.241663
 20
162.801948
 30
0.0
 40
3.414864045597806
100
AcDbArc
 50
271.933183
 51
274.220934
  0
ARC
  5
337
330
1F
100
AcDbEntity
  8
1
370
    13
100
AcDbCircle
 10
225.461323
 20
159.984249
 30
0.0
 40
0.5887553609563253
100
AcDbArc
 50
273.084813
 51
284.56756
  0
ARC
  5
338
330
1F
100
AcDbEntity
  8
1
370
    13
100
AcDbCircle
 10
224.099157
 20
158.889681
 30
0.0
 40
1.458114868433751
100
AcDbArc
 50
354.710235
 51
8.116287
  0
ARC
  5
339
330
1F
100
AcDbEntity
  8
1
370
    13
100
AcDbCircle
 10
212.154871
 20
129.662506
 30
0.0
 40
10.44669048487576
100
AcDbArc
 50
85.02277
 51
87.191133
  0
ARC
  5
33A
330
1F
100
AcDbEntity
  8
1
370
    13
100
AcDbCircle
 10
212.299422
 20
131.207606
 30
0.0
 40
8.894881613716727
100
AcDbArc
 50
80.919101
 51
85.086885
  0
ARC
  5
33B
330
1F
100
AcDbEntity
  8
1
370
    13
100
AcDbCircle
 10
212.894511
 20
140.055446
 30
0.0
 40
0.2657967405359916
100
AcDbArc
 50
175.478552
 51
227.058389
  0
ARC
  5
33C
330
1F
100
AcDbEntity
  8
1
370
    13
100
AcDbCircle
 10
213.4263
 20
140.431469
 30
0.0
 40
1.409894926041598
100
AcDbArc
 50
202.802809
 51
245.486111
  0
ARC
  5
33D
330
1F
100
AcDbEntity
  8
1
370
    13
100
AcDbCircle
 10
215.0893
 20
142.056583
 30
0.0
 40
1.409931680674702
100
AcDbArc
 50
202.803217
 51
245.485352
  0
ARC
  5
33E
330
1F
100
AcDbEntity
  8
1
370
    13
100
AcDbCircle
 10
212.85866
 20
140.055543
 30
0.0
 40
0.7516543594468266
100
AcDbArc
 50
155.058951
 51
193.110186
  0
ARC
  5
33F
330
1F
100
AcDbEntity
  8
1
370
    13
100
AcDbCircle
 10
212.534842
 20
140.626951
 30
0.0
 40
0.1920360115182728
100
AcDbArc
 50
206.435331
 51
243.241236
  0
ARC
  5
340
330
1F
100
AcDbEntity
  8
1
370
    13
100
AcDbCircle
 10
221.816999
 20
140.429345
 30
0.0
 40
1.379629163638619
100
AcDbArc
 50
292.471128
 51
335.791246
  0
ARC
  5
341
330
1F
100
AcDbEntity
  8
1
370
    13
100
AcDbCircle
 10
223.270677
 20
138.469222
 30
0.0
 40
1.05092964737391
100
AcDbArc
 50
229.763846
 51
248.618197
  0
ARC
  5
342
330
1F
100
AcDbEntity
  8
1
370
    13
100
AcDbCircle
 10
223.049289
 20
137.87814
 30
0.0
 40
0.4199209017350485
100
AcDbArc
 50
247.342757
 51
289.423247
  0
ARC
  5
343
330
1F
100
AcDbEntity
  8
1
370
    13
100
AcDbCircle
 10
222.57496
 20
137.981633
 30
0.0
 40
0.2892031367202827
100
AcDbArc
 50
296.467644
 51
322.984362
  0
ARC
  5
344
330
1F
100
AcDbEntity
  8
1
370
    13
100
AcDbCircle
 10
205.511212
 20
143.80426
 30
0.0
 40
18.58924674947196
100
AcDbArc
 50
341.881024
 51
343.153754
  0
ARC
  5
345
330
1F
100
AcDbEntity
  8
1
370
    13
100
AcDbCircle
 10
208.777289
 20
142.82746
 30
0.0
 40
15.18025325893572
100
AcDbArc
 50
343.109815
 51
345.622668
  0
ARC
  5
346
330
1F
100
AcDbEntity
  8
1
370
    13
100
AcDbCircle
 10
223.144002
 20
138.307402
 30
0.0
 40
0.3351220151362381
100
AcDbArc
 50
282.961888
 51
314.44335
  0
ARC
  5
347
330
1F
100
AcDbEntity
  8
1
370
    13
100
AcDbCircle
 10
222.661596
 20
138.757008
 30
0.0
 40
1.379647094427139
100
AcDbArc
 50
292.471542
 51
335.791103
  0
ARC
  5
348
330
1F
100
AcDbEntity
  8
1
370
    13
100
AcDbCircle
 10
224.78952
 20
148.260706
 30
0.0
 40
0.7659791690097927
100
AcDbArc
 50
349.799979
 51
20.30525
  0
ARC
  5
349
330
1F
100
AcDbEntity
  8
1
370
    13
100
AcDbCircle
 10
225.096614
 20
147.883793
 30
0.0
 40
0.3820568635376548
100
AcDbArc
 50
24.556444
 51
43.174723
  0
ARC
  5
34A
330
1F
100
AcDbEntity
  8
1
370
    13
100
AcDbCircle
 10
222.843547
 20
143.507912
 30
0.0
 40
5.5263201019443
100
AcDbArc
 50
65.076799
 51
68.009132
  0
ARC
  5
34B
330
1F
100
AcDbEntity
  8
1
370
    13
100
AcDbCircle
 10
222.682234
 20
143.114281
 30
0.0
 40
5.951717764696784
100
AcDbArc
 50
67.988174
 51
72.563543
  0
ARC
  5
34C
330
1F
100
AcDbEntity
  8
1
370
    13
100
AcDbCircle
 10
224.208195
 20
147.9801
 30
0.0
 40
1.409894266049086
100
AcDbArc
 50
22.802714
 51
65.486038
  0
ARC
  5
34D
330
1F
100
AcDbEntity
  8
1
370
    13
100
AcDbCircle
 10
213.413099
 20
140.492421
 30
0.0
 40
1.538473358372485
100
AcDbArc
 50
252.593392
 51
257.163143
  0
ARC
  5
34E
330
1F
100
AcDbEntity
  8
1
370
    13
100
AcDbCircle
 10
213.394853
 20
140.433321
 30
0.0
 40
1.476621304366971
100
AcDbArc
 50
246.507366
 51
252.582937
  0
ARC
  5
34F
330
1F
100
AcDbEntity
  8
1
370
    13
100
AcDbCircle
 10
213.276164
 20
140.404208
 30
0.0
 40
1.352221625279344
100
AcDbArc
 50
190.611004
 51
196.063342
  0
ARC
  5
350
330
1F
100
AcDbEntity
  8
1
370
    13
100
AcDbCircle
 10
213.254716
 20
140.400205
 30
0.0
 40
1.330402846619079
100
AcDbArc
 50
183.584324
 51
190.611673
  0
ARC
  5
351
330
1F
100
AcDbEntity
  8
1
370
    13
100
AcDbCircle
 10
225.975478
 20
164.250552
 30
0.0
 40
27.49932545708583
100
AcDbArc
 50
256.612142
 51
258.53003
  0
ARC
  5
352
330
1F
100
AcDbEntity
  8
1
370
    13
100
AcDbCircle
 10
-18152.939573
 20
-80253.163736
 30
0.0
 40
82463.38030452821
100
AcDbArc
 50
77.126665
 51
77.128205
  0
ARC
  5
353
330
1F
100
AcDbEntity
  8
1
370
    13
100
AcDbCircle
 10
222.632732
 20
138.717348
 30
0.0
 40
1.435260797187976
100
AcDbArc
 50
343.117248
 51
348.0513
  0
ARC
  5
354
330
1F
100
AcDbEntity
  8
1
370
    13
100
AcDbCircle
 10
222.651774
 20
138.711662
 30
0.0
 40
1.415387334261786
100
AcDbArc
 50
336.732205
 51
343.113648
  0
ARC
  5
355
330
1F
100
AcDbEntity
  8
1
370
    13
100
AcDbCircle
 10
222.629428
 20
138.680336
 30
0.0
 40
1.396535023222997
100
AcDbArc
 50
279.570668
 51
284.652611
  0
ARC
  5
356
330
1F
100
AcDbEntity
  8
1
370
    13
100
AcDbCircle
 10
222.631047
 20
138.670747
 30
0.0
 40
1.386810754461983
100
AcDbArc
 50
273.060562
 51
279.570545
  0
ARC
  5
357
330
1F
100
AcDbEntity
  8
1
370
    13
100
AcDbCircle
 10
170.823281
 20
156.764129
 30
0.0
 40
55.86068053097519
100
AcDbArc
 50
347.785341
 51
348.726356
  0
ARC
  5
358
330
1F
100
AcDbEntity
  8
1
370
    13
100
AcDbCircle
 10
163229.840306
 20
-34391.378149
 30
0.0
 40
166622.9242570374
100
AcDbArc
 50
168.037448
 51
168.038206
  0
ARC
  5
359
330
1F
100
AcDbEntity
  8
1
370
    13
100
AcDbCircle
 10
224.51687
 20
148.642441
 30
0.0
 40
0.6792093830336527
100
AcDbArc
 50
65.995195
 51
81.7326
  0
ARC
  5
35A
330
1F
100
AcDbEntity
  8
1
370
    13
100
AcDbCircle
 10
224.477239
 20
148.389168
 30
0.0
 40
0.9355534674712751
100
AcDbArc
 50
81.561135
 51
91.145795
  0
ARC
  5
35B
330
1F
100
AcDbEntity
  8
1
370
    13
100
AcDbCircle
 10
224.218479
 20
147.964704
 30
0.0
 40
1.450015710648878
100
AcDbArc
 50
73.011095
 51
77.763146
  0
ARC
  5
35C
330
1F
100
AcDbEntity
  8
1
370
    13
100
AcDbCircle
 10
224.223828
 20
147.982527
 30
0.0
 40
1.431407057607361
100
AcDbArc
 50
66.882569
 51
73.007393
  0
ARC
  5
35D
330
1F
100
AcDbEntity
  8
1
370
    13
100
AcDbCircle
 10
224.272069
 20
147.990112
 30
0.0
 40
1.383386195664141
100
AcDbArc
 50
9.237249
 51
14.824647
  0
ARC
  5
35E
330
1F
100
AcDbEntity
  8
1
370
    13
100
AcDbCircle
 10
224.282926
 20
147.991868
 30
0.0
 40
1.372388111059743
100
AcDbArc
 50
2.067382
 51
9.237656
  0
ARC
  5
35F
330
1F
100
AcDbEntity
  8
1
370
    13
100
AcDbCircle
 10
219.163187
 20
172.828642
 30
0.0
 40
0.5828888932880906
100
AcDbArc
 50
55.268293
 51
109.59872
  0
ARC
  5
360
330
1F
100
AcDbEntity
  8
1
370
    13
100
AcDbCircle
 10
217.764386
 20
171.549808
 30
0.0
 40
0.5847026938076072
100
AcDbArc
 50
155.149245
 51
212.544535
  0
ARC
  5
361
330
1F
100
AcDbEntity
  8
1
370
    13
100
AcDbCircle
 10
217.064741
 20
172.343048
 30
0.0
 40
0.5776190862924647
100
AcDbArc
 50
304.319682
 51
20.050258
  0
ARC
  5
362
330
1F
100
AcDbEntity
  8
1
370
    13
100
AcDbCircle
 10
218.43894
 20
173.59516
 30
0.0
 40
0.5762683019520476
100
AcDbArc
 50
244.61674
 51
320.502444
  0
ARC
  5
363
330
1F
100
AcDbEntity
  8
1
370
    13
100
AcDbCircle
 10
218.102931
 20
172.584738
 30
0.0
 40
0.5905844392534284
100
AcDbArc
 50
95.420503
 51
169.343842
  0
ARC
  5
364
330
1F
100
AcDbEntity
  8
1
370
    13
100
AcDbCircle
 10
189.823088
 20
154.26381
 30
0.0
 40
1.483757994806499
100
AcDbArc
 50
306.828409
 51
329.492803
  0
ARC
  5
365
330
1F
100
AcDbEntity
  8
1
370
    13
100
AcDbCircle
 10
189.92461
 20
154.27534
 30
0.0
 40
1.403490177918206
100
AcDbArc
 50
326.982509
 51
358.707526
  0
ARC
  5
366
330
1F
100
AcDbEntity
  8
1
370
    13
100
AcDbCircle
 10
189.63518
 20
162.050089
 30
0.0
 40
1.720620473975513
100
AcDbArc
 50
18.65017
 51
44.534037
  0
ARC
  5
367
330
1F
100
AcDbEntity
  8
1
370
    13
100
AcDbCircle
 10
190.430587
 20
162.9053
 30
0.0
 40
0.5562546954872379
100
AcDbArc
 50
39.193024
 51
79.941143
  0
ARC
  5
368
330
1F
100
AcDbEntity
  8
1
370
    13
100
AcDbCircle
 10
200.805663
 20
176.543388
 30
0.0
 40
3.854857956995532
100
AcDbArc
 50
251.957885
 51
254.958915
  0
ARC
  5
369
330
1F
100
AcDbEntity
  8
1
370
    13
100
AcDbCircle
 10
202.412831
 20
184.796986
 30
0.0
 40
12.23775997381465
100
AcDbArc
 50
256.707732
 51
259.077999
  0
ARC
  5
36A
330
1F
100
AcDbEntity
  8
1
370
    13
100
AcDbCircle
 10
201.397251
 20
179.735291
 30
0.0
 40
7.075431200541374
100
AcDbArc
 50
259.386792
 51
268.193082
  0
ARC
  5
36B
330
1F
100
AcDbEntity
  8
1
370
    13
100
AcDbCircle
 10
222.503595
 20
156.091715
 30
0.0
 40
14.4888011330121
100
AcDbArc
 50
91.23629
 51
93.463056
  0
ARC
  5
36C
330
1F
100
AcDbEntity
  8
1
370
    13
100
AcDbCircle
 10
222.67661
 20
153.025124
 30
0.0
 40
17.56024812738735
100
AcDbArc
 50
93.422149
 51
96.008245
  0
ARC
  5
36D
330
1F
100
AcDbEntity
  8
1
370
    13
100
AcDbCircle
 10
216.140167
 20
173.307256
 30
0.0
 40
3.857348846205736
100
AcDbArc
 50
284.864979
 51
307.331432
  0
ARC
  5
36E
330
1F
100
AcDbEntity
  8
1
370
    13
100
AcDbCircle
 10
216.147022
 20
173.26161
 30
0.0
 40
3.811475659683279
100
AcDbArc
 50
267.422855
 51
284.941406
  0
ARC
  5
36F
330
1F
100
AcDbEntity
  8
1
370
    13
100
AcDbCircle
 10
216.112847
 20
172.7139
 30
0.0
 40
3.262796744975269
100
AcDbArc
 50
246.139947
 51
267.589905
  0
ARC
  5
370
330
1F
100
AcDbEntity
  8
1
370
    50
100
AcDbCircle
 10
193.201435
 20
140.230504
 30
0.0
 40
1.0
100
AcDbArc
 50
270.0
 51
320.0
  0
ARC
  5
371
330
1F
100
AcDbEntity
  8
1
370
    50
100
AcDbCircle
 10
193.201435
 20
176.230504
 30
0.0
 40
1.0
100
AcDbArc
 50
40.0
 51
90.0
  0
ARC
  5
372
330
1F
100
AcDbEntity
  8
1
370
    50
100
AcDbCircle
 10
201.174152
 20
180.730504
 30
0.0
 40
8.0
100
AcDbArc
 50
220.0
 51
258.662343
  0
ARC
  5
373
330
1F
100
AcDbEntity
  8
1
370
    50
100
AcDbCircle
 10
201.174152
 20
135.730504
 30
0.0
 40
8.0
100
AcDbArc
 50
101.337732
 51
140.0
  0
ARC
  5
374
330
1F
100
AcDbEntity
  8
SK3
370
    18
100
AcDbCircle
 10
205.517743
 20
165.341454
 30
0.0
 40
0.4
100
AcDbArc
 50
0.0
 51
32.0
  0
ARC
  5
375
330
1F
100
AcDbEntity
  8
SK3
370
    18
100
AcDbCircle
 10
205.517743
 20
151.119554
 30
0.0
 40
0.4
100
AcDbArc
 50
328.0
 51
0.0
  0
ARC
  5
376
330
1F
100
AcDbEntity
  8
SK3
370
    18
100
AcDbCircle
 10
204.034485
 20
148.745845
 30
0.0
 40
0.4
100
AcDbArc
 50
240.0
 51
328.0
  0
ARC
  5
377
330
1F
100
AcDbEntity
  8
97
  6
Continuous
 62
   153
370
    18
100
AcDbCircle
 10
204.034485
 20
167.715163
 30
0.0
 40
0.4
100
AcDbArc
 50
32.0
 51
120.0
  0
ARC
  5
378
330
1F
100
AcDbEntity
  8
NOCUT
370
    13
100
AcDbCircle
 10
201.174152
 20
180.730504
 30
0.0
 40
8.0
100
AcDbArc
 50
220.0
 51
270.0
  0
ARC
  5
379
330
1F
100
AcDbEntity
  8
NOCUT
370
    13
100
AcDbCircle
 10
205.517743
 20
165.341454
 30
0.0
 40
0.4
100
AcDbArc
 50
0.0
 51
32.0
  0
ARC
  5
37A
330
1F
100
AcDbEntity
  8
NOCUT
370
    13
100
AcDbCircle
 10
193.201435
 20
176.230504
 30
0.0
 40
1.0
100
AcDbArc
 50
40.0
 51
90.0
  0
ARC
  5
37B
330
1F
100
AcDbEntity
  8
NOCUT
370
    13
100
AcDbCircle
 10
224.917743
 20
167.975864
 30
0.0
 40
1.6
100
AcDbArc
 50
137.0
 51
180.0
  0
ARC
  5
37C
330
1F
100
AcDbEntity
  8
NOCUT
370
    13
100
AcDbCircle
 10
218.793033
 20
169.105867
 30
0.0
 40
8.0
100
AcDbArc
 50
102.0
 51
120.0
  0
ARC
  5
37D
330
1F
100
AcDbEntity
  8
NOCUT
370
    13
100
AcDbCircle
 10
206.391596
 20
182.730504
 30
0.0
 40
10.0
100
AcDbArc
 50
270.0
 51
300.0
  0
ARC
  5
37E
330
1F
100
AcDbEntity
  8
NOCUT
370
    13
100
AcDbCircle
 10
221.254375
 20
175.763085
 30
0.0
 40
2.0
100
AcDbArc
 50
24.0
 51
102.0
  0
ARC
  5
37F
330
1F
100
AcDbEntity
  8
NOCUT
370
    13
100
AcDbCircle
 10
204.034485
 20
167.715163
 30
0.0
 40
0.4
100
AcDbArc
 50
32.0
 51
120.0
  0
ARC
  5
380
330
1F
100
AcDbEntity
  8
1
370
    50
100
AcDbCircle
 10
190.527743
 20
161.653004
 30
0.0
 40
0.8
100
AcDbArc
 50
0.0
 51
90.0
  0
ARC
  5
381
330
1F
100
AcDbEntity
  8
1
370
    50
100
AcDbCircle
 10
190.527743
 20
154.808004
 30
0.0
 40
0.8
100
AcDbArc
 50
270.0
 51
360.0
  0
ARC
  5
382
330
1F
100
AcDbEntity
  8
NOCUT
370
    13
100
AcDbCircle
 10
223.753585
 20
170.246528
 30
0.0
 40
0.8
100
AcDbArc
 50
317.0
 51
12.0
  0
ARC
  5
383
330
1F
100
AcDbEntity
  8
NOCUT
370
    13
100
AcDbCircle
 10
220.489091
 20
175.023347
 30
0.0
 40
3.0
100
AcDbArc
 50
12.0
 51
24.0
  0
ARC
  5
384
102
{ACAD_REACTORS
330
44B
102
}
330
1F
100
AcDbEntity
  8
2
370
    13
100
AcDbCircle
 10
225.667743
 20
170.326474
 30
0.0
 40
24.2518280381252
100
AcDbArc
 50
72.815513
 51
101.962239
  0
ARC
  5
385
102
{ACAD_REACTORS
330
44B
102
}
330
1F
100
AcDbEntity
  8
2
370
    13
100
AcDbCircle
 10
225.667743
 20
170.326474
 30
0.0
 40
24.2518280381252
100
AcDbArc
 50
101.962239
 51
122.119008
  0
LINE
  5
386
102
{ACAD_REACTORS
330
397
102
}
330
1F
100
AcDbEntity
  8
4
370
    13
100
AcDbLine
 10
205.667743
 20
158.230504
 30
0.0
 11
229.553585
 21
158.230504
 31
0.0
  0
LINE
  5
387
330
1F
100
AcDbEntity
  8
SK4
370
    13
100
AcDbLine
 10
180.667743
 20
158.230504
 30
0.0
 11
205.553585
 21
158.230504
 31
0.0
  0
MTEXT
  5
388
102
{ACAD_REACTORS
330
44B
102
}
330
1F
100
AcDbEntity
  8
2
370
    18
100
AcDbMText
 10
212.535975
 20
191.770395
 30
0.0
 40
3.0
 41
0.0
 71
     7
 72
     5
  1
\W0.8285;12%%d
  7
iso_b_vert
 11
0.8946442850157154
 21
0.4467791437485857
 31
0.0
 73
     2
 44
0.987952
  0
LINE
  5
38B
102
{ACAD_REACTORS
330
38E
102
}
330
1F
100
AcDbEntity
  8
2
 60
     1
370
    13
100
AcDbLine
 10
220.641139
 20
194.051659
 30
0.0
 11
217.658203
 21
192.886571
 31
0.0
  0
LINE
  5
38C
102
{ACAD_REACTORS
330
38E
102
}
330
1F
100
AcDbEntity
  8
2
 60
     1
370
    13
100
AcDbLine
 10
217.658203
 20
192.886571
 30
0.0
 11
217.458294
 21
193.698311
 31
0.0
  0
LINE
  5
38D
102
{ACAD_REACTORS
330
38E
102
}
330
1F
100
AcDbEntity
  8
2
 60
     1
370
    13
100
AcDbLine
 10
217.458294
 20
193.698311
 30
0.0
 11
220.641139
 21
194.051659
 31
0.0
  0
HATCH
  5
38E
102
{ACAD_REACTORS
330
44B
102
}
330
1F
100
AcDbEntity
  8
2
370
    13
100
AcDbHatch
 10
0.0
 20
0.0
 30
0.0
210
0.0
220
0.0
230
1.0
  2
ANSI31
 70
     0
 71
     1
 91
        1
 92
        0
 93
        3
 72
     1
 10
220.6411392308531
 20
194.0516590575878
 11
217.6582032617505
 21
192.8865713017169
 72
     1
 10
217.6582032617505
 20
192.8865713017169
 11
217.4582944137811
 21
193.6983110074924
 72
     1
 10
217.4582944137811
 20
193.6983110074924
 11
220.6411392308531
 21
194.0516590575878
 97
        3
330
38B
330
38C
330
38D
 75
     0
 76
     1
 52
0.0
 41
0.0062
 77
     0
 78
     1
 53
44.99999999999996
 43
0.0
 44
0.0
 45
-0.0139193969876572
 46
0.0139193969876572
 79
     0
 98
        0
  0
LINE
  5
38F
102
{ACAD_REACTORS
330
392
102
}
330
1F
100
AcDbEntity
  8
2
 60
     1
370
    13
100
AcDbLine
 10
225.667743
 20
194.578302
 30
0.0
 11
228.854704
 21
194.892326
 31
0.0
  0
LINE
  5
390
102
{ACAD_REACTORS
330
392
102
}
330
1F
100
AcDbEntity
  8
2
 60
     1
370
    13
100
AcDbLine
 10
228.854704
 20
194.892326
 30
0.0
 11
228.82739
 21
194.056779
 31
0.0
  0
LINE
  5
391
102
{ACAD_REACTORS
330
392
102
}
330
1F
100
AcDbEntity
  8
2
 60
     1
370
    13
100
AcDbLine
 10
228.82739
 20
194.056779
 30
0.0
 11
225.667743
 21
194.578302
 31
0.0
  0
HATCH
  5
392
102
{ACAD_REACTORS
330
44B
102
}
330
1F
100
AcDbEntity
  8
2
370
    13
100
AcDbHatch
 10
0.0
 20
0.0
 30
0.0
210
0.0
220
0.0
230
1.0
  2
ANSI31
 70
     0
 71
     1
 91
        1
 92
        0
 93
        3
 72
     1
 10
225.6677426936419
 20
194.5783017261806
 11
228.8547044874509
 21
194.8923256097446
 72
     1
 10
228.8547044874509
 20
194.8923256097446
 11
228.8273897632234
 21
194.0567786013308
 72
     1
 10
228.8273897632234
 20
194.0567786013308
 11
225.6677426936419
 21
194.5783017261806
 97
        3
330
38F
330
390
330
391
 75
     0
 76
     1
 52
0.0
 41
0.0062
 77
     0
 78
     1
 53
44.99999999999995
 43
0.0
 44
0.0
 45
-0.0139193969876572
 46
0.0139193969876572
 79
     0
 98
        0
  0
MTEXT
  5
393
330
1F
100
AcDbEntity
  8
SK6
370
    18
100
AcDbMText
 10
185.760439
 20
119.002401
 30
0.0
 40
3.0
 41
0.0
 71
     7
 72
     5
  1
\W0.7908;42A04R-SMOSO12-C
  7
iso_b_vert
 73
     2
 44
1.084337
  0
DIMENSION
  5
395
102
{ACAD_REACTORS
330
397
102
}
102
{ACAD_XDICTIONARY
360
396
102
}
330
1F
100
AcDbEntity
  8
2
370
    18
100
AcDbDimension
  2
_U0
 10
237.24782
 20
179.205504
 30
0.0
 11
237.24782
 21
148.126933
 31
0.0
 70
   160
  1
\C254;\H2.25;%%c\H3.00;\C254;42
 71
     1
 42
41.95
 52
90.0
  3
Standard
100
AcDbAlignedDimension
 13
224.553585
 23
158.230504
 33
0.0
 14
225.667743
 24
179.205504
 34
0.0
 50
90.0
100
AcDbRotatedDimension
1001
ACAD
1000
DSTYLE
1002
{
1070
   371
1070
    13
1070
   372
1070
    13
1070
     3
1000

1070
   170
1070
     0
1070
   277
1070
     2
1070
   284
1070
     8
1070
   278
1070
    44
1070
   146
1040
1.0
1070
   345
1005
16
1070
   347
1005
16
1070
   346
1005
16
1070
   344
1005
0
1070
   343
1005
0
1070
   172
1070
     1
1070
    75
1070
     1
1070
   282
1070
     0
1070
    71
1070
     0
1070
   144
1040
2.0
1070
    74
1070
     0
1070
   279
1070
     0
1070
   173
1070
     1
1070
   340
1005
389
1070
   271
1070
     1
1070
   272
1070
     3
1070
    77
1070
     1
1070
    73
1070
     0
1070
   171
1070
     3
1070
   274
1070
     4
1070
   281
1070
     1
1070
   177
1070
   254
1070
   176
1070
   254
1070
   178
1070
   254
1070
    78
1070
     8
1070
    48
1040
-0.1
1070
    41
1040
3.175
1070
   147
1040
1.5
1070
    42
1040
0.0
1070
    44
1040
2.0
1070
   140
1040
3.0
1002
}
1001
ACAD_DSTYLE_DIM_LINETYPE
1070
   380
1005
16
1001
ACAD_DSTYLE_DIM_EXT1_LINETYPE
1070
   381
1005
16
1001
ACAD_DSTYLE_DIM_EXT2_LINETYPE
1070
   382
1005
16
  0
DIMENSION
  5
3AC
102
{ACAD_REACTORS
330
3AE
102
}
102
{ACAD_XDICTIONARY
360
3AD
102
}
330
1F
100
AcDbEntity
  8
SK2
370
    18
100
AcDbDimension
  2
_U1
 10
161.619316
 20
139.230504
 30
0.0
 11
161.619316
 21
158.230504
 31
0.0
 70
   160
 71
     1
 42
38.0
 52
90.0
  3
Standard
100
AcDbAlignedDimension
 13
186.167743
 23
177.230504
 33
0.0
 14
186.167743
 24
139.230504
 34
0.0
 50
-90.0
100
AcDbRotatedDimension
1001
ACAD
1000
DSTYLE
1002
{
1070
   371
1070
    13
1070
   372
1070
    13
1070
     3
1000
\C95;\H2.25;%%c\H3.00;<>
1070
   170
1070
     0
1070
   144
1040
1.0
1070
   277
1070
     2
1070
   284
1070
     8
1070
   278
1070
    44
1070
   146
1040
1.0
1070
   345
1005
16
1070
   347
1005
16
1070
   346
1005
16
1070
   344
1005
0
1070
   343
1005
0
1070
   172
1070
     1
1070
    76
1070
     0
1070
    75
1070
     0
1070
   282
1070
     0
1070
   281
1070
     0
1070
    71
1070
     0
1070
    74
1070
     0
1070
   279
1070
     0
1070
   173
1070
     1
1070
   340
1005
389
1070
   271
1070
     3
1070
   272
1070
     3
1070
    77
1070
     1
1070
    73
1070
     0
1070
   171
1070
     3
1070
   274
1070
     4
1070
   177
1070
    95
1070
   176
1070
    95
1070
   178
1070
    95
1070
    78
1070
     8
1070
    48
1040
-0.1
1070
    41
1040
3.175
1070
   147
1040
1.5
1070
    42
1040
0.0
1070
    44
1040
2.0
1070
   140
1040
3.0
1002
}
1001
ACAD_DSTYLE_DIM_LINETYPE
1070
   380
1005
16
1001
ACAD_DSTYLE_DIM_EXT1_LINETYPE
1070
   381
1005
16
1001
ACAD_DSTYLE_DIM_EXT2_LINETYPE
1070
   382
1005
16
  0
DIMENSION
  5
3C5
102
{ACAD_REACTORS
330
3C7
102
}
102
{ACAD_XDICTIONARY
360
3C6
102
}
330
1F
100
AcDbEntity
  8
SK2
370
    18
100
AcDbDimension
  2
_U2
 10
169.393542
 20
150.227754
 30
0.0
 11
169.393542
 21
158.230504
 31
0.0
 70
   160
 71
     1
 42
16.0055
 52
90.0
  3
Standard
100
AcDbAlignedDimension
 13
192.679315
 23
166.233254
 33
0.0
 14
192.679315
 24
150.227754
 34
0.0
 50
-90.0
100
AcDbRotatedDimension
1001
ACAD
1000
DSTYLE
1002
{
1070
   371
1070
    13
1070
   372
1070
    13
1070
     3
1000
\C95;\H2.25;%%c\H3.00;<>
1070
   170
1070
     0
1070
   144
1040
1.0
1070
   277
1070
     2
1070
   284
1070
     8
1070
   278
1070
    44
1070
   146
1040
1.0
1070
   345
1005
16
1070
   347
1005
16
1070
   346
1005
16
1070
   344
1005
0
1070
   343
1005
0
1070
   172
1070
     1
1070
    76
1070
     0
1070
    75
1070
     0
1070
   282
1070
     0
1070
   281
1070
     0
1070
    71
1070
     0
1070
    74
1070
     0
1070
   279
1070
     0
1070
   173
1070
     1
1070
   340
1005
389
1070
   271
1070
     1
1070
   272
1070
     3
1070
    77
1070
     1
1070
    73
1070
     0
1070
   171
1070
     3
1070
   274
1070
     4
1070
   177
1070
    95
1070
   176
1070
    95
1070
   178
1070
    95
1070
    78
1070
     8
1070
    48
1040
-0.1
1070
    41
1040
3.175
1070
   147
1040
1.5
1070
    42
1040
0.0
1070
    44
1040
2.0
1070
   140
1040
3.0
1002
}
1001
ACAD_DSTYLE_DIM_LINETYPE
1070
   380
1005
16
1001
ACAD_DSTYLE_DIM_EXT1_LINETYPE
1070
   381
1005
16
1001
ACAD_DSTYLE_DIM_EXT2_LINETYPE
1070
   382
1005
16
  0
DIMENSION
  5
3DE
102
{ACAD_REACTORS
330
3E0
102
}
102
{ACAD_XDICTIONARY
360
3DF
102
}
330
1F
100
AcDbEntity
  8
SK2
370
    18
100
AcDbDimension
  2
_U3
 10
191.327743
 20
130.007285
 30
0.0
 11
171.674886
 21
130.007285
 31
0.0
 70
   160
  1
\C95;5,6
 71
     1
 42
5.66
 52
90.0
  3
Standard
100
AcDbAlignedDimension
 13
185.667743
 23
139.730504
 33
0.0
 14
191.327743
 24
154.243683
 34
0.0
100
AcDbRotatedDimension
1001
ACAD
1000
DSTYLE
1002
{
1070
   371
1070
    13
1070
   372
1070
    13
1070
     3
1000

1070
   170
1070
     0
1070
   144
1040
1.0
1070
   277
1070
     2
1070
   284
1070
     8
1070
   278
1070
    44
1070
   146
1040
1.0
1070
   345
1005
16
1070
   347
1005
16
1070
   346
1005
16
1070
   344
1005
0
1070
   343
1005
0
1070
   172
1070
     1
1070
    76
1070
     0
1070
    75
1070
     0
1070
   282
1070
     0
1070
   281
1070
     0
1070
    71
1070
     0
1070
    74
1070
     0
1070
   279
1070
     0
1070
   173
1070
     1
1070
   340
1005
389
1070
   271
1070
     1
1070
   272
1070
     3
1070
    77
1070
     1
1070
    73
1070
     1
1070
   171
1070
     3
1070
   274
1070
     4
1070
   177
1070
    95
1070
   176
1070
    95
1070
   178
1070
    95
1070
    78
1070
     8
1070
    48
1040
-0.1
1070
    41
1040
3.175
1070
   147
1040
1.5
1070
    42
1040
0.0
1070
    44
1040
2.0
1070
   140
1040
3.0
1002
}
1001
ACAD_DSTYLE_DIM_LINETYPE
1070
   380
1005
16
1001
ACAD_DSTYLE_DIM_EXT1_LINETYPE
1070
   381
1005
16
1001
ACAD_DSTYLE_DIM_EXT2_LINETYPE
1070
   382
1005
16
1001
ACAD_DSTYLE_DIM_LINETYPE
1070
   385
1070
     0
1001
ACAD_DSTYLE_DIM_LINETYPE
1070
   386
1070
     3
  0
DIMENSION
  5
3F8
102
{ACAD_REACTORS
330
3FA
102
}
102
{ACAD_XDICTIONARY
360
3F9
102
}
330
1F
100
AcDbEntity
  8
2
370
    18
100
AcDbDimension
  2
_U4
 10
223.778828
 20
186.499991
 30
0.0
 11
239.303457
 21
186.499991
 31
0.0
 70
   160
 71
     1
 42
1.888915
 52
90.0
  3
Standard
100
AcDbAlignedDimension
 13
225.667743
 23
179.205504
 33
0.0
 14
223.778828
 24
178.605008
 34
0.0
100
AcDbRotatedDimension
1001
ACAD
1000
DSTYLE
1002
{
1070
   371
1070
    13
1070
   372
1070
    13
1070
   170
1070
     0
1070
   144
1040
1.0
1070
   277
1070
     2
1070
   284
1070
     8
1070
   278
1070
    44
1070
   146
1040
1.0
1070
   345
1005
16
1070
   347
1005
16
1070
   346
1005
16
1070
   344
1005
0
1070
   343
1005
0
1070
   172
1070
     1
1070
    76
1070
     0
1070
    75
1070
     0
1070
   282
1070
     0
1070
   281
1070
     0
1070
    71
1070
     0
1070
    74
1070
     0
1070
   279
1070
     0
1070
   173
1070
     1
1070
   340
1005
389
1070
   271
1070
     1
1070
   272
1070
     3
1070
    77
1070
     1
1070
    73
1070
     1
1070
   171
1070
     3
1070
   274
1070
     4
1070
   177
1070
   254
1070
   176
1070
   254
1070
   178
1070
   254
1070
    78
1070
     8
1070
    48
1040
-0.1
1070
    41
1040
3.175
1070
   147
1040
1.5
1070
    42
1040
0.0
1070
    44
1040
2.0
1070
   140
1040
3.0
1002
}
1001
ACAD_DSTYLE_DIM_LINETYPE
1070
   380
1005
16
1001
ACAD_DSTYLE_DIM_EXT1_LINETYPE
1070
   381
1005
16
1001
ACAD_DSTYLE_DIM_EXT2_LINETYPE
1070
   382
1005
16
  0
DIMENSION
  5
412
102
{ACAD_REACTORS
330
414
102
}
102
{ACAD_XDICTIONARY
360
413
102
}
330
1F
100
AcDbEntity
  8
2
370
    18
100
AcDbDimension
  2
_U5
 10
225.667743
 20
201.011879
 30
0.0
 11
205.667743
 21
201.011879
 31
0.0
 70
   160
 71
     1
 42
40.0
 52
90.0
  3
Standard
100
AcDbAlignedDimension
 13
185.667743
 23
176.730504
 33
0.0
 14
225.667743
 24
180.205504
 34
0.0
100
AcDbRotatedDimension
1001
ACAD
1000
DSTYLE
1002
{
1070
   371
1070
    13
1070
   372
1070
    13
1070
   170
1070
     0
1070
   144
1040
1.0
1070
   277
1070
     2
1070
   284
1070
     8
1070
   278
1070
    44
1070
   146
1040
1.0
1070
   345
1005
16
1070
   347
1005
16
1070
   346
1005
16
1070
   344
1005
0
1070
   343
1005
0
1070
   172
1070
     1
1070
    76
1070
     0
1070
    75
1070
     0
1070
   282
1070
     0
1070
   281
1070
     0
1070
    71
1070
     0
1070
    74
1070
     0
1070
   279
1070
     0
1070
   173
1070
     1
1070
   340
1005
389
1070
   271
1070
     3
1070
   272
1070
     3
1070
    77
1070
     1
1070
    73
1070
     1
1070
   171
1070
     3
1070
   274
1070
     4
1070
   177
1070
   254
1070
   176
1070
   254
1070
   178
1070
   254
1070
    78
1070
     8
1070
    48
1040
-0.1
1070
    41
1040
3.175
1070
   147
1040
1.5
1070
    42
1040
0.0
1070
    44
1040
2.0
1070
   140
1040
3.0
1002
}
1001
ACAD_DSTYLE_DIM_LINETYPE
1070
   380
1005
16
1001
ACAD_DSTYLE_DIM_EXT1_LINETYPE
1070
   381
1005
16
1001
ACAD_DSTYLE_DIM_EXT2_LINETYPE
1070
   382
1005
16
  0
DIMENSION
  5
42A
102
{ACAD_REACTORS
330
42C
102
}
102
{ACAD_XDICTIONARY
360
42B
102
}
330
1F
100
AcDbEntity
  8
SK2
370
    18
100
AcDbDimension
  2
_U6
 10
178.905535
 20
154.008004
 30
0.0
 11
178.905535
 21
158.230504
 31
0.0
 70
   160
  1
\C95;8,4
 71
     1
 42
8.445
 52
90.0
  3
Standard
100
AcDbAlignedDimension
 13
186.367743
 23
162.453004
 33
0.0
 14
186.367743
 24
154.008004
 34
0.0
 50
90.0
100
AcDbRotatedDimension
1001
ACAD
1000
DSTYLE
1002
{
1070
   371
1070
    13
1070
   372
1070
    13
1070
     3
1000

1070
   170
1070
     0
1070
   144
1040
1.0
1070
   277
1070
     2
1070
   284
1070
     8
1070
   278
1070
    44
1070
   146
1040
1.0
1070
   345
1005
16
1070
   347
1005
16
1070
   346
1005
16
1070
   344
1005
0
1070
   343
1005
0
1070
   172
1070
     1
1070
    76
1070
     0
1070
    75
1070
     0
1070
   282
1070
     0
1070
   281
1070
     0
1070
    71
1070
     0
1070
    74
1070
     0
1070
   279
1070
     0
1070
   173
1070
     1
1070
   340
1005
389
1070
   271
1070
     3
1070
   272
1070
     3
1070
    77
1070
     1
1070
    73
1070
     0
1070
   171
1070
     3
1070
   274
1070
     4
1070
   177
1070
    95
1070
   176
1070
    95
1070
   178
1070
    95
1070
    78
1070
     8
1070
    48
1040
-0.1
1070
    41
1040
3.175
1070
   147
1040
1.5
1070
    42
1040
0.0
1070
    44
1040
2.0
1070
   140
1040
3.0
1002
}
1001
ACAD_DSTYLE_DIM_LINETYPE
1070
   380
1005
16
1001
ACAD_DSTYLE_DIM_EXT1_LINETYPE
1070
   381
1005
16
1001
ACAD_DSTYLE_DIM_EXT2_LINETYPE
1070
   382
1005
16
  0
ENDSEC
  0
SECTION
  2
OBJECTS
  0
DICTIONARY
  5
C
330
0
100
AcDbDictionary
281
     1
  3
ACAD_DETAILVIEWSTYLE
350
4A5
  3
ACAD_GROUP
350
D
  3
ACAD_LAYOUT
350
1A
  3
ACAD_MATERIAL
350
43
  3
ACAD_MLEADERSTYLE
350
6B
  3
ACAD_MLINESTYLE
350
17
  3
ACAD_PLOTSETTINGS
350
19
  3
ACAD_PLOTSTYLENAME
350
E
  3
ACAD_SCALELIST
350
47
  3
ACAD_SECTIONVIEWSTYLE
350
4A6
  3
ACAD_TABLESTYLE
350
69
  3
ACAD_VISUALSTYLE
350
2A
  3
ACDB_RECOMPOSE_DATA
350
4A2
  3
AcDbVariableDictionary
350
462
  0
DICTIONARY
  5
460
330
8
100
AcDbDictionary
280
     1
281
     1
  3
ACAD_XREC_ROUNDTRIP
360
461
  0
DICTIONARY
  5
396
330
395
100
AcDbDictionary
280
     1
281
     1
  3
ACAD_DIMASSOC
360
397
  0
DICTIONARY
  5
3AD
330
3AC
100
AcDbDictionary
280
     1
281
     1
  3
ACAD_DIMASSOC
360
3AE
  0
DICTIONARY
  5
3C6
330
3C5
100
AcDbDictionary
280
     1
281
     1
  3
ACAD_DIMASSOC
360
3C7
  0
DICTIONARY
  5
3DF
330
3DE
100
AcDbDictionary
280
     1
281
     1
  3
ACAD_DIMASSOC
360
3E0
  0
DICTIONARY
  5
3F9
330
3F8
100
AcDbDictionary
280
     1
281
     1
  3
ACAD_DIMASSOC
360
3FA
  0
DICTIONARY
  5
413
330
412
100
AcDbDictionary
280
     1
281
     1
  3
ACAD_DIMASSOC
360
414
  0
DICTIONARY
  5
42B
330
42A
100
AcDbDictionary
280
     1
281
     1
  3
ACAD_DIMASSOC
360
42C
  0
DICTIONARY
  5
4A5
102
{ACAD_REACTORS
330
C
102
}
330
C
100
AcDbDictionary
281
     1
  0
DICTIONARY
  5
D
102
{ACAD_REACTORS
330
C
102
}
330
C
100
AcDbDictionary
281
     1
  3
ANNOTATION
350
44B
  0
DICTIONARY
  5
1A
102
{ACAD_REACTORS
330
C
102
}
330
C
100
AcDbDictionary
281
     1
  3
Layout1
350
1E
  3
Layout2
350
26
  3
Model
350
22
  0
DICTIONARY
  5
43
102
{ACAD_REACTORS
330
C
102
}
330
C
100
AcDbDictionary
281
     1
  3
ByBlock
350
45
  3
ByLayer
350
44
  3
Global
350
46
  0
DICTIONARY
  5
6B
102
{ACAD_REACTORS
330
C
102
}
330
C
100
AcDbDictionary
281
     1
  3
Standard
350
6C
  0
DICTIONARY
  5
17
102
{ACAD_REACTORS
330
C
102
}
330
C
100
AcDbDictionary
281
     1
  3
Standard
350
18
  0
DICTIONARY
  5
19
102
{ACAD_REACTORS
330
C
102
}
330
C
100
AcDbDictionary
281
     1
  0
ACDBDICTIONARYWDFLT
  5
E
102
{ACAD_REACTORS
330
C
102
}
330
C
100
AcDbDictionary
281
     1
  3
Normal
350
F
100
AcDbDictionaryWithDefault
340
F
  0
DICTIONARY
  5
47
102
{ACAD_REACTORS
330
C
102
}
330
C
100
AcDbDictionary
281
     1
  3
A0
350
48
  3
A1
350
49
  3
A2
350
4A
  3
A3
350
4B
  3
A4
350
4C
  3
A5
350
4D
  3
A6
350
4E
  3
A7
350
4F
  3
A8
350
50
  3
A9
350
51
  3
B0
350
52
  3
B1
350
53
  3
B2
350
54
  3
B3
350
55
  3
B4
350
56
  3
B5
350
57
  3
B6
350
58
  3
B7
350
59
  3
B8
350
5A
  3
B9
350
5B
  3
C0
350
5C
  3
C1
350
5D
  3
C2
350
5E
  3
C3
350
5F
  3
C4
350
60
  3
C5
350
61
  3
C6
350
62
  3
C7
350
63
  3
C8
350
64
  3
C9
350
65
  3
D0
350
66
  3
D1
350
67
  3
D2
350
68
  0
DICTIONARY
  5
4A6
102
{ACAD_REACTORS
330
C
102
}
330
C
100
AcDbDictionary
281
     1
  0
DICTIONARY
  5
69
102
{ACAD_REACTORS
330
C
102
}
330
C
100
AcDbDictionary
281
     1
  3
Standard
350
6A
  0
DICTIONARY
  5
2A
102
{ACAD_REACTORS
330
C
102
}
330
C
100
AcDbDictionary
281
     1
  3
2dWireframe
350
2F
  3
Basic
350
32
  3
Brighten
350
36
  3
ColorChange
350
3A
  3
Conceptual
350
34
  3
Dim
350
35
  3
EdgeColorOff
350
3D
  3
Facepattern
350
39
  3
Flat
350
2B
  3
FlatWithEdges
350
2C
  3
Gouraud
350
2D
  3
GouraudWithEdges
350
2E
  3
Hidden
350
31
  3
JitterOff
350
3B
  3
Linepattern
350
38
  3
OverhangOff
350
3C
  3
Realistic
350
33
  3
Shaded
350
42
  3
Shaded with edges
350
41
  3
Shades of Gray
350
3E
  3
Sketchy
350
3F
  3
Thicken
350
37
  3
Wireframe
350
30
  3
X-Ray
350
40
  0
XRECORD
  5
4A2
102
{ACAD_REACTORS
330
C
102
}
330
C
100
AcDbXrecord
280
     1
 90
        1
330
6A
  0
DICTIONARY
  5
462
102
{ACAD_REACTORS
330
C
102
}
330
C
100
AcDbDictionary
281
     1
  3
CANNOSCALE
350
463
  3
CMLEADERSTYLE
350
4A4
  3
CTABLESTYLE
350
4A3
  3
MSLTSCALE
350
464
  3
XCLIPFRAME
350
465
  0
XRECORD
  5
461
102
{ACAD_REACTORS
330
460
102
}
330
460
100
AcDbXrecord
280
     1
102
VTR_0.000_0.000_1.000_1.000_VISUALSTYLE
340
2F
102
VTR_0.000_0.000_1.000_1.000_GRIDDISPLAY
 70
     3
102
VTR_0.000_0.000_1.000_1.000_GRIDMAJOR
 70
     5
102
VTR_0.000_0.000_1.000_1.000_DEFAULTLIGHTING
280
     1
102
VTR_0.000_0.000_1.000_1.000_DEFAULTLIGHTINGTYPE
 70
     1
102
VTR_0.000_0.000_1.000_1.000_BRIGHTNESS
141
0.0
102
VTR_0.000_0.000_1.000_1.000_CONTRAST
142
0.0
102
VTR_0.000_0.000_0.500_1.000_VISUALSTYLE
340
2F
102
VTR_0.000_0.000_0.500_1.000_GRIDDISPLAY
 70
     3
102
VTR_0.000_0.000_0.500_1.000_GRIDMAJOR
 70
     5
102
VTR_0.000_0.000_0.500_1.000_DEFAULTLIGHTING
280
     1
102
VTR_0.000_0.000_0.500_1.000_DEFAULTLIGHTINGTYPE
 70
     1
102
VTR_0.000_0.000_0.500_1.000_BRIGHTNESS
141
0.0
102
VTR_0.000_0.000_0.500_1.000_CONTRAST
142
0.0
102
VTR_0.500_0.000_1.000_1.000_VISUALSTYLE
340
2F
102
VTR_0.500_0.000_1.000_1.000_GRIDDISPLAY
 70
     3
102
VTR_0.500_0.000_1.000_1.000_GRIDMAJOR
 70
     5
102
VTR_0.500_0.000_1.000_1.000_DEFAULTLIGHTING
280
     1
102
VTR_0.500_0.000_1.000_1.000_DEFAULTLIGHTINGTYPE
 70
     1
102
VTR_0.500_0.000_1.000_1.000_BRIGHTNESS
141
0.0
102
VTR_0.500_0.000_1.000_1.000_CONTRAST
142
0.0
102
VTR_0.000_0.500_1.000_1.000_VISUALSTYLE
340
2F
102
VTR_0.000_0.500_1.000_1.000_GRIDDISPLAY
 70
     3
102
VTR_0.000_0.500_1.000_1.000_GRIDMAJOR
 70
     5
102
VTR_0.000_0.500_1.000_1.000_DEFAULTLIGHTING
280
     1
102
VTR_0.000_0.500_1.000_1.000_DEFAULTLIGHTINGTYPE
 70
     1
102
VTR_0.000_0.500_1.000_1.000_BRIGHTNESS
141
0.0
102
VTR_0.000_0.500_1.000_1.000_CONTRAST
142
0.0
102
VTR_0.000_0.000_1.000_0.500_VISUALSTYLE
340
2F
102
VTR_0.000_0.000_1.000_0.500_GRIDDISPLAY
 70
     3
102
VTR_0.000_0.000_1.000_0.500_GRIDMAJOR
 70
     5
102
VTR_0.000_0.000_1.000_0.500_DEFAULTLIGHTING
280
     1
102
VTR_0.000_0.000_1.000_0.500_DEFAULTLIGHTINGTYPE
 70
     1
102
VTR_0.000_0.000_1.000_0.500_BRIGHTNESS
141
0.0
102
VTR_0.000_0.000_1.000_0.500_CONTRAST
142
0.0
102
VTR_0.000_0.500_0.500_1.000_VISUALSTYLE
340
2F
102
VTR_0.000_0.500_0.500_1.000_GRIDDISPLAY
 70
     3
102
VTR_0.000_0.500_0.500_1.000_GRIDMAJOR
 70
     5
102
VTR_0.000_0.500_0.500_1.000_DEFAULTLIGHTING
280
     1
102
VTR_0.000_0.500_0.500_1.000_DEFAULTLIGHTINGTYPE
 70
     1
102
VTR_0.000_0.500_0.500_1.000_BRIGHTNESS
141
0.0
102
VTR_0.000_0.500_0.500_1.000_CONTRAST
142
0.0
102
VTR_0.000_0.000_0.500_0.500_VISUALSTYLE
340
2F
102
VTR_0.000_0.000_0.500_0.500_GRIDDISPLAY
 70
     3
102
VTR_0.000_0.000_0.500_0.500_GRIDMAJOR
 70
     5
102
VTR_0.000_0.000_0.500_0.500_DEFAULTLIGHTING
280
     1
102
VTR_0.000_0.000_0.500_0.500_DEFAULTLIGHTINGTYPE
 70
     1
102
VTR_0.000_0.000_0.500_0.500_BRIGHTNESS
141
0.0
102
VTR_0.000_0.000_0.500_0.500_CONTRAST
142
0.0
102
VTR_0.500_0.000_1.000_0.500_VISUALSTYLE
340
2F
102
VTR_0.500_0.000_1.000_0.500_GRIDDISPLAY
 70
     3
102
VTR_0.500_0.000_1.000_0.500_GRIDMAJOR
 70
     5
102
VTR_0.500_0.000_1.000_0.500_DEFAULTLIGHTING
280
     1
102
VTR_0.500_0.000_1.000_0.500_DEFAULTLIGHTINGTYPE
 70
     1
102
VTR_0.500_0.000_1.000_0.500_BRIGHTNESS
141
0.0
102
VTR_0.500_0.000_1.000_0.500_CONTRAST
142
0.0
102
VTR_0.500_0.500_1.000_1.000_VISUALSTYLE
340
2F
102
VTR_0.500_0.500_1.000_1.000_GRIDDISPLAY
 70
     3
102
VTR_0.500_0.500_1.000_1.000_GRIDMAJOR
 70
     5
102
VTR_0.500_0.500_1.000_1.000_DEFAULTLIGHTING
280
     1
102
VTR_0.500_0.500_1.000_1.000_DEFAULTLIGHTINGTYPE
 70
     1
102
VTR_0.500_0.500_1.000_1.000_BRIGHTNESS
141
0.0
102
VTR_0.500_0.500_1.000_1.000_CONTRAST
142
0.0
102
VTR_0.000_0.500_0.333_1.000_VISUALSTYLE
340
2F
102
VTR_0.000_0.500_0.333_1.000_GRIDDISPLAY
 70
     3
102
VTR_0.000_0.500_0.333_1.000_GRIDMAJOR
 70
     5
102
VTR_0.000_0.500_0.333_1.000_DEFAULTLIGHTING
280
     1
102
VTR_0.000_0.500_0.333_1.000_DEFAULTLIGHTINGTYPE
 70
     1
102
VTR_0.000_0.500_0.333_1.000_BRIGHTNESS
141
0.0
102
VTR_0.000_0.500_0.333_1.000_CONTRAST
142
0.0
102
VTR_0.000_0.000_0.333_0.500_VISUALSTYLE
340
2F
102
VTR_0.000_0.000_0.333_0.500_GRIDDISPLAY
 70
     3
102
VTR_0.000_0.000_0.333_0.500_GRIDMAJOR
 70
     5
102
VTR_0.000_0.000_0.333_0.500_DEFAULTLIGHTING
280
     1
102
VTR_0.000_0.000_0.333_0.500_DEFAULTLIGHTINGTYPE
 70
     1
102
VTR_0.000_0.000_0.333_0.500_BRIGHTNESS
141
0.0
102
VTR_0.000_0.000_0.333_0.500_CONTRAST
142
0.0
102
VTR_0.333_0.500_0.667_1.000_VISUALSTYLE
340
2F
102
VTR_0.333_0.500_0.667_1.000_GRIDDISPLAY
 70
     3
102
VTR_0.333_0.500_0.667_1.000_GRIDMAJOR
 70
     5
102
VTR_0.333_0.500_0.667_1.000_DEFAULTLIGHTING
280
     1
102
VTR_0.333_0.500_0.667_1.000_DEFAULTLIGHTINGTYPE
 70
     1
102
VTR_0.333_0.500_0.667_1.000_BRIGHTNESS
141
0.0
102
VTR_0.333_0.500_0.667_1.000_CONTRAST
142
0.0
102
VTR_0.333_0.000_0.667_0.500_VISUALSTYLE
340
2F
102
VTR_0.333_0.000_0.667_0.500_GRIDDISPLAY
 70
     3
102
VTR_0.333_0.000_0.667_0.500_GRIDMAJOR
 70
     5
102
VTR_0.333_0.000_0.667_0.500_DEFAULTLIGHTING
280
     1
102
VTR_0.333_0.000_0.667_0.500_DEFAULTLIGHTINGTYPE
 70
     1
102
VTR_0.333_0.000_0.667_0.500_BRIGHTNESS
141
0.0
102
VTR_0.333_0.000_0.667_0.500_CONTRAST
142
0.0
102
VTR_0.667_0.500_1.000_1.000_VISUALSTYLE
340
2F
102
VTR_0.667_0.500_1.000_1.000_GRIDDISPLAY
 70
     3
102
VTR_0.667_0.500_1.000_1.000_GRIDMAJOR
 70
     5
102
VTR_0.667_0.500_1.000_1.000_DEFAULTLIGHTING
280
     1
102
VTR_0.667_0.500_1.000_1.000_DEFAULTLIGHTINGTYPE
 70
     1
102
VTR_0.667_0.500_1.000_1.000_BRIGHTNESS
141
0.0
102
VTR_0.667_0.500_1.000_1.000_CONTRAST
142
0.0
102
VTR_0.667_0.000_1.000_0.500_VISUALSTYLE
340
2F
102
VTR_0.667_0.000_1.000_0.500_GRIDDISPLAY
 70
     3
102
VTR_0.667_0.000_1.000_0.500_GRIDMAJOR
 70
     5
102
VTR_0.667_0.000_1.000_0.500_DEFAULTLIGHTING
280
     1
102
VTR_0.667_0.000_1.000_0.500_DEFAULTLIGHTINGTYPE
 70
     1
102
VTR_0.667_0.000_1.000_0.500_BRIGHTNESS
141
0.0
102
VTR_0.667_0.000_1.000_0.500_CONTRAST
142
0.0
  0
DIMASSOC
  5
397
102
{ACAD_REACTORS
330
396
102
}
330
396
100
AcDbDimAssoc
330
395
 90
        3
 70
     0
 71
     1
  1
AcDbOsnapPointRef
 72
    10
331
386
 73
     2
 91
        1
 40
18.885842
 10
224.553585
 20
158.230504
 30
0.0
 75
     0
  1
AcDbOsnapPointRef
 72
     2
331
260
 73
     2
 91
        2
 40
1.0
 10
225.667743
 20
179.205504
 30
0.0
 75
     0
  0
DIMASSOC
  5
3AE
102
{ACAD_REACTORS
330
3AD
102
}
330
3AD
100
AcDbDimAssoc
330
3AC
 90
        3
 70
     0
 71
     1
  1
AcDbOsnapPointRef
 72
    13
331
10E
 73
     2
 91
        1
 40
0.0
 10
186.167743
 20
177.230504
 30
0.0
 75
     0
  1
AcDbOsnapPointRef
 72
    13
331
10F
 73
     2
 91
        2
 40
0.0
 10
186.167743
 20
139.230504
 30
0.0
 75
     0
  0
DIMASSOC
  5
3C7
102
{ACAD_REACTORS
330
3C6
102
}
330
3C6
100
AcDbDimAssoc
330
3C5
 90
        3
 70
     0
 71
     1
  1
AcDbOsnapPointRef
 72
    13
331
110
 73
     2
 91
        1
 40
0.0
 10
192.679315
 20
166.233254
 30
0.0
 75
     0
  1
AcDbOsnapPointRef
 72
     1
331
111
 73
     2
 91
        2
 40
1.0
 10
192.679315
 20
150.227754
 30
0.0
 75
     0
  0
DIMASSOC
  5
3E0
102
{ACAD_REACTORS
330
3DF
102
}
330
3DF
100
AcDbDimAssoc
330
3DE
 90
        3
 70
     0
 71
     1
  1
AcDbOsnapPointRef
 72
    13
331
112
 73
     2
 91
        1
 40
0.0
 10
185.667743
 20
139.730504
 30
0.0
 75
     0
  1
AcDbOsnapPointRef
 72
     1
331
113
 73
     2
 91
        2
 40
1.0
 10
191.327743
 20
154.243683
 30
0.0
 75
     0
  0
DIMASSOC
  5
3FA
102
{ACAD_REACTORS
330
3F9
102
}
330
3F9
100
AcDbDimAssoc
330
3F8
 90
        3
 70
     0
 71
     1
  1
AcDbOsnapPointRef
 72
     2
331
114
 73
     2
 91
        1
 40
1.0
 10
225.667743
 20
179.205504
 30
0.0
 75
     0
  1
AcDbOsnapPointRef
 72
     4
331
7B
 73
     3
 91
        2
 40
0.0
 10
223.778828
 20
178.605008
 30
0.0
 75
     0
  0
DIMASSOC
  5
414
102
{ACAD_REACTORS
330
413
102
}
330
413
100
AcDbDimAssoc
330
412
 90
        3
 70
     0
 71
     1
  1
AcDbOsnapPointRef
 72
     4
331
7C
 73
     3
 91
        1
 40
0.0
 10
185.667743
 20
176.730504
 30
0.0
 75
     0
  1
AcDbOsnapPointRef
 72
     1
331
260
 73
     2
 91
        2
 40
1.0
 10
225.667743
 20
180.205504
 30
0.0
 75
     0
  0
DIMASSOC
  5
42C
102
{ACAD_REACTORS
330
42B
102
}
330
42B
100
AcDbDimAssoc
330
42A
 90
        3
 70
     0
 71
     1
  1
AcDbOsnapPointRef
 72
    13
331
115
 73
     2
 91
        1
 40
0.0
 10
186.367743
 20
162.453004
 30
0.0
 75
     0
  1
AcDbOsnapPointRef
 72
    13
331
116
 73
     2
 91
        2
 40
0.0
 10
186.367743
 20
154.008004
 30
0.0
 75
     0
  0
GROUP
  5
44B
102
{ACAD_REACTORS
330
D
102
}
330
D
100
AcDbGroup
300

 70
     0
 71
     1
340
388
340
262
340
263
340
384
340
385
340
38E
340
392
  0
LAYOUT
  5
1E
102
{ACAD_REACTORS
330
1A
102
}
330
1A
100
AcDbPlotSettings
  1

  2
none_device
  4

  6

 40
0.0
 41
0.0
 42
0.0
 43
0.0
 44
0.0
 45
0.0
 46
0.0
 47
0.0
 48
0.0
 49
0.0
140
0.0
141
0.0
142
1.0
143
1.0
 70
   688
 72
     0
 73
     0
 74
     5
  7

 75
    16
 76
     0
 77
     2
 78
   300
147
1.0
148
0.0
149
0.0
100
AcDbLayout
  1
Layout1
 70
     1
 71
     1
 10
-0.5
 20
-0.5
 11
5.0
 21
5.0
 12
0.0
 22
0.0
 32
0.0
 14
-0.5
 24
-0.5
 34
-0.5
 15
5.0
 25
5.0
 35
5.0
146
0.0
 13
0.0
 23
0.0
 33
0.0
 16
1.0
 26
0.0
 36
0.0
 17
0.0
 27
1.0
 37
0.0
 76
     0
330
1B
  0
LAYOUT
  5
26
102
{ACAD_REACTORS
330
1A
102
}
330
1A
100
AcDbPlotSettings
  1

  2
none_device
  4

  6

 40
0.0
 41
0.0
 42
0.0
 43
0.0
 44
0.0
 45
0.0
 46
0.0
 47
0.0
 48
0.0
 49
0.0
140
0.0
141
0.0
142
1.0
143
1.0
 70
   688
 72
     0
 73
     0
 74
     5
  7

 75
    16
 76
     0
 77
     2
 78
   300
147
1.0
148
0.0
149
0.0
100
AcDbLayout
  1
Layout2
 70
     1
 71
     2
 10
0.0
 20
0.0
 11
0.0
 21
0.0
 12
0.0
 22
0.0
 32
0.0
 14
0.0
 24
0.0
 34
0.0
 15
0.0
 25
0.0
 35
0.0
146
0.0
 13
0.0
 23
0.0
 33
0.0
 16
1.0
 26
0.0
 36
0.0
 17
0.0
 27
1.0
 37
0.0
 76
     0
330
23
  0
LAYOUT
  5
22
102
{ACAD_REACTORS
330
1A
102
}
330
1A
100
AcDbPlotSettings
  1

  2
none_device
  4
Letter_(8.50_x_11.00_Inches)
  6

 40
6.35
 41
6.35
 42
6.350005
 43
6.350005
 44
215.9
 45
279.4
 46
0.0
 47
0.0
 48
0.0
 49
0.0
140
0.0
141
0.0
142
1.0
143
1.0
 70
  1712
 72
     0
 73
     0
 74
     0
  7

 75
     0
 76
     0
 77
     2
 78
   300
147
1.0
148
0.0
149
0.0
100
AcDbLayout
  1
Model
 70
     1
 71
     0
 10
-0.5
 20
-0.5
 11
5.0
 21
5.0
 12
0.0
 22
0.0
 32
0.0
 14
-0.5
 24
-0.5
 34
-0.5
 15
5.0
 25
5.0
 35
5.0
146
0.0
 13
0.0
 23
0.0
 33
0.0
 16
1.0
 26
0.0
 36
0.0
 17
0.0
 27
1.0
 37
0.0
 76
     0
330
1F
331
29
  0
MATERIAL
  5
45
102
{ACAD_REACTORS
330
43
102
}
102
{ACAD_XDICTIONARY
360
498
102
}
330
43
100
AcDbMaterial
  1
ByBlock
  0
MATERIAL
  5
44
102
{ACAD_REACTORS
330
43
102
}
102
{ACAD_XDICTIONARY
360
496
102
}
330
43
100
AcDbMaterial
  1
ByLayer
  0
MATERIAL
  5
46
102
{ACAD_REACTORS
330
43
102
}
102
{ACAD_XDICTIONARY
360
49A
102
}
330
43
100
AcDbMaterial
  1
Global
  0
MLEADERSTYLE
  5
6C
102
{ACAD_REACTORS
330
6B
102
}
102
{ACAD_XDICTIONARY
360
4A0
102
}
330
6B
100
AcDbMLeaderStyle
170
     2
171
     1
172
     0
 90
        2
 40
0.0
 41
0.0
173
     1
 91
-1056964608
340
14
 92
       -2
290
     1
 42
0.09
291
     1
 43
0.36
  3
Standard
341
0
 44
0.18
300

342
11
174
     1
178
     6
175
     1
176
     0
 93
-1056964608
 45
0.18
292
     0
297
     0
 46
0.18
343
0
 94
-1056964608
 47
1.0
 49
1.0
140
1.0
293
     1
141
0.0
294
     1
177
     0
142
1.0
295
     0
296
     0
143
0.125
1001
ACAD_MLEADERVER
1070
     2
  0
MLINESTYLE
  5
18
102
{ACAD_REACTORS
330
17
102
}
330
17
100
AcDbMlineStyle
  2
Standard
 70
     0
  3

 62
   256
 51
90.0
 52
90.0
 71
     2
 49
0.5
 62
   256
  6
BYLAYER
 49
-0.5
 62
   256
  6
BYLAYER
  0
ACDBPLACEHOLDER
  5
F
102
{ACAD_REACTORS
330
E
102
}
330
E
  0
SCALE
  5
48
102
{ACAD_REACTORS
330
47
102
}
330
47
100
AcDbScale
 70
     0
300
1:1
140
1.0
141
1.0
290
     1
  0
SCALE
  5
49
102
{ACAD_REACTORS
330
47
102
}
330
47
100
AcDbScale
 70
     0
300
1:2
140
1.0
141
2.0
290
     0
  0
SCALE
  5
4A
102
{ACAD_REACTORS
330
47
102
}
330
47
100
AcDbScale
 70
     0
300
1:4
140
1.0
141
4.0
290
     0
  0
SCALE
  5
4B
102
{ACAD_REACTORS
330
47
102
}
330
47
100
AcDbScale
 70
     0
300
1:5
140
1.0
141
5.0
290
     0
  0
SCALE
  5
4C
102
{ACAD_REACTORS
330
47
102
}
330
47
100
AcDbScale
 70
     0
300
1:8
140
1.0
141
8.0
290
     0
  0
SCALE
  5
4D
102
{ACAD_REACTORS
330
47
102
}
330
47
100
AcDbScale
 70
     0
300
1:10
140
1.0
141
10.0
290
     0
  0
SCALE
  5
4E
102
{ACAD_REACTORS
330
47
102
}
330
47
100
AcDbScale
 70
     0
300
1:16
140
1.0
141
16.0
290
     0
  0
SCALE
  5
4F
102
{ACAD_REACTORS
330
47
102
}
330
47
100
AcDbScale
 70
     0
300
1:20
140
1.0
141
20.0
290
     0
  0
SCALE
  5
50
102
{ACAD_REACTORS
330
47
102
}
330
47
100
AcDbScale
 70
     0
300
1:30
140
1.0
141
30.0
290
     0
  0
SCALE
  5
51
102
{ACAD_REACTORS
330
47
102
}
330
47
100
AcDbScale
 70
     0
300
1:40
140
1.0
141
40.0
290
     0
  0
SCALE
  5
52
102
{ACAD_REACTORS
330
47
102
}
330
47
100
AcDbScale
 70
     0
300
1:50
140
1.0
141
50.0
290
     0
  0
SCALE
  5
53
102
{ACAD_REACTORS
330
47
102
}
330
47
100
AcDbScale
 70
     0
300
1:100
140
1.0
141
100.0
290
     0
  0
SCALE
  5
54
102
{ACAD_REACTORS
330
47
102
}
330
47
100
AcDbScale
 70
     0
300
2:1
140
2.0
141
1.0
290
     0
  0
SCALE
  5
55
102
{ACAD_REACTORS
330
47
102
}
330
47
100
AcDbScale
 70
     0
300
4:1
140
4.0
141
1.0
290
     0
  0
SCALE
  5
56
102
{ACAD_REACTORS
330
47
102
}
330
47
100
AcDbScale
 70
     0
300
8:1
140
8.0
141
1.0
290
     0
  0
SCALE
  5
57
102
{ACAD_REACTORS
330
47
102
}
330
47
100
AcDbScale
 70
     0
300
10:1
140
10.0
141
1.0
290
     0
  0
SCALE
  5
58
102
{ACAD_REACTORS
330
47
102
}
330
47
100
AcDbScale
 70
     0
300
100:1
140
100.0
141
1.0
290
     0
  0
SCALE
  5
59
102
{ACAD_REACTORS
330
47
102
}
330
47
100
AcDbScale
 70
     0
300
1/128" = 1'-0"
140
0.007812
141
12.0
290
     0
  0
SCALE
  5
5A
102
{ACAD_REACTORS
330
47
102
}
330
47
100
AcDbScale
 70
     0
300
1/64" = 1'-0"
140
0.015625
141
12.0
290
     0
  0
SCALE
  5
5B
102
{ACAD_REACTORS
330
47
102
}
330
47
100
AcDbScale
 70
     0
300
1/32" = 1'-0"
140
0.03125
141
12.0
290
     0
  0
SCALE
  5
5C
102
{ACAD_REACTORS
330
47
102
}
330
47
100
AcDbScale
 70
     0
300
1/16" = 1'-0"
140
0.0625
141
12.0
290
     0
  0
SCALE
  5
5D
102
{ACAD_REACTORS
330
47
102
}
330
47
100
AcDbScale
 70
     0
300
3/32" = 1'-0"
140
0.09375
141
12.0
290
     0
  0
SCALE
  5
5E
102
{ACAD_REACTORS
330
47
102
}
330
47
100
AcDbScale
 70
     0
300
1/8" = 1'-0"
140
0.125
141
12.0
290
     0
  0
SCALE
  5
5F
102
{ACAD_REACTORS
330
47
102
}
330
47
100
AcDbScale
 70
     0
300
3/16" = 1'-0"
140
0.1875
141
12.0
290
     0
  0
SCALE
  5
60
102
{ACAD_REACTORS
330
47
102
}
330
47
100
AcDbScale
 70
     0
300
1/4" = 1'-0"
140
0.25
141
12.0
290
     0
  0
SCALE
  5
61
102
{ACAD_REACTORS
330
47
102
}
330
47
100
AcDbScale
 70
     0
300
3/8" = 1'-0"
140
0.375
141
12.0
290
     0
  0
SCALE
  5
62
102
{ACAD_REACTORS
330
47
102
}
330
47
100
AcDbScale
 70
     0
300
1/2" = 1'-0"
140
0.5
141
12.0
290
     0
  0
SCALE
  5
63
102
{ACAD_REACTORS
330
47
102
}
330
47
100
AcDbScale
 70
     0
300
3/4" = 1'-0"
140
0.75
141
12.0
290
     0
  0
SCALE
  5
64
102
{ACAD_REACTORS
330
47
102
}
330
47
100
AcDbScale
 70
     0
300
1" = 1'-0"
140
1.0
141
12.0
290
     0
  0
SCALE
  5
65
102
{ACAD_REACTORS
330
47
102
}
330
47
100
AcDbScale
 70
     0
300
1-1/2" = 1'-0"
140
1.5
141
12.0
290
     0
  0
SCALE
  5
66
102
{ACAD_REACTORS
330
47
102
}
330
47
100
AcDbScale
 70
     0
300
3" = 1'-0"
140
3.0
141
12.0
290
     0
  0
SCALE
  5
67
102
{ACAD_REACTORS
330
47
102
}
330
47
100
AcDbScale
 70
     0
300
6" = 1'-0"
140
6.0
141
12.0
290
     0
  0
SCALE
  5
68
102
{ACAD_REACTORS
330
47
102
}
330
47
100
AcDbScale
 70
     0
300
1'-0" = 1'-0"
140
12.0
141
12.0
290
     0
  0
TABLESTYLE
  5
6A
102
{ACAD_REACTORS
330
69
102
}
102
{ACAD_XDICTIONARY
360
49C
102
}
330
69
100
AcDbTableStyle
  3
Standard
 70
     0
 71
     0
 40
0.06
 41
0.06
280
     0
281
     0
  7
Standard
140
0.18
170
     2
 62
     0
 63
   257
283
     0
274
    -2
284
     1
 64
     0
275
    -2
285
     1
 65
     0
276
    -2
286
     1
 66
     0
277
    -2
287
     1
 67
     0
278
    -2
288
     1
 68
     0
279
    -2
289
     1
 69
     0
  7
Standard
140
0.25
170
     5
 62
     0
 63
   257
283
     0
274
    -2
284
     1
 64
     0
275
    -2
285
     1
 65
     0
276
    -2
286
     1
 66
     0
277
    -2
287
     1
 67
     0
278
    -2
288
     1
 68
     0
279
    -2
289
     1
 69
     0
  7
Standard
140
0.18
170
     5
 62
     0
 63
   257
283
     0
274
    -2
284
     1
 64
     0
275
    -2
285
     1
 65
     0
276
    -2
286
     1
 66
     0
277
    -2
287
     1
 67
     0
278
    -2
288
     1
 68
     0
279
    -2
289
     1
 69
     0
  0
VISUALSTYLE
  5
2F
102
{ACAD_REACTORS
330
2A
102
}
102
{ACAD_XDICTIONARY
360
46E
102
}
330
2A
100
AcDbVisualStyle
  2
2dWireframe
 70
     4
 71
     0
 72
     2
 73
     0
 90
        0
 40
0.6
 41
30.0
 62
     5
 63
     7
421
 16777215
 74
     1
 91
        4
 64
     7
 65
   257
 75
     1
175
     1
 42
1.0
 92
        0
 66
   257
 43
1.0
 76
     1
 77
     6
 78
     2
 67
     7
 79
     5
170
     0
171
     0
290
     0
174
     0
 93
        1
 44
0.0
173
     0
291
     0
 45
0.0
1001
ACAD
1000
AcDbSavedByObjectVersion
1070
     0
  0
VISUALSTYLE
  5
32
102
{ACAD_REACTORS
330
2A
102
}
102
{ACAD_XDICTIONARY
360
474
102
}
330
2A
100
AcDbVisualStyle
  2
Basic
 70
     7
 71
     1
 72
     0
 73
     1
 90
        0
 40
0.6
 41
30.0
 62
     5
 63
     7
421
 16777215
 74
     0
 91
        4
 64
     7
 65
   257
 75
     1
175
     1
 42
1.0
 92
        8
 66
     7
 43
1.0
 76
     1
 77
     6
 78
     2
 67
     7
 79
     5
170
     0
171
     0
290
     0
174
     0
 93
        1
 44
0.0
173
     0
291
     1
 45
0.0
1001
ACAD
1000
AcDbSavedByObjectVersion
1070
     0
  0
VISUALSTYLE
  5
36
102
{ACAD_REACTORS
330
2A
102
}
102
{ACAD_XDICTIONARY
360
47C
102
}
330
2A
100
AcDbVisualStyle
  2
Brighten
 70
    12
 71
     2
 72
     2
 73
     0
 90
        0
 40
0.6
 41
30.0
 62
     5
 63
     7
421
 16777215
 74
     1
 91
        4
 64
     7
 65
   257
 75
     1
175
     1
 42
1.0
 92
        8
 66
     7
 43
1.0
 76
     1
 77
     6
 78
     2
 67
     7
 79
     5
170
     0
171
     0
290
     0
174
     0
 93
        1
 44
50.0
173
     0
291
     1
 45
0.0
1001
ACAD
1000
AcDbSavedByObjectVersion
1070
     0
  0
VISUALSTYLE
  5
3A
102
{ACAD_REACTORS
330
2A
102
}
102
{ACAD_XDICTIONARY
360
484
102
}
330
2A
100
AcDbVisualStyle
  2
ColorChange
 70
    16
 71
     2
 72
     2
 73
     3
 90
        0
 40
0.6
 41
30.0
 62
     5
 63
     8
421
  8421504
 74
     1
 91
        4
 64
     7
 65
   257
 75
     1
175
     1
 42
1.0
 92
        8
 66
     8
424
  8421504
 43
1.0
 76
     1
 77
     6
 78
     2
 67
     7
 79
     5
170
     0
171
     0
290
     0
174
     0
 93
        1
 44
0.0
173
     0
291
     1
 45
0.0
1001
ACAD
1000
AcDbSavedByObjectVersion
1070
     0
  0
VISUALSTYLE
  5
34
102
{ACAD_REACTORS
330
2A
102
}
102
{ACAD_XDICTIONARY
360
478
102
}
330
2A
100
AcDbVisualStyle
  2
Conceptual
 70
     9
 71
     3
 72
     2
 73
     0
 90
        0
 40
0.6
 41
30.0
 62
     5
 63
     7
421
 16777215
 74
     2
 91
        2
 64
     7
 65
   257
 75
     1
175
     1
 42
179.0
 92
        8
 66
     7
 43
1.0
 76
     1
 77
     6
 78
     2
 67
     7
 79
     3
170
     0
171
     0
290
     0
174
     0
 93
        1
 44
0.0
173
     0
291
     0
 45
0.0
1001
ACAD
1000
AcDbSavedByObjectVersion
1070
     0
  0
VISUALSTYLE
  5
35
102
{ACAD_REACTORS
330
2A
102
}
102
{ACAD_XDICTIONARY
360
47A
102
}
330
2A
100
AcDbVisualStyle
  2
Dim
 70
    11
 71
     2
 72
     2
 73
     0
 90
        0
 40
0.6
 41
30.0
 62
     5
 63
     7
421
 16777215
 74
     1
 91
        4
 64
     7
 65
   257
 75
     1
175
     1
 42
1.0
 92
        8
 66
     7
 43
1.0
 76
     1
 77
     6
 78
     2
 67
     7
 79
     5
170
     0
171
     0
290
     0
174
     0
 93
        1
 44
-50.0
173
     0
291
     1
 45
0.0
1001
ACAD
1000
AcDbSavedByObjectVersion
1070
     0
  0
VISUALSTYLE
  5
3D
102
{ACAD_REACTORS
330
2A
102
}
102
{ACAD_XDICTIONARY
360
48A
102
}
330
2A
100
AcDbVisualStyle
  2
EdgeColorOff
 70
    22
 71
     2
 72
     2
 73
     0
 90
        0
 40
0.6
 41
30.0
 62
     5
 63
     7
421
 16777215
 74
     1
 91
        4
 64
     7
 65
   257
 75
     1
175
     1
 42
1.0
 92
        8
 66
     7
 43
1.0
 76
     1
 77
     6
 78
     2
 67
     7
 79
     5
170
     0
171
     0
290
     0
174
     0
 93
        1
 44
0.0
173
     0
291
     1
 45
0.0
1001
ACAD
1000
AcDbSavedByObjectVersion
1070
     0
  0
VISUALSTYLE
  5
39
102
{ACAD_REACTORS
330
2A
102
}
102
{ACAD_XDICTIONARY
360
482
102
}
330
2A
100
AcDbVisualStyle
  2
Facepattern
 70
    15
 71
     2
 72
     2
 73
     0
 90
        0
 40
0.6
 41
30.0
 62
     5
 63
     7
421
 16777215
 74
     1
 91
        4
 64
     7
 65
   257
 75
     1
175
     1
 42
1.0
 92
        8
 66
     7
 43
1.0
 76
     1
 77
     6
 78
     2
 67
     7
 79
     5
170
     0
171
     0
290
     0
174
     0
 93
        1
 44
0.0
173
     0
291
     1
 45
0.0
1001
ACAD
1000
AcDbSavedByObjectVersion
1070
     0
  0
VISUALSTYLE
  5
2B
102
{ACAD_REACTORS
330
2A
102
}
102
{ACAD_XDICTIONARY
360
466
102
}
330
2A
100
AcDbVisualStyle
  2
Flat
 70
     0
 71
     2
 72
     1
 73
     1
 90
        2
 40
0.6
 41
30.0
 62
     5
 63
     7
421
 16777215
 74
     0
 91
        0
 64
     7
 65
   257
 75
     1
175
     1
 42
1.0
 92
        8
 66
     7
 43
1.0
 76
     1
 77
     6
 78
     2
 67
     7
 79
     5
170
     0
171
     0
290
     0
174
     0
 93
       13
 44
0.0
173
     0
291
     1
 45
0.0
1001
ACAD
1000
AcDbSavedByObjectVersion
1070
     0
  0
VISUALSTYLE
  5
2C
102
{ACAD_REACTORS
330
2A
102
}
102
{ACAD_XDICTIONARY
360
468
102
}
330
2A
100
AcDbVisualStyle
  2
FlatWithEdges
 70
     1
 71
     2
 72
     1
 73
     1
 90
        2
 40
0.6
 41
30.0
 62
     5
 63
     7
421
 16777215
 74
     1
 91
        0
 64
     7
 65
   257
 75
     1
175
     1
 42
1.0
 92
        0
 66
   257
 43
1.0
 76
     1
 77
     6
 78
     2
 67
     7
 79
     5
170
     0
171
     0
290
     0
174
     0
 93
       13
 44
0.0
173
     0
291
     1
 45
0.0
1001
ACAD
1000
AcDbSavedByObjectVersion
1070
     0
  0
VISUALSTYLE
  5
2D
102
{ACAD_REACTORS
330
2A
102
}
102
{ACAD_XDICTIONARY
360
46A
102
}
330
2A
100
AcDbVisualStyle
  2
Gouraud
 70
     2
 71
     2
 72
     2
 73
     1
 90
        2
 40
0.6
 41
30.0
 62
     5
 63
     7
421
 16777215
 74
     0
 91
        0
 64
     7
 65
   257
 75
     1
175
     1
 42
1.0
 92
        0
 66
     7
 43
1.0
 76
     1
 77
     6
 78
     2
 67
     7
 79
     5
170
     0
171
     0
290
     0
174
     0
 93
       13
 44
0.0
173
     0
291
     1
 45
0.0
1001
ACAD
1000
AcDbSavedByObjectVersion
1070
     0
  0
VISUALSTYLE
  5
2E
102
{ACAD_REACTORS
330
2A
102
}
102
{ACAD_XDICTIONARY
360
46C
102
}
330
2A
100
AcDbVisualStyle
  2
GouraudWithEdges
 70
     3
 71
     2
 72
     2
 73
     1
 90
        2
 40
0.6
 41
30.0
 62
     5
 63
     7
421
 16777215
 74
     1
 91
        0
 64
     7
 65
   257
 75
     1
175
     1
 42
1.0
 92
        0
 66
   257
 43
1.0
 76
     1
 77
     6
 78
     2
 67
     7
 79
     5
170
     0
171
     0
290
     0
174
     0
 93
       13
 44
0.0
173
     0
291
     1
 45
0.0
1001
ACAD
1000
AcDbSavedByObjectVersion
1070
     0
  0
VISUALSTYLE
  5
31
102
{ACAD_REACTORS
330
2A
102
}
102
{ACAD_XDICTIONARY
360
472
102
}
330
2A
100
AcDbVisualStyle
  2
Hidden
 70
     6
 71
     1
 72
     2
 73
     2
 90
        0
 40
0.6
 41
30.0
 62
     5
 63
     7
421
 16777215
 74
     2
 91
        2
 64
     7
 65
   257
 75
     2
175
     1
 42
40.0
 92
        0
 66
   257
 43
1.0
 76
     1
 77
     6
 78
     2
 67
     7
 79
     3
170
     0
171
     0
290
     0
174
     0
 93
        1
 44
0.0
173
     0
291
     0
 45
0.0
1001
ACAD
1000
AcDbSavedByObjectVersion
1070
     0
  0
VISUALSTYLE
  5
3B
102
{ACAD_REACTORS
330
2A
102
}
102
{ACAD_XDICTIONARY
360
486
102
}
330
2A
100
AcDbVisualStyle
  2
JitterOff
 70
    20
 71
     2
 72
     2
 73
     0
 90
        0
 40
0.6
 41
30.0
 62
     5
 63
     7
421
 16777215
 74
     1
 91
        4
 64
     7
 65
   257
 75
     1
175
     1
 42
1.0
 92
       10
 66
     7
 43
1.0
 76
     1
 77
     6
 78
     2
 67
     7
 79
     5
170
     0
171
     0
290
     0
174
     0
 93
        1
 44
0.0
173
     0
291
     1
 45
0.0
1001
ACAD
1000
AcDbSavedByObjectVersion
1070
     0
  0
VISUALSTYLE
  5
38
102
{ACAD_REACTORS
330
2A
102
}
102
{ACAD_XDICTIONARY
360
480
102
}
330
2A
100
AcDbVisualStyle
  2
Linepattern
 70
    14
 71
     2
 72
     2
 73
     0
 90
        0
 40
0.6
 41
30.0
 62
     5
 63
     7
421
 16777215
 74
     1
 91
        4
 64
     7
 65
   257
 75
     7
175
     7
 42
1.0
 92
        8
 66
     7
 43
1.0
 76
     1
 77
     6
 78
     2
 67
     7
 79
     5
170
     0
171
     0
290
     0
174
     0
 93
        1
 44
0.0
173
     0
291
     1
 45
0.0
1001
ACAD
1000
AcDbSavedByObjectVersion
1070
     0
  0
VISUALSTYLE
  5
3C
102
{ACAD_REACTORS
330
2A
102
}
102
{ACAD_XDICTIONARY
360
488
102
}
330
2A
100
AcDbVisualStyle
  2
OverhangOff
 70
    21
 71
     2
 72
     2
 73
     0
 90
        0
 40
0.6
 41
30.0
 62
     5
 63
     7
421
 16777215
 74
     1
 91
        4
 64
     7
 65
   257
 75
     1
175
     1
 42
1.0
 92
        9
 66
     7
 43
1.0
 76
     1
 77
     6
 78
     2
 67
     7
 79
     5
170
     0
171
     0
290
     0
174
     0
 93
        1
 44
0.0
173
     0
291
     1
 45
0.0
1001
ACAD
1000
AcDbSavedByObjectVersion
1070
     0
  0
VISUALSTYLE
  5
33
102
{ACAD_REACTORS
330
2A
102
}
102
{ACAD_XDICTIONARY
360
476
102
}
330
2A
100
AcDbVisualStyle
  2
Realistic
 70
     8
 71
     2
 72
     3
 73
     0
 90
        2
 40
0.6
 41
30.0
 62
     5
 63
     7
421
 16777215
 74
     0
 91
        0
 64
     7
 65
   257
 75
     1
175
     1
 42
1.0
 92
        8
 66
   257
 43
1.0
 76
     1
 77
     6
 78
     2
 67
     7
 79
     3
170
     0
171
     0
290
     0
174
     0
 93
       13
 44
0.0
173
     0
291
     0
 45
0.0
1001
ACAD
1000
AcDbSavedByObjectVersion
1070
     0
  0
VISUALSTYLE
  5
42
102
{ACAD_REACTORS
330
2A
102
}
102
{ACAD_XDICTIONARY
360
494
102
}
330
2A
100
AcDbVisualStyle
  2
Shaded
 70
    27
 71
     2
 72
     2
 73
     1
 90
        2
 40
0.6
 41
30.0
 62
     5
 63
     7
421
 16777215
 74
     0
 91
        4
 64
     7
 65
   257
 75
     1
175
     1
 42
1.0
 92
        8
 66
   257
 43
1.0
 76
     1
 77
     6
 78
     2
 67
     8
425
  7895160
 79
     3
170
     0
171
     0
290
     0
174
     0
 93
        5
 44
0.0
173
     0
291
     0
 45
0.0
1001
ACAD
1000
AcDbSavedByObjectVersion
1070
     0
  0
VISUALSTYLE
  5
41
102
{ACAD_REACTORS
330
2A
102
}
102
{ACAD_XDICTIONARY
360
492
102
}
330
2A
100
AcDbVisualStyle
  2
Shaded with edges
 70
    26
 71
     2
 72
     2
 73
     1
 90
        2
 40
0.6
 41
30.0
 62
     5
 63
     7
421
 16777215
 74
     1
 91
       10
 64
     7
 65
   257
 75
     2
175
     1
 42
1.0
 92
        8
 66
   257
 43
1.0
 76
     1
 77
     6
 78
     2
 67
     7
 79
     3
170
     0
171
     0
290
     0
174
     0
 93
        5
 44
0.0
173
     0
291
     0
 45
0.0
1001
ACAD
1000
AcDbSavedByObjectVersion
1070
     0
  0
VISUALSTYLE
  5
3E
102
{ACAD_REACTORS
330
2A
102
}
102
{ACAD_XDICTIONARY
360
48C
102
}
330
2A
100
AcDbVisualStyle
  2
Shades of Gray
 70
    23
 71
     2
 72
     2
 73
     3
 90
        0
 40
0.6
 41
30.0
 62
     5
 63
     7
421
 16777215
 74
     2
 91
        2
 64
     7
 65
     7
 75
     1
175
     1
 42
40.0
 92
        8
 66
     7
 43
1.0
 76
     1
 77
     6
 78
     2
 67
     7
 79
     3
170
     0
171
     0
290
     0
174
     0
 93
        1
 44
0.0
173
     0
291
     0
 45
0.0
1001
ACAD
1000
AcDbSavedByObjectVersion
1070
     0
  0
VISUALSTYLE
  5
3F
102
{ACAD_REACTORS
330
2A
102
}
102
{ACAD_XDICTIONARY
360
48E
102
}
330
2A
100
AcDbVisualStyle
  2
Sketchy
 70
    24
 71
     1
 72
     2
 73
     2
 90
        0
 40
0.6
 41
30.0
 62
     5
 63
     7
421
 16777215
 74
     2
 91
        2
 64
     7
 65
     7
 75
     1
175
     1
 42
40.0
 92
       11
 66
     7
 43
1.0
 76
     1
 77
     6
 78
     2
 67
     7
 79
     6
170
     0
171
     0
290
     0
174
     0
 93
        1
 44
0.0
173
     0
291
     0
 45
0.0
1001
ACAD
1000
AcDbSavedByObjectVersion
1070
     0
  0
VISUALSTYLE
  5
37
102
{ACAD_REACTORS
330
2A
102
}
102
{ACAD_XDICTIONARY
360
47E
102
}
330
2A
100
AcDbVisualStyle
  2
Thicken
 70
    13
 71
     2
 72
     2
 73
     0
 90
        0
 40
0.6
 41
30.0
 62
     5
 63
     7
421
 16777215
 74
     1
 91
        4
 64
     7
 65
   257
 75
     1
175
     1
 42
1.0
 92
       12
 66
     7
 43
1.0
 76
     1
 77
     6
 78
     2
 67
     7
 79
     5
170
     0
171
     0
290
     0
174
     0
 93
        1
 44
0.0
173
     0
291
     1
 45
0.0
1001
ACAD
1000
AcDbSavedByObjectVersion
1070
     0
  0
VISUALSTYLE
  5
30
102
{ACAD_REACTORS
330
2A
102
}
102
{ACAD_XDICTIONARY
360
470
102
}
330
2A
100
AcDbVisualStyle
  2
Wireframe
 70
     5
 71
     0
 72
     2
 73
     0
 90
        0
 40
0.6
 41
30.0
 62
     5
 63
     7
421
 16777215
 74
     1
 91
        4
 64
     7
 65
   257
 75
     1
175
     1
 42
1.0
 92
        0
 66
   257
 43
1.0
 76
     1
 77
     6
 78
     2
 67
     7
 79
     3
170
     0
171
     0
290
     0
174
     0
 93
        1
 44
0.0
173
     0
291
     0
 45
0.0
1001
ACAD
1000
AcDbSavedByObjectVersion
1070
     0
  0
VISUALSTYLE
  5
40
102
{ACAD_REACTORS
330
2A
102
}
102
{ACAD_XDICTIONARY
360
490
102
}
330
2A
100
AcDbVisualStyle
  2
X-Ray
 70
    25
 71
     2
 72
     2
 73
     1
 90
        1
 40
0.5
 41
30.0
 62
     5
 63
     7
421
 16777215
 74
     1
 91
        0
 64
     7
 65
   257
 75
     1
175
     1
 42
1.0
 92
        8
 66
     7
 43
1.0
 76
     1
 77
     6
 78
     2
 67
     7
 79
     3
170
     0
171
     0
290
     0
174
     0
 93
       13
 44
0.0
173
     0
291
     0
 45
0.0
1001
ACAD
1000
AcDbSavedByObjectVersion
1070
     0
  0
DICTIONARYVAR
  5
463
102
{ACAD_REACTORS
330
462
102
}
330
462
100
DictionaryVariables
280
     0
  1
1:1
  0
DICTIONARYVAR
  5
4A4
102
{ACAD_REACTORS
330
462
102
}
330
462
100
DictionaryVariables
280
     0
  1
Standard
  0
DICTIONARYVAR
  5
4A3
102
{ACAD_REACTORS
330
462
102
}
330
462
100
DictionaryVariables
280
     0
  1
Standard
  0
DICTIONARYVAR
  5
464
102
{ACAD_REACTORS
330
462
102
}
330
462
100
DictionaryVariables
280
     0
  1
1
  0
DICTIONARYVAR
  5
465
102
{ACAD_REACTORS
330
462
102
}
330
462
100
DictionaryVariables
280
     0
  1
2
  0
DICTIONARY
  5
498
330
45
100
AcDbDictionary
280
     1
281
     1
  3
ACAD_XREC_ROUNDTRIP
360
499
  0
DICTIONARY
  5
496
330
44
100
AcDbDictionary
280
     1
281
     1
  3
ACAD_XREC_ROUNDTRIP
360
497
  0
DICTIONARY
  5
49A
330
46
100
AcDbDictionary
280
     1
281
     1
  3
ACAD_XREC_ROUNDTRIP
360
49B
  0
DICTIONARY
  5
4A0
330
6C
100
AcDbDictionary
280
     1
281
     1
  3
ACAD_XREC_ROUNDTRIP
360
4A1
  0
DICTIONARY
  5
49C
330
6A
100
AcDbDictionary
280
     1
281
     1
  3
ACAD_ROUNDTRIP_2008_TABLESTYLE_CELLSTYLEMAP
360
49E
  3
ACAD_XREC_ROUNDTRIP
360
49D
  0
DICTIONARY
  5
46E
330
2F
100
AcDbDictionary
280
     1
281
     1
  3
ACAD_XREC_ROUNDTRIP
360
46F
  0
DICTIONARY
  5
474
330
32
100
AcDbDictionary
280
     1
281
     1
  3
ACAD_XREC_ROUNDTRIP
360
475
  0
DICTIONARY
  5
47C
330
36
100
AcDbDictionary
280
     1
281
     1
  3
ACAD_XREC_ROUNDTRIP
360
47D
  0
DICTIONARY
  5
484
330
3A
100
AcDbDictionary
280
     1
281
     1
  3
ACAD_XREC_ROUNDTRIP
360
485
  0
DICTIONARY
  5
478
330
34
100
AcDbDictionary
280
     1
281
     1
  3
ACAD_XREC_ROUNDTRIP
360
479
  0
DICTIONARY
  5
47A
330
35
100
AcDbDictionary
280
     1
281
     1
  3
ACAD_XREC_ROUNDTRIP
360
47B
  0
DICTIONARY
  5
48A
330
3D
100
AcDbDictionary
280
     1
281
     1
  3
ACAD_XREC_ROUNDTRIP
360
48B
  0
DICTIONARY
  5
482
330
39
100
AcDbDictionary
280
     1
281
     1
  3
ACAD_XREC_ROUNDTRIP
360
483
  0
DICTIONARY
  5
466
330
2B
100
AcDbDictionary
280
     1
281
     1
  3
ACAD_XREC_ROUNDTRIP
360
467
  0
DICTIONARY
  5
468
330
2C
100
AcDbDictionary
280
     1
281
     1
  3
ACAD_XREC_ROUNDTRIP
360
469
  0
DICTIONARY
  5
46A
330
2D
100
AcDbDictionary
280
     1
281
     1
  3
ACAD_XREC_ROUNDTRIP
360
46B
  0
DICTIONARY
  5
46C
330
2E
100
AcDbDictionary
280
     1
281
     1
  3
ACAD_XREC_ROUNDTRIP
360
46D
  0
DICTIONARY
  5
472
330
31
100
AcDbDictionary
280
     1
281
     1
  3
ACAD_XREC_ROUNDTRIP
360
473
  0
DICTIONARY
  5
486
330
3B
100
AcDbDictionary
280
     1
281
     1
  3
ACAD_XREC_ROUNDTRIP
360
487
  0
DICTIONARY
  5
480
330
38
100
AcDbDictionary
280
     1
281
     1
  3
ACAD_XREC_ROUNDTRIP
360
481
  0
DICTIONARY
  5
488
330
3C
100
AcDbDictionary
280
     1
281
     1
  3
ACAD_XREC_ROUNDTRIP
360
489
  0
DICTIONARY
  5
476
330
33
100
AcDbDictionary
280
     1
281
     1
  3
ACAD_XREC_ROUNDTRIP
360
477
  0
DICTIONARY
  5
494
330
42
100
AcDbDictionary
280
     1
281
     1
  3
ACAD_XREC_ROUNDTRIP
360
495
  0
DICTIONARY
  5
492
330
41
100
AcDbDictionary
280
     1
281
     1
  3
ACAD_XREC_ROUNDTRIP
360
493
  0
DICTIONARY
  5
48C
330
3E
100
AcDbDictionary
280
     1
281
     1
  3
ACAD_XREC_ROUNDTRIP
360
48D
  0
DICTIONARY
  5
48E
330
3F
100
AcDbDictionary
280
     1
281
     1
  3
ACAD_XREC_ROUNDTRIP
360
48F
  0
DICTIONARY
  5
47E
330
37
100
AcDbDictionary
280
     1
281
     1
  3
ACAD_XREC_ROUNDTRIP
360
47F
  0
DICTIONARY
  5
470
330
30
100
AcDbDictionary
280
     1
281
     1
  3
ACAD_XREC_ROUNDTRIP
360
471
  0
DICTIONARY
  5
490
330
40
100
AcDbDictionary
280
     1
281
     1
  3
ACAD_XREC_ROUNDTRIP
360
491
  0
XRECORD
  5
499
102
{ACAD_REACTORS
330
498
102
}
330
498
100
AcDbXrecord
280
     1
102
MATERIAL
148
0.0
149
0.0
149
0.0
 93
        0
 94
      127
282
     0
 72
     1
 77
     1
171
     1
175
     1
179
     1
273
     0
  0
XRECORD
  5
497
102
{ACAD_REACTORS
330
496
102
}
330
496
100
AcDbXrecord
280
     1
102
MATERIAL
148
0.0
149
0.0
149
0.0
 93
        0
 94
      127
282
     0
 72
     1
 77
     1
171
     1
175
     1
179
     1
273
     0
  0
XRECORD
  5
49B
102
{ACAD_REACTORS
330
49A
102
}
330
49A
100
AcDbXrecord
280
     1
102
MATERIAL
148
0.0
149
0.0
149
0.0
 93
        0
 94
      127
282
     0
 72
     1
 77
     1
171
     1
175
     1
179
     1
273
     0
  0
XRECORD
  5
4A1
102
{ACAD_REACTORS
330
4A0
102
}
330
4A0
100
AcDbXrecord
280
     1
102
ACAD_ROUNDTRIP_2010_MLEADER_STYLE
  0
CELLSTYLEMAP
  5
49E
102
{ACAD_REACTORS
330
49C
102
}
330
49C
100
AcDbCellStyleMap
 90
        3
300
CELLSTYLE
  1
TABLEFORMAT_BEGIN
 90
        5
170
     1
 91
        0
 92
    32768
 62
   257
 93
        1
300
CONTENTFORMAT
  1
CONTENTFORMAT_BEGIN
 90
        0
 91
        0
 92
        4
 93
        0
300

 40
0.0
140
1.0
 94
        5
 62
     0
340
11
144
0.25
309
CONTENTFORMAT_END
171
     1
301
MARGIN
  1
CELLMARGIN_BEGIN
 40
0.06
 40
0.06
 40
0.06
 40
0.06
 40
0.06
 40
0.06
309
CELLMARGIN_END
 94
        6
 95
        1
302
GRIDFORMAT
  1
GRIDFORMAT_BEGIN
 90
        0
 91
        1
 62
     0
 92
       -2
340
14
 93
        0
 40
0.045
309
GRIDFORMAT_END
 95
        2
302
GRIDFORMAT
  1
GRIDFORMAT_BEGIN
 90
        0
 91
        1
 62
     0
 92
       -2
340
14
 93
        0
 40
0.045
309
GRIDFORMAT_END
 95
        4
302
GRIDFORMAT
  1
GRIDFORMAT_BEGIN
 90
        0
 91
        1
 62
     0
 92
       -2
340
14
 93
        0
 40
0.045
309
GRIDFORMAT_END
 95
        8
302
GRIDFORMAT
  1
GRIDFORMAT_BEGIN
 90
        0
 91
        1
 62
     0
 92
       -2
340
14
 93
        0
 40
0.045
309
GRIDFORMAT_END
 95
       16
302
GRIDFORMAT
  1
GRIDFORMAT_BEGIN
 90
        0
 91
        1
 62
     0
 92
       -2
340
14
 93
        0
 40
0.045
309
GRIDFORMAT_END
 95
       32
302
GRIDFORMAT
  1
GRIDFORMAT_BEGIN
 90
        0
 91
        1
 62
     0
 92
       -2
340
14
 93
        0
 40
0.045
309
GRIDFORMAT_END
309
TABLEFORMAT_END
  1
CELLSTYLE_BEGIN
 90
        1
 91
        1
300
_TITLE
309
CELLSTYLE_END
300
CELLSTYLE
  1
TABLEFORMAT_BEGIN
 90
        5
170
     1
 91
        0
 92
        0
 62
   257
 93
        1
300
CONTENTFORMAT
  1
CONTENTFORMAT_BEGIN
 90
        0
 91
        0
 92
        4
 93
        0
300

 40
0.0
140
1.0
 94
        5
 62
     0
340
11
144
0.18
309
CONTENTFORMAT_END
171
     1
301
MARGIN
  1
CELLMARGIN_BEGIN
 40
0.06
 40
0.06
 40
0.06
 40
0.06
 40
0.06
 40
0.06
309
CELLMARGIN_END
 94
        6
 95
        1
302
GRIDFORMAT
  1
GRIDFORMAT_BEGIN
 90
        0
 91
        1
 62
     0
 92
       -2
340
14
 93
        0
 40
0.045
309
GRIDFORMAT_END
 95
        2
302
GRIDFORMAT
  1
GRIDFORMAT_BEGIN
 90
        0
 91
        1
 62
     0
 92
       -2
340
14
 93
        0
 40
0.045
309
GRIDFORMAT_END
 95
        4
302
GRIDFORMAT
  1
GRIDFORMAT_BEGIN
 90
        0
 91
        1
 62
     0
 92
       -2
340
14
 93
        0
 40
0.045
309
GRIDFORMAT_END
 95
        8
302
GRIDFORMAT
  1
GRIDFORMAT_BEGIN
 90
        0
 91
        1
 62
     0
 92
       -2
340
14
 93
        0
 40
0.045
309
GRIDFORMAT_END
 95
       16
302
GRIDFORMAT
  1
GRIDFORMAT_BEGIN
 90
        0
 91
        1
 62
     0
 92
       -2
340
14
 93
        0
 40
0.045
309
GRIDFORMAT_END
 95
       32
302
GRIDFORMAT
  1
GRIDFORMAT_BEGIN
 90
        0
 91
        1
 62
     0
 92
       -2
340
14
 93
        0
 40
0.045
309
GRIDFORMAT_END
309
TABLEFORMAT_END
  1
CELLSTYLE_BEGIN
 90
        2
 91
        1
300
_HEADER
309
CELLSTYLE_END
300
CELLSTYLE
  1
TABLEFORMAT_BEGIN
 90
        5
170
     1
 91
        0
 92
        0
 62
   257
 93
        1
300
CONTENTFORMAT
  1
CONTENTFORMAT_BEGIN
 90
        0
 91
        0
 92
        4
 93
        0
300

 40
0.0
140
1.0
 94
        2
 62
     0
340
11
144
0.18
309
CONTENTFORMAT_END
171
     1
301
MARGIN
  1
CELLMARGIN_BEGIN
 40
0.06
 40
0.06
 40
0.06
 40
0.06
 40
0.06
 40
0.06
309
CELLMARGIN_END
 94
        6
 95
        1
302
GRIDFORMAT
  1
GRIDFORMAT_BEGIN
 90
        0
 91
        1
 62
     0
 92
       -2
340
14
 93
        0
 40
0.045
309
GRIDFORMAT_END
 95
        2
302
GRIDFORMAT
  1
GRIDFORMAT_BEGIN
 90
        0
 91
        1
 62
     0
 92
       -2
340
14
 93
        0
 40
0.045
309
GRIDFORMAT_END
 95
        4
302
GRIDFORMAT
  1
GRIDFORMAT_BEGIN
 90
        0
 91
        1
 62
     0
 92
       -2
340
14
 93
        0
 40
0.045
309
GRIDFORMAT_END
 95
        8
302
GRIDFORMAT
  1
GRIDFORMAT_BEGIN
 90
        0
 91
        1
 62
     0
 92
       -2
340
14
 93
        0
 40
0.045
309
GRIDFORMAT_END
 95
       16
302
GRIDFORMAT
  1
GRIDFORMAT_BEGIN
 90
        0
 91
        1
 62
     0
 92
       -2
340
14
 93
        0
 40
0.045
309
GRIDFORMAT_END
 95
       32
302
GRIDFORMAT
  1
GRIDFORMAT_BEGIN
 90
        0
 91
        1
 62
     0
 92
       -2
340
14
 93
        0
 40
0.045
309
GRIDFORMAT_END
309
TABLEFORMAT_END
  1
CELLSTYLE_BEGIN
 90
        3
 91
        2
300
_DATA
309
CELLSTYLE_END
  0
XRECORD
  5
49D
102
{ACAD_REACTORS
330
49C
102
}
330
49C
100
AcDbXrecord
280
     1
102
ACAD_ROUNDTRIP_PRE2007_TABLESTYLE
 90
        4
 91
        0
  1

 92
        4
 93
        0
  2

 94
        4
 95
        0
  3

  0
XRECORD
  5
46F
102
{ACAD_REACTORS
330
46E
102
}
330
46E
100
AcDbXrecord
280
     1
102
RTVSPropertyOp0
 70
     1
102
RTVSPropertyOp1
 70
     1
102
RTVSPropertyOp2
 70
     1
102
RTVSPropertyOp3
 70
     1
102
RTVSPropertyOp4
 70
     1
102
RTVSPropertyOp5
 70
     1
102
RTVSPropertyOp6
 70
     1
102
RTVSPropertyOp7
 70
     1
102
RTVSPropertyOp8
 70
     1
102
RTVSPropertyOp9
 70
     1
102
RTVSPropertyOp10
 70
     1
102
RTVSPropertyOp11
 70
     1
102
RTVSPropertyOp12
 70
     1
102
RTVSPropertyOp13
 70
     1
102
RTVSPropertyOp14
 70
     1
102
RTVSPropertyOp15
 70
     1
102
RTVSPropertyOp16
 70
     1
102
RTVSPropertyOp17
 70
     1
102
RTVSPropertyOp18
 70
     1
102
RTVSPropertyOp19
 70
     1
102
RTVSPropertyOp20
 70
     1
102
RTVSPropertyOp21
 70
     1
102
RTVSPropertyOp22
 70
     1
102
RTVSPropertyOp23
 70
     1
102
RTVSPropertyOp24
 70
     1
102
RTVSPropertyOp25
 70
     1
102
RTVSPropertyOp26
 70
     1
102
RTVSPropertyOp27
 70
     1
102
RTVSPropertyOp28
 70
     1
102
RTVSPropertyOp29
 70
     1
102
RTVSPropertyOp30
 70
     1
102
RTVSPropertyOp31
 70
     1
102
RTVSPropertyOp32
 70
     1
102
RTVSPropertyOp33
 70
     1
102
RTVSPropertyOp34
 70
     1
102
RTVSPropertyOp35
 70
     1
102
RTVSPropertyOp36
 70
     1
102
RTVSPropertyOp37
 70
     1
102
RTVSPropertyOp38
 70
     1
102
RTVSPropertyOp39
 70
     1
102
RTVSPropertyOp40
 70
     1
102
RTVSPropertyOp41
 70
     1
102
RTVSPropertyOp42
 70
     1
102
RTVSPropertyOp43
 70
     1
102
RTVSPropertyOp44
 70
     1
102
RTVSPropertyOp45
 70
     1
102
RTVSPropertyOp46
 70
     1
102
RTVSPropertyOp47
 70
     1
102
RTVSPropertyOp48
 70
     1
102
RTVSPropertyOp49
 70
     1
102
RTVSPropertyOp50
 70
     1
102
RTVSPropertyOp51
 70
     0
102
RTVSPropertyOp52
 70
     0
102
RTVSPropertyOp53
 70
     1
102
RTVSPropertyOp54
 70
     1
102
RTVSPropertyOp55
 70
     1
102
RTVSPropertyOp56
 70
     1
102
RTVSPropertyOp57
 70
     1
102
RTVSPost2010Prop28
280
     1
102
RTVSPost2010PropOp28
 70
     1
102
RTVSPost2010Prop29
280
     1
102
RTVSPost2010PropOp29
 70
     1
102
RTVSPost2010Prop30
280
     0
102
RTVSPost2010PropOp30
 70
     1
102
RTVSPost2010Prop31
280
     0
102
RTVSPost2010PropOp31
 70
     1
102
RTVSPost2010Prop32
280
     0
102
RTVSPost2010PropOp32
 70
     1
102
RTVSPost2010Prop33
280
     0
102
RTVSPost2010PropOp33
 70
     1
102
RTVSPost2010Prop34
280
     0
102
RTVSPost2010PropOp34
 70
     1
102
RTVSPost2010Prop35
280
     0
102
RTVSPost2010PropOp35
 70
     1
102
RTVSPost2010Prop36
280
     0
102
RTVSPost2010PropOp36
 70
     1
102
RTVSPost2010Prop37
 90
       50
102
RTVSPost2010PropOp37
 70
     1
102
RTVSPost2010Prop38
140
0.0
102
RTVSPost2010PropOp38
 70
     1
102
RTVSPost2010Prop39
140
1.0
102
RTVSPost2010PropOp39
 70
     1
102
RTVSPost2010Prop40
 90
        0
102
RTVSPost2010PropOp40
 70
     1
102
RTVSPost2010Prop41ColorIndex
 90
       18
102
RTVSPost2010Prop41ColorRGB
 90
        0
102
RTVSPost2010PropOp41
 70
     1
102
RTVSPost2010Prop42
 90
       50
102
RTVSPost2010PropOp42
 70
     1
102
RTVSPost2010Prop43
 90
        3
102
RTVSPost2010PropOp43
 70
     1
102
RTVSPost2010Prop44ColorIndex
 90
        5
102
RTVSPost2010Prop44ColorRGB
 90
      255
102
RTVSPost2010PropOp44
 70
     1
102
RTVSPost2010Prop45
280
     0
102
RTVSPost2010PropOp45
 70
     1
102
RTVSPost2010Prop46
 90
       50
102
RTVSPost2010PropOp46
 70
     1
102
RTVSPost2010Prop47
 90
       50
102
RTVSPost2010PropOp47
 70
     1
102
RTVSPost2010Prop48
 90
       50
102
RTVSPost2010PropOp48
 70
     1
102
RTVSPost2010Prop49
280
     0
102
RTVSPost2010PropOp49
 70
     1
102
RTVSPost2010Prop50
 90
       50
102
RTVSPost2010PropOp50
 70
     1
102
RTVSPost2010Prop51ColorIndex
 90
      256
102
RTVSPost2010Prop51ColorRGB
 90
-16777216
102
RTVSPost2010PropOp51
 70
     0
102
RTVSPost2010Prop52
140
1.0
102
RTVSPost2010PropOp52
 70
     0
102
RTVSPost2010Prop53
 90
        2
102
RTVSPost2010PropOp53
 70
     1
102
RTVSPost2010Prop54
  1
strokes_ogs.tif
102
RTVSPost2010PropOp54
 70
     1
102
RTVSPost2010Prop55
280
     0
102
RTVSPost2010PropOp55
 70
     1
102
RTVSPost2010Prop56
140
1.0
102
RTVSPost2010PropOp56
 70
     1
102
RTVSPost2010Prop57
140
1.0
102
RTVSPost2010PropOp57
 70
     1
  0
XRECORD
  5
475
102
{ACAD_REACTORS
330
474
102
}
330
474
100
AcDbXrecord
280
     1
102
RTVSPropertyOp0
 70
     1
102
RTVSPropertyOp1
 70
     1
102
RTVSPropertyOp2
 70
     1
102
RTVSPropertyOp3
 70
     1
102
RTVSPropertyOp4
 70
     1
102
RTVSPropertyOp5
 70
     1
102
RTVSPropertyOp6
 70
     1
102
RTVSPropertyOp7
 70
     1
102
RTVSPropertyOp8
 70
     1
102
RTVSPropertyOp9
 70
     1
102
RTVSPropertyOp10
 70
     1
102
RTVSPropertyOp11
 70
     1
102
RTVSPropertyOp12
 70
     1
102
RTVSPropertyOp13
 70
     1
102
RTVSPropertyOp14
 70
     1
102
RTVSPropertyOp15
 70
     1
102
RTVSPropertyOp16
 70
     1
102
RTVSPropertyOp17
 70
     1
102
RTVSPropertyOp18
 70
     1
102
RTVSPropertyOp19
 70
     1
102
RTVSPropertyOp20
 70
     1
102
RTVSPropertyOp21
 70
     1
102
RTVSPropertyOp22
 70
     1
102
RTVSPropertyOp23
 70
     1
102
RTVSPropertyOp24
 70
     1
102
RTVSPropertyOp25
 70
     1
102
RTVSPropertyOp26
 70
     1
102
RTVSPropertyOp27
 70
     1
102
RTVSPropertyOp28
 70
     1
102
RTVSPropertyOp29
 70
     1
102
RTVSPropertyOp30
 70
     1
102
RTVSPropertyOp31
 70
     1
102
RTVSPropertyOp32
 70
     1
102
RTVSPropertyOp33
 70
     1
102
RTVSPropertyOp34
 70
     1
102
RTVSPropertyOp35
 70
     1
102
RTVSPropertyOp36
 70
     1
102
RTVSPropertyOp37
 70
     1
102
RTVSPropertyOp38
 70
     1
102
RTVSPropertyOp39
 70
     1
102
RTVSPropertyOp40
 70
     1
102
RTVSPropertyOp41
 70
     1
102
RTVSPropertyOp42
 70
     1
102
RTVSPropertyOp43
 70
     1
102
RTVSPropertyOp44
 70
     1
102
RTVSPropertyOp45
 70
     1
102
RTVSPropertyOp46
 70
     1
102
RTVSPropertyOp47
 70
     1
102
RTVSPropertyOp48
 70
     1
102
RTVSPropertyOp49
 70
     1
102
RTVSPropertyOp50
 70
     1
102
RTVSPropertyOp51
 70
     0
102
RTVSPropertyOp52
 70
     0
102
RTVSPropertyOp53
 70
     1
102
RTVSPropertyOp54
 70
     1
102
RTVSPropertyOp55
 70
     1
102
RTVSPropertyOp56
 70
     1
102
RTVSPropertyOp57
 70
     1
102
RTVSPost2010Prop28
280
     0
102
RTVSPost2010PropOp28
 70
     1
102
RTVSPost2010Prop29
280
     1
102
RTVSPost2010PropOp29
 70
     1
102
RTVSPost2010Prop30
280
     1
102
RTVSPost2010PropOp30
 70
     1
102
RTVSPost2010Prop31
280
     0
102
RTVSPost2010PropOp31
 70
     1
102
RTVSPost2010Prop32
280
     0
102
RTVSPost2010PropOp32
 70
     1
102
RTVSPost2010Prop33
280
     0
102
RTVSPost2010PropOp33
 70
     1
102
RTVSPost2010Prop34
280
     0
102
RTVSPost2010PropOp34
 70
     1
102
RTVSPost2010Prop35
280
     0
102
RTVSPost2010PropOp35
 70
     1
102
RTVSPost2010Prop36
280
     0
102
RTVSPost2010PropOp36
 70
     1
102
RTVSPost2010Prop37
 90
       50
102
RTVSPost2010PropOp37
 70
     1
102
RTVSPost2010Prop38
140
0.0
102
RTVSPost2010PropOp38
 70
     1
102
RTVSPost2010Prop39
140
1.0
102
RTVSPost2010PropOp39
 70
     1
102
RTVSPost2010Prop40
 90
        0
102
RTVSPost2010PropOp40
 70
     1
102
RTVSPost2010Prop41ColorIndex
 90
       18
102
RTVSPost2010Prop41ColorRGB
 90
        0
102
RTVSPost2010PropOp41
 70
     1
102
RTVSPost2010Prop42
 90
       50
102
RTVSPost2010PropOp42
 70
     1
102
RTVSPost2010Prop43
 90
        3
102
RTVSPost2010PropOp43
 70
     1
102
RTVSPost2010Prop44ColorIndex
 90
        5
102
RTVSPost2010Prop44ColorRGB
 90
      255
102
RTVSPost2010PropOp44
 70
     1
102
RTVSPost2010Prop45
280
     0
102
RTVSPost2010PropOp45
 70
     1
102
RTVSPost2010Prop46
 90
       50
102
RTVSPost2010PropOp46
 70
     1
102
RTVSPost2010Prop47
 90
       50
102
RTVSPost2010PropOp47
 70
     1
102
RTVSPost2010Prop48
 90
       50
102
RTVSPost2010PropOp48
 70
     1
102
RTVSPost2010Prop49
280
     0
102
RTVSPost2010PropOp49
 70
     1
102
RTVSPost2010Prop50
 90
       50
102
RTVSPost2010PropOp50
 70
     1
102
RTVSPost2010Prop51ColorIndex
 90
      256
102
RTVSPost2010Prop51ColorRGB
 90
-16777216
102
RTVSPost2010PropOp51
 70
     0
102
RTVSPost2010Prop52
140
1.0
102
RTVSPost2010PropOp52
 70
     0
102
RTVSPost2010Prop53
 90
        2
102
RTVSPost2010PropOp53
 70
     1
102
RTVSPost2010Prop54
  1
strokes_ogs.tif
102
RTVSPost2010PropOp54
 70
     1
102
RTVSPost2010Prop55
280
     0
102
RTVSPost2010PropOp55
 70
     1
102
RTVSPost2010Prop56
140
1.0
102
RTVSPost2010PropOp56
 70
     1
102
RTVSPost2010Prop57
140
1.0
102
RTVSPost2010PropOp57
 70
     1
  0
XRECORD
  5
47D
102
{ACAD_REACTORS
330
47C
102
}
330
47C
100
AcDbXrecord
280
     1
102
RTVSPropertyOp0
 70
     1
102
RTVSPropertyOp1
 70
     1
102
RTVSPropertyOp2
 70
     1
102
RTVSPropertyOp3
 70
     1
102
RTVSPropertyOp4
 70
     1
102
RTVSPropertyOp5
 70
     1
102
RTVSPropertyOp6
 70
     1
102
RTVSPropertyOp7
 70
     1
102
RTVSPropertyOp8
 70
     1
102
RTVSPropertyOp9
 70
     1
102
RTVSPropertyOp10
 70
     1
102
RTVSPropertyOp11
 70
     1
102
RTVSPropertyOp12
 70
     1
102
RTVSPropertyOp13
 70
     1
102
RTVSPropertyOp14
 70
     1
102
RTVSPropertyOp15
 70
     1
102
RTVSPropertyOp16
 70
     1
102
RTVSPropertyOp17
 70
     1
102
RTVSPropertyOp18
 70
     1
102
RTVSPropertyOp19
 70
     1
102
RTVSPropertyOp20
 70
     1
102
RTVSPropertyOp21
 70
     1
102
RTVSPropertyOp22
 70
     1
102
RTVSPropertyOp23
 70
     1
102
RTVSPropertyOp24
 70
     1
102
RTVSPropertyOp25
 70
     1
102
RTVSPropertyOp26
 70
     1
102
RTVSPropertyOp27
 70
     1
102
RTVSPropertyOp28
 70
     1
102
RTVSPropertyOp29
 70
     1
102
RTVSPropertyOp30
 70
     1
102
RTVSPropertyOp31
 70
     1
102
RTVSPropertyOp32
 70
     1
102
RTVSPropertyOp33
 70
     1
102
RTVSPropertyOp34
 70
     1
102
RTVSPropertyOp35
 70
     1
102
RTVSPropertyOp36
 70
     1
102
RTVSPropertyOp37
 70
     1
102
RTVSPropertyOp38
 70
     1
102
RTVSPropertyOp39
 70
     1
102
RTVSPropertyOp40
 70
     1
102
RTVSPropertyOp41
 70
     1
102
RTVSPropertyOp42
 70
     1
102
RTVSPropertyOp43
 70
     1
102
RTVSPropertyOp44
 70
     1
102
RTVSPropertyOp45
 70
     1
102
RTVSPropertyOp46
 70
     1
102
RTVSPropertyOp47
 70
     1
102
RTVSPropertyOp48
 70
     1
102
RTVSPropertyOp49
 70
     1
102
RTVSPropertyOp50
 70
     1
102
RTVSPropertyOp51
 70
     0
102
RTVSPropertyOp52
 70
     0
102
RTVSPropertyOp53
 70
     1
102
RTVSPropertyOp54
 70
     1
102
RTVSPropertyOp55
 70
     1
102
RTVSPropertyOp56
 70
     1
102
RTVSPropertyOp57
 70
     1
102
RTVSPost2010Prop28
280
     0
102
RTVSPost2010PropOp28
 70
     1
102
RTVSPost2010Prop29
280
     1
102
RTVSPost2010PropOp29
 70
     1
102
RTVSPost2010Prop30
280
     1
102
RTVSPost2010PropOp30
 70
     1
102
RTVSPost2010Prop31
280
     0
102
RTVSPost2010PropOp31
 70
     1
102
RTVSPost2010Prop32
280
     0
102
RTVSPost2010PropOp32
 70
     1
102
RTVSPost2010Prop33
280
     0
102
RTVSPost2010PropOp33
 70
     1
102
RTVSPost2010Prop34
280
     0
102
RTVSPost2010PropOp34
 70
     1
102
RTVSPost2010Prop35
280
     0
102
RTVSPost2010PropOp35
 70
     1
102
RTVSPost2010Prop36
280
     0
102
RTVSPost2010PropOp36
 70
     1
102
RTVSPost2010Prop37
 90
       50
102
RTVSPost2010PropOp37
 70
     1
102
RTVSPost2010Prop38
140
0.0
102
RTVSPost2010PropOp38
 70
     1
102
RTVSPost2010Prop39
140
1.0
102
RTVSPost2010PropOp39
 70
     1
102
RTVSPost2010Prop40
 90
        0
102
RTVSPost2010PropOp40
 70
     1
102
RTVSPost2010Prop41ColorIndex
 90
       18
102
RTVSPost2010Prop41ColorRGB
 90
        0
102
RTVSPost2010PropOp41
 70
     1
102
RTVSPost2010Prop42
 90
       50
102
RTVSPost2010PropOp42
 70
     1
102
RTVSPost2010Prop43
 90
        3
102
RTVSPost2010PropOp43
 70
     1
102
RTVSPost2010Prop44ColorIndex
 90
        5
102
RTVSPost2010Prop44ColorRGB
 90
      255
102
RTVSPost2010PropOp44
 70
     1
102
RTVSPost2010Prop45
280
     0
102
RTVSPost2010PropOp45
 70
     1
102
RTVSPost2010Prop46
 90
       50
102
RTVSPost2010PropOp46
 70
     1
102
RTVSPost2010Prop47
 90
       50
102
RTVSPost2010PropOp47
 70
     1
102
RTVSPost2010Prop48
 90
       50
102
RTVSPost2010PropOp48
 70
     1
102
RTVSPost2010Prop49
280
     0
102
RTVSPost2010PropOp49
 70
     1
102
RTVSPost2010Prop50
 90
       50
102
RTVSPost2010PropOp50
 70
     1
102
RTVSPost2010Prop51ColorIndex
 90
      256
102
RTVSPost2010Prop51ColorRGB
 90
-16777216
102
RTVSPost2010PropOp51
 70
     0
102
RTVSPost2010Prop52
140
1.0
102
RTVSPost2010PropOp52
 70
     0
102
RTVSPost2010Prop53
 90
        2
102
RTVSPost2010PropOp53
 70
     1
102
RTVSPost2010Prop54
  1
strokes_ogs.tif
102
RTVSPost2010PropOp54
 70
     1
102
RTVSPost2010Prop55
280
     0
102
RTVSPost2010PropOp55
 70
     1
102
RTVSPost2010Prop56
140
1.0
102
RTVSPost2010PropOp56
 70
     1
102
RTVSPost2010Prop57
140
1.0
102
RTVSPost2010PropOp57
 70
     1
  0
XRECORD
  5
485
102
{ACAD_REACTORS
330
484
102
}
330
484
100
AcDbXrecord
280
     1
102
RTVSPropertyOp0
 70
     1
102
RTVSPropertyOp1
 70
     1
102
RTVSPropertyOp2
 70
     1
102
RTVSPropertyOp3
 70
     1
102
RTVSPropertyOp4
 70
     1
102
RTVSPropertyOp5
 70
     1
102
RTVSPropertyOp6
 70
     1
102
RTVSPropertyOp7
 70
     1
102
RTVSPropertyOp8
 70
     1
102
RTVSPropertyOp9
 70
     1
102
RTVSPropertyOp10
 70
     1
102
RTVSPropertyOp11
 70
     1
102
RTVSPropertyOp12
 70
     1
102
RTVSPropertyOp13
 70
     1
102
RTVSPropertyOp14
 70
     1
102
RTVSPropertyOp15
 70
     1
102
RTVSPropertyOp16
 70
     1
102
RTVSPropertyOp17
 70
     1
102
RTVSPropertyOp18
 70
     1
102
RTVSPropertyOp19
 70
     1
102
RTVSPropertyOp20
 70
     1
102
RTVSPropertyOp21
 70
     1
102
RTVSPropertyOp22
 70
     1
102
RTVSPropertyOp23
 70
     1
102
RTVSPropertyOp24
 70
     1
102
RTVSPropertyOp25
 70
     1
102
RTVSPropertyOp26
 70
     1
102
RTVSPropertyOp27
 70
     1
102
RTVSPropertyOp28
 70
     1
102
RTVSPropertyOp29
 70
     1
102
RTVSPropertyOp30
 70
     1
102
RTVSPropertyOp31
 70
     1
102
RTVSPropertyOp32
 70
     1
102
RTVSPropertyOp33
 70
     1
102
RTVSPropertyOp34
 70
     1
102
RTVSPropertyOp35
 70
     1
102
RTVSPropertyOp36
 70
     1
102
RTVSPropertyOp37
 70
     1
102
RTVSPropertyOp38
 70
     1
102
RTVSPropertyOp39
 70
     1
102
RTVSPropertyOp40
 70
     1
102
RTVSPropertyOp41
 70
     1
102
RTVSPropertyOp42
 70
     1
102
RTVSPropertyOp43
 70
     1
102
RTVSPropertyOp44
 70
     1
102
RTVSPropertyOp45
 70
     1
102
RTVSPropertyOp46
 70
     1
102
RTVSPropertyOp47
 70
     1
102
RTVSPropertyOp48
 70
     1
102
RTVSPropertyOp49
 70
     1
102
RTVSPropertyOp50
 70
     1
102
RTVSPropertyOp51
 70
     0
102
RTVSPropertyOp52
 70
     0
102
RTVSPropertyOp53
 70
     1
102
RTVSPropertyOp54
 70
     1
102
RTVSPropertyOp55
 70
     1
102
RTVSPropertyOp56
 70
     1
102
RTVSPropertyOp57
 70
     1
102
RTVSPost2010Prop28
280
     0
102
RTVSPost2010PropOp28
 70
     1
102
RTVSPost2010Prop29
280
     1
102
RTVSPost2010PropOp29
 70
     1
102
RTVSPost2010Prop30
280
     1
102
RTVSPost2010PropOp30
 70
     1
102
RTVSPost2010Prop31
280
     0
102
RTVSPost2010PropOp31
 70
     1
102
RTVSPost2010Prop32
280
     0
102
RTVSPost2010PropOp32
 70
     1
102
RTVSPost2010Prop33
280
     0
102
RTVSPost2010PropOp33
 70
     1
102
RTVSPost2010Prop34
280
     0
102
RTVSPost2010PropOp34
 70
     1
102
RTVSPost2010Prop35
280
     0
102
RTVSPost2010PropOp35
 70
     1
102
RTVSPost2010Prop36
280
     0
102
RTVSPost2010PropOp36
 70
     1
102
RTVSPost2010Prop37
 90
       50
102
RTVSPost2010PropOp37
 70
     1
102
RTVSPost2010Prop38
140
0.0
102
RTVSPost2010PropOp38
 70
     1
102
RTVSPost2010Prop39
140
1.0
102
RTVSPost2010PropOp39
 70
     1
102
RTVSPost2010Prop40
 90
        0
102
RTVSPost2010PropOp40
 70
     1
102
RTVSPost2010Prop41ColorIndex
 90
       18
102
RTVSPost2010Prop41ColorRGB
 90
        0
102
RTVSPost2010PropOp41
 70
     1
102
RTVSPost2010Prop42
 90
       50
102
RTVSPost2010PropOp42
 70
     1
102
RTVSPost2010Prop43
 90
        3
102
RTVSPost2010PropOp43
 70
     1
102
RTVSPost2010Prop44ColorIndex
 90
        5
102
RTVSPost2010Prop44ColorRGB
 90
      255
102
RTVSPost2010PropOp44
 70
     1
102
RTVSPost2010Prop45
280
     0
102
RTVSPost2010PropOp45
 70
     1
102
RTVSPost2010Prop46
 90
       50
102
RTVSPost2010PropOp46
 70
     1
102
RTVSPost2010Prop47
 90
       50
102
RTVSPost2010PropOp47
 70
     1
102
RTVSPost2010Prop48
 90
       50
102
RTVSPost2010PropOp48
 70
     1
102
RTVSPost2010Prop49
280
     0
102
RTVSPost2010PropOp49
 70
     1
102
RTVSPost2010Prop50
 90
       50
102
RTVSPost2010PropOp50
 70
     1
102
RTVSPost2010Prop51ColorIndex
 90
      256
102
RTVSPost2010Prop51ColorRGB
 90
-16777216
102
RTVSPost2010PropOp51
 70
     0
102
RTVSPost2010Prop52
140
1.0
102
RTVSPost2010PropOp52
 70
     0
102
RTVSPost2010Prop53
 90
        2
102
RTVSPost2010PropOp53
 70
     1
102
RTVSPost2010Prop54
  1
strokes_ogs.tif
102
RTVSPost2010PropOp54
 70
     1
102
RTVSPost2010Prop55
280
     0
102
RTVSPost2010PropOp55
 70
     1
102
RTVSPost2010Prop56
140
1.0
102
RTVSPost2010PropOp56
 70
     1
102
RTVSPost2010Prop57
140
1.0
102
RTVSPost2010PropOp57
 70
     1
  0
XRECORD
  5
479
102
{ACAD_REACTORS
330
478
102
}
330
478
100
AcDbXrecord
280
     1
102
RTVSPropertyOp0
 70
     1
102
RTVSPropertyOp1
 70
     1
102
RTVSPropertyOp2
 70
     1
102
RTVSPropertyOp3
 70
     1
102
RTVSPropertyOp4
 70
     1
102
RTVSPropertyOp5
 70
     1
102
RTVSPropertyOp6
 70
     1
102
RTVSPropertyOp7
 70
     1
102
RTVSPropertyOp8
 70
     1
102
RTVSPropertyOp9
 70
     1
102
RTVSPropertyOp10
 70
     1
102
RTVSPropertyOp11
 70
     1
102
RTVSPropertyOp12
 70
     1
102
RTVSPropertyOp13
 70
     1
102
RTVSPropertyOp14
 70
     1
102
RTVSPropertyOp15
 70
     1
102
RTVSPropertyOp16
 70
     1
102
RTVSPropertyOp17
 70
     1
102
RTVSPropertyOp18
 70
     1
102
RTVSPropertyOp19
 70
     1
102
RTVSPropertyOp20
 70
     1
102
RTVSPropertyOp21
 70
     1
102
RTVSPropertyOp22
 70
     1
102
RTVSPropertyOp23
 70
     1
102
RTVSPropertyOp24
 70
     1
102
RTVSPropertyOp25
 70
     1
102
RTVSPropertyOp26
 70
     1
102
RTVSPropertyOp27
 70
     1
102
RTVSPropertyOp28
 70
     1
102
RTVSPropertyOp29
 70
     1
102
RTVSPropertyOp30
 70
     1
102
RTVSPropertyOp31
 70
     1
102
RTVSPropertyOp32
 70
     1
102
RTVSPropertyOp33
 70
     1
102
RTVSPropertyOp34
 70
     1
102
RTVSPropertyOp35
 70
     1
102
RTVSPropertyOp36
 70
     1
102
RTVSPropertyOp37
 70
     1
102
RTVSPropertyOp38
 70
     1
102
RTVSPropertyOp39
 70
     1
102
RTVSPropertyOp40
 70
     1
102
RTVSPropertyOp41
 70
     1
102
RTVSPropertyOp42
 70
     1
102
RTVSPropertyOp43
 70
     1
102
RTVSPropertyOp44
 70
     1
102
RTVSPropertyOp45
 70
     1
102
RTVSPropertyOp46
 70
     1
102
RTVSPropertyOp47
 70
     1
102
RTVSPropertyOp48
 70
     1
102
RTVSPropertyOp49
 70
     1
102
RTVSPropertyOp50
 70
     1
102
RTVSPropertyOp51
 70
     0
102
RTVSPropertyOp52
 70
     0
102
RTVSPropertyOp53
 70
     1
102
RTVSPropertyOp54
 70
     1
102
RTVSPropertyOp55
 70
     1
102
RTVSPropertyOp56
 70
     1
102
RTVSPropertyOp57
 70
     1
102
RTVSPost2010Prop28
280
     0
102
RTVSPost2010PropOp28
 70
     1
102
RTVSPost2010Prop29
280
     1
102
RTVSPost2010PropOp29
 70
     1
102
RTVSPost2010Prop30
280
     1
102
RTVSPost2010PropOp30
 70
     1
102
RTVSPost2010Prop31
280
     0
102
RTVSPost2010PropOp31
 70
     1
102
RTVSPost2010Prop32
280
     0
102
RTVSPost2010PropOp32
 70
     1
102
RTVSPost2010Prop33
280
     0
102
RTVSPost2010PropOp33
 70
     1
102
RTVSPost2010Prop34
280
     0
102
RTVSPost2010PropOp34
 70
     1
102
RTVSPost2010Prop35
280
     0
102
RTVSPost2010PropOp35
 70
     1
102
RTVSPost2010Prop36
280
     0
102
RTVSPost2010PropOp36
 70
     1
102
RTVSPost2010Prop37
 90
       50
102
RTVSPost2010PropOp37
 70
     1
102
RTVSPost2010Prop38
140
0.0
102
RTVSPost2010PropOp38
 70
     1
102
RTVSPost2010Prop39
140
1.0
102
RTVSPost2010PropOp39
 70
     1
102
RTVSPost2010Prop40
 90
        0
102
RTVSPost2010PropOp40
 70
     1
102
RTVSPost2010Prop41ColorIndex
 90
       18
102
RTVSPost2010Prop41ColorRGB
 90
        0
102
RTVSPost2010PropOp41
 70
     1
102
RTVSPost2010Prop42
 90
       50
102
RTVSPost2010PropOp42
 70
     1
102
RTVSPost2010Prop43
 90
        3
102
RTVSPost2010PropOp43
 70
     1
102
RTVSPost2010Prop44ColorIndex
 90
        5
102
RTVSPost2010Prop44ColorRGB
 90
      255
102
RTVSPost2010PropOp44
 70
     1
102
RTVSPost2010Prop45
280
     0
102
RTVSPost2010PropOp45
 70
     1
102
RTVSPost2010Prop46
 90
       50
102
RTVSPost2010PropOp46
 70
     1
102
RTVSPost2010Prop47
 90
       50
102
RTVSPost2010PropOp47
 70
     1
102
RTVSPost2010Prop48
 90
       50
102
RTVSPost2010PropOp48
 70
     1
102
RTVSPost2010Prop49
280
     0
102
RTVSPost2010PropOp49
 70
     1
102
RTVSPost2010Prop50
 90
       50
102
RTVSPost2010PropOp50
 70
     1
102
RTVSPost2010Prop51ColorIndex
 90
      256
102
RTVSPost2010Prop51ColorRGB
 90
-16777216
102
RTVSPost2010PropOp51
 70
     0
102
RTVSPost2010Prop52
140
1.0
102
RTVSPost2010PropOp52
 70
     0
102
RTVSPost2010Prop53
 90
        2
102
RTVSPost2010PropOp53
 70
     1
102
RTVSPost2010Prop54
  1
strokes_ogs.tif
102
RTVSPost2010PropOp54
 70
     1
102
RTVSPost2010Prop55
280
     0
102
RTVSPost2010PropOp55
 70
     1
102
RTVSPost2010Prop56
140
1.0
102
RTVSPost2010PropOp56
 70
     1
102
RTVSPost2010Prop57
140
1.0
102
RTVSPost2010PropOp57
 70
     1
  0
XRECORD
  5
47B
102
{ACAD_REACTORS
330
47A
102
}
330
47A
100
AcDbXrecord
280
     1
102
RTVSPropertyOp0
 70
     1
102
RTVSPropertyOp1
 70
     1
102
RTVSPropertyOp2
 70
     1
102
RTVSPropertyOp3
 70
     1
102
RTVSPropertyOp4
 70
     1
102
RTVSPropertyOp5
 70
     1
102
RTVSPropertyOp6
 70
     1
102
RTVSPropertyOp7
 70
     1
102
RTVSPropertyOp8
 70
     1
102
RTVSPropertyOp9
 70
     1
102
RTVSPropertyOp10
 70
     1
102
RTVSPropertyOp11
 70
     1
102
RTVSPropertyOp12
 70
     1
102
RTVSPropertyOp13
 70
     1
102
RTVSPropertyOp14
 70
     1
102
RTVSPropertyOp15
 70
     1
102
RTVSPropertyOp16
 70
     1
102
RTVSPropertyOp17
 70
     1
102
RTVSPropertyOp18
 70
     1
102
RTVSPropertyOp19
 70
     1
102
RTVSPropertyOp20
 70
     1
102
RTVSPropertyOp21
 70
     1
102
RTVSPropertyOp22
 70
     1
102
RTVSPropertyOp23
 70
     1
102
RTVSPropertyOp24
 70
     1
102
RTVSPropertyOp25
 70
     1
102
RTVSPropertyOp26
 70
     1
102
RTVSPropertyOp27
 70
     1
102
RTVSPropertyOp28
 70
     1
102
RTVSPropertyOp29
 70
     1
102
RTVSPropertyOp30
 70
     1
102
RTVSPropertyOp31
 70
     1
102
RTVSPropertyOp32
 70
     1
102
RTVSPropertyOp33
 70
     1
102
RTVSPropertyOp34
 70
     1
102
RTVSPropertyOp35
 70
     1
102
RTVSPropertyOp36
 70
     1
102
RTVSPropertyOp37
 70
     1
102
RTVSPropertyOp38
 70
     1
102
RTVSPropertyOp39
 70
     1
102
RTVSPropertyOp40
 70
     1
102
RTVSPropertyOp41
 70
     1
102
RTVSPropertyOp42
 70
     1
102
RTVSPropertyOp43
 70
     1
102
RTVSPropertyOp44
 70
     1
102
RTVSPropertyOp45
 70
     1
102
RTVSPropertyOp46
 70
     1
102
RTVSPropertyOp47
 70
     1
102
RTVSPropertyOp48
 70
     1
102
RTVSPropertyOp49
 70
     1
102
RTVSPropertyOp50
 70
     1
102
RTVSPropertyOp51
 70
     0
102
RTVSPropertyOp52
 70
     0
102
RTVSPropertyOp53
 70
     1
102
RTVSPropertyOp54
 70
     1
102
RTVSPropertyOp55
 70
     1
102
RTVSPropertyOp56
 70
     1
102
RTVSPropertyOp57
 70
     1
102
RTVSPost2010Prop28
280
     0
102
RTVSPost2010PropOp28
 70
     1
102
RTVSPost2010Prop29
280
     1
102
RTVSPost2010PropOp29
 70
     1
102
RTVSPost2010Prop30
280
     1
102
RTVSPost2010PropOp30
 70
     1
102
RTVSPost2010Prop31
280
     0
102
RTVSPost2010PropOp31
 70
     1
102
RTVSPost2010Prop32
280
     0
102
RTVSPost2010PropOp32
 70
     1
102
RTVSPost2010Prop33
280
     0
102
RTVSPost2010PropOp33
 70
     1
102
RTVSPost2010Prop34
280
     0
102
RTVSPost2010PropOp34
 70
     1
102
RTVSPost2010Prop35
280
     0
102
RTVSPost2010PropOp35
 70
     1
102
RTVSPost2010Prop36
280
     0
102
RTVSPost2010PropOp36
 70
     1
102
RTVSPost2010Prop37
 90
       50
102
RTVSPost2010PropOp37
 70
     1
102
RTVSPost2010Prop38
140
0.0
102
RTVSPost2010PropOp38
 70
     1
102
RTVSPost2010Prop39
140
1.0
102
RTVSPost2010PropOp39
 70
     1
102
RTVSPost2010Prop40
 90
        0
102
RTVSPost2010PropOp40
 70
     1
102
RTVSPost2010Prop41ColorIndex
 90
       18
102
RTVSPost2010Prop41ColorRGB
 90
        0
102
RTVSPost2010PropOp41
 70
     1
102
RTVSPost2010Prop42
 90
       50
102
RTVSPost2010PropOp42
 70
     1
102
RTVSPost2010Prop43
 90
        3
102
RTVSPost2010PropOp43
 70
     1
102
RTVSPost2010Prop44ColorIndex
 90
        5
102
RTVSPost2010Prop44ColorRGB
 90
      255
102
RTVSPost2010PropOp44
 70
     1
102
RTVSPost2010Prop45
280
     0
102
RTVSPost2010PropOp45
 70
     1
102
RTVSPost2010Prop46
 90
       50
102
RTVSPost2010PropOp46
 70
     1
102
RTVSPost2010Prop47
 90
       50
102
RTVSPost2010PropOp47
 70
     1
102
RTVSPost2010Prop48
 90
       50
102
RTVSPost2010PropOp48
 70
     1
102
RTVSPost2010Prop49
280
     0
102
RTVSPost2010PropOp49
 70
     1
102
RTVSPost2010Prop50
 90
       50
102
RTVSPost2010PropOp50
 70
     1
102
RTVSPost2010Prop51ColorIndex
 90
      256
102
RTVSPost2010Prop51ColorRGB
 90
-16777216
102
RTVSPost2010PropOp51
 70
     0
102
RTVSPost2010Prop52
140
1.0
102
RTVSPost2010PropOp52
 70
     0
102
RTVSPost2010Prop53
 90
        2
102
RTVSPost2010PropOp53
 70
     1
102
RTVSPost2010Prop54
  1
strokes_ogs.tif
102
RTVSPost2010PropOp54
 70
     1
102
RTVSPost2010Prop55
280
     0
102
RTVSPost2010PropOp55
 70
     1
102
RTVSPost2010Prop56
140
1.0
102
RTVSPost2010PropOp56
 70
     1
102
RTVSPost2010Prop57
140
1.0
102
RTVSPost2010PropOp57
 70
     1
  0
XRECORD
  5
48B
102
{ACAD_REACTORS
330
48A
102
}
330
48A
100
AcDbXrecord
280
     1
102
RTVSPropertyOp0
 70
     0
102
RTVSPropertyOp1
 70
     0
102
RTVSPropertyOp2
 70
     0
102
RTVSPropertyOp3
 70
     0
102
RTVSPropertyOp4
 70
     0
102
RTVSPropertyOp5
 70
     0
102
RTVSPropertyOp6
 70
     0
102
RTVSPropertyOp7
 70
     0
102
RTVSPropertyOp8
 70
     0
102
RTVSPropertyOp9
 70
     0
102
RTVSPropertyOp10
 70
     0
102
RTVSPropertyOp11
 70
     0
102
RTVSPropertyOp12
 70
     0
102
RTVSPropertyOp13
 70
     0
102
RTVSPropertyOp14
 70
     2
102
RTVSPropertyOp15
 70
     0
102
RTVSPropertyOp16
 70
     0
102
RTVSPropertyOp17
 70
     0
102
RTVSPropertyOp18
 70
     0
102
RTVSPropertyOp19
 70
     0
102
RTVSPropertyOp20
 70
     0
102
RTVSPropertyOp21
 70
     0
102
RTVSPropertyOp22
 70
     0
102
RTVSPropertyOp23
 70
     0
102
RTVSPropertyOp24
 70
     0
102
RTVSPropertyOp25
 70
     0
102
RTVSPropertyOp26
 70
     0
102
RTVSPropertyOp27
 70
     0
102
RTVSPropertyOp28
 70
     0
102
RTVSPropertyOp29
 70
     0
102
RTVSPropertyOp30
 70
     0
102
RTVSPropertyOp31
 70
     0
102
RTVSPropertyOp32
 70
     0
102
RTVSPropertyOp33
 70
     0
102
RTVSPropertyOp34
 70
     0
102
RTVSPropertyOp35
 70
     0
102
RTVSPropertyOp36
 70
     0
102
RTVSPropertyOp37
 70
     0
102
RTVSPropertyOp38
 70
     0
102
RTVSPropertyOp39
 70
     0
102
RTVSPropertyOp40
 70
     0
102
RTVSPropertyOp41
 70
     0
102
RTVSPropertyOp42
 70
     0
102
RTVSPropertyOp43
 70
     0
102
RTVSPropertyOp44
 70
     0
102
RTVSPropertyOp45
 70
     0
102
RTVSPropertyOp46
 70
     0
102
RTVSPropertyOp47
 70
     0
102
RTVSPropertyOp48
 70
     0
102
RTVSPropertyOp49
 70
     0
102
RTVSPropertyOp50
 70
     0
102
RTVSPropertyOp51
 70
     0
102
RTVSPropertyOp52
 70
     0
102
RTVSPropertyOp53
 70
     0
102
RTVSPropertyOp54
 70
     0
102
RTVSPropertyOp55
 70
     0
102
RTVSPropertyOp56
 70
     0
102
RTVSPropertyOp57
 70
     0
102
RTVSPost2010Prop28
280
     0
102
RTVSPost2010PropOp28
 70
     0
102
RTVSPost2010Prop29
280
     1
102
RTVSPost2010PropOp29
 70
     0
102
RTVSPost2010Prop30
280
     1
102
RTVSPost2010PropOp30
 70
     0
102
RTVSPost2010Prop31
280
     0
102
RTVSPost2010PropOp31
 70
     0
102
RTVSPost2010Prop32
280
     0
102
RTVSPost2010PropOp32
 70
     0
102
RTVSPost2010Prop33
280
     0
102
RTVSPost2010PropOp33
 70
     0
102
RTVSPost2010Prop34
280
     0
102
RTVSPost2010PropOp34
 70
     0
102
RTVSPost2010Prop35
280
     0
102
RTVSPost2010PropOp35
 70
     0
102
RTVSPost2010Prop36
280
     0
102
RTVSPost2010PropOp36
 70
     0
102
RTVSPost2010Prop37
 90
       50
102
RTVSPost2010PropOp37
 70
     0
102
RTVSPost2010Prop38
140
0.0
102
RTVSPost2010PropOp38
 70
     0
102
RTVSPost2010Prop39
140
1.0
102
RTVSPost2010PropOp39
 70
     0
102
RTVSPost2010Prop40
 90
        0
102
RTVSPost2010PropOp40
 70
     0
102
RTVSPost2010Prop41ColorIndex
 90
       18
102
RTVSPost2010Prop41ColorRGB
 90
        0
102
RTVSPost2010PropOp41
 70
     0
102
RTVSPost2010Prop42
 90
       50
102
RTVSPost2010PropOp42
 70
     0
102
RTVSPost2010Prop43
 90
        3
102
RTVSPost2010PropOp43
 70
     0
102
RTVSPost2010Prop44ColorIndex
 90
        5
102
RTVSPost2010Prop44ColorRGB
 90
      255
102
RTVSPost2010PropOp44
 70
     0
102
RTVSPost2010Prop45
280
     0
102
RTVSPost2010PropOp45
 70
     0
102
RTVSPost2010Prop46
 90
       50
102
RTVSPost2010PropOp46
 70
     0
102
RTVSPost2010Prop47
 90
       50
102
RTVSPost2010PropOp47
 70
     0
102
RTVSPost2010Prop48
 90
       50
102
RTVSPost2010PropOp48
 70
     0
102
RTVSPost2010Prop49
280
     0
102
RTVSPost2010PropOp49
 70
     0
102
RTVSPost2010Prop50
 90
       50
102
RTVSPost2010PropOp50
 70
     0
102
RTVSPost2010Prop51ColorIndex
 90
      256
102
RTVSPost2010Prop51ColorRGB
 90
-16777216
102
RTVSPost2010PropOp51
 70
     0
102
RTVSPost2010Prop52
140
1.0
102
RTVSPost2010PropOp52
 70
     0
102
RTVSPost2010Prop53
 90
        2
102
RTVSPost2010PropOp53
 70
     0
102
RTVSPost2010Prop54
  1
strokes_ogs.tif
102
RTVSPost2010PropOp54
 70
     0
102
RTVSPost2010Prop55
280
     0
102
RTVSPost2010PropOp55
 70
     0
102
RTVSPost2010Prop56
140
1.0
102
RTVSPost2010PropOp56
 70
     0
102
RTVSPost2010Prop57
140
1.0
102
RTVSPost2010PropOp57
 70
     0
  0
XRECORD
  5
483
102
{ACAD_REACTORS
330
482
102
}
330
482
100
AcDbXrecord
280
     1
102
RTVSPropertyOp0
 70
     1
102
RTVSPropertyOp1
 70
     1
102
RTVSPropertyOp2
 70
     1
102
RTVSPropertyOp3
 70
     1
102
RTVSPropertyOp4
 70
     1
102
RTVSPropertyOp5
 70
     1
102
RTVSPropertyOp6
 70
     1
102
RTVSPropertyOp7
 70
     1
102
RTVSPropertyOp8
 70
     1
102
RTVSPropertyOp9
 70
     1
102
RTVSPropertyOp10
 70
     1
102
RTVSPropertyOp11
 70
     1
102
RTVSPropertyOp12
 70
     1
102
RTVSPropertyOp13
 70
     1
102
RTVSPropertyOp14
 70
     1
102
RTVSPropertyOp15
 70
     1
102
RTVSPropertyOp16
 70
     1
102
RTVSPropertyOp17
 70
     1
102
RTVSPropertyOp18
 70
     1
102
RTVSPropertyOp19
 70
     1
102
RTVSPropertyOp20
 70
     1
102
RTVSPropertyOp21
 70
     1
102
RTVSPropertyOp22
 70
     1
102
RTVSPropertyOp23
 70
     1
102
RTVSPropertyOp24
 70
     1
102
RTVSPropertyOp25
 70
     1
102
RTVSPropertyOp26
 70
     1
102
RTVSPropertyOp27
 70
     1
102
RTVSPropertyOp28
 70
     1
102
RTVSPropertyOp29
 70
     1
102
RTVSPropertyOp30
 70
     1
102
RTVSPropertyOp31
 70
     1
102
RTVSPropertyOp32
 70
     1
102
RTVSPropertyOp33
 70
     1
102
RTVSPropertyOp34
 70
     1
102
RTVSPropertyOp35
 70
     1
102
RTVSPropertyOp36
 70
     1
102
RTVSPropertyOp37
 70
     1
102
RTVSPropertyOp38
 70
     1
102
RTVSPropertyOp39
 70
     1
102
RTVSPropertyOp40
 70
     1
102
RTVSPropertyOp41
 70
     1
102
RTVSPropertyOp42
 70
     1
102
RTVSPropertyOp43
 70
     1
102
RTVSPropertyOp44
 70
     1
102
RTVSPropertyOp45
 70
     1
102
RTVSPropertyOp46
 70
     1
102
RTVSPropertyOp47
 70
     1
102
RTVSPropertyOp48
 70
     1
102
RTVSPropertyOp49
 70
     1
102
RTVSPropertyOp50
 70
     1
102
RTVSPropertyOp51
 70
     0
102
RTVSPropertyOp52
 70
     0
102
RTVSPropertyOp53
 70
     1
102
RTVSPropertyOp54
 70
     1
102
RTVSPropertyOp55
 70
     1
102
RTVSPropertyOp56
 70
     1
102
RTVSPropertyOp57
 70
     1
102
RTVSPost2010Prop28
280
     0
102
RTVSPost2010PropOp28
 70
     1
102
RTVSPost2010Prop29
280
     1
102
RTVSPost2010PropOp29
 70
     1
102
RTVSPost2010Prop30
280
     1
102
RTVSPost2010PropOp30
 70
     1
102
RTVSPost2010Prop31
280
     0
102
RTVSPost2010PropOp31
 70
     1
102
RTVSPost2010Prop32
280
     0
102
RTVSPost2010PropOp32
 70
     1
102
RTVSPost2010Prop33
280
     0
102
RTVSPost2010PropOp33
 70
     1
102
RTVSPost2010Prop34
280
     0
102
RTVSPost2010PropOp34
 70
     1
102
RTVSPost2010Prop35
280
     0
102
RTVSPost2010PropOp35
 70
     1
102
RTVSPost2010Prop36
280
     0
102
RTVSPost2010PropOp36
 70
     1
102
RTVSPost2010Prop37
 90
       50
102
RTVSPost2010PropOp37
 70
     1
102
RTVSPost2010Prop38
140
0.0
102
RTVSPost2010PropOp38
 70
     1
102
RTVSPost2010Prop39
140
1.0
102
RTVSPost2010PropOp39
 70
     1
102
RTVSPost2010Prop40
 90
        0
102
RTVSPost2010PropOp40
 70
     1
102
RTVSPost2010Prop41ColorIndex
 90
       18
102
RTVSPost2010Prop41ColorRGB
 90
        0
102
RTVSPost2010PropOp41
 70
     1
102
RTVSPost2010Prop42
 90
       50
102
RTVSPost2010PropOp42
 70
     1
102
RTVSPost2010Prop43
 90
        3
102
RTVSPost2010PropOp43
 70
     1
102
RTVSPost2010Prop44ColorIndex
 90
        5
102
RTVSPost2010Prop44ColorRGB
 90
      255
102
RTVSPost2010PropOp44
 70
     1
102
RTVSPost2010Prop45
280
     0
102
RTVSPost2010PropOp45
 70
     1
102
RTVSPost2010Prop46
 90
       50
102
RTVSPost2010PropOp46
 70
     1
102
RTVSPost2010Prop47
 90
       50
102
RTVSPost2010PropOp47
 70
     1
102
RTVSPost2010Prop48
 90
       50
102
RTVSPost2010PropOp48
 70
     1
102
RTVSPost2010Prop49
280
     0
102
RTVSPost2010PropOp49
 70
     1
102
RTVSPost2010Prop50
 90
       50
102
RTVSPost2010PropOp50
 70
     1
102
RTVSPost2010Prop51ColorIndex
 90
      256
102
RTVSPost2010Prop51ColorRGB
 90
-16777216
102
RTVSPost2010PropOp51
 70
     0
102
RTVSPost2010Prop52
140
1.0
102
RTVSPost2010PropOp52
 70
     0
102
RTVSPost2010Prop53
 90
        2
102
RTVSPost2010PropOp53
 70
     1
102
RTVSPost2010Prop54
  1
strokes_ogs.tif
102
RTVSPost2010PropOp54
 70
     1
102
RTVSPost2010Prop55
280
     0
102
RTVSPost2010PropOp55
 70
     1
102
RTVSPost2010Prop56
140
1.0
102
RTVSPost2010PropOp56
 70
     1
102
RTVSPost2010Prop57
140
1.0
102
RTVSPost2010PropOp57
 70
     1
  0
XRECORD
  5
467
102
{ACAD_REACTORS
330
466
102
}
330
466
100
AcDbXrecord
280
     1
102
RTVSPropertyOp0
 70
     1
102
RTVSPropertyOp1
 70
     1
102
RTVSPropertyOp2
 70
     1
102
RTVSPropertyOp3
 70
     1
102
RTVSPropertyOp4
 70
     1
102
RTVSPropertyOp5
 70
     1
102
RTVSPropertyOp6
 70
     1
102
RTVSPropertyOp7
 70
     1
102
RTVSPropertyOp8
 70
     1
102
RTVSPropertyOp9
 70
     1
102
RTVSPropertyOp10
 70
     1
102
RTVSPropertyOp11
 70
     1
102
RTVSPropertyOp12
 70
     1
102
RTVSPropertyOp13
 70
     1
102
RTVSPropertyOp14
 70
     1
102
RTVSPropertyOp15
 70
     1
102
RTVSPropertyOp16
 70
     1
102
RTVSPropertyOp17
 70
     1
102
RTVSPropertyOp18
 70
     1
102
RTVSPropertyOp19
 70
     1
102
RTVSPropertyOp20
 70
     1
102
RTVSPropertyOp21
 70
     1
102
RTVSPropertyOp22
 70
     1
102
RTVSPropertyOp23
 70
     1
102
RTVSPropertyOp24
 70
     1
102
RTVSPropertyOp25
 70
     1
102
RTVSPropertyOp26
 70
     1
102
RTVSPropertyOp27
 70
     1
102
RTVSPropertyOp28
 70
     1
102
RTVSPropertyOp29
 70
     1
102
RTVSPropertyOp30
 70
     1
102
RTVSPropertyOp31
 70
     1
102
RTVSPropertyOp32
 70
     1
102
RTVSPropertyOp33
 70
     1
102
RTVSPropertyOp34
 70
     1
102
RTVSPropertyOp35
 70
     1
102
RTVSPropertyOp36
 70
     1
102
RTVSPropertyOp37
 70
     1
102
RTVSPropertyOp38
 70
     1
102
RTVSPropertyOp39
 70
     1
102
RTVSPropertyOp40
 70
     1
102
RTVSPropertyOp41
 70
     1
102
RTVSPropertyOp42
 70
     1
102
RTVSPropertyOp43
 70
     1
102
RTVSPropertyOp44
 70
     1
102
RTVSPropertyOp45
 70
     1
102
RTVSPropertyOp46
 70
     1
102
RTVSPropertyOp47
 70
     1
102
RTVSPropertyOp48
 70
     1
102
RTVSPropertyOp49
 70
     1
102
RTVSPropertyOp50
 70
     1
102
RTVSPropertyOp51
 70
     0
102
RTVSPropertyOp52
 70
     0
102
RTVSPropertyOp53
 70
     1
102
RTVSPropertyOp54
 70
     1
102
RTVSPropertyOp55
 70
     1
102
RTVSPropertyOp56
 70
     1
102
RTVSPropertyOp57
 70
     1
102
RTVSPost2010Prop28
280
     0
102
RTVSPost2010PropOp28
 70
     1
102
RTVSPost2010Prop29
280
     1
102
RTVSPost2010PropOp29
 70
     1
102
RTVSPost2010Prop30
280
     1
102
RTVSPost2010PropOp30
 70
     1
102
RTVSPost2010Prop31
280
     0
102
RTVSPost2010PropOp31
 70
     1
102
RTVSPost2010Prop32
280
     0
102
RTVSPost2010PropOp32
 70
     1
102
RTVSPost2010Prop33
280
     0
102
RTVSPost2010PropOp33
 70
     1
102
RTVSPost2010Prop34
280
     0
102
RTVSPost2010PropOp34
 70
     1
102
RTVSPost2010Prop35
280
     0
102
RTVSPost2010PropOp35
 70
     1
102
RTVSPost2010Prop36
280
     0
102
RTVSPost2010PropOp36
 70
     1
102
RTVSPost2010Prop37
 90
       50
102
RTVSPost2010PropOp37
 70
     1
102
RTVSPost2010Prop38
140
0.0
102
RTVSPost2010PropOp38
 70
     1
102
RTVSPost2010Prop39
140
1.0
102
RTVSPost2010PropOp39
 70
     1
102
RTVSPost2010Prop40
 90
        0
102
RTVSPost2010PropOp40
 70
     1
102
RTVSPost2010Prop41ColorIndex
 90
       18
102
RTVSPost2010Prop41ColorRGB
 90
        0
102
RTVSPost2010PropOp41
 70
     1
102
RTVSPost2010Prop42
 90
       50
102
RTVSPost2010PropOp42
 70
     1
102
RTVSPost2010Prop43
 90
        3
102
RTVSPost2010PropOp43
 70
     1
102
RTVSPost2010Prop44ColorIndex
 90
        5
102
RTVSPost2010Prop44ColorRGB
 90
      255
102
RTVSPost2010PropOp44
 70
     1
102
RTVSPost2010Prop45
280
     0
102
RTVSPost2010PropOp45
 70
     1
102
RTVSPost2010Prop46
 90
       50
102
RTVSPost2010PropOp46
 70
     1
102
RTVSPost2010Prop47
 90
       50
102
RTVSPost2010PropOp47
 70
     1
102
RTVSPost2010Prop48
 90
       50
102
RTVSPost2010PropOp48
 70
     1
102
RTVSPost2010Prop49
280
     0
102
RTVSPost2010PropOp49
 70
     1
102
RTVSPost2010Prop50
 90
       50
102
RTVSPost2010PropOp50
 70
     1
102
RTVSPost2010Prop51ColorIndex
 90
      256
102
RTVSPost2010Prop51ColorRGB
 90
-16777216
102
RTVSPost2010PropOp51
 70
     0
102
RTVSPost2010Prop52
140
1.0
102
RTVSPost2010PropOp52
 70
     0
102
RTVSPost2010Prop53
 90
        2
102
RTVSPost2010PropOp53
 70
     1
102
RTVSPost2010Prop54
  1
strokes_ogs.tif
102
RTVSPost2010PropOp54
 70
     1
102
RTVSPost2010Prop55
280
     0
102
RTVSPost2010PropOp55
 70
     1
102
RTVSPost2010Prop56
140
1.0
102
RTVSPost2010PropOp56
 70
     1
102
RTVSPost2010Prop57
140
1.0
102
RTVSPost2010PropOp57
 70
     1
  0
XRECORD
  5
469
102
{ACAD_REACTORS
330
468
102
}
330
468
100
AcDbXrecord
280
     1
102
RTVSPropertyOp0
 70
     1
102
RTVSPropertyOp1
 70
     1
102
RTVSPropertyOp2
 70
     1
102
RTVSPropertyOp3
 70
     1
102
RTVSPropertyOp4
 70
     1
102
RTVSPropertyOp5
 70
     1
102
RTVSPropertyOp6
 70
     1
102
RTVSPropertyOp7
 70
     1
102
RTVSPropertyOp8
 70
     1
102
RTVSPropertyOp9
 70
     1
102
RTVSPropertyOp10
 70
     1
102
RTVSPropertyOp11
 70
     1
102
RTVSPropertyOp12
 70
     1
102
RTVSPropertyOp13
 70
     1
102
RTVSPropertyOp14
 70
     1
102
RTVSPropertyOp15
 70
     1
102
RTVSPropertyOp16
 70
     1
102
RTVSPropertyOp17
 70
     1
102
RTVSPropertyOp18
 70
     1
102
RTVSPropertyOp19
 70
     1
102
RTVSPropertyOp20
 70
     1
102
RTVSPropertyOp21
 70
     1
102
RTVSPropertyOp22
 70
     1
102
RTVSPropertyOp23
 70
     1
102
RTVSPropertyOp24
 70
     1
102
RTVSPropertyOp25
 70
     1
102
RTVSPropertyOp26
 70
     1
102
RTVSPropertyOp27
 70
     1
102
RTVSPropertyOp28
 70
     1
102
RTVSPropertyOp29
 70
     1
102
RTVSPropertyOp30
 70
     1
102
RTVSPropertyOp31
 70
     1
102
RTVSPropertyOp32
 70
     1
102
RTVSPropertyOp33
 70
     1
102
RTVSPropertyOp34
 70
     1
102
RTVSPropertyOp35
 70
     1
102
RTVSPropertyOp36
 70
     1
102
RTVSPropertyOp37
 70
     1
102
RTVSPropertyOp38
 70
     1
102
RTVSPropertyOp39
 70
     1
102
RTVSPropertyOp40
 70
     1
102
RTVSPropertyOp41
 70
     1
102
RTVSPropertyOp42
 70
     1
102
RTVSPropertyOp43
 70
     1
102
RTVSPropertyOp44
 70
     1
102
RTVSPropertyOp45
 70
     1
102
RTVSPropertyOp46
 70
     1
102
RTVSPropertyOp47
 70
     1
102
RTVSPropertyOp48
 70
     1
102
RTVSPropertyOp49
 70
     1
102
RTVSPropertyOp50
 70
     1
102
RTVSPropertyOp51
 70
     0
102
RTVSPropertyOp52
 70
     0
102
RTVSPropertyOp53
 70
     1
102
RTVSPropertyOp54
 70
     1
102
RTVSPropertyOp55
 70
     1
102
RTVSPropertyOp56
 70
     1
102
RTVSPropertyOp57
 70
     1
102
RTVSPost2010Prop28
280
     0
102
RTVSPost2010PropOp28
 70
     1
102
RTVSPost2010Prop29
280
     1
102
RTVSPost2010PropOp29
 70
     1
102
RTVSPost2010Prop30
280
     1
102
RTVSPost2010PropOp30
 70
     1
102
RTVSPost2010Prop31
280
     0
102
RTVSPost2010PropOp31
 70
     1
102
RTVSPost2010Prop32
280
     0
102
RTVSPost2010PropOp32
 70
     1
102
RTVSPost2010Prop33
280
     0
102
RTVSPost2010PropOp33
 70
     1
102
RTVSPost2010Prop34
280
     0
102
RTVSPost2010PropOp34
 70
     1
102
RTVSPost2010Prop35
280
     0
102
RTVSPost2010PropOp35
 70
     1
102
RTVSPost2010Prop36
280
     0
102
RTVSPost2010PropOp36
 70
     1
102
RTVSPost2010Prop37
 90
       50
102
RTVSPost2010PropOp37
 70
     1
102
RTVSPost2010Prop38
140
0.0
102
RTVSPost2010PropOp38
 70
     1
102
RTVSPost2010Prop39
140
1.0
102
RTVSPost2010PropOp39
 70
     1
102
RTVSPost2010Prop40
 90
        0
102
RTVSPost2010PropOp40
 70
     1
102
RTVSPost2010Prop41ColorIndex
 90
       18
102
RTVSPost2010Prop41ColorRGB
 90
        0
102
RTVSPost2010PropOp41
 70
     1
102
RTVSPost2010Prop42
 90
       50
102
RTVSPost2010PropOp42
 70
     1
102
RTVSPost2010Prop43
 90
        3
102
RTVSPost2010PropOp43
 70
     1
102
RTVSPost2010Prop44ColorIndex
 90
        5
102
RTVSPost2010Prop44ColorRGB
 90
      255
102
RTVSPost2010PropOp44
 70
     1
102
RTVSPost2010Prop45
280
     0
102
RTVSPost2010PropOp45
 70
     1
102
RTVSPost2010Prop46
 90
       50
102
RTVSPost2010PropOp46
 70
     1
102
RTVSPost2010Prop47
 90
       50
102
RTVSPost2010PropOp47
 70
     1
102
RTVSPost2010Prop48
 90
       50
102
RTVSPost2010PropOp48
 70
     1
102
RTVSPost2010Prop49
280
     0
102
RTVSPost2010PropOp49
 70
     1
102
RTVSPost2010Prop50
 90
       50
102
RTVSPost2010PropOp50
 70
     1
102
RTVSPost2010Prop51ColorIndex
 90
      256
102
RTVSPost2010Prop51ColorRGB
 90
-16777216
102
RTVSPost2010PropOp51
 70
     0
102
RTVSPost2010Prop52
140
1.0
102
RTVSPost2010PropOp52
 70
     0
102
RTVSPost2010Prop53
 90
        2
102
RTVSPost2010PropOp53
 70
     1
102
RTVSPost2010Prop54
  1
strokes_ogs.tif
102
RTVSPost2010PropOp54
 70
     1
102
RTVSPost2010Prop55
280
     0
102
RTVSPost2010PropOp55
 70
     1
102
RTVSPost2010Prop56
140
1.0
102
RTVSPost2010PropOp56
 70
     1
102
RTVSPost2010Prop57
140
1.0
102
RTVSPost2010PropOp57
 70
     1
  0
XRECORD
  5
46B
102
{ACAD_REACTORS
330
46A
102
}
330
46A
100
AcDbXrecord
280
     1
102
RTVSPropertyOp0
 70
     1
102
RTVSPropertyOp1
 70
     1
102
RTVSPropertyOp2
 70
     1
102
RTVSPropertyOp3
 70
     1
102
RTVSPropertyOp4
 70
     1
102
RTVSPropertyOp5
 70
     1
102
RTVSPropertyOp6
 70
     1
102
RTVSPropertyOp7
 70
     1
102
RTVSPropertyOp8
 70
     1
102
RTVSPropertyOp9
 70
     1
102
RTVSPropertyOp10
 70
     1
102
RTVSPropertyOp11
 70
     1
102
RTVSPropertyOp12
 70
     1
102
RTVSPropertyOp13
 70
     1
102
RTVSPropertyOp14
 70
     1
102
RTVSPropertyOp15
 70
     1
102
RTVSPropertyOp16
 70
     1
102
RTVSPropertyOp17
 70
     1
102
RTVSPropertyOp18
 70
     1
102
RTVSPropertyOp19
 70
     1
102
RTVSPropertyOp20
 70
     1
102
RTVSPropertyOp21
 70
     1
102
RTVSPropertyOp22
 70
     1
102
RTVSPropertyOp23
 70
     1
102
RTVSPropertyOp24
 70
     1
102
RTVSPropertyOp25
 70
     1
102
RTVSPropertyOp26
 70
     1
102
RTVSPropertyOp27
 70
     1
102
RTVSPropertyOp28
 70
     1
102
RTVSPropertyOp29
 70
     1
102
RTVSPropertyOp30
 70
     1
102
RTVSPropertyOp31
 70
     1
102
RTVSPropertyOp32
 70
     1
102
RTVSPropertyOp33
 70
     1
102
RTVSPropertyOp34
 70
     1
102
RTVSPropertyOp35
 70
     1
102
RTVSPropertyOp36
 70
     1
102
RTVSPropertyOp37
 70
     1
102
RTVSPropertyOp38
 70
     1
102
RTVSPropertyOp39
 70
     1
102
RTVSPropertyOp40
 70
     1
102
RTVSPropertyOp41
 70
     1
102
RTVSPropertyOp42
 70
     1
102
RTVSPropertyOp43
 70
     1
102
RTVSPropertyOp44
 70
     1
102
RTVSPropertyOp45
 70
     1
102
RTVSPropertyOp46
 70
     1
102
RTVSPropertyOp47
 70
     1
102
RTVSPropertyOp48
 70
     1
102
RTVSPropertyOp49
 70
     1
102
RTVSPropertyOp50
 70
     1
102
RTVSPropertyOp51
 70
     0
102
RTVSPropertyOp52
 70
     0
102
RTVSPropertyOp53
 70
     1
102
RTVSPropertyOp54
 70
     1
102
RTVSPropertyOp55
 70
     1
102
RTVSPropertyOp56
 70
     1
102
RTVSPropertyOp57
 70
     1
102
RTVSPost2010Prop28
280
     0
102
RTVSPost2010PropOp28
 70
     1
102
RTVSPost2010Prop29
280
     1
102
RTVSPost2010PropOp29
 70
     1
102
RTVSPost2010Prop30
280
     1
102
RTVSPost2010PropOp30
 70
     1
102
RTVSPost2010Prop31
280
     0
102
RTVSPost2010PropOp31
 70
     1
102
RTVSPost2010Prop32
280
     0
102
RTVSPost2010PropOp32
 70
     1
102
RTVSPost2010Prop33
280
     0
102
RTVSPost2010PropOp33
 70
     1
102
RTVSPost2010Prop34
280
     0
102
RTVSPost2010PropOp34
 70
     1
102
RTVSPost2010Prop35
280
     0
102
RTVSPost2010PropOp35
 70
     1
102
RTVSPost2010Prop36
280
     0
102
RTVSPost2010PropOp36
 70
     1
102
RTVSPost2010Prop37
 90
       50
102
RTVSPost2010PropOp37
 70
     1
102
RTVSPost2010Prop38
140
0.0
102
RTVSPost2010PropOp38
 70
     1
102
RTVSPost2010Prop39
140
1.0
102
RTVSPost2010PropOp39
 70
     1
102
RTVSPost2010Prop40
 90
        0
102
RTVSPost2010PropOp40
 70
     1
102
RTVSPost2010Prop41ColorIndex
 90
       18
102
RTVSPost2010Prop41ColorRGB
 90
        0
102
RTVSPost2010PropOp41
 70
     1
102
RTVSPost2010Prop42
 90
       50
102
RTVSPost2010PropOp42
 70
     1
102
RTVSPost2010Prop43
 90
        3
102
RTVSPost2010PropOp43
 70
     1
102
RTVSPost2010Prop44ColorIndex
 90
        5
102
RTVSPost2010Prop44ColorRGB
 90
      255
102
RTVSPost2010PropOp44
 70
     1
102
RTVSPost2010Prop45
280
     0
102
RTVSPost2010PropOp45
 70
     1
102
RTVSPost2010Prop46
 90
       50
102
RTVSPost2010PropOp46
 70
     1
102
RTVSPost2010Prop47
 90
       50
102
RTVSPost2010PropOp47
 70
     1
102
RTVSPost2010Prop48
 90
       50
102
RTVSPost2010PropOp48
 70
     1
102
RTVSPost2010Prop49
280
     0
102
RTVSPost2010PropOp49
 70
     1
102
RTVSPost2010Prop50
 90
       50
102
RTVSPost2010PropOp50
 70
     1
102
RTVSPost2010Prop51ColorIndex
 90
      256
102
RTVSPost2010Prop51ColorRGB
 90
-16777216
102
RTVSPost2010PropOp51
 70
     0
102
RTVSPost2010Prop52
140
1.0
102
RTVSPost2010PropOp52
 70
     0
102
RTVSPost2010Prop53
 90
        2
102
RTVSPost2010PropOp53
 70
     1
102
RTVSPost2010Prop54
  1
strokes_ogs.tif
102
RTVSPost2010PropOp54
 70
     1
102
RTVSPost2010Prop55
280
     0
102
RTVSPost2010PropOp55
 70
     1
102
RTVSPost2010Prop56
140
1.0
102
RTVSPost2010PropOp56
 70
     1
102
RTVSPost2010Prop57
140
1.0
102
RTVSPost2010PropOp57
 70
     1
  0
XRECORD
  5
46D
102
{ACAD_REACTORS
330
46C
102
}
330
46C
100
AcDbXrecord
280
     1
102
RTVSPropertyOp0
 70
     1
102
RTVSPropertyOp1
 70
     1
102
RTVSPropertyOp2
 70
     1
102
RTVSPropertyOp3
 70
     1
102
RTVSPropertyOp4
 70
     1
102
RTVSPropertyOp5
 70
     1
102
RTVSPropertyOp6
 70
     1
102
RTVSPropertyOp7
 70
     1
102
RTVSPropertyOp8
 70
     1
102
RTVSPropertyOp9
 70
     1
102
RTVSPropertyOp10
 70
     1
102
RTVSPropertyOp11
 70
     1
102
RTVSPropertyOp12
 70
     1
102
RTVSPropertyOp13
 70
     1
102
RTVSPropertyOp14
 70
     1
102
RTVSPropertyOp15
 70
     1
102
RTVSPropertyOp16
 70
     1
102
RTVSPropertyOp17
 70
     1
102
RTVSPropertyOp18
 70
     1
102
RTVSPropertyOp19
 70
     1
102
RTVSPropertyOp20
 70
     1
102
RTVSPropertyOp21
 70
     1
102
RTVSPropertyOp22
 70
     1
102
RTVSPropertyOp23
 70
     1
102
RTVSPropertyOp24
 70
     1
102
RTVSPropertyOp25
 70
     1
102
RTVSPropertyOp26
 70
     1
102
RTVSPropertyOp27
 70
     1
102
RTVSPropertyOp28
 70
     1
102
RTVSPropertyOp29
 70
     1
102
RTVSPropertyOp30
 70
     1
102
RTVSPropertyOp31
 70
     1
102
RTVSPropertyOp32
 70
     1
102
RTVSPropertyOp33
 70
     1
102
RTVSPropertyOp34
 70
     1
102
RTVSPropertyOp35
 70
     1
102
RTVSPropertyOp36
 70
     1
102
RTVSPropertyOp37
 70
     1
102
RTVSPropertyOp38
 70
     1
102
RTVSPropertyOp39
 70
     1
102
RTVSPropertyOp40
 70
     1
102
RTVSPropertyOp41
 70
     1
102
RTVSPropertyOp42
 70
     1
102
RTVSPropertyOp43
 70
     1
102
RTVSPropertyOp44
 70
     1
102
RTVSPropertyOp45
 70
     1
102
RTVSPropertyOp46
 70
     1
102
RTVSPropertyOp47
 70
     1
102
RTVSPropertyOp48
 70
     1
102
RTVSPropertyOp49
 70
     1
102
RTVSPropertyOp50
 70
     1
102
RTVSPropertyOp51
 70
     0
102
RTVSPropertyOp52
 70
     0
102
RTVSPropertyOp53
 70
     1
102
RTVSPropertyOp54
 70
     1
102
RTVSPropertyOp55
 70
     1
102
RTVSPropertyOp56
 70
     1
102
RTVSPropertyOp57
 70
     1
102
RTVSPost2010Prop28
280
     0
102
RTVSPost2010PropOp28
 70
     1
102
RTVSPost2010Prop29
280
     1
102
RTVSPost2010PropOp29
 70
     1
102
RTVSPost2010Prop30
280
     1
102
RTVSPost2010PropOp30
 70
     1
102
RTVSPost2010Prop31
280
     0
102
RTVSPost2010PropOp31
 70
     1
102
RTVSPost2010Prop32
280
     0
102
RTVSPost2010PropOp32
 70
     1
102
RTVSPost2010Prop33
280
     0
102
RTVSPost2010PropOp33
 70
     1
102
RTVSPost2010Prop34
280
     0
102
RTVSPost2010PropOp34
 70
     1
102
RTVSPost2010Prop35
280
     0
102
RTVSPost2010PropOp35
 70
     1
102
RTVSPost2010Prop36
280
     0
102
RTVSPost2010PropOp36
 70
     1
102
RTVSPost2010Prop37
 90
       50
102
RTVSPost2010PropOp37
 70
     1
102
RTVSPost2010Prop38
140
0.0
102
RTVSPost2010PropOp38
 70
     1
102
RTVSPost2010Prop39
140
1.0
102
RTVSPost2010PropOp39
 70
     1
102
RTVSPost2010Prop40
 90
        0
102
RTVSPost2010PropOp40
 70
     1
102
RTVSPost2010Prop41ColorIndex
 90
       18
102
RTVSPost2010Prop41ColorRGB
 90
        0
102
RTVSPost2010PropOp41
 70
     1
102
RTVSPost2010Prop42
 90
       50
102
RTVSPost2010PropOp42
 70
     1
102
RTVSPost2010Prop43
 90
        3
102
RTVSPost2010PropOp43
 70
     1
102
RTVSPost2010Prop44ColorIndex
 90
        5
102
RTVSPost2010Prop44ColorRGB
 90
      255
102
RTVSPost2010PropOp44
 70
     1
102
RTVSPost2010Prop45
280
     0
102
RTVSPost2010PropOp45
 70
     1
102
RTVSPost2010Prop46
 90
       50
102
RTVSPost2010PropOp46
 70
     1
102
RTVSPost2010Prop47
 90
       50
102
RTVSPost2010PropOp47
 70
     1
102
RTVSPost2010Prop48
 90
       50
102
RTVSPost2010PropOp48
 70
     1
102
RTVSPost2010Prop49
280
     0
102
RTVSPost2010PropOp49
 70
     1
102
RTVSPost2010Prop50
 90
       50
102
RTVSPost2010PropOp50
 70
     1
102
RTVSPost2010Prop51ColorIndex
 90
      256
102
RTVSPost2010Prop51ColorRGB
 90
-16777216
102
RTVSPost2010PropOp51
 70
     0
102
RTVSPost2010Prop52
140
1.0
102
RTVSPost2010PropOp52
 70
     0
102
RTVSPost2010Prop53
 90
        2
102
RTVSPost2010PropOp53
 70
     1
102
RTVSPost2010Prop54
  1
strokes_ogs.tif
102
RTVSPost2010PropOp54
 70
     1
102
RTVSPost2010Prop55
280
     0
102
RTVSPost2010PropOp55
 70
     1
102
RTVSPost2010Prop56
140
1.0
102
RTVSPost2010PropOp56
 70
     1
102
RTVSPost2010Prop57
140
1.0
102
RTVSPost2010PropOp57
 70
     1
  0
XRECORD
  5
473
102
{ACAD_REACTORS
330
472
102
}
330
472
100
AcDbXrecord
280
     1
102
RTVSPropertyOp0
 70
     1
102
RTVSPropertyOp1
 70
     1
102
RTVSPropertyOp2
 70
     1
102
RTVSPropertyOp3
 70
     1
102
RTVSPropertyOp4
 70
     1
102
RTVSPropertyOp5
 70
     1
102
RTVSPropertyOp6
 70
     1
102
RTVSPropertyOp7
 70
     1
102
RTVSPropertyOp8
 70
     1
102
RTVSPropertyOp9
 70
     1
102
RTVSPropertyOp10
 70
     1
102
RTVSPropertyOp11
 70
     1
102
RTVSPropertyOp12
 70
     1
102
RTVSPropertyOp13
 70
     1
102
RTVSPropertyOp14
 70
     1
102
RTVSPropertyOp15
 70
     1
102
RTVSPropertyOp16
 70
     1
102
RTVSPropertyOp17
 70
     1
102
RTVSPropertyOp18
 70
     1
102
RTVSPropertyOp19
 70
     1
102
RTVSPropertyOp20
 70
     1
102
RTVSPropertyOp21
 70
     1
102
RTVSPropertyOp22
 70
     1
102
RTVSPropertyOp23
 70
     1
102
RTVSPropertyOp24
 70
     1
102
RTVSPropertyOp25
 70
     1
102
RTVSPropertyOp26
 70
     1
102
RTVSPropertyOp27
 70
     1
102
RTVSPropertyOp28
 70
     1
102
RTVSPropertyOp29
 70
     1
102
RTVSPropertyOp30
 70
     1
102
RTVSPropertyOp31
 70
     1
102
RTVSPropertyOp32
 70
     1
102
RTVSPropertyOp33
 70
     1
102
RTVSPropertyOp34
 70
     1
102
RTVSPropertyOp35
 70
     1
102
RTVSPropertyOp36
 70
     1
102
RTVSPropertyOp37
 70
     1
102
RTVSPropertyOp38
 70
     1
102
RTVSPropertyOp39
 70
     1
102
RTVSPropertyOp40
 70
     1
102
RTVSPropertyOp41
 70
     1
102
RTVSPropertyOp42
 70
     1
102
RTVSPropertyOp43
 70
     1
102
RTVSPropertyOp44
 70
     1
102
RTVSPropertyOp45
 70
     1
102
RTVSPropertyOp46
 70
     1
102
RTVSPropertyOp47
 70
     1
102
RTVSPropertyOp48
 70
     1
102
RTVSPropertyOp49
 70
     1
102
RTVSPropertyOp50
 70
     1
102
RTVSPropertyOp51
 70
     0
102
RTVSPropertyOp52
 70
     0
102
RTVSPropertyOp53
 70
     1
102
RTVSPropertyOp54
 70
     1
102
RTVSPropertyOp55
 70
     1
102
RTVSPropertyOp56
 70
     1
102
RTVSPropertyOp57
 70
     1
102
RTVSPost2010Prop28
280
     0
102
RTVSPost2010PropOp28
 70
     1
102
RTVSPost2010Prop29
280
     1
102
RTVSPost2010PropOp29
 70
     1
102
RTVSPost2010Prop30
280
     1
102
RTVSPost2010PropOp30
 70
     1
102
RTVSPost2010Prop31
280
     0
102
RTVSPost2010PropOp31
 70
     1
102
RTVSPost2010Prop32
280
     0
102
RTVSPost2010PropOp32
 70
     1
102
RTVSPost2010Prop33
280
     0
102
RTVSPost2010PropOp33
 70
     1
102
RTVSPost2010Prop34
280
     0
102
RTVSPost2010PropOp34
 70
     1
102
RTVSPost2010Prop35
280
     0
102
RTVSPost2010PropOp35
 70
     1
102
RTVSPost2010Prop36
280
     0
102
RTVSPost2010PropOp36
 70
     1
102
RTVSPost2010Prop37
 90
       50
102
RTVSPost2010PropOp37
 70
     1
102
RTVSPost2010Prop38
140
0.0
102
RTVSPost2010PropOp38
 70
     1
102
RTVSPost2010Prop39
140
1.0
102
RTVSPost2010PropOp39
 70
     1
102
RTVSPost2010Prop40
 90
        0
102
RTVSPost2010PropOp40
 70
     1
102
RTVSPost2010Prop41ColorIndex
 90
       18
102
RTVSPost2010Prop41ColorRGB
 90
        0
102
RTVSPost2010PropOp41
 70
     1
102
RTVSPost2010Prop42
 90
       50
102
RTVSPost2010PropOp42
 70
     1
102
RTVSPost2010Prop43
 90
        3
102
RTVSPost2010PropOp43
 70
     1
102
RTVSPost2010Prop44ColorIndex
 90
        5
102
RTVSPost2010Prop44ColorRGB
 90
      255
102
RTVSPost2010PropOp44
 70
     1
102
RTVSPost2010Prop45
280
     0
102
RTVSPost2010PropOp45
 70
     1
102
RTVSPost2010Prop46
 90
       50
102
RTVSPost2010PropOp46
 70
     1
102
RTVSPost2010Prop47
 90
       50
102
RTVSPost2010PropOp47
 70
     1
102
RTVSPost2010Prop48
 90
       50
102
RTVSPost2010PropOp48
 70
     1
102
RTVSPost2010Prop49
280
     0
102
RTVSPost2010PropOp49
 70
     1
102
RTVSPost2010Prop50
 90
       50
102
RTVSPost2010PropOp50
 70
     1
102
RTVSPost2010Prop51ColorIndex
 90
      256
102
RTVSPost2010Prop51ColorRGB
 90
-16777216
102
RTVSPost2010PropOp51
 70
     0
102
RTVSPost2010Prop52
140
1.0
102
RTVSPost2010PropOp52
 70
     0
102
RTVSPost2010Prop53
 90
        2
102
RTVSPost2010PropOp53
 70
     1
102
RTVSPost2010Prop54
  1
strokes_ogs.tif
102
RTVSPost2010PropOp54
 70
     1
102
RTVSPost2010Prop55
280
     0
102
RTVSPost2010PropOp55
 70
     1
102
RTVSPost2010Prop56
140
1.0
102
RTVSPost2010PropOp56
 70
     1
102
RTVSPost2010Prop57
140
1.0
102
RTVSPost2010PropOp57
 70
     1
  0
XRECORD
  5
487
102
{ACAD_REACTORS
330
486
102
}
330
486
100
AcDbXrecord
280
     1
102
RTVSPropertyOp0
 70
     0
102
RTVSPropertyOp1
 70
     0
102
RTVSPropertyOp2
 70
     0
102
RTVSPropertyOp3
 70
     0
102
RTVSPropertyOp4
 70
     0
102
RTVSPropertyOp5
 70
     0
102
RTVSPropertyOp6
 70
     0
102
RTVSPropertyOp7
 70
     0
102
RTVSPropertyOp8
 70
     0
102
RTVSPropertyOp9
 70
     0
102
RTVSPropertyOp10
 70
     0
102
RTVSPropertyOp11
 70
     0
102
RTVSPropertyOp12
 70
     0
102
RTVSPropertyOp13
 70
     0
102
RTVSPropertyOp14
 70
     2
102
RTVSPropertyOp15
 70
     0
102
RTVSPropertyOp16
 70
     0
102
RTVSPropertyOp17
 70
     0
102
RTVSPropertyOp18
 70
     0
102
RTVSPropertyOp19
 70
     0
102
RTVSPropertyOp20
 70
     0
102
RTVSPropertyOp21
 70
     0
102
RTVSPropertyOp22
 70
     0
102
RTVSPropertyOp23
 70
     0
102
RTVSPropertyOp24
 70
     0
102
RTVSPropertyOp25
 70
     0
102
RTVSPropertyOp26
 70
     0
102
RTVSPropertyOp27
 70
     0
102
RTVSPropertyOp28
 70
     0
102
RTVSPropertyOp29
 70
     0
102
RTVSPropertyOp30
 70
     0
102
RTVSPropertyOp31
 70
     0
102
RTVSPropertyOp32
 70
     0
102
RTVSPropertyOp33
 70
     0
102
RTVSPropertyOp34
 70
     0
102
RTVSPropertyOp35
 70
     0
102
RTVSPropertyOp36
 70
     0
102
RTVSPropertyOp37
 70
     0
102
RTVSPropertyOp38
 70
     0
102
RTVSPropertyOp39
 70
     0
102
RTVSPropertyOp40
 70
     0
102
RTVSPropertyOp41
 70
     0
102
RTVSPropertyOp42
 70
     0
102
RTVSPropertyOp43
 70
     0
102
RTVSPropertyOp44
 70
     0
102
RTVSPropertyOp45
 70
     0
102
RTVSPropertyOp46
 70
     0
102
RTVSPropertyOp47
 70
     0
102
RTVSPropertyOp48
 70
     0
102
RTVSPropertyOp49
 70
     0
102
RTVSPropertyOp50
 70
     0
102
RTVSPropertyOp51
 70
     0
102
RTVSPropertyOp52
 70
     0
102
RTVSPropertyOp53
 70
     0
102
RTVSPropertyOp54
 70
     0
102
RTVSPropertyOp55
 70
     0
102
RTVSPropertyOp56
 70
     0
102
RTVSPropertyOp57
 70
     0
102
RTVSPost2010Prop28
280
     0
102
RTVSPost2010PropOp28
 70
     0
102
RTVSPost2010Prop29
280
     1
102
RTVSPost2010PropOp29
 70
     0
102
RTVSPost2010Prop30
280
     1
102
RTVSPost2010PropOp30
 70
     0
102
RTVSPost2010Prop31
280
     0
102
RTVSPost2010PropOp31
 70
     0
102
RTVSPost2010Prop32
280
     0
102
RTVSPost2010PropOp32
 70
     0
102
RTVSPost2010Prop33
280
     0
102
RTVSPost2010PropOp33
 70
     0
102
RTVSPost2010Prop34
280
     0
102
RTVSPost2010PropOp34
 70
     0
102
RTVSPost2010Prop35
280
     0
102
RTVSPost2010PropOp35
 70
     0
102
RTVSPost2010Prop36
280
     0
102
RTVSPost2010PropOp36
 70
     0
102
RTVSPost2010Prop37
 90
       50
102
RTVSPost2010PropOp37
 70
     0
102
RTVSPost2010Prop38
140
0.0
102
RTVSPost2010PropOp38
 70
     0
102
RTVSPost2010Prop39
140
1.0
102
RTVSPost2010PropOp39
 70
     0
102
RTVSPost2010Prop40
 90
        0
102
RTVSPost2010PropOp40
 70
     0
102
RTVSPost2010Prop41ColorIndex
 90
       18
102
RTVSPost2010Prop41ColorRGB
 90
        0
102
RTVSPost2010PropOp41
 70
     0
102
RTVSPost2010Prop42
 90
       50
102
RTVSPost2010PropOp42
 70
     0
102
RTVSPost2010Prop43
 90
        3
102
RTVSPost2010PropOp43
 70
     0
102
RTVSPost2010Prop44ColorIndex
 90
        5
102
RTVSPost2010Prop44ColorRGB
 90
      255
102
RTVSPost2010PropOp44
 70
     0
102
RTVSPost2010Prop45
280
     0
102
RTVSPost2010PropOp45
 70
     0
102
RTVSPost2010Prop46
 90
       50
102
RTVSPost2010PropOp46
 70
     0
102
RTVSPost2010Prop47
 90
       50
102
RTVSPost2010PropOp47
 70
     0
102
RTVSPost2010Prop48
 90
       50
102
RTVSPost2010PropOp48
 70
     0
102
RTVSPost2010Prop49
280
     0
102
RTVSPost2010PropOp49
 70
     0
102
RTVSPost2010Prop50
 90
       50
102
RTVSPost2010PropOp50
 70
     0
102
RTVSPost2010Prop51ColorIndex
 90
      256
102
RTVSPost2010Prop51ColorRGB
 90
-16777216
102
RTVSPost2010PropOp51
 70
     0
102
RTVSPost2010Prop52
140
1.0
102
RTVSPost2010PropOp52
 70
     0
102
RTVSPost2010Prop53
 90
        2
102
RTVSPost2010PropOp53
 70
     0
102
RTVSPost2010Prop54
  1
strokes_ogs.tif
102
RTVSPost2010PropOp54
 70
     0
102
RTVSPost2010Prop55
280
     0
102
RTVSPost2010PropOp55
 70
     0
102
RTVSPost2010Prop56
140
1.0
102
RTVSPost2010PropOp56
 70
     0
102
RTVSPost2010Prop57
140
1.0
102
RTVSPost2010PropOp57
 70
     0
  0
XRECORD
  5
481
102
{ACAD_REACTORS
330
480
102
}
330
480
100
AcDbXrecord
280
     1
102
RTVSPropertyOp0
 70
     1
102
RTVSPropertyOp1
 70
     1
102
RTVSPropertyOp2
 70
     1
102
RTVSPropertyOp3
 70
     1
102
RTVSPropertyOp4
 70
     1
102
RTVSPropertyOp5
 70
     1
102
RTVSPropertyOp6
 70
     1
102
RTVSPropertyOp7
 70
     1
102
RTVSPropertyOp8
 70
     1
102
RTVSPropertyOp9
 70
     1
102
RTVSPropertyOp10
 70
     1
102
RTVSPropertyOp11
 70
     1
102
RTVSPropertyOp12
 70
     1
102
RTVSPropertyOp13
 70
     1
102
RTVSPropertyOp14
 70
     1
102
RTVSPropertyOp15
 70
     1
102
RTVSPropertyOp16
 70
     1
102
RTVSPropertyOp17
 70
     1
102
RTVSPropertyOp18
 70
     1
102
RTVSPropertyOp19
 70
     1
102
RTVSPropertyOp20
 70
     1
102
RTVSPropertyOp21
 70
     1
102
RTVSPropertyOp22
 70
     1
102
RTVSPropertyOp23
 70
     1
102
RTVSPropertyOp24
 70
     1
102
RTVSPropertyOp25
 70
     1
102
RTVSPropertyOp26
 70
     1
102
RTVSPropertyOp27
 70
     1
102
RTVSPropertyOp28
 70
     1
102
RTVSPropertyOp29
 70
     1
102
RTVSPropertyOp30
 70
     1
102
RTVSPropertyOp31
 70
     1
102
RTVSPropertyOp32
 70
     1
102
RTVSPropertyOp33
 70
     1
102
RTVSPropertyOp34
 70
     1
102
RTVSPropertyOp35
 70
     1
102
RTVSPropertyOp36
 70
     1
102
RTVSPropertyOp37
 70
     1
102
RTVSPropertyOp38
 70
     1
102
RTVSPropertyOp39
 70
     1
102
RTVSPropertyOp40
 70
     1
102
RTVSPropertyOp41
 70
     1
102
RTVSPropertyOp42
 70
     1
102
RTVSPropertyOp43
 70
     1
102
RTVSPropertyOp44
 70
     1
102
RTVSPropertyOp45
 70
     1
102
RTVSPropertyOp46
 70
     1
102
RTVSPropertyOp47
 70
     1
102
RTVSPropertyOp48
 70
     1
102
RTVSPropertyOp49
 70
     1
102
RTVSPropertyOp50
 70
     1
102
RTVSPropertyOp51
 70
     0
102
RTVSPropertyOp52
 70
     0
102
RTVSPropertyOp53
 70
     1
102
RTVSPropertyOp54
 70
     1
102
RTVSPropertyOp55
 70
     1
102
RTVSPropertyOp56
 70
     1
102
RTVSPropertyOp57
 70
     1
102
RTVSPost2010Prop28
280
     0
102
RTVSPost2010PropOp28
 70
     1
102
RTVSPost2010Prop29
280
     1
102
RTVSPost2010PropOp29
 70
     1
102
RTVSPost2010Prop30
280
     1
102
RTVSPost2010PropOp30
 70
     1
102
RTVSPost2010Prop31
280
     0
102
RTVSPost2010PropOp31
 70
     1
102
RTVSPost2010Prop32
280
     0
102
RTVSPost2010PropOp32
 70
     1
102
RTVSPost2010Prop33
280
     0
102
RTVSPost2010PropOp33
 70
     1
102
RTVSPost2010Prop34
280
     0
102
RTVSPost2010PropOp34
 70
     1
102
RTVSPost2010Prop35
280
     0
102
RTVSPost2010PropOp35
 70
     1
102
RTVSPost2010Prop36
280
     0
102
RTVSPost2010PropOp36
 70
     1
102
RTVSPost2010Prop37
 90
       50
102
RTVSPost2010PropOp37
 70
     1
102
RTVSPost2010Prop38
140
0.0
102
RTVSPost2010PropOp38
 70
     1
102
RTVSPost2010Prop39
140
1.0
102
RTVSPost2010PropOp39
 70
     1
102
RTVSPost2010Prop40
 90
        0
102
RTVSPost2010PropOp40
 70
     1
102
RTVSPost2010Prop41ColorIndex
 90
       18
102
RTVSPost2010Prop41ColorRGB
 90
        0
102
RTVSPost2010PropOp41
 70
     1
102
RTVSPost2010Prop42
 90
       50
102
RTVSPost2010PropOp42
 70
     1
102
RTVSPost2010Prop43
 90
        3
102
RTVSPost2010PropOp43
 70
     1
102
RTVSPost2010Prop44ColorIndex
 90
        5
102
RTVSPost2010Prop44ColorRGB
 90
      255
102
RTVSPost2010PropOp44
 70
     1
102
RTVSPost2010Prop45
280
     0
102
RTVSPost2010PropOp45
 70
     1
102
RTVSPost2010Prop46
 90
       50
102
RTVSPost2010PropOp46
 70
     1
102
RTVSPost2010Prop47
 90
       50
102
RTVSPost2010PropOp47
 70
     1
102
RTVSPost2010Prop48
 90
       50
102
RTVSPost2010PropOp48
 70
     1
102
RTVSPost2010Prop49
280
     0
102
RTVSPost2010PropOp49
 70
     1
102
RTVSPost2010Prop50
 90
       50
102
RTVSPost2010PropOp50
 70
     1
102
RTVSPost2010Prop51ColorIndex
 90
      256
102
RTVSPost2010Prop51ColorRGB
 90
-16777216
102
RTVSPost2010PropOp51
 70
     0
102
RTVSPost2010Prop52
140
1.0
102
RTVSPost2010PropOp52
 70
     0
102
RTVSPost2010Prop53
 90
        2
102
RTVSPost2010PropOp53
 70
     1
102
RTVSPost2010Prop54
  1
strokes_ogs.tif
102
RTVSPost2010PropOp54
 70
     1
102
RTVSPost2010Prop55
280
     0
102
RTVSPost2010PropOp55
 70
     1
102
RTVSPost2010Prop56
140
1.0
102
RTVSPost2010PropOp56
 70
     1
102
RTVSPost2010Prop57
140
1.0
102
RTVSPost2010PropOp57
 70
     1
  0
XRECORD
  5
489
102
{ACAD_REACTORS
330
488
102
}
330
488
100
AcDbXrecord
280
     1
102
RTVSPropertyOp0
 70
     0
102
RTVSPropertyOp1
 70
     0
102
RTVSPropertyOp2
 70
     0
102
RTVSPropertyOp3
 70
     0
102
RTVSPropertyOp4
 70
     0
102
RTVSPropertyOp5
 70
     0
102
RTVSPropertyOp6
 70
     0
102
RTVSPropertyOp7
 70
     0
102
RTVSPropertyOp8
 70
     0
102
RTVSPropertyOp9
 70
     0
102
RTVSPropertyOp10
 70
     0
102
RTVSPropertyOp11
 70
     0
102
RTVSPropertyOp12
 70
     0
102
RTVSPropertyOp13
 70
     0
102
RTVSPropertyOp14
 70
     2
102
RTVSPropertyOp15
 70
     0
102
RTVSPropertyOp16
 70
     0
102
RTVSPropertyOp17
 70
     0
102
RTVSPropertyOp18
 70
     0
102
RTVSPropertyOp19
 70
     0
102
RTVSPropertyOp20
 70
     0
102
RTVSPropertyOp21
 70
     0
102
RTVSPropertyOp22
 70
     0
102
RTVSPropertyOp23
 70
     0
102
RTVSPropertyOp24
 70
     0
102
RTVSPropertyOp25
 70
     0
102
RTVSPropertyOp26
 70
     0
102
RTVSPropertyOp27
 70
     0
102
RTVSPropertyOp28
 70
     0
102
RTVSPropertyOp29
 70
     0
102
RTVSPropertyOp30
 70
     0
102
RTVSPropertyOp31
 70
     0
102
RTVSPropertyOp32
 70
     0
102
RTVSPropertyOp33
 70
     0
102
RTVSPropertyOp34
 70
     0
102
RTVSPropertyOp35
 70
     0
102
RTVSPropertyOp36
 70
     0
102
RTVSPropertyOp37
 70
     0
102
RTVSPropertyOp38
 70
     0
102
RTVSPropertyOp39
 70
     0
102
RTVSPropertyOp40
 70
     0
102
RTVSPropertyOp41
 70
     0
102
RTVSPropertyOp42
 70
     0
102
RTVSPropertyOp43
 70
     0
102
RTVSPropertyOp44
 70
     0
102
RTVSPropertyOp45
 70
     0
102
RTVSPropertyOp46
 70
     0
102
RTVSPropertyOp47
 70
     0
102
RTVSPropertyOp48
 70
     0
102
RTVSPropertyOp49
 70
     0
102
RTVSPropertyOp50
 70
     0
102
RTVSPropertyOp51
 70
     0
102
RTVSPropertyOp52
 70
     0
102
RTVSPropertyOp53
 70
     0
102
RTVSPropertyOp54
 70
     0
102
RTVSPropertyOp55
 70
     0
102
RTVSPropertyOp56
 70
     0
102
RTVSPropertyOp57
 70
     0
102
RTVSPost2010Prop28
280
     0
102
RTVSPost2010PropOp28
 70
     0
102
RTVSPost2010Prop29
280
     1
102
RTVSPost2010PropOp29
 70
     0
102
RTVSPost2010Prop30
280
     1
102
RTVSPost2010PropOp30
 70
     0
102
RTVSPost2010Prop31
280
     0
102
RTVSPost2010PropOp31
 70
     0
102
RTVSPost2010Prop32
280
     0
102
RTVSPost2010PropOp32
 70
     0
102
RTVSPost2010Prop33
280
     0
102
RTVSPost2010PropOp33
 70
     0
102
RTVSPost2010Prop34
280
     0
102
RTVSPost2010PropOp34
 70
     0
102
RTVSPost2010Prop35
280
     0
102
RTVSPost2010PropOp35
 70
     0
102
RTVSPost2010Prop36
280
     0
102
RTVSPost2010PropOp36
 70
     0
102
RTVSPost2010Prop37
 90
       50
102
RTVSPost2010PropOp37
 70
     0
102
RTVSPost2010Prop38
140
0.0
102
RTVSPost2010PropOp38
 70
     0
102
RTVSPost2010Prop39
140
1.0
102
RTVSPost2010PropOp39
 70
     0
102
RTVSPost2010Prop40
 90
        0
102
RTVSPost2010PropOp40
 70
     0
102
RTVSPost2010Prop41ColorIndex
 90
       18
102
RTVSPost2010Prop41ColorRGB
 90
        0
102
RTVSPost2010PropOp41
 70
     0
102
RTVSPost2010Prop42
 90
       50
102
RTVSPost2010PropOp42
 70
     0
102
RTVSPost2010Prop43
 90
        3
102
RTVSPost2010PropOp43
 70
     0
102
RTVSPost2010Prop44ColorIndex
 90
        5
102
RTVSPost2010Prop44ColorRGB
 90
      255
102
RTVSPost2010PropOp44
 70
     0
102
RTVSPost2010Prop45
280
     0
102
RTVSPost2010PropOp45
 70
     0
102
RTVSPost2010Prop46
 90
       50
102
RTVSPost2010PropOp46
 70
     0
102
RTVSPost2010Prop47
 90
       50
102
RTVSPost2010PropOp47
 70
     0
102
RTVSPost2010Prop48
 90
       50
102
RTVSPost2010PropOp48
 70
     0
102
RTVSPost2010Prop49
280
     0
102
RTVSPost2010PropOp49
 70
     0
102
RTVSPost2010Prop50
 90
       50
102
RTVSPost2010PropOp50
 70
     0
102
RTVSPost2010Prop51ColorIndex
 90
      256
102
RTVSPost2010Prop51ColorRGB
 90
-16777216
102
RTVSPost2010PropOp51
 70
     0
102
RTVSPost2010Prop52
140
1.0
102
RTVSPost2010PropOp52
 70
     0
102
RTVSPost2010Prop53
 90
        2
102
RTVSPost2010PropOp53
 70
     0
102
RTVSPost2010Prop54
  1
strokes_ogs.tif
102
RTVSPost2010PropOp54
 70
     0
102
RTVSPost2010Prop55
280
     0
102
RTVSPost2010PropOp55
 70
     0
102
RTVSPost2010Prop56
140
1.0
102
RTVSPost2010PropOp56
 70
     0
102
RTVSPost2010Prop57
140
1.0
102
RTVSPost2010PropOp57
 70
     0
  0
XRECORD
  5
477
102
{ACAD_REACTORS
330
476
102
}
330
476
100
AcDbXrecord
280
     1
102
RTVSPropertyOp0
 70
     1
102
RTVSPropertyOp1
 70
     1
102
RTVSPropertyOp2
 70
     1
102
RTVSPropertyOp3
 70
     1
102
RTVSPropertyOp4
 70
     1
102
RTVSPropertyOp5
 70
     1
102
RTVSPropertyOp6
 70
     1
102
RTVSPropertyOp7
 70
     1
102
RTVSPropertyOp8
 70
     1
102
RTVSPropertyOp9
 70
     1
102
RTVSPropertyOp10
 70
     1
102
RTVSPropertyOp11
 70
     1
102
RTVSPropertyOp12
 70
     1
102
RTVSPropertyOp13
 70
     1
102
RTVSPropertyOp14
 70
     1
102
RTVSPropertyOp15
 70
     1
102
RTVSPropertyOp16
 70
     1
102
RTVSPropertyOp17
 70
     1
102
RTVSPropertyOp18
 70
     1
102
RTVSPropertyOp19
 70
     1
102
RTVSPropertyOp20
 70
     1
102
RTVSPropertyOp21
 70
     1
102
RTVSPropertyOp22
 70
     1
102
RTVSPropertyOp23
 70
     1
102
RTVSPropertyOp24
 70
     1
102
RTVSPropertyOp25
 70
     1
102
RTVSPropertyOp26
 70
     1
102
RTVSPropertyOp27
 70
     1
102
RTVSPropertyOp28
 70
     1
102
RTVSPropertyOp29
 70
     1
102
RTVSPropertyOp30
 70
     1
102
RTVSPropertyOp31
 70
     1
102
RTVSPropertyOp32
 70
     1
102
RTVSPropertyOp33
 70
     1
102
RTVSPropertyOp34
 70
     1
102
RTVSPropertyOp35
 70
     1
102
RTVSPropertyOp36
 70
     1
102
RTVSPropertyOp37
 70
     1
102
RTVSPropertyOp38
 70
     1
102
RTVSPropertyOp39
 70
     1
102
RTVSPropertyOp40
 70
     1
102
RTVSPropertyOp41
 70
     1
102
RTVSPropertyOp42
 70
     1
102
RTVSPropertyOp43
 70
     1
102
RTVSPropertyOp44
 70
     1
102
RTVSPropertyOp45
 70
     1
102
RTVSPropertyOp46
 70
     1
102
RTVSPropertyOp47
 70
     1
102
RTVSPropertyOp48
 70
     1
102
RTVSPropertyOp49
 70
     1
102
RTVSPropertyOp50
 70
     1
102
RTVSPropertyOp51
 70
     0
102
RTVSPropertyOp52
 70
     0
102
RTVSPropertyOp53
 70
     1
102
RTVSPropertyOp54
 70
     1
102
RTVSPropertyOp55
 70
     1
102
RTVSPropertyOp56
 70
     1
102
RTVSPropertyOp57
 70
     1
102
RTVSPost2010Prop28
280
     0
102
RTVSPost2010PropOp28
 70
     1
102
RTVSPost2010Prop29
280
     1
102
RTVSPost2010PropOp29
 70
     1
102
RTVSPost2010Prop30
280
     1
102
RTVSPost2010PropOp30
 70
     1
102
RTVSPost2010Prop31
280
     0
102
RTVSPost2010PropOp31
 70
     1
102
RTVSPost2010Prop32
280
     0
102
RTVSPost2010PropOp32
 70
     1
102
RTVSPost2010Prop33
280
     0
102
RTVSPost2010PropOp33
 70
     1
102
RTVSPost2010Prop34
280
     0
102
RTVSPost2010PropOp34
 70
     1
102
RTVSPost2010Prop35
280
     0
102
RTVSPost2010PropOp35
 70
     1
102
RTVSPost2010Prop36
280
     0
102
RTVSPost2010PropOp36
 70
     1
102
RTVSPost2010Prop37
 90
       50
102
RTVSPost2010PropOp37
 70
     1
102
RTVSPost2010Prop38
140
0.0
102
RTVSPost2010PropOp38
 70
     1
102
RTVSPost2010Prop39
140
1.0
102
RTVSPost2010PropOp39
 70
     1
102
RTVSPost2010Prop40
 90
        0
102
RTVSPost2010PropOp40
 70
     1
102
RTVSPost2010Prop41ColorIndex
 90
       18
102
RTVSPost2010Prop41ColorRGB
 90
        0
102
RTVSPost2010PropOp41
 70
     1
102
RTVSPost2010Prop42
 90
       50
102
RTVSPost2010PropOp42
 70
     1
102
RTVSPost2010Prop43
 90
        3
102
RTVSPost2010PropOp43
 70
     1
102
RTVSPost2010Prop44ColorIndex
 90
        5
102
RTVSPost2010Prop44ColorRGB
 90
      255
102
RTVSPost2010PropOp44
 70
     1
102
RTVSPost2010Prop45
280
     0
102
RTVSPost2010PropOp45
 70
     1
102
RTVSPost2010Prop46
 90
       50
102
RTVSPost2010PropOp46
 70
     1
102
RTVSPost2010Prop47
 90
       50
102
RTVSPost2010PropOp47
 70
     1
102
RTVSPost2010Prop48
 90
       50
102
RTVSPost2010PropOp48
 70
     1
102
RTVSPost2010Prop49
280
     0
102
RTVSPost2010PropOp49
 70
     1
102
RTVSPost2010Prop50
 90
       50
102
RTVSPost2010PropOp50
 70
     1
102
RTVSPost2010Prop51ColorIndex
 90
      256
102
RTVSPost2010Prop51ColorRGB
 90
-16777216
102
RTVSPost2010PropOp51
 70
     0
102
RTVSPost2010Prop52
140
1.0
102
RTVSPost2010PropOp52
 70
     0
102
RTVSPost2010Prop53
 90
        2
102
RTVSPost2010PropOp53
 70
     1
102
RTVSPost2010Prop54
  1
strokes_ogs.tif
102
RTVSPost2010PropOp54
 70
     1
102
RTVSPost2010Prop55
280
     0
102
RTVSPost2010PropOp55
 70
     1
102
RTVSPost2010Prop56
140
1.0
102
RTVSPost2010PropOp56
 70
     1
102
RTVSPost2010Prop57
140
1.0
102
RTVSPost2010PropOp57
 70
     1
  0
XRECORD
  5
495
102
{ACAD_REACTORS
330
494
102
}
330
494
100
AcDbXrecord
280
     1
102
RTVSPropertyOp0
 70
     1
102
RTVSPropertyOp1
 70
     1
102
RTVSPropertyOp2
 70
     1
102
RTVSPropertyOp3
 70
     1
102
RTVSPropertyOp4
 70
     1
102
RTVSPropertyOp5
 70
     1
102
RTVSPropertyOp6
 70
     1
102
RTVSPropertyOp7
 70
     1
102
RTVSPropertyOp8
 70
     1
102
RTVSPropertyOp9
 70
     1
102
RTVSPropertyOp10
 70
     1
102
RTVSPropertyOp11
 70
     1
102
RTVSPropertyOp12
 70
     1
102
RTVSPropertyOp13
 70
     1
102
RTVSPropertyOp14
 70
     1
102
RTVSPropertyOp15
 70
     1
102
RTVSPropertyOp16
 70
     1
102
RTVSPropertyOp17
 70
     1
102
RTVSPropertyOp18
 70
     1
102
RTVSPropertyOp19
 70
     1
102
RTVSPropertyOp20
 70
     1
102
RTVSPropertyOp21
 70
     1
102
RTVSPropertyOp22
 70
     1
102
RTVSPropertyOp23
 70
     1
102
RTVSPropertyOp24
 70
     1
102
RTVSPropertyOp25
 70
     1
102
RTVSPropertyOp26
 70
     1
102
RTVSPropertyOp27
 70
     1
102
RTVSPropertyOp28
 70
     1
102
RTVSPropertyOp29
 70
     1
102
RTVSPropertyOp30
 70
     1
102
RTVSPropertyOp31
 70
     1
102
RTVSPropertyOp32
 70
     1
102
RTVSPropertyOp33
 70
     1
102
RTVSPropertyOp34
 70
     1
102
RTVSPropertyOp35
 70
     1
102
RTVSPropertyOp36
 70
     1
102
RTVSPropertyOp37
 70
     1
102
RTVSPropertyOp38
 70
     1
102
RTVSPropertyOp39
 70
     1
102
RTVSPropertyOp40
 70
     1
102
RTVSPropertyOp41
 70
     1
102
RTVSPropertyOp42
 70
     1
102
RTVSPropertyOp43
 70
     1
102
RTVSPropertyOp44
 70
     1
102
RTVSPropertyOp45
 70
     1
102
RTVSPropertyOp46
 70
     1
102
RTVSPropertyOp47
 70
     1
102
RTVSPropertyOp48
 70
     1
102
RTVSPropertyOp49
 70
     1
102
RTVSPropertyOp50
 70
     1
102
RTVSPropertyOp51
 70
     0
102
RTVSPropertyOp52
 70
     0
102
RTVSPropertyOp53
 70
     1
102
RTVSPropertyOp54
 70
     1
102
RTVSPropertyOp55
 70
     1
102
RTVSPropertyOp56
 70
     1
102
RTVSPropertyOp57
 70
     1
102
RTVSPost2010Prop28
280
     0
102
RTVSPost2010PropOp28
 70
     1
102
RTVSPost2010Prop29
280
     1
102
RTVSPost2010PropOp29
 70
     1
102
RTVSPost2010Prop30
280
     1
102
RTVSPost2010PropOp30
 70
     1
102
RTVSPost2010Prop31
280
     0
102
RTVSPost2010PropOp31
 70
     1
102
RTVSPost2010Prop32
280
     0
102
RTVSPost2010PropOp32
 70
     1
102
RTVSPost2010Prop33
280
     0
102
RTVSPost2010PropOp33
 70
     1
102
RTVSPost2010Prop34
280
     0
102
RTVSPost2010PropOp34
 70
     1
102
RTVSPost2010Prop35
280
     0
102
RTVSPost2010PropOp35
 70
     1
102
RTVSPost2010Prop36
280
     0
102
RTVSPost2010PropOp36
 70
     1
102
RTVSPost2010Prop37
 90
       50
102
RTVSPost2010PropOp37
 70
     1
102
RTVSPost2010Prop38
140
0.0
102
RTVSPost2010PropOp38
 70
     1
102
RTVSPost2010Prop39
140
1.0
102
RTVSPost2010PropOp39
 70
     1
102
RTVSPost2010Prop40
 90
        0
102
RTVSPost2010PropOp40
 70
     1
102
RTVSPost2010Prop41ColorIndex
 90
       18
102
RTVSPost2010Prop41ColorRGB
 90
        0
102
RTVSPost2010PropOp41
 70
     1
102
RTVSPost2010Prop42
 90
       50
102
RTVSPost2010PropOp42
 70
     1
102
RTVSPost2010Prop43
 90
        3
102
RTVSPost2010PropOp43
 70
     1
102
RTVSPost2010Prop44ColorIndex
 90
        5
102
RTVSPost2010Prop44ColorRGB
 90
      255
102
RTVSPost2010PropOp44
 70
     1
102
RTVSPost2010Prop45
280
     0
102
RTVSPost2010PropOp45
 70
     1
102
RTVSPost2010Prop46
 90
       50
102
RTVSPost2010PropOp46
 70
     1
102
RTVSPost2010Prop47
 90
       50
102
RTVSPost2010PropOp47
 70
     1
102
RTVSPost2010Prop48
 90
       50
102
RTVSPost2010PropOp48
 70
     1
102
RTVSPost2010Prop49
280
     0
102
RTVSPost2010PropOp49
 70
     1
102
RTVSPost2010Prop50
 90
       50
102
RTVSPost2010PropOp50
 70
     1
102
RTVSPost2010Prop51ColorIndex
 90
      256
102
RTVSPost2010Prop51ColorRGB
 90
-16777216
102
RTVSPost2010PropOp51
 70
     0
102
RTVSPost2010Prop52
140
1.0
102
RTVSPost2010PropOp52
 70
     0
102
RTVSPost2010Prop53
 90
        2
102
RTVSPost2010PropOp53
 70
     1
102
RTVSPost2010Prop54
  1
strokes_ogs.tif
102
RTVSPost2010PropOp54
 70
     1
102
RTVSPost2010Prop55
280
     0
102
RTVSPost2010PropOp55
 70
     1
102
RTVSPost2010Prop56
140
1.0
102
RTVSPost2010PropOp56
 70
     1
102
RTVSPost2010Prop57
140
1.0
102
RTVSPost2010PropOp57
 70
     1
  0
XRECORD
  5
493
102
{ACAD_REACTORS
330
492
102
}
330
492
100
AcDbXrecord
280
     1
102
RTVSPropertyOp0
 70
     1
102
RTVSPropertyOp1
 70
     1
102
RTVSPropertyOp2
 70
     1
102
RTVSPropertyOp3
 70
     1
102
RTVSPropertyOp4
 70
     1
102
RTVSPropertyOp5
 70
     1
102
RTVSPropertyOp6
 70
     1
102
RTVSPropertyOp7
 70
     1
102
RTVSPropertyOp8
 70
     1
102
RTVSPropertyOp9
 70
     1
102
RTVSPropertyOp10
 70
     1
102
RTVSPropertyOp11
 70
     1
102
RTVSPropertyOp12
 70
     1
102
RTVSPropertyOp13
 70
     1
102
RTVSPropertyOp14
 70
     1
102
RTVSPropertyOp15
 70
     1
102
RTVSPropertyOp16
 70
     1
102
RTVSPropertyOp17
 70
     1
102
RTVSPropertyOp18
 70
     1
102
RTVSPropertyOp19
 70
     1
102
RTVSPropertyOp20
 70
     1
102
RTVSPropertyOp21
 70
     1
102
RTVSPropertyOp22
 70
     1
102
RTVSPropertyOp23
 70
     1
102
RTVSPropertyOp24
 70
     1
102
RTVSPropertyOp25
 70
     1
102
RTVSPropertyOp26
 70
     1
102
RTVSPropertyOp27
 70
     1
102
RTVSPropertyOp28
 70
     1
102
RTVSPropertyOp29
 70
     1
102
RTVSPropertyOp30
 70
     1
102
RTVSPropertyOp31
 70
     1
102
RTVSPropertyOp32
 70
     1
102
RTVSPropertyOp33
 70
     1
102
RTVSPropertyOp34
 70
     1
102
RTVSPropertyOp35
 70
     1
102
RTVSPropertyOp36
 70
     1
102
RTVSPropertyOp37
 70
     1
102
RTVSPropertyOp38
 70
     1
102
RTVSPropertyOp39
 70
     1
102
RTVSPropertyOp40
 70
     1
102
RTVSPropertyOp41
 70
     1
102
RTVSPropertyOp42
 70
     1
102
RTVSPropertyOp43
 70
     1
102
RTVSPropertyOp44
 70
     1
102
RTVSPropertyOp45
 70
     1
102
RTVSPropertyOp46
 70
     1
102
RTVSPropertyOp47
 70
     1
102
RTVSPropertyOp48
 70
     1
102
RTVSPropertyOp49
 70
     1
102
RTVSPropertyOp50
 70
     1
102
RTVSPropertyOp51
 70
     0
102
RTVSPropertyOp52
 70
     0
102
RTVSPropertyOp53
 70
     1
102
RTVSPropertyOp54
 70
     1
102
RTVSPropertyOp55
 70
     1
102
RTVSPropertyOp56
 70
     1
102
RTVSPropertyOp57
 70
     1
102
RTVSPost2010Prop28
280
     0
102
RTVSPost2010PropOp28
 70
     1
102
RTVSPost2010Prop29
280
     1
102
RTVSPost2010PropOp29
 70
     1
102
RTVSPost2010Prop30
280
     1
102
RTVSPost2010PropOp30
 70
     1
102
RTVSPost2010Prop31
280
     0
102
RTVSPost2010PropOp31
 70
     1
102
RTVSPost2010Prop32
280
     0
102
RTVSPost2010PropOp32
 70
     1
102
RTVSPost2010Prop33
280
     0
102
RTVSPost2010PropOp33
 70
     1
102
RTVSPost2010Prop34
280
     0
102
RTVSPost2010PropOp34
 70
     1
102
RTVSPost2010Prop35
280
     0
102
RTVSPost2010PropOp35
 70
     1
102
RTVSPost2010Prop36
280
     0
102
RTVSPost2010PropOp36
 70
     1
102
RTVSPost2010Prop37
 90
       50
102
RTVSPost2010PropOp37
 70
     1
102
RTVSPost2010Prop38
140
0.0
102
RTVSPost2010PropOp38
 70
     1
102
RTVSPost2010Prop39
140
1.0
102
RTVSPost2010PropOp39
 70
     1
102
RTVSPost2010Prop40
 90
        0
102
RTVSPost2010PropOp40
 70
     1
102
RTVSPost2010Prop41ColorIndex
 90
       18
102
RTVSPost2010Prop41ColorRGB
 90
        0
102
RTVSPost2010PropOp41
 70
     1
102
RTVSPost2010Prop42
 90
       50
102
RTVSPost2010PropOp42
 70
     1
102
RTVSPost2010Prop43
 90
        3
102
RTVSPost2010PropOp43
 70
     1
102
RTVSPost2010Prop44ColorIndex
 90
        5
102
RTVSPost2010Prop44ColorRGB
 90
      255
102
RTVSPost2010PropOp44
 70
     1
102
RTVSPost2010Prop45
280
     0
102
RTVSPost2010PropOp45
 70
     1
102
RTVSPost2010Prop46
 90
       50
102
RTVSPost2010PropOp46
 70
     1
102
RTVSPost2010Prop47
 90
       50
102
RTVSPost2010PropOp47
 70
     1
102
RTVSPost2010Prop48
 90
       50
102
RTVSPost2010PropOp48
 70
     1
102
RTVSPost2010Prop49
280
     0
102
RTVSPost2010PropOp49
 70
     1
102
RTVSPost2010Prop50
 90
       50
102
RTVSPost2010PropOp50
 70
     1
102
RTVSPost2010Prop51ColorIndex
 90
      256
102
RTVSPost2010Prop51ColorRGB
 90
-16777216
102
RTVSPost2010PropOp51
 70
     0
102
RTVSPost2010Prop52
140
1.0
102
RTVSPost2010PropOp52
 70
     0
102
RTVSPost2010Prop53
 90
        2
102
RTVSPost2010PropOp53
 70
     1
102
RTVSPost2010Prop54
  1
strokes_ogs.tif
102
RTVSPost2010PropOp54
 70
     1
102
RTVSPost2010Prop55
280
     0
102
RTVSPost2010PropOp55
 70
     1
102
RTVSPost2010Prop56
140
1.0
102
RTVSPost2010PropOp56
 70
     1
102
RTVSPost2010Prop57
140
1.0
102
RTVSPost2010PropOp57
 70
     1
  0
XRECORD
  5
48D
102
{ACAD_REACTORS
330
48C
102
}
330
48C
100
AcDbXrecord
280
     1
102
RTVSPropertyOp0
 70
     1
102
RTVSPropertyOp1
 70
     1
102
RTVSPropertyOp2
 70
     1
102
RTVSPropertyOp3
 70
     1
102
RTVSPropertyOp4
 70
     1
102
RTVSPropertyOp5
 70
     1
102
RTVSPropertyOp6
 70
     1
102
RTVSPropertyOp7
 70
     1
102
RTVSPropertyOp8
 70
     1
102
RTVSPropertyOp9
 70
     1
102
RTVSPropertyOp10
 70
     1
102
RTVSPropertyOp11
 70
     1
102
RTVSPropertyOp12
 70
     1
102
RTVSPropertyOp13
 70
     1
102
RTVSPropertyOp14
 70
     1
102
RTVSPropertyOp15
 70
     1
102
RTVSPropertyOp16
 70
     1
102
RTVSPropertyOp17
 70
     1
102
RTVSPropertyOp18
 70
     1
102
RTVSPropertyOp19
 70
     1
102
RTVSPropertyOp20
 70
     1
102
RTVSPropertyOp21
 70
     1
102
RTVSPropertyOp22
 70
     1
102
RTVSPropertyOp23
 70
     1
102
RTVSPropertyOp24
 70
     1
102
RTVSPropertyOp25
 70
     1
102
RTVSPropertyOp26
 70
     1
102
RTVSPropertyOp27
 70
     1
102
RTVSPropertyOp28
 70
     1
102
RTVSPropertyOp29
 70
     1
102
RTVSPropertyOp30
 70
     1
102
RTVSPropertyOp31
 70
     1
102
RTVSPropertyOp32
 70
     1
102
RTVSPropertyOp33
 70
     1
102
RTVSPropertyOp34
 70
     1
102
RTVSPropertyOp35
 70
     1
102
RTVSPropertyOp36
 70
     1
102
RTVSPropertyOp37
 70
     1
102
RTVSPropertyOp38
 70
     1
102
RTVSPropertyOp39
 70
     1
102
RTVSPropertyOp40
 70
     1
102
RTVSPropertyOp41
 70
     1
102
RTVSPropertyOp42
 70
     1
102
RTVSPropertyOp43
 70
     1
102
RTVSPropertyOp44
 70
     1
102
RTVSPropertyOp45
 70
     1
102
RTVSPropertyOp46
 70
     1
102
RTVSPropertyOp47
 70
     1
102
RTVSPropertyOp48
 70
     1
102
RTVSPropertyOp49
 70
     1
102
RTVSPropertyOp50
 70
     1
102
RTVSPropertyOp51
 70
     0
102
RTVSPropertyOp52
 70
     0
102
RTVSPropertyOp53
 70
     1
102
RTVSPropertyOp54
 70
     1
102
RTVSPropertyOp55
 70
     1
102
RTVSPropertyOp56
 70
     1
102
RTVSPropertyOp57
 70
     1
102
RTVSPost2010Prop28
280
     0
102
RTVSPost2010PropOp28
 70
     1
102
RTVSPost2010Prop29
280
     1
102
RTVSPost2010PropOp29
 70
     1
102
RTVSPost2010Prop30
280
     1
102
RTVSPost2010PropOp30
 70
     1
102
RTVSPost2010Prop31
280
     0
102
RTVSPost2010PropOp31
 70
     1
102
RTVSPost2010Prop32
280
     0
102
RTVSPost2010PropOp32
 70
     1
102
RTVSPost2010Prop33
280
     0
102
RTVSPost2010PropOp33
 70
     1
102
RTVSPost2010Prop34
280
     0
102
RTVSPost2010PropOp34
 70
     1
102
RTVSPost2010Prop35
280
     0
102
RTVSPost2010PropOp35
 70
     1
102
RTVSPost2010Prop36
280
     0
102
RTVSPost2010PropOp36
 70
     1
102
RTVSPost2010Prop37
 90
       50
102
RTVSPost2010PropOp37
 70
     1
102
RTVSPost2010Prop38
140
0.0
102
RTVSPost2010PropOp38
 70
     1
102
RTVSPost2010Prop39
140
1.0
102
RTVSPost2010PropOp39
 70
     1
102
RTVSPost2010Prop40
 90
        0
102
RTVSPost2010PropOp40
 70
     1
102
RTVSPost2010Prop41ColorIndex
 90
       18
102
RTVSPost2010Prop41ColorRGB
 90
        0
102
RTVSPost2010PropOp41
 70
     1
102
RTVSPost2010Prop42
 90
       50
102
RTVSPost2010PropOp42
 70
     1
102
RTVSPost2010Prop43
 90
        3
102
RTVSPost2010PropOp43
 70
     1
102
RTVSPost2010Prop44ColorIndex
 90
        5
102
RTVSPost2010Prop44ColorRGB
 90
      255
102
RTVSPost2010PropOp44
 70
     1
102
RTVSPost2010Prop45
280
     0
102
RTVSPost2010PropOp45
 70
     1
102
RTVSPost2010Prop46
 90
       50
102
RTVSPost2010PropOp46
 70
     1
102
RTVSPost2010Prop47
 90
       50
102
RTVSPost2010PropOp47
 70
     1
102
RTVSPost2010Prop48
 90
       50
102
RTVSPost2010PropOp48
 70
     1
102
RTVSPost2010Prop49
280
     0
102
RTVSPost2010PropOp49
 70
     1
102
RTVSPost2010Prop50
 90
       50
102
RTVSPost2010PropOp50
 70
     1
102
RTVSPost2010Prop51ColorIndex
 90
      256
102
RTVSPost2010Prop51ColorRGB
 90
-16777216
102
RTVSPost2010PropOp51
 70
     0
102
RTVSPost2010Prop52
140
1.0
102
RTVSPost2010PropOp52
 70
     0
102
RTVSPost2010Prop53
 90
        2
102
RTVSPost2010PropOp53
 70
     1
102
RTVSPost2010Prop54
  1
strokes_ogs.tif
102
RTVSPost2010PropOp54
 70
     1
102
RTVSPost2010Prop55
280
     0
102
RTVSPost2010PropOp55
 70
     1
102
RTVSPost2010Prop56
140
1.0
102
RTVSPost2010PropOp56
 70
     1
102
RTVSPost2010Prop57
140
1.0
102
RTVSPost2010PropOp57
 70
     1
  0
XRECORD
  5
48F
102
{ACAD_REACTORS
330
48E
102
}
330
48E
100
AcDbXrecord
280
     1
102
RTVSPropertyOp0
 70
     1
102
RTVSPropertyOp1
 70
     1
102
RTVSPropertyOp2
 70
     1
102
RTVSPropertyOp3
 70
     1
102
RTVSPropertyOp4
 70
     1
102
RTVSPropertyOp5
 70
     1
102
RTVSPropertyOp6
 70
     1
102
RTVSPropertyOp7
 70
     1
102
RTVSPropertyOp8
 70
     1
102
RTVSPropertyOp9
 70
     1
102
RTVSPropertyOp10
 70
     1
102
RTVSPropertyOp11
 70
     1
102
RTVSPropertyOp12
 70
     1
102
RTVSPropertyOp13
 70
     1
102
RTVSPropertyOp14
 70
     1
102
RTVSPropertyOp15
 70
     1
102
RTVSPropertyOp16
 70
     1
102
RTVSPropertyOp17
 70
     1
102
RTVSPropertyOp18
 70
     1
102
RTVSPropertyOp19
 70
     1
102
RTVSPropertyOp20
 70
     1
102
RTVSPropertyOp21
 70
     1
102
RTVSPropertyOp22
 70
     1
102
RTVSPropertyOp23
 70
     1
102
RTVSPropertyOp24
 70
     1
102
RTVSPropertyOp25
 70
     1
102
RTVSPropertyOp26
 70
     1
102
RTVSPropertyOp27
 70
     1
102
RTVSPropertyOp28
 70
     1
102
RTVSPropertyOp29
 70
     1
102
RTVSPropertyOp30
 70
     1
102
RTVSPropertyOp31
 70
     1
102
RTVSPropertyOp32
 70
     1
102
RTVSPropertyOp33
 70
     1
102
RTVSPropertyOp34
 70
     1
102
RTVSPropertyOp35
 70
     1
102
RTVSPropertyOp36
 70
     1
102
RTVSPropertyOp37
 70
     1
102
RTVSPropertyOp38
 70
     1
102
RTVSPropertyOp39
 70
     1
102
RTVSPropertyOp40
 70
     1
102
RTVSPropertyOp41
 70
     1
102
RTVSPropertyOp42
 70
     1
102
RTVSPropertyOp43
 70
     1
102
RTVSPropertyOp44
 70
     1
102
RTVSPropertyOp45
 70
     1
102
RTVSPropertyOp46
 70
     1
102
RTVSPropertyOp47
 70
     1
102
RTVSPropertyOp48
 70
     1
102
RTVSPropertyOp49
 70
     1
102
RTVSPropertyOp50
 70
     1
102
RTVSPropertyOp51
 70
     0
102
RTVSPropertyOp52
 70
     0
102
RTVSPropertyOp53
 70
     1
102
RTVSPropertyOp54
 70
     1
102
RTVSPropertyOp55
 70
     1
102
RTVSPropertyOp56
 70
     1
102
RTVSPropertyOp57
 70
     1
102
RTVSPost2010Prop28
280
     0
102
RTVSPost2010PropOp28
 70
     1
102
RTVSPost2010Prop29
280
     1
102
RTVSPost2010PropOp29
 70
     1
102
RTVSPost2010Prop30
280
     1
102
RTVSPost2010PropOp30
 70
     1
102
RTVSPost2010Prop31
280
     0
102
RTVSPost2010PropOp31
 70
     1
102
RTVSPost2010Prop32
280
     0
102
RTVSPost2010PropOp32
 70
     1
102
RTVSPost2010Prop33
280
     0
102
RTVSPost2010PropOp33
 70
     1
102
RTVSPost2010Prop34
280
     0
102
RTVSPost2010PropOp34
 70
     1
102
RTVSPost2010Prop35
280
     0
102
RTVSPost2010PropOp35
 70
     1
102
RTVSPost2010Prop36
280
     0
102
RTVSPost2010PropOp36
 70
     1
102
RTVSPost2010Prop37
 90
       50
102
RTVSPost2010PropOp37
 70
     1
102
RTVSPost2010Prop38
140
0.0
102
RTVSPost2010PropOp38
 70
     1
102
RTVSPost2010Prop39
140
1.0
102
RTVSPost2010PropOp39
 70
     1
102
RTVSPost2010Prop40
 90
        0
102
RTVSPost2010PropOp40
 70
     1
102
RTVSPost2010Prop41ColorIndex
 90
       18
102
RTVSPost2010Prop41ColorRGB
 90
        0
102
RTVSPost2010PropOp41
 70
     1
102
RTVSPost2010Prop42
 90
       50
102
RTVSPost2010PropOp42
 70
     1
102
RTVSPost2010Prop43
 90
        3
102
RTVSPost2010PropOp43
 70
     1
102
RTVSPost2010Prop44ColorIndex
 90
        5
102
RTVSPost2010Prop44ColorRGB
 90
      255
102
RTVSPost2010PropOp44
 70
     1
102
RTVSPost2010Prop45
280
     0
102
RTVSPost2010PropOp45
 70
     1
102
RTVSPost2010Prop46
 90
       50
102
RTVSPost2010PropOp46
 70
     1
102
RTVSPost2010Prop47
 90
       50
102
RTVSPost2010PropOp47
 70
     1
102
RTVSPost2010Prop48
 90
       50
102
RTVSPost2010PropOp48
 70
     1
102
RTVSPost2010Prop49
280
     0
102
RTVSPost2010PropOp49
 70
     1
102
RTVSPost2010Prop50
 90
       50
102
RTVSPost2010PropOp50
 70
     1
102
RTVSPost2010Prop51ColorIndex
 90
      256
102
RTVSPost2010Prop51ColorRGB
 90
-16777216
102
RTVSPost2010PropOp51
 70
     0
102
RTVSPost2010Prop52
140
1.0
102
RTVSPost2010PropOp52
 70
     0
102
RTVSPost2010Prop53
 90
        2
102
RTVSPost2010PropOp53
 70
     1
102
RTVSPost2010Prop54
  1
strokes_ogs.tif
102
RTVSPost2010PropOp54
 70
     1
102
RTVSPost2010Prop55
280
     0
102
RTVSPost2010PropOp55
 70
     1
102
RTVSPost2010Prop56
140
1.0
102
RTVSPost2010PropOp56
 70
     1
102
RTVSPost2010Prop57
140
1.0
102
RTVSPost2010PropOp57
 70
     1
  0
XRECORD
  5
47F
102
{ACAD_REACTORS
330
47E
102
}
330
47E
100
AcDbXrecord
280
     1
102
RTVSPropertyOp0
 70
     1
102
RTVSPropertyOp1
 70
     1
102
RTVSPropertyOp2
 70
     1
102
RTVSPropertyOp3
 70
     1
102
RTVSPropertyOp4
 70
     1
102
RTVSPropertyOp5
 70
     1
102
RTVSPropertyOp6
 70
     1
102
RTVSPropertyOp7
 70
     1
102
RTVSPropertyOp8
 70
     1
102
RTVSPropertyOp9
 70
     1
102
RTVSPropertyOp10
 70
     1
102
RTVSPropertyOp11
 70
     1
102
RTVSPropertyOp12
 70
     1
102
RTVSPropertyOp13
 70
     1
102
RTVSPropertyOp14
 70
     1
102
RTVSPropertyOp15
 70
     1
102
RTVSPropertyOp16
 70
     1
102
RTVSPropertyOp17
 70
     1
102
RTVSPropertyOp18
 70
     1
102
RTVSPropertyOp19
 70
     1
102
RTVSPropertyOp20
 70
     1
102
RTVSPropertyOp21
 70
     1
102
RTVSPropertyOp22
 70
     1
102
RTVSPropertyOp23
 70
     1
102
RTVSPropertyOp24
 70
     1
102
RTVSPropertyOp25
 70
     1
102
RTVSPropertyOp26
 70
     1
102
RTVSPropertyOp27
 70
     1
102
RTVSPropertyOp28
 70
     1
102
RTVSPropertyOp29
 70
     1
102
RTVSPropertyOp30
 70
     1
102
RTVSPropertyOp31
 70
     1
102
RTVSPropertyOp32
 70
     1
102
RTVSPropertyOp33
 70
     1
102
RTVSPropertyOp34
 70
     1
102
RTVSPropertyOp35
 70
     1
102
RTVSPropertyOp36
 70
     1
102
RTVSPropertyOp37
 70
     1
102
RTVSPropertyOp38
 70
     1
102
RTVSPropertyOp39
 70
     1
102
RTVSPropertyOp40
 70
     1
102
RTVSPropertyOp41
 70
     1
102
RTVSPropertyOp42
 70
     1
102
RTVSPropertyOp43
 70
     1
102
RTVSPropertyOp44
 70
     1
102
RTVSPropertyOp45
 70
     1
102
RTVSPropertyOp46
 70
     1
102
RTVSPropertyOp47
 70
     1
102
RTVSPropertyOp48
 70
     1
102
RTVSPropertyOp49
 70
     1
102
RTVSPropertyOp50
 70
     1
102
RTVSPropertyOp51
 70
     0
102
RTVSPropertyOp52
 70
     0
102
RTVSPropertyOp53
 70
     1
102
RTVSPropertyOp54
 70
     1
102
RTVSPropertyOp55
 70
     1
102
RTVSPropertyOp56
 70
     1
102
RTVSPropertyOp57
 70
     1
102
RTVSPost2010Prop28
280
     0
102
RTVSPost2010PropOp28
 70
     1
102
RTVSPost2010Prop29
280
     1
102
RTVSPost2010PropOp29
 70
     1
102
RTVSPost2010Prop30
280
     1
102
RTVSPost2010PropOp30
 70
     1
102
RTVSPost2010Prop31
280
     0
102
RTVSPost2010PropOp31
 70
     1
102
RTVSPost2010Prop32
280
     0
102
RTVSPost2010PropOp32
 70
     1
102
RTVSPost2010Prop33
280
     0
102
RTVSPost2010PropOp33
 70
     1
102
RTVSPost2010Prop34
280
     0
102
RTVSPost2010PropOp34
 70
     1
102
RTVSPost2010Prop35
280
     0
102
RTVSPost2010PropOp35
 70
     1
102
RTVSPost2010Prop36
280
     0
102
RTVSPost2010PropOp36
 70
     1
102
RTVSPost2010Prop37
 90
       50
102
RTVSPost2010PropOp37
 70
     1
102
RTVSPost2010Prop38
140
0.0
102
RTVSPost2010PropOp38
 70
     1
102
RTVSPost2010Prop39
140
1.0
102
RTVSPost2010PropOp39
 70
     1
102
RTVSPost2010Prop40
 90
        0
102
RTVSPost2010PropOp40
 70
     1
102
RTVSPost2010Prop41ColorIndex
 90
       18
102
RTVSPost2010Prop41ColorRGB
 90
        0
102
RTVSPost2010PropOp41
 70
     1
102
RTVSPost2010Prop42
 90
       50
102
RTVSPost2010PropOp42
 70
     1
102
RTVSPost2010Prop43
 90
        3
102
RTVSPost2010PropOp43
 70
     1
102
RTVSPost2010Prop44ColorIndex
 90
        5
102
RTVSPost2010Prop44ColorRGB
 90
      255
102
RTVSPost2010PropOp44
 70
     1
102
RTVSPost2010Prop45
280
     0
102
RTVSPost2010PropOp45
 70
     1
102
RTVSPost2010Prop46
 90
       50
102
RTVSPost2010PropOp46
 70
     1
102
RTVSPost2010Prop47
 90
       50
102
RTVSPost2010PropOp47
 70
     1
102
RTVSPost2010Prop48
 90
       50
102
RTVSPost2010PropOp48
 70
     1
102
RTVSPost2010Prop49
280
     0
102
RTVSPost2010PropOp49
 70
     1
102
RTVSPost2010Prop50
 90
       50
102
RTVSPost2010PropOp50
 70
     1
102
RTVSPost2010Prop51ColorIndex
 90
      256
102
RTVSPost2010Prop51ColorRGB
 90
-16777216
102
RTVSPost2010PropOp51
 70
     0
102
RTVSPost2010Prop52
140
1.0
102
RTVSPost2010PropOp52
 70
     0
102
RTVSPost2010Prop53
 90
        2
102
RTVSPost2010PropOp53
 70
     1
102
RTVSPost2010Prop54
  1
strokes_ogs.tif
102
RTVSPost2010PropOp54
 70
     1
102
RTVSPost2010Prop55
280
     0
102
RTVSPost2010PropOp55
 70
     1
102
RTVSPost2010Prop56
140
1.0
102
RTVSPost2010PropOp56
 70
     1
102
RTVSPost2010Prop57
140
1.0
102
RTVSPost2010PropOp57
 70
     1
  0
XRECORD
  5
471
102
{ACAD_REACTORS
330
470
102
}
330
470
100
AcDbXrecord
280
     1
102
RTVSPropertyOp0
 70
     1
102
RTVSPropertyOp1
 70
     1
102
RTVSPropertyOp2
 70
     1
102
RTVSPropertyOp3
 70
     1
102
RTVSPropertyOp4
 70
     1
102
RTVSPropertyOp5
 70
     1
102
RTVSPropertyOp6
 70
     1
102
RTVSPropertyOp7
 70
     1
102
RTVSPropertyOp8
 70
     1
102
RTVSPropertyOp9
 70
     1
102
RTVSPropertyOp10
 70
     1
102
RTVSPropertyOp11
 70
     1
102
RTVSPropertyOp12
 70
     1
102
RTVSPropertyOp13
 70
     1
102
RTVSPropertyOp14
 70
     1
102
RTVSPropertyOp15
 70
     1
102
RTVSPropertyOp16
 70
     1
102
RTVSPropertyOp17
 70
     1
102
RTVSPropertyOp18
 70
     1
102
RTVSPropertyOp19
 70
     1
102
RTVSPropertyOp20
 70
     1
102
RTVSPropertyOp21
 70
     1
102
RTVSPropertyOp22
 70
     1
102
RTVSPropertyOp23
 70
     1
102
RTVSPropertyOp24
 70
     1
102
RTVSPropertyOp25
 70
     1
102
RTVSPropertyOp26
 70
     1
102
RTVSPropertyOp27
 70
     1
102
RTVSPropertyOp28
 70
     1
102
RTVSPropertyOp29
 70
     1
102
RTVSPropertyOp30
 70
     1
102
RTVSPropertyOp31
 70
     1
102
RTVSPropertyOp32
 70
     1
102
RTVSPropertyOp33
 70
     1
102
RTVSPropertyOp34
 70
     1
102
RTVSPropertyOp35
 70
     1
102
RTVSPropertyOp36
 70
     1
102
RTVSPropertyOp37
 70
     1
102
RTVSPropertyOp38
 70
     1
102
RTVSPropertyOp39
 70
     1
102
RTVSPropertyOp40
 70
     1
102
RTVSPropertyOp41
 70
     1
102
RTVSPropertyOp42
 70
     1
102
RTVSPropertyOp43
 70
     1
102
RTVSPropertyOp44
 70
     1
102
RTVSPropertyOp45
 70
     1
102
RTVSPropertyOp46
 70
     1
102
RTVSPropertyOp47
 70
     1
102
RTVSPropertyOp48
 70
     1
102
RTVSPropertyOp49
 70
     1
102
RTVSPropertyOp50
 70
     1
102
RTVSPropertyOp51
 70
     0
102
RTVSPropertyOp52
 70
     0
102
RTVSPropertyOp53
 70
     1
102
RTVSPropertyOp54
 70
     1
102
RTVSPropertyOp55
 70
     1
102
RTVSPropertyOp56
 70
     1
102
RTVSPropertyOp57
 70
     1
102
RTVSPost2010Prop28
280
     0
102
RTVSPost2010PropOp28
 70
     1
102
RTVSPost2010Prop29
280
     1
102
RTVSPost2010PropOp29
 70
     1
102
RTVSPost2010Prop30
280
     1
102
RTVSPost2010PropOp30
 70
     1
102
RTVSPost2010Prop31
280
     0
102
RTVSPost2010PropOp31
 70
     1
102
RTVSPost2010Prop32
280
     0
102
RTVSPost2010PropOp32
 70
     1
102
RTVSPost2010Prop33
280
     0
102
RTVSPost2010PropOp33
 70
     1
102
RTVSPost2010Prop34
280
     0
102
RTVSPost2010PropOp34
 70
     1
102
RTVSPost2010Prop35
280
     0
102
RTVSPost2010PropOp35
 70
     1
102
RTVSPost2010Prop36
280
     0
102
RTVSPost2010PropOp36
 70
     1
102
RTVSPost2010Prop37
 90
       50
102
RTVSPost2010PropOp37
 70
     1
102
RTVSPost2010Prop38
140
0.0
102
RTVSPost2010PropOp38
 70
     1
102
RTVSPost2010Prop39
140
1.0
102
RTVSPost2010PropOp39
 70
     1
102
RTVSPost2010Prop40
 90
        0
102
RTVSPost2010PropOp40
 70
     1
102
RTVSPost2010Prop41ColorIndex
 90
       18
102
RTVSPost2010Prop41ColorRGB
 90
        0
102
RTVSPost2010PropOp41
 70
     1
102
RTVSPost2010Prop42
 90
       50
102
RTVSPost2010PropOp42
 70
     1
102
RTVSPost2010Prop43
 90
        3
102
RTVSPost2010PropOp43
 70
     1
102
RTVSPost2010Prop44ColorIndex
 90
        5
102
RTVSPost2010Prop44ColorRGB
 90
      255
102
RTVSPost2010PropOp44
 70
     1
102
RTVSPost2010Prop45
280
     0
102
RTVSPost2010PropOp45
 70
     1
102
RTVSPost2010Prop46
 90
       50
102
RTVSPost2010PropOp46
 70
     1
102
RTVSPost2010Prop47
 90
       50
102
RTVSPost2010PropOp47
 70
     1
102
RTVSPost2010Prop48
 90
       50
102
RTVSPost2010PropOp48
 70
     1
102
RTVSPost2010Prop49
280
     0
102
RTVSPost2010PropOp49
 70
     1
102
RTVSPost2010Prop50
 90
       50
102
RTVSPost2010PropOp50
 70
     1
102
RTVSPost2010Prop51ColorIndex
 90
      256
102
RTVSPost2010Prop51ColorRGB
 90
-16777216
102
RTVSPost2010PropOp51
 70
     0
102
RTVSPost2010Prop52
140
1.0
102
RTVSPost2010PropOp52
 70
     0
102
RTVSPost2010Prop53
 90
        2
102
RTVSPost2010PropOp53
 70
     1
102
RTVSPost2010Prop54
  1
strokes_ogs.tif
102
RTVSPost2010PropOp54
 70
     1
102
RTVSPost2010Prop55
280
     0
102
RTVSPost2010PropOp55
 70
     1
102
RTVSPost2010Prop56
140
1.0
102
RTVSPost2010PropOp56
 70
     1
102
RTVSPost2010Prop57
140
1.0
102
RTVSPost2010PropOp57
 70
     1
  0
XRECORD
  5
491
102
{ACAD_REACTORS
330
490
102
}
330
490
100
AcDbXrecord
280
     1
102
RTVSPropertyOp0
 70
     1
102
RTVSPropertyOp1
 70
     1
102
RTVSPropertyOp2
 70
     1
102
RTVSPropertyOp3
 70
     1
102
RTVSPropertyOp4
 70
     1
102
RTVSPropertyOp5
 70
     1
102
RTVSPropertyOp6
 70
     1
102
RTVSPropertyOp7
 70
     1
102
RTVSPropertyOp8
 70
     1
102
RTVSPropertyOp9
 70
     1
102
RTVSPropertyOp10
 70
     1
102
RTVSPropertyOp11
 70
     1
102
RTVSPropertyOp12
 70
     1
102
RTVSPropertyOp13
 70
     1
102
RTVSPropertyOp14
 70
     1
102
RTVSPropertyOp15
 70
     1
102
RTVSPropertyOp16
 70
     1
102
RTVSPropertyOp17
 70
     1
102
RTVSPropertyOp18
 70
     1
102
RTVSPropertyOp19
 70
     1
102
RTVSPropertyOp20
 70
     1
102
RTVSPropertyOp21
 70
     1
102
RTVSPropertyOp22
 70
     1
102
RTVSPropertyOp23
 70
     1
102
RTVSPropertyOp24
 70
     1
102
RTVSPropertyOp25
 70
     1
102
RTVSPropertyOp26
 70
     1
102
RTVSPropertyOp27
 70
     1
102
RTVSPropertyOp28
 70
     1
102
RTVSPropertyOp29
 70
     1
102
RTVSPropertyOp30
 70
     1
102
RTVSPropertyOp31
 70
     1
102
RTVSPropertyOp32
 70
     1
102
RTVSPropertyOp33
 70
     1
102
RTVSPropertyOp34
 70
     1
102
RTVSPropertyOp35
 70
     1
102
RTVSPropertyOp36
 70
     1
102
RTVSPropertyOp37
 70
     1
102
RTVSPropertyOp38
 70
     1
102
RTVSPropertyOp39
 70
     1
102
RTVSPropertyOp40
 70
     1
102
RTVSPropertyOp41
 70
     1
102
RTVSPropertyOp42
 70
     1
102
RTVSPropertyOp43
 70
     1
102
RTVSPropertyOp44
 70
     1
102
RTVSPropertyOp45
 70
     1
102
RTVSPropertyOp46
 70
     1
102
RTVSPropertyOp47
 70
     1
102
RTVSPropertyOp48
 70
     1
102
RTVSPropertyOp49
 70
     1
102
RTVSPropertyOp50
 70
     1
102
RTVSPropertyOp51
 70
     0
102
RTVSPropertyOp52
 70
     0
102
RTVSPropertyOp53
 70
     1
102
RTVSPropertyOp54
 70
     1
102
RTVSPropertyOp55
 70
     1
102
RTVSPropertyOp56
 70
     1
102
RTVSPropertyOp57
 70
     1
102
RTVSPost2010Prop28
280
     0
102
RTVSPost2010PropOp28
 70
     1
102
RTVSPost2010Prop29
280
     1
102
RTVSPost2010PropOp29
 70
     1
102
RTVSPost2010Prop30
280
     1
102
RTVSPost2010PropOp30
 70
     1
102
RTVSPost2010Prop31
280
     0
102
RTVSPost2010PropOp31
 70
     1
102
RTVSPost2010Prop32
280
     0
102
RTVSPost2010PropOp32
 70
     1
102
RTVSPost2010Prop33
280
     0
102
RTVSPost2010PropOp33
 70
     1
102
RTVSPost2010Prop34
280
     0
102
RTVSPost2010PropOp34
 70
     1
102
RTVSPost2010Prop35
280
     0
102
RTVSPost2010PropOp35
 70
     1
102
RTVSPost2010Prop36
280
     0
102
RTVSPost2010PropOp36
 70
     1
102
RTVSPost2010Prop37
 90
       50
102
RTVSPost2010PropOp37
 70
     1
102
RTVSPost2010Prop38
140
0.0
102
RTVSPost2010PropOp38
 70
     1
102
RTVSPost2010Prop39
140
1.0
102
RTVSPost2010PropOp39
 70
     1
102
RTVSPost2010Prop40
 90
        0
102
RTVSPost2010PropOp40
 70
     1
102
RTVSPost2010Prop41ColorIndex
 90
       18
102
RTVSPost2010Prop41ColorRGB
 90
        0
102
RTVSPost2010PropOp41
 70
     1
102
RTVSPost2010Prop42
 90
       50
102
RTVSPost2010PropOp42
 70
     1
102
RTVSPost2010Prop43
 90
        3
102
RTVSPost2010PropOp43
 70
     1
102
RTVSPost2010Prop44ColorIndex
 90
        5
102
RTVSPost2010Prop44ColorRGB
 90
      255
102
RTVSPost2010PropOp44
 70
     1
102
RTVSPost2010Prop45
280
     0
102
RTVSPost2010PropOp45
 70
     1
102
RTVSPost2010Prop46
 90
       50
102
RTVSPost2010PropOp46
 70
     1
102
RTVSPost2010Prop47
 90
       50
102
RTVSPost2010PropOp47
 70
     1
102
RTVSPost2010Prop48
 90
       50
102
RTVSPost2010PropOp48
 70
     1
102
RTVSPost2010Prop49
280
     0
102
RTVSPost2010PropOp49
 70
     1
102
RTVSPost2010Prop50
 90
       50
102
RTVSPost2010PropOp50
 70
     1
102
RTVSPost2010Prop51ColorIndex
 90
      256
102
RTVSPost2010Prop51ColorRGB
 90
-16777216
102
RTVSPost2010PropOp51
 70
     0
102
RTVSPost2010Prop52
140
1.0
102
RTVSPost2010PropOp52
 70
     0
102
RTVSPost2010Prop53
 90
        2
102
RTVSPost2010PropOp53
 70
     1
102
RTVSPost2010Prop54
  1
strokes_ogs.tif
102
RTVSPost2010PropOp54
 70
     1
102
RTVSPost2010Prop55
280
     0
102
RTVSPost2010PropOp55
 70
     1
102
RTVSPost2010Prop56
140
1.0
102
RTVSPost2010PropOp56
 70
     1
102
RTVSPost2010Prop57
140
1.0
102
RTVSPost2010PropOp57
 70
     1
  0
ENDSEC
  0
EOF
