  0
SECTION
  2
HEADER
  9
$ACADVER
  1
AC1018
  9
$ACADMAINTVER
 70
     0
  9
$DWGCODEPAGE
  3
ANSI_1252
  9
$INSBASE
 10
0.0
 20
0.0
 30
0.0
  9
$EXTMIN
 10
-0.5
 20
-0.5
 30
-0.5
  9
$EXTMAX
 10
5.0
 20
5.0
 30
5.0
  9
$LIMMIN
 10
-0.5
 20
-0.5
  9
$LIMMAX
 10
5.0
 20
5.0
  9
$ORTHOMODE
 70
     0
  9
$REGENMODE
 70
     1
  9
$FILLMODE
 70
     1
  9
$QTEXTMODE
 70
     0
  9
$MIRRTEXT
 70
     1
  9
$LTSCALE
 40
1.0
  9
$ATTMODE
 70
     1
  9
$TEXTSIZE
 40
0.2
  9
$TRACEWID
 40
0.05
  9
$TEXTSTYLE
  7
Standard
  9
$CLAYER
  8
0
  9
$CELTYPE
  6
ByLayer
  9
$CECOLOR
 62
   256
  9
$CELTSCALE
 40
1.0
  9
$DISPSILH
 70
     0
  9
$DIMSCALE
 40
1.0
  9
$DIMASZ
 40
0.18
  9
$DIMEXO
 40
0.0625
  9
$DIMDLI
 40
0.38
  9
$DIMRND
 40
0.0
  9
$DIMDLE
 40
0.0
  9
$DIMEXE
 40
0.18
  9
$DIMTP
 40
0.0
  9
$DIMTM
 40
0.0
  9
$DIMTXT
 40
0.18
  9
$DIMCEN
 40
0.09
  9
$DIMTSZ
 40
0.0
  9
$DIMTOL
 70
     0
  9
$DIMLIM
 70
     0
  9
$DIMTIH
 70
     1
  9
$DIMTOH
 70
     1
  9
$DIMSE1
 70
     0
  9
$DIMSE2
 70
     0
  9
$DIMTAD
 70
     0
  9
$DIMZIN
 70
     0
  9
$DIMBLK
  1

  9
$DIMASO
 70
     1
  9
$DIMSHO
 70
     1
  9
$DIMPOST
  1

  9
$DIMAPOST
  1

  9
$DIMALT
 70
     0
  9
$DIMALTD
 70
     2
  9
$DIMALTF
 40
25.4
  9
$DIMLFAC
 40
1.0
  9
$DIMTOFL
 70
     0
  9
$DIMTVP
 40
0.0
  9
$DIMTIX
 70
     0
  9
$DIMSOXD
 70
     0
  9
$DIMSAH
 70
     0
  9
$DIMBLK1
  1

  9
$DIMBLK2
  1

  9
$DIMSTYLE
  2
Standard
  9
$DIMCLRD
 70
     0
  9
$DIMCLRE
 70
     0
  9
$DIMCLRT
 70
     0
  9
$DIMTFAC
 40
1.0
  9
$DIMGAP
 40
0.09
  9
$DIMJUST
 70
     0
  9
$DIMSD1
 70
     0
  9
$DIMSD2
 70
     0
  9
$DIMTOLJ
 70
     1
  9
$DIMTZIN
 70
     0
  9
$DIMALTZ
 70
     0
  9
$DIMALTTZ
 70
     0
  9
$DIMUPT
 70
     0
  9
$DIMDEC
 70
     4
  9
$DIMTDEC
 70
     4
  9
$DIMALTU
 70
     2
  9
$DIMALTTD
 70
     2
  9
$DIMTXSTY
  7
Standard
  9
$DIMAUNIT
 70
     0
  9
$DIMADEC
 70
     0
  9
$DIMALTRND
 40
0.0
  9
$DIMAZIN
 70
     0
  9
$DIMDSEP
 70
    46
  9
$DIMATFIT
 70
     3
  9
$DIMFRAC
 70
     0
  9
$DIMLDRBLK
  1

  9
$DIMLUNIT
 70
     2
  9
$DIMLWD
 70
    -2
  9
$DIMLWE
 70
    -2
  9
$DIMTMOVE
 70
     0
  9
$LUNITS
 70
     2
  9
$LUPREC
 70
     4
  9
$SKETCHINC
 40
0.1
  9
$FILLETRAD
 40
0.5
  9
$AUNITS
 70
     0
  9
$AUPREC
 70
     0
  9
$MENU
  1
.
  9
$ELEVATION
 40
0.0
  9
$PELEVATION
 40
0.0
  9
$THICKNESS
 40
0.0
  9
$LIMCHECK
 70
     0
  9
$CHAMFERA
 40
0.0
  9
$CHAMFERB
 40
0.0
  9
$CHAMFERC
 40
0.0
  9
$CHAMFERD
 40
0.0
  9
$SKPOLY
 70
     0
  9
$TDCREATE
 40
2460209.585753299
  9
$TDUCREATE
 40
2460209.502419965
  9
$TDUPDATE
 40
2460209.586113414
  9
$TDUUPDATE
 40
2460209.502780081
  9
$TDINDWG
 40
0.0000000116
  9
$TDUSRTIMER
 40
0.0000000116
  9
$USRTIMER
 70
     1
  9
$ANGBASE
 50
0.0
  9
$ANGDIR
 70
     0
  9
$PDMODE
 70
     0
  9
$PDSIZE
 40
0.0
  9
$PLINEWID
 40
0.0
  9
$SPLFRAME
 70
     0
  9
$SPLINETYPE
 70
     6
  9
$SPLINESEGS
 70
     8
  9
$HANDSEED
  5
454
  9
$SURFTAB1
 70
     6
  9
$SURFTAB2
 70
     6
  9
$SURFTYPE
 70
     6
  9
$SURFU
 70
     6
  9
$SURFV
 70
     6
  9
$UCSBASE
  2

  9
$UCSNAME
  2

  9
$UCSORG
 10
0.0
 20
0.0
 30
0.0
  9
$UCSXDIR
 10
1.0
 20
0.0
 30
0.0
  9
$UCSYDIR
 10
0.0
 20
1.0
 30
0.0
  9
$UCSORTHOREF
  2

  9
$UCSORTHOVIEW
 70
     0
  9
$UCSORGTOP
 10
0.0
 20
0.0
 30
0.0
  9
$UCSORGBOTTOM
 10
0.0
 20
0.0
 30
0.0
  9
$UCSORGLEFT
 10
0.0
 20
0.0
 30
0.0
  9
$UCSORGRIGHT
 10
0.0
 20
0.0
 30
0.0
  9
$UCSORGFRONT
 10
0.0
 20
0.0
 30
0.0
  9
$UCSORGBACK
 10
0.0
 20
0.0
 30
0.0
  9
$PUCSBASE
  2

  9
$PUCSNAME
  2

  9
$PUCSORG
 10
0.0
 20
0.0
 30
0.0
  9
$PUCSXDIR
 10
1.0
 20
0.0
 30
0.0
  9
$PUCSYDIR
 10
0.0
 20
1.0
 30
0.0
  9
$PUCSORTHOREF
  2

  9
$PUCSORTHOVIEW
 70
     0
  9
$PUCSORGTOP
 10
0.0
 20
0.0
 30
0.0
  9
$PUCSORGBOTTOM
 10
0.0
 20
0.0
 30
0.0
  9
$PUCSORGLEFT
 10
0.0
 20
0.0
 30
0.0
  9
$PUCSORGRIGHT
 10
0.0
 20
0.0
 30
0.0
  9
$PUCSORGFRONT
 10
0.0
 20
0.0
 30
0.0
  9
$PUCSORGBACK
 10
0.0
 20
0.0
 30
0.0
  9
$USERI1
 70
     0
  9
$USERI2
 70
     0
  9
$USERI3
 70
     0
  9
$USERI4
 70
     0
  9
$USERI5
 70
     0
  9
$USERR1
 40
0.0
  9
$USERR2
 40
0.0
  9
$USERR3
 40
0.0
  9
$USERR4
 40
0.0
  9
$USERR5
 40
0.0
  9
$WORLDVIEW
 70
     1
  9
$SHADEDGE
 70
     3
  9
$SHADEDIF
 70
    70
  9
$TILEMODE
 70
     1
  9
$MAXACTVP
 70
    64
  9
$PINSBASE
 10
0.0
 20
0.0
 30
0.0
  9
$PLIMCHECK
 70
     0
  9
$PEXTMIN
 10
-0.5
 20
-0.5
 30
-0.5
  9
$PEXTMAX
 10
5.0
 20
5.0
 30
5.0
  9
$PLIMMIN
 10
-0.5
 20
-0.5
  9
$PLIMMAX
 10
5.0
 20
5.0
  9
$UNITMODE
 70
     0
  9
$VISRETAIN
 70
     1
  9
$PLINEGEN
 70
     0
  9
$PSLTSCALE
 70
     1
  9
$TREEDEPTH
 70
  3020
  9
$CMLSTYLE
  2
Standard
  9
$CMLJUST
 70
     0
  9
$CMLSCALE
 40
1.0
  9
$PROXYGRAPHICS
 70
     1
  9
$MEASUREMENT
 70
     1
  9
$CELWEIGHT
370
    13
  9
$ENDCAPS
280
     0
  9
$JOINSTYLE
280
     0
  9
$LWDISPLAY
290
     0
  9
$INSUNITS
 70
     4
  9
$HYPERLINKBASE
  1

  9
$STYLESHEET
  1

  9
$XEDIT
290
     1
  9
$CEPSNTYPE
380
     0
  9
$PSTYLEMODE
290
     1
  9
$FINGERPRINTGUID
  2
{3b18acea-e50a-4193-ab05-dfc95de4b015}
  9
$VERSIONGUID
  2
{FAEB1C32-E019-11D5-929B-00C0DF256EC4}
  9
$EXTNAMES
290
     1
  9
$PSVPSCALE
 40
0.0
  9
$OLESTARTUP
290
     0
  9
$SORTENTS
280
   127
  9
$INDEXCTL
280
     0
  9
$HIDETEXT
280
     1
  9
$XCLIPFRAME
290
     0
  9
$HALOGAP
280
     0
  9
$OBSCOLOR
 70
   257
  9
$OBSLTYPE
280
     0
  9
$INTERSECTIONDISPLAY
280
     0
  9
$INTERSECTIONCOLOR
 70
   257
  9
$DIMASSOC
280
     2
  9
$PROJECTNAME
  1

  0
ENDSEC
  0
SECTION
  2
CLASSES
  0
CLASS
  1
ACDBDICTIONARYWDFLT
  2
AcDbDictionaryWithDefault
  3
ObjectDBX Classes
 90
        0
 91
        3
280
     0
281
     0
  0
CLASS
  1
VISUALSTYLE
  2
AcDbVisualStyle
  3
ObjectDBX Classes
 90
     4095
 91
        3
280
     0
281
     0
  0
CLASS
  1
MATERIAL
  2
AcDbMaterial
  3
ObjectDBX Classes
 90
     1153
 91
        3
280
     0
281
     0
  0
CLASS
  1
SCALE
  2
AcDbScale
  3
ObjectDBX Classes
 90
     1153
 91
        3
280
     0
281
     0
  0
CLASS
  1
TABLESTYLE
  2
AcDbTableStyle
  3
ObjectDBX Classes
 90
     4095
 91
        3
280
     0
281
     0
  0
CLASS
  1
MLEADERSTYLE
  2
AcDbMLeaderStyle
  3
ACDB_MLEADERSTYLE_CLASS
 90
     4095
 91
        3
280
     0
281
     0
  0
CLASS
  1
SUN
  2
AcDbSun
  3
SCENEOE
 90
     1153
 91
        3
280
     0
281
     0
  0
CLASS
  1
DIMASSOC
  2
AcDbDimAssoc
  3
"AcDbDimAssoc|Product Desc:     AcDim ARX App For Dimension|Company:          Autodesk, Inc.|WEB Address:      www.autodesk.com"
 90
        0
 91
        3
280
     0
281
     0
  0
CLASS
  1
DICTIONARYVAR
  2
AcDbDictionaryVar
  3
ObjectDBX Classes
 90
        0
 91
        3
280
     0
281
     0
  0
CLASS
  1
CELLSTYLEMAP
  2
AcDbCellStyleMap
  3
ObjectDBX Classes
 90
     1152
 91
        3
280
     0
281
     0
  0
ENDSEC
  0
SECTION
  2
TABLES
  0
TABLE
  2
VPORT
  5
8
102
{ACAD_XDICTIONARY
360
40D
102
}
330
0
100
AcDbSymbolTable
 70
    16
  0
VPORT
  5
29
330
8
100
AcDbSymbolTableRecord
100
AcDbViewportTableRecord
  2
*Active
 70
     0
 10
0.0
 20
0.0
 11
1.0
 21
1.0
 12
192.152649
 22
164.369411
 13
0.0
 23
0.0
 14
0.5
 24
0.5
 15
0.5
 25
0.5
 16
0.0
 26
0.0
 36
1.0
 17
0.0
 27
0.0
 37
0.0
 40
254.0
 41
0.069908
 42
50.0
 43
186.345161
 44
-186.345161
 50
0.0
 51
0.0
 71
     0
 72
   100
 73
     1
 74
     3
 75
     0
 76
     0
 77
     0
 78
     0
281
     0
 65
     1
110
0.0
120
0.0
130
0.0
111
1.0
121
0.0
131
0.0
112
0.0
122
1.0
132
0.0
 79
     0
146
0.0
  0
VPORT
  5
3FB
330
8
100
AcDbSymbolTableRecord
100
AcDbViewportTableRecord
  2
L1
 70
     0
 10
0.0
 20
0.0
 11
1.0
 21
1.0
 12
192.152649
 22
164.369411
 13
0.0
 23
0.0
 14
0.5
 24
0.5
 15
0.5
 25
0.5
 16
0.0
 26
0.0
 36
1.0
 17
0.0
 27
0.0
 37
0.0
 40
254.0
 41
0.069908
 42
50.0
 43
186.345161
 44
-186.345161
 50
0.0
 51
0.0
 71
     0
 72
   100
 73
     1
 74
     3
 75
     0
 76
     0
 77
     0
 78
     0
281
     0
 65
     1
110
0.0
120
0.0
130
0.0
111
1.0
121
0.0
131
0.0
112
0.0
122
1.0
132
0.0
 79
     0
146
0.0
  0
VPORT
  5
3FC
330
8
100
AcDbSymbolTableRecord
100
AcDbViewportTableRecord
  2
L2
 70
     0
 10
0.0
 20
0.0
 11
0.5
 21
1.0
 12
0.0
 22
0.0
 13
0.0
 23
0.0
 14
0.5
 24
0.5
 15
0.5
 25
0.5
 16
0.0
 26
-1.0
 36
0.0
 17
0.0
 27
0.0
 37
0.0
 40
1753.330408
 41
0.010127
 42
50.0
 43
906.464242
 44
-906.464242
 50
0.0
 51
0.0
 71
     0
 72
   100
 73
     1
 74
     3
 75
     0
 76
     0
 77
     0
 78
     0
281
     0
 65
     1
110
0.0
120
0.0
130
0.0
111
1.0
121
0.0
131
0.0
112
0.0
122
1.0
132
0.0
 79
     0
146
0.0
  0
VPORT
  5
3FD
330
8
100
AcDbSymbolTableRecord
100
AcDbViewportTableRecord
  2
L2
 70
     0
 10
0.5
 20
0.0
 11
1.0
 21
1.0
 12
0.0
 22
0.0
 13
0.0
 23
0.0
 14
0.5
 24
0.5
 15
0.5
 25
0.5
 16
1.0
 26
0.0
 36
0.0
 17
0.0
 27
0.0
 37
0.0
 40
1753.330408
 41
0.010127
 42
50.0
 43
885.816505
 44
-885.816505
 50
0.0
 51
0.0
 71
     0
 72
   100
 73
     1
 74
     3
 75
     0
 76
     0
 77
     0
 78
     0
281
     0
 65
     1
110
0.0
120
0.0
130
0.0
111
1.0
121
0.0
131
0.0
112
0.0
122
1.0
132
0.0
 79
     0
146
0.0
  0
VPORT
  5
3FE
330
8
100
AcDbSymbolTableRecord
100
AcDbViewportTableRecord
  2
L3
 70
     0
 10
0.0
 20
0.5
 11
1.0
 21
1.0
 12
192.152649
 22
164.369411
 13
0.0
 23
0.0
 14
0.5
 24
0.5
 15
0.5
 25
0.5
 16
0.0
 26
0.0
 36
1.0
 17
0.0
 27
0.0
 37
0.0
 40
254.0
 41
0.069908
 42
50.0
 43
186.345161
 44
-186.345161
 50
0.0
 51
0.0
 71
     0
 72
   100
 73
     1
 74
     3
 75
     0
 76
     0
 77
     0
 78
     0
281
     0
 65
     1
110
0.0
120
0.0
130
0.0
111
1.0
121
0.0
131
0.0
112
0.0
122
1.0
132
0.0
 79
     0
146
0.0
  0
VPORT
  5
3FF
330
8
100
AcDbSymbolTableRecord
100
AcDbViewportTableRecord
  2
L3
 70
     0
 10
0.0
 20
0.0
 11
1.0
 21
0.5
 12
0.0
 22
0.0
 13
0.0
 23
0.0
 14
0.5
 24
0.5
 15
0.5
 25
0.5
 16
0.0
 26
-1.0
 36
0.0
 17
0.0
 27
0.0
 37
0.0
 40
1753.330408
 41
0.010127
 42
50.0
 43
906.464242
 44
-906.464242
 50
0.0
 51
0.0
 71
     0
 72
   100
 73
     1
 74
     3
 75
     0
 76
     0
 77
     0
 78
     0
281
     0
 65
     1
110
0.0
120
0.0
130
0.0
111
1.0
121
0.0
131
0.0
112
0.0
122
1.0
132
0.0
 79
     0
146
0.0
  0
VPORT
  5
400
330
8
100
AcDbSymbolTableRecord
100
AcDbViewportTableRecord
  2
L4
 70
     0
 10
0.0
 20
0.5
 11
0.5
 21
1.0
 12
192.152649
 22
164.369411
 13
0.0
 23
0.0
 14
0.5
 24
0.5
 15
0.5
 25
0.5
 16
0.0
 26
0.0
 36
1.0
 17
0.0
 27
0.0
 37
0.0
 40
254.0
 41
0.069908
 42
50.0
 43
186.345161
 44
-186.345161
 50
0.0
 51
0.0
 71
     0
 72
   100
 73
     1
 74
     3
 75
     0
 76
     0
 77
     0
 78
     0
281
     0
 65
     1
110
0.0
120
0.0
130
0.0
111
1.0
121
0.0
131
0.0
112
0.0
122
1.0
132
0.0
 79
     0
146
0.0
  0
VPORT
  5
401
330
8
100
AcDbSymbolTableRecord
100
AcDbViewportTableRecord
  2
L4
 70
     0
 10
0.0
 20
0.0
 11
0.5
 21
0.5
 12
0.0
 22
0.0
 13
0.0
 23
0.0
 14
0.5
 24
0.5
 15
0.5
 25
0.5
 16
0.0
 26
-1.0
 36
0.0
 17
0.0
 27
0.0
 37
0.0
 40
1753.330408
 41
0.010127
 42
50.0
 43
906.464242
 44
-906.464242
 50
0.0
 51
0.0
 71
     0
 72
   100
 73
     1
 74
     3
 75
     0
 76
     0
 77
     0
 78
     0
281
     0
 65
     1
110
0.0
120
0.0
130
0.0
111
1.0
121
0.0
131
0.0
112
0.0
122
1.0
132
0.0
 79
     0
146
0.0
  0
VPORT
  5
402
330
8
100
AcDbSymbolTableRecord
100
AcDbViewportTableRecord
  2
L4
 70
     0
 10
0.5
 20
0.0
 11
1.0
 21
0.5
 12
0.0
 22
0.0
 13
0.0
 23
0.0
 14
0.5
 24
0.5
 15
0.5
 25
0.5
 16
1.0
 26
0.0
 36
0.0
 17
0.0
 27
0.0
 37
0.0
 40
1753.330408
 41
0.010127
 42
50.0
 43
885.816505
 44
-885.816505
 50
0.0
 51
0.0
 71
     0
 72
   100
 73
     1
 74
     3
 75
     0
 76
     0
 77
     0
 78
     0
281
     0
 65
     1
110
0.0
120
0.0
130
0.0
111
1.0
121
0.0
131
0.0
112
0.0
122
1.0
132
0.0
 79
     0
146
0.0
  0
VPORT
  5
403
330
8
100
AcDbSymbolTableRecord
100
AcDbViewportTableRecord
  2
L4
 70
     0
 10
0.5
 20
0.5
 11
1.0
 21
1.0
 12
0.0
 22
0.0
 13
0.0
 23
0.0
 14
0.5
 24
0.5
 15
0.5
 25
0.5
 16
0.5773502691896258
 26
-0.5773502691896258
 36
0.5773502691896258
 17
0.0
 27
0.0
 37
0.0
 40
1723.495184
 41
0.010303
 42
50.0
 43
898.062437
 44
-898.062437
 50
0.0
 51
0.0
 71
     0
 72
   100
 73
     1
 74
     3
 75
     0
 76
     0
 77
     0
 78
     0
281
     0
 65
     1
110
0.0
120
0.0
130
0.0
111
1.0
121
0.0
131
0.0
112
0.0
122
1.0
132
0.0
 79
     0
146
0.0
  0
VPORT
  5
404
330
8
100
AcDbSymbolTableRecord
100
AcDbViewportTableRecord
  2
L6
 70
     0
 10
0.0
 20
0.5
 11
0.333333
 21
1.0
 12
0.0
 22
0.0
 13
0.0
 23
0.0
 14
0.5
 24
0.5
 15
0.5
 25
0.5
 16
0.7188730927569433
 26
-0.5850486126764433
 36
0.3754192287502549
 17
0.0
 27
0.0
 37
0.0
 40
1819.513313
 41
0.009759
 42
50.0
 43
941.910625
 44
-941.910625
 50
0.0
 51
0.0
 71
     0
 72
   100
 73
     1
 74
     3
 75
     0
 76
     0
 77
     0
 78
     0
281
     0
 65
     1
110
0.0
120
0.0
130
0.0
111
1.0
121
0.0
131
0.0
112
0.0
122
1.0
132
0.0
 79
     0
146
0.0
  0
VPORT
  5
405
330
8
100
AcDbSymbolTableRecord
100
AcDbViewportTableRecord
  2
L6
 70
     0
 10
0.0
 20
0.0
 11
0.333333
 21
0.5
 12
0.0
 22
0.0
 13
0.0
 23
0.0
 14
0.5
 24
0.5
 15
0.5
 25
0.5
 16
-1.0
 26
0.0
 36
0.0
 17
0.0
 27
0.0
 37
0.0
 40
1753.330408
 41
0.010127
 42
50.0
 43
885.816505
 44
-885.816505
 50
0.0
 51
0.0
 71
     0
 72
   100
 73
     1
 74
     3
 75
     0
 76
     0
 77
     0
 78
     0
281
     0
 65
     1
110
0.0
120
0.0
130
0.0
111
1.0
121
0.0
131
0.0
112
0.0
122
1.0
132
0.0
 79
     0
146
0.0
  0
VPORT
  5
406
330
8
100
AcDbSymbolTableRecord
100
AcDbViewportTableRecord
  2
L6
 70
     0
 10
0.333333
 20
0.5
 11
0.666667
 21
1.0
 12
192.152649
 22
164.369411
 13
0.0
 23
0.0
 14
0.5
 24
0.5
 15
0.5
 25
0.5
 16
0.0
 26
0.0
 36
1.0
 17
0.0
 27
0.0
 37
0.0
 40
254.0
 41
0.069908
 42
50.0
 43
186.345161
 44
-186.345161
 50
0.0
 51
0.0
 71
     0
 72
   100
 73
     1
 74
     3
 75
     0
 76
     0
 77
     0
 78
     0
281
     0
 65
     1
110
0.0
120
0.0
130
0.0
111
1.0
121
0.0
131
0.0
112
0.0
122
1.0
132
0.0
 79
     0
146
0.0
  0
VPORT
  5
407
330
8
100
AcDbSymbolTableRecord
100
AcDbViewportTableRecord
  2
L6
 70
     0
 10
0.333333
 20
0.0
 11
0.666667
 21
0.5
 12
0.0
 22
0.0
 13
0.0
 23
0.0
 14
0.5
 24
0.5
 15
0.5
 25
0.5
 16
0.0
 26
-1.0
 36
0.0
 17
0.0
 27
0.0
 37
0.0
 40
1753.330408
 41
0.010127
 42
50.0
 43
906.464242
 44
-906.464242
 50
0.0
 51
0.0
 71
     0
 72
   100
 73
     1
 74
     3
 75
     0
 76
     0
 77
     0
 78
     0
281
     0
 65
     1
110
0.0
120
0.0
130
0.0
111
1.0
121
0.0
131
0.0
112
0.0
122
1.0
132
0.0
 79
     0
146
0.0
  0
VPORT
  5
408
330
8
100
AcDbSymbolTableRecord
100
AcDbViewportTableRecord
  2
L6
 70
     0
 10
0.666667
 20
0.5
 11
1.0
 21
1.0
 12
0.0
 22
0.0
 13
0.0
 23
0.0
 14
0.5
 24
0.5
 15
0.5
 25
0.5
 16
0.5773502691896258
 26
-0.5773502691896258
 36
0.5773502691896258
 17
0.0
 27
0.0
 37
0.0
 40
1723.495184
 41
0.010303
 42
50.0
 43
898.062437
 44
-898.062437
 50
0.0
 51
0.0
 71
     0
 72
   100
 73
     1
 74
     3
 75
     0
 76
     0
 77
     0
 78
     0
281
     0
 65
     1
110
0.0
120
0.0
130
0.0
111
1.0
121
0.0
131
0.0
112
0.0
122
1.0
132
0.0
 79
     0
146
0.0
  0
VPORT
  5
409
330
8
100
AcDbSymbolTableRecord
100
AcDbViewportTableRecord
  2
L6
 70
     0
 10
0.666667
 20
0.0
 11
1.0
 21
0.5
 12
0.0
 22
0.0
 13
0.0
 23
0.0
 14
0.5
 24
0.5
 15
0.5
 25
0.5
 16
1.0
 26
0.0
 36
0.0
 17
0.0
 27
0.0
 37
0.0
 40
1753.330408
 41
0.010127
 42
50.0
 43
885.816505
 44
-885.816505
 50
0.0
 51
0.0
 71
     0
 72
   100
 73
     1
 74
     3
 75
     0
 76
     0
 77
     0
 78
     0
281
     0
 65
     1
110
0.0
120
0.0
130
0.0
111
1.0
121
0.0
131
0.0
112
0.0
122
1.0
132
0.0
 79
     0
146
0.0
  0
ENDTAB
  0
TABLE
  2
LTYPE
  5
5
330
0
100
AcDbSymbolTable
 70
     6
  0
LTYPE
  5
14
330
5
100
AcDbSymbolTableRecord
100
AcDbLinetypeTableRecord
  2
ByBlock
 70
     0
  3

 72
    65
 73
     0
 40
0.0
  0
LTYPE
  5
15
330
5
100
AcDbSymbolTableRecord
100
AcDbLinetypeTableRecord
  2
ByLayer
 70
     0
  3

 72
    65
 73
     0
 40
0.0
  0
LTYPE
  5
16
330
5
100
AcDbSymbolTableRecord
100
AcDbLinetypeTableRecord
  2
Continuous
 70
     0
  3
Solid line
 72
    65
 73
     0
 40
0.0
  0
LTYPE
  5
6E
330
5
100
AcDbSymbolTableRecord
100
AcDbLinetypeTableRecord
  2
CENTER
 70
     0
  3
____ _ ____ _ ____ _ ____
 72
    65
 73
     4
 40
47.4
 49
22.0
 74
     4
 75
     0
340
0
 46
0.0
 50
0.0
 44
0.0
 45
0.0
 49
-8.5
 74
     4
 75
     0
340
0
 46
0.0
 50
0.0
 44
0.0
 45
0.0
 49
8.5
 74
     4
 75
     0
340
0
 46
0.0
 50
0.0
 44
0.0
 45
0.0
 49
-8.5
 74
     4
 75
     0
340
0
 46
0.0
 50
0.0
 44
0.0
 45
0.0
  0
LTYPE
  5
6F
330
5
100
AcDbSymbolTableRecord
100
AcDbLinetypeTableRecord
  2
DASHDOT
 70
     0
  3
_._._._._._._._._._._._._._._._.
 72
    65
 73
     4
 40
70.0
 49
31.0
 74
     4
 75
     0
340
0
 46
0.0
 50
0.0
 44
0.0
 45
0.0
 49
-13.0
 74
     4
 75
     0
340
0
 46
0.0
 50
0.0
 44
0.0
 45
0.0
 49
13.0
 74
     4
 75
     0
340
0
 46
0.0
 50
0.0
 44
0.0
 45
0.0
 49
-13.0
 74
     4
 75
     0
340
0
 46
0.0
 50
0.0
 44
0.0
 45
0.0
  0
LTYPE
  5
70
330
5
100
AcDbSymbolTableRecord
100
AcDbLinetypeTableRecord
  2
DASHED
 70
     0
  3
__ __ __ __ __ __ __ __ __
 72
    65
 73
     2
 40
25.72
 49
12.86
 74
     4
 75
     0
340
0
 46
0.0
 50
0.0
 44
0.0
 45
0.0
 49
-12.86
 74
     4
 75
     0
340
0
 46
0.0
 50
0.0
 44
0.0
 45
0.0
  0
LTYPE
  5
71
330
5
100
AcDbSymbolTableRecord
100
AcDbLinetypeTableRecord
  2
DOT
 70
     0
  3
.........................
 72
    65
 73
     2
 40
10.0
 49
0.0
 74
     4
 75
     0
340
0
 46
0.0
 50
0.0
 44
0.0
 45
0.0
 49
-10.0
 74
     4
 75
     0
340
0
 46
0.0
 50
0.0
 44
0.0
 45
0.0
  0
LTYPE
  5
72
330
5
100
AcDbSymbolTableRecord
100
AcDbLinetypeTableRecord
  2
PHANTOM
 70
     0
  3
____ _ _ ____ _ _ _____ _ _ ____
 72
    65
 73
     6
 40
50.5
 49
18.0
 74
     4
 75
     0
340
0
 46
0.0
 50
0.0
 44
0.0
 45
0.0
 49
-6.5
 74
     4
 75
     0
340
0
 46
0.0
 50
0.0
 44
0.0
 45
0.0
 49
6.5
 74
     4
 75
     0
340
0
 46
0.0
 50
0.0
 44
0.0
 45
0.0
 49
-6.5
 74
     4
 75
     0
340
0
 46
0.0
 50
0.0
 44
0.0
 45
0.0
 49
6.5
 74
     4
 75
     0
340
0
 46
0.0
 50
0.0
 44
0.0
 45
0.0
 49
-6.5
 74
     4
 75
     0
340
0
 46
0.0
 50
0.0
 44
0.0
 45
0.0
  0
ENDTAB
  0
TABLE
  2
LAYER
  5
99901
330
0
100
AcDbSymbolTable
 70
    19
  0
LAYER
  5
99902
102
{ACAD_XDICTIONARY
360
60E
102
}
330
2
100
AcDbSymbolTableRecord
100
AcDbLayerTableRecord
  2
0
 70
     0
 62
     7
  6
CONTINUOUS
370
    -3
390
F
  0
LAYER
  5
99903
102
{ACAD_XDICTIONARY
360
610
102
}
330
2
100
AcDbSymbolTableRecord
100
AcDbLayerTableRecord
  2
1
 70
     0
 62
     4
  6
CONTINUOUS
370
    -3
390
F
  0
LAYER
  5
99904
102
{ACAD_XDICTIONARY
360
612
102
}
330
2
100
AcDbSymbolTableRecord
100
AcDbLayerTableRecord
  2
2
 70
     0
 62
     7
  6
CONTINUOUS
370
    -3
390
F
  0
LAYER
  5
99905
102
{ACAD_XDICTIONARY
360
614
102
}
330
2
100
AcDbSymbolTableRecord
100
AcDbLayerTableRecord
  2
4
 70
     0
 62
     2
  6
CENTER
370
    -3
390
F
  0
LAYER
  5
99906
102
{ACAD_XDICTIONARY
360
616
102
}
330
2
100
AcDbSymbolTableRecord
100
AcDbLayerTableRecord
  2
SK2
 70
     0
 62
     7
  6
CONTINUOUS
370
    -3
390
F
  0
LAYER
  5
99907
102
{ACAD_XDICTIONARY
360
618
102
}
330
2
100
AcDbSymbolTableRecord
100
AcDbLayerTableRecord
  2
SK3
 70
     0
 62
     1
  6
DASHED
370
    -3
390
F
  0
LAYER
  5
99908
102
{ACAD_XDICTIONARY
360
61A
102
}
330
2
100
AcDbSymbolTableRecord
100
AcDbLayerTableRecord
  2
SK4
 70
     0
 62
     2
  6
CENTER
370
    -3
390
F
  0
LAYER
  5
99909
102
{ACAD_XDICTIONARY
360
61C
102
}
330
2
100
AcDbSymbolTableRecord
100
AcDbLayerTableRecord
  2
SK6
 70
     0
 62
     5
  6
CONTINUOUS
370
    -3
390
F
  0
LAYER
  5
9990A
102
{ACAD_XDICTIONARY
360
61E
102
}
330
2
100
AcDbSymbolTableRecord
100
AcDbLayerTableRecord
  2
CUT
 70
     0
 62
     1
  6
CONTINUOUS
370
    -3
390
F
  0
LAYER
  5
9990B
102
{ACAD_XDICTIONARY
360
620
102
}
330
2
100
AcDbSymbolTableRecord
100
AcDbLayerTableRecord
  2
NOCUT
 70
     0
 62
     7
  6
CONTINUOUS
370
    -3
390
F
  0
LAYER
  5
9990C
102
{ACAD_XDICTIONARY
360
622
102
}
330
2
100
AcDbSymbolTableRecord
100
AcDbLayerTableRecord
  2
80
 70
     0
 62
     6
  6
CONTINUOUS
370
    -3
390
F
  0
LAYER
  5
9990D
102
{ACAD_XDICTIONARY
360
624
102
}
330
2
100
AcDbSymbolTableRecord
100
AcDbLayerTableRecord
  2
81
 70
     0
 62
     3
  6
CONTINUOUS
370
    -3
390
F
  0
LAYER
  5
9990E
102
{ACAD_XDICTIONARY
360
626
102
}
330
2
100
AcDbSymbolTableRecord
100
AcDbLayerTableRecord
  2
SK1
 70
     0
 62
     4
  6
CONTINUOUS
370
    -3
390
F
  0
ENDTAB
  0
TABLE
  2
STYLE
  5
3
330
0
100
AcDbSymbolTable
 70
     3
  0
STYLE
  5
11
330
3
100
AcDbSymbolTableRecord
100
AcDbTextStyleTableRecord
  2
Standard
 70
     0
 40
0.0
 41
1.0
 50
0.0
 71
     0
 42
0.2
  3
txt
  4

  0
STYLE
  5
36A
330
3
100
AcDbSymbolTableRecord
100
AcDbTextStyleTableRecord
  2
iso_b_vert
 70
     0
 40
0.0
 41
1.0
 50
0.0
 71
     0
 42
0.2
  3
simplex.shx
  4

  0
STYLE
  5
36B
330
3
100
AcDbSymbolTableRecord
100
AcDbTextStyleTableRecord
  2
DWGDirectTextStyle
 70
     0
 40
0.0
 41
1.0
 50
0.0
 71
     0
 42
0.2
  3
simplex
  4

  0
ENDTAB
  0
TABLE
  2
VIEW
  5
6
330
0
100
AcDbSymbolTable
 70
     8
  0
VIEW
  5
3F2
330
6
100
AcDbSymbolTableRecord
100
AcDbViewTableRecord
  2
Top
 70
     0
 40
254.0
 10
192.152649
 20
164.369411
 41
461.022959
 11
0.0
 21
0.0
 31
1.0
 12
0.0
 22
0.0
 32
0.0
 42
50.0
 43
186.345161
 44
-186.345161
 50
0.0
 71
     0
281
     0
 72
     0
  0
VIEW
  5
3F3
330
6
100
AcDbSymbolTableRecord
100
AcDbViewTableRecord
  2
Front
 70
     0
 40
1753.330408
 10
0.0
 20
0.0
 41
461.022959
 11
0.0
 21
-1.0
 31
0.0
 12
0.0
 22
0.0
 32
0.0
 42
50.0
 43
906.464242
 44
-906.464242
 50
0.0
 71
     0
281
     0
 72
     0
  0
VIEW
  5
3F4
330
6
100
AcDbSymbolTableRecord
100
AcDbViewTableRecord
  2
Right
 70
     0
 40
1753.330408
 10
0.0
 20
0.0
 41
254.0
 11
1.0
 21
0.0
 31
0.0
 12
0.0
 22
0.0
 32
0.0
 42
50.0
 43
885.816505
 44
-885.816505
 50
0.0
 71
     0
281
     0
 72
     0
  0
VIEW
  5
3F5
330
6
100
AcDbSymbolTableRecord
100
AcDbViewTableRecord
  2
Back
 70
     0
 40
1753.330408
 10
0.0
 20
0.0
 41
461.022959
 11
0.0
 21
1.0
 31
0.0
 12
0.0
 22
0.0
 32
0.0
 42
50.0
 43
906.464242
 44
-906.464242
 50
0.0
 71
     0
281
     0
 72
     0
  0
VIEW
  5
3F6
330
6
100
AcDbSymbolTableRecord
100
AcDbViewTableRecord
  2
Bottom
 70
     0
 40
254.0
 10
0.0
 20
0.0
 41
461.022959
 11
0.0
 21
0.0
 31
-1.0
 12
0.0
 22
0.0
 32
0.0
 42
50.0
 43
876.665204
 44
-876.665204
 50
180.0
 71
     0
281
     0
 72
     0
  0
VIEW
  5
3F7
330
6
100
AcDbSymbolTableRecord
100
AcDbViewTableRecord
  2
Left
 70
     0
 40
1753.330408
 10
0.0
 20
0.0
 41
254.0
 11
-1.0
 21
0.0
 31
0.0
 12
0.0
 22
0.0
 32
0.0
 42
50.0
 43
885.816505
 44
-885.816505
 50
0.0
 71
     0
281
     0
 72
     0
  0
VIEW
  5
3F8
330
6
100
AcDbSymbolTableRecord
100
AcDbViewTableRecord
  2
Isometric
 70
     0
 40
1723.495184
 10
0.0
 20
0.0
 41
505.597583
 11
0.5773502691896258
 21
-0.5773502691896258
 31
0.5773502691896258
 12
0.0
 22
0.0
 32
0.0
 42
50.0
 43
898.062437
 44
-898.062437
 50
0.0
 71
     0
281
     0
 72
     0
  0
VIEW
  5
3F9
330
6
100
AcDbSymbolTableRecord
100
AcDbViewTableRecord
  2
Trimetric
 70
     0
 40
1819.513313
 10
0.0
 20
0.0
 41
488.010047
 11
0.7188730927569433
 21
-0.5850486126764433
 31
0.3754192287502549
 12
0.0
 22
0.0
 32
0.0
 42
50.0
 43
941.910625
 44
-941.910625
 50
0.0
 71
     0
281
     0
 72
     0
  0
ENDTAB
  0
TABLE
  2
UCS
  5
7
330
0
100
AcDbSymbolTable
 70
     0
  0
ENDTAB
  0
TABLE
  2
APPID
  5
9
330
0
100
AcDbSymbolTable
 70
     6
  0
APPID
  5
12
330
9
100
AcDbSymbolTableRecord
100
AcDbRegAppTableRecord
  2
ACAD
 70
     0
  0
APPID
  5
375
330
9
100
AcDbSymbolTableRecord
100
AcDbRegAppTableRecord
  2
ACAD_DSTYLE_DIMBREAK
 70
     0
  0
APPID
  5
40A
330
9
100
AcDbSymbolTableRecord
100
AcDbRegAppTableRecord
  2
ACAD_DSTYLE_DIM_LINETYPE
 70
     0
  0
APPID
  5
40B
330
9
100
AcDbSymbolTableRecord
100
AcDbRegAppTableRecord
  2
ACAD_DSTYLE_DIM_EXT1_LINETYPE
 70
     0
  0
APPID
  5
40C
330
9
100
AcDbSymbolTableRecord
100
AcDbRegAppTableRecord
  2
ACAD_DSTYLE_DIM_EXT2_LINETYPE
 70
     0
  0
APPID
  5
44C
330
9
100
AcDbSymbolTableRecord
100
AcDbRegAppTableRecord
  2
ACAD_MLEADERVER
 70
     0
  0
ENDTAB
  0
TABLE
  2
DIMSTYLE
  5
A
330
0
100
AcDbSymbolTable
 70
     1
100
AcDbDimStyleTable
  0
DIMSTYLE
105
27
102
{ACAD_REACTORS
330
376
330
38D
330
3A6
330
3BE
330
3D8
102
}
330
A
100
AcDbSymbolTableRecord
100
AcDbDimStyleTableRecord
  2
Standard
 70
     0
178
     0
340
11
1001
ACAD_DSTYLE_DIMBREAK
1070
   391
1040
6.35
  0
ENDTAB
  0
TABLE
  2
BLOCK_RECORD
  5
1
330
0
100
AcDbSymbolTable
 70
    11
  0
BLOCK_RECORD
  5
1F
330
1
100
AcDbSymbolTableRecord
100
AcDbBlockTableRecord
  2
*Model_Space
340
22
  0
BLOCK_RECORD
  5
1B
330
1
100
AcDbSymbolTableRecord
100
AcDbBlockTableRecord
  2
*Paper_Space
340
1E
  0
BLOCK_RECORD
  5
23
330
1
100
AcDbSymbolTableRecord
100
AcDbBlockTableRecord
  2
*Paper_Space0
340
26
  0
BLOCK_RECORD
  5
37A
330
1
100
AcDbSymbolTableRecord
100
AcDbBlockTableRecord
  2
*D1
340
0
  0
BLOCK_RECORD
  5
385
330
1
100
AcDbSymbolTableRecord
100
AcDbBlockTableRecord
  2
_U0
340
0
  0
BLOCK_RECORD
  5
390
330
1
100
AcDbSymbolTableRecord
100
AcDbBlockTableRecord
  2
*D3
340
0
  0
BLOCK_RECORD
  5
39C
330
1
100
AcDbSymbolTableRecord
100
AcDbBlockTableRecord
  2
_U1
340
0
  0
BLOCK_RECORD
  5
3A9
330
1
100
AcDbSymbolTableRecord
100
AcDbBlockTableRecord
  2
*D5
340
0
  0
BLOCK_RECORD
  5
3B5
330
1
100
AcDbSymbolTableRecord
100
AcDbBlockTableRecord
  2
_U2
340
0
  0
BLOCK_RECORD
  5
3C1
330
1
100
AcDbSymbolTableRecord
100
AcDbBlockTableRecord
  2
*D7
340
0
  0
BLOCK_RECORD
  5
3CF
330
1
100
AcDbSymbolTableRecord
100
AcDbBlockTableRecord
  2
_U3
340
0
  0
BLOCK_RECORD
  5
3DB
330
1
100
AcDbSymbolTableRecord
100
AcDbBlockTableRecord
  2
*D9
340
0
  0
BLOCK_RECORD
  5
3E8
330
1
100
AcDbSymbolTableRecord
100
AcDbBlockTableRecord
  2
_U4
340
0
  0
ENDTAB
  0
ENDSEC
  0
SECTION
  2
BLOCKS
  0
BLOCK
  5
20
330
1F
100
AcDbEntity
  8
0
100
AcDbBlockBegin
  2
*Model_Space
 70
     0
 10
0.0
 20
0.0
 30
0.0
  3
*Model_Space
  1

  0
ENDBLK
  5
21
330
1F
100
AcDbEntity
  8
0
100
AcDbBlockEnd
  0
BLOCK
  5
1C
330
1B
100
AcDbEntity
 67
     1
  8
0
100
AcDbBlockBegin
  2
*Paper_Space
 70
     0
 10
0.0
 20
0.0
 30
0.0
  3
*Paper_Space
  1

  0
ENDBLK
  5
1D
330
1B
100
AcDbEntity
 67
     1
  8
0
100
AcDbBlockEnd
  0
BLOCK
  5
24
330
23
100
AcDbEntity
  8
0
100
AcDbBlockBegin
  2
*Paper_Space0
 70
     0
 10
0.0
 20
0.0
 30
0.0
  3
*Paper_Space0
  1

  0
ENDBLK
  5
25
330
23
100
AcDbEntity
  8
0
100
AcDbBlockEnd
  0
BLOCK
  5
37B
330
37A
100
AcDbEntity
  8
0
100
AcDbBlockBegin
  2
*D1
 70
     1
 10
0.0
 20
0.0
 30
0.0
  3
*D1
  1

  0
LINE
  5
37D
330
37A
100
AcDbEntity
  8
2
370
    -2
100
AcDbLine
 10
224.73469
 20
158.230504
 30
0.0
 11
243.583781
 21
158.230504
 31
0.0
  0
LINE
  5
37E
330
37A
100
AcDbEntity
  8
2
370
    -2
100
AcDbLine
 10
225.811086
 20
178.205504
 30
0.0
 11
243.583781
 21
178.205504
 31
0.0
  0
LINE
  5
37F
330
37A
100
AcDbEntity
  8
2
370
    -2
100
AcDbLine
 10
241.583781
 20
175.030504
 30
0.0
 11
241.583781
 21
154.256861
 31
0.0
  0
SOLID
  5
380
330
37A
100
AcDbEntity
  8
2
100
AcDbTrace
 10
242.112948
 20
175.030504
 30
0.0
 11
241.054615
 21
175.030504
 31
0.0
 12
241.583781
 22
178.205504
 32
0.0
 13
241.583781
 23
178.205504
 33
0.0
  0
MTEXT
  5
381
330
37A
100
AcDbEntity
  8
2
370
    13
100
AcDbMText
 10
235.583781
 20
161.185433
 30
0.0
 40
3.0
 41
0.0
 71
     5
 72
     1
  1
\A1;40
  7
iso_b_vert
 11
0.0
 21
1.0
 31
0.0
 73
     1
 44
1.0
  0
POINT
  5
382
330
37A
100
AcDbEntity
  8
Defpoints
 62
     0
100
AcDbPoint
 10
224.73469
 20
158.230504
 30
0.0
  0
POINT
  5
383
330
37A
100
AcDbEntity
  8
Defpoints
 62
     0
100
AcDbPoint
 10
225.811086
 20
178.205504
 30
0.0
  0
POINT
  5
384
330
37A
100
AcDbEntity
  8
Defpoints
 62
     0
100
AcDbPoint
 10
241.583781
 20
178.205504
 30
0.0
  0
ENDBLK
  5
37C
330
37A
100
AcDbEntity
  8
0
100
AcDbBlockEnd
  0
BLOCK
  5
38B
330
385
100
AcDbEntity
  8
0
100
AcDbBlockBegin
  2
_U0
 70
     0
 10
0.0
 20
0.0
 30
0.0
  3
_U0
  1

  0
MTEXT
  5
386
330
385
100
AcDbEntity
  8
2
370
    18
100
AcDbMText
 10
240.430167
 20
162.258162
 30
0.0
 40
3.0
 41
0.0
 71
     7
 72
     5
  1
\W0.8010;40
  7
iso_b_vert
 11
6.123233995736766E-17
 21
1.0
 31
0.0
 73
     2
 44
0.987952
  0
MTEXT
  5
387
330
385
100
AcDbEntity
  8
2
370
    18
100
AcDbMText
 10
240.430167
 20
156.483162
 30
0.0
 40
3.0
 41
0.0
 71
     7
 72
     5
  1
\W4.3910;\H2.25;%%c\H3.00;
  7
iso_b_vert
 11
6.123233995736766E-17
 21
1.0
 31
0.0
 73
     2
 44
0.987952
  0
LINE
  5
388
330
385
100
AcDbEntity
  8
2
370
    13
100
AcDbLine
 10
225.811086
 20
178.205504
 30
0.0
 11
243.583781
 21
178.205504
 31
0.0
  0
LINE
  5
389
330
385
100
AcDbEntity
  8
2
370
    13
100
AcDbLine
 10
241.583781
 20
178.205504
 30
0.0
 11
241.583781
 21
156.348162
 31
0.0
  0
SOLID
  5
38A
330
385
100
AcDbEntity
  8
2
370
    13
100
AcDbTrace
 10
241.583781
 20
178.205504
 30
0.0
 11
242.001778
 21
175.030506
 31
0.0
 12
241.165785
 22
175.030503
 32
0.0
 13
241.165785
 23
175.030503
 33
0.0
  0
ENDBLK
  5
38C
330
385
100
AcDbEntity
  8
0
100
AcDbBlockEnd
  0
BLOCK
  5
391
330
390
100
AcDbEntity
  8
0
100
AcDbBlockBegin
  2
*D3
 70
     1
 10
0.0
 20
0.0
 30
0.0
  3
*D3
  1

  0
LINE
  5
393
330
390
100
AcDbEntity
  8
SK2
370
    -2
100
AcDbLine
 10
183.311086
 20
172.730504
 30
0.0
 11
144.346517
 21
172.730504
 31
0.0
  0
LINE
  5
394
330
390
100
AcDbEntity
  8
SK2
370
    -2
100
AcDbLine
 10
183.311086
 20
143.730504
 30
0.0
 11
144.346517
 21
143.730504
 31
0.0
  0
LINE
  5
395
330
390
100
AcDbEntity
  8
SK2
370
    -2
100
AcDbLine
 10
146.346517
 20
169.555504
 30
0.0
 11
146.346517
 21
146.905504
 31
0.0
  0
SOLID
  5
396
330
390
100
AcDbEntity
  8
SK2
100
AcDbTrace
 10
146.875683
 20
169.555504
 30
0.0
 11
145.81735
 21
169.555504
 31
0.0
 12
146.346517
 22
172.730504
 32
0.0
 13
146.346517
 23
172.730504
 33
0.0
  0
SOLID
  5
397
330
390
100
AcDbEntity
  8
SK2
100
AcDbTrace
 10
145.81735
 20
146.905504
 30
0.0
 11
146.875683
 21
146.905504
 31
0.0
 12
146.346517
 22
143.730504
 32
0.0
 13
146.346517
 23
143.730504
 33
0.0
  0
MTEXT
  5
398
330
390
100
AcDbEntity
  8
SK2
370
    13
100
AcDbMText
 10
140.346517
 20
158.230504
 30
0.0
 40
3.0
 41
0.0
 71
     5
 72
     1
  1
\A1;29
  7
iso_b_vert
 11
0.0
 21
1.0
 31
0.0
 73
     1
 44
1.0
  0
POINT
  5
399
330
390
100
AcDbEntity
  8
Defpoints
 62
     0
100
AcDbPoint
 10
183.311086
 20
172.730504
 30
0.0
  0
POINT
  5
39A
330
390
100
AcDbEntity
  8
Defpoints
 62
     0
100
AcDbPoint
 10
183.311086
 20
143.730504
 30
0.0
  0
POINT
  5
39B
330
390
100
AcDbEntity
  8
Defpoints
 62
     0
100
AcDbPoint
 10
146.346517
 20
143.730504
 30
0.0
  0
ENDBLK
  5
392
330
390
100
AcDbEntity
  8
0
100
AcDbBlockEnd
  0
BLOCK
  5
3A4
330
39C
100
AcDbEntity
  8
0
100
AcDbBlockBegin
  2
_U1
 70
     0
 10
0.0
 20
0.0
 30
0.0
  3
_U1
  1

  0
MTEXT
  5
39D
330
39C
100
AcDbEntity
  8
SK2
370
    18
100
AcDbMText
 10
145.192902
 20
159.461176
 30
0.0
 40
3.0
 41
0.0
 71
     7
 72
     5
  1
\W0.7557;29
  7
iso_b_vert
 11
6.123233995736766E-17
 21
1.0
 31
0.0
 73
     2
 44
0.987952
  0
MTEXT
  5
39E
330
39C
100
AcDbEntity
  8
SK2
370
    18
100
AcDbMText
 10
145.192902
 20
153.686176
 30
0.0
 40
3.0
 41
0.0
 71
     7
 72
     5
  1
\W4.3910;\H2.25;%%c\H3.00;
  7
iso_b_vert
 11
6.123233995736766E-17
 21
1.0
 31
0.0
 73
     2
 44
0.987952
  0
LINE
  5
39F
330
39C
100
AcDbEntity
  8
SK2
370
    13
100
AcDbLine
 10
183.311086
 20
172.730504
 30
0.0
 11
144.346517
 21
172.730504
 31
0.0
  0
LINE
  5
3A0
330
39C
100
AcDbEntity
  8
SK2
370
    13
100
AcDbLine
 10
183.311086
 20
143.730504
 30
0.0
 11
144.346517
 21
143.730504
 31
0.0
  0
LINE
  5
3A1
330
39C
100
AcDbEntity
  8
SK2
370
    13
100
AcDbLine
 10
146.346517
 20
172.730504
 30
0.0
 11
146.346517
 21
143.730504
 31
0.0
  0
SOLID
  5
3A2
330
39C
100
AcDbEntity
  8
SK2
370
    13
100
AcDbTrace
 10
146.346517
 20
172.730504
 30
0.0
 11
146.764513
 21
169.555506
 31
0.0
 12
145.92852
 22
169.555503
 32
0.0
 13
145.92852
 23
169.555503
 33
0.0
  0
SOLID
  5
3A3
330
39C
100
AcDbEntity
  8
SK2
370
    13
100
AcDbTrace
 10
146.346517
 20
143.730504
 30
0.0
 11
145.92852
 21
146.905503
 31
0.0
 12
146.764513
 22
146.905506
 32
0.0
 13
146.764513
 23
146.905506
 33
0.0
  0
ENDBLK
  5
3A5
330
39C
100
AcDbEntity
  8
0
100
AcDbBlockEnd
  0
BLOCK
  5
3AA
330
3A9
100
AcDbEntity
  8
0
100
AcDbBlockBegin
  2
*D5
 70
     1
 10
0.0
 20
0.0
 30
0.0
  3
*D5
  1

  0
LINE
  5
3AC
330
3A9
100
AcDbEntity
  8
2
370
    -2
100
AcDbLine
 10
182.811086
 20
172.230504
 30
0.0
 11
182.811086
 21
199.548568
 31
0.0
  0
LINE
  5
3AD
330
3A9
100
AcDbEntity
  8
2
370
    -2
100
AcDbLine
 10
225.811086
 20
179.205504
 30
0.0
 11
225.811086
 21
199.548568
 31
0.0
  0
LINE
  5
3AE
330
3A9
100
AcDbEntity
  8
2
370
    -2
100
AcDbLine
 10
185.986086
 20
197.548568
 30
0.0
 11
222.636086
 21
197.548568
 31
0.0
  0
SOLID
  5
3AF
330
3A9
100
AcDbEntity
  8
2
100
AcDbTrace
 10
185.986086
 20
198.077734
 30
0.0
 11
185.986086
 21
197.019401
 31
0.0
 12
182.811086
 22
197.548568
 32
0.0
 13
182.811086
 23
197.548568
 33
0.0
  0
SOLID
  5
3B0
330
3A9
100
AcDbEntity
  8
2
100
AcDbTrace
 10
222.636086
 20
197.019401
 30
0.0
 11
222.636086
 21
198.077734
 31
0.0
 12
225.811086
 22
197.548568
 32
0.0
 13
225.811086
 23
197.548568
 33
0.0
  0
MTEXT
  5
3B1
330
3A9
100
AcDbEntity
  8
2
370
    13
100
AcDbMText
 10
204.311086
 20
203.548568
 30
0.0
 40
3.0
 41
0.0
 71
     5
 72
     1
  1
\A1;43
  7
iso_b_vert
 73
     1
 44
1.0
  0
POINT
  5
3B2
330
3A9
100
AcDbEntity
  8
Defpoints
 62
     0
100
AcDbPoint
 10
182.811086
 20
172.230504
 30
0.0
  0
POINT
  5
3B3
330
3A9
100
AcDbEntity
  8
Defpoints
 62
     0
100
AcDbPoint
 10
225.811086
 20
179.205504
 30
0.0
  0
POINT
  5
3B4
330
3A9
100
AcDbEntity
  8
Defpoints
 62
     0
100
AcDbPoint
 10
225.811086
 20
197.548568
 30
0.0
  0
ENDBLK
  5
3AB
330
3A9
100
AcDbEntity
  8
0
100
AcDbBlockEnd
  0
BLOCK
  5
3BC
330
3B5
100
AcDbEntity
  8
0
100
AcDbBlockBegin
  2
_U2
 70
     0
 10
0.0
 20
0.0
 30
0.0
  3
_U2
  1

  0
MTEXT
  5
3B6
330
3B5
100
AcDbEntity
  8
2
370
    18
100
AcDbMText
 10
202.520315
 20
198.433682
 30
0.0
 40
3.0
 41
0.0
 71
     7
 72
     5
  1
\W0.8010;43
  7
iso_b_vert
 73
     2
 44
0.987952
  0
LINE
  5
3B7
330
3B5
100
AcDbEntity
  8
2
370
    13
100
AcDbLine
 10
182.811086
 20
172.230504
 30
0.0
 11
182.811086
 21
199.548568
 31
0.0
  0
LINE
  5
3B8
330
3B5
100
AcDbEntity
  8
2
370
    13
100
AcDbLine
 10
225.811086
 20
179.205504
 30
0.0
 11
225.811086
 21
199.548568
 31
0.0
  0
LINE
  5
3B9
330
3B5
100
AcDbEntity
  8
2
370
    13
100
AcDbLine
 10
182.811086
 20
197.548568
 30
0.0
 11
225.811086
 21
197.548568
 31
0.0
  0
SOLID
  5
3BA
330
3B5
100
AcDbEntity
  8
2
370
    13
100
AcDbTrace
 10
182.811086
 20
197.548568
 30
0.0
 11
185.986085
 21
197.966564
 31
0.0
 12
185.986088
 22
197.130571
 32
0.0
 13
185.986088
 23
197.130571
 33
0.0
  0
SOLID
  5
3BB
330
3B5
100
AcDbEntity
  8
2
370
    13
100
AcDbTrace
 10
225.811086
 20
197.548568
 30
0.0
 11
222.636088
 21
197.130571
 31
0.0
 12
222.636085
 22
197.966564
 32
0.0
 13
222.636085
 23
197.966564
 33
0.0
  0
ENDBLK
  5
3BD
330
3B5
100
AcDbEntity
  8
0
100
AcDbBlockEnd
  0
BLOCK
  5
3C2
330
3C1
100
AcDbEntity
  8
0
100
AcDbBlockBegin
  2
*D7
 70
     1
 10
0.0
 20
0.0
 30
0.0
  3
*D7
  1

  0
LINE
  5
3C4
330
3C1
100
AcDbEntity
  8
2
370
    -2
100
AcDbLine
 10
225.811086
 20
178.205504
 30
0.0
 11
225.811086
 21
186.400889
 31
0.0
  0
LINE
  5
3C5
330
3C1
100
AcDbEntity
  8
2
370
    -2
100
AcDbLine
 10
223.921223
 20
177.605008
 30
0.0
 11
223.921223
 21
186.400889
 31
0.0
  0
LINE
  5
3C6
330
3C1
100
AcDbEntity
  8
2
370
    -2
100
AcDbLine
 10
225.811086
 20
184.400889
 30
0.0
 11
246.732515
 21
184.400889
 31
0.0
  0
LINE
  5
3C7
330
3C1
100
AcDbEntity
  8
2
370
    -2
100
AcDbLine
 10
228.986086
 20
184.400889
 30
0.0
 11
232.161086
 21
184.400889
 31
0.0
  0
LINE
  5
3C8
330
3C1
100
AcDbEntity
  8
2
370
    -2
100
AcDbLine
 10
220.746223
 20
184.400889
 30
0.0
 11
217.571223
 21
184.400889
 31
0.0
  0
SOLID
  5
3C9
330
3C1
100
AcDbEntity
  8
2
100
AcDbTrace
 10
228.986086
 20
184.930056
 30
0.0
 11
228.986086
 21
183.871722
 31
0.0
 12
225.811086
 22
184.400889
 32
0.0
 13
225.811086
 23
184.400889
 33
0.0
  0
SOLID
  5
3CA
330
3C1
100
AcDbEntity
  8
2
100
AcDbTrace
 10
220.746223
 20
183.871722
 30
0.0
 11
220.746223
 21
184.930056
 31
0.0
 12
223.921223
 22
184.400889
 32
0.0
 13
223.921223
 23
184.400889
 33
0.0
  0
MTEXT
  5
3CB
330
3C1
100
AcDbEntity
  8
2
370
    13
100
AcDbMText
 10
239.446801
 20
190.400889
 30
0.0
 40
3.0
 41
0.0
 71
     5
 72
     1
  1
\A1;1.9
  7
iso_b_vert
 73
     1
 44
1.0
  0
POINT
  5
3CC
330
3C1
100
AcDbEntity
  8
Defpoints
 62
     0
100
AcDbPoint
 10
225.811086
 20
178.205504
 30
0.0
  0
POINT
  5
3CD
330
3C1
100
AcDbEntity
  8
Defpoints
 62
     0
100
AcDbPoint
 10
223.921223
 20
177.605008
 30
0.0
  0
POINT
  5
3CE
330
3C1
100
AcDbEntity
  8
Defpoints
 62
     0
100
AcDbPoint
 10
223.921223
 20
184.400889
 30
0.0
  0
ENDBLK
  5
3C3
330
3C1
100
AcDbEntity
  8
0
100
AcDbBlockEnd
  0
BLOCK
  5
3D6
330
3CF
100
AcDbEntity
  8
0
100
AcDbBlockBegin
  2
_U3
 70
     0
 10
0.0
 20
0.0
 30
0.0
  3
_U3
  1

  0
MTEXT
  5
3D0
330
3CF
100
AcDbEntity
  8
2
370
    18
100
AcDbMText
 10
234.823689
 20
185.286004
 30
0.0
 40
3.0
 41
0.0
 71
     7
 72
     5
  1
\W0.6983;1,9
  7
iso_b_vert
 73
     2
 44
0.987952
  0
LINE
  5
3D1
330
3CF
100
AcDbEntity
  8
2
370
    13
100
AcDbLine
 10
225.811086
 20
178.205504
 30
0.0
 11
225.811086
 21
186.400889
 31
0.0
  0
LINE
  5
3D2
330
3CF
100
AcDbEntity
  8
2
370
    13
100
AcDbLine
 10
223.921223
 20
177.605008
 30
0.0
 11
223.921223
 21
186.400889
 31
0.0
  0
LINE
  5
3D3
330
3CF
100
AcDbEntity
  8
2
370
    13
100
AcDbLine
 10
216.421223
 20
184.400889
 30
0.0
 11
238.555945
 21
184.400889
 31
0.0
  0
SOLID
  5
3D4
330
3CF
100
AcDbEntity
  8
2
370
    13
100
AcDbTrace
 10
225.811086
 20
184.400889
 30
0.0
 11
228.986085
 21
184.818886
 31
0.0
 12
228.986088
 22
183.982892
 32
0.0
 13
228.986088
 23
183.982892
 33
0.0
  0
SOLID
  5
3D5
330
3CF
100
AcDbEntity
  8
2
370
    13
100
AcDbTrace
 10
223.921223
 20
184.400889
 30
0.0
 11
220.746225
 21
183.982892
 31
0.0
 12
220.746222
 22
184.818886
 32
0.0
 13
220.746222
 23
184.818886
 33
0.0
  0
ENDBLK
  5
3D7
330
3CF
100
AcDbEntity
  8
0
100
AcDbBlockEnd
  0
BLOCK
  5
3DC
330
3DB
100
AcDbEntity
  8
0
100
AcDbBlockBegin
  2
*D9
 70
     1
 10
0.0
 20
0.0
 30
0.0
  3
*D9
  1

  0
LINE
  5
3DE
330
3DB
100
AcDbEntity
  8
SK2
370
    -2
100
AcDbLine
 10
161.311086
 20
150.230504
 30
0.0
 11
151.273199
 21
150.230504
 31
0.0
  0
LINE
  5
3DF
330
3DB
100
AcDbEntity
  8
SK2
370
    -2
100
AcDbLine
 10
161.311086
 20
166.230504
 30
0.0
 11
151.273199
 21
166.230504
 31
0.0
  0
LINE
  5
3E0
330
3DB
100
AcDbEntity
  8
SK2
370
    -2
100
AcDbLine
 10
153.273199
 20
166.230504
 30
0.0
 11
153.273199
 21
188.842586
 31
0.0
  0
LINE
  5
3E1
330
3DB
100
AcDbEntity
  8
SK2
370
    -2
100
AcDbLine
 10
153.273199
 20
153.405504
 30
0.0
 11
153.273199
 21
163.055504
 31
0.0
  0
SOLID
  5
3E2
330
3DB
100
AcDbEntity
  8
SK2
100
AcDbTrace
 10
152.744032
 20
153.405504
 30
0.0
 11
153.802366
 21
153.405504
 31
0.0
 12
153.273199
 22
150.230504
 32
0.0
 13
153.273199
 23
150.230504
 33
0.0
  0
SOLID
  5
3E3
330
3DB
100
AcDbEntity
  8
SK2
100
AcDbTrace
 10
153.802366
 20
163.055504
 30
0.0
 11
152.744032
 21
163.055504
 31
0.0
 12
153.273199
 22
166.230504
 32
0.0
 13
153.273199
 23
166.230504
 33
0.0
  0
MTEXT
  5
3E4
330
3DB
100
AcDbEntity
  8
SK2
370
    13
100
AcDbMText
 10
147.273199
 20
182.271158
 30
0.0
 40
3.0
 41
0.0
 71
     5
 72
     1
  1
\A1;16
  7
iso_b_vert
 11
0.0
 21
1.0
 31
0.0
 73
     1
 44
1.0
  0
POINT
  5
3E5
330
3DB
100
AcDbEntity
  8
Defpoints
 62
     0
100
AcDbPoint
 10
161.311086
 20
150.230504
 30
0.0
  0
POINT
  5
3E6
330
3DB
100
AcDbEntity
  8
Defpoints
 62
     0
100
AcDbPoint
 10
161.311086
 20
166.230504
 30
0.0
  0
POINT
  5
3E7
330
3DB
100
AcDbEntity
  8
Defpoints
 62
     0
100
AcDbPoint
 10
153.273199
 20
166.230504
 30
0.0
  0
ENDBLK
  5
3DD
330
3DB
100
AcDbEntity
  8
0
100
AcDbBlockEnd
  0
BLOCK
  5
3F0
330
3E8
100
AcDbEntity
  8
0
100
AcDbBlockBegin
  2
_U4
 70
     0
 10
0.0
 20
0.0
 30
0.0
  3
_U4
  1

  0
MTEXT
  5
3E9
330
3E8
100
AcDbEntity
  8
SK2
370
    18
100
AcDbMText
 10
152.682085
 20
178.482787
 30
0.0
 40
3.0
 41
0.0
 71
     7
 72
     5
  1
\W0.8613;M
  7
iso_b_vert
 11
6.123233995736766E-17
 21
1.0
 31
0.0
 73
     2
 44
0.987952
  0
MTEXT
  5
3EA
330
3E8
100
AcDbEntity
  8
SK2
370
    18
100
AcDbMText
 10
152.682085
 20
183.495758
 30
0.0
 40
3.0
 41
0.0
 71
     7
 72
     5
  1
\W0.6789;16
  7
iso_b_vert
 11
6.123233995736766E-17
 21
1.0
 31
0.0
 73
     2
 44
0.987952
  0
LINE
  5
3EB
330
3E8
100
AcDbEntity
  8
SK2
370
    13
100
AcDbLine
 10
161.311086
 20
150.230504
 30
0.0
 11
151.273199
 21
150.230504
 31
0.0
  0
LINE
  5
3EC
330
3E8
100
AcDbEntity
  8
SK2
370
    13
100
AcDbLine
 10
161.311086
 20
166.230504
 30
0.0
 11
151.273199
 21
166.230504
 31
0.0
  0
LINE
  5
3ED
330
3E8
100
AcDbEntity
  8
SK2
370
    13
100
AcDbLine
 10
153.273199
 20
150.230504
 30
0.0
 11
153.273199
 21
186.194529
 31
0.0
  0
SOLID
  5
3EE
330
3E8
100
AcDbEntity
  8
SK2
370
    13
100
AcDbTrace
 10
153.273199
 20
150.230504
 30
0.0
 11
152.855202
 21
153.405503
 31
0.0
 12
153.691196
 22
153.405506
 32
0.0
 13
153.691196
 23
153.405506
 33
0.0
  0
SOLID
  5
3EF
330
3E8
100
AcDbEntity
  8
SK2
370
    13
100
AcDbTrace
 10
153.273199
 20
166.230504
 30
0.0
 11
153.691196
 21
163.055506
 31
0.0
 12
152.855202
 22
163.055503
 32
0.0
 13
152.855202
 23
163.055503
 33
0.0
  0
ENDBLK
  5
3F1
330
3E8
100
AcDbEntity
  8
0
100
AcDbBlockEnd
  0
ENDSEC
  0
SECTION
  2
ENTITIES
  0
POINT
  5
73
330
1F
100
AcDbEntity
  8
80
370
    18
100
AcDbPoint
 10
182.811086
 20
158.230504
 30
0.0
  0
POINT
  5
75
330
1F
100
AcDbEntity
  8
81
370
    18
100
AcDbPoint
 10
225.811086
 20
178.205504
 30
0.0
  0
POINT
  5
76
330
1F
100
AcDbEntity
  8
4
 60
     1
370
    13
100
AcDbPoint
 10
182.811086
 20
158.230504
 30
0.0
  0
POINT
  5
78
330
1F
100
AcDbEntity
  8
4
 60
     1
370
    13
100
AcDbPoint
 10
224.73469
 20
158.230504
 30
0.0
  0
POINT
  5
79
330
1F
100
AcDbEntity
  8
SK4
 60
     1
370
    13
100
AcDbPoint
 10
182.811086
 20
158.230504
 30
0.0
  0
POINT
  5
7A
102
{ACAD_REACTORS
330
3C0
102
}
330
1F
100
AcDbEntity
  8
SK6
 60
     1
370
    13
100
AcDbPoint
 10
223.921223
 20
177.605008
 30
0.0
  0
LINE
  5
7B
330
1F
100
AcDbEntity
  8
1
370
    50
100
AcDbLine
 10
182.811086
 20
144.230504
 30
0.0
 11
182.811086
 21
172.230504
 31
0.0
  0
LINE
  5
7D
330
1F
100
AcDbEntity
  8
1
370
    50
100
AcDbLine
 10
224.73469
 20
152.806775
 30
0.0
 11
224.73469
 21
154.343089
 31
0.0
  0
LINE
  5
7E
330
1F
100
AcDbEntity
  8
1
370
    50
100
AcDbLine
 10
183.311086
 20
143.730504
 30
0.0
 11
183.311086
 21
172.730504
 31
0.0
  0
LINE
  5
7F
330
1F
100
AcDbEntity
  8
1
370
    50
100
AcDbLine
 10
212.717094
 20
168.98158
 30
0.0
 11
211.791318
 21
173.27455
 31
0.0
  0
LINE
  5
80
330
1F
100
AcDbEntity
  8
1
370
    50
100
AcDbLine
 10
213.122947
 20
143.268253
 30
0.0
 11
213.03999
 21
142.882352
 31
0.0
  0
LINE
  5
81
330
1F
100
AcDbEntity
  8
SK1
370
    50
100
AcDbLine
 10
181.311086
 20
149.730504
 30
0.0
 11
181.311086
 21
166.730504
 31
0.0
  0
LINE
  5
82
330
1F
100
AcDbEntity
  8
SK1
370
    50
100
AcDbLine
 10
176.811086
 20
149.730504
 30
0.0
 11
176.811086
 21
166.730504
 31
0.0
  0
LINE
  5
83
330
1F
100
AcDbEntity
  8
SK1
370
    50
100
AcDbLine
 10
176.311086
 20
150.230504
 30
0.0
 11
176.311086
 21
166.230504
 31
0.0
  0
LINE
  5
84
330
1F
100
AcDbEntity
  8
SK1
370
    50
100
AcDbLine
 10
159.811086
 20
151.730504
 30
0.0
 11
159.811086
 21
164.730504
 31
0.0
  0
LINE
  5
85
330
1F
100
AcDbEntity
  8
1
370
    50
100
AcDbLine
 10
185.811086
 20
170.680504
 30
0.0
 11
185.811086
 21
172.730504
 31
0.0
  0
LINE
  5
86
330
1F
100
AcDbEntity
  8
1
370
    50
100
AcDbLine
 10
186.311086
 20
170.180504
 30
0.0
 11
192.634759
 21
170.180504
 31
0.0
  0
LINE
  5
87
330
1F
100
AcDbEntity
  8
1
370
    50
100
AcDbLine
 10
192.634759
 20
146.280504
 30
0.0
 11
186.311086
 21
146.280504
 31
0.0
  0
LINE
  5
88
330
1F
100
AcDbEntity
  8
1
370
    50
100
AcDbLine
 10
185.811086
 20
143.730504
 30
0.0
 11
185.811086
 21
145.780504
 31
0.0
  0
LINE
  5
89
330
1F
100
AcDbEntity
  8
1
370
    50
100
AcDbLine
 10
221.790486
 20
169.713049
 30
0.0
 11
222.780485
 21
169.268458
 31
0.0
  0
LINE
  5
8A
330
1F
100
AcDbEntity
  8
1
370
    50
100
AcDbLine
 10
212.091684
 20
158.975344
 30
0.0
 11
211.791318
 21
159.123481
 31
0.0
  0
LINE
  5
8B
330
1F
100
AcDbEntity
  8
1
370
    50
100
AcDbLine
 10
214.753126
 20
146.20663
 30
0.0
 11
214.725297
 21
145.888541
 31
0.0
  0
LINE
  5
8C
330
1F
100
AcDbEntity
  8
1
370
    50
100
AcDbLine
 10
218.544943
 20
144.579729
 30
0.0
 11
218.517687
 21
144.268198
 31
0.0
  0
LINE
  5
8D
330
1F
100
AcDbEntity
  8
1
370
    50
100
AcDbLine
 10
222.780485
 20
148.625572
 30
0.0
 11
221.790486
 21
143.598754
 31
0.0
  0
LINE
  5
8E
330
1F
100
AcDbEntity
  8
1
370
    50
100
AcDbLine
 10
223.461086
 20
154.97877
 30
0.0
 11
223.461086
 21
154.724222
 31
0.0
  0
LINE
  5
8F
330
1F
100
AcDbEntity
  8
1
370
    50
100
AcDbLine
 10
223.461086
 20
156.992888
 30
0.0
 11
223.461086
 21
154.97877
 31
0.0
  0
LINE
  5
90
330
1F
100
AcDbEntity
  8
1
370
    50
100
AcDbLine
 10
224.024965
 20
154.372118
 30
0.0
 11
223.498109
 21
154.336298
 31
0.0
  0
LINE
  5
91
330
1F
100
AcDbEntity
  8
1
370
    50
100
AcDbLine
 10
197.811086
 20
144.874776
 30
0.0
 11
197.811086
 21
145.780504
 31
0.0
  0
LINE
  5
92
330
1F
100
AcDbEntity
  8
1
370
    50
100
AcDbLine
 10
197.311086
 20
146.280504
 30
0.0
 11
196.96918
 21
146.280504
 31
0.0
  0
LINE
  5
93
330
1F
100
AcDbEntity
  8
1
370
    50
100
AcDbLine
 10
196.96918
 20
170.180504
 30
0.0
 11
197.311086
 21
170.180504
 31
0.0
  0
LINE
  5
94
330
1F
100
AcDbEntity
  8
1
370
    50
100
AcDbLine
 10
197.811086
 20
170.680504
 30
0.0
 11
197.811086
 21
170.926283
 31
0.0
  0
LINE
  5
95
330
1F
100
AcDbEntity
  8
1
370
    50
100
AcDbLine
 10
213.783101
 20
174.101099
 30
0.0
 11
214.61131
 21
170.260561
 31
0.0
  0
LINE
  5
97
330
1F
100
AcDbEntity
  8
1
370
    50
100
AcDbLine
 10
214.61131
 20
170.260561
 30
0.0
 11
214.763706
 21
169.553877
 31
0.0
  0
LINE
  5
98
330
1F
100
AcDbEntity
  8
1
370
    50
100
AcDbLine
 10
221.886874
 20
176.453815
 30
0.0
 11
218.039934
 21
175.596409
 31
0.0
  0
LINE
  5
99
330
1F
100
AcDbEntity
  8
1
370
    50
100
AcDbLine
 10
218.039934
 20
175.596409
 30
0.0
 11
214.647454
 21
174.840292
 31
0.0
  0
LINE
  5
9A
330
1F
100
AcDbEntity
  8
1
370
    50
100
AcDbLine
 10
223.461101
 20
156.002529
 30
0.0
 11
224.484127
 21
156.703272
 31
0.0
  0
LINE
  5
9B
330
1F
100
AcDbEntity
  8
1
370
    50
100
AcDbLine
 10
225.110538
 20
154.380932
 30
0.0
 11
224.778316
 21
154.42106
 31
0.0
  0
LINE
  5
9C
330
1F
100
AcDbEntity
  8
1
370
    50
100
AcDbLine
 10
224.734685
 20
154.18605
 30
0.0
 11
225.110538
 21
154.380932
 31
0.0
  0
LINE
  5
9D
330
1F
100
AcDbEntity
  8
1
370
    50
100
AcDbLine
 10
224.063665
 20
154.422968
 30
0.0
 11
223.489422
 21
154.395635
 31
0.0
  0
LINE
  5
9E
330
1F
100
AcDbEntity
  8
1
370
    50
100
AcDbLine
 10
225.456659
 20
156.912741
 30
0.0
 11
225.437373
 21
156.471291
 31
0.0
  0
LINE
  5
9F
330
1F
100
AcDbEntity
  8
1
370
    50
100
AcDbLine
 10
225.236296
 20
155.036541
 30
0.0
 11
225.110538
 21
154.380932
 31
0.0
  0
LINE
  5
A0
330
1F
100
AcDbEntity
  8
1
370
    50
100
AcDbLine
 10
222.934554
 20
159.663543
 30
0.0
 11
222.206089
 21
161.082197
 31
0.0
  0
LINE
  5
A1
330
1F
100
AcDbEntity
  8
1
370
    50
100
AcDbLine
 10
221.804145
 20
162.46079
 30
0.0
 11
221.698402
 21
163.084828
 31
0.0
  0
LINE
  5
A2
330
1F
100
AcDbEntity
  8
1
370
    50
100
AcDbLine
 10
221.698402
 20
163.084828
 30
0.0
 11
222.486792
 21
162.987312
 31
0.0
  0
LINE
  5
A3
330
1F
100
AcDbEntity
  8
1
370
    50
100
AcDbLine
 10
213.834561
 20
160.104419
 30
0.0
 11
213.376738
 21
159.538386
 31
0.0
  0
LINE
  5
A4
330
1F
100
AcDbEntity
  8
1
370
    50
100
AcDbLine
 10
215.643752
 20
162.341228
 30
0.0
 11
221.595409
 21
161.615342
 31
0.0
  0
LINE
  5
A5
330
1F
100
AcDbEntity
  8
1
370
    50
100
AcDbLine
 10
215.643752
 20
162.341228
 30
0.0
 11
213.845852
 21
161.461704
 31
0.0
  0
LINE
  5
A6
330
1F
100
AcDbEntity
  8
1
370
    50
100
AcDbLine
 10
224.08004
 20
161.50206
 30
0.0
 11
223.624603
 21
160.687869
 31
0.0
  0
LINE
  5
A7
330
1F
100
AcDbEntity
  8
1
370
    50
100
AcDbLine
 10
224.08004
 20
161.50206
 30
0.0
 11
225.339451
 21
160.547817
 31
0.0
  0
LINE
  5
A8
330
1F
100
AcDbEntity
  8
1
370
    50
100
AcDbLine
 10
225.500765
 20
158.538697
 30
0.0
 11
225.437373
 21
159.989718
 31
0.0
  0
LINE
  5
A9
330
1F
100
AcDbEntity
  8
1
370
    50
100
AcDbLine
 10
224.112915
 20
159.224026
 30
0.0
 11
224.121234
 21
158.647561
 31
0.0
  0
LINE
  5
AA
330
1F
100
AcDbEntity
  8
1
370
    50
100
AcDbLine
 10
216.533819
 20
163.441669
 30
0.0
 11
215.643752
 21
162.341228
 31
0.0
  0
LINE
  5
AB
330
1F
100
AcDbEntity
  8
1
370
    50
100
AcDbLine
 10
216.533819
 20
163.441669
 30
0.0
 11
221.698402
 21
163.084828
 31
0.0
  0
LINE
  5
AC
330
1F
100
AcDbEntity
  8
1
370
    50
100
AcDbLine
 10
224.063867
 20
162.622782
 30
0.0
 11
224.08004
 21
161.50206
 31
0.0
  0
LINE
  5
AD
330
1F
100
AcDbEntity
  8
1
370
    50
100
AcDbLine
 10
223.217838
 20
162.861317
 30
0.0
 11
224.063867
 21
162.622782
 31
0.0
  0
LINE
  5
AE
330
1F
100
AcDbEntity
  8
1
370
    50
100
AcDbLine
 10
214.646898
 20
163.531483
 30
0.0
 11
216.533819
 21
163.441669
 31
0.0
  0
LINE
  5
AF
330
1F
100
AcDbEntity
  8
1
370
    50
100
AcDbLine
 10
212.623923
 20
160.334246
 30
0.0
 11
212.925465
 21
161.605286
 31
0.0
  0
LINE
  5
B0
330
1F
100
AcDbEntity
  8
1
370
    50
100
AcDbLine
 10
213.364749
 20
162.893268
 30
0.0
 11
213.600025
 21
163.489447
 31
0.0
  0
LINE
  5
B1
330
1F
100
AcDbEntity
  8
1
370
    50
100
AcDbLine
 10
213.600025
 20
163.489447
 30
0.0
 11
213.932247
 21
163.529576
 31
0.0
  0
LINE
  5
B2
330
1F
100
AcDbEntity
  8
1
370
    50
100
AcDbLine
 10
225.236296
 20
161.424467
 30
0.0
 11
225.110538
 21
162.080076
 31
0.0
  0
LINE
  5
B3
330
1F
100
AcDbEntity
  8
1
370
    50
100
AcDbLine
 10
224.063867
 20
162.622782
 30
0.0
 11
225.110538
 21
162.080076
 31
0.0
  0
LINE
  5
B4
330
1F
100
AcDbEntity
  8
1
370
    50
100
AcDbLine
 10
215.318437
 20
158.173343
 30
0.0
 11
215.338772
 21
158.405772
 31
0.0
  0
LINE
  5
B5
330
1F
100
AcDbEntity
  8
1
370
    50
100
AcDbLine
 10
221.710641
 20
157.916557
 30
0.0
 11
222.845956
 21
157.839367
 31
0.0
  0
LINE
  5
B6
330
1F
100
AcDbEntity
  8
1
370
    50
100
AcDbLine
 10
216.074327
 20
158.299765
 30
0.0
 11
216.714181
 21
158.256262
 31
0.0
  0
LINE
  5
B7
330
1F
100
AcDbEntity
  8
1
370
    50
100
AcDbLine
 10
212.623923
 20
141.485171
 30
0.0
 11
212.925465
 21
142.450374
 31
0.0
  0
LINE
  5
B8
330
1F
100
AcDbEntity
  8
1
370
    50
100
AcDbLine
 10
213.364749
 20
143.08808
 30
0.0
 11
213.435534
 21
143.152429
 31
0.0
  0
LINE
  5
B9
330
1F
100
AcDbEntity
  8
1
370
    50
100
AcDbLine
 10
213.726404
 20
143.001105
 30
0.0
 11
213.932247
 21
142.511073
 31
0.0
  0
LINE
  5
BA
330
1F
100
AcDbEntity
  8
1
370
    50
100
AcDbLine
 10
225.110538
 20
147.900635
 30
0.0
 11
224.778316
 21
148.691526
 31
0.0
  0
LINE
  5
BB
330
1F
100
AcDbEntity
  8
1
370
    50
100
AcDbLine
 10
224.063867
 20
142.744151
 30
0.0
 11
225.110538
 21
147.900635
 31
0.0
  0
LINE
  5
BC
330
1F
100
AcDbEntity
  8
1
370
    50
100
AcDbLine
 10
223.217838
 20
140.863711
 30
0.0
 11
224.063867
 21
142.744151
 31
0.0
  0
LINE
  5
BD
330
1F
100
AcDbEntity
  8
1
370
    50
100
AcDbLine
 10
221.698402
 20
139.828411
 30
0.0
 11
222.486792
 21
140.154635
 31
0.0
  0
LINE
  5
BE
330
1F
100
AcDbEntity
  8
1
370
    50
100
AcDbLine
 10
216.533819
 20
140.914282
 30
0.0
 11
221.698402
 21
139.828411
 31
0.0
  0
LINE
  5
BF
330
1F
100
AcDbEntity
  8
1
370
    50
100
AcDbLine
 10
214.646898
 20
141.774619
 30
0.0
 11
216.533819
 21
140.914282
 31
0.0
  0
LINE
  5
C0
330
1F
100
AcDbEntity
  8
1
370
    50
100
AcDbLine
 10
216.533819
 20
140.914282
 30
0.0
 11
215.643752
 21
140.697755
 31
0.0
  0
LINE
  5
C1
330
1F
100
AcDbEntity
  8
1
370
    50
100
AcDbLine
 10
215.643752
 20
140.697755
 30
0.0
 11
213.845852
 21
140.991929
 31
0.0
  0
LINE
  5
C2
330
1F
100
AcDbEntity
  8
1
370
    50
100
AcDbLine
 10
213.135042
 20
143.264684
 30
0.0
 11
213.108901
 21
143.145482
 31
0.0
  0
LINE
  5
C3
330
1F
100
AcDbEntity
  8
1
370
    50
100
AcDbLine
 10
221.804145
 20
139.591921
 30
0.0
 11
221.698402
 21
139.828411
 31
0.0
  0
LINE
  5
C4
330
1F
100
AcDbEntity
  8
1
370
    50
100
AcDbLine
 10
215.643752
 20
140.697755
 30
0.0
 11
221.595409
 21
139.337083
 31
0.0
  0
LINE
  5
C5
330
1F
100
AcDbEntity
  8
1
370
    50
100
AcDbLine
 10
222.934554
 20
138.840713
 30
0.0
 11
222.206089
 21
139.148688
 31
0.0
  0
LINE
  5
C6
330
1F
100
AcDbEntity
  8
1
370
    50
100
AcDbLine
 10
224.063867
 20
142.744151
 30
0.0
 11
224.08004
 21
141.853201
 31
0.0
  0
LINE
  5
C7
330
1F
100
AcDbEntity
  8
1
370
    50
100
AcDbLine
 10
224.08004
 20
141.853201
 30
0.0
 11
223.624603
 21
140.058148
 31
0.0
  0
LINE
  5
C8
330
1F
100
AcDbEntity
  8
1
370
    50
100
AcDbLine
 10
224.08004
 20
141.853201
 30
0.0
 11
225.339451
 21
147.794907
 31
0.0
  0
LINE
  5
C9
330
1F
100
AcDbEntity
  8
1
370
    50
100
AcDbLine
 10
225.236296
 20
148.005002
 30
0.0
 11
225.110538
 21
147.900635
 31
0.0
  0
LINE
  5
CA
330
1F
100
AcDbEntity
  8
1
370
    50
100
AcDbLine
 10
225.500765
 20
149.131553
 30
0.0
 11
225.437373
 21
148.404499
 31
0.0
  0
LINE
  5
CB
330
1F
100
AcDbEntity
  8
1
370
    50
100
AcDbLine
 10
213.834561
 20
140.257634
 30
0.0
 11
213.376738
 21
140.146259
 31
0.0
  0
LINE
  5
CC
330
1F
100
AcDbEntity
  8
1
370
    50
100
AcDbLine
 10
224.112915
 20
140.042213
 30
0.0
 11
224.121234
 21
139.583936
 31
0.0
  0
LINE
  5
CD
330
1F
100
AcDbEntity
  8
1
370
    50
100
AcDbLine
 10
224.500091
 20
150.322952
 30
0.0
 11
224.601955
 21
150.32447
 31
0.0
  0
LINE
  5
CE
330
1F
100
AcDbEntity
  8
1
370
    50
100
AcDbLine
 10
220.886885
 20
172.761333
 30
0.0
 11
220.793756
 21
172.854461
 31
0.0
  0
LINE
  5
D0
330
1F
100
AcDbEntity
  8
1
370
    50
100
AcDbLine
 10
219.79271
 20
171.788356
 30
0.0
 11
219.952517
 21
171.62855
 31
0.0
  0
LINE
  5
D1
330
1F
100
AcDbEntity
  8
1
370
    50
100
AcDbLine
 10
218.008664
 20
169.928529
 30
0.0
 11
217.848857
 21
170.088336
 31
0.0
  0
LINE
  5
D2
330
1F
100
AcDbEntity
  8
1
370
    50
100
AcDbLine
 10
218.151378
 20
172.248335
 30
0.0
 11
218.305146
 21
172.094567
 31
0.0
  0
LINE
  5
D3
330
1F
100
AcDbEntity
  8
1
370
    50
100
AcDbLine
 10
217.726311
 20
171.578533
 30
0.0
 11
217.572812
 21
171.732032
 31
0.0
  0
LINE
  5
D4
330
1F
100
AcDbEntity
  8
1
370
    50
100
AcDbLine
 10
220.068755
 20
170.14466
 30
0.0
 11
220.117551
 21
170.095865
 31
0.0
  0
LINE
  5
D5
330
1F
100
AcDbEntity
  8
1
370
    50
100
AcDbLine
 10
182.811086
 20
144.230504
 30
0.0
 11
183.311086
 21
143.730504
 31
0.0
  0
LINE
  5
D6
330
1F
100
AcDbEntity
  8
SK1
370
    50
100
AcDbLine
 10
181.311086
 20
166.730504
 30
0.0
 11
176.811086
 21
166.730504
 31
0.0
  0
LINE
  5
D7
330
1F
100
AcDbEntity
  8
SK1
370
    50
100
AcDbLine
 10
176.811086
 20
149.730504
 30
0.0
 11
181.311086
 21
149.730504
 31
0.0
  0
LINE
  5
D8
330
1F
100
AcDbEntity
  8
SK1
370
    50
100
AcDbLine
 10
176.811086
 20
166.730504
 30
0.0
 11
176.311086
 21
166.230504
 31
0.0
  0
LINE
  5
D9
330
1F
100
AcDbEntity
  8
SK1
370
    50
100
AcDbLine
 10
176.311086
 20
150.230504
 30
0.0
 11
176.811086
 21
149.730504
 31
0.0
  0
LINE
  5
DA
330
1F
100
AcDbEntity
  8
SK1
370
    50
100
AcDbLine
 10
182.611086
 20
166.480504
 30
0.0
 11
181.681896
 21
166.480504
 31
0.0
  0
LINE
  5
DB
330
1F
100
AcDbEntity
  8
SK1
370
    50
100
AcDbLine
 10
181.681896
 20
149.980504
 30
0.0
 11
182.611086
 21
149.980504
 31
0.0
  0
LINE
  5
DC
330
1F
100
AcDbEntity
  8
SK1
370
    50
100
AcDbLine
 10
161.311086
 20
150.230504
 30
0.0
 11
176.311086
 21
150.230504
 31
0.0
  0
LINE
  5
DD
330
1F
100
AcDbEntity
  8
SK1
370
    50
100
AcDbLine
 10
161.311086
 20
166.230504
 30
0.0
 11
159.811086
 21
164.730504
 31
0.0
  0
LINE
  5
DE
330
1F
100
AcDbEntity
  8
1
370
    50
100
AcDbLine
 10
224.73469
 20
162.274976
 30
0.0
 11
224.73469
 21
163.648074
 31
0.0
  0
LINE
  5
DF
330
1F
100
AcDbEntity
  8
1
370
    50
100
AcDbLine
 10
224.73469
 20
147.855765
 30
0.0
 11
224.73469
 21
148.568313
 31
0.0
  0
LINE
  5
E0
330
1F
100
AcDbEntity
  8
1
370
    50
100
AcDbLine
 10
225.65728
 20
158.230515
 30
0.0
 11
225.810306
 21
159.468637
 31
0.0
  0
LINE
  5
E1
330
1F
100
AcDbEntity
  8
1
370
    50
100
AcDbLine
 10
225.810306
 20
156.992371
 30
0.0
 11
225.641219
 21
158.360438
 31
0.0
  0
LINE
  5
E2
330
1F
100
AcDbEntity
  8
SK1
370
    13
100
AcDbLine
 10
160.483204
 20
165.402504
 30
0.0
 11
176.311086
 21
165.402504
 31
0.0
  0
LINE
  5
E3
330
1F
100
AcDbEntity
  8
SK1
370
    13
100
AcDbLine
 10
160.483204
 20
151.058504
 30
0.0
 11
176.311086
 21
151.058504
 31
0.0
  0
LINE
  5
E4
330
1F
100
AcDbEntity
  8
SK1
370
    18
100
AcDbLine
 10
159.811086
 20
151.730504
 30
0.0
 11
161.311086
 21
150.230504
 31
0.0
  0
LINE
  5
E5
330
1F
100
AcDbEntity
  8
SK1
370
    18
100
AcDbLine
 10
182.611086
 20
166.480504
 30
0.0
 11
181.681896
 21
166.480504
 31
0.0
  0
LINE
  5
E6
330
1F
100
AcDbEntity
  8
SK1
370
    18
100
AcDbLine
 10
176.811086
 20
166.730504
 30
0.0
 11
176.311086
 21
166.230504
 31
0.0
  0
LINE
  5
E7
330
1F
100
AcDbEntity
  8
SK1
370
    18
100
AcDbLine
 10
182.811086
 20
167.679575
 30
0.0
 11
182.997457
 21
166.984032
 31
0.0
  0
LINE
  5
E8
330
1F
100
AcDbEntity
  8
SK1
370
    18
100
AcDbLine
 10
159.811086
 20
164.730504
 30
0.0
 11
159.811086
 21
161.730504
 31
0.0
  0
LINE
  5
E9
330
1F
100
AcDbEntity
  8
SK1
370
    18
100
AcDbLine
 10
181.311086
 20
166.730504
 30
0.0
 11
176.811086
 21
166.730504
 31
0.0
  0
LINE
  5
EA
330
1F
100
AcDbEntity
  8
SK1
370
    18
100
AcDbLine
 10
161.311086
 20
150.230504
 30
0.0
 11
176.311086
 21
150.230504
 31
0.0
  0
LINE
  5
EB
330
1F
100
AcDbEntity
  8
SK1
370
    18
100
AcDbLine
 10
182.997457
 20
149.476977
 30
0.0
 11
182.811086
 21
148.781433
 31
0.0
  0
LINE
  5
EC
330
1F
100
AcDbEntity
  8
SK1
370
    18
100
AcDbLine
 10
181.681896
 20
149.980504
 30
0.0
 11
182.611086
 21
149.980504
 31
0.0
  0
LINE
  5
ED
330
1F
100
AcDbEntity
  8
SK1
370
    18
100
AcDbLine
 10
159.811086
 20
154.730504
 30
0.0
 11
159.811086
 21
151.730504
 31
0.0
  0
LINE
  5
EE
330
1F
100
AcDbEntity
  8
80
370
    18
100
AcDbLine
 10
181.811086
 20
158.230504
 30
0.0
 11
183.811086
 21
158.230504
 31
0.0
  0
LINE
  5
EF
330
1F
100
AcDbEntity
  8
SK1
370
    18
100
AcDbLine
 10
176.811086
 20
149.730504
 30
0.0
 11
181.311086
 21
149.730504
 31
0.0
  0
LINE
  5
F0
330
1F
100
AcDbEntity
  8
80
370
    18
100
AcDbLine
 10
182.811086
 20
157.230504
 30
0.0
 11
182.811086
 21
159.230504
 31
0.0
  0
LINE
  5
F1
330
1F
100
AcDbEntity
  8
SK1
370
    18
100
AcDbLine
 10
176.311086
 20
166.230504
 30
0.0
 11
161.311086
 21
166.230504
 31
0.0
  0
LINE
  5
F2
330
1F
100
AcDbEntity
  8
SK1
370
    18
100
AcDbLine
 10
176.311086
 20
150.230504
 30
0.0
 11
176.811086
 21
149.730504
 31
0.0
  0
LINE
  5
F3
330
1F
100
AcDbEntity
  8
SK1
370
    18
100
AcDbLine
 10
161.311086
 20
166.230504
 30
0.0
 11
159.811086
 21
164.730504
 31
0.0
  0
LINE
  5
F4
330
1F
100
AcDbEntity
  8
NOCUT
370
    13
100
AcDbLine
 10
224.44892
 20
168.696524
 30
0.0
 11
224.032626
 21
168.347211
 31
0.0
  0
LINE
  5
F5
330
1F
100
AcDbEntity
  8
NOCUT
370
    13
100
AcDbLine
 10
176.811086
 20
166.730504
 30
0.0
 11
181.311086
 21
166.730504
 31
0.0
  0
LINE
  5
F6
330
1F
100
AcDbEntity
  8
NOCUT
370
    13
100
AcDbLine
 10
176.311086
 20
166.230504
 30
0.0
 11
176.811086
 21
166.730504
 31
0.0
  0
LINE
  5
F7
330
1F
100
AcDbEntity
  8
NOCUT
370
    13
100
AcDbLine
 10
182.997457
 20
166.984032
 30
0.0
 11
182.811086
 21
167.679575
 31
0.0
  0
LINE
  5
F8
330
1F
100
AcDbEntity
  8
NOCUT
370
    13
100
AcDbLine
 10
217.302944
 20
176.031048
 30
0.0
 11
221.011756
 21
176.81938
 31
0.0
  0
LINE
  5
F9
330
1F
100
AcDbEntity
  8
NOCUT
370
    13
100
AcDbLine
 10
222.311086
 20
161.813782
 30
0.0
 11
222.311086
 21
158.230504
 31
0.0
  0
LINE
  5
FA
330
1F
100
AcDbEntity
  8
NOCUT
370
    13
100
AcDbLine
 10
159.811086
 20
164.730504
 30
0.0
 11
161.311086
 21
166.230504
 31
0.0
  0
LINE
  5
FB
330
1F
100
AcDbEntity
  8
NOCUT
370
    13
100
AcDbLine
 10
203.811086
 20
160.730504
 30
0.0
 11
161.543137
 21
160.730504
 31
0.0
  0
LINE
  5
FC
330
1F
100
AcDbEntity
  8
NOCUT
370
    13
100
AcDbLine
 10
182.811086
 20
167.679575
 30
0.0
 11
182.811086
 21
172.230504
 31
0.0
  0
LINE
  5
FD
330
1F
100
AcDbEntity
  8
NOCUT
370
    13
100
AcDbLine
 10
204.671905
 20
158.230504
 30
0.0
 11
203.811086
 21
160.730504
 31
0.0
  0
LINE
  5
FE
330
1F
100
AcDbEntity
  8
NOCUT
370
    13
100
AcDbLine
 10
181.681896
 20
166.480504
 30
0.0
 11
182.611086
 21
166.480504
 31
0.0
  0
LINE
  5
FF
330
1F
100
AcDbEntity
  8
NOCUT
370
    13
100
AcDbLine
 10
223.461086
 20
165.255504
 30
0.0
 11
222.407578
 21
162.361014
 31
0.0
  0
LINE
  5
100
330
1F
100
AcDbEntity
  8
NOCUT
370
    13
100
AcDbLine
 10
211.391596
 20
173.07025
 30
0.0
 11
214.966238
 21
175.13407
 31
0.0
  0
LINE
  5
101
330
1F
100
AcDbEntity
  8
NOCUT
370
    13
100
AcDbLine
 10
196.96918
 20
171.730504
 30
0.0
 11
206.391596
 21
171.730504
 31
0.0
  0
LINE
  5
102
330
1F
100
AcDbEntity
  8
NOCUT
370
    13
100
AcDbLine
 10
159.811086
 20
161.730504
 30
0.0
 11
159.811086
 21
164.730504
 31
0.0
  0
LINE
  5
103
330
1F
100
AcDbEntity
  8
NOCUT
370
    13
100
AcDbLine
 10
192.97678
 20
172.670197
 30
0.0
 11
194.233019
 21
172.212963
 31
0.0
  0
LINE
  5
104
330
1F
100
AcDbEntity
  8
NOCUT
370
    13
100
AcDbLine
 10
223.461086
 20
167.12154
 30
0.0
 11
223.461086
 21
165.255504
 31
0.0
  0
LINE
  5
105
330
1F
100
AcDbEntity
  8
NOCUT
370
    13
100
AcDbLine
 10
161.311086
 20
166.230504
 30
0.0
 11
176.311086
 21
166.230504
 31
0.0
  0
LINE
  5
106
330
1F
100
AcDbEntity
  8
NOCUT
370
    13
100
AcDbLine
 10
161.543137
 20
160.730504
 30
0.0
 11
159.811086
 21
161.730504
 31
0.0
  0
LINE
  5
107
330
1F
100
AcDbEntity
  8
NOCUT
370
    13
100
AcDbLine
 10
223.254671
 20
175.676558
 30
0.0
 11
223.402933
 21
175.343557
 31
0.0
  0
LINE
  5
108
330
1F
100
AcDbEntity
  8
NOCUT
370
    13
100
AcDbLine
 10
183.311086
 20
172.730504
 30
0.0
 11
192.634759
 21
172.730504
 31
0.0
  0
LINE
  5
109
330
1F
100
AcDbEntity
  8
NOCUT
370
    13
100
AcDbLine
 10
222.311086
 20
158.230504
 30
0.0
 11
204.671905
 21
158.230504
 31
0.0
  0
LINE
  5
10A
330
1F
100
AcDbEntity
  8
NOCUT
370
    13
100
AcDbLine
 10
223.596739
 20
174.747082
 30
0.0
 11
224.717208
 21
169.475688
 31
0.0
  0
LINE
  5
10B
330
1F
100
AcDbEntity
  8
SK1
370
    18
100
AcDbLine
 10
159.811086
 20
154.730504
 30
0.0
 11
159.811086
 21
161.730504
 31
0.0
  0
LINE
  5
10C
102
{ACAD_REACTORS
330
38F
102
}
330
1F
100
AcDbEntity
  8
1
370
    50
100
AcDbLine
 10
185.811086
 20
172.730504
 30
0.0
 11
183.311086
 21
172.730504
 31
0.0
  0
LINE
  5
10D
102
{ACAD_REACTORS
330
38F
102
}
330
1F
100
AcDbEntity
  8
1
370
    50
100
AcDbLine
 10
183.311086
 20
143.730504
 30
0.0
 11
185.811086
 21
143.730504
 31
0.0
  0
LINE
  5
10E
102
{ACAD_REACTORS
330
3A8
102
}
330
1F
100
AcDbEntity
  8
1
370
    50
100
AcDbLine
 10
183.311086
 20
172.730504
 30
0.0
 11
182.811086
 21
172.230504
 31
0.0
  0
LINE
  5
10F
102
{ACAD_REACTORS
330
3C0
102
}
330
1F
100
AcDbEntity
  8
81
370
    18
100
AcDbLine
 10
224.811086
 20
178.205504
 30
0.0
 11
226.811086
 21
178.205504
 31
0.0
  0
LINE
  5
110
102
{ACAD_REACTORS
330
378
330
3A8
102
}
330
1F
100
AcDbEntity
  8
81
370
    18
100
AcDbLine
 10
225.811086
 20
177.205504
 30
0.0
 11
225.811086
 21
179.205504
 31
0.0
  0
LINE
  5
111
330
1F
100
AcDbEntity
  8
1
370
    13
100
AcDbLine
 10
217.042393
 20
171.154829
 30
0.0
 11
217.067748
 21
170.547629
 31
0.0
  0
LINE
  5
112
330
1F
100
AcDbEntity
  8
1
370
    13
100
AcDbLine
 10
217.547991
 20
169.665554
 30
0.0
 11
217.929416
 21
169.375652
 31
0.0
  0
LINE
  5
113
330
1F
100
AcDbEntity
  8
1
370
    13
100
AcDbLine
 10
217.067748
 20
170.547629
 30
0.0
 11
217.547991
 21
169.665554
 31
0.0
  0
LINE
  5
114
330
1F
100
AcDbEntity
  8
1
370
    13
100
AcDbLine
 10
220.323356
 20
170.874954
 30
0.0
 11
220.262922
 21
170.856552
 31
0.0
  0
LINE
  5
115
330
1F
100
AcDbEntity
  8
1
370
    13
100
AcDbLine
 10
220.323356
 20
170.874954
 30
0.0
 11
220.414774
 21
170.931748
 31
0.0
  0
LINE
  5
116
330
1F
100
AcDbEntity
  8
1
370
    13
100
AcDbLine
 10
220.265859
 20
171.622292
 30
0.0
 11
220.159454
 21
171.634995
 31
0.0
  0
LINE
  5
117
330
1F
100
AcDbEntity
  8
1
370
    13
100
AcDbLine
 10
220.09699
 20
171.626006
 30
0.0
 11
220.159454
 21
171.634995
 31
0.0
  0
LINE
  5
118
330
1F
100
AcDbEntity
  8
1
370
    13
100
AcDbLine
 10
219.636856
 20
172.208371
 30
0.0
 11
219.622178
 21
172.146952
 31
0.0
  0
LINE
  5
119
330
1F
100
AcDbEntity
  8
1
370
    13
100
AcDbLine
 10
219.636856
 20
172.208371
 30
0.0
 11
219.633979
 21
172.315567
 31
0.0
  0
LINE
  5
11A
330
1F
100
AcDbEntity
  8
1
370
    13
100
AcDbLine
 10
218.960497
 20
172.527328
 30
0.0
 11
218.895592
 21
172.441444
 31
0.0
  0
LINE
  5
11B
330
1F
100
AcDbEntity
  8
1
370
    13
100
AcDbLine
 10
218.871734
 20
172.382911
 30
0.0
 11
218.895592
 21
172.441444
 31
0.0
  0
LINE
  5
11C
330
1F
100
AcDbEntity
  8
1
370
    13
100
AcDbLine
 10
218.134283
 20
172.271763
 30
0.0
 11
218.18004
 21
172.228746
 31
0.0
  0
LINE
  5
11D
330
1F
100
AcDbEntity
  8
1
370
    13
100
AcDbLine
 10
218.134283
 20
172.271763
 30
0.0
 11
218.039989
 21
172.322165
 31
0.0
  0
LINE
  5
11E
330
1F
100
AcDbEntity
  8
1
370
    13
100
AcDbLine
 10
217.515421
 20
171.843382
 30
0.0
 11
217.556922
 21
171.744794
 31
0.0
  0
LINE
  5
11F
330
1F
100
AcDbEntity
  8
1
370
    13
100
AcDbLine
 10
217.595528
 20
171.695251
 30
0.0
 11
217.556922
 21
171.744794
 31
0.0
  0
LINE
  5
120
330
1F
100
AcDbEntity
  8
1
370
    13
100
AcDbLine
 10
217.318211
 20
171.001739
 30
0.0
 11
217.378645
 21
171.020141
 31
0.0
  0
LINE
  5
121
330
1F
100
AcDbEntity
  8
1
370
    13
100
AcDbLine
 10
217.318211
 20
171.001739
 30
0.0
 11
217.226793
 21
170.944944
 31
0.0
  0
LINE
  5
122
330
1F
100
AcDbEntity
  8
1
370
    13
100
AcDbLine
 10
217.375708
 20
170.254401
 30
0.0
 11
217.482114
 21
170.241697
 31
0.0
  0
LINE
  5
123
330
1F
100
AcDbEntity
  8
1
370
    13
100
AcDbLine
 10
217.544577
 20
170.250686
 30
0.0
 11
217.482114
 21
170.241697
 31
0.0
  0
LINE
  5
124
330
1F
100
AcDbEntity
  8
1
370
    13
100
AcDbLine
 10
218.004712
 20
169.668322
 30
0.0
 11
218.019389
 21
169.729741
 31
0.0
  0
LINE
  5
125
330
1F
100
AcDbEntity
  8
1
370
    13
100
AcDbLine
 10
218.004712
 20
169.668322
 30
0.0
 11
218.007588
 21
169.561126
 31
0.0
  0
LINE
  5
126
330
1F
100
AcDbEntity
  8
1
370
    13
100
AcDbLine
 10
218.007588
 20
169.561126
 30
0.0
 11
218.104105
 21
169.457432
 31
0.0
  0
LINE
  5
127
330
1F
100
AcDbEntity
  8
1
370
    13
100
AcDbLine
 10
219.93294
 20
169.701036
 30
0.0
 11
220.126146
 21
170.03331
 31
0.0
  0
LINE
  5
128
330
1F
100
AcDbEntity
  8
1
370
    13
100
AcDbLine
 10
220.126146
 20
170.03331
 30
0.0
 11
220.084645
 21
170.131898
 31
0.0
  0
LINE
  5
129
330
1F
100
AcDbEntity
  8
1
370
    13
100
AcDbLine
 10
220.046039
 20
170.181441
 30
0.0
 11
220.084645
 21
170.131898
 31
0.0
  0
LINE
  5
12A
330
1F
100
AcDbEntity
  8
1
370
    13
100
AcDbLine
 10
206.391596
 20
171.674772
 30
0.0
 11
197.811086
 21
171.586233
 31
0.0
  0
LINE
  5
12B
330
1F
100
AcDbEntity
  8
1
370
    13
100
AcDbLine
 10
223.254671
 20
142.064469
 30
0.0
 11
223.402933
 21
142.297887
 31
0.0
  0
LINE
  5
12C
330
1F
100
AcDbEntity
  8
1
370
    13
100
AcDbLine
 10
212.901801
 20
143.031247
 30
0.0
 11
213.03999
 21
142.882352
 31
0.0
  0
LINE
  5
12D
330
1F
100
AcDbEntity
  8
1
370
    13
100
AcDbLine
 10
212.886675
 20
142.668892
 30
0.0
 11
213.03999
 21
142.882352
 31
0.0
  0
LINE
  5
12E
330
1F
100
AcDbEntity
  8
1
370
    13
100
AcDbLine
 10
197.811086
 20
144.874776
 30
0.0
 11
206.391596
 21
144.786237
 31
0.0
  0
LINE
  5
12F
330
1F
100
AcDbEntity
  8
1
370
    13
100
AcDbLine
 10
223.254671
 20
164.789781
 30
0.0
 11
223.402933
 21
164.476165
 31
0.0
  0
LINE
  5
130
330
1F
100
AcDbEntity
  8
1
370
    13
100
AcDbLine
 10
224.254534
 20
167.225305
 30
0.0
 11
224.44892
 21
165.457837
 31
0.0
  0
LINE
  5
131
330
1F
100
AcDbEntity
  8
1
370
    13
100
AcDbLine
 10
212.901801
 20
162.210321
 30
0.0
 11
213.03999
 21
161.945878
 31
0.0
  0
LINE
  5
132
330
1F
100
AcDbEntity
  8
1
370
    13
100
AcDbLine
 10
211.865333
 20
160.070469
 30
0.0
 11
211.791318
 21
159.123481
 31
0.0
  0
LINE
  5
133
330
1F
100
AcDbEntity
  8
1
370
    13
100
AcDbLine
 10
206.391596
 20
159.455933
 30
0.0
 11
197.773812
 21
160.202103
 31
0.0
  0
LINE
  5
134
330
1F
100
AcDbEntity
  8
1
370
    13
100
AcDbLine
 10
211.791318
 20
143.186458
 30
0.0
 11
211.865333
 21
143.229667
 31
0.0
  0
LINE
  5
135
330
1F
100
AcDbEntity
  8
1
370
    13
100
AcDbLine
 10
224.254534
 20
153.206212
 30
0.0
 11
224.44892
 21
150.660615
 31
0.0
  0
LINE
  5
136
330
1F
100
AcDbEntity
  8
1
370
    13
100
AcDbLine
 10
216.576675
 20
157.139101
 30
0.0
 11
216.591219
 21
157.292784
 31
0.0
  0
LINE
  5
137
330
1F
100
AcDbEntity
  8
1
370
    13
100
AcDbLine
 10
215.532346
 20
155.411875
 30
0.0
 11
215.586211
 21
155.384229
 31
0.0
  0
LINE
  5
138
330
1F
100
AcDbEntity
  8
1
370
    13
100
AcDbLine
 10
211.865333
 20
173.231341
 30
0.0
 11
211.791318
 21
173.27455
 31
0.0
  0
LINE
  5
139
330
1F
100
AcDbEntity
  8
1
370
    13
100
AcDbLine
 10
218.257743
 20
148.132375
 30
0.0
 11
218.216964
 21
148.096544
 31
0.0
  0
LINE
  5
13A
330
1F
100
AcDbEntity
  8
1
370
    13
100
AcDbLine
 10
215.448144
 20
155.842172
 30
0.0
 11
215.711331
 21
156.161256
 31
0.0
  0
LINE
  5
13B
330
1F
100
AcDbEntity
  8
1
370
    13
100
AcDbLine
 10
216.230571
 20
155.225938
 30
0.0
 11
218.02257
 21
155.13668
 31
0.0
  0
LINE
  5
13C
330
1F
100
AcDbEntity
  8
1
370
    13
100
AcDbLine
 10
224.44892
 20
165.800393
 30
0.0
 11
224.424116
 21
165.616347
 31
0.0
  0
LINE
  5
13D
330
1F
100
AcDbEntity
  8
1
370
    13
100
AcDbLine
 10
224.44892
 20
151.003171
 30
0.0
 11
224.424116
 21
150.844595
 31
0.0
  0
LINE
  5
13E
330
1F
100
AcDbEntity
  8
1
370
    13
100
AcDbLine
 10
221.339963
 20
144.860267
 30
0.0
 11
221.792367
 21
145.546424
 31
0.0
  0
LINE
  5
13F
330
1F
100
AcDbEntity
  8
1
370
    13
100
AcDbLine
 10
219.314369
 20
174.198345
 30
0.0
 11
218.448977
 21
174.130119
 31
0.0
  0
LINE
  5
140
330
1F
100
AcDbEntity
  8
1
370
    13
100
AcDbLine
 10
221.396861
 20
173.196724
 30
0.0
 11
221.290994
 21
173.308058
 31
0.0
  0
LINE
  5
141
330
1F
100
AcDbEntity
  8
1
370
    13
100
AcDbLine
 10
215.8158
 20
171.009471
 30
0.0
 11
215.882009
 21
170.521136
 31
0.0
  0
LINE
  5
142
330
1F
100
AcDbEntity
  8
1
370
    13
100
AcDbLine
 10
218.816883
 20
174.397714
 30
0.0
 11
218.32803
 21
174.327794
 31
0.0
  0
LINE
  5
143
330
1F
100
AcDbEntity
  8
1
370
    13
100
AcDbLine
 10
222.378584
 20
176.311587
 30
0.0
 11
221.886874
 21
176.453815
 31
0.0
  0
LINE
  5
144
330
1F
100
AcDbEntity
  8
1
370
    13
100
AcDbLine
 10
213.834561
 20
160.104419
 30
0.0
 11
221.066633
 21
159.590854
 31
0.0
  0
LINE
  5
145
330
1F
100
AcDbEntity
  8
1
370
    13
100
AcDbLine
 10
223.884153
 20
159.301025
 30
0.0
 11
224.112915
 21
159.224026
 31
0.0
  0
LINE
  5
146
330
1F
100
AcDbEntity
  8
1
370
    13
100
AcDbLine
 10
224.112915
 20
159.224026
 30
0.0
 11
225.580936
 21
158.449567
 31
0.0
  0
LINE
  5
147
330
1F
100
AcDbEntity
  8
1
370
    13
100
AcDbLine
 10
213.334717
 20
160.141009
 30
0.0
 11
213.834561
 21
160.104419
 31
0.0
  0
LINE
  5
148
330
1F
100
AcDbEntity
  8
1
370
    13
100
AcDbLine
 10
215.520342
 20
158.367237
 30
0.0
 11
216.074327
 21
158.299765
 31
0.0
  0
LINE
  5
149
330
1F
100
AcDbEntity
  8
1
370
    13
100
AcDbLine
 10
213.462253
 20
140.950142
 30
0.0
 11
214.949081
 21
140.615226
 31
0.0
  0
LINE
  5
14A
330
1F
100
AcDbEntity
  8
1
370
    13
100
AcDbLine
 10
212.87806
 20
142.673714
 30
0.0
 11
212.623923
 21
141.485171
 31
0.0
  0
LINE
  5
14B
330
1F
100
AcDbEntity
  8
1
370
    13
100
AcDbLine
 10
213.834561
 20
140.257634
 30
0.0
 11
221.066633
 21
138.732246
 31
0.0
  0
LINE
  5
14C
330
1F
100
AcDbEntity
  8
1
370
    13
100
AcDbLine
 10
213.334717
 20
140.492506
 30
0.0
 11
213.834561
 21
140.257634
 31
0.0
  0
LINE
  5
14D
330
1F
100
AcDbEntity
  8
1
370
    13
100
AcDbLine
 10
224.112915
 20
140.042213
 30
0.0
 11
225.580936
 21
147.262916
 31
0.0
  0
LINE
  5
14E
330
1F
100
AcDbEntity
  8
1
370
    13
100
AcDbLine
 10
223.884153
 20
139.544131
 30
0.0
 11
224.112915
 21
140.042213
 31
0.0
  0
LINE
  5
14F
330
1F
100
AcDbEntity
  8
1
370
    13
100
AcDbLine
 10
224.752418
 20
150.086666
 30
0.0
 11
224.519563
 21
150.194564
 31
0.0
  0
LINE
  5
150
330
1F
100
AcDbEntity
  8
1
370
    13
100
AcDbLine
 10
220.535567
 20
145.055148
 30
0.0
 11
220.872516
 21
145.311653
 31
0.0
  0
LINE
  5
151
330
1F
100
AcDbEntity
  8
CUT
370
    13
100
AcDbLine
 10
224.179342
 20
177.040833
 30
0.0
 11
225.10529
 21
172.672384
 31
0.0
  0
LINE
  5
153
330
1F
100
AcDbEntity
  8
CUT
370
    13
100
AcDbLine
 10
223.681049
 20
177.851274
 30
0.0
 11
224.094468
 21
177.308481
 31
0.0
  0
LINE
  5
154
330
1F
100
AcDbEntity
  8
CUT
370
    13
100
AcDbLine
 10
225.10529
 20
172.672384
 30
0.0
 11
225.74923
 21
169.617538
 31
0.0
  0
LINE
  5
155
330
1F
100
AcDbEntity
  8
1
370
    13
100
AcDbLine
 10
220.374769
 20
171.492662
 30
0.0
 11
220.312313
 21
171.482136
 31
0.0
  0
LINE
  5
156
330
1F
100
AcDbEntity
  8
1
370
    13
100
AcDbLine
 10
220.251731
 20
171.471265
 30
0.0
 11
220.312313
 21
171.482136
 31
0.0
  0
LINE
  5
157
330
1F
100
AcDbEntity
  8
1
370
    13
100
AcDbLine
 10
219.952462
 20
171.628604
 30
0.0
 11
220.251731
 21
171.471265
 31
0.0
  0
LINE
  5
158
330
1F
100
AcDbEntity
  8
1
370
    13
100
AcDbLine
 10
219.110512
 20
172.377313
 30
0.0
 11
219.048451
 21
172.288584
 31
0.0
  0
LINE
  5
159
330
1F
100
AcDbEntity
  8
1
370
    13
100
AcDbLine
 10
219.026476
 20
172.22817
 30
0.0
 11
219.048451
 21
172.288584
 31
0.0
  0
LINE
  5
15A
330
1F
100
AcDbEntity
  8
1
370
    13
100
AcDbLine
 10
217.471071
 20
170.848879
 30
0.0
 11
217.533386
 21
170.8654
 31
0.0
  0
LINE
  5
15B
330
1F
100
AcDbEntity
  8
1
370
    13
100
AcDbLine
 10
217.471071
 20
170.848879
 30
0.0
 11
217.376808
 21
170.794929
 31
0.0
  0
LINE
  5
15C
330
1F
100
AcDbEntity
  8
1
370
    13
100
AcDbLine
 10
217.665436
 20
171.693367
 30
0.0
 11
217.676189
 21
171.627972
 31
0.0
  0
LINE
  5
15D
330
1F
100
AcDbEntity
  8
1
370
    13
100
AcDbLine
 10
218.157571
 20
169.515462
 30
0.0
 11
218.17413
 21
169.575
 31
0.0
  0
LINE
  5
15E
330
1F
100
AcDbEntity
  8
1
370
    13
100
AcDbLine
 10
218.17413
 20
169.575
 30
0.0
 11
218.008661
 21
169.928534
 31
0.0
  0
LINE
  5
15F
330
1F
100
AcDbEntity
  8
1
370
    13
100
AcDbLine
 10
221.011756
 20
169.718327
 30
0.0
 11
218.517687
 21
169.683552
 31
0.0
  0
LINE
  5
160
330
1F
100
AcDbEntity
  8
1
370
    13
100
AcDbLine
 10
221.011756
 20
140.291943
 30
0.0
 11
217.302944
 21
141.182319
 31
0.0
  0
LINE
  5
161
330
1F
100
AcDbEntity
  8
1
370
    13
100
AcDbLine
 10
224.717208
 20
148.343146
 30
0.0
 11
223.596739
 21
142.81829
 31
0.0
  0
LINE
  5
162
330
1F
100
AcDbEntity
  8
1
370
    13
100
AcDbLine
 10
223.402933
 20
142.297887
 30
0.0
 11
223.596739
 21
142.81829
 31
0.0
  0
LINE
  5
163
330
1F
100
AcDbEntity
  8
1
370
    13
100
AcDbLine
 10
223.402933
 20
141.730327
 30
0.0
 11
223.254671
 21
141.396623
 31
0.0
  0
LINE
  5
164
330
1F
100
AcDbEntity
  8
1
370
    13
100
AcDbLine
 10
212.797502
 20
143.232901
 30
0.0
 11
212.929884
 21
143.299089
 31
0.0
  0
LINE
  5
165
330
1F
100
AcDbEntity
  8
1
370
    13
100
AcDbLine
 10
212.162802
 20
143.094368
 30
0.0
 11
212.886675
 21
142.668892
 31
0.0
  0
LINE
  5
166
330
1F
100
AcDbEntity
  8
1
370
    13
100
AcDbLine
 10
214.966238
 20
142.159427
 30
0.0
 11
214.361567
 21
142.533768
 31
0.0
  0
LINE
  5
167
330
1F
100
AcDbEntity
  8
1
370
    13
100
AcDbLine
 10
223.402933
 20
141.730327
 30
0.0
 11
223.596739
 21
142.330124
 31
0.0
  0
LINE
  5
168
330
1F
100
AcDbEntity
  8
1
370
    13
100
AcDbLine
 10
224.717208
 20
147.684344
 30
0.0
 11
223.596739
 21
142.330124
 31
0.0
  0
LINE
  5
169
330
1F
100
AcDbEntity
  8
1
370
    13
100
AcDbLine
 10
224.717208
 20
147.684344
 30
0.0
 11
224.734692
 21
147.855945
 31
0.0
  0
LINE
  5
16A
330
1F
100
AcDbEntity
  8
1
370
    13
100
AcDbLine
 10
185.885224
 20
170.418498
 30
0.0
 11
185.811086
 21
170.680504
 31
0.0
  0
LINE
  5
16B
330
1F
100
AcDbEntity
  8
1
370
    13
100
AcDbLine
 10
192.714705
 20
170.180504
 30
0.0
 11
192.634759
 21
170.180504
 31
0.0
  0
LINE
  5
16C
330
1F
100
AcDbEntity
  8
1
370
    13
100
AcDbLine
 10
192.79336
 20
170.180504
 30
0.0
 11
192.714705
 21
170.180504
 31
0.0
  0
LINE
  5
16D
330
1F
100
AcDbEntity
  8
1
370
    13
100
AcDbLine
 10
192.869002
 20
170.180504
 30
0.0
 11
192.79336
 21
170.180504
 31
0.0
  0
LINE
  5
16E
330
1F
100
AcDbEntity
  8
1
370
    13
100
AcDbLine
 10
192.97678
 20
170.180504
 30
0.0
 11
192.869002
 21
170.180504
 31
0.0
  0
LINE
  5
16F
330
1F
100
AcDbEntity
  8
1
370
    13
100
AcDbLine
 10
192.907229
 20
146.280504
 30
0.0
 11
192.97678
 21
146.280504
 31
0.0
  0
LINE
  5
170
330
1F
100
AcDbEntity
  8
1
370
    13
100
AcDbLine
 10
192.83439
 20
146.280504
 30
0.0
 11
192.907229
 21
146.280504
 31
0.0
  0
LINE
  5
171
330
1F
100
AcDbEntity
  8
1
370
    13
100
AcDbLine
 10
192.758193
 20
146.280504
 30
0.0
 11
192.83439
 21
146.280504
 31
0.0
  0
LINE
  5
172
330
1F
100
AcDbEntity
  8
1
370
    13
100
AcDbLine
 10
192.634759
 20
146.280504
 30
0.0
 11
192.758193
 21
146.280504
 31
0.0
  0
LINE
  5
173
330
1F
100
AcDbEntity
  8
1
370
    13
100
AcDbLine
 10
192.97678
 20
170.180504
 30
0.0
 11
194.233019
 21
170.180504
 31
0.0
  0
LINE
  5
174
330
1F
100
AcDbEntity
  8
1
370
    13
100
AcDbLine
 10
194.233019
 20
146.280504
 30
0.0
 11
192.97678
 21
146.280504
 31
0.0
  0
LINE
  5
175
330
1F
100
AcDbEntity
  8
1
370
    13
100
AcDbLine
 10
194.782138
 20
146.280504
 30
0.0
 11
194.233019
 21
146.280504
 31
0.0
  0
LINE
  5
176
330
1F
100
AcDbEntity
  8
1
370
    13
100
AcDbLine
 10
195.364294
 20
146.280504
 30
0.0
 11
194.782138
 21
146.280504
 31
0.0
  0
LINE
  5
177
330
1F
100
AcDbEntity
  8
1
370
    13
100
AcDbLine
 10
195.98027
 20
146.280504
 30
0.0
 11
195.364294
 21
146.280504
 31
0.0
  0
LINE
  5
178
330
1F
100
AcDbEntity
  8
1
370
    13
100
AcDbLine
 10
196.96918
 20
146.280504
 30
0.0
 11
195.98027
 21
146.280504
 31
0.0
  0
LINE
  5
179
330
1F
100
AcDbEntity
  8
1
370
    13
100
AcDbLine
 10
196.327702
 20
170.180504
 30
0.0
 11
196.96918
 21
170.180504
 31
0.0
  0
LINE
  5
17A
330
1F
100
AcDbEntity
  8
1
370
    13
100
AcDbLine
 10
195.697034
 20
170.180504
 30
0.0
 11
196.327702
 21
170.180504
 31
0.0
  0
LINE
  5
17B
330
1F
100
AcDbEntity
  8
1
370
    13
100
AcDbLine
 10
195.097051
 20
170.180504
 30
0.0
 11
195.697034
 21
170.180504
 31
0.0
  0
LINE
  5
17C
330
1F
100
AcDbEntity
  8
1
370
    13
100
AcDbLine
 10
194.233019
 20
170.180504
 30
0.0
 11
195.097051
 21
170.180504
 31
0.0
  0
LINE
  5
17D
330
1F
100
AcDbEntity
  8
1
370
    13
100
AcDbLine
 10
221.011756
 20
169.718327
 30
0.0
 11
221.790486
 21
169.713049
 31
0.0
  0
LINE
  5
17E
330
1F
100
AcDbEntity
  8
1
370
    13
100
AcDbLine
 10
222.965559
 20
165.526669
 30
0.0
 11
223.254671
 21
164.789781
 31
0.0
  0
LINE
  5
17F
330
1F
100
AcDbEntity
  8
1
370
    13
100
AcDbLine
 10
224.254534
 20
167.225305
 30
0.0
 11
222.780485
 21
169.268458
 31
0.0
  0
LINE
  5
180
330
1F
100
AcDbEntity
  8
1
370
    13
100
AcDbLine
 10
224.72485
 20
163.587796
 30
0.0
 11
224.702866
 21
163.939516
 31
0.0
  0
LINE
  5
181
330
1F
100
AcDbEntity
  8
1
370
    13
100
AcDbLine
 10
224.717208
 20
163.587211
 30
0.0
 11
223.596739
 21
164.168602
 31
0.0
  0
LINE
  5
182
330
1F
100
AcDbEntity
  8
1
370
    13
100
AcDbLine
 10
223.402933
 20
164.476165
 30
0.0
 11
223.596739
 21
164.168602
 31
0.0
  0
LINE
  5
183
330
1F
100
AcDbEntity
  8
1
370
    13
100
AcDbLine
 10
212.162802
 20
160.358568
 30
0.0
 11
212.625708
 21
160.341878
 31
0.0
  0
LINE
  5
184
330
1F
100
AcDbEntity
  8
1
370
    13
100
AcDbLine
 10
211.791318
 20
159.123481
 30
0.0
 11
211.391596
 21
159.138147
 31
0.0
  0
LINE
  5
185
330
1F
100
AcDbEntity
  8
1
370
    13
100
AcDbLine
 10
211.391596
 20
168.553352
 30
0.0
 11
214.426837
 21
169.559672
 31
0.0
  0
LINE
  5
186
330
1F
100
AcDbEntity
  8
1
370
    13
100
AcDbLine
 10
214.725297
 20
169.576122
 30
0.0
 11
214.426837
 21
169.559672
 31
0.0
  0
LINE
  5
187
330
1F
100
AcDbEntity
  8
1
370
    13
100
AcDbLine
 10
214.966238
 20
169.43676
 30
0.0
 11
214.725297
 21
169.576122
 31
0.0
  0
LINE
  5
188
330
1F
100
AcDbEntity
  8
1
370
    13
100
AcDbLine
 10
211.391596
 20
159.138147
 30
0.0
 11
206.391596
 21
159.455933
 31
0.0
  0
LINE
  5
189
330
1F
100
AcDbEntity
  8
1
370
    13
100
AcDbLine
 10
213.146739
 20
157.939897
 30
0.0
 11
213.206039
 21
158.125995
 31
0.0
  0
LINE
  5
18A
330
1F
100
AcDbEntity
  8
1
370
    13
100
AcDbLine
 10
213.131195
 20
157.480697
 30
0.0
 11
213.146739
 21
157.939897
 31
0.0
  0
LINE
  5
18B
330
1F
100
AcDbEntity
  8
1
370
    13
100
AcDbLine
 10
197.773812
 20
160.202103
 30
0.0
 11
196.96918
 21
160.190279
 31
0.0
  0
LINE
  5
18C
330
1F
100
AcDbEntity
  8
1
370
    13
100
AcDbLine
 10
218.02257
 20
155.13668
 30
0.0
 11
223.461086
 21
154.730436
 31
0.0
  0
LINE
  5
18D
330
1F
100
AcDbEntity
  8
1
370
    13
100
AcDbLine
 10
223.563993
 20
154.082036
 30
0.0
 11
223.461086
 21
154.730436
 31
0.0
  0
LINE
  5
18E
330
1F
100
AcDbEntity
  8
1
370
    13
100
AcDbLine
 10
224.254534
 20
153.206212
 30
0.0
 11
224.032626
 21
153.388347
 31
0.0
  0
LINE
  5
18F
330
1F
100
AcDbEntity
  8
1
370
    13
100
AcDbLine
 10
222.780485
 20
148.625572
 30
0.0
 11
224.254534
 21
153.206212
 31
0.0
  0
LINE
  5
190
330
1F
100
AcDbEntity
  8
1
370
    13
100
AcDbLine
 10
221.238744
 20
148.161006
 30
0.0
 11
222.780485
 21
148.625572
 31
0.0
  0
LINE
  5
191
330
1F
100
AcDbEntity
  8
1
370
    13
100
AcDbLine
 10
214.426837
 20
146.108245
 30
0.0
 11
214.753126
 21
146.20663
 31
0.0
  0
LINE
  5
192
330
1F
100
AcDbEntity
  8
1
370
    13
100
AcDbLine
 10
211.391596
 20
147.569506
 30
0.0
 11
214.426837
 21
146.108245
 31
0.0
  0
LINE
  5
193
330
1F
100
AcDbEntity
  8
1
370
    13
100
AcDbLine
 10
209.259066
 20
148.478045
 30
0.0
 11
211.391596
 21
147.569506
 31
0.0
  0
LINE
  5
194
330
1F
100
AcDbEntity
  8
1
370
    13
100
AcDbLine
 10
203.974834
 20
149.826457
 30
0.0
 11
206.391596
 21
149.224517
 31
0.0
  0
LINE
  5
195
330
1F
100
AcDbEntity
  8
1
370
    13
100
AcDbLine
 10
214.725297
 20
145.888541
 30
0.0
 11
214.426837
 21
146.108245
 31
0.0
  0
LINE
  5
196
330
1F
100
AcDbEntity
  8
1
370
    13
100
AcDbLine
 10
214.966238
 20
145.575451
 30
0.0
 11
214.725297
 21
145.888541
 31
0.0
  0
LINE
  5
197
330
1F
100
AcDbEntity
  8
1
370
    13
100
AcDbLine
 10
211.791318
 20
143.186458
 30
0.0
 11
211.391596
 21
143.418541
 31
0.0
  0
LINE
  5
198
330
1F
100
AcDbEntity
  8
1
370
    13
100
AcDbLine
 10
218.517687
 20
144.268198
 30
0.0
 11
217.302944
 21
144.196811
 31
0.0
  0
LINE
  5
199
330
1F
100
AcDbEntity
  8
1
370
    13
100
AcDbLine
 10
223.128585
 20
141.929036
 30
0.0
 11
223.254671
 21
142.064469
 31
0.0
  0
LINE
  5
19A
330
1F
100
AcDbEntity
  8
1
370
    13
100
AcDbLine
 10
221.011756
 20
143.616256
 30
0.0
 11
221.790486
 21
143.598754
 31
0.0
  0
LINE
  5
19B
330
1F
100
AcDbEntity
  8
1
370
    13
100
AcDbLine
 10
221.011756
 20
143.616256
 30
0.0
 11
218.517687
 21
144.268198
 31
0.0
  0
LINE
  5
19C
330
1F
100
AcDbEntity
  8
1
370
    13
100
AcDbLine
 10
215.532346
 20
155.411875
 30
0.0
 11
216.230571
 21
155.225938
 31
0.0
  0
LINE
  5
19D
330
1F
100
AcDbEntity
  8
1
370
    13
100
AcDbLine
 10
211.791318
 20
173.27455
 30
0.0
 11
211.391596
 21
173.042467
 31
0.0
  0
LINE
  5
19E
330
1F
100
AcDbEntity
  8
1
370
    13
100
AcDbLine
 10
211.921581
 20
173.243798
 30
0.0
 11
212.042392
 21
173.299971
 31
0.0
  0
LINE
  5
19F
330
1F
100
AcDbEntity
  8
1
370
    13
100
AcDbLine
 10
211.865333
 20
173.231341
 30
0.0
 11
211.921581
 21
173.243798
 31
0.0
  0
LINE
  5
1A0
330
1F
100
AcDbEntity
  8
1
370
    13
100
AcDbLine
 10
224.032626
 20
154.372174
 30
0.0
 11
224.44892
 21
154.375513
 31
0.0
  0
LINE
  5
1A1
330
1F
100
AcDbEntity
  8
1
370
    13
100
AcDbLine
 10
224.715142
 20
154.358372
 30
0.0
 11
224.44892
 21
154.375513
 31
0.0
  0
LINE
  5
1A2
330
1F
100
AcDbEntity
  8
1
370
    13
100
AcDbLine
 10
217.267288
 20
154.977944
 30
0.0
 11
218.02257
 21
155.13668
 31
0.0
  0
LINE
  5
1A3
330
1F
100
AcDbEntity
  8
1
370
    13
100
AcDbLine
 10
215.364601
 20
155.711462
 30
0.0
 11
215.448144
 21
155.842172
 31
0.0
  0
LINE
  5
1A4
330
1F
100
AcDbEntity
  8
1
370
    13
100
AcDbLine
 10
224.483879
 20
166.041743
 30
0.0
 11
224.44892
 21
165.800393
 31
0.0
  0
LINE
  5
1A5
330
1F
100
AcDbEntity
  8
1
370
    13
100
AcDbLine
 10
224.587064
 20
151.824684
 30
0.0
 11
224.44892
 21
151.003171
 31
0.0
  0
LINE
  5
1A6
330
1F
100
AcDbEntity
  8
1
370
    13
100
AcDbLine
 10
197.748243
 20
146.0232
 30
0.0
 11
197.811086
 21
145.780504
 31
0.0
  0
LINE
  5
1A7
330
1F
100
AcDbEntity
  8
1
370
    13
100
AcDbLine
 10
197.564479
 20
170.249462
 30
0.0
 11
197.311086
 21
170.180504
 31
0.0
  0
LINE
  5
1A8
330
1F
100
AcDbEntity
  8
1
370
    13
100
AcDbLine
 10
218.544943
 20
144.579729
 30
0.0
 11
217.994689
 21
145.012846
 31
0.0
  0
LINE
  5
1A9
330
1F
100
AcDbEntity
  8
1
370
    13
100
AcDbLine
 10
197.811086
 20
170.938969
 30
0.0
 11
197.811086
 21
171.55001
 31
0.0
  0
LINE
  5
1AA
330
1F
100
AcDbEntity
  8
1
370
    13
100
AcDbLine
 10
225.752748
 20
167.117113
 30
0.0
 11
225.500247
 21
166.605149
 31
0.0
  0
LINE
  5
1AB
330
1F
100
AcDbEntity
  8
1
370
    13
100
AcDbLine
 10
225.500247
 20
166.605149
 30
0.0
 11
224.929248
 21
166.162111
 31
0.0
  0
LINE
  5
1AC
330
1F
100
AcDbEntity
  8
1
370
    13
100
AcDbLine
 10
212.056083
 20
173.085268
 30
0.0
 11
212.069527
 21
175.142912
 31
0.0
  0
LINE
  5
1AD
330
1F
100
AcDbEntity
  8
1
370
    13
100
AcDbLine
 10
212.119322
 20
175.4299
 30
0.0
 11
212.388877
 21
175.949995
 31
0.0
  0
LINE
  5
1AE
330
1F
100
AcDbEntity
  8
1
370
    13
100
AcDbLine
 10
212.388877
 20
175.949995
 30
0.0
 11
212.948724
 21
176.380926
 31
0.0
  0
LINE
  5
1AF
330
1F
100
AcDbEntity
  8
1
370
    13
100
AcDbLine
 10
213.213778
 20
176.467645
 30
0.0
 11
217.589544
 21
177.46805
 31
0.0
  0
LINE
  5
1B0
330
1F
100
AcDbEntity
  8
1
370
    13
100
AcDbLine
 10
220.649465
 20
178.160302
 30
0.0
 11
220.740112
 21
178.172619
 31
0.0
  0
LINE
  5
1B1
330
1F
100
AcDbEntity
  8
1
370
    13
100
AcDbLine
 10
220.740112
 20
178.172619
 30
0.0
 11
222.847436
 21
178.174995
 31
0.0
  0
LINE
  5
1B2
330
1F
100
AcDbEntity
  8
1
370
    13
100
AcDbLine
 10
223.12504
 20
178.131716
 30
0.0
 11
223.681049
 21
177.851274
 31
0.0
  0
LINE
  5
1B3
330
1F
100
AcDbEntity
  8
1
370
    13
100
AcDbLine
 10
223.681049
 20
177.851274
 30
0.0
 11
224.094468
 21
177.308481
 31
0.0
  0
LINE
  5
1B4
330
1F
100
AcDbEntity
  8
1
370
    13
100
AcDbLine
 10
224.179342
 20
177.040833
 30
0.0
 11
225.10529
 21
172.672384
 31
0.0
  0
LINE
  5
1B5
330
1F
100
AcDbEntity
  8
1
370
    13
100
AcDbLine
 10
225.74923
 20
169.617538
 30
0.0
 11
225.761643
 21
169.526985
 31
0.0
  0
LINE
  5
1B6
330
1F
100
AcDbEntity
  8
1
370
    13
100
AcDbLine
 10
225.761643
 20
169.526985
 30
0.0
 11
225.797733
 21
167.419807
 31
0.0
  0
LINE
  5
1B7
330
1F
100
AcDbEntity
  8
1
370
    13
100
AcDbLine
 10
222.595658
 20
175.621349
 30
0.0
 11
222.631729
 21
175.659749
 31
0.0
  0
LINE
  5
1B8
330
1F
100
AcDbEntity
  8
1
370
    13
100
AcDbLine
 10
214.525331
 20
175.108438
 30
0.0
 11
214.434954
 21
175.470025
 31
0.0
  0
LINE
  5
1B9
330
1F
100
AcDbEntity
  8
1
370
    13
100
AcDbLine
 10
222.548202
 20
176.385218
 30
0.0
 11
222.884336
 21
176.602178
 31
0.0
  0
LINE
  5
1BA
330
1F
100
AcDbEntity
  8
1
370
    13
100
AcDbLine
 10
222.424432
 20
176.274077
 30
0.0
 11
222.548202
 21
176.385218
 31
0.0
  0
LINE
  5
1BB
330
1F
100
AcDbEntity
  8
1
370
    13
100
AcDbLine
 10
222.490468
 20
176.071011
 30
0.0
 11
222.525546
 21
176.110002
 31
0.0
  0
LINE
  5
1BC
330
1F
100
AcDbEntity
  8
1
370
    13
100
AcDbLine
 10
214.647454
 20
174.840292
 30
0.0
 11
214.263922
 21
174.745106
 31
0.0
  0
LINE
  5
1BD
330
1F
100
AcDbEntity
  8
1
370
    13
100
AcDbLine
 10
214.077956
 20
174.690932
 30
0.0
 11
214.00457
 21
174.656763
 31
0.0
  0
LINE
  5
1BE
330
1F
100
AcDbEntity
  8
1
370
    13
100
AcDbLine
 10
214.196137
 20
174.728693
 30
0.0
 11
214.077956
 21
174.690932
 31
0.0
  0
LINE
  5
1BF
330
1F
100
AcDbEntity
  8
1
370
    13
100
AcDbLine
 10
212.926127
 20
169.051664
 30
0.0
 11
212.736648
 21
169.915658
 31
0.0
  0
LINE
  5
1C0
330
1F
100
AcDbEntity
  8
1
370
    13
100
AcDbLine
 10
212.067716
 20
172.995496
 30
0.0
 11
212.056083
 21
173.085268
 31
0.0
  0
LINE
  5
1C1
330
1F
100
AcDbEntity
  8
1
370
    13
100
AcDbLine
 10
224.669248
 20
166.079308
 30
0.0
 11
224.368764
 21
166.014045
 31
0.0
  0
LINE
  5
1C2
330
1F
100
AcDbEntity
  8
1
370
    13
100
AcDbLine
 10
223.932209
 20
167.831223
 30
0.0
 11
224.194224
 21
167.369975
 31
0.0
  0
LINE
  5
1C3
330
1F
100
AcDbEntity
  8
1
370
    13
100
AcDbLine
 10
225.784723
 20
159.534131
 30
0.0
 11
225.810797
 21
159.47975
 31
0.0
  0
LINE
  5
1C4
330
1F
100
AcDbEntity
  8
1
370
    13
100
AcDbLine
 10
224.484127
 20
156.703272
 30
0.0
 11
224.705314
 21
156.901354
 31
0.0
  0
LINE
  5
1C5
330
1F
100
AcDbEntity
  8
1
370
    13
100
AcDbLine
 10
224.778316
 20
154.42106
 30
0.0
 11
224.063665
 21
154.422968
 31
0.0
  0
LINE
  5
1C6
330
1F
100
AcDbEntity
  8
1
370
    13
100
AcDbLine
 10
225.476084
 20
159.166564
 30
0.0
 11
225.651254
 21
159.155289
 31
0.0
  0
LINE
  5
1C7
330
1F
100
AcDbEntity
  8
1
370
    13
100
AcDbLine
 10
225.694378
 20
158.755214
 30
0.0
 11
225.654449
 21
158.255662
 31
0.0
  0
LINE
  5
1C8
330
1F
100
AcDbEntity
  8
1
370
    13
100
AcDbLine
 10
225.651254
 20
159.155289
 30
0.0
 11
225.686015
 21
159.095594
 31
0.0
  0
LINE
  5
1C9
330
1F
100
AcDbEntity
  8
1
370
    13
100
AcDbLine
 10
225.437373
 20
156.471291
 30
0.0
 11
225.281287
 21
155.304092
 31
0.0
  0
LINE
  5
1CA
330
1F
100
AcDbEntity
  8
1
370
    13
100
AcDbLine
 10
225.281287
 20
155.304092
 30
0.0
 11
225.236296
 21
155.036541
 31
0.0
  0
LINE
  5
1CB
330
1F
100
AcDbEntity
  8
1
370
    13
100
AcDbLine
 10
212.160691
 20
158.379364
 30
0.0
 11
212.067716
 21
158.423975
 31
0.0
  0
LINE
  5
1CC
330
1F
100
AcDbEntity
  8
1
370
    13
100
AcDbLine
 10
212.056083
 20
158.437376
 30
0.0
 11
212.069527
 21
158.903639
 31
0.0
  0
LINE
  5
1CD
330
1F
100
AcDbEntity
  8
1
370
    13
100
AcDbLine
 10
213.213778
 20
159.010914
 30
0.0
 11
217.589544
 21
158.477191
 31
0.0
  0
LINE
  5
1CE
330
1F
100
AcDbEntity
  8
1
370
    13
100
AcDbLine
 10
220.649465
 20
158.125031
 30
0.0
 11
220.740112
 21
158.122708
 31
0.0
  0
LINE
  5
1CF
330
1F
100
AcDbEntity
  8
1
370
    13
100
AcDbLine
 10
220.740112
 20
158.122708
 30
0.0
 11
222.847436
 21
158.225967
 31
0.0
  0
LINE
  5
1D0
330
1F
100
AcDbEntity
  8
1
370
    13
100
AcDbLine
 10
224.094468
 20
158.139646
 30
0.0
 11
224.14857
 21
158.119472
 31
0.0
  0
LINE
  5
1D1
330
1F
100
AcDbEntity
  8
1
370
    13
100
AcDbLine
 10
224.179342
 20
158.101699
 30
0.0
 11
225.10529
 21
157.400082
 31
0.0
  0
LINE
  5
1D2
330
1F
100
AcDbEntity
  8
1
370
    13
100
AcDbLine
 10
225.621831
 20
157.008702
 30
0.0
 11
225.74923
 21
156.931464
 31
0.0
  0
LINE
  5
1D3
330
1F
100
AcDbEntity
  8
1
370
    13
100
AcDbLine
 10
225.7864
 20
156.928153
 30
0.0
 11
225.810311
 21
156.99233
 31
0.0
  0
LINE
  5
1D4
330
1F
100
AcDbEntity
  8
1
370
    13
100
AcDbLine
 10
214.947133
 20
157.657211
 30
0.0
 11
214.814127
 21
157.691304
 31
0.0
  0
LINE
  5
1D5
330
1F
100
AcDbEntity
  8
1
370
    13
100
AcDbLine
 10
222.69418
 20
159.492826
 30
0.0
 11
221.167695
 21
159.585238
 31
0.0
  0
LINE
  5
1D6
330
1F
100
AcDbEntity
  8
1
370
    13
100
AcDbLine
 10
222.486792
 20
162.987312
 30
0.0
 11
223.217838
 21
162.861317
 31
0.0
  0
LINE
  5
1D7
330
1F
100
AcDbEntity
  8
1
370
    13
100
AcDbLine
 10
223.445148
 20
160.14996
 30
0.0
 11
223.321069
 21
159.616053
 31
0.0
  0
LINE
  5
1D8
330
1F
100
AcDbEntity
  8
1
370
    13
100
AcDbLine
 10
223.326827
 20
159.53345
 30
0.0
 11
223.321069
 21
159.616053
 31
0.0
  0
LINE
  5
1D9
330
1F
100
AcDbEntity
  8
1
370
    13
100
AcDbLine
 10
223.521061
 20
159.389753
 30
0.0
 11
223.884153
 21
159.301025
 31
0.0
  0
LINE
  5
1DA
330
1F
100
AcDbEntity
  8
1
370
    13
100
AcDbLine
 10
224.121234
 20
158.647561
 30
0.0
 11
224.084813
 21
158.355093
 31
0.0
  0
LINE
  5
1DB
330
1F
100
AcDbEntity
  8
1
370
    13
100
AcDbLine
 10
222.897991
 20
159.516799
 30
0.0
 11
222.734209
 21
159.490498
 31
0.0
  0
LINE
  5
1DC
330
1F
100
AcDbEntity
  8
1
370
    13
100
AcDbLine
 10
222.206089
 20
161.082197
 30
0.0
 11
221.861859
 21
162.20502
 31
0.0
  0
LINE
  5
1DD
330
1F
100
AcDbEntity
  8
1
370
    13
100
AcDbLine
 10
221.861859
 20
162.20502
 30
0.0
 11
221.804145
 21
162.46079
 31
0.0
  0
LINE
  5
1DE
330
1F
100
AcDbEntity
  8
1
370
    13
100
AcDbLine
 10
221.167695
 20
159.585238
 30
0.0
 11
221.066633
 21
159.590854
 31
0.0
  0
LINE
  5
1DF
330
1F
100
AcDbEntity
  8
1
370
    13
100
AcDbLine
 10
212.76727
 20
160.22321
 30
0.0
 11
212.809383
 21
160.354218
 31
0.0
  0
LINE
  5
1E0
330
1F
100
AcDbEntity
  8
1
370
    13
100
AcDbLine
 10
212.826029
 20
160.168719
 30
0.0
 11
212.76727
 21
160.22321
 31
0.0
  0
LINE
  5
1E1
330
1F
100
AcDbEntity
  8
1
370
    13
100
AcDbLine
 10
221.595409
 20
161.615342
 30
0.0
 11
221.699236
 21
161.566159
 31
0.0
  0
LINE
  5
1E2
330
1F
100
AcDbEntity
  8
1
370
    13
100
AcDbLine
 10
221.699236
 20
161.566159
 30
0.0
 11
222.206089
 21
161.082197
 31
0.0
  0
LINE
  5
1E3
330
1F
100
AcDbEntity
  8
1
370
    13
100
AcDbLine
 10
213.203796
 20
160.901282
 30
0.0
 11
212.809383
 21
160.354218
 31
0.0
  0
LINE
  5
1E4
330
1F
100
AcDbEntity
  8
1
370
    13
100
AcDbLine
 10
225.500765
 20
158.538697
 30
0.0
 11
225.508065
 21
158.48364
 31
0.0
  0
LINE
  5
1E5
330
1F
100
AcDbEntity
  8
1
370
    13
100
AcDbLine
 10
225.339451
 20
160.547817
 30
0.0
 11
225.358929
 21
160.494529
 31
0.0
  0
LINE
  5
1E6
330
1F
100
AcDbEntity
  8
1
370
    13
100
AcDbLine
 10
225.358929
 20
160.494529
 30
0.0
 11
225.437373
 21
159.989718
 31
0.0
  0
LINE
  5
1E7
330
1F
100
AcDbEntity
  8
1
370
    13
100
AcDbLine
 10
222.748173
 20
157.911231
 30
0.0
 11
222.884336
 21
157.909778
 31
0.0
  0
LINE
  5
1E8
330
1F
100
AcDbEntity
  8
1
370
    13
100
AcDbLine
 10
213.932247
 20
163.529576
 30
0.0
 11
214.646898
 21
163.531483
 31
0.0
  0
LINE
  5
1E9
330
1F
100
AcDbEntity
  8
1
370
    13
100
AcDbLine
 10
212.855995
 20
160.165898
 30
0.0
 11
213.334717
 21
160.141009
 31
0.0
  0
LINE
  5
1EA
330
1F
100
AcDbEntity
  8
1
370
    13
100
AcDbLine
 10
213.376738
 20
159.538385
 30
0.0
 11
212.983818
 21
159.234338
 31
0.0
  0
LINE
  5
1EB
330
1F
100
AcDbEntity
  8
1
370
    13
100
AcDbLine
 10
212.304418
 20
159.625395
 30
0.0
 11
212.448889
 21
160.129265
 31
0.0
  0
LINE
  5
1EC
330
1F
100
AcDbEntity
  8
1
370
    13
100
AcDbLine
 10
222.813457
 20
157.863711
 30
0.0
 11
223.119598
 21
157.79256
 31
0.0
  0
LINE
  5
1ED
330
1F
100
AcDbEntity
  8
1
370
    13
100
AcDbLine
 10
212.623923
 20
160.334246
 30
0.0
 11
212.448889
 21
160.129265
 31
0.0
  0
LINE
  5
1EE
330
1F
100
AcDbEntity
  8
1
370
    13
100
AcDbLine
 10
212.925465
 20
161.605286
 30
0.0
 11
213.27519
 21
162.651397
 31
0.0
  0
LINE
  5
1EF
330
1F
100
AcDbEntity
  8
1
370
    13
100
AcDbLine
 10
213.27519
 20
162.651397
 30
0.0
 11
213.364749
 21
162.893268
 31
0.0
  0
LINE
  5
1F0
330
1F
100
AcDbEntity
  8
1
370
    13
100
AcDbLine
 10
213.642657
 20
158.594248
 30
0.0
 11
213.718134
 21
158.571521
 31
0.0
  0
LINE
  5
1F1
330
1F
100
AcDbEntity
  8
1
370
    13
100
AcDbLine
 10
215.153321
 20
157.834984
 30
0.0
 11
215.318402
 21
158.172927
 31
0.0
  0
LINE
  5
1F2
330
1F
100
AcDbEntity
  8
1
370
    13
100
AcDbLine
 10
225.641358
 20
158.359333
 30
0.0
 11
225.594461
 21
158.441556
 31
0.0
  0
LINE
  5
1F3
330
1F
100
AcDbEntity
  8
1
370
    13
100
AcDbLine
 10
225.281287
 20
161.156917
 30
0.0
 11
225.236296
 21
161.424467
 31
0.0
  0
LINE
  5
1F4
330
1F
100
AcDbEntity
  8
1
370
    13
100
AcDbLine
 10
225.437373
 20
159.989718
 30
0.0
 11
225.281287
 21
161.156917
 31
0.0
  0
LINE
  5
1F5
330
1F
100
AcDbEntity
  8
1
370
    13
100
AcDbLine
 10
224.089775
 20
157.003345
 30
0.0
 11
224.170749
 21
156.973316
 31
0.0
  0
LINE
  5
1F6
330
1F
100
AcDbEntity
  8
1
370
    13
100
AcDbLine
 10
223.757472
 20
157.19703
 30
0.0
 11
223.817184
 21
156.998195
 31
0.0
  0
LINE
  5
1F7
330
1F
100
AcDbEntity
  8
1
370
    13
100
AcDbLine
 10
223.388308
 20
156.99448
 30
0.0
 11
223.345026
 21
157.03644
 31
0.0
  0
LINE
  5
1F8
330
1F
100
AcDbEntity
  8
1
370
    13
100
AcDbLine
 10
215.262005
 20
157.804266
 30
0.0
 11
215.42701
 21
158.142388
 31
0.0
  0
LINE
  5
1F9
330
1F
100
AcDbEntity
  8
1
370
    13
100
AcDbLine
 10
215.427006
 20
158.142335
 30
0.0
 11
215.449892
 21
158.403923
 31
0.0
  0
LINE
  5
1FA
330
1F
100
AcDbEntity
  8
1
370
    13
100
AcDbLine
 10
215.345766
 20
157.783917
 30
0.0
 11
215.499282
 21
158.126278
 31
0.0
  0
LINE
  5
1FB
330
1F
100
AcDbEntity
  8
1
370
    13
100
AcDbLine
 10
215.499296
 20
158.126738
 30
0.0
 11
215.520337
 21
158.367243
 31
0.0
  0
LINE
  5
1FC
330
1F
100
AcDbEntity
  8
1
370
    13
100
AcDbLine
 10
212.855995
 20
140.861874
 30
0.0
 11
213.334717
 21
140.492506
 31
0.0
  0
LINE
  5
1FD
330
1F
100
AcDbEntity
  8
1
370
    13
100
AcDbLine
 10
212.319712
 20
141.373553
 30
0.0
 11
212.448889
 21
141.651245
 31
0.0
  0
LINE
  5
1FE
330
1F
100
AcDbEntity
  8
1
370
    13
100
AcDbLine
 10
212.505506
 20
141.542495
 30
0.0
 11
212.448889
 21
141.651245
 31
0.0
  0
LINE
  5
1FF
330
1F
100
AcDbEntity
  8
1
370
    13
100
AcDbLine
 10
212.925465
 20
142.450374
 30
0.0
 11
213.27519
 21
142.98631
 31
0.0
  0
LINE
  5
200
330
1F
100
AcDbEntity
  8
1
370
    13
100
AcDbLine
 10
213.27519
 20
142.98631
 30
0.0
 11
213.364749
 21
143.08808
 31
0.0
  0
LINE
  5
201
330
1F
100
AcDbEntity
  8
1
370
    13
100
AcDbLine
 10
224.778316
 20
148.691526
 30
0.0
 11
224.729809
 21
148.795011
 31
0.0
  0
LINE
  5
202
330
1F
100
AcDbEntity
  8
1
370
    13
100
AcDbLine
 10
222.846229
 20
138.722849
 30
0.0
 11
222.734209
 21
138.667071
 31
0.0
  0
LINE
  5
203
330
1F
100
AcDbEntity
  8
1
370
    13
100
AcDbLine
 10
222.206089
 20
139.148688
 30
0.0
 11
221.861859
 21
139.501756
 31
0.0
  0
LINE
  5
204
330
1F
100
AcDbEntity
  8
1
370
    13
100
AcDbLine
 10
221.861859
 20
139.501756
 30
0.0
 11
221.804145
 21
139.591921
 31
0.0
  0
LINE
  5
205
330
1F
100
AcDbEntity
  8
1
370
    13
100
AcDbLine
 10
223.521061
 20
139.06819
 30
0.0
 11
223.884153
 21
139.544131
 31
0.0
  0
LINE
  5
206
330
1F
100
AcDbEntity
  8
1
370
    13
100
AcDbLine
 10
213.108901
 20
143.145482
 30
0.0
 11
213.082095
 21
143.034507
 31
0.0
  0
LINE
  5
207
330
1F
100
AcDbEntity
  8
1
370
    13
100
AcDbLine
 10
213.082095
 20
143.034507
 30
0.0
 11
212.925465
 21
142.450374
 31
0.0
  0
LINE
  5
208
330
1F
100
AcDbEntity
  8
1
370
    13
100
AcDbLine
 10
221.595409
 20
139.337083
 30
0.0
 11
221.699236
 21
139.309462
 31
0.0
  0
LINE
  5
209
330
1F
100
AcDbEntity
  8
1
370
    13
100
AcDbLine
 10
221.699236
 20
139.309462
 30
0.0
 11
222.206089
 21
139.148688
 31
0.0
  0
LINE
  5
20A
330
1F
100
AcDbEntity
  8
1
370
    13
100
AcDbLine
 10
225.686708
 20
149.124903
 30
0.0
 11
225.640337
 21
148.930019
 31
0.0
  0
LINE
  5
20B
330
1F
100
AcDbEntity
  8
1
370
    13
100
AcDbLine
 10
225.587418
 20
149.042425
 30
0.0
 11
225.640337
 21
148.930019
 31
0.0
  0
LINE
  5
20C
330
1F
100
AcDbEntity
  8
1
370
    13
100
AcDbLine
 10
225.437373
 20
148.404499
 30
0.0
 11
225.281287
 21
148.062203
 31
0.0
  0
LINE
  5
20D
330
1F
100
AcDbEntity
  8
1
370
    13
100
AcDbLine
 10
225.281287
 20
148.062203
 30
0.0
 11
225.236296
 21
148.005002
 31
0.0
  0
LINE
  5
20E
330
1F
100
AcDbEntity
  8
1
370
    13
100
AcDbLine
 10
225.233781
 20
149.719938
 30
0.0
 11
225.338076
 21
149.524294
 31
0.0
  0
LINE
  5
20F
330
1F
100
AcDbEntity
  8
1
370
    13
100
AcDbLine
 10
225.233781
 20
149.719938
 30
0.0
 11
224.752418
 21
150.086666
 31
0.0
  0
LINE
  5
210
330
1F
100
AcDbEntity
  8
1
370
    13
100
AcDbLine
 10
225.339451
 20
147.794907
 30
0.0
 11
225.358929
 21
147.898555
 31
0.0
  0
LINE
  5
211
330
1F
100
AcDbEntity
  8
1
370
    13
100
AcDbLine
 10
225.358929
 20
147.898555
 30
0.0
 11
225.437373
 21
148.404499
 31
0.0
  0
LINE
  5
212
330
1F
100
AcDbEntity
  8
1
370
    13
100
AcDbLine
 10
212.388877
 20
140.511014
 30
0.0
 11
212.948724
 21
140.080082
 31
0.0
  0
LINE
  5
213
330
1F
100
AcDbEntity
  8
1
370
    13
100
AcDbLine
 10
212.119322
 20
141.031109
 30
0.0
 11
212.388877
 21
140.511014
 31
0.0
  0
LINE
  5
214
330
1F
100
AcDbEntity
  8
1
370
    13
100
AcDbLine
 10
213.376738
 20
140.146259
 30
0.0
 11
212.983818
 21
140.149647
 31
0.0
  0
LINE
  5
215
330
1F
100
AcDbEntity
  8
1
370
    13
100
AcDbLine
 10
212.043523
 20
143.160207
 30
0.0
 11
212.069527
 21
141.318096
 31
0.0
  0
LINE
  5
216
330
1F
100
AcDbEntity
  8
1
370
    13
100
AcDbLine
 10
212.447755
 20
141.691065
 30
0.0
 11
212.470694
 21
142.911443
 31
0.0
  0
LINE
  5
217
330
1F
100
AcDbEntity
  8
1
370
    13
100
AcDbLine
 10
222.69418
 20
138.66624
 30
0.0
 11
221.167695
 21
138.718302
 31
0.0
  0
LINE
  5
218
330
1F
100
AcDbEntity
  8
1
370
    13
100
AcDbLine
 10
221.167695
 20
138.718302
 30
0.0
 11
221.066633
 21
138.732246
 31
0.0
  0
LINE
  5
219
330
1F
100
AcDbEntity
  8
1
370
    13
100
AcDbLine
 10
213.213778
 20
139.993363
 30
0.0
 11
217.589544
 21
138.992959
 31
0.0
  0
LINE
  5
21A
330
1F
100
AcDbEntity
  8
1
370
    13
100
AcDbLine
 10
220.740112
 20
138.288389
 30
0.0
 11
222.847436
 21
138.286014
 31
0.0
  0
LINE
  5
21B
330
1F
100
AcDbEntity
  8
1
370
    13
100
AcDbLine
 10
220.649465
 20
138.300706
 30
0.0
 11
220.740112
 21
138.288389
 31
0.0
  0
LINE
  5
21C
330
1F
100
AcDbEntity
  8
1
370
    13
100
AcDbLine
 10
223.681049
 20
138.609735
 30
0.0
 11
224.094468
 21
139.152527
 31
0.0
  0
LINE
  5
21D
330
1F
100
AcDbEntity
  8
1
370
    13
100
AcDbLine
 10
223.12504
 20
138.329292
 30
0.0
 11
223.681049
 21
138.609735
 31
0.0
  0
LINE
  5
21E
330
1F
100
AcDbEntity
  8
1
370
    13
100
AcDbLine
 10
224.121234
 20
139.583936
 30
0.0
 11
224.062336
 21
139.191253
 31
0.0
  0
LINE
  5
21F
330
1F
100
AcDbEntity
  8
1
370
    13
100
AcDbLine
 10
225.641257
 20
148.889983
 30
0.0
 11
225.594461
 21
147.363874
 31
0.0
  0
LINE
  5
220
330
1F
100
AcDbEntity
  8
1
370
    13
100
AcDbLine
 10
225.594461
 20
147.363874
 30
0.0
 11
225.580936
 21
147.262916
 31
0.0
  0
LINE
  5
221
330
1F
100
AcDbEntity
  8
1
370
    13
100
AcDbLine
 10
224.179342
 20
139.420175
 30
0.0
 11
225.10529
 21
143.788624
 31
0.0
  0
LINE
  5
222
330
1F
100
AcDbEntity
  8
1
370
    13
100
AcDbLine
 10
224.669248
 20
150.3817
 30
0.0
 11
224.48512
 21
150.421692
 31
0.0
  0
LINE
  5
223
330
1F
100
AcDbEntity
  8
1
370
    13
100
AcDbLine
 10
225.761643
 20
146.934023
 30
0.0
 11
225.797733
 21
149.041201
 31
0.0
  0
LINE
  5
224
330
1F
100
AcDbEntity
  8
1
370
    13
100
AcDbLine
 10
225.74923
 20
146.84347
 30
0.0
 11
225.761643
 21
146.934023
 31
0.0
  0
LINE
  5
225
330
1F
100
AcDbEntity
  8
1
370
    13
100
AcDbLine
 10
225.752748
 20
149.343896
 30
0.0
 11
225.500247
 21
149.855859
 31
0.0
  0
LINE
  5
226
330
1F
100
AcDbEntity
  8
1
370
    13
100
AcDbLine
 10
225.500247
 20
149.855859
 30
0.0
 11
224.929248
 21
150.298898
 31
0.0
  0
LINE
  5
227
330
1F
100
AcDbEntity
  8
1
370
    13
100
AcDbLine
 10
222.358247
 20
176.33091
 30
0.0
 11
222.419337
 21
176.256206
 31
0.0
  0
LINE
  5
228
330
1F
100
AcDbEntity
  8
1
370
    13
100
AcDbLine
 10
222.505932
 20
176.003613
 30
0.0
 11
222.595829
 21
175.621076
 31
0.0
  0
LINE
  5
229
330
1F
100
AcDbEntity
  8
1
370
    13
100
AcDbLine
 10
222.420044
 20
176.257582
 30
0.0
 11
222.489255
 21
176.074206
 31
0.0
  0
LINE
  5
22A
330
1F
100
AcDbEntity
  8
1
370
    13
100
AcDbLine
 10
222.490359
 20
176.071262
 30
0.0
 11
222.505909
 21
176.003653
 31
0.0
  0
LINE
  5
22B
330
1F
100
AcDbEntity
  8
1
370
    13
100
AcDbLine
 10
223.932329
 20
167.834912
 30
0.0
 11
223.844392
 21
167.793265
 31
0.0
  0
LINE
  5
22C
330
1F
100
AcDbEntity
  8
1
370
    13
100
AcDbLine
 10
225.784629
 20
159.533009
 30
0.0
 11
225.456612
 21
159.549564
 31
0.0
  0
LINE
  5
22D
330
1F
100
AcDbEntity
  8
1
370
    13
100
AcDbLine
 10
224.522517
 20
156.903218
 30
0.0
 11
225.76409
 21
156.926037
 31
0.0
  0
LINE
  5
22E
330
1F
100
AcDbEntity
  8
1
370
    13
100
AcDbLine
 10
222.615648
 20
157.928636
 30
0.0
 11
222.748208
 21
157.911146
 31
0.0
  0
LINE
  5
22F
330
1F
100
AcDbEntity
  8
1
370
    13
100
AcDbLine
 10
212.450873
 20
160.135763
 30
0.0
 11
212.067511
 21
158.897252
 31
0.0
  0
LINE
  5
230
330
1F
100
AcDbEntity
  8
1
370
    13
100
AcDbLine
 10
222.735203
 20
157.91396
 30
0.0
 11
222.813608
 21
157.863902
 31
0.0
  0
LINE
  5
231
330
1F
100
AcDbEntity
  8
1
370
    13
100
AcDbLine
 10
214.07421
 20
158.542652
 30
0.0
 11
214.462274
 21
158.501788
 31
0.0
  0
LINE
  5
232
330
1F
100
AcDbEntity
  8
1
370
    13
100
AcDbLine
 10
214.008455
 20
158.549758
 30
0.0
 11
214.074186
 21
158.542593
 31
0.0
  0
LINE
  5
233
330
1F
100
AcDbEntity
  8
1
370
    13
100
AcDbLine
 10
213.713537
 20
158.571564
 30
0.0
 11
214.008761
 21
158.54956
 31
0.0
  0
LINE
  5
234
330
1F
100
AcDbEntity
  8
1
370
    13
100
AcDbLine
 10
213.579908
 20
158.567817
 30
0.0
 11
213.718178
 21
158.571236
 31
0.0
  0
LINE
  5
235
330
1F
100
AcDbEntity
  8
1
370
    13
100
AcDbLine
 10
213.508502
 20
158.559006
 30
0.0
 11
213.579908
 21
158.567817
 31
0.0
  0
LINE
  5
236
330
1F
100
AcDbEntity
  8
1
370
    13
100
AcDbLine
 10
223.842949
 20
156.983204
 30
0.0
 11
224.172348
 21
156.97326
 31
0.0
  0
LINE
  5
237
330
1F
100
AcDbEntity
  8
1
370
    13
100
AcDbLine
 10
223.38831
 20
156.994746
 30
0.0
 11
223.779392
 21
156.984992
 31
0.0
  0
LINE
  5
238
330
1F
100
AcDbEntity
  8
1
370
    13
100
AcDbLine
 10
223.779331
 20
156.984669
 30
0.0
 11
223.843155
 21
156.983249
 31
0.0
  0
LINE
  5
239
330
1F
100
AcDbEntity
  8
1
370
    13
100
AcDbLine
 10
220.167906
 20
157.913677
 30
0.0
 11
221.790541
 21
157.922181
 31
0.0
  0
LINE
  5
23A
330
1F
100
AcDbEntity
  8
1
370
    13
100
AcDbLine
 10
224.116035
 20
156.991565
 30
0.0
 11
224.522182
 21
156.904147
 31
0.0
  0
LINE
  5
23B
330
1F
100
AcDbEntity
  8
1
370
    13
100
AcDbLine
 10
218.598175
 20
157.122305
 30
0.0
 11
223.388329
 21
156.993951
 31
0.0
  0
LINE
  5
23C
330
1F
100
AcDbEntity
  8
CUT
370
    13
100
AcDbLine
 10
225.797735
 20
167.419808
 30
0.0
 11
225.752748
 21
167.117113
 31
0.0
  0
LINE
  5
23D
330
1F
100
AcDbEntity
  8
CUT
370
    13
100
AcDbLine
 10
217.077615
 20
164.439634
 30
0.0
 11
215.019824
 21
164.387725
 31
0.0
  0
LINE
  5
23E
330
1F
100
AcDbEntity
  8
CUT
370
    13
100
AcDbLine
 10
212.067716
 20
172.995496
 30
0.0
 11
212.056083
 21
173.085268
 31
0.0
  0
LINE
  5
23F
330
1F
100
AcDbEntity
  8
CUT
370
    13
100
AcDbLine
 10
217.589544
 20
177.46805
 30
0.0
 11
220.649465
 21
178.160302
 31
0.0
  0
LINE
  5
240
330
1F
100
AcDbEntity
  8
CUT
370
    13
100
AcDbLine
 10
224.929248
 20
166.162111
 30
0.0
 11
224.669248
 21
166.079308
 31
0.0
  0
LINE
  5
241
330
1F
100
AcDbEntity
  8
CUT
370
    13
100
AcDbLine
 10
214.210989
 20
164.6885
 30
0.0
 11
213.787635
 21
165.242255
 31
0.0
  0
LINE
  5
242
330
1F
100
AcDbEntity
  8
CUT
370
    13
100
AcDbLine
 10
212.119322
 20
175.4299
 30
0.0
 11
212.388877
 21
175.949995
 31
0.0
  0
LINE
  5
243
330
1F
100
AcDbEntity
  8
CUT
370
    13
100
AcDbLine
 10
222.847435
 20
178.174997
 30
0.0
 11
223.12504
 21
178.131716
 31
0.0
  0
LINE
  5
244
330
1F
100
AcDbEntity
  8
CUT
370
    13
100
AcDbLine
 10
225.761643
 20
169.526985
 30
0.0
 11
225.797733
 21
167.419807
 31
0.0
  0
LINE
  5
245
330
1F
100
AcDbEntity
  8
CUT
370
    13
100
AcDbLine
 10
217.167481
 20
164.452732
 30
0.0
 11
217.077615
 21
164.439634
 31
0.0
  0
LINE
  5
246
330
1F
100
AcDbEntity
  8
CUT
370
    13
100
AcDbLine
 10
212.736648
 20
169.915658
 30
0.0
 11
212.067716
 21
172.995496
 31
0.0
  0
LINE
  5
247
330
1F
100
AcDbEntity
  8
CUT
370
    13
100
AcDbLine
 10
213.213778
 20
176.467645
 30
0.0
 11
217.589544
 21
177.46805
 31
0.0
  0
LINE
  5
248
330
1F
100
AcDbEntity
  8
CUT
370
    13
100
AcDbLine
 10
224.094468
 20
177.308481
 30
0.0
 11
224.179342
 21
177.040833
 31
0.0
  0
LINE
  5
249
330
1F
100
AcDbEntity
  8
CUT
370
    13
100
AcDbLine
 10
225.500247
 20
166.605149
 30
0.0
 11
224.929248
 21
166.162111
 31
0.0
  0
LINE
  5
24A
330
1F
100
AcDbEntity
  8
CUT
370
    13
100
AcDbLine
 10
214.724438
 20
164.430524
 30
0.0
 11
214.210989
 21
164.6885
 31
0.0
  0
LINE
  5
24B
330
1F
100
AcDbEntity
  8
CUT
370
    13
100
AcDbLine
 10
212.069525
 20
175.142912
 30
0.0
 11
212.119322
 21
175.4299
 31
0.0
  0
LINE
  5
24C
330
1F
100
AcDbEntity
  8
CUT
370
    13
100
AcDbLine
 10
220.740112
 20
178.172619
 30
0.0
 11
222.847436
 21
178.174995
 31
0.0
  0
LINE
  5
24D
330
1F
100
AcDbEntity
  8
CUT
370
    13
100
AcDbLine
 10
225.74923
 20
169.617538
 30
0.0
 11
225.761643
 21
169.526985
 31
0.0
  0
LINE
  5
24E
330
1F
100
AcDbEntity
  8
CUT
370
    13
100
AcDbLine
 10
220.252393
 20
165.119992
 30
0.0
 11
217.167481
 21
164.452732
 31
0.0
  0
LINE
  5
24F
330
1F
100
AcDbEntity
  8
CUT
370
    13
100
AcDbLine
 10
213.703685
 20
165.50612
 30
0.0
 11
212.736648
 21
169.915658
 31
0.0
  0
LINE
  5
250
330
1F
100
AcDbEntity
  8
CUT
370
    13
100
AcDbLine
 10
212.948724
 20
176.380926
 30
0.0
 11
213.213778
 21
176.467645
 31
0.0
  0
LINE
  5
251
330
1F
100
AcDbEntity
  8
CUT
370
    13
100
AcDbLine
 10
225.752748
 20
167.117113
 30
0.0
 11
225.500247
 21
166.605149
 31
0.0
  0
LINE
  5
252
330
1F
100
AcDbEntity
  8
CUT
370
    13
100
AcDbLine
 10
215.019825
 20
164.387723
 30
0.0
 11
214.724438
 21
164.430524
 31
0.0
  0
LINE
  5
253
330
1F
100
AcDbEntity
  8
CUT
370
    13
100
AcDbLine
 10
212.056083
 20
173.085268
 30
0.0
 11
212.069527
 21
175.142912
 31
0.0
  0
LINE
  5
254
330
1F
100
AcDbEntity
  8
CUT
370
    13
100
AcDbLine
 10
220.649465
 20
178.160302
 30
0.0
 11
220.740112
 21
178.172619
 31
0.0
  0
LINE
  5
255
330
1F
100
AcDbEntity
  8
CUT
370
    13
100
AcDbLine
 10
224.669248
 20
166.079308
 30
0.0
 11
220.252393
 21
165.119992
 31
0.0
  0
LINE
  5
256
330
1F
100
AcDbEntity
  8
CUT
370
    13
100
AcDbLine
 10
212.388877
 20
175.949995
 30
0.0
 11
212.948724
 21
176.380926
 31
0.0
  0
LINE
  5
257
330
1F
100
AcDbEntity
  8
CUT
370
    13
100
AcDbLine
 10
223.12504
 20
178.131716
 30
0.0
 11
223.681049
 21
177.851274
 31
0.0
  0
LINE
  5
258
330
1F
100
AcDbEntity
  8
CUT
370
    13
100
AcDbLine
 10
213.787635
 20
165.242255
 30
0.0
 11
213.703685
 21
165.50612
 31
0.0
  0
LINE
  5
259
102
{ACAD_REACTORS
330
3DA
102
}
330
1F
100
AcDbEntity
  8
SK1
370
    50
100
AcDbLine
 10
176.311086
 20
166.230504
 30
0.0
 11
161.311086
 21
166.230504
 31
0.0
  0
LINE
  5
25A
330
1F
100
AcDbEntity
  8
NOCUT
370
    13
100
AcDbLine
 10
182.811086
 20
172.230504
 30
0.0
 11
183.311086
 21
172.730504
 31
0.0
  0
LINE
  5
25B
330
1F
100
AcDbEntity
  8
SK1
370
    50
100
AcDbLine
 10
159.811086
 20
151.730504
 30
0.0
 11
161.311086
 21
150.230504
 31
0.0
  0
LINE
  5
25C
102
{ACAD_REACTORS
330
3DA
102
}
330
1F
100
AcDbEntity
  8
SK1
370
    50
100
AcDbLine
 10
161.311086
 20
150.230504
 30
0.0
 11
161.311086
 21
166.230504
 31
0.0
  0
LINE
  5
25D
102
{ACAD_REACTORS
330
3FA
102
}
330
1F
100
AcDbEntity
  8
2
370
    13
100
AcDbLine
 10
225.74923
 20
169.617538
 30
0.0
 11
221.175781
 21
191.194212
 31
0.0
  0
LINE
  5
25E
102
{ACAD_REACTORS
330
3FA
102
}
330
1F
100
AcDbEntity
  8
2
370
    13
100
AcDbLine
 10
225.811086
 20
179.205504
 30
0.0
 11
225.811086
 21
191.680071
 31
0.0
  0
LINE
  5
25F
330
1F
100
AcDbEntity
  8
2
 60
     1
370
    13
100
AcDbLine
 10
221.590493
 20
189.237681
 30
0.0
 11
218.614987
 21
188.053748
 31
0.0
  0
LINE
  5
260
330
1F
100
AcDbEntity
  8
2
 60
     1
370
    13
100
AcDbLine
 10
218.614987
 20
188.053748
 30
0.0
 11
218.409947
 21
188.864207
 31
0.0
  0
LINE
  5
261
330
1F
100
AcDbEntity
  8
2
 60
     1
370
    13
100
AcDbLine
 10
218.409947
 20
188.864207
 30
0.0
 11
221.590493
 21
189.237681
 31
0.0
  0
LINE
  5
262
330
1F
100
AcDbEntity
  8
2
 60
     1
370
    13
100
AcDbLine
 10
225.811086
 20
189.680071
 30
0.0
 11
228.999944
 21
189.974218
 31
0.0
  0
LINE
  5
263
330
1F
100
AcDbEntity
  8
2
 60
     1
370
    13
100
AcDbLine
 10
228.999944
 20
189.974218
 30
0.0
 11
228.96742
 21
189.138858
 31
0.0
  0
LINE
  5
264
330
1F
100
AcDbEntity
  8
2
 60
     1
370
    13
100
AcDbLine
 10
228.96742
 20
189.138858
 30
0.0
 11
225.811086
 21
189.680071
 31
0.0
  0
ARC
  5
265
330
1F
100
AcDbEntity
  8
1
370
    13
100
AcDbCircle
 10
218.858853
 20
170.889737
 30
0.0
 40
2.74907072730758
100
AcDbArc
 50
148.935266
 51
192.110485
  0
ARC
  5
266
330
1F
100
AcDbEntity
  8
1
370
    13
100
AcDbCircle
 10
218.876819
 20
170.882171
 30
0.0
 40
2.768366018122465
100
AcDbArc
 50
105.534549
 51
148.992995
  0
ARC
  5
267
330
1F
100
AcDbEntity
  8
1
370
    13
100
AcDbCircle
 10
218.868911
 20
170.916747
 30
0.0
 40
2.732935852618952
100
AcDbArc
 50
61.726285
 51
105.568952
  0
ARC
  5
268
330
1F
100
AcDbEntity
  8
1
370
    13
100
AcDbCircle
 10
218.877176
 20
170.937731
 30
0.0
 40
2.710541839995921
100
AcDbArc
 50
17.580115
 51
61.670032
  0
ARC
  5
269
330
1F
100
AcDbEntity
  8
1
370
    13
100
AcDbCircle
 10
218.844792
 20
170.929409
 30
0.0
 40
2.743926920951334
100
AcDbArc
 50
333.818962
 51
17.541535
  0
ARC
  5
26A
330
1F
100
AcDbEntity
  8
1
370
    13
100
AcDbCircle
 10
218.823974
 20
170.883816
 30
0.0
 40
2.713726713104628
100
AcDbArc
 50
192.142739
 51
221.16654
  0
ARC
  5
26B
330
1F
100
AcDbEntity
  8
1
370
    13
100
AcDbCircle
 10
218.838146
 20
170.921126
 30
0.0
 40
1.810897044393677
100
AcDbArc
 50
118.807772
 51
172.585096
  0
ARC
  5
26C
330
1F
100
AcDbEntity
  8
1
370
    13
100
AcDbCircle
 10
218.832934
 20
170.93718
 30
0.0
 40
1.79432127407501
100
AcDbArc
 50
64.788031
 51
118.908965
  0
ARC
  5
26D
330
1F
100
AcDbEntity
  8
1
370
    13
100
AcDbCircle
 10
218.838537
 20
170.955909
 30
0.0
 40
1.77499167712289
100
AcDbArc
 50
10.165547
 51
64.694136
  0
ARC
  5
26E
330
1F
100
AcDbEntity
  8
1
370
    13
100
AcDbCircle
 10
218.810086
 20
170.952152
 30
0.0
 40
1.803659634673834
100
AcDbArc
 50
316.196847
 51
10.123532
  0
ARC
  5
26F
330
1F
100
AcDbEntity
  8
1
370
    13
100
AcDbCircle
 10
217.429754
 20
169.669177
 30
0.0
 40
0.5927368698133967
100
AcDbArc
 50
5.864467
 51
78.83023
  0
ARC
  5
270
330
1F
100
AcDbEntity
  8
1
370
    13
100
AcDbCircle
 10
220.617057
 20
170.370391
 30
0.0
 40
0.6014682077652016
100
AcDbArc
 50
126.070814
 51
198.309391
  0
ARC
  5
271
330
1F
100
AcDbEntity
  8
1
370
    13
100
AcDbCircle
 10
219.871583
 20
171.175938
 30
0.0
 40
0.595554980721079
100
AcDbArc
 50
335.793891
 51
48.544968
  0
ARC
  5
272
330
1F
100
AcDbEntity
  8
1
370
    13
100
AcDbCircle
 10
220.211813
 20
172.207515
 30
0.0
 40
0.5927368698135467
100
AcDbArc
 50
185.864467
 51
258.83023
  0
ARC
  5
273
330
1F
100
AcDbEntity
  8
1
370
    13
100
AcDbCircle
 10
219.153267
 20
171.963564
 30
0.0
 40
0.5958103068919559
100
AcDbArc
 50
36.213556
 51
108.877373
  0
ARC
  5
274
330
1F
100
AcDbEntity
  8
1
370
    13
100
AcDbCircle
 10
218.420088
 20
172.780518
 30
0.0
 40
0.6017270600777432
100
AcDbArc
 50
246.488543
 51
318.640918
  0
ARC
  5
275
330
1F
100
AcDbEntity
  8
1
370
    13
100
AcDbCircle
 10
218.107551
 20
171.721385
 30
0.0
 40
0.6045668152666838
100
AcDbArc
 50
96.416389
 51
168.358188
  0
ARC
  5
276
330
1F
100
AcDbEntity
  8
1
370
    13
100
AcDbCircle
 10
217.02451
 20
171.506301
 30
0.0
 40
0.6014682077654399
100
AcDbArc
 50
306.070814
 51
18.309391
  0
ARC
  5
277
330
1F
100
AcDbEntity
  8
1
370
    13
100
AcDbCircle
 10
217.769985
 20
170.700754
 30
0.0
 40
0.5955549807209494
100
AcDbArc
 50
155.793891
 51
228.544968
  0
ARC
  5
278
330
1F
100
AcDbEntity
  8
1
370
    13
100
AcDbCircle
 10
218.970029
 20
170.844566
 30
0.0
 40
2.710780328897567
100
AcDbArc
 50
19.68324
 51
44.99667
  0
ARC
  5
279
330
1F
100
AcDbEntity
  8
1
370
    13
100
AcDbCircle
 10
218.940124
 20
170.836148
 30
0.0
 40
2.741774001062179
100
AcDbArc
 50
335.89236
 51
19.638392
  0
ARC
  5
27A
330
1F
100
AcDbEntity
  8
1
370
    13
100
AcDbCircle
 10
219.775168
 20
146.455917
 30
0.0
 40
2.247083110648703
100
AcDbArc
 50
22.479485
 51
49.358614
  0
ARC
  5
27B
330
1F
100
AcDbEntity
  8
1
370
    13
100
AcDbCircle
 10
219.792785
 20
146.464062
 30
0.0
 40
2.227690280617322
100
AcDbArc
 50
333.806935
 51
22.45916
  0
ARC
  5
27C
330
1F
100
AcDbEntity
  8
1
370
    13
100
AcDbCircle
 10
219.772845
 20
146.476265
 30
0.0
 40
2.250970215192551
100
AcDbArc
 50
285.446413
 51
333.752252
  0
ARC
  5
27D
330
1F
100
AcDbEntity
  8
1
370
    13
100
AcDbCircle
 10
219.76524
 20
146.494441
 30
0.0
 40
2.270516785394934
100
AcDbArc
 50
237.489539
 51
285.509233
  0
ARC
  5
27E
330
1F
100
AcDbEntity
  8
1
370
    13
100
AcDbCircle
 10
215.378753
 20
157.327387
 30
0.0
 40
1.212628967809777
100
AcDbArc
 50
285.918068
 51
351.067524
  0
ARC
  5
27F
330
1F
100
AcDbEntity
  8
1
370
    13
100
AcDbCircle
 10
214.30843
 20
174.213695
 30
0.0
 40
0.5372599911404985
100
AcDbArc
 50
124.446519
 51
192.097489
  0
ARC
  5
280
330
1F
100
AcDbEntity
  8
1
370
    13
100
AcDbCircle
 10
218.989103
 20
171.239364
 30
0.0
 40
3.198358072556429
100
AcDbArc
 50
331.427155
 51
11.9051
  0
ARC
  5
281
330
1F
100
AcDbEntity
  8
1
370
    13
100
AcDbCircle
 10
219.074341
 20
171.088786
 30
0.0
 40
3.063440686704547
100
AcDbArc
 50
184.550627
 51
220.540028
  0
ARC
  5
282
330
1F
100
AcDbEntity
  8
1
370
    13
100
AcDbCircle
 10
219.116869
 20
171.091482
 30
0.0
 40
3.106048300751379
100
AcDbArc
 50
143.481011
 51
184.537958
  0
ARC
  5
283
330
1F
100
AcDbEntity
  8
1
370
    13
100
AcDbCircle
 10
219.129158
 20
171.085988
 30
0.0
 40
3.119195330423633
100
AcDbArc
 50
102.595304
 51
143.534259
  0
ARC
  5
284
330
1F
100
AcDbEntity
  8
1
370
    13
100
AcDbCircle
 10
219.126154
 20
171.141062
 30
0.0
 40
3.063071007044037
100
AcDbArc
 50
45.028497
 51
86.477141
  0
ARC
  5
285
330
1F
100
AcDbEntity
  8
1
370
    13
100
AcDbCircle
 10
219.121821
 20
171.142243
 30
0.0
 40
3.065403642912534
100
AcDbArc
 50
0.656549
 51
42.083695
  0
ARC
  5
286
330
1F
100
AcDbEntity
  8
1
370
    13
100
AcDbCircle
 10
218.969971
 20
171.185621
 30
0.0
 40
3.158647351707225
100
AcDbArc
 50
192.144032
 51
221.564247
  0
ARC
  5
287
330
1F
100
AcDbEntity
  8
1
370
    13
100
AcDbCircle
 10
219.018596
 20
171.190184
 30
0.0
 40
3.207890478186743
100
AcDbArc
 50
142.833392
 51
183.229394
  0
ARC
  5
288
330
1F
100
AcDbEntity
  8
1
370
    13
100
AcDbCircle
 10
219.03023
 20
171.184975
 30
0.0
 40
3.220309743600072
100
AcDbArc
 50
102.594735
 51
142.884595
  0
ARC
  5
289
330
1F
100
AcDbEntity
  8
1
370
    13
100
AcDbCircle
 10
219.024659
 20
171.235166
 30
0.0
 40
3.169366200671517
100
AcDbArc
 50
53.029145
 51
93.758877
  0
ARC
  5
28A
330
1F
100
AcDbEntity
  8
1
370
    13
100
AcDbCircle
 10
219.02978
 20
171.246761
 30
0.0
 40
3.157024182303318
100
AcDbArc
 50
12.138726
 51
52.976835
  0
ARC
  5
28B
330
1F
100
AcDbEntity
  8
1
370
    13
100
AcDbCircle
 10
219.751767
 20
146.442485
 30
0.0
 40
1.593438241975217
100
AcDbArc
 50
242.006446
 51
299.465019
  0
ARC
  5
28C
330
1F
100
AcDbEntity
  8
1
370
    13
100
AcDbCircle
 10
219.756359
 20
146.458089
 30
0.0
 40
1.609375033062107
100
AcDbArc
 50
185.06094
 51
242.122842
  0
ARC
  5
28D
330
1F
100
AcDbEntity
  8
1
370
    13
100
AcDbCircle
 10
219.72868
 20
146.456325
 30
0.0
 40
1.581648351689866
100
AcDbArc
 50
127.329302
 51
185.085763
  0
ARC
  5
28E
330
1F
100
AcDbEntity
  8
1
370
    13
100
AcDbCircle
 10
219.730129
 20
146.448119
 30
0.0
 40
1.5890577338166
100
AcDbArc
 50
69.622629
 51
127.191436
  0
ARC
  5
28F
330
1F
100
AcDbEntity
  8
1
370
    13
100
AcDbCircle
 10
219.725062
 20
146.427071
 30
0.0
 40
1.610555232057608
100
AcDbArc
 50
12.681576
 51
69.714373
  0
ARC
  5
290
330
1F
100
AcDbEntity
  8
1
370
    13
100
AcDbCircle
 10
219.75033
 20
146.43104
 30
0.0
 40
1.585032929485935
100
AcDbArc
 50
315.071547
 51
12.7421
  0
ARC
  5
291
330
1F
100
AcDbEntity
  8
1
370
    13
100
AcDbCircle
 10
219.722254
 20
146.395214
 30
0.0
 40
1.979569730745011
100
AcDbArc
 50
262.837921
 51
314.422018
  0
ARC
  5
292
330
1F
100
AcDbEntity
  8
1
370
    13
100
AcDbCircle
 10
219.725371
 20
146.427276
 30
0.0
 40
2.011770604294176
100
AcDbArc
 50
211.850707
 51
262.863693
  0
ARC
  5
293
330
1F
100
AcDbEntity
  8
1
370
    13
100
AcDbCircle
 10
219.711093
 20
146.422214
 30
0.0
 40
1.996973402158337
100
AcDbArc
 50
160.670032
 51
211.9435
  0
ARC
  5
294
330
1F
100
AcDbEntity
  8
1
370
    13
100
AcDbCircle
 10
219.68615
 20
146.428568
 30
0.0
 40
1.971334364500133
100
AcDbArc
 50
108.871609
 51
160.604333
  0
ARC
  5
295
330
1F
100
AcDbEntity
  8
1
370
    13
100
AcDbCircle
 10
219.692447
 20
146.403229
 30
0.0
 40
1.997349370553876
100
AcDbArc
 50
57.540621
 51
108.807429
  0
ARC
  5
296
330
1F
100
AcDbEntity
  8
1
370
    13
100
AcDbCircle
 10
219.68757
 20
146.389439
 30
0.0
 40
2.011604672329446
100
AcDbArc
 50
6.618323
 51
57.634211
  0
ARC
  5
297
330
1F
100
AcDbEntity
  8
1
370
    13
100
AcDbCircle
 10
219.719787
 20
146.392345
 30
0.0
 40
1.979267698928138
100
AcDbArc
 50
315.052738
 51
6.642268
  0
ARC
  5
298
330
1F
100
AcDbEntity
  8
1
370
    13
100
AcDbCircle
 10
219.30608
 20
171.82821
 30
0.0
 40
0.5828897743175504
100
AcDbArc
 50
55.271196
 51
109.603901
  0
ARC
  5
299
330
1F
100
AcDbEntity
  8
1
370
    13
100
AcDbCircle
 10
217.907392
 20
170.549252
 30
0.0
 40
0.5847018606496392
100
AcDbArc
 50
155.154416
 51
212.547436
  0
ARC
  5
29A
330
1F
100
AcDbEntity
  8
1
370
    13
100
AcDbCircle
 10
217.207676
 20
171.342429
 30
0.0
 40
0.5776195027409478
100
AcDbArc
 50
304.324871
 51
20.055334
  0
ARC
  5
29B
330
1F
100
AcDbEntity
  8
1
370
    13
100
AcDbCircle
 10
218.581764
 20
172.594663
 30
0.0
 40
0.5762680750324445
100
AcDbArc
 50
244.621833
 51
320.507627
  0
ARC
  5
29C
330
1F
100
AcDbEntity
  8
1
370
    13
100
AcDbCircle
 10
218.245846
 20
171.584211
 30
0.0
 40
0.5905845240137342
100
AcDbArc
 50
95.425622
 51
169.348955
  0
ARC
  5
29D
330
1F
100
AcDbEntity
  8
1
370
    13
100
AcDbCircle
 10
211.253089
 20
197.431874
 30
0.0
 40
29.54710610886984
100
AcDbArc
 50
252.210306
 51
260.529857
  0
ARC
  5
29E
330
1F
100
AcDbEntity
  8
1
370
    13
100
AcDbCircle
 10
224.865931
 20
237.462014
 30
0.0
 40
71.82595706729245
100
AcDbArc
 50
247.872294
 51
251.626564
  0
ARC
  5
29F
330
1F
100
AcDbEntity
  8
1
370
    13
100
AcDbCircle
 10
206.310947
 20
181.79014
 30
0.0
 40
10.11568971241514
100
AcDbArc
 50
270.456808
 51
283.564006
  0
ARC
  5
2A0
330
1F
100
AcDbEntity
  8
1
370
    13
100
AcDbCircle
 10
206.311361
 20
181.792606
 30
0.0
 40
10.11799045411655
100
AcDbArc
 50
283.558451
 51
300.138983
  0
ARC
  5
2A1
330
1F
100
AcDbEntity
  8
1
370
    13
100
AcDbCircle
 10
221.471329
 20
142.185749
 30
0.0
 40
1.950135408930477
100
AcDbArc
 50
301.130231
 51
336.13068
  0
ARC
  5
2A2
330
1F
100
AcDbEntity
  8
1
370
    13
100
AcDbCircle
 10
221.471489
 20
142.196549
 30
0.0
 40
1.959305204363588
100
AcDbArc
 50
256.42955
 51
300.962944
  0
ARC
  5
2A3
330
1F
100
AcDbEntity
  8
1
370
    13
100
AcDbCircle
 10
219.195787
 20
148.991573
 30
0.0
 40
8.035377736371101
100
AcDbArc
 50
238.23976
 51
256.375155
  0
ARC
  5
2A4
330
1F
100
AcDbEntity
  8
1
370
    13
100
AcDbCircle
 10
211.90481
 20
139.86648
 30
0.0
 40
3.626304039732807
100
AcDbArc
 50
47.352784
 51
63.951725
  0
ARC
  5
2A5
330
1F
100
AcDbEntity
  8
1
370
    13
100
AcDbCircle
 10
212.841043
 20
142.001682
 30
0.0
 40
1.300445208636593
100
AcDbArc
 50
59.696479
 51
86.082731
  0
ARC
  5
2A6
330
1F
100
AcDbEntity
  8
1
370
    13
100
AcDbCircle
 10
213.042222
 20
143.231675
 30
0.0
 40
0.2447227770539417
100
AcDbArc
 50
179.71289
 51
234.984565
  0
ARC
  5
2A7
330
1F
100
AcDbEntity
  8
1
370
    13
100
AcDbCircle
 10
211.413763
 20
141.91506
 30
0.0
 40
1.397077620704749
100
AcDbArc
 50
57.578237
 51
69.769644
  0
ARC
  5
2A8
330
1F
100
AcDbEntity
  8
1
370
    13
100
AcDbCircle
 10
206.310947
 20
134.670869
 30
0.0
 40
10.11568971241759
100
AcDbArc
 50
76.435994
 51
89.543192
  0
ARC
  5
2A9
330
1F
100
AcDbEntity
  8
1
370
    13
100
AcDbCircle
 10
206.311361
 20
134.668402
 30
0.0
 40
10.11799045411424
100
AcDbArc
 50
59.861017
 51
76.441549
  0
ARC
  5
2AA
330
1F
100
AcDbEntity
  8
1
370
    13
100
AcDbCircle
 10
186.311088
 20
170.680519
 30
0.0
 40
0.5000146887353236
100
AcDbArc
 50
211.602687
 51
269.999843
  0
ARC
  5
2AB
330
1F
100
AcDbEntity
  8
1
370
    13
100
AcDbCircle
 10
186.311086
 20
145.780504
 30
0.0
 40
0.5000001591787033
100
AcDbArc
 50
90.000006
 51
138.540035
  0
ARC
  5
2AC
330
1F
100
AcDbEntity
  8
1
370
    13
100
AcDbCircle
 10
186.311055
 20
145.780516
 30
0.0
 40
0.4999682770077528
100
AcDbArc
 50
138.538671
 51
180.001379
  0
ARC
  5
2AD
330
1F
100
AcDbEntity
  8
1
370
    13
100
AcDbCircle
 10
252.12028
 20
175.636262
 30
0.0
 40
30.85776469985763
100
AcDbArc
 50
196.14141
 51
199.124328
  0
ARC
  5
2AE
330
1F
100
AcDbEntity
  8
1
370
    13
100
AcDbCircle
 10
266.803747
 20
179.966502
 30
0.0
 40
46.16629668878064
100
AcDbArc
 50
192.832302
 51
196.237469
  0
ARC
  5
2AF
330
1F
100
AcDbEntity
  8
1
370
    13
100
AcDbCircle
 10
216.462991
 20
172.931173
 30
0.0
 40
3.843021976677357
100
AcDbArc
 50
282.624811
 51
302.32061
  0
ARC
  5
2B0
330
1F
100
AcDbEntity
  8
1
370
    13
100
AcDbCircle
 10
216.472354
 20
172.858626
 30
0.0
 40
3.770188401884928
100
AcDbArc
 50
264.808705
 51
282.726934
  0
ARC
  5
2B1
330
1F
100
AcDbEntity
  8
1
370
    13
100
AcDbCircle
 10
216.411364
 20
172.2895
 30
0.0
 40
3.197892553341004
100
AcDbArc
 50
243.134377
 51
264.974334
  0
ARC
  5
2B2
330
1F
100
AcDbEntity
  8
1
370
    13
100
AcDbCircle
 10
76.000205
 20
139.848748
 30
0.0
 40
150.6414507568359
100
AcDbArc
 50
9.202325
 51
9.787835
  0
ARC
  5
2B3
330
1F
100
AcDbEntity
  8
1
370
    13
100
AcDbCircle
 10
213.801866
 20
162.93566
 30
0.0
 40
0.7879407352899114
100
AcDbArc
 50
50.535554
 51
93.546633
  0
ARC
  5
2B4
330
1F
100
AcDbEntity
  8
1
370
    13
100
AcDbCircle
 10
213.819539
 20
162.755501
 30
0.0
 40
0.9688701891383567
100
AcDbArc
 50
93.930686
 51
132.766494
  0
ARC
  5
2B5
330
1F
100
AcDbEntity
  8
1
370
    13
100
AcDbCircle
 10
213.909798
 20
162.639929
 30
0.0
 40
1.115068660367984
100
AcDbArc
 50
132.13895
 51
168.533808
  0
ARC
  5
2B6
330
1F
100
AcDbEntity
  8
1
370
    13
100
AcDbCircle
 10
213.784006
 20
162.656372
 30
0.0
 40
0.9885583536507003
100
AcDbArc
 50
168.018459
 51
206.821566
  0
ARC
  5
2B7
330
1F
100
AcDbEntity
  8
1
370
    13
100
AcDbCircle
 10
212.166809
 20
160.056811
 30
0.0
 40
0.3017845487580865
100
AcDbArc
 50
90.760635
 51
177.405983
  0
ARC
  5
2B8
330
1F
100
AcDbEntity
  8
1
370
    13
100
AcDbCircle
 10
213.728911
 20
158.95046
 30
0.0
 40
3.464229809356705
100
AcDbArc
 50
230.952746
 51
256.441342
  0
ARC
  5
2B9
330
1F
100
AcDbEntity
  8
1
370
    13
100
AcDbCircle
 10
211.87179
 20
156.681973
 30
0.0
 40
0.5327123816802465
100
AcDbArc
 50
175.977039
 51
232.375943
  0
ARC
  5
2BA
330
1F
100
AcDbEntity
  8
1
370
    13
100
AcDbCircle
 10
211.936911
 20
156.533008
 30
0.0
 40
0.6249466037896717
100
AcDbArc
 50
115.246962
 51
162.652492
  0
ARC
  5
2BB
330
1F
100
AcDbEntity
  8
1
370
    13
100
AcDbCircle
 10
213.324674
 20
153.760378
 30
0.0
 40
3.725346891774413
100
AcDbArc
 50
92.977058
 51
116.363883
  0
ARC
  5
2BC
330
1F
100
AcDbEntity
  8
1
370
    13
100
AcDbCircle
 10
208.43501
 20
178.684734
 30
0.0
 40
10.55397136540934
100
AcDbArc
 50
274.478225
 51
286.268544
  0
ARC
  5
2BD
330
1F
100
AcDbEntity
  8
1
370
    13
100
AcDbCircle
 10
208.335675
 20
179.982379
 30
0.0
 40
11.85541119354383
100
AcDbArc
 50
260.561873
 51
274.46716
  0
ARC
  5
2BE
330
1F
100
AcDbEntity
  8
1
370
    13
100
AcDbCircle
 10
225.017063
 20
154.558541
 30
0.0
 40
1.529206005957406
100
AcDbArc
 50
198.155858
 51
229.927457
  0
ARC
  5
2BF
330
1F
100
AcDbEntity
  8
1
370
    13
100
AcDbCircle
 10
219.754056
 20
146.281633
 30
0.0
 40
2.392485153497344
100
AcDbArc
 50
79.935726
 51
103.032797
  0
ARC
  5
2C0
330
1F
100
AcDbEntity
  8
1
370
    13
100
AcDbCircle
 10
219.757899
 20
146.27727
 30
0.0
 40
2.396114528509754
100
AcDbArc
 50
51.828354
 51
80.044421
  0
ARC
  5
2C1
330
1F
100
AcDbEntity
  8
1
370
    13
100
AcDbCircle
 10
220.300227
 20
143.231373
 30
0.0
 40
6.294638687188324
100
AcDbArc
 50
131.472417
 51
151.792554
  0
ARC
  5
2C2
330
1F
100
AcDbEntity
  8
1
370
    13
100
AcDbCircle
 10
217.510098
 20
146.368183
 30
0.0
 40
2.09655923623033
100
AcDbArc
 50
99.307992
 51
131.111948
  0
ARC
  5
2C3
330
1F
100
AcDbEntity
  8
1
370
    13
100
AcDbCircle
 10
217.321742
 20
147.07087
 30
0.0
 40
1.374558187197528
100
AcDbArc
 50
48.818659
 51
96.296129
  0
ARC
  5
2C4
330
1F
100
AcDbEntity
  8
1
370
    13
100
AcDbCircle
 10
202.876652
 20
129.841597
 30
0.0
 40
19.69904630783718
100
AcDbArc
 50
71.095235
 51
79.721546
  0
ARC
  5
2C5
330
1F
100
AcDbEntity
  8
1
370
    13
100
AcDbCircle
 10
208.445745
 20
164.096148
 30
0.0
 40
14.95369852564817
100
AcDbArc
 50
235.39032
 51
252.603435
  0
ARC
  5
2C6
330
1F
100
AcDbEntity
  8
1
370
    13
100
AcDbCircle
 10
207.909374
 20
163.159526
 30
0.0
 40
13.87846707810707
100
AcDbArc
 50
217.974427
 51
235.016576
  0
ARC
  5
2C7
330
1F
100
AcDbEntity
  8
1
370
    13
100
AcDbCircle
 10
217.614187
 20
147.169081
 30
0.0
 40
2.9885215846975
100
AcDbArc
 50
240.249762
 51
264.022034
  0
ARC
  5
2C8
330
1F
100
AcDbEntity
  8
1
370
    13
100
AcDbCircle
 10
218.185829
 20
148.144082
 30
0.0
 40
4.11869337225503
100
AcDbArc
 50
218.583312
 51
240.076106
  0
ARC
  5
2C9
330
1F
100
AcDbEntity
  8
1
370
    13
100
AcDbCircle
 10
222.94168
 20
142.202167
 30
0.0
 40
0.3309592956150725
100
AcDbArc
 50
241.17024
 51
304.383942
  0
ARC
  5
2CA
330
1F
100
AcDbEntity
  8
1
370
    13
100
AcDbCircle
 10
223.455823
 20
143.052647
 30
0.0
 40
1.324564674287817
100
AcDbArc
 50
207.64098
 51
239.426344
  0
ARC
  5
2CB
330
1F
100
AcDbEntity
  8
1
370
    13
100
AcDbCircle
 10
226.947404
 20
145.100023
 30
0.0
 40
5.370998013115132
100
AcDbArc
 50
196.231198
 51
209.709507
  0
ARC
  5
2CC
330
1F
100
AcDbEntity
  8
1
370
    13
100
AcDbCircle
 10
215.838932
 20
157.311126
 30
0.0
 40
1.156927779414866
100
AcDbArc
 50
223.514039
 51
263.66782
  0
ARC
  5
2CD
330
1F
100
AcDbEntity
  8
1
370
    13
100
AcDbCircle
 10
233.67862
 20
175.120557
 30
0.0
 40
26.36432323950181
100
AcDbArc
 50
222.333431
 51
224.888304
  0
ARC
  5
2CE
330
1F
100
AcDbEntity
  8
1
370
    13
100
AcDbCircle
 10
213.122199
 20
156.409158
 30
0.0
 40
1.432894812824999
100
AcDbArc
 50
41.876992
 51
72.615191
  0
ARC
  5
2CF
330
1F
100
AcDbEntity
  8
1
370
    13
100
AcDbCircle
 10
213.470673
 20
157.444632
 30
0.0
 40
0.3413882732257059
100
AcDbArc
 50
76.506498
 51
173.935934
  0
ARC
  5
2D0
330
1F
100
AcDbEntity
  8
1
370
    13
100
AcDbCircle
 10
223.609239
 20
154.749285
 30
0.0
 40
0.5613227847955061
100
AcDbArc
 50
262.212094
 51
317.784135
  0
ARC
  5
2D1
330
1F
100
AcDbEntity
  8
1
370
    13
100
AcDbCircle
 10
216.69775
 20
163.455316
 30
0.0
 40
8.49648194815828
100
AcDbArc
 50
263.514507
 51
273.843542
  0
ARC
  5
2D2
330
1F
100
AcDbEntity
  8
1
370
    13
100
AcDbCircle
 10
217.391385
 20
170.475098
 30
0.0
 40
15.55003355535043
100
AcDbArc
 50
253.276282
 51
263.896602
  0
ARC
  5
2D3
330
1F
100
AcDbEntity
  8
1
370
    13
100
AcDbCircle
 10
219.741324
 20
146.36927
 30
0.0
 40
2.304246256499232
100
AcDbArc
 50
103.215776
 51
130.079255
  0
ARC
  5
2D4
330
1F
100
AcDbEntity
  8
1
370
    13
100
AcDbCircle
 10
219.441196
 20
146.188033
 30
0.0
 40
1.863718456290791
100
AcDbArc
 50
189.322273
 51
219.091468
  0
ARC
  5
2D5
330
1F
100
AcDbEntity
  8
1
370
    13
100
AcDbCircle
 10
220.304165
 20
146.386717
 30
0.0
 40
2.748050874621045
100
AcDbArc
 50
167.071074
 51
190.495571
  0
ARC
  5
2D6
330
1F
100
AcDbEntity
  8
1
370
    13
100
AcDbCircle
 10
219.739152
 20
146.567628
 30
0.0
 40
2.157461737003127
100
AcDbArc
 50
134.873658
 51
168.39658
  0
ARC
  5
2D7
330
1F
100
AcDbEntity
  8
1
370
    13
100
AcDbCircle
 10
-1868.508052
 20
-174.136956
 30
0.0
 40
2118.009053682589
100
AcDbArc
 50
8.779603
 51
8.821138
  0
ARC
  5
2D8
330
1F
100
AcDbEntity
  8
1
370
    13
100
AcDbCircle
 10
221.689303
 20
148.617582
 30
0.0
 40
3.040317002565609
100
AcDbArc
 50
354.821103
 51
9.956769
  0
ARC
  5
2D9
330
1F
100
AcDbEntity
  8
1
370
    13
100
AcDbCircle
 10
215.639252
 20
155.668489
 30
0.0
 40
0.2779923323184869
100
AcDbArc
 50
171.107526
 51
247.383226
  0
ARC
  5
2DA
330
1F
100
AcDbEntity
  8
1
370
    13
100
AcDbCircle
 10
213.009823
 20
154.058936
 30
0.0
 40
11.79086033516678
100
AcDbArc
 50
349.076968
 51
353.933294
  0
ARC
  5
2DB
330
1F
100
AcDbEntity
  8
1
370
    13
100
AcDbCircle
 10
195.777115
 20
158.458797
 30
0.0
 40
1.200262419522273
100
AcDbArc
 50
166.283384
 51
213.351381
  0
ARC
  5
2DC
330
1F
100
AcDbEntity
  8
1
370
    13
100
AcDbCircle
 10
196.048987
 20
158.280746
 30
0.0
 40
1.510501885082204
100
AcDbArc
 50
125.456376
 51
162.163993
  0
ARC
  5
2DD
330
1F
100
AcDbEntity
  8
1
370
    13
100
AcDbCircle
 10
197.359988
 20
156.441116
 30
0.0
 40
3.769475876718691
100
AcDbArc
 50
95.950959
 51
125.467749
  0
ARC
  5
2DE
330
1F
100
AcDbEntity
  8
1
370
    13
100
AcDbCircle
 10
220.409738
 20
173.149715
 30
0.0
 40
29.87994608882564
100
AcDbArc
 50
210.913865
 51
218.326345
  0
ARC
  5
2DF
330
1F
100
AcDbEntity
  8
1
370
    13
100
AcDbCircle
 10
197.311086
 20
145.780489
 30
0.0
 40
0.5000151888635388
100
AcDbArc
 50
29.039199
 51
89.999911
  0
ARC
  5
2E0
330
1F
100
AcDbEntity
  8
1
370
    13
100
AcDbCircle
 10
197.311156
 20
170.680459
 30
0.0
 40
0.4999300073956853
100
AcDbArc
 50
300.445321
 51
0.005221
  0
ARC
  5
2E1
330
1F
100
AcDbEntity
  8
1
370
    13
100
AcDbCircle
 10
224.361786
 20
167.496351
 30
0.0
 40
1.450014708449715
100
AcDbArc
 50
282.241976
 51
286.994031
  0
ARC
  5
2E2
330
1F
100
AcDbEntity
  8
1
370
    13
100
AcDbCircle
 10
224.367136
 20
167.478529
 30
0.0
 40
1.431407767435952
100
AcDbArc
 50
286.997733
 51
293.122556
  0
ARC
  5
2E3
330
1F
100
AcDbEntity
  8
1
370
    13
100
AcDbCircle
 10
213.418776
 20
175.055859
 30
0.0
 40
1.352215159473632
100
AcDbArc
 50
163.941833
 51
169.394187
  0
ARC
  5
2E4
330
1F
100
AcDbEntity
  8
1
370
    13
100
AcDbCircle
 10
213.397327
 20
175.05986
 30
0.0
 40
1.330396284745786
100
AcDbArc
 50
169.393518
 51
176.420888
  0
ARC
  5
2E5
330
1F
100
AcDbEntity
  8
1
370
    13
100
AcDbCircle
 10
213.555726
 20
174.967648
 30
0.0
 40
1.538480037635022
100
AcDbArc
 50
102.842012
 51
107.411747
  0
ARC
  5
2E6
330
1F
100
AcDbEntity
  8
1
370
    13
100
AcDbCircle
 10
213.537474
 20
175.026749
 30
0.0
 40
1.476625190005305
100
AcDbArc
 50
107.422203
 51
113.497761
  0
ARC
  5
2E7
330
1F
100
AcDbEntity
  8
1
370
    13
100
AcDbCircle
 10
226.120153
 20
151.211076
 30
0.0
 40
27.49889497126859
100
AcDbArc
 50
101.475103
 51
103.393022
  0
ARC
  5
2E8
330
1F
100
AcDbEntity
  8
1
370
    13
100
AcDbCircle
 10
-18159.756277
 20
80565.768131
 30
0.0
 40
82462.14664594372
100
AcDbArc
 50
282.87695
 51
282.878491
  0
ARC
  5
2E9
330
1F
100
AcDbEntity
  8
1
370
    13
100
AcDbCircle
 10
222.771896
 20
176.780568
 30
0.0
 40
1.396536172950045
100
AcDbArc
 50
75.352491
 51
80.434429
  0
ARC
  5
2EA
330
1F
100
AcDbEntity
  8
1
370
    13
100
AcDbCircle
 10
222.773515
 20
176.790156
 30
0.0
 40
1.386811588786574
100
AcDbArc
 50
80.434552
 51
86.944529
  0
ARC
  5
2EB
330
1F
100
AcDbEntity
  8
1
370
    13
100
AcDbCircle
 10
222.775204
 20
176.743555
 30
0.0
 40
1.435261940457776
100
AcDbArc
 50
11.953898
 51
16.887942
  0
ARC
  5
2EC
330
1F
100
AcDbEntity
  8
1
370
    13
100
AcDbCircle
 10
222.794247
 20
176.749244
 30
0.0
 40
1.415387058132557
100
AcDbArc
 50
16.891543
 51
23.272983
  0
ARC
  5
2ED
330
1F
100
AcDbEntity
  8
1
370
    13
100
AcDbCircle
 10
170.970642
 20
158.692769
 30
0.0
 40
55.85735711281342
100
AcDbArc
 50
11.278803
 51
12.219873
  0
ARC
  5
2EE
330
1F
100
AcDbEntity
  8
1
370
    13
100
AcDbCircle
 10
163217.080062
 20
34719.560131
 30
0.0
 40
166612.9385531042
100
AcDbArc
 50
191.966993
 51
191.967751
  0
ARC
  5
2EF
330
1F
100
AcDbEntity
  8
1
370
    13
100
AcDbCircle
 10
224.415377
 20
167.47095
 30
0.0
 40
1.383387545802529
100
AcDbArc
 50
345.180447
 51
350.767843
  0
ARC
  5
2F0
330
1F
100
AcDbEntity
  8
1
370
    13
100
AcDbCircle
 10
224.426235
 20
167.469195
 30
0.0
 40
1.372389231006776
100
AcDbArc
 50
350.767436
 51
357.937708
  0
ARC
  5
2F1
330
1F
100
AcDbEntity
  8
1
370
    13
100
AcDbCircle
 10
223.381684
 20
174.122923
 30
0.0
 40
1.710048477643031
100
AcDbArc
 50
98.816038
 51
116.011902
  0
ARC
  5
2F2
330
1F
100
AcDbEntity
  8
1
370
    13
100
AcDbCircle
 10
215.781885
 20
175.441218
 30
0.0
 40
1.299873123801085
100
AcDbArc
 50
194.833454
 51
204.771218
  0
ARC
  5
2F3
330
1F
100
AcDbEntity
  8
1
370
    13
100
AcDbCircle
 10
223.35562
 20
174.347437
 30
0.0
 40
1.948245598980576
100
AcDbArc
 50
100.084352
 51
115.217913
  0
ARC
  5
2F4
330
1F
100
AcDbEntity
  8
1
370
    13
100
AcDbCircle
 10
216.080769
 20
176.173752
 30
0.0
 40
2.575865378949476
100
AcDbArc
 50
211.47062
 51
215.540188
  0
ARC
  5
2F5
330
1F
100
AcDbEntity
  8
1
370
    13
100
AcDbCircle
 10
226.257441
 20
182.648411
 30
0.0
 40
14.63729758794681
100
AcDbArc
 50
210.477922
 51
212.290481
  0
ARC
  5
2F6
330
1F
100
AcDbEntity
  8
1
370
    13
100
AcDbCircle
 10
216.532637
 20
175.797534
 30
0.0
 40
2.589386686393036
100
AcDbArc
 50
189.767498
 51
202.888065
  0
ARC
  5
2F7
330
1F
100
AcDbEntity
  8
1
370
    13
100
AcDbCircle
 10
242.391023
 20
178.956116
 30
0.0
 40
30.90359141771742
100
AcDbArc
 50
191.120784
 51
192.830578
  0
ARC
  5
2F8
330
1F
100
AcDbEntity
  8
1
370
    13
100
AcDbCircle
 10
-91433.197094
 20
-19927.218298
 30
0.0
 40
93823.6215705944
100
AcDbArc
 50
12.368669
 51
12.37003
  0
ARC
  5
2F9
330
1F
100
AcDbEntity
  8
1
370
    13
100
AcDbCircle
 10
225.385126
 20
162.801222
 30
0.0
 40
3.414057186711927
100
AcDbArc
 50
271.932356
 51
274.220327
  0
ARC
  5
2FA
330
1F
100
AcDbEntity
  8
1
370
    13
100
AcDbCircle
 10
225.604717
 20
159.984035
 30
0.0
 40
0.5884655367432491
100
AcDbArc
 50
273.083707
 51
284.569511
  0
ARC
  5
2FB
330
1F
100
AcDbEntity
  8
1
370
    13
100
AcDbCircle
 10
224.241523
 20
158.889811
 30
0.0
 40
1.459076517140248
100
AcDbArc
 50
354.707041
 51
8.107834
  0
ARC
  5
2FC
330
1F
100
AcDbEntity
  8
1
370
    13
100
AcDbCircle
 10
259.84392
 20
355.846197
 30
0.0
 40
203.1424139720203
100
AcDbArc
 50
256.424405
 51
256.548094
  0
ARC
  5
2FD
330
1F
100
AcDbEntity
  8
1
370
    13
100
AcDbCircle
 10
212.466754
 20
157.98218
 30
0.0
 40
1.057648183880543
100
AcDbArc
 50
94.222611
 51
102.110379
  0
ARC
  5
2FE
330
1F
100
AcDbEntity
  8
1
370
    13
100
AcDbCircle
 10
212.311496
 20
158.671673
 30
0.0
 40
0.350999839604285
100
AcDbArc
 50
100.943085
 51
123.195916
  0
ARC
  5
2FF
330
1F
100
AcDbEntity
  8
1
370
    13
100
AcDbCircle
 10
212.574999
 20
152.640603
 30
0.0
 40
6.403903332219087
100
AcDbArc
 50
86.65438
 51
89.090863
  0
ARC
  5
300
330
1F
100
AcDbEntity
  8
1
370
    13
100
AcDbCircle
 10
212.60762
 20
155.845521
 30
0.0
 40
3.198923449499475
100
AcDbArc
 50
88.764253
 51
93.920948
  0
ARC
  5
301
330
1F
100
AcDbEntity
  8
1
370
    13
100
AcDbCircle
 10
212.799937
 20
155.555514
 30
0.0
 40
3.480093254349875
100
AcDbArc
 50
83.170416
 51
85.13039
  0
ARC
  5
302
330
1F
100
AcDbEntity
  8
1
370
    13
100
AcDbCircle
 10
212.642428
 20
153.750247
 30
0.0
 40
5.29221657397593
100
AcDbArc
 50
85.090394
 51
86.682055
  0
ARC
  5
303
330
1F
100
AcDbEntity
  8
1
370
    13
100
AcDbCircle
 10
221.084624
 20
167.145149
 30
0.0
 40
9.030608706510241
100
AcDbArc
 50
261.505036
 51
267.238015
  0
ARC
  5
304
330
1F
100
AcDbEntity
  8
1
370
    13
100
AcDbCircle
 10
-3066.470231
 20
-26776.663381
 30
0.0
 40
27134.60606351004
100
AcDbArc
 50
83.043941
 51
83.048538
  0
ARC
  5
305
330
1F
100
AcDbEntity
  8
1
370
    13
100
AcDbCircle
 10
223.407512
 20
147.274278
 30
0.0
 40
10.96606546456561
100
AcDbArc
 50
91.476029
 51
92.108929
  0
ARC
  5
306
330
1F
100
AcDbEntity
  8
1
370
    13
100
AcDbCircle
 10
223.379954
 20
147.995932
 30
0.0
 40
10.24388588068593
100
AcDbArc
 50
92.103433
 51
92.97981
  0
ARC
  5
307
330
1F
100
AcDbEntity
  8
1
370
    13
100
AcDbCircle
 10
223.254599
 20
154.382411
 30
0.0
 40
3.857220491831472
100
AcDbArc
 50
83.652462
 51
87.074731
  0
ARC
  5
308
330
1F
100
AcDbEntity
  8
1
370
    13
100
AcDbCircle
 10
223.265736
 20
154.736439
 30
0.0
 40
3.503092487231123
100
AcDbArc
 50
86.961141
 51
92.301802
  0
ARC
  5
309
330
1F
100
AcDbEntity
  8
1
370
    13
100
AcDbCircle
 10
223.670238
 20
156.710111
 30
0.0
 40
1.491155361621461
100
AcDbArc
 50
73.471147
 51
79.35069
  0
ARC
  5
30A
330
1F
100
AcDbEntity
  8
1
370
    13
100
AcDbCircle
 10
223.32325
 20
154.983705
 30
0.0
 40
3.252022994665061
100
AcDbArc
 50
78.963503
 51
83.683333
  0
ARC
  5
30B
330
1F
100
AcDbEntity
  8
1
370
    13
100
AcDbCircle
 10
-2627.503726
 20
-3607.996325
 30
0.0
 40
4723.937795541444
100
AcDbArc
 50
52.845105
 51
52.852965
  0
ARC
  5
30C
330
1F
100
AcDbEntity
  8
1
370
    13
100
AcDbCircle
 10
221.758565
 20
185.257084
 30
0.0
 40
28.42795417991364
100
AcDbArc
 50
256.136871
 51
256.98864
  0
ARC
  5
30D
330
1F
100
AcDbEntity
  8
1
370
    13
100
AcDbCircle
 10
237.063606
 20
250.80988
 30
0.0
 40
95.74367618862921
100
AcDbArc
 50
256.896927
 51
257.316559
  0
ARC
  5
30E
330
1F
100
AcDbEntity
  8
1
370
    13
100
AcDbCircle
 10
218.614874
 20
169.099505
 30
0.0
 40
11.97665233329148
100
AcDbArc
 50
257.593403
 51
269.934905
  0
ARC
  5
30F
330
1F
100
AcDbEntity
  8
1
370
    13
100
AcDbCircle
 10
226.187788
 20
159.533861
 30
0.0
 40
2.810988029561208
100
AcDbArc
 50
155.761574
 51
167.339399
  0
ARC
  5
310
330
1F
100
AcDbEntity
  8
1
370
    13
100
AcDbCircle
 10
223.546139
 20
159.62677
 30
0.0
 40
0.2383400695969201
100
AcDbArc
 50
203.050205
 51
263.960149
  0
ARC
  5
311
330
1F
100
AcDbEntity
  8
1
370
    13
100
AcDbCircle
 10
222.143276
 20
148.726808
 30
0.0
 40
9.820247663963118
100
AcDbArc
 50
80.765701
 51
83.051565
  0
ARC
  5
312
330
1F
100
AcDbEntity
  8
1
370
    13
100
AcDbCircle
 10
223.163522
 20
154.861698
 30
0.0
 40
3.601213421521146
100
AcDbArc
 50
75.546958
 51
81.124403
  0
ARC
  5
313
330
1F
100
AcDbEntity
  8
1
370
    13
100
AcDbCircle
 10
226.961132
 20
160.908461
 30
0.0
 40
4.458419441246582
100
AcDbArc
 50
198.544539
 51
209.112785
  0
ARC
  5
314
330
1F
100
AcDbEntity
  8
1
370
    13
100
AcDbCircle
 10
223.569616
 20
158.979426
 30
0.0
 40
0.5579557174425981
100
AcDbArc
 50
205.49028
 51
244.713771
  0
ARC
  5
315
330
1F
100
AcDbEntity
  8
1
370
    13
100
AcDbCircle
 10
222.851902
 20
159.60621
 30
0.0
 40
0.100590299350192
100
AcDbArc
 50
297.270165
 51
34.747954
  0
ARC
  5
316
330
1F
100
AcDbEntity
  8
1
370
    13
100
AcDbCircle
 10
214.925356
 20
159.576953
 30
0.0
 40
2.172006363858781
100
AcDbArc
 50
119.802213
 51
142.430323
  0
ARC
  5
317
330
1F
100
AcDbEntity
  8
1
370
    13
100
AcDbCircle
 10
222.961788
 20
158.338329
 30
0.0
 40
0.4801201106998274
100
AcDbArc
 50
261.496111
 51
276.301441
  0
ARC
  5
318
330
1F
100
AcDbEntity
  8
1
370
    13
100
AcDbCircle
 10
222.960236
 20
158.327717
 30
0.0
 40
0.4693947421321462
100
AcDbArc
 50
242.361481
 51
261.491934
  0
ARC
  5
319
330
1F
100
AcDbEntity
  8
1
370
    13
100
AcDbCircle
 10
212.514563
 20
156.854628
 30
0.0
 40
2.390426047487919
100
AcDbArc
 50
90.00012
 51
95.892268
  0
ARC
  5
31A
330
1F
100
AcDbEntity
  8
1
370
    13
100
AcDbCircle
 10
212.567413
 20
151.279693
 30
0.0
 40
7.965536907744602
100
AcDbArc
 50
87.00345
 51
90.380191
  0
ARC
  5
31B
330
1F
100
AcDbEntity
  8
1
370
    13
100
AcDbCircle
 10
213.294336
 20
159.286176
 30
0.0
 40
1.046426012342254
100
AcDbArc
 50
161.084767
 51
182.109492
  0
ARC
  5
31C
330
1F
100
AcDbEntity
  8
1
370
    13
100
AcDbCircle
 10
214.825527
 20
158.190782
 30
0.0
 40
0.4837783538288827
100
AcDbArc
 50
255.677451
 51
312.654145
  0
ARC
  5
31D
330
1F
100
AcDbEntity
  8
1
370
    13
100
AcDbCircle
 10
224.371428
 20
157.399596
 30
0.0
 40
1.088752904646189
100
AcDbArc
 50
173.344427
 51
199.484564
  0
ARC
  5
31E
330
1F
100
AcDbEntity
  8
1
370
    13
100
AcDbCircle
 10
214.934197
 20
158.15961
 30
0.0
 40
0.4834541201079129
100
AcDbArc
 50
255.624735
 51
312.691804
  0
ARC
  5
31F
330
1F
100
AcDbEntity
  8
1
370
    13
100
AcDbCircle
 10
215.039478
 20
158.057109
 30
0.0
 40
0.4104218877526435
100
AcDbArc
 50
256.997073
 51
318.268664
  0
ARC
  5
320
330
1F
100
AcDbEntity
  8
1
370
    13
100
AcDbCircle
 10
212.296686
 20
130.664518
 30
0.0
 40
10.44572720070146
100
AcDbArc
 50
85.018142
 51
87.186681
  0
ARC
  5
321
330
1F
100
AcDbEntity
  8
1
370
    13
100
AcDbCircle
 10
212.441341
 20
132.209364
 30
0.0
 40
8.894161043233456
100
AcDbArc
 50
80.914169
 51
85.08226
  0
ARC
  5
322
330
1F
100
AcDbEntity
  8
1
370
    13
100
AcDbCircle
 10
213.03709
 20
141.056437
 30
0.0
 40
0.2658009263459177
100
AcDbArc
 50
175.47386
 51
227.053087
  0
ARC
  5
323
330
1F
100
AcDbEntity
  8
1
370
    13
100
AcDbCircle
 10
213.568917
 20
141.432403
 30
0.0
 40
1.40989476372175
100
AcDbArc
 50
202.797691
 51
245.480997
  0
ARC
  5
324
330
1F
100
AcDbEntity
  8
1
370
    13
100
AcDbCircle
 10
215.232029
 20
143.057401
 30
0.0
 40
1.409931679204417
100
AcDbArc
 50
202.798102
 51
245.480236
  0
ARC
  5
325
330
1F
100
AcDbEntity
  8
1
370
    13
100
AcDbCircle
 10
213.001263
 20
141.056532
 30
0.0
 40
0.7516747298096431
100
AcDbArc
 50
155.054697
 51
193.105115
  0
ARC
  5
326
330
1F
100
AcDbEntity
  8
1
370
    13
100
AcDbCircle
 10
212.677467
 20
141.62797
 30
0.0
 40
0.1920327021233991
100
AcDbArc
 50
206.430052
 51
243.23628
  0
ARC
  5
327
330
1F
100
AcDbEntity
  8
1
370
    13
100
AcDbCircle
 10
221.959589
 20
141.429559
 30
0.0
 40
1.379629165187757
100
AcDbArc
 50
292.465933
 51
335.786053
  0
ARC
  5
328
330
1F
100
AcDbEntity
  8
1
370
    13
100
AcDbCircle
 10
223.413145
 20
139.469307
 30
0.0
 40
1.050969272748799
100
AcDbArc
 50
229.758576
 51
248.612616
  0
ARC
  5
329
330
1F
100
AcDbEntity
  8
1
370
    13
100
AcDbCircle
 10
223.191686
 20
138.87821
 30
0.0
 40
0.4199222501003804
100
AcDbArc
 50
247.337047
 51
289.41778
  0
ARC
  5
32A
330
1F
100
AcDbEntity
  8
1
370
    13
100
AcDbCircle
 10
222.71736
 20
138.981745
 30
0.0
 40
0.2891955636688162
100
AcDbArc
 50
296.462563
 51
322.979972
  0
ARC
  5
32B
330
1F
100
AcDbEntity
  8
1
370
    13
100
AcDbCircle
 10
205.651212
 20
144.806576
 30
0.0
 40
18.59222696279586
100
AcDbArc
 50
341.876732
 51
343.149266
  0
ARC
  5
32C
330
1F
100
AcDbEntity
  8
1
370
    13
100
AcDbCircle
 10
208.917827
 20
143.829334
 30
0.0
 40
15.18259192723531
100
AcDbArc
 50
343.105333
 51
345.61781
  0
ARC
  5
32D
330
1F
100
AcDbEntity
  8
1
370
    13
100
AcDbCircle
 10
223.286432
 20
139.307466
 30
0.0
 40
0.3351171855807563
100
AcDbArc
 50
282.956232
 51
314.438206
  0
ARC
  5
32E
330
1F
100
AcDbEntity
  8
1
370
    13
100
AcDbCircle
 10
222.804071
 20
139.757111
 30
0.0
 40
1.379647255107024
100
AcDbArc
 50
292.46635
 51
335.785907
  0
ARC
  5
32F
330
1F
100
AcDbEntity
  8
1
370
    13
100
AcDbCircle
 10
224.932888
 20
149.260622
 30
0.0
 40
0.7659405667862189
100
AcDbArc
 50
349.793714
 51
20.300212
  0
ARC
  5
330
330
1F
100
AcDbEntity
  8
1
370
    13
100
AcDbCircle
 10
225.239901
 20
148.883675
 30
0.0
 40
0.3820598954179573
100
AcDbArc
 50
24.551418
 51
43.169702
  0
ARC
  5
331
330
1F
100
AcDbEntity
  8
1
370
    13
100
AcDbCircle
 10
222.982473
 20
144.499165
 30
0.0
 40
5.536005762079656
100
AcDbArc
 50
65.072946
 51
68.08643
  0
ARC
  5
332
330
1F
100
AcDbEntity
  8
1
370
    13
100
AcDbCircle
 10
222.826347
 20
144.117595
 30
0.0
 40
5.948273535997282
100
AcDbArc
 50
68.062924
 51
72.826945
  0
ARC
  5
333
330
1F
100
AcDbEntity
  8
1
370
    13
100
AcDbCircle
 10
224.351501
 20
148.980056
 30
0.0
 40
1.409894104086344
100
AcDbArc
 50
22.797596
 51
65.480924
  0
ARC
  5
334
330
1F
100
AcDbEntity
  8
1
370
    13
100
AcDbCircle
 10
213.555726
 20
141.49336
 30
0.0
 40
1.538480037623114
100
AcDbArc
 50
252.588253
 51
257.157988
  0
ARC
  5
335
330
1F
100
AcDbEntity
  8
1
370
    13
100
AcDbCircle
 10
213.537474
 20
141.434259
 30
0.0
 40
1.47662519000481
100
AcDbArc
 50
246.502239
 51
252.577797
  0
ARC
  5
336
330
1F
100
AcDbEntity
  8
1
370
    13
100
AcDbCircle
 10
213.418776
 20
141.405149
 30
0.0
 40
1.352215159479079
100
AcDbArc
 50
190.605813
 51
196.058167
  0
ARC
  5
337
330
1F
100
AcDbEntity
  8
1
370
    13
100
AcDbCircle
 10
213.397327
 20
141.401149
 30
0.0
 40
1.330396284769325
100
AcDbArc
 50
183.579112
 51
190.606482
  0
ARC
  5
338
330
1F
100
AcDbEntity
  8
1
370
    13
100
AcDbCircle
 10
226.120153
 20
165.249933
 30
0.0
 40
27.49889497117707
100
AcDbArc
 50
256.606978
 51
258.524897
  0
ARC
  5
339
330
1F
100
AcDbEntity
  8
1
370
    13
100
AcDbCircle
 10
-18159.756173
 20
-80249.306669
 30
0.0
 40
82462.14617993105
100
AcDbArc
 50
77.121509
 51
77.12305
  0
ARC
  5
33A
330
1F
100
AcDbEntity
  8
1
370
    13
100
AcDbCircle
 10
222.775204
 20
139.717453
 30
0.0
 40
1.435261940442006
100
AcDbArc
 50
343.112058
 51
348.046102
  0
ARC
  5
33B
330
1F
100
AcDbEntity
  8
1
370
    13
100
AcDbCircle
 10
222.794247
 20
139.711764
 30
0.0
 40
1.415387058136916
100
AcDbArc
 50
336.727017
 51
343.108457
  0
ARC
  5
33C
330
1F
100
AcDbEntity
  8
1
370
    13
100
AcDbCircle
 10
222.771896
 20
139.680441
 30
0.0
 40
1.396536172922603
100
AcDbArc
 50
279.565571
 51
284.647509
  0
ARC
  5
33D
330
1F
100
AcDbEntity
  8
1
370
    13
100
AcDbCircle
 10
222.773515
 20
139.670852
 30
0.0
 40
1.386811588803804
100
AcDbArc
 50
273.055471
 51
279.565448
  0
ARC
  5
33E
330
1F
100
AcDbEntity
  8
1
370
    13
100
AcDbCircle
 10
170.970642
 20
157.768239
 30
0.0
 40
55.85735711319106
100
AcDbArc
 50
347.780127
 51
348.721197
  0
ARC
  5
33F
330
1F
100
AcDbEntity
  8
1
370
    13
100
AcDbCircle
 10
163217.080134
 20
-34403.099138
 30
0.0
 40
166612.9386265312
100
AcDbArc
 50
168.032249
 51
168.033007
  0
ARC
  5
340
330
1F
100
AcDbEntity
  8
1
370
    13
100
AcDbCircle
 10
224.660226
 20
149.642347
 30
0.0
 40
0.6792332577916045
100
AcDbArc
 50
65.990107
 51
81.727056
  0
ARC
  5
341
330
1F
100
AcDbEntity
  8
1
370
    13
100
AcDbCircle
 10
224.620567
 20
149.389052
 30
0.0
 40
0.9356036588793386
100
AcDbArc
 50
81.555573
 51
91.13984
  0
ARC
  5
342
330
1F
100
AcDbEntity
  8
1
370
    13
100
AcDbCircle
 10
224.361786
 20
148.964658
 30
0.0
 40
1.450014708444636
100
AcDbArc
 50
73.005969
 51
77.758024
  0
ARC
  5
343
330
1F
100
AcDbEntity
  8
1
370
    13
100
AcDbCircle
 10
224.367136
 20
148.982479
 30
0.0
 40
1.431407767450455
100
AcDbArc
 50
66.877444
 51
73.002267
  0
ARC
  5
344
330
1F
100
AcDbEntity
  8
1
370
    13
100
AcDbCircle
 10
224.415377
 20
148.990059
 30
0.0
 40
1.383387545797822
100
AcDbArc
 50
9.232157
 51
14.819553
  0
ARC
  5
345
330
1F
100
AcDbEntity
  8
1
370
    13
100
AcDbCircle
 10
224.426235
 20
148.991814
 30
0.0
 40
1.372389230999758
100
AcDbArc
 50
2.062292
 51
9.232564
  0
ARC
  5
346
330
1F
100
AcDbEntity
  8
1
370
    13
100
AcDbCircle
 10
467.088137
 20
222.854819
 30
0.0
 40
248.9702603019681
100
AcDbArc
 50
191.883984
 51
192.634631
  0
ARC
  5
347
330
1F
100
AcDbEntity
  8
1
370
    13
100
AcDbCircle
 10
-60703.504906
 20
-12782.574801
 30
0.0
 40
62288.88003970587
100
AcDbArc
 50
12.00336
 51
12.007156
  0
ARC
  5
348
330
1F
100
AcDbEntity
  8
1
370
    13
100
AcDbCircle
 10
223.63108
 20
168.27093
 30
0.0
 40
0.5291846628260767
100
AcDbArc
 50
304.623296
 51
13.714977
  0
ARC
  5
349
330
1F
100
AcDbEntity
  8
1
370
    13
100
AcDbCircle
 10
224.121943
 20
193.056795
 30
0.0
 40
36.56990710161256
100
AcDbArc
 50
254.320181
 51
255.292137
  0
ARC
  5
34A
330
1F
100
AcDbEntity
  8
1
370
    13
100
AcDbCircle
 10
198.383601
 20
101.140517
 30
0.0
 40
58.88200084127957
100
AcDbArc
 50
74.379418
 51
74.974862
  0
ARC
  5
34B
330
1F
100
AcDbEntity
  8
1
370
    13
100
AcDbCircle
 10
202.220197
 20
114.888168
 30
0.0
 40
44.60996611389305
100
AcDbArc
 50
75.156539
 51
76.562215
  0
ARC
  5
34C
330
1F
100
AcDbEntity
  8
1
370
    13
100
AcDbCircle
 10
222.247867
 20
153.12382
 30
0.0
 40
4.818870846570757
100
AcDbArc
 50
85.622882
 51
95.440015
  0
ARC
  5
34D
330
1F
100
AcDbEntity
  8
1
370
    13
100
AcDbCircle
 10
218.36901
 20
168.607814
 30
0.0
 40
11.46126296322122
100
AcDbArc
 50
263.885777
 51
265.908805
  0
ARC
  5
34E
330
1F
100
AcDbEntity
  8
1
370
    13
100
AcDbCircle
 10
218.041343
 20
165.346266
 30
0.0
 40
8.183396481025875
100
AcDbArc
 50
259.508642
 51
263.734633
  0
ARC
  5
34F
330
1F
100
AcDbEntity
  8
1
370
    13
100
AcDbCircle
 10
232.547726
 20
306.017008
 30
0.0
 40
148.6198394062265
100
AcDbArc
 50
263.010326
 51
265.221807
  0
ARC
  5
350
330
1F
100
AcDbEntity
  8
1
370
    13
100
AcDbCircle
 10
225.5489
 20
159.918318
 30
0.0
 40
3.258678412560411
100
AcDbArc
 50
233.40111
 51
243.914791
  0
ARC
  5
351
330
1F
100
AcDbEntity
  8
1
370
    13
100
AcDbCircle
 10
57.023969
 20
-77.457834
 30
0.0
 40
287.8573283089734
100
AcDbArc
 50
54.641075
 51
54.839264
  0
ARC
  5
352
330
1F
100
AcDbEntity
  8
SK1
370
    50
100
AcDbCircle
 10
182.611086
 20
166.880504
 30
0.0
 40
0.3999999999999986
100
AcDbArc
 50
270.0
 51
300.00093
  0
ARC
  5
353
330
1F
100
AcDbEntity
  8
SK1
370
    50
100
AcDbCircle
 10
182.611086
 20
149.580504
 30
0.0
 40
0.3999999999999986
100
AcDbArc
 50
59.99907
 51
90.0
  0
ARC
  5
354
330
1F
100
AcDbEntity
  8
SK1
370
    50
100
AcDbCircle
 10
181.681896
 20
166.880504
 30
0.0
 40
0.4000000000000005
100
AcDbArc
 50
202.024313
 51
270.0
  0
ARC
  5
355
330
1F
100
AcDbEntity
  8
SK1
370
    50
100
AcDbCircle
 10
181.681896
 20
149.580504
 30
0.0
 40
0.4000000000000005
100
AcDbArc
 50
90.0
 51
157.975687
  0
ARC
  5
356
330
1F
100
AcDbEntity
  8
SK1
370
    18
100
AcDbCircle
 10
181.681896
 20
166.880504
 30
0.0
 40
0.4000000000000005
100
AcDbArc
 50
202.024313
 51
270.0
  0
ARC
  5
357
330
1F
100
AcDbEntity
  8
SK1
370
    18
100
AcDbCircle
 10
182.611086
 20
149.580504
 30
0.0
 40
0.3999999999999986
100
AcDbArc
 50
345.0
 51
90.0
  0
ARC
  5
358
330
1F
100
AcDbEntity
  8
SK1
370
    18
100
AcDbCircle
 10
182.611086
 20
166.880504
 30
0.0
 40
0.3999999999999986
100
AcDbArc
 50
270.0
 51
15.0
  0
ARC
  5
359
330
1F
100
AcDbEntity
  8
SK1
370
    18
100
AcDbCircle
 10
181.681896
 20
149.580504
 30
0.0
 40
0.4000000000000005
100
AcDbArc
 50
90.0
 51
157.975687
  0
ARC
  5
35A
330
1F
100
AcDbEntity
  8
NOCUT
370
    13
100
AcDbCircle
 10
182.611086
 20
166.880504
 30
0.0
 40
0.3999999999999986
100
AcDbArc
 50
270.0
 51
15.0
  0
ARC
  5
35B
330
1F
100
AcDbEntity
  8
NOCUT
370
    13
100
AcDbCircle
 10
218.966238
 20
168.205867
 30
0.0
 40
8.0
100
AcDbArc
 50
102.0
 51
120.0
  0
ARC
  5
35C
330
1F
100
AcDbEntity
  8
NOCUT
370
    13
100
AcDbCircle
 10
192.634759
 20
171.730504
 30
0.0
 40
1.0
100
AcDbArc
 50
70.0
 51
90.0
  0
ARC
  5
35D
330
1F
100
AcDbEntity
  8
NOCUT
370
    13
100
AcDbCircle
 10
225.061086
 20
167.12154
 30
0.0
 40
1.6
100
AcDbArc
 50
130.0
 51
180.0
  0
ARC
  5
35E
330
1F
100
AcDbEntity
  8
NOCUT
370
    13
100
AcDbCircle
 10
181.681896
 20
166.880504
 30
0.0
 40
0.4000000000000005
100
AcDbArc
 50
202.024313
 51
270.0
  0
ARC
  5
35F
330
1F
100
AcDbEntity
  8
NOCUT
370
    13
100
AcDbCircle
 10
223.911086
 20
161.813782
 30
0.0
 40
1.6
100
AcDbArc
 50
160.0
 51
180.0
  0
ARC
  5
360
330
1F
100
AcDbEntity
  8
NOCUT
370
    13
100
AcDbCircle
 10
220.662296
 20
174.123347
 30
0.0
 40
3.0
100
AcDbArc
 50
12.0
 51
24.0
  0
ARC
  5
361
330
1F
100
AcDbEntity
  8
NOCUT
370
    13
100
AcDbCircle
 10
223.93469
 20
169.309359
 30
0.0
 40
0.8
100
AcDbArc
 50
310.0
 51
12.0
  0
ARC
  5
362
330
1F
100
AcDbEntity
  8
NOCUT
370
    13
100
AcDbCircle
 10
221.42758
 20
174.863085
 30
0.0
 40
2.0
100
AcDbArc
 50
24.0
 51
102.0
  0
ARC
  5
363
330
1F
100
AcDbEntity
  8
NOCUT
370
    13
100
AcDbCircle
 10
196.96918
 20
179.730504
 30
0.0
 40
8.0
100
AcDbArc
 50
250.0
 51
270.0
  0
ARC
  5
364
330
1F
100
AcDbEntity
  8
NOCUT
370
    13
100
AcDbCircle
 10
206.391596
 20
181.730504
 30
0.0
 40
10.0
100
AcDbArc
 50
270.0
 51
300.0
  0
ARC
  5
365
102
{ACAD_REACTORS
330
3FA
102
}
330
1F
100
AcDbEntity
  8
2
370
    13
100
AcDbCircle
 10
225.811086
 20
169.325713
 30
0.0
 40
20.35435765171252
100
AcDbArc
 50
69.772597
 51
101.967438
  0
ARC
  5
366
102
{ACAD_REACTORS
330
3FA
102
}
330
1F
100
AcDbEntity
  8
2
370
    13
100
AcDbCircle
 10
225.811086
 20
169.325713
 30
0.0
 40
20.35435765171252
100
AcDbArc
 50
101.967438
 51
119.30747
  0
LINE
  5
367
102
{ACAD_REACTORS
330
378
102
}
330
1F
100
AcDbEntity
  8
4
370
    13
100
AcDbLine
 10
186.447458
 20
158.230504
 30
0.0
 11
228.530113
 21
158.230504
 31
0.0
  0
LINE
  5
368
330
1F
100
AcDbEntity
  8
SK4
370
    13
100
AcDbLine
 10
155.811086
 20
158.230504
 30
0.0
 11
185.311086
 21
158.230504
 31
0.0
  0
MTEXT
  5
369
102
{ACAD_REACTORS
330
3FA
102
}
330
1F
100
AcDbEntity
  8
2
370
    18
100
AcDbMText
 10
215.650328
 20
188.021932
 30
0.0
 40
3.0
 41
0.0
 71
     7
 72
     5
  1
\W0.8285;12%%d
  7
iso_b_vert
 11
0.9227691288436091
 21
0.3853532598191001
 31
0.0
 73
     2
 44
0.987952
  0
LINE
  5
36C
102
{ACAD_REACTORS
330
36F
102
}
330
1F
100
AcDbEntity
  8
2
 60
     1
370
    13
100
AcDbLine
 10
221.590493
 20
189.237681
 30
0.0
 11
218.614987
 21
188.053748
 31
0.0
  0
LINE
  5
36D
102
{ACAD_REACTORS
330
36F
102
}
330
1F
100
AcDbEntity
  8
2
 60
     1
370
    13
100
AcDbLine
 10
218.614987
 20
188.053748
 30
0.0
 11
218.409947
 21
188.864207
 31
0.0
  0
LINE
  5
36E
102
{ACAD_REACTORS
330
36F
102
}
330
1F
100
AcDbEntity
  8
2
 60
     1
370
    13
100
AcDbLine
 10
218.409947
 20
188.864207
 30
0.0
 11
221.590493
 21
189.237681
 31
0.0
  0
HATCH
  5
36F
102
{ACAD_REACTORS
330
3FA
102
}
330
1F
100
AcDbEntity
  8
2
370
    13
100
AcDbHatch
 10
0.0
 20
0.0
 30
0.0
210
0.0
220
0.0
230
1.0
  2
ANSI31
 70
     0
 71
     1
 91
        1
 92
        0
 93
        3
 72
     1
 10
221.5904930092751
 20
189.2376811303287
 11
218.614986618162
 21
188.0537477744799
 72
     1
 10
218.614986618162
 20
188.0537477744799
 11
218.4099470154565
 21
188.8642066930879
 72
     1
 10
218.4099470154565
 20
188.8642066930879
 11
221.5904930092751
 21
189.2376811303287
 97
        3
330
36C
330
36D
330
36E
 75
     0
 76
     1
 52
0.0
 41
0.0062
 77
     0
 78
     1
 53
44.99999999999996
 43
0.0
 44
0.0
 45
-0.0139193969876572
 46
0.0139193969876572
 79
     0
 98
        0
  0
LINE
  5
370
102
{ACAD_REACTORS
330
373
102
}
330
1F
100
AcDbEntity
  8
2
 60
     1
370
    13
100
AcDbLine
 10
225.811086
 20
189.680071
 30
0.0
 11
228.999944
 21
189.974218
 31
0.0
  0
LINE
  5
371
102
{ACAD_REACTORS
330
373
102
}
330
1F
100
AcDbEntity
  8
2
 60
     1
370
    13
100
AcDbLine
 10
228.999944
 20
189.974218
 30
0.0
 11
228.96742
 21
189.138858
 31
0.0
  0
LINE
  5
372
102
{ACAD_REACTORS
330
373
102
}
330
1F
100
AcDbEntity
  8
2
 60
     1
370
    13
100
AcDbLine
 10
228.96742
 20
189.138858
 30
0.0
 11
225.811086
 21
189.680071
 31
0.0
  0
HATCH
  5
373
102
{ACAD_REACTORS
330
3FA
102
}
330
1F
100
AcDbEntity
  8
2
370
    13
100
AcDbHatch
 10
0.0
 20
0.0
 30
0.0
210
0.0
220
0.0
230
1.0
  2
ANSI31
 70
     0
 71
     1
 91
        1
 92
        0
 93
        3
 72
     1
 10
225.8110864008226
 20
189.6800708522495
 11
228.9999441493297
 21
189.9742183228023
 72
     1
 10
228.9999441493297
 20
189.9742183228023
 11
228.9674204246272
 21
189.1388578588345
 72
     1
 10
228.9674204246272
 20
189.1388578588345
 11
225.8110864008226
 21
189.6800708522495
 97
        3
330
370
330
371
330
372
 75
     0
 76
     1
 52
0.0
 41
0.0062
 77
     0
 78
     1
 53
44.99999999999995
 43
0.0
 44
0.0
 45
-0.0139193969876572
 46
0.0139193969876572
 79
     0
 98
        0
  0
MTEXT
  5
374
330
1F
100
AcDbEntity
  8
SK6
370
    18
100
AcDbMText
 10
174.099739
 20
126.075369
 30
0.0
 40
3.0
 41
0.0
 71
     7
 72
     5
  1
\W0.7824;40E4R043M16-SSO12-C
  7
iso_b_vert
 73
     2
 44
1.084337
  0
DIMENSION
  5
376
102
{ACAD_REACTORS
330
378
102
}
102
{ACAD_XDICTIONARY
360
377
102
}
330
1F
100
AcDbEntity
  8
2
370
    18
100
AcDbDimension
  2
_U0
 10
241.583781
 20
178.205504
 30
0.0
 11
241.583781
 21
161.185433
 31
0.0
 70
   160
  1
\C254;\H2.25;%%c\H3.00;\C254;40
 71
     1
 42
39.95
 52
90.0
  3
Standard
100
AcDbAlignedDimension
 13
224.73469
 23
158.230504
 33
0.0
 14
225.811086
 24
178.205504
 34
0.0
 50
90.0
100
AcDbRotatedDimension
1001
ACAD
1000
DSTYLE
1002
{
1070
   371
1070
    13
1070
   372
1070
    13
1070
     3
1000

1070
   170
1070
     0
1070
   277
1070
     2
1070
   284
1070
     8
1070
   278
1070
    44
1070
   146
1040
1.0
1070
   345
1005
16
1070
   347
1005
16
1070
   346
1005
16
1070
   344
1005
0
1070
   343
1005
0
1070
   172
1070
     1
1070
    75
1070
     1
1070
   282
1070
     0
1070
    71
1070
     0
1070
   144
1040
2.0
1070
    74
1070
     0
1070
   279
1070
     0
1070
   173
1070
     1
1070
   340
1005
36A
1070
   271
1070
     1
1070
   272
1070
     3
1070
    77
1070
     1
1070
    73
1070
     0
1070
   171
1070
     3
1070
   274
1070
     4
1070
   281
1070
     1
1070
   177
1070
   254
1070
   176
1070
   254
1070
   178
1070
   254
1070
    78
1070
     8
1070
    48
1040
-0.1
1070
    41
1040
3.175
1070
   147
1040
1.5
1070
    42
1040
0.0
1070
    44
1040
2.0
1070
   140
1040
3.0
1002
}
1001
ACAD_DSTYLE_DIM_LINETYPE
1070
   380
1005
16
1001
ACAD_DSTYLE_DIM_EXT1_LINETYPE
1070
   381
1005
16
1001
ACAD_DSTYLE_DIM_EXT2_LINETYPE
1070
   382
1005
16
  0
DIMENSION
  5
38D
102
{ACAD_REACTORS
330
38F
102
}
102
{ACAD_XDICTIONARY
360
38E
102
}
330
1F
100
AcDbEntity
  8
SK2
370
    18
100
AcDbDimension
  2
_U1
 10
146.346517
 20
143.730504
 30
0.0
 11
146.346517
 21
158.230504
 31
0.0
 70
   160
 71
     1
 42
29.0
 52
90.0
  3
Standard
100
AcDbAlignedDimension
 13
183.311086
 23
172.730504
 33
0.0
 14
183.311086
 24
143.730504
 34
0.0
 50
-90.0
100
AcDbRotatedDimension
1001
ACAD
1000
DSTYLE
1002
{
1070
   371
1070
    13
1070
   372
1070
    13
1070
     3
1000
\C95;\H2.25;%%c\H3.00;<>
1070
   170
1070
     0
1070
   144
1040
1.0
1070
   277
1070
     2
1070
   284
1070
     8
1070
   278
1070
    44
1070
   146
1040
1.0
1070
   345
1005
16
1070
   347
1005
16
1070
   346
1005
16
1070
   344
1005
0
1070
   343
1005
0
1070
   172
1070
     1
1070
    76
1070
     0
1070
    75
1070
     0
1070
   282
1070
     0
1070
   281
1070
     0
1070
    71
1070
     0
1070
    74
1070
     0
1070
   279
1070
     0
1070
   173
1070
     1
1070
   340
1005
36A
1070
   271
1070
     3
1070
   272
1070
     3
1070
    77
1070
     1
1070
    73
1070
     0
1070
   171
1070
     3
1070
   274
1070
     4
1070
   177
1070
    95
1070
   176
1070
    95
1070
   178
1070
    95
1070
    78
1070
     8
1070
    48
1040
-0.1
1070
    41
1040
3.175
1070
   147
1040
1.5
1070
    42
1040
0.0
1070
    44
1040
2.0
1070
   140
1040
3.0
1002
}
1001
ACAD_DSTYLE_DIM_LINETYPE
1070
   380
1005
16
1001
ACAD_DSTYLE_DIM_EXT1_LINETYPE
1070
   381
1005
16
1001
ACAD_DSTYLE_DIM_EXT2_LINETYPE
1070
   382
1005
16
  0
DIMENSION
  5
3A6
102
{ACAD_REACTORS
330
3A8
102
}
102
{ACAD_XDICTIONARY
360
3A7
102
}
330
1F
100
AcDbEntity
  8
2
370
    18
100
AcDbDimension
  2
_U2
 10
225.811086
 20
197.548568
 30
0.0
 11
204.311086
 21
197.548568
 31
0.0
 70
   160
 71
     1
 42
43.0
 52
90.0
  3
Standard
100
AcDbAlignedDimension
 13
182.811086
 23
172.230504
 33
0.0
 14
225.811086
 24
179.205504
 34
0.0
100
AcDbRotatedDimension
1001
ACAD
1000
DSTYLE
1002
{
1070
   371
1070
    13
1070
   372
1070
    13
1070
   170
1070
     0
1070
   144
1040
1.0
1070
   277
1070
     2
1070
   284
1070
     8
1070
   278
1070
    44
1070
   146
1040
1.0
1070
   345
1005
16
1070
   347
1005
16
1070
   346
1005
16
1070
   344
1005
0
1070
   343
1005
0
1070
   172
1070
     1
1070
    76
1070
     0
1070
    75
1070
     0
1070
   282
1070
     0
1070
   281
1070
     0
1070
    71
1070
     0
1070
    74
1070
     0
1070
   279
1070
     0
1070
   173
1070
     1
1070
   340
1005
36A
1070
   271
1070
     3
1070
   272
1070
     3
1070
    77
1070
     1
1070
    73
1070
     1
1070
   171
1070
     3
1070
   274
1070
     4
1070
   177
1070
   254
1070
   176
1070
   254
1070
   178
1070
   254
1070
    78
1070
     8
1070
    48
1040
-0.1
1070
    41
1040
3.175
1070
   147
1040
1.5
1070
    42
1040
0.0
1070
    44
1040
2.0
1070
   140
1040
3.0
1002
}
1001
ACAD_DSTYLE_DIM_LINETYPE
1070
   380
1005
16
1001
ACAD_DSTYLE_DIM_EXT1_LINETYPE
1070
   381
1005
16
1001
ACAD_DSTYLE_DIM_EXT2_LINETYPE
1070
   382
1005
16
  0
DIMENSION
  5
3BE
102
{ACAD_REACTORS
330
3C0
102
}
102
{ACAD_XDICTIONARY
360
3BF
102
}
330
1F
100
AcDbEntity
  8
2
370
    18
100
AcDbDimension
  2
_U3
 10
223.921223
 20
184.400889
 30
0.0
 11
239.446801
 21
184.400889
 31
0.0
 70
   160
 71
     1
 42
1.889863
 52
90.0
  3
Standard
100
AcDbAlignedDimension
 13
225.811086
 23
178.205504
 33
0.0
 14
223.921223
 24
177.605008
 34
0.0
100
AcDbRotatedDimension
1001
ACAD
1000
DSTYLE
1002
{
1070
   371
1070
    13
1070
   372
1070
    13
1070
   170
1070
     0
1070
   144
1040
1.0
1070
   277
1070
     2
1070
   284
1070
     8
1070
   278
1070
    44
1070
   146
1040
1.0
1070
   345
1005
16
1070
   347
1005
16
1070
   346
1005
16
1070
   344
1005
0
1070
   343
1005
0
1070
   172
1070
     1
1070
    76
1070
     0
1070
    75
1070
     0
1070
   282
1070
     0
1070
   281
1070
     0
1070
    71
1070
     0
1070
    74
1070
     0
1070
   279
1070
     0
1070
   173
1070
     1
1070
   340
1005
36A
1070
   271
1070
     1
1070
   272
1070
     3
1070
    77
1070
     1
1070
    73
1070
     1
1070
   171
1070
     3
1070
   274
1070
     4
1070
   177
1070
   254
1070
   176
1070
   254
1070
   178
1070
   254
1070
    78
1070
     8
1070
    48
1040
-0.1
1070
    41
1040
3.175
1070
   147
1040
1.5
1070
    42
1040
0.0
1070
    44
1040
2.0
1070
   140
1040
3.0
1002
}
1001
ACAD_DSTYLE_DIM_LINETYPE
1070
   380
1005
16
1001
ACAD_DSTYLE_DIM_EXT1_LINETYPE
1070
   381
1005
16
1001
ACAD_DSTYLE_DIM_EXT2_LINETYPE
1070
   382
1005
16
  0
DIMENSION
  5
3D8
102
{ACAD_REACTORS
330
3DA
102
}
102
{ACAD_XDICTIONARY
360
3D9
102
}
330
1F
100
AcDbEntity
  8
SK2
370
    18
100
AcDbDimension
  2
_U4
 10
153.273199
 20
166.230504
 30
0.0
 11
153.273199
 21
182.271158
 31
0.0
 70
   160
  1
\C95;\H3.00;\Fsimplex.shx;M\Fsimplex.shx;\H3.00;\C95; <> 
 71
     1
 42
16.0
 52
90.0
  3
Standard
100
AcDbAlignedDimension
 13
161.311086
 23
150.230504
 33
0.0
 14
161.311086
 24
166.230504
 34
0.0
 50
90.0
100
AcDbRotatedDimension
1001
ACAD
1000
DSTYLE
1002
{
1070
   371
1070
    13
1070
   372
1070
    13
1070
   170
1070
     0
1070
   144
1040
1.0
1070
   277
1070
     2
1070
   284
1070
     8
1070
   278
1070
    44
1070
   146
1040
1.0
1070
   345
1005
16
1070
   347
1005
16
1070
   346
1005
16
1070
   344
1005
0
1070
   343
1005
0
1070
   172
1070
     1
1070
    76
1070
     0
1070
    75
1070
     0
1070
   282
1070
     0
1070
   281
1070
     0
1070
    71
1070
     0
1070
    74
1070
     0
1070
   279
1070
     0
1070
   173
1070
     1
1070
   340
1005
36A
1070
   271
1070
     3
1070
   272
1070
     3
1070
    77
1070
     1
1070
    73
1070
     0
1070
   171
1070
     3
1070
   274
1070
     4
1070
   177
1070
    95
1070
   176
1070
    95
1070
   178
1070
    95
1070
    78
1070
     8
1070
    48
1040
-0.1
1070
    41
1040
3.175
1070
   147
1040
1.5
1070
    42
1040
0.0
1070
    44
1040
2.0
1070
   140
1040
3.0
1002
}
1001
ACAD_DSTYLE_DIM_LINETYPE
1070
   380
1005
16
1001
ACAD_DSTYLE_DIM_EXT1_LINETYPE
1070
   381
1005
16
1001
ACAD_DSTYLE_DIM_EXT2_LINETYPE
1070
   382
1005
16
  0
ENDSEC
  0
SECTION
  2
OBJECTS
  0
DICTIONARY
  5
C
330
0
100
AcDbDictionary
281
     1
  3
ACAD_DETAILVIEWSTYLE
350
452
  3
ACAD_GROUP
350
D
  3
ACAD_LAYOUT
350
1A
  3
ACAD_MATERIAL
350
43
  3
ACAD_MLEADERSTYLE
350
6B
  3
ACAD_MLINESTYLE
350
17
  3
ACAD_PLOTSETTINGS
350
19
  3
ACAD_PLOTSTYLENAME
350
E
  3
ACAD_SCALELIST
350
47
  3
ACAD_SECTIONVIEWSTYLE
350
453
  3
ACAD_TABLESTYLE
350
69
  3
ACAD_VISUALSTYLE
350
2A
  3
ACDB_RECOMPOSE_DATA
350
44F
  3
AcDbVariableDictionary
350
40F
  0
DICTIONARY
  5
40D
330
8
100
AcDbDictionary
280
     1
281
     1
  3
ACAD_XREC_ROUNDTRIP
360
40E
  0
DICTIONARY
  5
377
330
376
100
AcDbDictionary
280
     1
281
     1
  3
ACAD_DIMASSOC
360
378
  0
DICTIONARY
  5
38E
330
38D
100
AcDbDictionary
280
     1
281
     1
  3
ACAD_DIMASSOC
360
38F
  0
DICTIONARY
  5
3A7
330
3A6
100
AcDbDictionary
280
     1
281
     1
  3
ACAD_DIMASSOC
360
3A8
  0
DICTIONARY
  5
3BF
330
3BE
100
AcDbDictionary
280
     1
281
     1
  3
ACAD_DIMASSOC
360
3C0
  0
DICTIONARY
  5
3D9
330
3D8
100
AcDbDictionary
280
     1
281
     1
  3
ACAD_DIMASSOC
360
3DA
  0
DICTIONARY
  5
452
102
{ACAD_REACTORS
330
C
102
}
330
C
100
AcDbDictionary
281
     1
  0
DICTIONARY
  5
D
102
{ACAD_REACTORS
330
C
102
}
330
C
100
AcDbDictionary
281
     1
  3
ANNOTATION
350
3FA
  0
DICTIONARY
  5
1A
102
{ACAD_REACTORS
330
C
102
}
330
C
100
AcDbDictionary
281
     1
  3
Layout1
350
1E
  3
Layout2
350
26
  3
Model
350
22
  0
DICTIONARY
  5
43
102
{ACAD_REACTORS
330
C
102
}
330
C
100
AcDbDictionary
281
     1
  3
ByBlock
350
45
  3
ByLayer
350
44
  3
Global
350
46
  0
DICTIONARY
  5
6B
102
{ACAD_REACTORS
330
C
102
}
330
C
100
AcDbDictionary
281
     1
  3
Standard
350
6C
  0
DICTIONARY
  5
17
102
{ACAD_REACTORS
330
C
102
}
330
C
100
AcDbDictionary
281
     1
  3
Standard
350
18
  0
DICTIONARY
  5
19
102
{ACAD_REACTORS
330
C
102
}
330
C
100
AcDbDictionary
281
     1
  0
ACDBDICTIONARYWDFLT
  5
E
102
{ACAD_REACTORS
330
C
102
}
330
C
100
AcDbDictionary
281
     1
  3
Normal
350
F
100
AcDbDictionaryWithDefault
340
F
  0
DICTIONARY
  5
47
102
{ACAD_REACTORS
330
C
102
}
330
C
100
AcDbDictionary
281
     1
  3
A0
350
48
  3
A1
350
49
  3
A2
350
4A
  3
A3
350
4B
  3
A4
350
4C
  3
A5
350
4D
  3
A6
350
4E
  3
A7
350
4F
  3
A8
350
50
  3
A9
350
51
  3
B0
350
52
  3
B1
350
53
  3
B2
350
54
  3
B3
350
55
  3
B4
350
56
  3
B5
350
57
  3
B6
350
58
  3
B7
350
59
  3
B8
350
5A
  3
B9
350
5B
  3
C0
350
5C
  3
C1
350
5D
  3
C2
350
5E
  3
C3
350
5F
  3
C4
350
60
  3
C5
350
61
  3
C6
350
62
  3
C7
350
63
  3
C8
350
64
  3
C9
350
65
  3
D0
350
66
  3
D1
350
67
  3
D2
350
68
  0
DICTIONARY
  5
453
102
{ACAD_REACTORS
330
C
102
}
330
C
100
AcDbDictionary
281
     1
  0
DICTIONARY
  5
69
102
{ACAD_REACTORS
330
C
102
}
330
C
100
AcDbDictionary
281
     1
  3
Standard
350
6A
  0
DICTIONARY
  5
2A
102
{ACAD_REACTORS
330
C
102
}
330
C
100
AcDbDictionary
281
     1
  3
2dWireframe
350
2F
  3
Basic
350
32
  3
Brighten
350
36
  3
ColorChange
350
3A
  3
Conceptual
350
34
  3
Dim
350
35
  3
EdgeColorOff
350
3D
  3
Facepattern
350
39
  3
Flat
350
2B
  3
FlatWithEdges
350
2C
  3
Gouraud
350
2D
  3
GouraudWithEdges
350
2E
  3
Hidden
350
31
  3
JitterOff
350
3B
  3
Linepattern
350
38
  3
OverhangOff
350
3C
  3
Realistic
350
33
  3
Shaded
350
42
  3
Shaded with edges
350
41
  3
Shades of Gray
350
3E
  3
Sketchy
350
3F
  3
Thicken
350
37
  3
Wireframe
350
30
  3
X-Ray
350
40
  0
XRECORD
  5
44F
102
{ACAD_REACTORS
330
C
102
}
330
C
100
AcDbXrecord
280
     1
 90
        1
330
6A
  0
DICTIONARY
  5
40F
102
{ACAD_REACTORS
330
C
102
}
330
C
100
AcDbDictionary
281
     1
  3
CANNOSCALE
350
410
  3
CMLEADERSTYLE
350
451
  3
CTABLESTYLE
350
450
  3
MSLTSCALE
350
411
  3
XCLIPFRAME
350
412
  0
XRECORD
  5
40E
102
{ACAD_REACTORS
330
40D
102
}
330
40D
100
AcDbXrecord
280
     1
102
VTR_0.000_0.000_1.000_1.000_VISUALSTYLE
340
2F
102
VTR_0.000_0.000_1.000_1.000_GRIDDISPLAY
 70
     3
102
VTR_0.000_0.000_1.000_1.000_GRIDMAJOR
 70
     5
102
VTR_0.000_0.000_1.000_1.000_DEFAULTLIGHTING
280
     1
102
VTR_0.000_0.000_1.000_1.000_DEFAULTLIGHTINGTYPE
 70
     1
102
VTR_0.000_0.000_1.000_1.000_BRIGHTNESS
141
0.0
102
VTR_0.000_0.000_1.000_1.000_CONTRAST
142
0.0
102
VTR_0.000_0.000_0.500_1.000_VISUALSTYLE
340
2F
102
VTR_0.000_0.000_0.500_1.000_GRIDDISPLAY
 70
     3
102
VTR_0.000_0.000_0.500_1.000_GRIDMAJOR
 70
     5
102
VTR_0.000_0.000_0.500_1.000_DEFAULTLIGHTING
280
     1
102
VTR_0.000_0.000_0.500_1.000_DEFAULTLIGHTINGTYPE
 70
     1
102
VTR_0.000_0.000_0.500_1.000_BRIGHTNESS
141
0.0
102
VTR_0.000_0.000_0.500_1.000_CONTRAST
142
0.0
102
VTR_0.500_0.000_1.000_1.000_VISUALSTYLE
340
2F
102
VTR_0.500_0.000_1.000_1.000_GRIDDISPLAY
 70
     3
102
VTR_0.500_0.000_1.000_1.000_GRIDMAJOR
 70
     5
102
VTR_0.500_0.000_1.000_1.000_DEFAULTLIGHTING
280
     1
102
VTR_0.500_0.000_1.000_1.000_DEFAULTLIGHTINGTYPE
 70
     1
102
VTR_0.500_0.000_1.000_1.000_BRIGHTNESS
141
0.0
102
VTR_0.500_0.000_1.000_1.000_CONTRAST
142
0.0
102
VTR_0.000_0.500_1.000_1.000_VISUALSTYLE
340
2F
102
VTR_0.000_0.500_1.000_1.000_GRIDDISPLAY
 70
     3
102
VTR_0.000_0.500_1.000_1.000_GRIDMAJOR
 70
     5
102
VTR_0.000_0.500_1.000_1.000_DEFAULTLIGHTING
280
     1
102
VTR_0.000_0.500_1.000_1.000_DEFAULTLIGHTINGTYPE
 70
     1
102
VTR_0.000_0.500_1.000_1.000_BRIGHTNESS
141
0.0
102
VTR_0.000_0.500_1.000_1.000_CONTRAST
142
0.0
102
VTR_0.000_0.000_1.000_0.500_VISUALSTYLE
340
2F
102
VTR_0.000_0.000_1.000_0.500_GRIDDISPLAY
 70
     3
102
VTR_0.000_0.000_1.000_0.500_GRIDMAJOR
 70
     5
102
VTR_0.000_0.000_1.000_0.500_DEFAULTLIGHTING
280
     1
102
VTR_0.000_0.000_1.000_0.500_DEFAULTLIGHTINGTYPE
 70
     1
102
VTR_0.000_0.000_1.000_0.500_BRIGHTNESS
141
0.0
102
VTR_0.000_0.000_1.000_0.500_CONTRAST
142
0.0
102
VTR_0.000_0.500_0.500_1.000_VISUALSTYLE
340
2F
102
VTR_0.000_0.500_0.500_1.000_GRIDDISPLAY
 70
     3
102
VTR_0.000_0.500_0.500_1.000_GRIDMAJOR
 70
     5
102
VTR_0.000_0.500_0.500_1.000_DEFAULTLIGHTING
280
     1
102
VTR_0.000_0.500_0.500_1.000_DEFAULTLIGHTINGTYPE
 70
     1
102
VTR_0.000_0.500_0.500_1.000_BRIGHTNESS
141
0.0
102
VTR_0.000_0.500_0.500_1.000_CONTRAST
142
0.0
102
VTR_0.000_0.000_0.500_0.500_VISUALSTYLE
340
2F
102
VTR_0.000_0.000_0.500_0.500_GRIDDISPLAY
 70
     3
102
VTR_0.000_0.000_0.500_0.500_GRIDMAJOR
 70
     5
102
VTR_0.000_0.000_0.500_0.500_DEFAULTLIGHTING
280
     1
102
VTR_0.000_0.000_0.500_0.500_DEFAULTLIGHTINGTYPE
 70
     1
102
VTR_0.000_0.000_0.500_0.500_BRIGHTNESS
141
0.0
102
VTR_0.000_0.000_0.500_0.500_CONTRAST
142
0.0
102
VTR_0.500_0.000_1.000_0.500_VISUALSTYLE
340
2F
102
VTR_0.500_0.000_1.000_0.500_GRIDDISPLAY
 70
     3
102
VTR_0.500_0.000_1.000_0.500_GRIDMAJOR
 70
     5
102
VTR_0.500_0.000_1.000_0.500_DEFAULTLIGHTING
280
     1
102
VTR_0.500_0.000_1.000_0.500_DEFAULTLIGHTINGTYPE
 70
     1
102
VTR_0.500_0.000_1.000_0.500_BRIGHTNESS
141
0.0
102
VTR_0.500_0.000_1.000_0.500_CONTRAST
142
0.0
102
VTR_0.500_0.500_1.000_1.000_VISUALSTYLE
340
2F
102
VTR_0.500_0.500_1.000_1.000_GRIDDISPLAY
 70
     3
102
VTR_0.500_0.500_1.000_1.000_GRIDMAJOR
 70
     5
102
VTR_0.500_0.500_1.000_1.000_DEFAULTLIGHTING
280
     1
102
VTR_0.500_0.500_1.000_1.000_DEFAULTLIGHTINGTYPE
 70
     1
102
VTR_0.500_0.500_1.000_1.000_BRIGHTNESS
141
0.0
102
VTR_0.500_0.500_1.000_1.000_CONTRAST
142
0.0
102
VTR_0.000_0.500_0.333_1.000_VISUALSTYLE
340
2F
102
VTR_0.000_0.500_0.333_1.000_GRIDDISPLAY
 70
     3
102
VTR_0.000_0.500_0.333_1.000_GRIDMAJOR
 70
     5
102
VTR_0.000_0.500_0.333_1.000_DEFAULTLIGHTING
280
     1
102
VTR_0.000_0.500_0.333_1.000_DEFAULTLIGHTINGTYPE
 70
     1
102
VTR_0.000_0.500_0.333_1.000_BRIGHTNESS
141
0.0
102
VTR_0.000_0.500_0.333_1.000_CONTRAST
142
0.0
102
VTR_0.000_0.000_0.333_0.500_VISUALSTYLE
340
2F
102
VTR_0.000_0.000_0.333_0.500_GRIDDISPLAY
 70
     3
102
VTR_0.000_0.000_0.333_0.500_GRIDMAJOR
 70
     5
102
VTR_0.000_0.000_0.333_0.500_DEFAULTLIGHTING
280
     1
102
VTR_0.000_0.000_0.333_0.500_DEFAULTLIGHTINGTYPE
 70
     1
102
VTR_0.000_0.000_0.333_0.500_BRIGHTNESS
141
0.0
102
VTR_0.000_0.000_0.333_0.500_CONTRAST
142
0.0
102
VTR_0.333_0.500_0.667_1.000_VISUALSTYLE
340
2F
102
VTR_0.333_0.500_0.667_1.000_GRIDDISPLAY
 70
     3
102
VTR_0.333_0.500_0.667_1.000_GRIDMAJOR
 70
     5
102
VTR_0.333_0.500_0.667_1.000_DEFAULTLIGHTING
280
     1
102
VTR_0.333_0.500_0.667_1.000_DEFAULTLIGHTINGTYPE
 70
     1
102
VTR_0.333_0.500_0.667_1.000_BRIGHTNESS
141
0.0
102
VTR_0.333_0.500_0.667_1.000_CONTRAST
142
0.0
102
VTR_0.333_0.000_0.667_0.500_VISUALSTYLE
340
2F
102
VTR_0.333_0.000_0.667_0.500_GRIDDISPLAY
 70
     3
102
VTR_0.333_0.000_0.667_0.500_GRIDMAJOR
 70
     5
102
VTR_0.333_0.000_0.667_0.500_DEFAULTLIGHTING
280
     1
102
VTR_0.333_0.000_0.667_0.500_DEFAULTLIGHTINGTYPE
 70
     1
102
VTR_0.333_0.000_0.667_0.500_BRIGHTNESS
141
0.0
102
VTR_0.333_0.000_0.667_0.500_CONTRAST
142
0.0
102
VTR_0.667_0.500_1.000_1.000_VISUALSTYLE
340
2F
102
VTR_0.667_0.500_1.000_1.000_GRIDDISPLAY
 70
     3
102
VTR_0.667_0.500_1.000_1.000_GRIDMAJOR
 70
     5
102
VTR_0.667_0.500_1.000_1.000_DEFAULTLIGHTING
280
     1
102
VTR_0.667_0.500_1.000_1.000_DEFAULTLIGHTINGTYPE
 70
     1
102
VTR_0.667_0.500_1.000_1.000_BRIGHTNESS
141
0.0
102
VTR_0.667_0.500_1.000_1.000_CONTRAST
142
0.0
102
VTR_0.667_0.000_1.000_0.500_VISUALSTYLE
340
2F
102
VTR_0.667_0.000_1.000_0.500_GRIDDISPLAY
 70
     3
102
VTR_0.667_0.000_1.000_0.500_GRIDMAJOR
 70
     5
102
VTR_0.667_0.000_1.000_0.500_DEFAULTLIGHTING
280
     1
102
VTR_0.667_0.000_1.000_0.500_DEFAULTLIGHTINGTYPE
 70
     1
102
VTR_0.667_0.000_1.000_0.500_BRIGHTNESS
141
0.0
102
VTR_0.667_0.000_1.000_0.500_CONTRAST
142
0.0
  0
DIMASSOC
  5
378
102
{ACAD_REACTORS
330
377
102
}
330
377
100
AcDbDimAssoc
330
376
 90
        3
 70
     0
 71
     1
  1
AcDbOsnapPointRef
 72
    10
331
367
 73
     2
 91
        1
 40
38.287232
 10
224.73469
 20
158.230504
 30
0.0
 75
     0
  1
AcDbOsnapPointRef
 72
     2
331
110
 73
     2
 91
        2
 40
1.0
 10
225.811086
 20
178.205504
 30
0.0
 75
     0
  0
DIMASSOC
  5
38F
102
{ACAD_REACTORS
330
38E
102
}
330
38E
100
AcDbDimAssoc
330
38D
 90
        3
 70
     0
 71
     1
  1
AcDbOsnapPointRef
 72
     1
331
10C
 73
     2
 91
        1
 40
1.0
 10
183.311086
 20
172.730504
 30
0.0
 75
     0
  1
AcDbOsnapPointRef
 72
    13
331
10D
 73
     2
 91
        2
 40
0.0
 10
183.311086
 20
143.730504
 30
0.0
 75
     0
  0
DIMASSOC
  5
3A8
102
{ACAD_REACTORS
330
3A7
102
}
330
3A7
100
AcDbDimAssoc
330
3A6
 90
        3
 70
     0
 71
     1
  1
AcDbOsnapPointRef
 72
     1
331
10E
 73
     2
 91
        1
 40
1.0
 10
182.811086
 20
172.230504
 30
0.0
 75
     0
  1
AcDbOsnapPointRef
 72
     1
331
110
 73
     2
 91
        2
 40
1.0
 10
225.811086
 20
179.205504
 30
0.0
 75
     0
  0
DIMASSOC
  5
3C0
102
{ACAD_REACTORS
330
3BF
102
}
330
3BF
100
AcDbDimAssoc
330
3BE
 90
        3
 70
     0
 71
     1
  1
AcDbOsnapPointRef
 72
     2
331
10F
 73
     2
 91
        1
 40
1.0
 10
225.811086
 20
178.205504
 30
0.0
 75
     0
  1
AcDbOsnapPointRef
 72
     4
331
7A
 73
     3
 91
        2
 40
0.0
 10
223.921223
 20
177.605008
 30
0.0
 75
     0
  0
DIMASSOC
  5
3DA
102
{ACAD_REACTORS
330
3D9
102
}
330
3D9
100
AcDbDimAssoc
330
3D8
 90
        3
 70
     0
 71
     1
  1
AcDbOsnapPointRef
 72
    13
331
25C
 73
     2
 91
        1
 40
0.0
 10
161.311086
 20
150.230504
 30
0.0
 75
     0
  1
AcDbOsnapPointRef
 72
     1
331
259
 73
     2
 91
        2
 40
1.0
 10
161.311086
 20
166.230504
 30
0.0
 75
     0
  0
GROUP
  5
3FA
102
{ACAD_REACTORS
330
D
102
}
330
D
100
AcDbGroup
300

 70
     0
 71
     1
340
369
340
25D
340
25E
340
365
340
366
340
36F
340
373
  0
LAYOUT
  5
1E
102
{ACAD_REACTORS
330
1A
102
}
330
1A
100
AcDbPlotSettings
  1

  2
none_device
  4

  6

 40
0.0
 41
0.0
 42
0.0
 43
0.0
 44
0.0
 45
0.0
 46
0.0
 47
0.0
 48
0.0
 49
0.0
140
0.0
141
0.0
142
1.0
143
1.0
 70
   688
 72
     0
 73
     0
 74
     5
  7

 75
    16
 76
     0
 77
     2
 78
   300
147
1.0
148
0.0
149
0.0
100
AcDbLayout
  1
Layout1
 70
     1
 71
     1
 10
-0.5
 20
-0.5
 11
5.0
 21
5.0
 12
0.0
 22
0.0
 32
0.0
 14
-0.5
 24
-0.5
 34
-0.5
 15
5.0
 25
5.0
 35
5.0
146
0.0
 13
0.0
 23
0.0
 33
0.0
 16
1.0
 26
0.0
 36
0.0
 17
0.0
 27
1.0
 37
0.0
 76
     0
330
1B
  0
LAYOUT
  5
26
102
{ACAD_REACTORS
330
1A
102
}
330
1A
100
AcDbPlotSettings
  1

  2
none_device
  4

  6

 40
0.0
 41
0.0
 42
0.0
 43
0.0
 44
0.0
 45
0.0
 46
0.0
 47
0.0
 48
0.0
 49
0.0
140
0.0
141
0.0
142
1.0
143
1.0
 70
   688
 72
     0
 73
     0
 74
     5
  7

 75
    16
 76
     0
 77
     2
 78
   300
147
1.0
148
0.0
149
0.0
100
AcDbLayout
  1
Layout2
 70
     1
 71
     2
 10
0.0
 20
0.0
 11
0.0
 21
0.0
 12
0.0
 22
0.0
 32
0.0
 14
0.0
 24
0.0
 34
0.0
 15
0.0
 25
0.0
 35
0.0
146
0.0
 13
0.0
 23
0.0
 33
0.0
 16
1.0
 26
0.0
 36
0.0
 17
0.0
 27
1.0
 37
0.0
 76
     0
330
23
  0
LAYOUT
  5
22
102
{ACAD_REACTORS
330
1A
102
}
330
1A
100
AcDbPlotSettings
  1

  2
none_device
  4
Letter_(8.50_x_11.00_Inches)
  6

 40
6.35
 41
6.35
 42
6.350005
 43
6.350005
 44
215.9
 45
279.4
 46
0.0
 47
0.0
 48
0.0
 49
0.0
140
0.0
141
0.0
142
1.0
143
1.0
 70
  1712
 72
     0
 73
     0
 74
     0
  7

 75
     0
 76
     0
 77
     2
 78
   300
147
1.0
148
0.0
149
0.0
100
AcDbLayout
  1
Model
 70
     1
 71
     0
 10
-0.5
 20
-0.5
 11
5.0
 21
5.0
 12
0.0
 22
0.0
 32
0.0
 14
-0.5
 24
-0.5
 34
-0.5
 15
5.0
 25
5.0
 35
5.0
146
0.0
 13
0.0
 23
0.0
 33
0.0
 16
1.0
 26
0.0
 36
0.0
 17
0.0
 27
1.0
 37
0.0
 76
     0
330
1F
331
29
  0
MATERIAL
  5
45
102
{ACAD_REACTORS
330
43
102
}
102
{ACAD_XDICTIONARY
360
445
102
}
330
43
100
AcDbMaterial
  1
ByBlock
  0
MATERIAL
  5
44
102
{ACAD_REACTORS
330
43
102
}
102
{ACAD_XDICTIONARY
360
443
102
}
330
43
100
AcDbMaterial
  1
ByLayer
  0
MATERIAL
  5
46
102
{ACAD_REACTORS
330
43
102
}
102
{ACAD_XDICTIONARY
360
447
102
}
330
43
100
AcDbMaterial
  1
Global
  0
MLEADERSTYLE
  5
6C
102
{ACAD_REACTORS
330
6B
102
}
102
{ACAD_XDICTIONARY
360
44D
102
}
330
6B
100
AcDbMLeaderStyle
170
     2
171
     1
172
     0
 90
        2
 40
0.0
 41
0.0
173
     1
 91
-1056964608
340
14
 92
       -2
290
     1
 42
0.09
291
     1
 43
0.36
  3
Standard
341
0
 44
0.18
300

342
11
174
     1
178
     6
175
     1
176
     0
 93
-1056964608
 45
0.18
292
     0
297
     0
 46
0.18
343
0
 94
-1056964608
 47
1.0
 49
1.0
140
1.0
293
     1
141
0.0
294
     1
177
     0
142
1.0
295
     0
296
     0
143
0.125
1001
ACAD_MLEADERVER
1070
     2
  0
MLINESTYLE
  5
18
102
{ACAD_REACTORS
330
17
102
}
330
17
100
AcDbMlineStyle
  2
Standard
 70
     0
  3

 62
   256
 51
90.0
 52
90.0
 71
     2
 49
0.5
 62
   256
  6
BYLAYER
 49
-0.5
 62
   256
  6
BYLAYER
  0
ACDBPLACEHOLDER
  5
F
102
{ACAD_REACTORS
330
E
102
}
330
E
  0
SCALE
  5
48
102
{ACAD_REACTORS
330
47
102
}
330
47
100
AcDbScale
 70
     0
300
1:1
140
1.0
141
1.0
290
     1
  0
SCALE
  5
49
102
{ACAD_REACTORS
330
47
102
}
330
47
100
AcDbScale
 70
     0
300
1:2
140
1.0
141
2.0
290
     0
  0
SCALE
  5
4A
102
{ACAD_REACTORS
330
47
102
}
330
47
100
AcDbScale
 70
     0
300
1:4
140
1.0
141
4.0
290
     0
  0
SCALE
  5
4B
102
{ACAD_REACTORS
330
47
102
}
330
47
100
AcDbScale
 70
     0
300
1:5
140
1.0
141
5.0
290
     0
  0
SCALE
  5
4C
102
{ACAD_REACTORS
330
47
102
}
330
47
100
AcDbScale
 70
     0
300
1:8
140
1.0
141
8.0
290
     0
  0
SCALE
  5
4D
102
{ACAD_REACTORS
330
47
102
}
330
47
100
AcDbScale
 70
     0
300
1:10
140
1.0
141
10.0
290
     0
  0
SCALE
  5
4E
102
{ACAD_REACTORS
330
47
102
}
330
47
100
AcDbScale
 70
     0
300
1:16
140
1.0
141
16.0
290
     0
  0
SCALE
  5
4F
102
{ACAD_REACTORS
330
47
102
}
330
47
100
AcDbScale
 70
     0
300
1:20
140
1.0
141
20.0
290
     0
  0
SCALE
  5
50
102
{ACAD_REACTORS
330
47
102
}
330
47
100
AcDbScale
 70
     0
300
1:30
140
1.0
141
30.0
290
     0
  0
SCALE
  5
51
102
{ACAD_REACTORS
330
47
102
}
330
47
100
AcDbScale
 70
     0
300
1:40
140
1.0
141
40.0
290
     0
  0
SCALE
  5
52
102
{ACAD_REACTORS
330
47
102
}
330
47
100
AcDbScale
 70
     0
300
1:50
140
1.0
141
50.0
290
     0
  0
SCALE
  5
53
102
{ACAD_REACTORS
330
47
102
}
330
47
100
AcDbScale
 70
     0
300
1:100
140
1.0
141
100.0
290
     0
  0
SCALE
  5
54
102
{ACAD_REACTORS
330
47
102
}
330
47
100
AcDbScale
 70
     0
300
2:1
140
2.0
141
1.0
290
     0
  0
SCALE
  5
55
102
{ACAD_REACTORS
330
47
102
}
330
47
100
AcDbScale
 70
     0
300
4:1
140
4.0
141
1.0
290
     0
  0
SCALE
  5
56
102
{ACAD_REACTORS
330
47
102
}
330
47
100
AcDbScale
 70
     0
300
8:1
140
8.0
141
1.0
290
     0
  0
SCALE
  5
57
102
{ACAD_REACTORS
330
47
102
}
330
47
100
AcDbScale
 70
     0
300
10:1
140
10.0
141
1.0
290
     0
  0
SCALE
  5
58
102
{ACAD_REACTORS
330
47
102
}
330
47
100
AcDbScale
 70
     0
300
100:1
140
100.0
141
1.0
290
     0
  0
SCALE
  5
59
102
{ACAD_REACTORS
330
47
102
}
330
47
100
AcDbScale
 70
     0
300
1/128" = 1'-0"
140
0.007812
141
12.0
290
     0
  0
SCALE
  5
5A
102
{ACAD_REACTORS
330
47
102
}
330
47
100
AcDbScale
 70
     0
300
1/64" = 1'-0"
140
0.015625
141
12.0
290
     0
  0
SCALE
  5
5B
102
{ACAD_REACTORS
330
47
102
}
330
47
100
AcDbScale
 70
     0
300
1/32" = 1'-0"
140
0.03125
141
12.0
290
     0
  0
SCALE
  5
5C
102
{ACAD_REACTORS
330
47
102
}
330
47
100
AcDbScale
 70
     0
300
1/16" = 1'-0"
140
0.0625
141
12.0
290
     0
  0
SCALE
  5
5D
102
{ACAD_REACTORS
330
47
102
}
330
47
100
AcDbScale
 70
     0
300
3/32" = 1'-0"
140
0.09375
141
12.0
290
     0
  0
SCALE
  5
5E
102
{ACAD_REACTORS
330
47
102
}
330
47
100
AcDbScale
 70
     0
300
1/8" = 1'-0"
140
0.125
141
12.0
290
     0
  0
SCALE
  5
5F
102
{ACAD_REACTORS
330
47
102
}
330
47
100
AcDbScale
 70
     0
300
3/16" = 1'-0"
140
0.1875
141
12.0
290
     0
  0
SCALE
  5
60
102
{ACAD_REACTORS
330
47
102
}
330
47
100
AcDbScale
 70
     0
300
1/4" = 1'-0"
140
0.25
141
12.0
290
     0
  0
SCALE
  5
61
102
{ACAD_REACTORS
330
47
102
}
330
47
100
AcDbScale
 70
     0
300
3/8" = 1'-0"
140
0.375
141
12.0
290
     0
  0
SCALE
  5
62
102
{ACAD_REACTORS
330
47
102
}
330
47
100
AcDbScale
 70
     0
300
1/2" = 1'-0"
140
0.5
141
12.0
290
     0
  0
SCALE
  5
63
102
{ACAD_REACTORS
330
47
102
}
330
47
100
AcDbScale
 70
     0
300
3/4" = 1'-0"
140
0.75
141
12.0
290
     0
  0
SCALE
  5
64
102
{ACAD_REACTORS
330
47
102
}
330
47
100
AcDbScale
 70
     0
300
1" = 1'-0"
140
1.0
141
12.0
290
     0
  0
SCALE
  5
65
102
{ACAD_REACTORS
330
47
102
}
330
47
100
AcDbScale
 70
     0
300
1-1/2" = 1'-0"
140
1.5
141
12.0
290
     0
  0
SCALE
  5
66
102
{ACAD_REACTORS
330
47
102
}
330
47
100
AcDbScale
 70
     0
300
3" = 1'-0"
140
3.0
141
12.0
290
     0
  0
SCALE
  5
67
102
{ACAD_REACTORS
330
47
102
}
330
47
100
AcDbScale
 70
     0
300
6" = 1'-0"
140
6.0
141
12.0
290
     0
  0
SCALE
  5
68
102
{ACAD_REACTORS
330
47
102
}
330
47
100
AcDbScale
 70
     0
300
1'-0" = 1'-0"
140
12.0
141
12.0
290
     0
  0
TABLESTYLE
  5
6A
102
{ACAD_REACTORS
330
69
102
}
102
{ACAD_XDICTIONARY
360
449
102
}
330
69
100
AcDbTableStyle
  3
Standard
 70
     0
 71
     0
 40
0.06
 41
0.06
280
     0
281
     0
  7
Standard
140
0.18
170
     2
 62
     0
 63
   257
283
     0
274
    -2
284
     1
 64
     0
275
    -2
285
     1
 65
     0
276
    -2
286
     1
 66
     0
277
    -2
287
     1
 67
     0
278
    -2
288
     1
 68
     0
279
    -2
289
     1
 69
     0
  7
Standard
140
0.25
170
     5
 62
     0
 63
   257
283
     0
274
    -2
284
     1
 64
     0
275
    -2
285
     1
 65
     0
276
    -2
286
     1
 66
     0
277
    -2
287
     1
 67
     0
278
    -2
288
     1
 68
     0
279
    -2
289
     1
 69
     0
  7
Standard
140
0.18
170
     5
 62
     0
 63
   257
283
     0
274
    -2
284
     1
 64
     0
275
    -2
285
     1
 65
     0
276
    -2
286
     1
 66
     0
277
    -2
287
     1
 67
     0
278
    -2
288
     1
 68
     0
279
    -2
289
     1
 69
     0
  0
VISUALSTYLE
  5
2F
102
{ACAD_REACTORS
330
2A
102
}
102
{ACAD_XDICTIONARY
360
41B
102
}
330
2A
100
AcDbVisualStyle
  2
2dWireframe
 70
     4
 71
     0
 72
     2
 73
     0
 90
        0
 40
0.6
 41
30.0
 62
     5
 63
     7
421
 16777215
 74
     1
 91
        4
 64
     7
 65
   257
 75
     1
175
     1
 42
1.0
 92
        0
 66
   257
 43
1.0
 76
     1
 77
     6
 78
     2
 67
     7
 79
     5
170
     0
171
     0
290
     0
174
     0
 93
        1
 44
0.0
173
     0
291
     0
 45
0.0
1001
ACAD
1000
AcDbSavedByObjectVersion
1070
     0
  0
VISUALSTYLE
  5
32
102
{ACAD_REACTORS
330
2A
102
}
102
{ACAD_XDICTIONARY
360
421
102
}
330
2A
100
AcDbVisualStyle
  2
Basic
 70
     7
 71
     1
 72
     0
 73
     1
 90
        0
 40
0.6
 41
30.0
 62
     5
 63
     7
421
 16777215
 74
     0
 91
        4
 64
     7
 65
   257
 75
     1
175
     1
 42
1.0
 92
        8
 66
     7
 43
1.0
 76
     1
 77
     6
 78
     2
 67
     7
 79
     5
170
     0
171
     0
290
     0
174
     0
 93
        1
 44
0.0
173
     0
291
     1
 45
0.0
1001
ACAD
1000
AcDbSavedByObjectVersion
1070
     0
  0
VISUALSTYLE
  5
36
102
{ACAD_REACTORS
330
2A
102
}
102
{ACAD_XDICTIONARY
360
429
102
}
330
2A
100
AcDbVisualStyle
  2
Brighten
 70
    12
 71
     2
 72
     2
 73
     0
 90
        0
 40
0.6
 41
30.0
 62
     5
 63
     7
421
 16777215
 74
     1
 91
        4
 64
     7
 65
   257
 75
     1
175
     1
 42
1.0
 92
        8
 66
     7
 43
1.0
 76
     1
 77
     6
 78
     2
 67
     7
 79
     5
170
     0
171
     0
290
     0
174
     0
 93
        1
 44
50.0
173
     0
291
     1
 45
0.0
1001
ACAD
1000
AcDbSavedByObjectVersion
1070
     0
  0
VISUALSTYLE
  5
3A
102
{ACAD_REACTORS
330
2A
102
}
102
{ACAD_XDICTIONARY
360
431
102
}
330
2A
100
AcDbVisualStyle
  2
ColorChange
 70
    16
 71
     2
 72
     2
 73
     3
 90
        0
 40
0.6
 41
30.0
 62
     5
 63
     8
421
  8421504
 74
     1
 91
        4
 64
     7
 65
   257
 75
     1
175
     1
 42
1.0
 92
        8
 66
     8
424
  8421504
 43
1.0
 76
     1
 77
     6
 78
     2
 67
     7
 79
     5
170
     0
171
     0
290
     0
174
     0
 93
        1
 44
0.0
173
     0
291
     1
 45
0.0
1001
ACAD
1000
AcDbSavedByObjectVersion
1070
     0
  0
VISUALSTYLE
  5
34
102
{ACAD_REACTORS
330
2A
102
}
102
{ACAD_XDICTIONARY
360
425
102
}
330
2A
100
AcDbVisualStyle
  2
Conceptual
 70
     9
 71
     3
 72
     2
 73
     0
 90
        0
 40
0.6
 41
30.0
 62
     5
 63
     7
421
 16777215
 74
     2
 91
        2
 64
     7
 65
   257
 75
     1
175
     1
 42
179.0
 92
        8
 66
     7
 43
1.0
 76
     1
 77
     6
 78
     2
 67
     7
 79
     3
170
     0
171
     0
290
     0
174
     0
 93
        1
 44
0.0
173
     0
291
     0
 45
0.0
1001
ACAD
1000
AcDbSavedByObjectVersion
1070
     0
  0
VISUALSTYLE
  5
35
102
{ACAD_REACTORS
330
2A
102
}
102
{ACAD_XDICTIONARY
360
427
102
}
330
2A
100
AcDbVisualStyle
  2
Dim
 70
    11
 71
     2
 72
     2
 73
     0
 90
        0
 40
0.6
 41
30.0
 62
     5
 63
     7
421
 16777215
 74
     1
 91
        4
 64
     7
 65
   257
 75
     1
175
     1
 42
1.0
 92
        8
 66
     7
 43
1.0
 76
     1
 77
     6
 78
     2
 67
     7
 79
     5
170
     0
171
     0
290
     0
174
     0
 93
        1
 44
-50.0
173
     0
291
     1
 45
0.0
1001
ACAD
1000
AcDbSavedByObjectVersion
1070
     0
  0
VISUALSTYLE
  5
3D
102
{ACAD_REACTORS
330
2A
102
}
102
{ACAD_XDICTIONARY
360
437
102
}
330
2A
100
AcDbVisualStyle
  2
EdgeColorOff
 70
    22
 71
     2
 72
     2
 73
     0
 90
        0
 40
0.6
 41
30.0
 62
     5
 63
     7
421
 16777215
 74
     1
 91
        4
 64
     7
 65
   257
 75
     1
175
     1
 42
1.0
 92
        8
 66
     7
 43
1.0
 76
     1
 77
     6
 78
     2
 67
     7
 79
     5
170
     0
171
     0
290
     0
174
     0
 93
        1
 44
0.0
173
     0
291
     1
 45
0.0
1001
ACAD
1000
AcDbSavedByObjectVersion
1070
     0
  0
VISUALSTYLE
  5
39
102
{ACAD_REACTORS
330
2A
102
}
102
{ACAD_XDICTIONARY
360
42F
102
}
330
2A
100
AcDbVisualStyle
  2
Facepattern
 70
    15
 71
     2
 72
     2
 73
     0
 90
        0
 40
0.6
 41
30.0
 62
     5
 63
     7
421
 16777215
 74
     1
 91
        4
 64
     7
 65
   257
 75
     1
175
     1
 42
1.0
 92
        8
 66
     7
 43
1.0
 76
     1
 77
     6
 78
     2
 67
     7
 79
     5
170
     0
171
     0
290
     0
174
     0
 93
        1
 44
0.0
173
     0
291
     1
 45
0.0
1001
ACAD
1000
AcDbSavedByObjectVersion
1070
     0
  0
VISUALSTYLE
  5
2B
102
{ACAD_REACTORS
330
2A
102
}
102
{ACAD_XDICTIONARY
360
413
102
}
330
2A
100
AcDbVisualStyle
  2
Flat
 70
     0
 71
     2
 72
     1
 73
     1
 90
        2
 40
0.6
 41
30.0
 62
     5
 63
     7
421
 16777215
 74
     0
 91
        0
 64
     7
 65
   257
 75
     1
175
     1
 42
1.0
 92
        8
 66
     7
 43
1.0
 76
     1
 77
     6
 78
     2
 67
     7
 79
     5
170
     0
171
     0
290
     0
174
     0
 93
       13
 44
0.0
173
     0
291
     1
 45
0.0
1001
ACAD
1000
AcDbSavedByObjectVersion
1070
     0
  0
VISUALSTYLE
  5
2C
102
{ACAD_REACTORS
330
2A
102
}
102
{ACAD_XDICTIONARY
360
415
102
}
330
2A
100
AcDbVisualStyle
  2
FlatWithEdges
 70
     1
 71
     2
 72
     1
 73
     1
 90
        2
 40
0.6
 41
30.0
 62
     5
 63
     7
421
 16777215
 74
     1
 91
        0
 64
     7
 65
   257
 75
     1
175
     1
 42
1.0
 92
        0
 66
   257
 43
1.0
 76
     1
 77
     6
 78
     2
 67
     7
 79
     5
170
     0
171
     0
290
     0
174
     0
 93
       13
 44
0.0
173
     0
291
     1
 45
0.0
1001
ACAD
1000
AcDbSavedByObjectVersion
1070
     0
  0
VISUALSTYLE
  5
2D
102
{ACAD_REACTORS
330
2A
102
}
102
{ACAD_XDICTIONARY
360
417
102
}
330
2A
100
AcDbVisualStyle
  2
Gouraud
 70
     2
 71
     2
 72
     2
 73
     1
 90
        2
 40
0.6
 41
30.0
 62
     5
 63
     7
421
 16777215
 74
     0
 91
        0
 64
     7
 65
   257
 75
     1
175
     1
 42
1.0
 92
        0
 66
     7
 43
1.0
 76
     1
 77
     6
 78
     2
 67
     7
 79
     5
170
     0
171
     0
290
     0
174
     0
 93
       13
 44
0.0
173
     0
291
     1
 45
0.0
1001
ACAD
1000
AcDbSavedByObjectVersion
1070
     0
  0
VISUALSTYLE
  5
2E
102
{ACAD_REACTORS
330
2A
102
}
102
{ACAD_XDICTIONARY
360
419
102
}
330
2A
100
AcDbVisualStyle
  2
GouraudWithEdges
 70
     3
 71
     2
 72
     2
 73
     1
 90
        2
 40
0.6
 41
30.0
 62
     5
 63
     7
421
 16777215
 74
     1
 91
        0
 64
     7
 65
   257
 75
     1
175
     1
 42
1.0
 92
        0
 66
   257
 43
1.0
 76
     1
 77
     6
 78
     2
 67
     7
 79
     5
170
     0
171
     0
290
     0
174
     0
 93
       13
 44
0.0
173
     0
291
     1
 45
0.0
1001
ACAD
1000
AcDbSavedByObjectVersion
1070
     0
  0
VISUALSTYLE
  5
31
102
{ACAD_REACTORS
330
2A
102
}
102
{ACAD_XDICTIONARY
360
41F
102
}
330
2A
100
AcDbVisualStyle
  2
Hidden
 70
     6
 71
     1
 72
     2
 73
     2
 90
        0
 40
0.6
 41
30.0
 62
     5
 63
     7
421
 16777215
 74
     2
 91
        2
 64
     7
 65
   257
 75
     2
175
     1
 42
40.0
 92
        0
 66
   257
 43
1.0
 76
     1
 77
     6
 78
     2
 67
     7
 79
     3
170
     0
171
     0
290
     0
174
     0
 93
        1
 44
0.0
173
     0
291
     0
 45
0.0
1001
ACAD
1000
AcDbSavedByObjectVersion
1070
     0
  0
VISUALSTYLE
  5
3B
102
{ACAD_REACTORS
330
2A
102
}
102
{ACAD_XDICTIONARY
360
433
102
}
330
2A
100
AcDbVisualStyle
  2
JitterOff
 70
    20
 71
     2
 72
     2
 73
     0
 90
        0
 40
0.6
 41
30.0
 62
     5
 63
     7
421
 16777215
 74
     1
 91
        4
 64
     7
 65
   257
 75
     1
175
     1
 42
1.0
 92
       10
 66
     7
 43
1.0
 76
     1
 77
     6
 78
     2
 67
     7
 79
     5
170
     0
171
     0
290
     0
174
     0
 93
        1
 44
0.0
173
     0
291
     1
 45
0.0
1001
ACAD
1000
AcDbSavedByObjectVersion
1070
     0
  0
VISUALSTYLE
  5
38
102
{ACAD_REACTORS
330
2A
102
}
102
{ACAD_XDICTIONARY
360
42D
102
}
330
2A
100
AcDbVisualStyle
  2
Linepattern
 70
    14
 71
     2
 72
     2
 73
     0
 90
        0
 40
0.6
 41
30.0
 62
     5
 63
     7
421
 16777215
 74
     1
 91
        4
 64
     7
 65
   257
 75
     7
175
     7
 42
1.0
 92
        8
 66
     7
 43
1.0
 76
     1
 77
     6
 78
     2
 67
     7
 79
     5
170
     0
171
     0
290
     0
174
     0
 93
        1
 44
0.0
173
     0
291
     1
 45
0.0
1001
ACAD
1000
AcDbSavedByObjectVersion
1070
     0
  0
VISUALSTYLE
  5
3C
102
{ACAD_REACTORS
330
2A
102
}
102
{ACAD_XDICTIONARY
360
435
102
}
330
2A
100
AcDbVisualStyle
  2
OverhangOff
 70
    21
 71
     2
 72
     2
 73
     0
 90
        0
 40
0.6
 41
30.0
 62
     5
 63
     7
421
 16777215
 74
     1
 91
        4
 64
     7
 65
   257
 75
     1
175
     1
 42
1.0
 92
        9
 66
     7
 43
1.0
 76
     1
 77
     6
 78
     2
 67
     7
 79
     5
170
     0
171
     0
290
     0
174
     0
 93
        1
 44
0.0
173
     0
291
     1
 45
0.0
1001
ACAD
1000
AcDbSavedByObjectVersion
1070
     0
  0
VISUALSTYLE
  5
33
102
{ACAD_REACTORS
330
2A
102
}
102
{ACAD_XDICTIONARY
360
423
102
}
330
2A
100
AcDbVisualStyle
  2
Realistic
 70
     8
 71
     2
 72
     3
 73
     0
 90
        2
 40
0.6
 41
30.0
 62
     5
 63
     7
421
 16777215
 74
     0
 91
        0
 64
     7
 65
   257
 75
     1
175
     1
 42
1.0
 92
        8
 66
   257
 43
1.0
 76
     1
 77
     6
 78
     2
 67
     7
 79
     3
170
     0
171
     0
290
     0
174
     0
 93
       13
 44
0.0
173
     0
291
     0
 45
0.0
1001
ACAD
1000
AcDbSavedByObjectVersion
1070
     0
  0
VISUALSTYLE
  5
42
102
{ACAD_REACTORS
330
2A
102
}
102
{ACAD_XDICTIONARY
360
441
102
}
330
2A
100
AcDbVisualStyle
  2
Shaded
 70
    27
 71
     2
 72
     2
 73
     1
 90
        2
 40
0.6
 41
30.0
 62
     5
 63
     7
421
 16777215
 74
     0
 91
        4
 64
     7
 65
   257
 75
     1
175
     1
 42
1.0
 92
        8
 66
   257
 43
1.0
 76
     1
 77
     6
 78
     2
 67
     8
425
  7895160
 79
     3
170
     0
171
     0
290
     0
174
     0
 93
        5
 44
0.0
173
     0
291
     0
 45
0.0
1001
ACAD
1000
AcDbSavedByObjectVersion
1070
     0
  0
VISUALSTYLE
  5
41
102
{ACAD_REACTORS
330
2A
102
}
102
{ACAD_XDICTIONARY
360
43F
102
}
330
2A
100
AcDbVisualStyle
  2
Shaded with edges
 70
    26
 71
     2
 72
     2
 73
     1
 90
        2
 40
0.6
 41
30.0
 62
     5
 63
     7
421
 16777215
 74
     1
 91
       10
 64
     7
 65
   257
 75
     2
175
     1
 42
1.0
 92
        8
 66
   257
 43
1.0
 76
     1
 77
     6
 78
     2
 67
     7
 79
     3
170
     0
171
     0
290
     0
174
     0
 93
        5
 44
0.0
173
     0
291
     0
 45
0.0
1001
ACAD
1000
AcDbSavedByObjectVersion
1070
     0
  0
VISUALSTYLE
  5
3E
102
{ACAD_REACTORS
330
2A
102
}
102
{ACAD_XDICTIONARY
360
439
102
}
330
2A
100
AcDbVisualStyle
  2
Shades of Gray
 70
    23
 71
     2
 72
     2
 73
     3
 90
        0
 40
0.6
 41
30.0
 62
     5
 63
     7
421
 16777215
 74
     2
 91
        2
 64
     7
 65
     7
 75
     1
175
     1
 42
40.0
 92
        8
 66
     7
 43
1.0
 76
     1
 77
     6
 78
     2
 67
     7
 79
     3
170
     0
171
     0
290
     0
174
     0
 93
        1
 44
0.0
173
     0
291
     0
 45
0.0
1001
ACAD
1000
AcDbSavedByObjectVersion
1070
     0
  0
VISUALSTYLE
  5
3F
102
{ACAD_REACTORS
330
2A
102
}
102
{ACAD_XDICTIONARY
360
43B
102
}
330
2A
100
AcDbVisualStyle
  2
Sketchy
 70
    24
 71
     1
 72
     2
 73
     2
 90
        0
 40
0.6
 41
30.0
 62
     5
 63
     7
421
 16777215
 74
     2
 91
        2
 64
     7
 65
     7
 75
     1
175
     1
 42
40.0
 92
       11
 66
     7
 43
1.0
 76
     1
 77
     6
 78
     2
 67
     7
 79
     6
170
     0
171
     0
290
     0
174
     0
 93
        1
 44
0.0
173
     0
291
     0
 45
0.0
1001
ACAD
1000
AcDbSavedByObjectVersion
1070
     0
  0
VISUALSTYLE
  5
37
102
{ACAD_REACTORS
330
2A
102
}
102
{ACAD_XDICTIONARY
360
42B
102
}
330
2A
100
AcDbVisualStyle
  2
Thicken
 70
    13
 71
     2
 72
     2
 73
     0
 90
        0
 40
0.6
 41
30.0
 62
     5
 63
     7
421
 16777215
 74
     1
 91
        4
 64
     7
 65
   257
 75
     1
175
     1
 42
1.0
 92
       12
 66
     7
 43
1.0
 76
     1
 77
     6
 78
     2
 67
     7
 79
     5
170
     0
171
     0
290
     0
174
     0
 93
        1
 44
0.0
173
     0
291
     1
 45
0.0
1001
ACAD
1000
AcDbSavedByObjectVersion
1070
     0
  0
VISUALSTYLE
  5
30
102
{ACAD_REACTORS
330
2A
102
}
102
{ACAD_XDICTIONARY
360
41D
102
}
330
2A
100
AcDbVisualStyle
  2
Wireframe
 70
     5
 71
     0
 72
     2
 73
     0
 90
        0
 40
0.6
 41
30.0
 62
     5
 63
     7
421
 16777215
 74
     1
 91
        4
 64
     7
 65
   257
 75
     1
175
     1
 42
1.0
 92
        0
 66
   257
 43
1.0
 76
     1
 77
     6
 78
     2
 67
     7
 79
     3
170
     0
171
     0
290
     0
174
     0
 93
        1
 44
0.0
173
     0
291
     0
 45
0.0
1001
ACAD
1000
AcDbSavedByObjectVersion
1070
     0
  0
VISUALSTYLE
  5
40
102
{ACAD_REACTORS
330
2A
102
}
102
{ACAD_XDICTIONARY
360
43D
102
}
330
2A
100
AcDbVisualStyle
  2
X-Ray
 70
    25
 71
     2
 72
     2
 73
     1
 90
        1
 40
0.5
 41
30.0
 62
     5
 63
     7
421
 16777215
 74
     1
 91
        0
 64
     7
 65
   257
 75
     1
175
     1
 42
1.0
 92
        8
 66
     7
 43
1.0
 76
     1
 77
     6
 78
     2
 67
     7
 79
     3
170
     0
171
     0
290
     0
174
     0
 93
       13
 44
0.0
173
     0
291
     0
 45
0.0
1001
ACAD
1000
AcDbSavedByObjectVersion
1070
     0
  0
DICTIONARYVAR
  5
410
102
{ACAD_REACTORS
330
40F
102
}
330
40F
100
DictionaryVariables
280
     0
  1
1:1
  0
DICTIONARYVAR
  5
451
102
{ACAD_REACTORS
330
40F
102
}
330
40F
100
DictionaryVariables
280
     0
  1
Standard
  0
DICTIONARYVAR
  5
450
102
{ACAD_REACTORS
330
40F
102
}
330
40F
100
DictionaryVariables
280
     0
  1
Standard
  0
DICTIONARYVAR
  5
411
102
{ACAD_REACTORS
330
40F
102
}
330
40F
100
DictionaryVariables
280
     0
  1
1
  0
DICTIONARYVAR
  5
412
102
{ACAD_REACTORS
330
40F
102
}
330
40F
100
DictionaryVariables
280
     0
  1
2
  0
DICTIONARY
  5
445
330
45
100
AcDbDictionary
280
     1
281
     1
  3
ACAD_XREC_ROUNDTRIP
360
446
  0
DICTIONARY
  5
443
330
44
100
AcDbDictionary
280
     1
281
     1
  3
ACAD_XREC_ROUNDTRIP
360
444
  0
DICTIONARY
  5
447
330
46
100
AcDbDictionary
280
     1
281
     1
  3
ACAD_XREC_ROUNDTRIP
360
448
  0
DICTIONARY
  5
44D
330
6C
100
AcDbDictionary
280
     1
281
     1
  3
ACAD_XREC_ROUNDTRIP
360
44E
  0
DICTIONARY
  5
449
330
6A
100
AcDbDictionary
280
     1
281
     1
  3
ACAD_ROUNDTRIP_2008_TABLESTYLE_CELLSTYLEMAP
360
44B
  3
ACAD_XREC_ROUNDTRIP
360
44A
  0
DICTIONARY
  5
41B
330
2F
100
AcDbDictionary
280
     1
281
     1
  3
ACAD_XREC_ROUNDTRIP
360
41C
  0
DICTIONARY
  5
421
330
32
100
AcDbDictionary
280
     1
281
     1
  3
ACAD_XREC_ROUNDTRIP
360
422
  0
DICTIONARY
  5
429
330
36
100
AcDbDictionary
280
     1
281
     1
  3
ACAD_XREC_ROUNDTRIP
360
42A
  0
DICTIONARY
  5
431
330
3A
100
AcDbDictionary
280
     1
281
     1
  3
ACAD_XREC_ROUNDTRIP
360
432
  0
DICTIONARY
  5
425
330
34
100
AcDbDictionary
280
     1
281
     1
  3
ACAD_XREC_ROUNDTRIP
360
426
  0
DICTIONARY
  5
427
330
35
100
AcDbDictionary
280
     1
281
     1
  3
ACAD_XREC_ROUNDTRIP
360
428
  0
DICTIONARY
  5
437
330
3D
100
AcDbDictionary
280
     1
281
     1
  3
ACAD_XREC_ROUNDTRIP
360
438
  0
DICTIONARY
  5
42F
330
39
100
AcDbDictionary
280
     1
281
     1
  3
ACAD_XREC_ROUNDTRIP
360
430
  0
DICTIONARY
  5
413
330
2B
100
AcDbDictionary
280
     1
281
     1
  3
ACAD_XREC_ROUNDTRIP
360
414
  0
DICTIONARY
  5
415
330
2C
100
AcDbDictionary
280
     1
281
     1
  3
ACAD_XREC_ROUNDTRIP
360
416
  0
DICTIONARY
  5
417
330
2D
100
AcDbDictionary
280
     1
281
     1
  3
ACAD_XREC_ROUNDTRIP
360
418
  0
DICTIONARY
  5
419
330
2E
100
AcDbDictionary
280
     1
281
     1
  3
ACAD_XREC_ROUNDTRIP
360
41A
  0
DICTIONARY
  5
41F
330
31
100
AcDbDictionary
280
     1
281
     1
  3
ACAD_XREC_ROUNDTRIP
360
420
  0
DICTIONARY
  5
433
330
3B
100
AcDbDictionary
280
     1
281
     1
  3
ACAD_XREC_ROUNDTRIP
360
434
  0
DICTIONARY
  5
42D
330
38
100
AcDbDictionary
280
     1
281
     1
  3
ACAD_XREC_ROUNDTRIP
360
42E
  0
DICTIONARY
  5
435
330
3C
100
AcDbDictionary
280
     1
281
     1
  3
ACAD_XREC_ROUNDTRIP
360
436
  0
DICTIONARY
  5
423
330
33
100
AcDbDictionary
280
     1
281
     1
  3
ACAD_XREC_ROUNDTRIP
360
424
  0
DICTIONARY
  5
441
330
42
100
AcDbDictionary
280
     1
281
     1
  3
ACAD_XREC_ROUNDTRIP
360
442
  0
DICTIONARY
  5
43F
330
41
100
AcDbDictionary
280
     1
281
     1
  3
ACAD_XREC_ROUNDTRIP
360
440
  0
DICTIONARY
  5
439
330
3E
100
AcDbDictionary
280
     1
281
     1
  3
ACAD_XREC_ROUNDTRIP
360
43A
  0
DICTIONARY
  5
43B
330
3F
100
AcDbDictionary
280
     1
281
     1
  3
ACAD_XREC_ROUNDTRIP
360
43C
  0
DICTIONARY
  5
42B
330
37
100
AcDbDictionary
280
     1
281
     1
  3
ACAD_XREC_ROUNDTRIP
360
42C
  0
DICTIONARY
  5
41D
330
30
100
AcDbDictionary
280
     1
281
     1
  3
ACAD_XREC_ROUNDTRIP
360
41E
  0
DICTIONARY
  5
43D
330
40
100
AcDbDictionary
280
     1
281
     1
  3
ACAD_XREC_ROUNDTRIP
360
43E
  0
XRECORD
  5
446
102
{ACAD_REACTORS
330
445
102
}
330
445
100
AcDbXrecord
280
     1
102
MATERIAL
148
0.0
149
0.0
149
0.0
 93
        0
 94
      127
282
     0
 72
     1
 77
     1
171
     1
175
     1
179
     1
273
     0
  0
XRECORD
  5
444
102
{ACAD_REACTORS
330
443
102
}
330
443
100
AcDbXrecord
280
     1
102
MATERIAL
148
0.0
149
0.0
149
0.0
 93
        0
 94
      127
282
     0
 72
     1
 77
     1
171
     1
175
     1
179
     1
273
     0
  0
XRECORD
  5
448
102
{ACAD_REACTORS
330
447
102
}
330
447
100
AcDbXrecord
280
     1
102
MATERIAL
148
0.0
149
0.0
149
0.0
 93
        0
 94
      127
282
     0
 72
     1
 77
     1
171
     1
175
     1
179
     1
273
     0
  0
XRECORD
  5
44E
102
{ACAD_REACTORS
330
44D
102
}
330
44D
100
AcDbXrecord
280
     1
102
ACAD_ROUNDTRIP_2010_MLEADER_STYLE
  0
CELLSTYLEMAP
  5
44B
102
{ACAD_REACTORS
330
449
102
}
330
449
100
AcDbCellStyleMap
 90
        3
300
CELLSTYLE
  1
TABLEFORMAT_BEGIN
 90
        5
170
     1
 91
        0
 92
    32768
 62
   257
 93
        1
300
CONTENTFORMAT
  1
CONTENTFORMAT_BEGIN
 90
        0
 91
        0
 92
        4
 93
        0
300

 40
0.0
140
1.0
 94
        5
 62
     0
340
11
144
0.25
309
CONTENTFORMAT_END
171
     1
301
MARGIN
  1
CELLMARGIN_BEGIN
 40
0.06
 40
0.06
 40
0.06
 40
0.06
 40
0.06
 40
0.06
309
CELLMARGIN_END
 94
        6
 95
        1
302
GRIDFORMAT
  1
GRIDFORMAT_BEGIN
 90
        0
 91
        1
 62
     0
 92
       -2
340
14
 93
        0
 40
0.045
309
GRIDFORMAT_END
 95
        2
302
GRIDFORMAT
  1
GRIDFORMAT_BEGIN
 90
        0
 91
        1
 62
     0
 92
       -2
340
14
 93
        0
 40
0.045
309
GRIDFORMAT_END
 95
        4
302
GRIDFORMAT
  1
GRIDFORMAT_BEGIN
 90
        0
 91
        1
 62
     0
 92
       -2
340
14
 93
        0
 40
0.045
309
GRIDFORMAT_END
 95
        8
302
GRIDFORMAT
  1
GRIDFORMAT_BEGIN
 90
        0
 91
        1
 62
     0
 92
       -2
340
14
 93
        0
 40
0.045
309
GRIDFORMAT_END
 95
       16
302
GRIDFORMAT
  1
GRIDFORMAT_BEGIN
 90
        0
 91
        1
 62
     0
 92
       -2
340
14
 93
        0
 40
0.045
309
GRIDFORMAT_END
 95
       32
302
GRIDFORMAT
  1
GRIDFORMAT_BEGIN
 90
        0
 91
        1
 62
     0
 92
       -2
340
14
 93
        0
 40
0.045
309
GRIDFORMAT_END
309
TABLEFORMAT_END
  1
CELLSTYLE_BEGIN
 90
        1
 91
        1
300
_TITLE
309
CELLSTYLE_END
300
CELLSTYLE
  1
TABLEFORMAT_BEGIN
 90
        5
170
     1
 91
        0
 92
        0
 62
   257
 93
        1
300
CONTENTFORMAT
  1
CONTENTFORMAT_BEGIN
 90
        0
 91
        0
 92
        4
 93
        0
300

 40
0.0
140
1.0
 94
        5
 62
     0
340
11
144
0.18
309
CONTENTFORMAT_END
171
     1
301
MARGIN
  1
CELLMARGIN_BEGIN
 40
0.06
 40
0.06
 40
0.06
 40
0.06
 40
0.06
 40
0.06
309
CELLMARGIN_END
 94
        6
 95
        1
302
GRIDFORMAT
  1
GRIDFORMAT_BEGIN
 90
        0
 91
        1
 62
     0
 92
       -2
340
14
 93
        0
 40
0.045
309
GRIDFORMAT_END
 95
        2
302
GRIDFORMAT
  1
GRIDFORMAT_BEGIN
 90
        0
 91
        1
 62
     0
 92
       -2
340
14
 93
        0
 40
0.045
309
GRIDFORMAT_END
 95
        4
302
GRIDFORMAT
  1
GRIDFORMAT_BEGIN
 90
        0
 91
        1
 62
     0
 92
       -2
340
14
 93
        0
 40
0.045
309
GRIDFORMAT_END
 95
        8
302
GRIDFORMAT
  1
GRIDFORMAT_BEGIN
 90
        0
 91
        1
 62
     0
 92
       -2
340
14
 93
        0
 40
0.045
309
GRIDFORMAT_END
 95
       16
302
GRIDFORMAT
  1
GRIDFORMAT_BEGIN
 90
        0
 91
        1
 62
     0
 92
       -2
340
14
 93
        0
 40
0.045
309
GRIDFORMAT_END
 95
       32
302
GRIDFORMAT
  1
GRIDFORMAT_BEGIN
 90
        0
 91
        1
 62
     0
 92
       -2
340
14
 93
        0
 40
0.045
309
GRIDFORMAT_END
309
TABLEFORMAT_END
  1
CELLSTYLE_BEGIN
 90
        2
 91
        1
300
_HEADER
309
CELLSTYLE_END
300
CELLSTYLE
  1
TABLEFORMAT_BEGIN
 90
        5
170
     1
 91
        0
 92
        0
 62
   257
 93
        1
300
CONTENTFORMAT
  1
CONTENTFORMAT_BEGIN
 90
        0
 91
        0
 92
        4
 93
        0
300

 40
0.0
140
1.0
 94
        2
 62
     0
340
11
144
0.18
309
CONTENTFORMAT_END
171
     1
301
MARGIN
  1
CELLMARGIN_BEGIN
 40
0.06
 40
0.06
 40
0.06
 40
0.06
 40
0.06
 40
0.06
309
CELLMARGIN_END
 94
        6
 95
        1
302
GRIDFORMAT
  1
GRIDFORMAT_BEGIN
 90
        0
 91
        1
 62
     0
 92
       -2
340
14
 93
        0
 40
0.045
309
GRIDFORMAT_END
 95
        2
302
GRIDFORMAT
  1
GRIDFORMAT_BEGIN
 90
        0
 91
        1
 62
     0
 92
       -2
340
14
 93
        0
 40
0.045
309
GRIDFORMAT_END
 95
        4
302
GRIDFORMAT
  1
GRIDFORMAT_BEGIN
 90
        0
 91
        1
 62
     0
 92
       -2
340
14
 93
        0
 40
0.045
309
GRIDFORMAT_END
 95
        8
302
GRIDFORMAT
  1
GRIDFORMAT_BEGIN
 90
        0
 91
        1
 62
     0
 92
       -2
340
14
 93
        0
 40
0.045
309
GRIDFORMAT_END
 95
       16
302
GRIDFORMAT
  1
GRIDFORMAT_BEGIN
 90
        0
 91
        1
 62
     0
 92
       -2
340
14
 93
        0
 40
0.045
309
GRIDFORMAT_END
 95
       32
302
GRIDFORMAT
  1
GRIDFORMAT_BEGIN
 90
        0
 91
        1
 62
     0
 92
       -2
340
14
 93
        0
 40
0.045
309
GRIDFORMAT_END
309
TABLEFORMAT_END
  1
CELLSTYLE_BEGIN
 90
        3
 91
        2
300
_DATA
309
CELLSTYLE_END
  0
XRECORD
  5
44A
102
{ACAD_REACTORS
330
449
102
}
330
449
100
AcDbXrecord
280
     1
102
ACAD_ROUNDTRIP_PRE2007_TABLESTYLE
 90
        4
 91
        0
  1

 92
        4
 93
        0
  2

 94
        4
 95
        0
  3

  0
XRECORD
  5
41C
102
{ACAD_REACTORS
330
41B
102
}
330
41B
100
AcDbXrecord
280
     1
102
RTVSPropertyOp0
 70
     1
102
RTVSPropertyOp1
 70
     1
102
RTVSPropertyOp2
 70
     1
102
RTVSPropertyOp3
 70
     1
102
RTVSPropertyOp4
 70
     1
102
RTVSPropertyOp5
 70
     1
102
RTVSPropertyOp6
 70
     1
102
RTVSPropertyOp7
 70
     1
102
RTVSPropertyOp8
 70
     1
102
RTVSPropertyOp9
 70
     1
102
RTVSPropertyOp10
 70
     1
102
RTVSPropertyOp11
 70
     1
102
RTVSPropertyOp12
 70
     1
102
RTVSPropertyOp13
 70
     1
102
RTVSPropertyOp14
 70
     1
102
RTVSPropertyOp15
 70
     1
102
RTVSPropertyOp16
 70
     1
102
RTVSPropertyOp17
 70
     1
102
RTVSPropertyOp18
 70
     1
102
RTVSPropertyOp19
 70
     1
102
RTVSPropertyOp20
 70
     1
102
RTVSPropertyOp21
 70
     1
102
RTVSPropertyOp22
 70
     1
102
RTVSPropertyOp23
 70
     1
102
RTVSPropertyOp24
 70
     1
102
RTVSPropertyOp25
 70
     1
102
RTVSPropertyOp26
 70
     1
102
RTVSPropertyOp27
 70
     1
102
RTVSPropertyOp28
 70
     1
102
RTVSPropertyOp29
 70
     1
102
RTVSPropertyOp30
 70
     1
102
RTVSPropertyOp31
 70
     1
102
RTVSPropertyOp32
 70
     1
102
RTVSPropertyOp33
 70
     1
102
RTVSPropertyOp34
 70
     1
102
RTVSPropertyOp35
 70
     1
102
RTVSPropertyOp36
 70
     1
102
RTVSPropertyOp37
 70
     1
102
RTVSPropertyOp38
 70
     1
102
RTVSPropertyOp39
 70
     1
102
RTVSPropertyOp40
 70
     1
102
RTVSPropertyOp41
 70
     1
102
RTVSPropertyOp42
 70
     1
102
RTVSPropertyOp43
 70
     1
102
RTVSPropertyOp44
 70
     1
102
RTVSPropertyOp45
 70
     1
102
RTVSPropertyOp46
 70
     1
102
RTVSPropertyOp47
 70
     1
102
RTVSPropertyOp48
 70
     1
102
RTVSPropertyOp49
 70
     1
102
RTVSPropertyOp50
 70
     1
102
RTVSPropertyOp51
 70
     0
102
RTVSPropertyOp52
 70
     0
102
RTVSPropertyOp53
 70
     1
102
RTVSPropertyOp54
 70
     1
102
RTVSPropertyOp55
 70
     1
102
RTVSPropertyOp56
 70
     1
102
RTVSPropertyOp57
 70
     1
102
RTVSPost2010Prop28
280
     1
102
RTVSPost2010PropOp28
 70
     1
102
RTVSPost2010Prop29
280
     1
102
RTVSPost2010PropOp29
 70
     1
102
RTVSPost2010Prop30
280
     0
102
RTVSPost2010PropOp30
 70
     1
102
RTVSPost2010Prop31
280
     0
102
RTVSPost2010PropOp31
 70
     1
102
RTVSPost2010Prop32
280
     0
102
RTVSPost2010PropOp32
 70
     1
102
RTVSPost2010Prop33
280
     0
102
RTVSPost2010PropOp33
 70
     1
102
RTVSPost2010Prop34
280
     0
102
RTVSPost2010PropOp34
 70
     1
102
RTVSPost2010Prop35
280
     0
102
RTVSPost2010PropOp35
 70
     1
102
RTVSPost2010Prop36
280
     0
102
RTVSPost2010PropOp36
 70
     1
102
RTVSPost2010Prop37
 90
       50
102
RTVSPost2010PropOp37
 70
     1
102
RTVSPost2010Prop38
140
0.0
102
RTVSPost2010PropOp38
 70
     1
102
RTVSPost2010Prop39
140
1.0
102
RTVSPost2010PropOp39
 70
     1
102
RTVSPost2010Prop40
 90
        0
102
RTVSPost2010PropOp40
 70
     1
102
RTVSPost2010Prop41ColorIndex
 90
       18
102
RTVSPost2010Prop41ColorRGB
 90
        0
102
RTVSPost2010PropOp41
 70
     1
102
RTVSPost2010Prop42
 90
       50
102
RTVSPost2010PropOp42
 70
     1
102
RTVSPost2010Prop43
 90
        3
102
RTVSPost2010PropOp43
 70
     1
102
RTVSPost2010Prop44ColorIndex
 90
        5
102
RTVSPost2010Prop44ColorRGB
 90
      255
102
RTVSPost2010PropOp44
 70
     1
102
RTVSPost2010Prop45
280
     0
102
RTVSPost2010PropOp45
 70
     1
102
RTVSPost2010Prop46
 90
       50
102
RTVSPost2010PropOp46
 70
     1
102
RTVSPost2010Prop47
 90
       50
102
RTVSPost2010PropOp47
 70
     1
102
RTVSPost2010Prop48
 90
       50
102
RTVSPost2010PropOp48
 70
     1
102
RTVSPost2010Prop49
280
     0
102
RTVSPost2010PropOp49
 70
     1
102
RTVSPost2010Prop50
 90
       50
102
RTVSPost2010PropOp50
 70
     1
102
RTVSPost2010Prop51ColorIndex
 90
      256
102
RTVSPost2010Prop51ColorRGB
 90
-16777216
102
RTVSPost2010PropOp51
 70
     0
102
RTVSPost2010Prop52
140
1.0
102
RTVSPost2010PropOp52
 70
     0
102
RTVSPost2010Prop53
 90
        2
102
RTVSPost2010PropOp53
 70
     1
102
RTVSPost2010Prop54
  1
strokes_ogs.tif
102
RTVSPost2010PropOp54
 70
     1
102
RTVSPost2010Prop55
280
     0
102
RTVSPost2010PropOp55
 70
     1
102
RTVSPost2010Prop56
140
1.0
102
RTVSPost2010PropOp56
 70
     1
102
RTVSPost2010Prop57
140
1.0
102
RTVSPost2010PropOp57
 70
     1
  0
XRECORD
  5
422
102
{ACAD_REACTORS
330
421
102
}
330
421
100
AcDbXrecord
280
     1
102
RTVSPropertyOp0
 70
     1
102
RTVSPropertyOp1
 70
     1
102
RTVSPropertyOp2
 70
     1
102
RTVSPropertyOp3
 70
     1
102
RTVSPropertyOp4
 70
     1
102
RTVSPropertyOp5
 70
     1
102
RTVSPropertyOp6
 70
     1
102
RTVSPropertyOp7
 70
     1
102
RTVSPropertyOp8
 70
     1
102
RTVSPropertyOp9
 70
     1
102
RTVSPropertyOp10
 70
     1
102
RTVSPropertyOp11
 70
     1
102
RTVSPropertyOp12
 70
     1
102
RTVSPropertyOp13
 70
     1
102
RTVSPropertyOp14
 70
     1
102
RTVSPropertyOp15
 70
     1
102
RTVSPropertyOp16
 70
     1
102
RTVSPropertyOp17
 70
     1
102
RTVSPropertyOp18
 70
     1
102
RTVSPropertyOp19
 70
     1
102
RTVSPropertyOp20
 70
     1
102
RTVSPropertyOp21
 70
     1
102
RTVSPropertyOp22
 70
     1
102
RTVSPropertyOp23
 70
     1
102
RTVSPropertyOp24
 70
     1
102
RTVSPropertyOp25
 70
     1
102
RTVSPropertyOp26
 70
     1
102
RTVSPropertyOp27
 70
     1
102
RTVSPropertyOp28
 70
     1
102
RTVSPropertyOp29
 70
     1
102
RTVSPropertyOp30
 70
     1
102
RTVSPropertyOp31
 70
     1
102
RTVSPropertyOp32
 70
     1
102
RTVSPropertyOp33
 70
     1
102
RTVSPropertyOp34
 70
     1
102
RTVSPropertyOp35
 70
     1
102
RTVSPropertyOp36
 70
     1
102
RTVSPropertyOp37
 70
     1
102
RTVSPropertyOp38
 70
     1
102
RTVSPropertyOp39
 70
     1
102
RTVSPropertyOp40
 70
     1
102
RTVSPropertyOp41
 70
     1
102
RTVSPropertyOp42
 70
     1
102
RTVSPropertyOp43
 70
     1
102
RTVSPropertyOp44
 70
     1
102
RTVSPropertyOp45
 70
     1
102
RTVSPropertyOp46
 70
     1
102
RTVSPropertyOp47
 70
     1
102
RTVSPropertyOp48
 70
     1
102
RTVSPropertyOp49
 70
     1
102
RTVSPropertyOp50
 70
     1
102
RTVSPropertyOp51
 70
     0
102
RTVSPropertyOp52
 70
     0
102
RTVSPropertyOp53
 70
     1
102
RTVSPropertyOp54
 70
     1
102
RTVSPropertyOp55
 70
     1
102
RTVSPropertyOp56
 70
     1
102
RTVSPropertyOp57
 70
     1
102
RTVSPost2010Prop28
280
     0
102
RTVSPost2010PropOp28
 70
     1
102
RTVSPost2010Prop29
280
     1
102
RTVSPost2010PropOp29
 70
     1
102
RTVSPost2010Prop30
280
     1
102
RTVSPost2010PropOp30
 70
     1
102
RTVSPost2010Prop31
280
     0
102
RTVSPost2010PropOp31
 70
     1
102
RTVSPost2010Prop32
280
     0
102
RTVSPost2010PropOp32
 70
     1
102
RTVSPost2010Prop33
280
     0
102
RTVSPost2010PropOp33
 70
     1
102
RTVSPost2010Prop34
280
     0
102
RTVSPost2010PropOp34
 70
     1
102
RTVSPost2010Prop35
280
     0
102
RTVSPost2010PropOp35
 70
     1
102
RTVSPost2010Prop36
280
     0
102
RTVSPost2010PropOp36
 70
     1
102
RTVSPost2010Prop37
 90
       50
102
RTVSPost2010PropOp37
 70
     1
102
RTVSPost2010Prop38
140
0.0
102
RTVSPost2010PropOp38
 70
     1
102
RTVSPost2010Prop39
140
1.0
102
RTVSPost2010PropOp39
 70
     1
102
RTVSPost2010Prop40
 90
        0
102
RTVSPost2010PropOp40
 70
     1
102
RTVSPost2010Prop41ColorIndex
 90
       18
102
RTVSPost2010Prop41ColorRGB
 90
        0
102
RTVSPost2010PropOp41
 70
     1
102
RTVSPost2010Prop42
 90
       50
102
RTVSPost2010PropOp42
 70
     1
102
RTVSPost2010Prop43
 90
        3
102
RTVSPost2010PropOp43
 70
     1
102
RTVSPost2010Prop44ColorIndex
 90
        5
102
RTVSPost2010Prop44ColorRGB
 90
      255
102
RTVSPost2010PropOp44
 70
     1
102
RTVSPost2010Prop45
280
     0
102
RTVSPost2010PropOp45
 70
     1
102
RTVSPost2010Prop46
 90
       50
102
RTVSPost2010PropOp46
 70
     1
102
RTVSPost2010Prop47
 90
       50
102
RTVSPost2010PropOp47
 70
     1
102
RTVSPost2010Prop48
 90
       50
102
RTVSPost2010PropOp48
 70
     1
102
RTVSPost2010Prop49
280
     0
102
RTVSPost2010PropOp49
 70
     1
102
RTVSPost2010Prop50
 90
       50
102
RTVSPost2010PropOp50
 70
     1
102
RTVSPost2010Prop51ColorIndex
 90
      256
102
RTVSPost2010Prop51ColorRGB
 90
-16777216
102
RTVSPost2010PropOp51
 70
     0
102
RTVSPost2010Prop52
140
1.0
102
RTVSPost2010PropOp52
 70
     0
102
RTVSPost2010Prop53
 90
        2
102
RTVSPost2010PropOp53
 70
     1
102
RTVSPost2010Prop54
  1
strokes_ogs.tif
102
RTVSPost2010PropOp54
 70
     1
102
RTVSPost2010Prop55
280
     0
102
RTVSPost2010PropOp55
 70
     1
102
RTVSPost2010Prop56
140
1.0
102
RTVSPost2010PropOp56
 70
     1
102
RTVSPost2010Prop57
140
1.0
102
RTVSPost2010PropOp57
 70
     1
  0
XRECORD
  5
42A
102
{ACAD_REACTORS
330
429
102
}
330
429
100
AcDbXrecord
280
     1
102
RTVSPropertyOp0
 70
     1
102
RTVSPropertyOp1
 70
     1
102
RTVSPropertyOp2
 70
     1
102
RTVSPropertyOp3
 70
     1
102
RTVSPropertyOp4
 70
     1
102
RTVSPropertyOp5
 70
     1
102
RTVSPropertyOp6
 70
     1
102
RTVSPropertyOp7
 70
     1
102
RTVSPropertyOp8
 70
     1
102
RTVSPropertyOp9
 70
     1
102
RTVSPropertyOp10
 70
     1
102
RTVSPropertyOp11
 70
     1
102
RTVSPropertyOp12
 70
     1
102
RTVSPropertyOp13
 70
     1
102
RTVSPropertyOp14
 70
     1
102
RTVSPropertyOp15
 70
     1
102
RTVSPropertyOp16
 70
     1
102
RTVSPropertyOp17
 70
     1
102
RTVSPropertyOp18
 70
     1
102
RTVSPropertyOp19
 70
     1
102
RTVSPropertyOp20
 70
     1
102
RTVSPropertyOp21
 70
     1
102
RTVSPropertyOp22
 70
     1
102
RTVSPropertyOp23
 70
     1
102
RTVSPropertyOp24
 70
     1
102
RTVSPropertyOp25
 70
     1
102
RTVSPropertyOp26
 70
     1
102
RTVSPropertyOp27
 70
     1
102
RTVSPropertyOp28
 70
     1
102
RTVSPropertyOp29
 70
     1
102
RTVSPropertyOp30
 70
     1
102
RTVSPropertyOp31
 70
     1
102
RTVSPropertyOp32
 70
     1
102
RTVSPropertyOp33
 70
     1
102
RTVSPropertyOp34
 70
     1
102
RTVSPropertyOp35
 70
     1
102
RTVSPropertyOp36
 70
     1
102
RTVSPropertyOp37
 70
     1
102
RTVSPropertyOp38
 70
     1
102
RTVSPropertyOp39
 70
     1
102
RTVSPropertyOp40
 70
     1
102
RTVSPropertyOp41
 70
     1
102
RTVSPropertyOp42
 70
     1
102
RTVSPropertyOp43
 70
     1
102
RTVSPropertyOp44
 70
     1
102
RTVSPropertyOp45
 70
     1
102
RTVSPropertyOp46
 70
     1
102
RTVSPropertyOp47
 70
     1
102
RTVSPropertyOp48
 70
     1
102
RTVSPropertyOp49
 70
     1
102
RTVSPropertyOp50
 70
     1
102
RTVSPropertyOp51
 70
     0
102
RTVSPropertyOp52
 70
     0
102
RTVSPropertyOp53
 70
     1
102
RTVSPropertyOp54
 70
     1
102
RTVSPropertyOp55
 70
     1
102
RTVSPropertyOp56
 70
     1
102
RTVSPropertyOp57
 70
     1
102
RTVSPost2010Prop28
280
     0
102
RTVSPost2010PropOp28
 70
     1
102
RTVSPost2010Prop29
280
     1
102
RTVSPost2010PropOp29
 70
     1
102
RTVSPost2010Prop30
280
     1
102
RTVSPost2010PropOp30
 70
     1
102
RTVSPost2010Prop31
280
     0
102
RTVSPost2010PropOp31
 70
     1
102
RTVSPost2010Prop32
280
     0
102
RTVSPost2010PropOp32
 70
     1
102
RTVSPost2010Prop33
280
     0
102
RTVSPost2010PropOp33
 70
     1
102
RTVSPost2010Prop34
280
     0
102
RTVSPost2010PropOp34
 70
     1
102
RTVSPost2010Prop35
280
     0
102
RTVSPost2010PropOp35
 70
     1
102
RTVSPost2010Prop36
280
     0
102
RTVSPost2010PropOp36
 70
     1
102
RTVSPost2010Prop37
 90
       50
102
RTVSPost2010PropOp37
 70
     1
102
RTVSPost2010Prop38
140
0.0
102
RTVSPost2010PropOp38
 70
     1
102
RTVSPost2010Prop39
140
1.0
102
RTVSPost2010PropOp39
 70
     1
102
RTVSPost2010Prop40
 90
        0
102
RTVSPost2010PropOp40
 70
     1
102
RTVSPost2010Prop41ColorIndex
 90
       18
102
RTVSPost2010Prop41ColorRGB
 90
        0
102
RTVSPost2010PropOp41
 70
     1
102
RTVSPost2010Prop42
 90
       50
102
RTVSPost2010PropOp42
 70
     1
102
RTVSPost2010Prop43
 90
        3
102
RTVSPost2010PropOp43
 70
     1
102
RTVSPost2010Prop44ColorIndex
 90
        5
102
RTVSPost2010Prop44ColorRGB
 90
      255
102
RTVSPost2010PropOp44
 70
     1
102
RTVSPost2010Prop45
280
     0
102
RTVSPost2010PropOp45
 70
     1
102
RTVSPost2010Prop46
 90
       50
102
RTVSPost2010PropOp46
 70
     1
102
RTVSPost2010Prop47
 90
       50
102
RTVSPost2010PropOp47
 70
     1
102
RTVSPost2010Prop48
 90
       50
102
RTVSPost2010PropOp48
 70
     1
102
RTVSPost2010Prop49
280
     0
102
RTVSPost2010PropOp49
 70
     1
102
RTVSPost2010Prop50
 90
       50
102
RTVSPost2010PropOp50
 70
     1
102
RTVSPost2010Prop51ColorIndex
 90
      256
102
RTVSPost2010Prop51ColorRGB
 90
-16777216
102
RTVSPost2010PropOp51
 70
     0
102
RTVSPost2010Prop52
140
1.0
102
RTVSPost2010PropOp52
 70
     0
102
RTVSPost2010Prop53
 90
        2
102
RTVSPost2010PropOp53
 70
     1
102
RTVSPost2010Prop54
  1
strokes_ogs.tif
102
RTVSPost2010PropOp54
 70
     1
102
RTVSPost2010Prop55
280
     0
102
RTVSPost2010PropOp55
 70
     1
102
RTVSPost2010Prop56
140
1.0
102
RTVSPost2010PropOp56
 70
     1
102
RTVSPost2010Prop57
140
1.0
102
RTVSPost2010PropOp57
 70
     1
  0
XRECORD
  5
432
102
{ACAD_REACTORS
330
431
102
}
330
431
100
AcDbXrecord
280
     1
102
RTVSPropertyOp0
 70
     1
102
RTVSPropertyOp1
 70
     1
102
RTVSPropertyOp2
 70
     1
102
RTVSPropertyOp3
 70
     1
102
RTVSPropertyOp4
 70
     1
102
RTVSPropertyOp5
 70
     1
102
RTVSPropertyOp6
 70
     1
102
RTVSPropertyOp7
 70
     1
102
RTVSPropertyOp8
 70
     1
102
RTVSPropertyOp9
 70
     1
102
RTVSPropertyOp10
 70
     1
102
RTVSPropertyOp11
 70
     1
102
RTVSPropertyOp12
 70
     1
102
RTVSPropertyOp13
 70
     1
102
RTVSPropertyOp14
 70
     1
102
RTVSPropertyOp15
 70
     1
102
RTVSPropertyOp16
 70
     1
102
RTVSPropertyOp17
 70
     1
102
RTVSPropertyOp18
 70
     1
102
RTVSPropertyOp19
 70
     1
102
RTVSPropertyOp20
 70
     1
102
RTVSPropertyOp21
 70
     1
102
RTVSPropertyOp22
 70
     1
102
RTVSPropertyOp23
 70
     1
102
RTVSPropertyOp24
 70
     1
102
RTVSPropertyOp25
 70
     1
102
RTVSPropertyOp26
 70
     1
102
RTVSPropertyOp27
 70
     1
102
RTVSPropertyOp28
 70
     1
102
RTVSPropertyOp29
 70
     1
102
RTVSPropertyOp30
 70
     1
102
RTVSPropertyOp31
 70
     1
102
RTVSPropertyOp32
 70
     1
102
RTVSPropertyOp33
 70
     1
102
RTVSPropertyOp34
 70
     1
102
RTVSPropertyOp35
 70
     1
102
RTVSPropertyOp36
 70
     1
102
RTVSPropertyOp37
 70
     1
102
RTVSPropertyOp38
 70
     1
102
RTVSPropertyOp39
 70
     1
102
RTVSPropertyOp40
 70
     1
102
RTVSPropertyOp41
 70
     1
102
RTVSPropertyOp42
 70
     1
102
RTVSPropertyOp43
 70
     1
102
RTVSPropertyOp44
 70
     1
102
RTVSPropertyOp45
 70
     1
102
RTVSPropertyOp46
 70
     1
102
RTVSPropertyOp47
 70
     1
102
RTVSPropertyOp48
 70
     1
102
RTVSPropertyOp49
 70
     1
102
RTVSPropertyOp50
 70
     1
102
RTVSPropertyOp51
 70
     0
102
RTVSPropertyOp52
 70
     0
102
RTVSPropertyOp53
 70
     1
102
RTVSPropertyOp54
 70
     1
102
RTVSPropertyOp55
 70
     1
102
RTVSPropertyOp56
 70
     1
102
RTVSPropertyOp57
 70
     1
102
RTVSPost2010Prop28
280
     0
102
RTVSPost2010PropOp28
 70
     1
102
RTVSPost2010Prop29
280
     1
102
RTVSPost2010PropOp29
 70
     1
102
RTVSPost2010Prop30
280
     1
102
RTVSPost2010PropOp30
 70
     1
102
RTVSPost2010Prop31
280
     0
102
RTVSPost2010PropOp31
 70
     1
102
RTVSPost2010Prop32
280
     0
102
RTVSPost2010PropOp32
 70
     1
102
RTVSPost2010Prop33
280
     0
102
RTVSPost2010PropOp33
 70
     1
102
RTVSPost2010Prop34
280
     0
102
RTVSPost2010PropOp34
 70
     1
102
RTVSPost2010Prop35
280
     0
102
RTVSPost2010PropOp35
 70
     1
102
RTVSPost2010Prop36
280
     0
102
RTVSPost2010PropOp36
 70
     1
102
RTVSPost2010Prop37
 90
       50
102
RTVSPost2010PropOp37
 70
     1
102
RTVSPost2010Prop38
140
0.0
102
RTVSPost2010PropOp38
 70
     1
102
RTVSPost2010Prop39
140
1.0
102
RTVSPost2010PropOp39
 70
     1
102
RTVSPost2010Prop40
 90
        0
102
RTVSPost2010PropOp40
 70
     1
102
RTVSPost2010Prop41ColorIndex
 90
       18
102
RTVSPost2010Prop41ColorRGB
 90
        0
102
RTVSPost2010PropOp41
 70
     1
102
RTVSPost2010Prop42
 90
       50
102
RTVSPost2010PropOp42
 70
     1
102
RTVSPost2010Prop43
 90
        3
102
RTVSPost2010PropOp43
 70
     1
102
RTVSPost2010Prop44ColorIndex
 90
        5
102
RTVSPost2010Prop44ColorRGB
 90
      255
102
RTVSPost2010PropOp44
 70
     1
102
RTVSPost2010Prop45
280
     0
102
RTVSPost2010PropOp45
 70
     1
102
RTVSPost2010Prop46
 90
       50
102
RTVSPost2010PropOp46
 70
     1
102
RTVSPost2010Prop47
 90
       50
102
RTVSPost2010PropOp47
 70
     1
102
RTVSPost2010Prop48
 90
       50
102
RTVSPost2010PropOp48
 70
     1
102
RTVSPost2010Prop49
280
     0
102
RTVSPost2010PropOp49
 70
     1
102
RTVSPost2010Prop50
 90
       50
102
RTVSPost2010PropOp50
 70
     1
102
RTVSPost2010Prop51ColorIndex
 90
      256
102
RTVSPost2010Prop51ColorRGB
 90
-16777216
102
RTVSPost2010PropOp51
 70
     0
102
RTVSPost2010Prop52
140
1.0
102
RTVSPost2010PropOp52
 70
     0
102
RTVSPost2010Prop53
 90
        2
102
RTVSPost2010PropOp53
 70
     1
102
RTVSPost2010Prop54
  1
strokes_ogs.tif
102
RTVSPost2010PropOp54
 70
     1
102
RTVSPost2010Prop55
280
     0
102
RTVSPost2010PropOp55
 70
     1
102
RTVSPost2010Prop56
140
1.0
102
RTVSPost2010PropOp56
 70
     1
102
RTVSPost2010Prop57
140
1.0
102
RTVSPost2010PropOp57
 70
     1
  0
XRECORD
  5
426
102
{ACAD_REACTORS
330
425
102
}
330
425
100
AcDbXrecord
280
     1
102
RTVSPropertyOp0
 70
     1
102
RTVSPropertyOp1
 70
     1
102
RTVSPropertyOp2
 70
     1
102
RTVSPropertyOp3
 70
     1
102
RTVSPropertyOp4
 70
     1
102
RTVSPropertyOp5
 70
     1
102
RTVSPropertyOp6
 70
     1
102
RTVSPropertyOp7
 70
     1
102
RTVSPropertyOp8
 70
     1
102
RTVSPropertyOp9
 70
     1
102
RTVSPropertyOp10
 70
     1
102
RTVSPropertyOp11
 70
     1
102
RTVSPropertyOp12
 70
     1
102
RTVSPropertyOp13
 70
     1
102
RTVSPropertyOp14
 70
     1
102
RTVSPropertyOp15
 70
     1
102
RTVSPropertyOp16
 70
     1
102
RTVSPropertyOp17
 70
     1
102
RTVSPropertyOp18
 70
     1
102
RTVSPropertyOp19
 70
     1
102
RTVSPropertyOp20
 70
     1
102
RTVSPropertyOp21
 70
     1
102
RTVSPropertyOp22
 70
     1
102
RTVSPropertyOp23
 70
     1
102
RTVSPropertyOp24
 70
     1
102
RTVSPropertyOp25
 70
     1
102
RTVSPropertyOp26
 70
     1
102
RTVSPropertyOp27
 70
     1
102
RTVSPropertyOp28
 70
     1
102
RTVSPropertyOp29
 70
     1
102
RTVSPropertyOp30
 70
     1
102
RTVSPropertyOp31
 70
     1
102
RTVSPropertyOp32
 70
     1
102
RTVSPropertyOp33
 70
     1
102
RTVSPropertyOp34
 70
     1
102
RTVSPropertyOp35
 70
     1
102
RTVSPropertyOp36
 70
     1
102
RTVSPropertyOp37
 70
     1
102
RTVSPropertyOp38
 70
     1
102
RTVSPropertyOp39
 70
     1
102
RTVSPropertyOp40
 70
     1
102
RTVSPropertyOp41
 70
     1
102
RTVSPropertyOp42
 70
     1
102
RTVSPropertyOp43
 70
     1
102
RTVSPropertyOp44
 70
     1
102
RTVSPropertyOp45
 70
     1
102
RTVSPropertyOp46
 70
     1
102
RTVSPropertyOp47
 70
     1
102
RTVSPropertyOp48
 70
     1
102
RTVSPropertyOp49
 70
     1
102
RTVSPropertyOp50
 70
     1
102
RTVSPropertyOp51
 70
     0
102
RTVSPropertyOp52
 70
     0
102
RTVSPropertyOp53
 70
     1
102
RTVSPropertyOp54
 70
     1
102
RTVSPropertyOp55
 70
     1
102
RTVSPropertyOp56
 70
     1
102
RTVSPropertyOp57
 70
     1
102
RTVSPost2010Prop28
280
     0
102
RTVSPost2010PropOp28
 70
     1
102
RTVSPost2010Prop29
280
     1
102
RTVSPost2010PropOp29
 70
     1
102
RTVSPost2010Prop30
280
     1
102
RTVSPost2010PropOp30
 70
     1
102
RTVSPost2010Prop31
280
     0
102
RTVSPost2010PropOp31
 70
     1
102
RTVSPost2010Prop32
280
     0
102
RTVSPost2010PropOp32
 70
     1
102
RTVSPost2010Prop33
280
     0
102
RTVSPost2010PropOp33
 70
     1
102
RTVSPost2010Prop34
280
     0
102
RTVSPost2010PropOp34
 70
     1
102
RTVSPost2010Prop35
280
     0
102
RTVSPost2010PropOp35
 70
     1
102
RTVSPost2010Prop36
280
     0
102
RTVSPost2010PropOp36
 70
     1
102
RTVSPost2010Prop37
 90
       50
102
RTVSPost2010PropOp37
 70
     1
102
RTVSPost2010Prop38
140
0.0
102
RTVSPost2010PropOp38
 70
     1
102
RTVSPost2010Prop39
140
1.0
102
RTVSPost2010PropOp39
 70
     1
102
RTVSPost2010Prop40
 90
        0
102
RTVSPost2010PropOp40
 70
     1
102
RTVSPost2010Prop41ColorIndex
 90
       18
102
RTVSPost2010Prop41ColorRGB
 90
        0
102
RTVSPost2010PropOp41
 70
     1
102
RTVSPost2010Prop42
 90
       50
102
RTVSPost2010PropOp42
 70
     1
102
RTVSPost2010Prop43
 90
        3
102
RTVSPost2010PropOp43
 70
     1
102
RTVSPost2010Prop44ColorIndex
 90
        5
102
RTVSPost2010Prop44ColorRGB
 90
      255
102
RTVSPost2010PropOp44
 70
     1
102
RTVSPost2010Prop45
280
     0
102
RTVSPost2010PropOp45
 70
     1
102
RTVSPost2010Prop46
 90
       50
102
RTVSPost2010PropOp46
 70
     1
102
RTVSPost2010Prop47
 90
       50
102
RTVSPost2010PropOp47
 70
     1
102
RTVSPost2010Prop48
 90
       50
102
RTVSPost2010PropOp48
 70
     1
102
RTVSPost2010Prop49
280
     0
102
RTVSPost2010PropOp49
 70
     1
102
RTVSPost2010Prop50
 90
       50
102
RTVSPost2010PropOp50
 70
     1
102
RTVSPost2010Prop51ColorIndex
 90
      256
102
RTVSPost2010Prop51ColorRGB
 90
-16777216
102
RTVSPost2010PropOp51
 70
     0
102
RTVSPost2010Prop52
140
1.0
102
RTVSPost2010PropOp52
 70
     0
102
RTVSPost2010Prop53
 90
        2
102
RTVSPost2010PropOp53
 70
     1
102
RTVSPost2010Prop54
  1
strokes_ogs.tif
102
RTVSPost2010PropOp54
 70
     1
102
RTVSPost2010Prop55
280
     0
102
RTVSPost2010PropOp55
 70
     1
102
RTVSPost2010Prop56
140
1.0
102
RTVSPost2010PropOp56
 70
     1
102
RTVSPost2010Prop57
140
1.0
102
RTVSPost2010PropOp57
 70
     1
  0
XRECORD
  5
428
102
{ACAD_REACTORS
330
427
102
}
330
427
100
AcDbXrecord
280
     1
102
RTVSPropertyOp0
 70
     1
102
RTVSPropertyOp1
 70
     1
102
RTVSPropertyOp2
 70
     1
102
RTVSPropertyOp3
 70
     1
102
RTVSPropertyOp4
 70
     1
102
RTVSPropertyOp5
 70
     1
102
RTVSPropertyOp6
 70
     1
102
RTVSPropertyOp7
 70
     1
102
RTVSPropertyOp8
 70
     1
102
RTVSPropertyOp9
 70
     1
102
RTVSPropertyOp10
 70
     1
102
RTVSPropertyOp11
 70
     1
102
RTVSPropertyOp12
 70
     1
102
RTVSPropertyOp13
 70
     1
102
RTVSPropertyOp14
 70
     1
102
RTVSPropertyOp15
 70
     1
102
RTVSPropertyOp16
 70
     1
102
RTVSPropertyOp17
 70
     1
102
RTVSPropertyOp18
 70
     1
102
RTVSPropertyOp19
 70
     1
102
RTVSPropertyOp20
 70
     1
102
RTVSPropertyOp21
 70
     1
102
RTVSPropertyOp22
 70
     1
102
RTVSPropertyOp23
 70
     1
102
RTVSPropertyOp24
 70
     1
102
RTVSPropertyOp25
 70
     1
102
RTVSPropertyOp26
 70
     1
102
RTVSPropertyOp27
 70
     1
102
RTVSPropertyOp28
 70
     1
102
RTVSPropertyOp29
 70
     1
102
RTVSPropertyOp30
 70
     1
102
RTVSPropertyOp31
 70
     1
102
RTVSPropertyOp32
 70
     1
102
RTVSPropertyOp33
 70
     1
102
RTVSPropertyOp34
 70
     1
102
RTVSPropertyOp35
 70
     1
102
RTVSPropertyOp36
 70
     1
102
RTVSPropertyOp37
 70
     1
102
RTVSPropertyOp38
 70
     1
102
RTVSPropertyOp39
 70
     1
102
RTVSPropertyOp40
 70
     1
102
RTVSPropertyOp41
 70
     1
102
RTVSPropertyOp42
 70
     1
102
RTVSPropertyOp43
 70
     1
102
RTVSPropertyOp44
 70
     1
102
RTVSPropertyOp45
 70
     1
102
RTVSPropertyOp46
 70
     1
102
RTVSPropertyOp47
 70
     1
102
RTVSPropertyOp48
 70
     1
102
RTVSPropertyOp49
 70
     1
102
RTVSPropertyOp50
 70
     1
102
RTVSPropertyOp51
 70
     0
102
RTVSPropertyOp52
 70
     0
102
RTVSPropertyOp53
 70
     1
102
RTVSPropertyOp54
 70
     1
102
RTVSPropertyOp55
 70
     1
102
RTVSPropertyOp56
 70
     1
102
RTVSPropertyOp57
 70
     1
102
RTVSPost2010Prop28
280
     0
102
RTVSPost2010PropOp28
 70
     1
102
RTVSPost2010Prop29
280
     1
102
RTVSPost2010PropOp29
 70
     1
102
RTVSPost2010Prop30
280
     1
102
RTVSPost2010PropOp30
 70
     1
102
RTVSPost2010Prop31
280
     0
102
RTVSPost2010PropOp31
 70
     1
102
RTVSPost2010Prop32
280
     0
102
RTVSPost2010PropOp32
 70
     1
102
RTVSPost2010Prop33
280
     0
102
RTVSPost2010PropOp33
 70
     1
102
RTVSPost2010Prop34
280
     0
102
RTVSPost2010PropOp34
 70
     1
102
RTVSPost2010Prop35
280
     0
102
RTVSPost2010PropOp35
 70
     1
102
RTVSPost2010Prop36
280
     0
102
RTVSPost2010PropOp36
 70
     1
102
RTVSPost2010Prop37
 90
       50
102
RTVSPost2010PropOp37
 70
     1
102
RTVSPost2010Prop38
140
0.0
102
RTVSPost2010PropOp38
 70
     1
102
RTVSPost2010Prop39
140
1.0
102
RTVSPost2010PropOp39
 70
     1
102
RTVSPost2010Prop40
 90
        0
102
RTVSPost2010PropOp40
 70
     1
102
RTVSPost2010Prop41ColorIndex
 90
       18
102
RTVSPost2010Prop41ColorRGB
 90
        0
102
RTVSPost2010PropOp41
 70
     1
102
RTVSPost2010Prop42
 90
       50
102
RTVSPost2010PropOp42
 70
     1
102
RTVSPost2010Prop43
 90
        3
102
RTVSPost2010PropOp43
 70
     1
102
RTVSPost2010Prop44ColorIndex
 90
        5
102
RTVSPost2010Prop44ColorRGB
 90
      255
102
RTVSPost2010PropOp44
 70
     1
102
RTVSPost2010Prop45
280
     0
102
RTVSPost2010PropOp45
 70
     1
102
RTVSPost2010Prop46
 90
       50
102
RTVSPost2010PropOp46
 70
     1
102
RTVSPost2010Prop47
 90
       50
102
RTVSPost2010PropOp47
 70
     1
102
RTVSPost2010Prop48
 90
       50
102
RTVSPost2010PropOp48
 70
     1
102
RTVSPost2010Prop49
280
     0
102
RTVSPost2010PropOp49
 70
     1
102
RTVSPost2010Prop50
 90
       50
102
RTVSPost2010PropOp50
 70
     1
102
RTVSPost2010Prop51ColorIndex
 90
      256
102
RTVSPost2010Prop51ColorRGB
 90
-16777216
102
RTVSPost2010PropOp51
 70
     0
102
RTVSPost2010Prop52
140
1.0
102
RTVSPost2010PropOp52
 70
     0
102
RTVSPost2010Prop53
 90
        2
102
RTVSPost2010PropOp53
 70
     1
102
RTVSPost2010Prop54
  1
strokes_ogs.tif
102
RTVSPost2010PropOp54
 70
     1
102
RTVSPost2010Prop55
280
     0
102
RTVSPost2010PropOp55
 70
     1
102
RTVSPost2010Prop56
140
1.0
102
RTVSPost2010PropOp56
 70
     1
102
RTVSPost2010Prop57
140
1.0
102
RTVSPost2010PropOp57
 70
     1
  0
XRECORD
  5
438
102
{ACAD_REACTORS
330
437
102
}
330
437
100
AcDbXrecord
280
     1
102
RTVSPropertyOp0
 70
     0
102
RTVSPropertyOp1
 70
     0
102
RTVSPropertyOp2
 70
     0
102
RTVSPropertyOp3
 70
     0
102
RTVSPropertyOp4
 70
     0
102
RTVSPropertyOp5
 70
     0
102
RTVSPropertyOp6
 70
     0
102
RTVSPropertyOp7
 70
     0
102
RTVSPropertyOp8
 70
     0
102
RTVSPropertyOp9
 70
     0
102
RTVSPropertyOp10
 70
     0
102
RTVSPropertyOp11
 70
     0
102
RTVSPropertyOp12
 70
     0
102
RTVSPropertyOp13
 70
     0
102
RTVSPropertyOp14
 70
     2
102
RTVSPropertyOp15
 70
     0
102
RTVSPropertyOp16
 70
     0
102
RTVSPropertyOp17
 70
     0
102
RTVSPropertyOp18
 70
     0
102
RTVSPropertyOp19
 70
     0
102
RTVSPropertyOp20
 70
     0
102
RTVSPropertyOp21
 70
     0
102
RTVSPropertyOp22
 70
     0
102
RTVSPropertyOp23
 70
     0
102
RTVSPropertyOp24
 70
     0
102
RTVSPropertyOp25
 70
     0
102
RTVSPropertyOp26
 70
     0
102
RTVSPropertyOp27
 70
     0
102
RTVSPropertyOp28
 70
     0
102
RTVSPropertyOp29
 70
     0
102
RTVSPropertyOp30
 70
     0
102
RTVSPropertyOp31
 70
     0
102
RTVSPropertyOp32
 70
     0
102
RTVSPropertyOp33
 70
     0
102
RTVSPropertyOp34
 70
     0
102
RTVSPropertyOp35
 70
     0
102
RTVSPropertyOp36
 70
     0
102
RTVSPropertyOp37
 70
     0
102
RTVSPropertyOp38
 70
     0
102
RTVSPropertyOp39
 70
     0
102
RTVSPropertyOp40
 70
     0
102
RTVSPropertyOp41
 70
     0
102
RTVSPropertyOp42
 70
     0
102
RTVSPropertyOp43
 70
     0
102
RTVSPropertyOp44
 70
     0
102
RTVSPropertyOp45
 70
     0
102
RTVSPropertyOp46
 70
     0
102
RTVSPropertyOp47
 70
     0
102
RTVSPropertyOp48
 70
     0
102
RTVSPropertyOp49
 70
     0
102
RTVSPropertyOp50
 70
     0
102
RTVSPropertyOp51
 70
     0
102
RTVSPropertyOp52
 70
     0
102
RTVSPropertyOp53
 70
     0
102
RTVSPropertyOp54
 70
     0
102
RTVSPropertyOp55
 70
     0
102
RTVSPropertyOp56
 70
     0
102
RTVSPropertyOp57
 70
     0
102
RTVSPost2010Prop28
280
     0
102
RTVSPost2010PropOp28
 70
     0
102
RTVSPost2010Prop29
280
     1
102
RTVSPost2010PropOp29
 70
     0
102
RTVSPost2010Prop30
280
     1
102
RTVSPost2010PropOp30
 70
     0
102
RTVSPost2010Prop31
280
     0
102
RTVSPost2010PropOp31
 70
     0
102
RTVSPost2010Prop32
280
     0
102
RTVSPost2010PropOp32
 70
     0
102
RTVSPost2010Prop33
280
     0
102
RTVSPost2010PropOp33
 70
     0
102
RTVSPost2010Prop34
280
     0
102
RTVSPost2010PropOp34
 70
     0
102
RTVSPost2010Prop35
280
     0
102
RTVSPost2010PropOp35
 70
     0
102
RTVSPost2010Prop36
280
     0
102
RTVSPost2010PropOp36
 70
     0
102
RTVSPost2010Prop37
 90
       50
102
RTVSPost2010PropOp37
 70
     0
102
RTVSPost2010Prop38
140
0.0
102
RTVSPost2010PropOp38
 70
     0
102
RTVSPost2010Prop39
140
1.0
102
RTVSPost2010PropOp39
 70
     0
102
RTVSPost2010Prop40
 90
        0
102
RTVSPost2010PropOp40
 70
     0
102
RTVSPost2010Prop41ColorIndex
 90
       18
102
RTVSPost2010Prop41ColorRGB
 90
        0
102
RTVSPost2010PropOp41
 70
     0
102
RTVSPost2010Prop42
 90
       50
102
RTVSPost2010PropOp42
 70
     0
102
RTVSPost2010Prop43
 90
        3
102
RTVSPost2010PropOp43
 70
     0
102
RTVSPost2010Prop44ColorIndex
 90
        5
102
RTVSPost2010Prop44ColorRGB
 90
      255
102
RTVSPost2010PropOp44
 70
     0
102
RTVSPost2010Prop45
280
     0
102
RTVSPost2010PropOp45
 70
     0
102
RTVSPost2010Prop46
 90
       50
102
RTVSPost2010PropOp46
 70
     0
102
RTVSPost2010Prop47
 90
       50
102
RTVSPost2010PropOp47
 70
     0
102
RTVSPost2010Prop48
 90
       50
102
RTVSPost2010PropOp48
 70
     0
102
RTVSPost2010Prop49
280
     0
102
RTVSPost2010PropOp49
 70
     0
102
RTVSPost2010Prop50
 90
       50
102
RTVSPost2010PropOp50
 70
     0
102
RTVSPost2010Prop51ColorIndex
 90
      256
102
RTVSPost2010Prop51ColorRGB
 90
-16777216
102
RTVSPost2010PropOp51
 70
     0
102
RTVSPost2010Prop52
140
1.0
102
RTVSPost2010PropOp52
 70
     0
102
RTVSPost2010Prop53
 90
        2
102
RTVSPost2010PropOp53
 70
     0
102
RTVSPost2010Prop54
  1
strokes_ogs.tif
102
RTVSPost2010PropOp54
 70
     0
102
RTVSPost2010Prop55
280
     0
102
RTVSPost2010PropOp55
 70
     0
102
RTVSPost2010Prop56
140
1.0
102
RTVSPost2010PropOp56
 70
     0
102
RTVSPost2010Prop57
140
1.0
102
RTVSPost2010PropOp57
 70
     0
  0
XRECORD
  5
430
102
{ACAD_REACTORS
330
42F
102
}
330
42F
100
AcDbXrecord
280
     1
102
RTVSPropertyOp0
 70
     1
102
RTVSPropertyOp1
 70
     1
102
RTVSPropertyOp2
 70
     1
102
RTVSPropertyOp3
 70
     1
102
RTVSPropertyOp4
 70
     1
102
RTVSPropertyOp5
 70
     1
102
RTVSPropertyOp6
 70
     1
102
RTVSPropertyOp7
 70
     1
102
RTVSPropertyOp8
 70
     1
102
RTVSPropertyOp9
 70
     1
102
RTVSPropertyOp10
 70
     1
102
RTVSPropertyOp11
 70
     1
102
RTVSPropertyOp12
 70
     1
102
RTVSPropertyOp13
 70
     1
102
RTVSPropertyOp14
 70
     1
102
RTVSPropertyOp15
 70
     1
102
RTVSPropertyOp16
 70
     1
102
RTVSPropertyOp17
 70
     1
102
RTVSPropertyOp18
 70
     1
102
RTVSPropertyOp19
 70
     1
102
RTVSPropertyOp20
 70
     1
102
RTVSPropertyOp21
 70
     1
102
RTVSPropertyOp22
 70
     1
102
RTVSPropertyOp23
 70
     1
102
RTVSPropertyOp24
 70
     1
102
RTVSPropertyOp25
 70
     1
102
RTVSPropertyOp26
 70
     1
102
RTVSPropertyOp27
 70
     1
102
RTVSPropertyOp28
 70
     1
102
RTVSPropertyOp29
 70
     1
102
RTVSPropertyOp30
 70
     1
102
RTVSPropertyOp31
 70
     1
102
RTVSPropertyOp32
 70
     1
102
RTVSPropertyOp33
 70
     1
102
RTVSPropertyOp34
 70
     1
102
RTVSPropertyOp35
 70
     1
102
RTVSPropertyOp36
 70
     1
102
RTVSPropertyOp37
 70
     1
102
RTVSPropertyOp38
 70
     1
102
RTVSPropertyOp39
 70
     1
102
RTVSPropertyOp40
 70
     1
102
RTVSPropertyOp41
 70
     1
102
RTVSPropertyOp42
 70
     1
102
RTVSPropertyOp43
 70
     1
102
RTVSPropertyOp44
 70
     1
102
RTVSPropertyOp45
 70
     1
102
RTVSPropertyOp46
 70
     1
102
RTVSPropertyOp47
 70
     1
102
RTVSPropertyOp48
 70
     1
102
RTVSPropertyOp49
 70
     1
102
RTVSPropertyOp50
 70
     1
102
RTVSPropertyOp51
 70
     0
102
RTVSPropertyOp52
 70
     0
102
RTVSPropertyOp53
 70
     1
102
RTVSPropertyOp54
 70
     1
102
RTVSPropertyOp55
 70
     1
102
RTVSPropertyOp56
 70
     1
102
RTVSPropertyOp57
 70
     1
102
RTVSPost2010Prop28
280
     0
102
RTVSPost2010PropOp28
 70
     1
102
RTVSPost2010Prop29
280
     1
102
RTVSPost2010PropOp29
 70
     1
102
RTVSPost2010Prop30
280
     1
102
RTVSPost2010PropOp30
 70
     1
102
RTVSPost2010Prop31
280
     0
102
RTVSPost2010PropOp31
 70
     1
102
RTVSPost2010Prop32
280
     0
102
RTVSPost2010PropOp32
 70
     1
102
RTVSPost2010Prop33
280
     0
102
RTVSPost2010PropOp33
 70
     1
102
RTVSPost2010Prop34
280
     0
102
RTVSPost2010PropOp34
 70
     1
102
RTVSPost2010Prop35
280
     0
102
RTVSPost2010PropOp35
 70
     1
102
RTVSPost2010Prop36
280
     0
102
RTVSPost2010PropOp36
 70
     1
102
RTVSPost2010Prop37
 90
       50
102
RTVSPost2010PropOp37
 70
     1
102
RTVSPost2010Prop38
140
0.0
102
RTVSPost2010PropOp38
 70
     1
102
RTVSPost2010Prop39
140
1.0
102
RTVSPost2010PropOp39
 70
     1
102
RTVSPost2010Prop40
 90
        0
102
RTVSPost2010PropOp40
 70
     1
102
RTVSPost2010Prop41ColorIndex
 90
       18
102
RTVSPost2010Prop41ColorRGB
 90
        0
102
RTVSPost2010PropOp41
 70
     1
102
RTVSPost2010Prop42
 90
       50
102
RTVSPost2010PropOp42
 70
     1
102
RTVSPost2010Prop43
 90
        3
102
RTVSPost2010PropOp43
 70
     1
102
RTVSPost2010Prop44ColorIndex
 90
        5
102
RTVSPost2010Prop44ColorRGB
 90
      255
102
RTVSPost2010PropOp44
 70
     1
102
RTVSPost2010Prop45
280
     0
102
RTVSPost2010PropOp45
 70
     1
102
RTVSPost2010Prop46
 90
       50
102
RTVSPost2010PropOp46
 70
     1
102
RTVSPost2010Prop47
 90
       50
102
RTVSPost2010PropOp47
 70
     1
102
RTVSPost2010Prop48
 90
       50
102
RTVSPost2010PropOp48
 70
     1
102
RTVSPost2010Prop49
280
     0
102
RTVSPost2010PropOp49
 70
     1
102
RTVSPost2010Prop50
 90
       50
102
RTVSPost2010PropOp50
 70
     1
102
RTVSPost2010Prop51ColorIndex
 90
      256
102
RTVSPost2010Prop51ColorRGB
 90
-16777216
102
RTVSPost2010PropOp51
 70
     0
102
RTVSPost2010Prop52
140
1.0
102
RTVSPost2010PropOp52
 70
     0
102
RTVSPost2010Prop53
 90
        2
102
RTVSPost2010PropOp53
 70
     1
102
RTVSPost2010Prop54
  1
strokes_ogs.tif
102
RTVSPost2010PropOp54
 70
     1
102
RTVSPost2010Prop55
280
     0
102
RTVSPost2010PropOp55
 70
     1
102
RTVSPost2010Prop56
140
1.0
102
RTVSPost2010PropOp56
 70
     1
102
RTVSPost2010Prop57
140
1.0
102
RTVSPost2010PropOp57
 70
     1
  0
XRECORD
  5
414
102
{ACAD_REACTORS
330
413
102
}
330
413
100
AcDbXrecord
280
     1
102
RTVSPropertyOp0
 70
     1
102
RTVSPropertyOp1
 70
     1
102
RTVSPropertyOp2
 70
     1
102
RTVSPropertyOp3
 70
     1
102
RTVSPropertyOp4
 70
     1
102
RTVSPropertyOp5
 70
     1
102
RTVSPropertyOp6
 70
     1
102
RTVSPropertyOp7
 70
     1
102
RTVSPropertyOp8
 70
     1
102
RTVSPropertyOp9
 70
     1
102
RTVSPropertyOp10
 70
     1
102
RTVSPropertyOp11
 70
     1
102
RTVSPropertyOp12
 70
     1
102
RTVSPropertyOp13
 70
     1
102
RTVSPropertyOp14
 70
     1
102
RTVSPropertyOp15
 70
     1
102
RTVSPropertyOp16
 70
     1
102
RTVSPropertyOp17
 70
     1
102
RTVSPropertyOp18
 70
     1
102
RTVSPropertyOp19
 70
     1
102
RTVSPropertyOp20
 70
     1
102
RTVSPropertyOp21
 70
     1
102
RTVSPropertyOp22
 70
     1
102
RTVSPropertyOp23
 70
     1
102
RTVSPropertyOp24
 70
     1
102
RTVSPropertyOp25
 70
     1
102
RTVSPropertyOp26
 70
     1
102
RTVSPropertyOp27
 70
     1
102
RTVSPropertyOp28
 70
     1
102
RTVSPropertyOp29
 70
     1
102
RTVSPropertyOp30
 70
     1
102
RTVSPropertyOp31
 70
     1
102
RTVSPropertyOp32
 70
     1
102
RTVSPropertyOp33
 70
     1
102
RTVSPropertyOp34
 70
     1
102
RTVSPropertyOp35
 70
     1
102
RTVSPropertyOp36
 70
     1
102
RTVSPropertyOp37
 70
     1
102
RTVSPropertyOp38
 70
     1
102
RTVSPropertyOp39
 70
     1
102
RTVSPropertyOp40
 70
     1
102
RTVSPropertyOp41
 70
     1
102
RTVSPropertyOp42
 70
     1
102
RTVSPropertyOp43
 70
     1
102
RTVSPropertyOp44
 70
     1
102
RTVSPropertyOp45
 70
     1
102
RTVSPropertyOp46
 70
     1
102
RTVSPropertyOp47
 70
     1
102
RTVSPropertyOp48
 70
     1
102
RTVSPropertyOp49
 70
     1
102
RTVSPropertyOp50
 70
     1
102
RTVSPropertyOp51
 70
     0
102
RTVSPropertyOp52
 70
     0
102
RTVSPropertyOp53
 70
     1
102
RTVSPropertyOp54
 70
     1
102
RTVSPropertyOp55
 70
     1
102
RTVSPropertyOp56
 70
     1
102
RTVSPropertyOp57
 70
     1
102
RTVSPost2010Prop28
280
     0
102
RTVSPost2010PropOp28
 70
     1
102
RTVSPost2010Prop29
280
     1
102
RTVSPost2010PropOp29
 70
     1
102
RTVSPost2010Prop30
280
     1
102
RTVSPost2010PropOp30
 70
     1
102
RTVSPost2010Prop31
280
     0
102
RTVSPost2010PropOp31
 70
     1
102
RTVSPost2010Prop32
280
     0
102
RTVSPost2010PropOp32
 70
     1
102
RTVSPost2010Prop33
280
     0
102
RTVSPost2010PropOp33
 70
     1
102
RTVSPost2010Prop34
280
     0
102
RTVSPost2010PropOp34
 70
     1
102
RTVSPost2010Prop35
280
     0
102
RTVSPost2010PropOp35
 70
     1
102
RTVSPost2010Prop36
280
     0
102
RTVSPost2010PropOp36
 70
     1
102
RTVSPost2010Prop37
 90
       50
102
RTVSPost2010PropOp37
 70
     1
102
RTVSPost2010Prop38
140
0.0
102
RTVSPost2010PropOp38
 70
     1
102
RTVSPost2010Prop39
140
1.0
102
RTVSPost2010PropOp39
 70
     1
102
RTVSPost2010Prop40
 90
        0
102
RTVSPost2010PropOp40
 70
     1
102
RTVSPost2010Prop41ColorIndex
 90
       18
102
RTVSPost2010Prop41ColorRGB
 90
        0
102
RTVSPost2010PropOp41
 70
     1
102
RTVSPost2010Prop42
 90
       50
102
RTVSPost2010PropOp42
 70
     1
102
RTVSPost2010Prop43
 90
        3
102
RTVSPost2010PropOp43
 70
     1
102
RTVSPost2010Prop44ColorIndex
 90
        5
102
RTVSPost2010Prop44ColorRGB
 90
      255
102
RTVSPost2010PropOp44
 70
     1
102
RTVSPost2010Prop45
280
     0
102
RTVSPost2010PropOp45
 70
     1
102
RTVSPost2010Prop46
 90
       50
102
RTVSPost2010PropOp46
 70
     1
102
RTVSPost2010Prop47
 90
       50
102
RTVSPost2010PropOp47
 70
     1
102
RTVSPost2010Prop48
 90
       50
102
RTVSPost2010PropOp48
 70
     1
102
RTVSPost2010Prop49
280
     0
102
RTVSPost2010PropOp49
 70
     1
102
RTVSPost2010Prop50
 90
       50
102
RTVSPost2010PropOp50
 70
     1
102
RTVSPost2010Prop51ColorIndex
 90
      256
102
RTVSPost2010Prop51ColorRGB
 90
-16777216
102
RTVSPost2010PropOp51
 70
     0
102
RTVSPost2010Prop52
140
1.0
102
RTVSPost2010PropOp52
 70
     0
102
RTVSPost2010Prop53
 90
        2
102
RTVSPost2010PropOp53
 70
     1
102
RTVSPost2010Prop54
  1
strokes_ogs.tif
102
RTVSPost2010PropOp54
 70
     1
102
RTVSPost2010Prop55
280
     0
102
RTVSPost2010PropOp55
 70
     1
102
RTVSPost2010Prop56
140
1.0
102
RTVSPost2010PropOp56
 70
     1
102
RTVSPost2010Prop57
140
1.0
102
RTVSPost2010PropOp57
 70
     1
  0
XRECORD
  5
416
102
{ACAD_REACTORS
330
415
102
}
330
415
100
AcDbXrecord
280
     1
102
RTVSPropertyOp0
 70
     1
102
RTVSPropertyOp1
 70
     1
102
RTVSPropertyOp2
 70
     1
102
RTVSPropertyOp3
 70
     1
102
RTVSPropertyOp4
 70
     1
102
RTVSPropertyOp5
 70
     1
102
RTVSPropertyOp6
 70
     1
102
RTVSPropertyOp7
 70
     1
102
RTVSPropertyOp8
 70
     1
102
RTVSPropertyOp9
 70
     1
102
RTVSPropertyOp10
 70
     1
102
RTVSPropertyOp11
 70
     1
102
RTVSPropertyOp12
 70
     1
102
RTVSPropertyOp13
 70
     1
102
RTVSPropertyOp14
 70
     1
102
RTVSPropertyOp15
 70
     1
102
RTVSPropertyOp16
 70
     1
102
RTVSPropertyOp17
 70
     1
102
RTVSPropertyOp18
 70
     1
102
RTVSPropertyOp19
 70
     1
102
RTVSPropertyOp20
 70
     1
102
RTVSPropertyOp21
 70
     1
102
RTVSPropertyOp22
 70
     1
102
RTVSPropertyOp23
 70
     1
102
RTVSPropertyOp24
 70
     1
102
RTVSPropertyOp25
 70
     1
102
RTVSPropertyOp26
 70
     1
102
RTVSPropertyOp27
 70
     1
102
RTVSPropertyOp28
 70
     1
102
RTVSPropertyOp29
 70
     1
102
RTVSPropertyOp30
 70
     1
102
RTVSPropertyOp31
 70
     1
102
RTVSPropertyOp32
 70
     1
102
RTVSPropertyOp33
 70
     1
102
RTVSPropertyOp34
 70
     1
102
RTVSPropertyOp35
 70
     1
102
RTVSPropertyOp36
 70
     1
102
RTVSPropertyOp37
 70
     1
102
RTVSPropertyOp38
 70
     1
102
RTVSPropertyOp39
 70
     1
102
RTVSPropertyOp40
 70
     1
102
RTVSPropertyOp41
 70
     1
102
RTVSPropertyOp42
 70
     1
102
RTVSPropertyOp43
 70
     1
102
RTVSPropertyOp44
 70
     1
102
RTVSPropertyOp45
 70
     1
102
RTVSPropertyOp46
 70
     1
102
RTVSPropertyOp47
 70
     1
102
RTVSPropertyOp48
 70
     1
102
RTVSPropertyOp49
 70
     1
102
RTVSPropertyOp50
 70
     1
102
RTVSPropertyOp51
 70
     0
102
RTVSPropertyOp52
 70
     0
102
RTVSPropertyOp53
 70
     1
102
RTVSPropertyOp54
 70
     1
102
RTVSPropertyOp55
 70
     1
102
RTVSPropertyOp56
 70
     1
102
RTVSPropertyOp57
 70
     1
102
RTVSPost2010Prop28
280
     0
102
RTVSPost2010PropOp28
 70
     1
102
RTVSPost2010Prop29
280
     1
102
RTVSPost2010PropOp29
 70
     1
102
RTVSPost2010Prop30
280
     1
102
RTVSPost2010PropOp30
 70
     1
102
RTVSPost2010Prop31
280
     0
102
RTVSPost2010PropOp31
 70
     1
102
RTVSPost2010Prop32
280
     0
102
RTVSPost2010PropOp32
 70
     1
102
RTVSPost2010Prop33
280
     0
102
RTVSPost2010PropOp33
 70
     1
102
RTVSPost2010Prop34
280
     0
102
RTVSPost2010PropOp34
 70
     1
102
RTVSPost2010Prop35
280
     0
102
RTVSPost2010PropOp35
 70
     1
102
RTVSPost2010Prop36
280
     0
102
RTVSPost2010PropOp36
 70
     1
102
RTVSPost2010Prop37
 90
       50
102
RTVSPost2010PropOp37
 70
     1
102
RTVSPost2010Prop38
140
0.0
102
RTVSPost2010PropOp38
 70
     1
102
RTVSPost2010Prop39
140
1.0
102
RTVSPost2010PropOp39
 70
     1
102
RTVSPost2010Prop40
 90
        0
102
RTVSPost2010PropOp40
 70
     1
102
RTVSPost2010Prop41ColorIndex
 90
       18
102
RTVSPost2010Prop41ColorRGB
 90
        0
102
RTVSPost2010PropOp41
 70
     1
102
RTVSPost2010Prop42
 90
       50
102
RTVSPost2010PropOp42
 70
     1
102
RTVSPost2010Prop43
 90
        3
102
RTVSPost2010PropOp43
 70
     1
102
RTVSPost2010Prop44ColorIndex
 90
        5
102
RTVSPost2010Prop44ColorRGB
 90
      255
102
RTVSPost2010PropOp44
 70
     1
102
RTVSPost2010Prop45
280
     0
102
RTVSPost2010PropOp45
 70
     1
102
RTVSPost2010Prop46
 90
       50
102
RTVSPost2010PropOp46
 70
     1
102
RTVSPost2010Prop47
 90
       50
102
RTVSPost2010PropOp47
 70
     1
102
RTVSPost2010Prop48
 90
       50
102
RTVSPost2010PropOp48
 70
     1
102
RTVSPost2010Prop49
280
     0
102
RTVSPost2010PropOp49
 70
     1
102
RTVSPost2010Prop50
 90
       50
102
RTVSPost2010PropOp50
 70
     1
102
RTVSPost2010Prop51ColorIndex
 90
      256
102
RTVSPost2010Prop51ColorRGB
 90
-16777216
102
RTVSPost2010PropOp51
 70
     0
102
RTVSPost2010Prop52
140
1.0
102
RTVSPost2010PropOp52
 70
     0
102
RTVSPost2010Prop53
 90
        2
102
RTVSPost2010PropOp53
 70
     1
102
RTVSPost2010Prop54
  1
strokes_ogs.tif
102
RTVSPost2010PropOp54
 70
     1
102
RTVSPost2010Prop55
280
     0
102
RTVSPost2010PropOp55
 70
     1
102
RTVSPost2010Prop56
140
1.0
102
RTVSPost2010PropOp56
 70
     1
102
RTVSPost2010Prop57
140
1.0
102
RTVSPost2010PropOp57
 70
     1
  0
XRECORD
  5
418
102
{ACAD_REACTORS
330
417
102
}
330
417
100
AcDbXrecord
280
     1
102
RTVSPropertyOp0
 70
     1
102
RTVSPropertyOp1
 70
     1
102
RTVSPropertyOp2
 70
     1
102
RTVSPropertyOp3
 70
     1
102
RTVSPropertyOp4
 70
     1
102
RTVSPropertyOp5
 70
     1
102
RTVSPropertyOp6
 70
     1
102
RTVSPropertyOp7
 70
     1
102
RTVSPropertyOp8
 70
     1
102
RTVSPropertyOp9
 70
     1
102
RTVSPropertyOp10
 70
     1
102
RTVSPropertyOp11
 70
     1
102
RTVSPropertyOp12
 70
     1
102
RTVSPropertyOp13
 70
     1
102
RTVSPropertyOp14
 70
     1
102
RTVSPropertyOp15
 70
     1
102
RTVSPropertyOp16
 70
     1
102
RTVSPropertyOp17
 70
     1
102
RTVSPropertyOp18
 70
     1
102
RTVSPropertyOp19
 70
     1
102
RTVSPropertyOp20
 70
     1
102
RTVSPropertyOp21
 70
     1
102
RTVSPropertyOp22
 70
     1
102
RTVSPropertyOp23
 70
     1
102
RTVSPropertyOp24
 70
     1
102
RTVSPropertyOp25
 70
     1
102
RTVSPropertyOp26
 70
     1
102
RTVSPropertyOp27
 70
     1
102
RTVSPropertyOp28
 70
     1
102
RTVSPropertyOp29
 70
     1
102
RTVSPropertyOp30
 70
     1
102
RTVSPropertyOp31
 70
     1
102
RTVSPropertyOp32
 70
     1
102
RTVSPropertyOp33
 70
     1
102
RTVSPropertyOp34
 70
     1
102
RTVSPropertyOp35
 70
     1
102
RTVSPropertyOp36
 70
     1
102
RTVSPropertyOp37
 70
     1
102
RTVSPropertyOp38
 70
     1
102
RTVSPropertyOp39
 70
     1
102
RTVSPropertyOp40
 70
     1
102
RTVSPropertyOp41
 70
     1
102
RTVSPropertyOp42
 70
     1
102
RTVSPropertyOp43
 70
     1
102
RTVSPropertyOp44
 70
     1
102
RTVSPropertyOp45
 70
     1
102
RTVSPropertyOp46
 70
     1
102
RTVSPropertyOp47
 70
     1
102
RTVSPropertyOp48
 70
     1
102
RTVSPropertyOp49
 70
     1
102
RTVSPropertyOp50
 70
     1
102
RTVSPropertyOp51
 70
     0
102
RTVSPropertyOp52
 70
     0
102
RTVSPropertyOp53
 70
     1
102
RTVSPropertyOp54
 70
     1
102
RTVSPropertyOp55
 70
     1
102
RTVSPropertyOp56
 70
     1
102
RTVSPropertyOp57
 70
     1
102
RTVSPost2010Prop28
280
     0
102
RTVSPost2010PropOp28
 70
     1
102
RTVSPost2010Prop29
280
     1
102
RTVSPost2010PropOp29
 70
     1
102
RTVSPost2010Prop30
280
     1
102
RTVSPost2010PropOp30
 70
     1
102
RTVSPost2010Prop31
280
     0
102
RTVSPost2010PropOp31
 70
     1
102
RTVSPost2010Prop32
280
     0
102
RTVSPost2010PropOp32
 70
     1
102
RTVSPost2010Prop33
280
     0
102
RTVSPost2010PropOp33
 70
     1
102
RTVSPost2010Prop34
280
     0
102
RTVSPost2010PropOp34
 70
     1
102
RTVSPost2010Prop35
280
     0
102
RTVSPost2010PropOp35
 70
     1
102
RTVSPost2010Prop36
280
     0
102
RTVSPost2010PropOp36
 70
     1
102
RTVSPost2010Prop37
 90
       50
102
RTVSPost2010PropOp37
 70
     1
102
RTVSPost2010Prop38
140
0.0
102
RTVSPost2010PropOp38
 70
     1
102
RTVSPost2010Prop39
140
1.0
102
RTVSPost2010PropOp39
 70
     1
102
RTVSPost2010Prop40
 90
        0
102
RTVSPost2010PropOp40
 70
     1
102
RTVSPost2010Prop41ColorIndex
 90
       18
102
RTVSPost2010Prop41ColorRGB
 90
        0
102
RTVSPost2010PropOp41
 70
     1
102
RTVSPost2010Prop42
 90
       50
102
RTVSPost2010PropOp42
 70
     1
102
RTVSPost2010Prop43
 90
        3
102
RTVSPost2010PropOp43
 70
     1
102
RTVSPost2010Prop44ColorIndex
 90
        5
102
RTVSPost2010Prop44ColorRGB
 90
      255
102
RTVSPost2010PropOp44
 70
     1
102
RTVSPost2010Prop45
280
     0
102
RTVSPost2010PropOp45
 70
     1
102
RTVSPost2010Prop46
 90
       50
102
RTVSPost2010PropOp46
 70
     1
102
RTVSPost2010Prop47
 90
       50
102
RTVSPost2010PropOp47
 70
     1
102
RTVSPost2010Prop48
 90
       50
102
RTVSPost2010PropOp48
 70
     1
102
RTVSPost2010Prop49
280
     0
102
RTVSPost2010PropOp49
 70
     1
102
RTVSPost2010Prop50
 90
       50
102
RTVSPost2010PropOp50
 70
     1
102
RTVSPost2010Prop51ColorIndex
 90
      256
102
RTVSPost2010Prop51ColorRGB
 90
-16777216
102
RTVSPost2010PropOp51
 70
     0
102
RTVSPost2010Prop52
140
1.0
102
RTVSPost2010PropOp52
 70
     0
102
RTVSPost2010Prop53
 90
        2
102
RTVSPost2010PropOp53
 70
     1
102
RTVSPost2010Prop54
  1
strokes_ogs.tif
102
RTVSPost2010PropOp54
 70
     1
102
RTVSPost2010Prop55
280
     0
102
RTVSPost2010PropOp55
 70
     1
102
RTVSPost2010Prop56
140
1.0
102
RTVSPost2010PropOp56
 70
     1
102
RTVSPost2010Prop57
140
1.0
102
RTVSPost2010PropOp57
 70
     1
  0
XRECORD
  5
41A
102
{ACAD_REACTORS
330
419
102
}
330
419
100
AcDbXrecord
280
     1
102
RTVSPropertyOp0
 70
     1
102
RTVSPropertyOp1
 70
     1
102
RTVSPropertyOp2
 70
     1
102
RTVSPropertyOp3
 70
     1
102
RTVSPropertyOp4
 70
     1
102
RTVSPropertyOp5
 70
     1
102
RTVSPropertyOp6
 70
     1
102
RTVSPropertyOp7
 70
     1
102
RTVSPropertyOp8
 70
     1
102
RTVSPropertyOp9
 70
     1
102
RTVSPropertyOp10
 70
     1
102
RTVSPropertyOp11
 70
     1
102
RTVSPropertyOp12
 70
     1
102
RTVSPropertyOp13
 70
     1
102
RTVSPropertyOp14
 70
     1
102
RTVSPropertyOp15
 70
     1
102
RTVSPropertyOp16
 70
     1
102
RTVSPropertyOp17
 70
     1
102
RTVSPropertyOp18
 70
     1
102
RTVSPropertyOp19
 70
     1
102
RTVSPropertyOp20
 70
     1
102
RTVSPropertyOp21
 70
     1
102
RTVSPropertyOp22
 70
     1
102
RTVSPropertyOp23
 70
     1
102
RTVSPropertyOp24
 70
     1
102
RTVSPropertyOp25
 70
     1
102
RTVSPropertyOp26
 70
     1
102
RTVSPropertyOp27
 70
     1
102
RTVSPropertyOp28
 70
     1
102
RTVSPropertyOp29
 70
     1
102
RTVSPropertyOp30
 70
     1
102
RTVSPropertyOp31
 70
     1
102
RTVSPropertyOp32
 70
     1
102
RTVSPropertyOp33
 70
     1
102
RTVSPropertyOp34
 70
     1
102
RTVSPropertyOp35
 70
     1
102
RTVSPropertyOp36
 70
     1
102
RTVSPropertyOp37
 70
     1
102
RTVSPropertyOp38
 70
     1
102
RTVSPropertyOp39
 70
     1
102
RTVSPropertyOp40
 70
     1
102
RTVSPropertyOp41
 70
     1
102
RTVSPropertyOp42
 70
     1
102
RTVSPropertyOp43
 70
     1
102
RTVSPropertyOp44
 70
     1
102
RTVSPropertyOp45
 70
     1
102
RTVSPropertyOp46
 70
     1
102
RTVSPropertyOp47
 70
     1
102
RTVSPropertyOp48
 70
     1
102
RTVSPropertyOp49
 70
     1
102
RTVSPropertyOp50
 70
     1
102
RTVSPropertyOp51
 70
     0
102
RTVSPropertyOp52
 70
     0
102
RTVSPropertyOp53
 70
     1
102
RTVSPropertyOp54
 70
     1
102
RTVSPropertyOp55
 70
     1
102
RTVSPropertyOp56
 70
     1
102
RTVSPropertyOp57
 70
     1
102
RTVSPost2010Prop28
280
     0
102
RTVSPost2010PropOp28
 70
     1
102
RTVSPost2010Prop29
280
     1
102
RTVSPost2010PropOp29
 70
     1
102
RTVSPost2010Prop30
280
     1
102
RTVSPost2010PropOp30
 70
     1
102
RTVSPost2010Prop31
280
     0
102
RTVSPost2010PropOp31
 70
     1
102
RTVSPost2010Prop32
280
     0
102
RTVSPost2010PropOp32
 70
     1
102
RTVSPost2010Prop33
280
     0
102
RTVSPost2010PropOp33
 70
     1
102
RTVSPost2010Prop34
280
     0
102
RTVSPost2010PropOp34
 70
     1
102
RTVSPost2010Prop35
280
     0
102
RTVSPost2010PropOp35
 70
     1
102
RTVSPost2010Prop36
280
     0
102
RTVSPost2010PropOp36
 70
     1
102
RTVSPost2010Prop37
 90
       50
102
RTVSPost2010PropOp37
 70
     1
102
RTVSPost2010Prop38
140
0.0
102
RTVSPost2010PropOp38
 70
     1
102
RTVSPost2010Prop39
140
1.0
102
RTVSPost2010PropOp39
 70
     1
102
RTVSPost2010Prop40
 90
        0
102
RTVSPost2010PropOp40
 70
     1
102
RTVSPost2010Prop41ColorIndex
 90
       18
102
RTVSPost2010Prop41ColorRGB
 90
        0
102
RTVSPost2010PropOp41
 70
     1
102
RTVSPost2010Prop42
 90
       50
102
RTVSPost2010PropOp42
 70
     1
102
RTVSPost2010Prop43
 90
        3
102
RTVSPost2010PropOp43
 70
     1
102
RTVSPost2010Prop44ColorIndex
 90
        5
102
RTVSPost2010Prop44ColorRGB
 90
      255
102
RTVSPost2010PropOp44
 70
     1
102
RTVSPost2010Prop45
280
     0
102
RTVSPost2010PropOp45
 70
     1
102
RTVSPost2010Prop46
 90
       50
102
RTVSPost2010PropOp46
 70
     1
102
RTVSPost2010Prop47
 90
       50
102
RTVSPost2010PropOp47
 70
     1
102
RTVSPost2010Prop48
 90
       50
102
RTVSPost2010PropOp48
 70
     1
102
RTVSPost2010Prop49
280
     0
102
RTVSPost2010PropOp49
 70
     1
102
RTVSPost2010Prop50
 90
       50
102
RTVSPost2010PropOp50
 70
     1
102
RTVSPost2010Prop51ColorIndex
 90
      256
102
RTVSPost2010Prop51ColorRGB
 90
-16777216
102
RTVSPost2010PropOp51
 70
     0
102
RTVSPost2010Prop52
140
1.0
102
RTVSPost2010PropOp52
 70
     0
102
RTVSPost2010Prop53
 90
        2
102
RTVSPost2010PropOp53
 70
     1
102
RTVSPost2010Prop54
  1
strokes_ogs.tif
102
RTVSPost2010PropOp54
 70
     1
102
RTVSPost2010Prop55
280
     0
102
RTVSPost2010PropOp55
 70
     1
102
RTVSPost2010Prop56
140
1.0
102
RTVSPost2010PropOp56
 70
     1
102
RTVSPost2010Prop57
140
1.0
102
RTVSPost2010PropOp57
 70
     1
  0
XRECORD
  5
420
102
{ACAD_REACTORS
330
41F
102
}
330
41F
100
AcDbXrecord
280
     1
102
RTVSPropertyOp0
 70
     1
102
RTVSPropertyOp1
 70
     1
102
RTVSPropertyOp2
 70
     1
102
RTVSPropertyOp3
 70
     1
102
RTVSPropertyOp4
 70
     1
102
RTVSPropertyOp5
 70
     1
102
RTVSPropertyOp6
 70
     1
102
RTVSPropertyOp7
 70
     1
102
RTVSPropertyOp8
 70
     1
102
RTVSPropertyOp9
 70
     1
102
RTVSPropertyOp10
 70
     1
102
RTVSPropertyOp11
 70
     1
102
RTVSPropertyOp12
 70
     1
102
RTVSPropertyOp13
 70
     1
102
RTVSPropertyOp14
 70
     1
102
RTVSPropertyOp15
 70
     1
102
RTVSPropertyOp16
 70
     1
102
RTVSPropertyOp17
 70
     1
102
RTVSPropertyOp18
 70
     1
102
RTVSPropertyOp19
 70
     1
102
RTVSPropertyOp20
 70
     1
102
RTVSPropertyOp21
 70
     1
102
RTVSPropertyOp22
 70
     1
102
RTVSPropertyOp23
 70
     1
102
RTVSPropertyOp24
 70
     1
102
RTVSPropertyOp25
 70
     1
102
RTVSPropertyOp26
 70
     1
102
RTVSPropertyOp27
 70
     1
102
RTVSPropertyOp28
 70
     1
102
RTVSPropertyOp29
 70
     1
102
RTVSPropertyOp30
 70
     1
102
RTVSPropertyOp31
 70
     1
102
RTVSPropertyOp32
 70
     1
102
RTVSPropertyOp33
 70
     1
102
RTVSPropertyOp34
 70
     1
102
RTVSPropertyOp35
 70
     1
102
RTVSPropertyOp36
 70
     1
102
RTVSPropertyOp37
 70
     1
102
RTVSPropertyOp38
 70
     1
102
RTVSPropertyOp39
 70
     1
102
RTVSPropertyOp40
 70
     1
102
RTVSPropertyOp41
 70
     1
102
RTVSPropertyOp42
 70
     1
102
RTVSPropertyOp43
 70
     1
102
RTVSPropertyOp44
 70
     1
102
RTVSPropertyOp45
 70
     1
102
RTVSPropertyOp46
 70
     1
102
RTVSPropertyOp47
 70
     1
102
RTVSPropertyOp48
 70
     1
102
RTVSPropertyOp49
 70
     1
102
RTVSPropertyOp50
 70
     1
102
RTVSPropertyOp51
 70
     0
102
RTVSPropertyOp52
 70
     0
102
RTVSPropertyOp53
 70
     1
102
RTVSPropertyOp54
 70
     1
102
RTVSPropertyOp55
 70
     1
102
RTVSPropertyOp56
 70
     1
102
RTVSPropertyOp57
 70
     1
102
RTVSPost2010Prop28
280
     0
102
RTVSPost2010PropOp28
 70
     1
102
RTVSPost2010Prop29
280
     1
102
RTVSPost2010PropOp29
 70
     1
102
RTVSPost2010Prop30
280
     1
102
RTVSPost2010PropOp30
 70
     1
102
RTVSPost2010Prop31
280
     0
102
RTVSPost2010PropOp31
 70
     1
102
RTVSPost2010Prop32
280
     0
102
RTVSPost2010PropOp32
 70
     1
102
RTVSPost2010Prop33
280
     0
102
RTVSPost2010PropOp33
 70
     1
102
RTVSPost2010Prop34
280
     0
102
RTVSPost2010PropOp34
 70
     1
102
RTVSPost2010Prop35
280
     0
102
RTVSPost2010PropOp35
 70
     1
102
RTVSPost2010Prop36
280
     0
102
RTVSPost2010PropOp36
 70
     1
102
RTVSPost2010Prop37
 90
       50
102
RTVSPost2010PropOp37
 70
     1
102
RTVSPost2010Prop38
140
0.0
102
RTVSPost2010PropOp38
 70
     1
102
RTVSPost2010Prop39
140
1.0
102
RTVSPost2010PropOp39
 70
     1
102
RTVSPost2010Prop40
 90
        0
102
RTVSPost2010PropOp40
 70
     1
102
RTVSPost2010Prop41ColorIndex
 90
       18
102
RTVSPost2010Prop41ColorRGB
 90
        0
102
RTVSPost2010PropOp41
 70
     1
102
RTVSPost2010Prop42
 90
       50
102
RTVSPost2010PropOp42
 70
     1
102
RTVSPost2010Prop43
 90
        3
102
RTVSPost2010PropOp43
 70
     1
102
RTVSPost2010Prop44ColorIndex
 90
        5
102
RTVSPost2010Prop44ColorRGB
 90
      255
102
RTVSPost2010PropOp44
 70
     1
102
RTVSPost2010Prop45
280
     0
102
RTVSPost2010PropOp45
 70
     1
102
RTVSPost2010Prop46
 90
       50
102
RTVSPost2010PropOp46
 70
     1
102
RTVSPost2010Prop47
 90
       50
102
RTVSPost2010PropOp47
 70
     1
102
RTVSPost2010Prop48
 90
       50
102
RTVSPost2010PropOp48
 70
     1
102
RTVSPost2010Prop49
280
     0
102
RTVSPost2010PropOp49
 70
     1
102
RTVSPost2010Prop50
 90
       50
102
RTVSPost2010PropOp50
 70
     1
102
RTVSPost2010Prop51ColorIndex
 90
      256
102
RTVSPost2010Prop51ColorRGB
 90
-16777216
102
RTVSPost2010PropOp51
 70
     0
102
RTVSPost2010Prop52
140
1.0
102
RTVSPost2010PropOp52
 70
     0
102
RTVSPost2010Prop53
 90
        2
102
RTVSPost2010PropOp53
 70
     1
102
RTVSPost2010Prop54
  1
strokes_ogs.tif
102
RTVSPost2010PropOp54
 70
     1
102
RTVSPost2010Prop55
280
     0
102
RTVSPost2010PropOp55
 70
     1
102
RTVSPost2010Prop56
140
1.0
102
RTVSPost2010PropOp56
 70
     1
102
RTVSPost2010Prop57
140
1.0
102
RTVSPost2010PropOp57
 70
     1
  0
XRECORD
  5
434
102
{ACAD_REACTORS
330
433
102
}
330
433
100
AcDbXrecord
280
     1
102
RTVSPropertyOp0
 70
     0
102
RTVSPropertyOp1
 70
     0
102
RTVSPropertyOp2
 70
     0
102
RTVSPropertyOp3
 70
     0
102
RTVSPropertyOp4
 70
     0
102
RTVSPropertyOp5
 70
     0
102
RTVSPropertyOp6
 70
     0
102
RTVSPropertyOp7
 70
     0
102
RTVSPropertyOp8
 70
     0
102
RTVSPropertyOp9
 70
     0
102
RTVSPropertyOp10
 70
     0
102
RTVSPropertyOp11
 70
     0
102
RTVSPropertyOp12
 70
     0
102
RTVSPropertyOp13
 70
     0
102
RTVSPropertyOp14
 70
     2
102
RTVSPropertyOp15
 70
     0
102
RTVSPropertyOp16
 70
     0
102
RTVSPropertyOp17
 70
     0
102
RTVSPropertyOp18
 70
     0
102
RTVSPropertyOp19
 70
     0
102
RTVSPropertyOp20
 70
     0
102
RTVSPropertyOp21
 70
     0
102
RTVSPropertyOp22
 70
     0
102
RTVSPropertyOp23
 70
     0
102
RTVSPropertyOp24
 70
     0
102
RTVSPropertyOp25
 70
     0
102
RTVSPropertyOp26
 70
     0
102
RTVSPropertyOp27
 70
     0
102
RTVSPropertyOp28
 70
     0
102
RTVSPropertyOp29
 70
     0
102
RTVSPropertyOp30
 70
     0
102
RTVSPropertyOp31
 70
     0
102
RTVSPropertyOp32
 70
     0
102
RTVSPropertyOp33
 70
     0
102
RTVSPropertyOp34
 70
     0
102
RTVSPropertyOp35
 70
     0
102
RTVSPropertyOp36
 70
     0
102
RTVSPropertyOp37
 70
     0
102
RTVSPropertyOp38
 70
     0
102
RTVSPropertyOp39
 70
     0
102
RTVSPropertyOp40
 70
     0
102
RTVSPropertyOp41
 70
     0
102
RTVSPropertyOp42
 70
     0
102
RTVSPropertyOp43
 70
     0
102
RTVSPropertyOp44
 70
     0
102
RTVSPropertyOp45
 70
     0
102
RTVSPropertyOp46
 70
     0
102
RTVSPropertyOp47
 70
     0
102
RTVSPropertyOp48
 70
     0
102
RTVSPropertyOp49
 70
     0
102
RTVSPropertyOp50
 70
     0
102
RTVSPropertyOp51
 70
     0
102
RTVSPropertyOp52
 70
     0
102
RTVSPropertyOp53
 70
     0
102
RTVSPropertyOp54
 70
     0
102
RTVSPropertyOp55
 70
     0
102
RTVSPropertyOp56
 70
     0
102
RTVSPropertyOp57
 70
     0
102
RTVSPost2010Prop28
280
     0
102
RTVSPost2010PropOp28
 70
     0
102
RTVSPost2010Prop29
280
     1
102
RTVSPost2010PropOp29
 70
     0
102
RTVSPost2010Prop30
280
     1
102
RTVSPost2010PropOp30
 70
     0
102
RTVSPost2010Prop31
280
     0
102
RTVSPost2010PropOp31
 70
     0
102
RTVSPost2010Prop32
280
     0
102
RTVSPost2010PropOp32
 70
     0
102
RTVSPost2010Prop33
280
     0
102
RTVSPost2010PropOp33
 70
     0
102
RTVSPost2010Prop34
280
     0
102
RTVSPost2010PropOp34
 70
     0
102
RTVSPost2010Prop35
280
     0
102
RTVSPost2010PropOp35
 70
     0
102
RTVSPost2010Prop36
280
     0
102
RTVSPost2010PropOp36
 70
     0
102
RTVSPost2010Prop37
 90
       50
102
RTVSPost2010PropOp37
 70
     0
102
RTVSPost2010Prop38
140
0.0
102
RTVSPost2010PropOp38
 70
     0
102
RTVSPost2010Prop39
140
1.0
102
RTVSPost2010PropOp39
 70
     0
102
RTVSPost2010Prop40
 90
        0
102
RTVSPost2010PropOp40
 70
     0
102
RTVSPost2010Prop41ColorIndex
 90
       18
102
RTVSPost2010Prop41ColorRGB
 90
        0
102
RTVSPost2010PropOp41
 70
     0
102
RTVSPost2010Prop42
 90
       50
102
RTVSPost2010PropOp42
 70
     0
102
RTVSPost2010Prop43
 90
        3
102
RTVSPost2010PropOp43
 70
     0
102
RTVSPost2010Prop44ColorIndex
 90
        5
102
RTVSPost2010Prop44ColorRGB
 90
      255
102
RTVSPost2010PropOp44
 70
     0
102
RTVSPost2010Prop45
280
     0
102
RTVSPost2010PropOp45
 70
     0
102
RTVSPost2010Prop46
 90
       50
102
RTVSPost2010PropOp46
 70
     0
102
RTVSPost2010Prop47
 90
       50
102
RTVSPost2010PropOp47
 70
     0
102
RTVSPost2010Prop48
 90
       50
102
RTVSPost2010PropOp48
 70
     0
102
RTVSPost2010Prop49
280
     0
102
RTVSPost2010PropOp49
 70
     0
102
RTVSPost2010Prop50
 90
       50
102
RTVSPost2010PropOp50
 70
     0
102
RTVSPost2010Prop51ColorIndex
 90
      256
102
RTVSPost2010Prop51ColorRGB
 90
-16777216
102
RTVSPost2010PropOp51
 70
     0
102
RTVSPost2010Prop52
140
1.0
102
RTVSPost2010PropOp52
 70
     0
102
RTVSPost2010Prop53
 90
        2
102
RTVSPost2010PropOp53
 70
     0
102
RTVSPost2010Prop54
  1
strokes_ogs.tif
102
RTVSPost2010PropOp54
 70
     0
102
RTVSPost2010Prop55
280
     0
102
RTVSPost2010PropOp55
 70
     0
102
RTVSPost2010Prop56
140
1.0
102
RTVSPost2010PropOp56
 70
     0
102
RTVSPost2010Prop57
140
1.0
102
RTVSPost2010PropOp57
 70
     0
  0
XRECORD
  5
42E
102
{ACAD_REACTORS
330
42D
102
}
330
42D
100
AcDbXrecord
280
     1
102
RTVSPropertyOp0
 70
     1
102
RTVSPropertyOp1
 70
     1
102
RTVSPropertyOp2
 70
     1
102
RTVSPropertyOp3
 70
     1
102
RTVSPropertyOp4
 70
     1
102
RTVSPropertyOp5
 70
     1
102
RTVSPropertyOp6
 70
     1
102
RTVSPropertyOp7
 70
     1
102
RTVSPropertyOp8
 70
     1
102
RTVSPropertyOp9
 70
     1
102
RTVSPropertyOp10
 70
     1
102
RTVSPropertyOp11
 70
     1
102
RTVSPropertyOp12
 70
     1
102
RTVSPropertyOp13
 70
     1
102
RTVSPropertyOp14
 70
     1
102
RTVSPropertyOp15
 70
     1
102
RTVSPropertyOp16
 70
     1
102
RTVSPropertyOp17
 70
     1
102
RTVSPropertyOp18
 70
     1
102
RTVSPropertyOp19
 70
     1
102
RTVSPropertyOp20
 70
     1
102
RTVSPropertyOp21
 70
     1
102
RTVSPropertyOp22
 70
     1
102
RTVSPropertyOp23
 70
     1
102
RTVSPropertyOp24
 70
     1
102
RTVSPropertyOp25
 70
     1
102
RTVSPropertyOp26
 70
     1
102
RTVSPropertyOp27
 70
     1
102
RTVSPropertyOp28
 70
     1
102
RTVSPropertyOp29
 70
     1
102
RTVSPropertyOp30
 70
     1
102
RTVSPropertyOp31
 70
     1
102
RTVSPropertyOp32
 70
     1
102
RTVSPropertyOp33
 70
     1
102
RTVSPropertyOp34
 70
     1
102
RTVSPropertyOp35
 70
     1
102
RTVSPropertyOp36
 70
     1
102
RTVSPropertyOp37
 70
     1
102
RTVSPropertyOp38
 70
     1
102
RTVSPropertyOp39
 70
     1
102
RTVSPropertyOp40
 70
     1
102
RTVSPropertyOp41
 70
     1
102
RTVSPropertyOp42
 70
     1
102
RTVSPropertyOp43
 70
     1
102
RTVSPropertyOp44
 70
     1
102
RTVSPropertyOp45
 70
     1
102
RTVSPropertyOp46
 70
     1
102
RTVSPropertyOp47
 70
     1
102
RTVSPropertyOp48
 70
     1
102
RTVSPropertyOp49
 70
     1
102
RTVSPropertyOp50
 70
     1
102
RTVSPropertyOp51
 70
     0
102
RTVSPropertyOp52
 70
     0
102
RTVSPropertyOp53
 70
     1
102
RTVSPropertyOp54
 70
     1
102
RTVSPropertyOp55
 70
     1
102
RTVSPropertyOp56
 70
     1
102
RTVSPropertyOp57
 70
     1
102
RTVSPost2010Prop28
280
     0
102
RTVSPost2010PropOp28
 70
     1
102
RTVSPost2010Prop29
280
     1
102
RTVSPost2010PropOp29
 70
     1
102
RTVSPost2010Prop30
280
     1
102
RTVSPost2010PropOp30
 70
     1
102
RTVSPost2010Prop31
280
     0
102
RTVSPost2010PropOp31
 70
     1
102
RTVSPost2010Prop32
280
     0
102
RTVSPost2010PropOp32
 70
     1
102
RTVSPost2010Prop33
280
     0
102
RTVSPost2010PropOp33
 70
     1
102
RTVSPost2010Prop34
280
     0
102
RTVSPost2010PropOp34
 70
     1
102
RTVSPost2010Prop35
280
     0
102
RTVSPost2010PropOp35
 70
     1
102
RTVSPost2010Prop36
280
     0
102
RTVSPost2010PropOp36
 70
     1
102
RTVSPost2010Prop37
 90
       50
102
RTVSPost2010PropOp37
 70
     1
102
RTVSPost2010Prop38
140
0.0
102
RTVSPost2010PropOp38
 70
     1
102
RTVSPost2010Prop39
140
1.0
102
RTVSPost2010PropOp39
 70
     1
102
RTVSPost2010Prop40
 90
        0
102
RTVSPost2010PropOp40
 70
     1
102
RTVSPost2010Prop41ColorIndex
 90
       18
102
RTVSPost2010Prop41ColorRGB
 90
        0
102
RTVSPost2010PropOp41
 70
     1
102
RTVSPost2010Prop42
 90
       50
102
RTVSPost2010PropOp42
 70
     1
102
RTVSPost2010Prop43
 90
        3
102
RTVSPost2010PropOp43
 70
     1
102
RTVSPost2010Prop44ColorIndex
 90
        5
102
RTVSPost2010Prop44ColorRGB
 90
      255
102
RTVSPost2010PropOp44
 70
     1
102
RTVSPost2010Prop45
280
     0
102
RTVSPost2010PropOp45
 70
     1
102
RTVSPost2010Prop46
 90
       50
102
RTVSPost2010PropOp46
 70
     1
102
RTVSPost2010Prop47
 90
       50
102
RTVSPost2010PropOp47
 70
     1
102
RTVSPost2010Prop48
 90
       50
102
RTVSPost2010PropOp48
 70
     1
102
RTVSPost2010Prop49
280
     0
102
RTVSPost2010PropOp49
 70
     1
102
RTVSPost2010Prop50
 90
       50
102
RTVSPost2010PropOp50
 70
     1
102
RTVSPost2010Prop51ColorIndex
 90
      256
102
RTVSPost2010Prop51ColorRGB
 90
-16777216
102
RTVSPost2010PropOp51
 70
     0
102
RTVSPost2010Prop52
140
1.0
102
RTVSPost2010PropOp52
 70
     0
102
RTVSPost2010Prop53
 90
        2
102
RTVSPost2010PropOp53
 70
     1
102
RTVSPost2010Prop54
  1
strokes_ogs.tif
102
RTVSPost2010PropOp54
 70
     1
102
RTVSPost2010Prop55
280
     0
102
RTVSPost2010PropOp55
 70
     1
102
RTVSPost2010Prop56
140
1.0
102
RTVSPost2010PropOp56
 70
     1
102
RTVSPost2010Prop57
140
1.0
102
RTVSPost2010PropOp57
 70
     1
  0
XRECORD
  5
436
102
{ACAD_REACTORS
330
435
102
}
330
435
100
AcDbXrecord
280
     1
102
RTVSPropertyOp0
 70
     0
102
RTVSPropertyOp1
 70
     0
102
RTVSPropertyOp2
 70
     0
102
RTVSPropertyOp3
 70
     0
102
RTVSPropertyOp4
 70
     0
102
RTVSPropertyOp5
 70
     0
102
RTVSPropertyOp6
 70
     0
102
RTVSPropertyOp7
 70
     0
102
RTVSPropertyOp8
 70
     0
102
RTVSPropertyOp9
 70
     0
102
RTVSPropertyOp10
 70
     0
102
RTVSPropertyOp11
 70
     0
102
RTVSPropertyOp12
 70
     0
102
RTVSPropertyOp13
 70
     0
102
RTVSPropertyOp14
 70
     2
102
RTVSPropertyOp15
 70
     0
102
RTVSPropertyOp16
 70
     0
102
RTVSPropertyOp17
 70
     0
102
RTVSPropertyOp18
 70
     0
102
RTVSPropertyOp19
 70
     0
102
RTVSPropertyOp20
 70
     0
102
RTVSPropertyOp21
 70
     0
102
RTVSPropertyOp22
 70
     0
102
RTVSPropertyOp23
 70
     0
102
RTVSPropertyOp24
 70
     0
102
RTVSPropertyOp25
 70
     0
102
RTVSPropertyOp26
 70
     0
102
RTVSPropertyOp27
 70
     0
102
RTVSPropertyOp28
 70
     0
102
RTVSPropertyOp29
 70
     0
102
RTVSPropertyOp30
 70
     0
102
RTVSPropertyOp31
 70
     0
102
RTVSPropertyOp32
 70
     0
102
RTVSPropertyOp33
 70
     0
102
RTVSPropertyOp34
 70
     0
102
RTVSPropertyOp35
 70
     0
102
RTVSPropertyOp36
 70
     0
102
RTVSPropertyOp37
 70
     0
102
RTVSPropertyOp38
 70
     0
102
RTVSPropertyOp39
 70
     0
102
RTVSPropertyOp40
 70
     0
102
RTVSPropertyOp41
 70
     0
102
RTVSPropertyOp42
 70
     0
102
RTVSPropertyOp43
 70
     0
102
RTVSPropertyOp44
 70
     0
102
RTVSPropertyOp45
 70
     0
102
RTVSPropertyOp46
 70
     0
102
RTVSPropertyOp47
 70
     0
102
RTVSPropertyOp48
 70
     0
102
RTVSPropertyOp49
 70
     0
102
RTVSPropertyOp50
 70
     0
102
RTVSPropertyOp51
 70
     0
102
RTVSPropertyOp52
 70
     0
102
RTVSPropertyOp53
 70
     0
102
RTVSPropertyOp54
 70
     0
102
RTVSPropertyOp55
 70
     0
102
RTVSPropertyOp56
 70
     0
102
RTVSPropertyOp57
 70
     0
102
RTVSPost2010Prop28
280
     0
102
RTVSPost2010PropOp28
 70
     0
102
RTVSPost2010Prop29
280
     1
102
RTVSPost2010PropOp29
 70
     0
102
RTVSPost2010Prop30
280
     1
102
RTVSPost2010PropOp30
 70
     0
102
RTVSPost2010Prop31
280
     0
102
RTVSPost2010PropOp31
 70
     0
102
RTVSPost2010Prop32
280
     0
102
RTVSPost2010PropOp32
 70
     0
102
RTVSPost2010Prop33
280
     0
102
RTVSPost2010PropOp33
 70
     0
102
RTVSPost2010Prop34
280
     0
102
RTVSPost2010PropOp34
 70
     0
102
RTVSPost2010Prop35
280
     0
102
RTVSPost2010PropOp35
 70
     0
102
RTVSPost2010Prop36
280
     0
102
RTVSPost2010PropOp36
 70
     0
102
RTVSPost2010Prop37
 90
       50
102
RTVSPost2010PropOp37
 70
     0
102
RTVSPost2010Prop38
140
0.0
102
RTVSPost2010PropOp38
 70
     0
102
RTVSPost2010Prop39
140
1.0
102
RTVSPost2010PropOp39
 70
     0
102
RTVSPost2010Prop40
 90
        0
102
RTVSPost2010PropOp40
 70
     0
102
RTVSPost2010Prop41ColorIndex
 90
       18
102
RTVSPost2010Prop41ColorRGB
 90
        0
102
RTVSPost2010PropOp41
 70
     0
102
RTVSPost2010Prop42
 90
       50
102
RTVSPost2010PropOp42
 70
     0
102
RTVSPost2010Prop43
 90
        3
102
RTVSPost2010PropOp43
 70
     0
102
RTVSPost2010Prop44ColorIndex
 90
        5
102
RTVSPost2010Prop44ColorRGB
 90
      255
102
RTVSPost2010PropOp44
 70
     0
102
RTVSPost2010Prop45
280
     0
102
RTVSPost2010PropOp45
 70
     0
102
RTVSPost2010Prop46
 90
       50
102
RTVSPost2010PropOp46
 70
     0
102
RTVSPost2010Prop47
 90
       50
102
RTVSPost2010PropOp47
 70
     0
102
RTVSPost2010Prop48
 90
       50
102
RTVSPost2010PropOp48
 70
     0
102
RTVSPost2010Prop49
280
     0
102
RTVSPost2010PropOp49
 70
     0
102
RTVSPost2010Prop50
 90
       50
102
RTVSPost2010PropOp50
 70
     0
102
RTVSPost2010Prop51ColorIndex
 90
      256
102
RTVSPost2010Prop51ColorRGB
 90
-16777216
102
RTVSPost2010PropOp51
 70
     0
102
RTVSPost2010Prop52
140
1.0
102
RTVSPost2010PropOp52
 70
     0
102
RTVSPost2010Prop53
 90
        2
102
RTVSPost2010PropOp53
 70
     0
102
RTVSPost2010Prop54
  1
strokes_ogs.tif
102
RTVSPost2010PropOp54
 70
     0
102
RTVSPost2010Prop55
280
     0
102
RTVSPost2010PropOp55
 70
     0
102
RTVSPost2010Prop56
140
1.0
102
RTVSPost2010PropOp56
 70
     0
102
RTVSPost2010Prop57
140
1.0
102
RTVSPost2010PropOp57
 70
     0
  0
XRECORD
  5
424
102
{ACAD_REACTORS
330
423
102
}
330
423
100
AcDbXrecord
280
     1
102
RTVSPropertyOp0
 70
     1
102
RTVSPropertyOp1
 70
     1
102
RTVSPropertyOp2
 70
     1
102
RTVSPropertyOp3
 70
     1
102
RTVSPropertyOp4
 70
     1
102
RTVSPropertyOp5
 70
     1
102
RTVSPropertyOp6
 70
     1
102
RTVSPropertyOp7
 70
     1
102
RTVSPropertyOp8
 70
     1
102
RTVSPropertyOp9
 70
     1
102
RTVSPropertyOp10
 70
     1
102
RTVSPropertyOp11
 70
     1
102
RTVSPropertyOp12
 70
     1
102
RTVSPropertyOp13
 70
     1
102
RTVSPropertyOp14
 70
     1
102
RTVSPropertyOp15
 70
     1
102
RTVSPropertyOp16
 70
     1
102
RTVSPropertyOp17
 70
     1
102
RTVSPropertyOp18
 70
     1
102
RTVSPropertyOp19
 70
     1
102
RTVSPropertyOp20
 70
     1
102
RTVSPropertyOp21
 70
     1
102
RTVSPropertyOp22
 70
     1
102
RTVSPropertyOp23
 70
     1
102
RTVSPropertyOp24
 70
     1
102
RTVSPropertyOp25
 70
     1
102
RTVSPropertyOp26
 70
     1
102
RTVSPropertyOp27
 70
     1
102
RTVSPropertyOp28
 70
     1
102
RTVSPropertyOp29
 70
     1
102
RTVSPropertyOp30
 70
     1
102
RTVSPropertyOp31
 70
     1
102
RTVSPropertyOp32
 70
     1
102
RTVSPropertyOp33
 70
     1
102
RTVSPropertyOp34
 70
     1
102
RTVSPropertyOp35
 70
     1
102
RTVSPropertyOp36
 70
     1
102
RTVSPropertyOp37
 70
     1
102
RTVSPropertyOp38
 70
     1
102
RTVSPropertyOp39
 70
     1
102
RTVSPropertyOp40
 70
     1
102
RTVSPropertyOp41
 70
     1
102
RTVSPropertyOp42
 70
     1
102
RTVSPropertyOp43
 70
     1
102
RTVSPropertyOp44
 70
     1
102
RTVSPropertyOp45
 70
     1
102
RTVSPropertyOp46
 70
     1
102
RTVSPropertyOp47
 70
     1
102
RTVSPropertyOp48
 70
     1
102
RTVSPropertyOp49
 70
     1
102
RTVSPropertyOp50
 70
     1
102
RTVSPropertyOp51
 70
     0
102
RTVSPropertyOp52
 70
     0
102
RTVSPropertyOp53
 70
     1
102
RTVSPropertyOp54
 70
     1
102
RTVSPropertyOp55
 70
     1
102
RTVSPropertyOp56
 70
     1
102
RTVSPropertyOp57
 70
     1
102
RTVSPost2010Prop28
280
     0
102
RTVSPost2010PropOp28
 70
     1
102
RTVSPost2010Prop29
280
     1
102
RTVSPost2010PropOp29
 70
     1
102
RTVSPost2010Prop30
280
     1
102
RTVSPost2010PropOp30
 70
     1
102
RTVSPost2010Prop31
280
     0
102
RTVSPost2010PropOp31
 70
     1
102
RTVSPost2010Prop32
280
     0
102
RTVSPost2010PropOp32
 70
     1
102
RTVSPost2010Prop33
280
     0
102
RTVSPost2010PropOp33
 70
     1
102
RTVSPost2010Prop34
280
     0
102
RTVSPost2010PropOp34
 70
     1
102
RTVSPost2010Prop35
280
     0
102
RTVSPost2010PropOp35
 70
     1
102
RTVSPost2010Prop36
280
     0
102
RTVSPost2010PropOp36
 70
     1
102
RTVSPost2010Prop37
 90
       50
102
RTVSPost2010PropOp37
 70
     1
102
RTVSPost2010Prop38
140
0.0
102
RTVSPost2010PropOp38
 70
     1
102
RTVSPost2010Prop39
140
1.0
102
RTVSPost2010PropOp39
 70
     1
102
RTVSPost2010Prop40
 90
        0
102
RTVSPost2010PropOp40
 70
     1
102
RTVSPost2010Prop41ColorIndex
 90
       18
102
RTVSPost2010Prop41ColorRGB
 90
        0
102
RTVSPost2010PropOp41
 70
     1
102
RTVSPost2010Prop42
 90
       50
102
RTVSPost2010PropOp42
 70
     1
102
RTVSPost2010Prop43
 90
        3
102
RTVSPost2010PropOp43
 70
     1
102
RTVSPost2010Prop44ColorIndex
 90
        5
102
RTVSPost2010Prop44ColorRGB
 90
      255
102
RTVSPost2010PropOp44
 70
     1
102
RTVSPost2010Prop45
280
     0
102
RTVSPost2010PropOp45
 70
     1
102
RTVSPost2010Prop46
 90
       50
102
RTVSPost2010PropOp46
 70
     1
102
RTVSPost2010Prop47
 90
       50
102
RTVSPost2010PropOp47
 70
     1
102
RTVSPost2010Prop48
 90
       50
102
RTVSPost2010PropOp48
 70
     1
102
RTVSPost2010Prop49
280
     0
102
RTVSPost2010PropOp49
 70
     1
102
RTVSPost2010Prop50
 90
       50
102
RTVSPost2010PropOp50
 70
     1
102
RTVSPost2010Prop51ColorIndex
 90
      256
102
RTVSPost2010Prop51ColorRGB
 90
-16777216
102
RTVSPost2010PropOp51
 70
     0
102
RTVSPost2010Prop52
140
1.0
102
RTVSPost2010PropOp52
 70
     0
102
RTVSPost2010Prop53
 90
        2
102
RTVSPost2010PropOp53
 70
     1
102
RTVSPost2010Prop54
  1
strokes_ogs.tif
102
RTVSPost2010PropOp54
 70
     1
102
RTVSPost2010Prop55
280
     0
102
RTVSPost2010PropOp55
 70
     1
102
RTVSPost2010Prop56
140
1.0
102
RTVSPost2010PropOp56
 70
     1
102
RTVSPost2010Prop57
140
1.0
102
RTVSPost2010PropOp57
 70
     1
  0
XRECORD
  5
442
102
{ACAD_REACTORS
330
441
102
}
330
441
100
AcDbXrecord
280
     1
102
RTVSPropertyOp0
 70
     1
102
RTVSPropertyOp1
 70
     1
102
RTVSPropertyOp2
 70
     1
102
RTVSPropertyOp3
 70
     1
102
RTVSPropertyOp4
 70
     1
102
RTVSPropertyOp5
 70
     1
102
RTVSPropertyOp6
 70
     1
102
RTVSPropertyOp7
 70
     1
102
RTVSPropertyOp8
 70
     1
102
RTVSPropertyOp9
 70
     1
102
RTVSPropertyOp10
 70
     1
102
RTVSPropertyOp11
 70
     1
102
RTVSPropertyOp12
 70
     1
102
RTVSPropertyOp13
 70
     1
102
RTVSPropertyOp14
 70
     1
102
RTVSPropertyOp15
 70
     1
102
RTVSPropertyOp16
 70
     1
102
RTVSPropertyOp17
 70
     1
102
RTVSPropertyOp18
 70
     1
102
RTVSPropertyOp19
 70
     1
102
RTVSPropertyOp20
 70
     1
102
RTVSPropertyOp21
 70
     1
102
RTVSPropertyOp22
 70
     1
102
RTVSPropertyOp23
 70
     1
102
RTVSPropertyOp24
 70
     1
102
RTVSPropertyOp25
 70
     1
102
RTVSPropertyOp26
 70
     1
102
RTVSPropertyOp27
 70
     1
102
RTVSPropertyOp28
 70
     1
102
RTVSPropertyOp29
 70
     1
102
RTVSPropertyOp30
 70
     1
102
RTVSPropertyOp31
 70
     1
102
RTVSPropertyOp32
 70
     1
102
RTVSPropertyOp33
 70
     1
102
RTVSPropertyOp34
 70
     1
102
RTVSPropertyOp35
 70
     1
102
RTVSPropertyOp36
 70
     1
102
RTVSPropertyOp37
 70
     1
102
RTVSPropertyOp38
 70
     1
102
RTVSPropertyOp39
 70
     1
102
RTVSPropertyOp40
 70
     1
102
RTVSPropertyOp41
 70
     1
102
RTVSPropertyOp42
 70
     1
102
RTVSPropertyOp43
 70
     1
102
RTVSPropertyOp44
 70
     1
102
RTVSPropertyOp45
 70
     1
102
RTVSPropertyOp46
 70
     1
102
RTVSPropertyOp47
 70
     1
102
RTVSPropertyOp48
 70
     1
102
RTVSPropertyOp49
 70
     1
102
RTVSPropertyOp50
 70
     1
102
RTVSPropertyOp51
 70
     0
102
RTVSPropertyOp52
 70
     0
102
RTVSPropertyOp53
 70
     1
102
RTVSPropertyOp54
 70
     1
102
RTVSPropertyOp55
 70
     1
102
RTVSPropertyOp56
 70
     1
102
RTVSPropertyOp57
 70
     1
102
RTVSPost2010Prop28
280
     0
102
RTVSPost2010PropOp28
 70
     1
102
RTVSPost2010Prop29
280
     1
102
RTVSPost2010PropOp29
 70
     1
102
RTVSPost2010Prop30
280
     1
102
RTVSPost2010PropOp30
 70
     1
102
RTVSPost2010Prop31
280
     0
102
RTVSPost2010PropOp31
 70
     1
102
RTVSPost2010Prop32
280
     0
102
RTVSPost2010PropOp32
 70
     1
102
RTVSPost2010Prop33
280
     0
102
RTVSPost2010PropOp33
 70
     1
102
RTVSPost2010Prop34
280
     0
102
RTVSPost2010PropOp34
 70
     1
102
RTVSPost2010Prop35
280
     0
102
RTVSPost2010PropOp35
 70
     1
102
RTVSPost2010Prop36
280
     0
102
RTVSPost2010PropOp36
 70
     1
102
RTVSPost2010Prop37
 90
       50
102
RTVSPost2010PropOp37
 70
     1
102
RTVSPost2010Prop38
140
0.0
102
RTVSPost2010PropOp38
 70
     1
102
RTVSPost2010Prop39
140
1.0
102
RTVSPost2010PropOp39
 70
     1
102
RTVSPost2010Prop40
 90
        0
102
RTVSPost2010PropOp40
 70
     1
102
RTVSPost2010Prop41ColorIndex
 90
       18
102
RTVSPost2010Prop41ColorRGB
 90
        0
102
RTVSPost2010PropOp41
 70
     1
102
RTVSPost2010Prop42
 90
       50
102
RTVSPost2010PropOp42
 70
     1
102
RTVSPost2010Prop43
 90
        3
102
RTVSPost2010PropOp43
 70
     1
102
RTVSPost2010Prop44ColorIndex
 90
        5
102
RTVSPost2010Prop44ColorRGB
 90
      255
102
RTVSPost2010PropOp44
 70
     1
102
RTVSPost2010Prop45
280
     0
102
RTVSPost2010PropOp45
 70
     1
102
RTVSPost2010Prop46
 90
       50
102
RTVSPost2010PropOp46
 70
     1
102
RTVSPost2010Prop47
 90
       50
102
RTVSPost2010PropOp47
 70
     1
102
RTVSPost2010Prop48
 90
       50
102
RTVSPost2010PropOp48
 70
     1
102
RTVSPost2010Prop49
280
     0
102
RTVSPost2010PropOp49
 70
     1
102
RTVSPost2010Prop50
 90
       50
102
RTVSPost2010PropOp50
 70
     1
102
RTVSPost2010Prop51ColorIndex
 90
      256
102
RTVSPost2010Prop51ColorRGB
 90
-16777216
102
RTVSPost2010PropOp51
 70
     0
102
RTVSPost2010Prop52
140
1.0
102
RTVSPost2010PropOp52
 70
     0
102
RTVSPost2010Prop53
 90
        2
102
RTVSPost2010PropOp53
 70
     1
102
RTVSPost2010Prop54
  1
strokes_ogs.tif
102
RTVSPost2010PropOp54
 70
     1
102
RTVSPost2010Prop55
280
     0
102
RTVSPost2010PropOp55
 70
     1
102
RTVSPost2010Prop56
140
1.0
102
RTVSPost2010PropOp56
 70
     1
102
RTVSPost2010Prop57
140
1.0
102
RTVSPost2010PropOp57
 70
     1
  0
XRECORD
  5
440
102
{ACAD_REACTORS
330
43F
102
}
330
43F
100
AcDbXrecord
280
     1
102
RTVSPropertyOp0
 70
     1
102
RTVSPropertyOp1
 70
     1
102
RTVSPropertyOp2
 70
     1
102
RTVSPropertyOp3
 70
     1
102
RTVSPropertyOp4
 70
     1
102
RTVSPropertyOp5
 70
     1
102
RTVSPropertyOp6
 70
     1
102
RTVSPropertyOp7
 70
     1
102
RTVSPropertyOp8
 70
     1
102
RTVSPropertyOp9
 70
     1
102
RTVSPropertyOp10
 70
     1
102
RTVSPropertyOp11
 70
     1
102
RTVSPropertyOp12
 70
     1
102
RTVSPropertyOp13
 70
     1
102
RTVSPropertyOp14
 70
     1
102
RTVSPropertyOp15
 70
     1
102
RTVSPropertyOp16
 70
     1
102
RTVSPropertyOp17
 70
     1
102
RTVSPropertyOp18
 70
     1
102
RTVSPropertyOp19
 70
     1
102
RTVSPropertyOp20
 70
     1
102
RTVSPropertyOp21
 70
     1
102
RTVSPropertyOp22
 70
     1
102
RTVSPropertyOp23
 70
     1
102
RTVSPropertyOp24
 70
     1
102
RTVSPropertyOp25
 70
     1
102
RTVSPropertyOp26
 70
     1
102
RTVSPropertyOp27
 70
     1
102
RTVSPropertyOp28
 70
     1
102
RTVSPropertyOp29
 70
     1
102
RTVSPropertyOp30
 70
     1
102
RTVSPropertyOp31
 70
     1
102
RTVSPropertyOp32
 70
     1
102
RTVSPropertyOp33
 70
     1
102
RTVSPropertyOp34
 70
     1
102
RTVSPropertyOp35
 70
     1
102
RTVSPropertyOp36
 70
     1
102
RTVSPropertyOp37
 70
     1
102
RTVSPropertyOp38
 70
     1
102
RTVSPropertyOp39
 70
     1
102
RTVSPropertyOp40
 70
     1
102
RTVSPropertyOp41
 70
     1
102
RTVSPropertyOp42
 70
     1
102
RTVSPropertyOp43
 70
     1
102
RTVSPropertyOp44
 70
     1
102
RTVSPropertyOp45
 70
     1
102
RTVSPropertyOp46
 70
     1
102
RTVSPropertyOp47
 70
     1
102
RTVSPropertyOp48
 70
     1
102
RTVSPropertyOp49
 70
     1
102
RTVSPropertyOp50
 70
     1
102
RTVSPropertyOp51
 70
     0
102
RTVSPropertyOp52
 70
     0
102
RTVSPropertyOp53
 70
     1
102
RTVSPropertyOp54
 70
     1
102
RTVSPropertyOp55
 70
     1
102
RTVSPropertyOp56
 70
     1
102
RTVSPropertyOp57
 70
     1
102
RTVSPost2010Prop28
280
     0
102
RTVSPost2010PropOp28
 70
     1
102
RTVSPost2010Prop29
280
     1
102
RTVSPost2010PropOp29
 70
     1
102
RTVSPost2010Prop30
280
     1
102
RTVSPost2010PropOp30
 70
     1
102
RTVSPost2010Prop31
280
     0
102
RTVSPost2010PropOp31
 70
     1
102
RTVSPost2010Prop32
280
     0
102
RTVSPost2010PropOp32
 70
     1
102
RTVSPost2010Prop33
280
     0
102
RTVSPost2010PropOp33
 70
     1
102
RTVSPost2010Prop34
280
     0
102
RTVSPost2010PropOp34
 70
     1
102
RTVSPost2010Prop35
280
     0
102
RTVSPost2010PropOp35
 70
     1
102
RTVSPost2010Prop36
280
     0
102
RTVSPost2010PropOp36
 70
     1
102
RTVSPost2010Prop37
 90
       50
102
RTVSPost2010PropOp37
 70
     1
102
RTVSPost2010Prop38
140
0.0
102
RTVSPost2010PropOp38
 70
     1
102
RTVSPost2010Prop39
140
1.0
102
RTVSPost2010PropOp39
 70
     1
102
RTVSPost2010Prop40
 90
        0
102
RTVSPost2010PropOp40
 70
     1
102
RTVSPost2010Prop41ColorIndex
 90
       18
102
RTVSPost2010Prop41ColorRGB
 90
        0
102
RTVSPost2010PropOp41
 70
     1
102
RTVSPost2010Prop42
 90
       50
102
RTVSPost2010PropOp42
 70
     1
102
RTVSPost2010Prop43
 90
        3
102
RTVSPost2010PropOp43
 70
     1
102
RTVSPost2010Prop44ColorIndex
 90
        5
102
RTVSPost2010Prop44ColorRGB
 90
      255
102
RTVSPost2010PropOp44
 70
     1
102
RTVSPost2010Prop45
280
     0
102
RTVSPost2010PropOp45
 70
     1
102
RTVSPost2010Prop46
 90
       50
102
RTVSPost2010PropOp46
 70
     1
102
RTVSPost2010Prop47
 90
       50
102
RTVSPost2010PropOp47
 70
     1
102
RTVSPost2010Prop48
 90
       50
102
RTVSPost2010PropOp48
 70
     1
102
RTVSPost2010Prop49
280
     0
102
RTVSPost2010PropOp49
 70
     1
102
RTVSPost2010Prop50
 90
       50
102
RTVSPost2010PropOp50
 70
     1
102
RTVSPost2010Prop51ColorIndex
 90
      256
102
RTVSPost2010Prop51ColorRGB
 90
-16777216
102
RTVSPost2010PropOp51
 70
     0
102
RTVSPost2010Prop52
140
1.0
102
RTVSPost2010PropOp52
 70
     0
102
RTVSPost2010Prop53
 90
        2
102
RTVSPost2010PropOp53
 70
     1
102
RTVSPost2010Prop54
  1
strokes_ogs.tif
102
RTVSPost2010PropOp54
 70
     1
102
RTVSPost2010Prop55
280
     0
102
RTVSPost2010PropOp55
 70
     1
102
RTVSPost2010Prop56
140
1.0
102
RTVSPost2010PropOp56
 70
     1
102
RTVSPost2010Prop57
140
1.0
102
RTVSPost2010PropOp57
 70
     1
  0
XRECORD
  5
43A
102
{ACAD_REACTORS
330
439
102
}
330
439
100
AcDbXrecord
280
     1
102
RTVSPropertyOp0
 70
     1
102
RTVSPropertyOp1
 70
     1
102
RTVSPropertyOp2
 70
     1
102
RTVSPropertyOp3
 70
     1
102
RTVSPropertyOp4
 70
     1
102
RTVSPropertyOp5
 70
     1
102
RTVSPropertyOp6
 70
     1
102
RTVSPropertyOp7
 70
     1
102
RTVSPropertyOp8
 70
     1
102
RTVSPropertyOp9
 70
     1
102
RTVSPropertyOp10
 70
     1
102
RTVSPropertyOp11
 70
     1
102
RTVSPropertyOp12
 70
     1
102
RTVSPropertyOp13
 70
     1
102
RTVSPropertyOp14
 70
     1
102
RTVSPropertyOp15
 70
     1
102
RTVSPropertyOp16
 70
     1
102
RTVSPropertyOp17
 70
     1
102
RTVSPropertyOp18
 70
     1
102
RTVSPropertyOp19
 70
     1
102
RTVSPropertyOp20
 70
     1
102
RTVSPropertyOp21
 70
     1
102
RTVSPropertyOp22
 70
     1
102
RTVSPropertyOp23
 70
     1
102
RTVSPropertyOp24
 70
     1
102
RTVSPropertyOp25
 70
     1
102
RTVSPropertyOp26
 70
     1
102
RTVSPropertyOp27
 70
     1
102
RTVSPropertyOp28
 70
     1
102
RTVSPropertyOp29
 70
     1
102
RTVSPropertyOp30
 70
     1
102
RTVSPropertyOp31
 70
     1
102
RTVSPropertyOp32
 70
     1
102
RTVSPropertyOp33
 70
     1
102
RTVSPropertyOp34
 70
     1
102
RTVSPropertyOp35
 70
     1
102
RTVSPropertyOp36
 70
     1
102
RTVSPropertyOp37
 70
     1
102
RTVSPropertyOp38
 70
     1
102
RTVSPropertyOp39
 70
     1
102
RTVSPropertyOp40
 70
     1
102
RTVSPropertyOp41
 70
     1
102
RTVSPropertyOp42
 70
     1
102
RTVSPropertyOp43
 70
     1
102
RTVSPropertyOp44
 70
     1
102
RTVSPropertyOp45
 70
     1
102
RTVSPropertyOp46
 70
     1
102
RTVSPropertyOp47
 70
     1
102
RTVSPropertyOp48
 70
     1
102
RTVSPropertyOp49
 70
     1
102
RTVSPropertyOp50
 70
     1
102
RTVSPropertyOp51
 70
     0
102
RTVSPropertyOp52
 70
     0
102
RTVSPropertyOp53
 70
     1
102
RTVSPropertyOp54
 70
     1
102
RTVSPropertyOp55
 70
     1
102
RTVSPropertyOp56
 70
     1
102
RTVSPropertyOp57
 70
     1
102
RTVSPost2010Prop28
280
     0
102
RTVSPost2010PropOp28
 70
     1
102
RTVSPost2010Prop29
280
     1
102
RTVSPost2010PropOp29
 70
     1
102
RTVSPost2010Prop30
280
     1
102
RTVSPost2010PropOp30
 70
     1
102
RTVSPost2010Prop31
280
     0
102
RTVSPost2010PropOp31
 70
     1
102
RTVSPost2010Prop32
280
     0
102
RTVSPost2010PropOp32
 70
     1
102
RTVSPost2010Prop33
280
     0
102
RTVSPost2010PropOp33
 70
     1
102
RTVSPost2010Prop34
280
     0
102
RTVSPost2010PropOp34
 70
     1
102
RTVSPost2010Prop35
280
     0
102
RTVSPost2010PropOp35
 70
     1
102
RTVSPost2010Prop36
280
     0
102
RTVSPost2010PropOp36
 70
     1
102
RTVSPost2010Prop37
 90
       50
102
RTVSPost2010PropOp37
 70
     1
102
RTVSPost2010Prop38
140
0.0
102
RTVSPost2010PropOp38
 70
     1
102
RTVSPost2010Prop39
140
1.0
102
RTVSPost2010PropOp39
 70
     1
102
RTVSPost2010Prop40
 90
        0
102
RTVSPost2010PropOp40
 70
     1
102
RTVSPost2010Prop41ColorIndex
 90
       18
102
RTVSPost2010Prop41ColorRGB
 90
        0
102
RTVSPost2010PropOp41
 70
     1
102
RTVSPost2010Prop42
 90
       50
102
RTVSPost2010PropOp42
 70
     1
102
RTVSPost2010Prop43
 90
        3
102
RTVSPost2010PropOp43
 70
     1
102
RTVSPost2010Prop44ColorIndex
 90
        5
102
RTVSPost2010Prop44ColorRGB
 90
      255
102
RTVSPost2010PropOp44
 70
     1
102
RTVSPost2010Prop45
280
     0
102
RTVSPost2010PropOp45
 70
     1
102
RTVSPost2010Prop46
 90
       50
102
RTVSPost2010PropOp46
 70
     1
102
RTVSPost2010Prop47
 90
       50
102
RTVSPost2010PropOp47
 70
     1
102
RTVSPost2010Prop48
 90
       50
102
RTVSPost2010PropOp48
 70
     1
102
RTVSPost2010Prop49
280
     0
102
RTVSPost2010PropOp49
 70
     1
102
RTVSPost2010Prop50
 90
       50
102
RTVSPost2010PropOp50
 70
     1
102
RTVSPost2010Prop51ColorIndex
 90
      256
102
RTVSPost2010Prop51ColorRGB
 90
-16777216
102
RTVSPost2010PropOp51
 70
     0
102
RTVSPost2010Prop52
140
1.0
102
RTVSPost2010PropOp52
 70
     0
102
RTVSPost2010Prop53
 90
        2
102
RTVSPost2010PropOp53
 70
     1
102
RTVSPost2010Prop54
  1
strokes_ogs.tif
102
RTVSPost2010PropOp54
 70
     1
102
RTVSPost2010Prop55
280
     0
102
RTVSPost2010PropOp55
 70
     1
102
RTVSPost2010Prop56
140
1.0
102
RTVSPost2010PropOp56
 70
     1
102
RTVSPost2010Prop57
140
1.0
102
RTVSPost2010PropOp57
 70
     1
  0
XRECORD
  5
43C
102
{ACAD_REACTORS
330
43B
102
}
330
43B
100
AcDbXrecord
280
     1
102
RTVSPropertyOp0
 70
     1
102
RTVSPropertyOp1
 70
     1
102
RTVSPropertyOp2
 70
     1
102
RTVSPropertyOp3
 70
     1
102
RTVSPropertyOp4
 70
     1
102
RTVSPropertyOp5
 70
     1
102
RTVSPropertyOp6
 70
     1
102
RTVSPropertyOp7
 70
     1
102
RTVSPropertyOp8
 70
     1
102
RTVSPropertyOp9
 70
     1
102
RTVSPropertyOp10
 70
     1
102
RTVSPropertyOp11
 70
     1
102
RTVSPropertyOp12
 70
     1
102
RTVSPropertyOp13
 70
     1
102
RTVSPropertyOp14
 70
     1
102
RTVSPropertyOp15
 70
     1
102
RTVSPropertyOp16
 70
     1
102
RTVSPropertyOp17
 70
     1
102
RTVSPropertyOp18
 70
     1
102
RTVSPropertyOp19
 70
     1
102
RTVSPropertyOp20
 70
     1
102
RTVSPropertyOp21
 70
     1
102
RTVSPropertyOp22
 70
     1
102
RTVSPropertyOp23
 70
     1
102
RTVSPropertyOp24
 70
     1
102
RTVSPropertyOp25
 70
     1
102
RTVSPropertyOp26
 70
     1
102
RTVSPropertyOp27
 70
     1
102
RTVSPropertyOp28
 70
     1
102
RTVSPropertyOp29
 70
     1
102
RTVSPropertyOp30
 70
     1
102
RTVSPropertyOp31
 70
     1
102
RTVSPropertyOp32
 70
     1
102
RTVSPropertyOp33
 70
     1
102
RTVSPropertyOp34
 70
     1
102
RTVSPropertyOp35
 70
     1
102
RTVSPropertyOp36
 70
     1
102
RTVSPropertyOp37
 70
     1
102
RTVSPropertyOp38
 70
     1
102
RTVSPropertyOp39
 70
     1
102
RTVSPropertyOp40
 70
     1
102
RTVSPropertyOp41
 70
     1
102
RTVSPropertyOp42
 70
     1
102
RTVSPropertyOp43
 70
     1
102
RTVSPropertyOp44
 70
     1
102
RTVSPropertyOp45
 70
     1
102
RTVSPropertyOp46
 70
     1
102
RTVSPropertyOp47
 70
     1
102
RTVSPropertyOp48
 70
     1
102
RTVSPropertyOp49
 70
     1
102
RTVSPropertyOp50
 70
     1
102
RTVSPropertyOp51
 70
     0
102
RTVSPropertyOp52
 70
     0
102
RTVSPropertyOp53
 70
     1
102
RTVSPropertyOp54
 70
     1
102
RTVSPropertyOp55
 70
     1
102
RTVSPropertyOp56
 70
     1
102
RTVSPropertyOp57
 70
     1
102
RTVSPost2010Prop28
280
     0
102
RTVSPost2010PropOp28
 70
     1
102
RTVSPost2010Prop29
280
     1
102
RTVSPost2010PropOp29
 70
     1
102
RTVSPost2010Prop30
280
     1
102
RTVSPost2010PropOp30
 70
     1
102
RTVSPost2010Prop31
280
     0
102
RTVSPost2010PropOp31
 70
     1
102
RTVSPost2010Prop32
280
     0
102
RTVSPost2010PropOp32
 70
     1
102
RTVSPost2010Prop33
280
     0
102
RTVSPost2010PropOp33
 70
     1
102
RTVSPost2010Prop34
280
     0
102
RTVSPost2010PropOp34
 70
     1
102
RTVSPost2010Prop35
280
     0
102
RTVSPost2010PropOp35
 70
     1
102
RTVSPost2010Prop36
280
     0
102
RTVSPost2010PropOp36
 70
     1
102
RTVSPost2010Prop37
 90
       50
102
RTVSPost2010PropOp37
 70
     1
102
RTVSPost2010Prop38
140
0.0
102
RTVSPost2010PropOp38
 70
     1
102
RTVSPost2010Prop39
140
1.0
102
RTVSPost2010PropOp39
 70
     1
102
RTVSPost2010Prop40
 90
        0
102
RTVSPost2010PropOp40
 70
     1
102
RTVSPost2010Prop41ColorIndex
 90
       18
102
RTVSPost2010Prop41ColorRGB
 90
        0
102
RTVSPost2010PropOp41
 70
     1
102
RTVSPost2010Prop42
 90
       50
102
RTVSPost2010PropOp42
 70
     1
102
RTVSPost2010Prop43
 90
        3
102
RTVSPost2010PropOp43
 70
     1
102
RTVSPost2010Prop44ColorIndex
 90
        5
102
RTVSPost2010Prop44ColorRGB
 90
      255
102
RTVSPost2010PropOp44
 70
     1
102
RTVSPost2010Prop45
280
     0
102
RTVSPost2010PropOp45
 70
     1
102
RTVSPost2010Prop46
 90
       50
102
RTVSPost2010PropOp46
 70
     1
102
RTVSPost2010Prop47
 90
       50
102
RTVSPost2010PropOp47
 70
     1
102
RTVSPost2010Prop48
 90
       50
102
RTVSPost2010PropOp48
 70
     1
102
RTVSPost2010Prop49
280
     0
102
RTVSPost2010PropOp49
 70
     1
102
RTVSPost2010Prop50
 90
       50
102
RTVSPost2010PropOp50
 70
     1
102
RTVSPost2010Prop51ColorIndex
 90
      256
102
RTVSPost2010Prop51ColorRGB
 90
-16777216
102
RTVSPost2010PropOp51
 70
     0
102
RTVSPost2010Prop52
140
1.0
102
RTVSPost2010PropOp52
 70
     0
102
RTVSPost2010Prop53
 90
        2
102
RTVSPost2010PropOp53
 70
     1
102
RTVSPost2010Prop54
  1
strokes_ogs.tif
102
RTVSPost2010PropOp54
 70
     1
102
RTVSPost2010Prop55
280
     0
102
RTVSPost2010PropOp55
 70
     1
102
RTVSPost2010Prop56
140
1.0
102
RTVSPost2010PropOp56
 70
     1
102
RTVSPost2010Prop57
140
1.0
102
RTVSPost2010PropOp57
 70
     1
  0
XRECORD
  5
42C
102
{ACAD_REACTORS
330
42B
102
}
330
42B
100
AcDbXrecord
280
     1
102
RTVSPropertyOp0
 70
     1
102
RTVSPropertyOp1
 70
     1
102
RTVSPropertyOp2
 70
     1
102
RTVSPropertyOp3
 70
     1
102
RTVSPropertyOp4
 70
     1
102
RTVSPropertyOp5
 70
     1
102
RTVSPropertyOp6
 70
     1
102
RTVSPropertyOp7
 70
     1
102
RTVSPropertyOp8
 70
     1
102
RTVSPropertyOp9
 70
     1
102
RTVSPropertyOp10
 70
     1
102
RTVSPropertyOp11
 70
     1
102
RTVSPropertyOp12
 70
     1
102
RTVSPropertyOp13
 70
     1
102
RTVSPropertyOp14
 70
     1
102
RTVSPropertyOp15
 70
     1
102
RTVSPropertyOp16
 70
     1
102
RTVSPropertyOp17
 70
     1
102
RTVSPropertyOp18
 70
     1
102
RTVSPropertyOp19
 70
     1
102
RTVSPropertyOp20
 70
     1
102
RTVSPropertyOp21
 70
     1
102
RTVSPropertyOp22
 70
     1
102
RTVSPropertyOp23
 70
     1
102
RTVSPropertyOp24
 70
     1
102
RTVSPropertyOp25
 70
     1
102
RTVSPropertyOp26
 70
     1
102
RTVSPropertyOp27
 70
     1
102
RTVSPropertyOp28
 70
     1
102
RTVSPropertyOp29
 70
     1
102
RTVSPropertyOp30
 70
     1
102
RTVSPropertyOp31
 70
     1
102
RTVSPropertyOp32
 70
     1
102
RTVSPropertyOp33
 70
     1
102
RTVSPropertyOp34
 70
     1
102
RTVSPropertyOp35
 70
     1
102
RTVSPropertyOp36
 70
     1
102
RTVSPropertyOp37
 70
     1
102
RTVSPropertyOp38
 70
     1
102
RTVSPropertyOp39
 70
     1
102
RTVSPropertyOp40
 70
     1
102
RTVSPropertyOp41
 70
     1
102
RTVSPropertyOp42
 70
     1
102
RTVSPropertyOp43
 70
     1
102
RTVSPropertyOp44
 70
     1
102
RTVSPropertyOp45
 70
     1
102
RTVSPropertyOp46
 70
     1
102
RTVSPropertyOp47
 70
     1
102
RTVSPropertyOp48
 70
     1
102
RTVSPropertyOp49
 70
     1
102
RTVSPropertyOp50
 70
     1
102
RTVSPropertyOp51
 70
     0
102
RTVSPropertyOp52
 70
     0
102
RTVSPropertyOp53
 70
     1
102
RTVSPropertyOp54
 70
     1
102
RTVSPropertyOp55
 70
     1
102
RTVSPropertyOp56
 70
     1
102
RTVSPropertyOp57
 70
     1
102
RTVSPost2010Prop28
280
     0
102
RTVSPost2010PropOp28
 70
     1
102
RTVSPost2010Prop29
280
     1
102
RTVSPost2010PropOp29
 70
     1
102
RTVSPost2010Prop30
280
     1
102
RTVSPost2010PropOp30
 70
     1
102
RTVSPost2010Prop31
280
     0
102
RTVSPost2010PropOp31
 70
     1
102
RTVSPost2010Prop32
280
     0
102
RTVSPost2010PropOp32
 70
     1
102
RTVSPost2010Prop33
280
     0
102
RTVSPost2010PropOp33
 70
     1
102
RTVSPost2010Prop34
280
     0
102
RTVSPost2010PropOp34
 70
     1
102
RTVSPost2010Prop35
280
     0
102
RTVSPost2010PropOp35
 70
     1
102
RTVSPost2010Prop36
280
     0
102
RTVSPost2010PropOp36
 70
     1
102
RTVSPost2010Prop37
 90
       50
102
RTVSPost2010PropOp37
 70
     1
102
RTVSPost2010Prop38
140
0.0
102
RTVSPost2010PropOp38
 70
     1
102
RTVSPost2010Prop39
140
1.0
102
RTVSPost2010PropOp39
 70
     1
102
RTVSPost2010Prop40
 90
        0
102
RTVSPost2010PropOp40
 70
     1
102
RTVSPost2010Prop41ColorIndex
 90
       18
102
RTVSPost2010Prop41ColorRGB
 90
        0
102
RTVSPost2010PropOp41
 70
     1
102
RTVSPost2010Prop42
 90
       50
102
RTVSPost2010PropOp42
 70
     1
102
RTVSPost2010Prop43
 90
        3
102
RTVSPost2010PropOp43
 70
     1
102
RTVSPost2010Prop44ColorIndex
 90
        5
102
RTVSPost2010Prop44ColorRGB
 90
      255
102
RTVSPost2010PropOp44
 70
     1
102
RTVSPost2010Prop45
280
     0
102
RTVSPost2010PropOp45
 70
     1
102
RTVSPost2010Prop46
 90
       50
102
RTVSPost2010PropOp46
 70
     1
102
RTVSPost2010Prop47
 90
       50
102
RTVSPost2010PropOp47
 70
     1
102
RTVSPost2010Prop48
 90
       50
102
RTVSPost2010PropOp48
 70
     1
102
RTVSPost2010Prop49
280
     0
102
RTVSPost2010PropOp49
 70
     1
102
RTVSPost2010Prop50
 90
       50
102
RTVSPost2010PropOp50
 70
     1
102
RTVSPost2010Prop51ColorIndex
 90
      256
102
RTVSPost2010Prop51ColorRGB
 90
-16777216
102
RTVSPost2010PropOp51
 70
     0
102
RTVSPost2010Prop52
140
1.0
102
RTVSPost2010PropOp52
 70
     0
102
RTVSPost2010Prop53
 90
        2
102
RTVSPost2010PropOp53
 70
     1
102
RTVSPost2010Prop54
  1
strokes_ogs.tif
102
RTVSPost2010PropOp54
 70
     1
102
RTVSPost2010Prop55
280
     0
102
RTVSPost2010PropOp55
 70
     1
102
RTVSPost2010Prop56
140
1.0
102
RTVSPost2010PropOp56
 70
     1
102
RTVSPost2010Prop57
140
1.0
102
RTVSPost2010PropOp57
 70
     1
  0
XRECORD
  5
41E
102
{ACAD_REACTORS
330
41D
102
}
330
41D
100
AcDbXrecord
280
     1
102
RTVSPropertyOp0
 70
     1
102
RTVSPropertyOp1
 70
     1
102
RTVSPropertyOp2
 70
     1
102
RTVSPropertyOp3
 70
     1
102
RTVSPropertyOp4
 70
     1
102
RTVSPropertyOp5
 70
     1
102
RTVSPropertyOp6
 70
     1
102
RTVSPropertyOp7
 70
     1
102
RTVSPropertyOp8
 70
     1
102
RTVSPropertyOp9
 70
     1
102
RTVSPropertyOp10
 70
     1
102
RTVSPropertyOp11
 70
     1
102
RTVSPropertyOp12
 70
     1
102
RTVSPropertyOp13
 70
     1
102
RTVSPropertyOp14
 70
     1
102
RTVSPropertyOp15
 70
     1
102
RTVSPropertyOp16
 70
     1
102
RTVSPropertyOp17
 70
     1
102
RTVSPropertyOp18
 70
     1
102
RTVSPropertyOp19
 70
     1
102
RTVSPropertyOp20
 70
     1
102
RTVSPropertyOp21
 70
     1
102
RTVSPropertyOp22
 70
     1
102
RTVSPropertyOp23
 70
     1
102
RTVSPropertyOp24
 70
     1
102
RTVSPropertyOp25
 70
     1
102
RTVSPropertyOp26
 70
     1
102
RTVSPropertyOp27
 70
     1
102
RTVSPropertyOp28
 70
     1
102
RTVSPropertyOp29
 70
     1
102
RTVSPropertyOp30
 70
     1
102
RTVSPropertyOp31
 70
     1
102
RTVSPropertyOp32
 70
     1
102
RTVSPropertyOp33
 70
     1
102
RTVSPropertyOp34
 70
     1
102
RTVSPropertyOp35
 70
     1
102
RTVSPropertyOp36
 70
     1
102
RTVSPropertyOp37
 70
     1
102
RTVSPropertyOp38
 70
     1
102
RTVSPropertyOp39
 70
     1
102
RTVSPropertyOp40
 70
     1
102
RTVSPropertyOp41
 70
     1
102
RTVSPropertyOp42
 70
     1
102
RTVSPropertyOp43
 70
     1
102
RTVSPropertyOp44
 70
     1
102
RTVSPropertyOp45
 70
     1
102
RTVSPropertyOp46
 70
     1
102
RTVSPropertyOp47
 70
     1
102
RTVSPropertyOp48
 70
     1
102
RTVSPropertyOp49
 70
     1
102
RTVSPropertyOp50
 70
     1
102
RTVSPropertyOp51
 70
     0
102
RTVSPropertyOp52
 70
     0
102
RTVSPropertyOp53
 70
     1
102
RTVSPropertyOp54
 70
     1
102
RTVSPropertyOp55
 70
     1
102
RTVSPropertyOp56
 70
     1
102
RTVSPropertyOp57
 70
     1
102
RTVSPost2010Prop28
280
     0
102
RTVSPost2010PropOp28
 70
     1
102
RTVSPost2010Prop29
280
     1
102
RTVSPost2010PropOp29
 70
     1
102
RTVSPost2010Prop30
280
     1
102
RTVSPost2010PropOp30
 70
     1
102
RTVSPost2010Prop31
280
     0
102
RTVSPost2010PropOp31
 70
     1
102
RTVSPost2010Prop32
280
     0
102
RTVSPost2010PropOp32
 70
     1
102
RTVSPost2010Prop33
280
     0
102
RTVSPost2010PropOp33
 70
     1
102
RTVSPost2010Prop34
280
     0
102
RTVSPost2010PropOp34
 70
     1
102
RTVSPost2010Prop35
280
     0
102
RTVSPost2010PropOp35
 70
     1
102
RTVSPost2010Prop36
280
     0
102
RTVSPost2010PropOp36
 70
     1
102
RTVSPost2010Prop37
 90
       50
102
RTVSPost2010PropOp37
 70
     1
102
RTVSPost2010Prop38
140
0.0
102
RTVSPost2010PropOp38
 70
     1
102
RTVSPost2010Prop39
140
1.0
102
RTVSPost2010PropOp39
 70
     1
102
RTVSPost2010Prop40
 90
        0
102
RTVSPost2010PropOp40
 70
     1
102
RTVSPost2010Prop41ColorIndex
 90
       18
102
RTVSPost2010Prop41ColorRGB
 90
        0
102
RTVSPost2010PropOp41
 70
     1
102
RTVSPost2010Prop42
 90
       50
102
RTVSPost2010PropOp42
 70
     1
102
RTVSPost2010Prop43
 90
        3
102
RTVSPost2010PropOp43
 70
     1
102
RTVSPost2010Prop44ColorIndex
 90
        5
102
RTVSPost2010Prop44ColorRGB
 90
      255
102
RTVSPost2010PropOp44
 70
     1
102
RTVSPost2010Prop45
280
     0
102
RTVSPost2010PropOp45
 70
     1
102
RTVSPost2010Prop46
 90
       50
102
RTVSPost2010PropOp46
 70
     1
102
RTVSPost2010Prop47
 90
       50
102
RTVSPost2010PropOp47
 70
     1
102
RTVSPost2010Prop48
 90
       50
102
RTVSPost2010PropOp48
 70
     1
102
RTVSPost2010Prop49
280
     0
102
RTVSPost2010PropOp49
 70
     1
102
RTVSPost2010Prop50
 90
       50
102
RTVSPost2010PropOp50
 70
     1
102
RTVSPost2010Prop51ColorIndex
 90
      256
102
RTVSPost2010Prop51ColorRGB
 90
-16777216
102
RTVSPost2010PropOp51
 70
     0
102
RTVSPost2010Prop52
140
1.0
102
RTVSPost2010PropOp52
 70
     0
102
RTVSPost2010Prop53
 90
        2
102
RTVSPost2010PropOp53
 70
     1
102
RTVSPost2010Prop54
  1
strokes_ogs.tif
102
RTVSPost2010PropOp54
 70
     1
102
RTVSPost2010Prop55
280
     0
102
RTVSPost2010PropOp55
 70
     1
102
RTVSPost2010Prop56
140
1.0
102
RTVSPost2010PropOp56
 70
     1
102
RTVSPost2010Prop57
140
1.0
102
RTVSPost2010PropOp57
 70
     1
  0
XRECORD
  5
43E
102
{ACAD_REACTORS
330
43D
102
}
330
43D
100
AcDbXrecord
280
     1
102
RTVSPropertyOp0
 70
     1
102
RTVSPropertyOp1
 70
     1
102
RTVSPropertyOp2
 70
     1
102
RTVSPropertyOp3
 70
     1
102
RTVSPropertyOp4
 70
     1
102
RTVSPropertyOp5
 70
     1
102
RTVSPropertyOp6
 70
     1
102
RTVSPropertyOp7
 70
     1
102
RTVSPropertyOp8
 70
     1
102
RTVSPropertyOp9
 70
     1
102
RTVSPropertyOp10
 70
     1
102
RTVSPropertyOp11
 70
     1
102
RTVSPropertyOp12
 70
     1
102
RTVSPropertyOp13
 70
     1
102
RTVSPropertyOp14
 70
     1
102
RTVSPropertyOp15
 70
     1
102
RTVSPropertyOp16
 70
     1
102
RTVSPropertyOp17
 70
     1
102
RTVSPropertyOp18
 70
     1
102
RTVSPropertyOp19
 70
     1
102
RTVSPropertyOp20
 70
     1
102
RTVSPropertyOp21
 70
     1
102
RTVSPropertyOp22
 70
     1
102
RTVSPropertyOp23
 70
     1
102
RTVSPropertyOp24
 70
     1
102
RTVSPropertyOp25
 70
     1
102
RTVSPropertyOp26
 70
     1
102
RTVSPropertyOp27
 70
     1
102
RTVSPropertyOp28
 70
     1
102
RTVSPropertyOp29
 70
     1
102
RTVSPropertyOp30
 70
     1
102
RTVSPropertyOp31
 70
     1
102
RTVSPropertyOp32
 70
     1
102
RTVSPropertyOp33
 70
     1
102
RTVSPropertyOp34
 70
     1
102
RTVSPropertyOp35
 70
     1
102
RTVSPropertyOp36
 70
     1
102
RTVSPropertyOp37
 70
     1
102
RTVSPropertyOp38
 70
     1
102
RTVSPropertyOp39
 70
     1
102
RTVSPropertyOp40
 70
     1
102
RTVSPropertyOp41
 70
     1
102
RTVSPropertyOp42
 70
     1
102
RTVSPropertyOp43
 70
     1
102
RTVSPropertyOp44
 70
     1
102
RTVSPropertyOp45
 70
     1
102
RTVSPropertyOp46
 70
     1
102
RTVSPropertyOp47
 70
     1
102
RTVSPropertyOp48
 70
     1
102
RTVSPropertyOp49
 70
     1
102
RTVSPropertyOp50
 70
     1
102
RTVSPropertyOp51
 70
     0
102
RTVSPropertyOp52
 70
     0
102
RTVSPropertyOp53
 70
     1
102
RTVSPropertyOp54
 70
     1
102
RTVSPropertyOp55
 70
     1
102
RTVSPropertyOp56
 70
     1
102
RTVSPropertyOp57
 70
     1
102
RTVSPost2010Prop28
280
     0
102
RTVSPost2010PropOp28
 70
     1
102
RTVSPost2010Prop29
280
     1
102
RTVSPost2010PropOp29
 70
     1
102
RTVSPost2010Prop30
280
     1
102
RTVSPost2010PropOp30
 70
     1
102
RTVSPost2010Prop31
280
     0
102
RTVSPost2010PropOp31
 70
     1
102
RTVSPost2010Prop32
280
     0
102
RTVSPost2010PropOp32
 70
     1
102
RTVSPost2010Prop33
280
     0
102
RTVSPost2010PropOp33
 70
     1
102
RTVSPost2010Prop34
280
     0
102
RTVSPost2010PropOp34
 70
     1
102
RTVSPost2010Prop35
280
     0
102
RTVSPost2010PropOp35
 70
     1
102
RTVSPost2010Prop36
280
     0
102
RTVSPost2010PropOp36
 70
     1
102
RTVSPost2010Prop37
 90
       50
102
RTVSPost2010PropOp37
 70
     1
102
RTVSPost2010Prop38
140
0.0
102
RTVSPost2010PropOp38
 70
     1
102
RTVSPost2010Prop39
140
1.0
102
RTVSPost2010PropOp39
 70
     1
102
RTVSPost2010Prop40
 90
        0
102
RTVSPost2010PropOp40
 70
     1
102
RTVSPost2010Prop41ColorIndex
 90
       18
102
RTVSPost2010Prop41ColorRGB
 90
        0
102
RTVSPost2010PropOp41
 70
     1
102
RTVSPost2010Prop42
 90
       50
102
RTVSPost2010PropOp42
 70
     1
102
RTVSPost2010Prop43
 90
        3
102
RTVSPost2010PropOp43
 70
     1
102
RTVSPost2010Prop44ColorIndex
 90
        5
102
RTVSPost2010Prop44ColorRGB
 90
      255
102
RTVSPost2010PropOp44
 70
     1
102
RTVSPost2010Prop45
280
     0
102
RTVSPost2010PropOp45
 70
     1
102
RTVSPost2010Prop46
 90
       50
102
RTVSPost2010PropOp46
 70
     1
102
RTVSPost2010Prop47
 90
       50
102
RTVSPost2010PropOp47
 70
     1
102
RTVSPost2010Prop48
 90
       50
102
RTVSPost2010PropOp48
 70
     1
102
RTVSPost2010Prop49
280
     0
102
RTVSPost2010PropOp49
 70
     1
102
RTVSPost2010Prop50
 90
       50
102
RTVSPost2010PropOp50
 70
     1
102
RTVSPost2010Prop51ColorIndex
 90
      256
102
RTVSPost2010Prop51ColorRGB
 90
-16777216
102
RTVSPost2010PropOp51
 70
     0
102
RTVSPost2010Prop52
140
1.0
102
RTVSPost2010PropOp52
 70
     0
102
RTVSPost2010Prop53
 90
        2
102
RTVSPost2010PropOp53
 70
     1
102
RTVSPost2010Prop54
  1
strokes_ogs.tif
102
RTVSPost2010PropOp54
 70
     1
102
RTVSPost2010Prop55
280
     0
102
RTVSPost2010PropOp55
 70
     1
102
RTVSPost2010Prop56
140
1.0
102
RTVSPost2010PropOp56
 70
     1
102
RTVSPost2010Prop57
140
1.0
102
RTVSPost2010PropOp57
 70
     1
  0
ENDSEC
  0
EOF
