  0
SECTION
  2
HEADER
  9
$ACADVER
  1
AC1018
  9
$ACADMAINTVER
 70
     0
  9
$DWGCODEPAGE
  3
ANSI_1252
  9
$INSBASE
 10
0.0
 20
0.0
 30
0.0
  9
$EXTMIN
 10
-0.5
 20
-0.5
 30
-0.5
  9
$EXTMAX
 10
5.0
 20
5.0
 30
5.0
  9
$LIMMIN
 10
-0.5
 20
-0.5
  9
$LIMMAX
 10
5.0
 20
5.0
  9
$ORTHOMODE
 70
     0
  9
$REGENMODE
 70
     1
  9
$FILLMODE
 70
     1
  9
$QTEXTMODE
 70
     0
  9
$MIRRTEXT
 70
     1
  9
$LTSCALE
 40
1.0
  9
$ATTMODE
 70
     1
  9
$TEXTSIZE
 40
0.2
  9
$TRACEWID
 40
0.05
  9
$TEXTSTYLE
  7
Standard
  9
$CLAYER
  8
0
  9
$CELTYPE
  6
ByLayer
  9
$CECOLOR
 62
   256
  9
$CELTSCALE
 40
1.0
  9
$DISPSILH
 70
     0
  9
$DIMSCALE
 40
1.0
  9
$DIMASZ
 40
0.18
  9
$DIMEXO
 40
0.0625
  9
$DIMDLI
 40
0.38
  9
$DIMRND
 40
0.0
  9
$DIMDLE
 40
0.0
  9
$DIMEXE
 40
0.18
  9
$DIMTP
 40
0.0
  9
$DIMTM
 40
0.0
  9
$DIMTXT
 40
0.18
  9
$DIMCEN
 40
0.09
  9
$DIMTSZ
 40
0.0
  9
$DIMTOL
 70
     0
  9
$DIMLIM
 70
     0
  9
$DIMTIH
 70
     1
  9
$DIMTOH
 70
     1
  9
$DIMSE1
 70
     0
  9
$DIMSE2
 70
     0
  9
$DIMTAD
 70
     0
  9
$DIMZIN
 70
     0
  9
$DIMBLK
  1

  9
$DIMASO
 70
     1
  9
$DIMSHO
 70
     1
  9
$DIMPOST
  1

  9
$DIMAPOST
  1

  9
$DIMALT
 70
     0
  9
$DIMALTD
 70
     2
  9
$DIMALTF
 40
25.4
  9
$DIMLFAC
 40
1.0
  9
$DIMTOFL
 70
     0
  9
$DIMTVP
 40
0.0
  9
$DIMTIX
 70
     0
  9
$DIMSOXD
 70
     0
  9
$DIMSAH
 70
     0
  9
$DIMBLK1
  1

  9
$DIMBLK2
  1

  9
$DIMSTYLE
  2
Standard
  9
$DIMCLRD
 70
     0
  9
$DIMCLRE
 70
     0
  9
$DIMCLRT
 70
     0
  9
$DIMTFAC
 40
1.0
  9
$DIMGAP
 40
0.09
  9
$DIMJUST
 70
     0
  9
$DIMSD1
 70
     0
  9
$DIMSD2
 70
     0
  9
$DIMTOLJ
 70
     1
  9
$DIMTZIN
 70
     0
  9
$DIMALTZ
 70
     0
  9
$DIMALTTZ
 70
     0
  9
$DIMUPT
 70
     0
  9
$DIMDEC
 70
     4
  9
$DIMTDEC
 70
     4
  9
$DIMALTU
 70
     2
  9
$DIMALTTD
 70
     2
  9
$DIMTXSTY
  7
Standard
  9
$DIMAUNIT
 70
     0
  9
$DIMADEC
 70
     0
  9
$DIMALTRND
 40
0.0
  9
$DIMAZIN
 70
     0
  9
$DIMDSEP
 70
    46
  9
$DIMATFIT
 70
     3
  9
$DIMFRAC
 70
     0
  9
$DIMLDRBLK
  1

  9
$DIMLUNIT
 70
     2
  9
$DIMLWD
 70
    -2
  9
$DIMLWE
 70
    -2
  9
$DIMTMOVE
 70
     0
  9
$LUNITS
 70
     2
  9
$LUPREC
 70
     4
  9
$SKETCHINC
 40
0.1
  9
$FILLETRAD
 40
0.5
  9
$AUNITS
 70
     0
  9
$AUPREC
 70
     0
  9
$MENU
  1
.
  9
$ELEVATION
 40
0.0
  9
$PELEVATION
 40
0.0
  9
$THICKNESS
 40
0.0
  9
$LIMCHECK
 70
     0
  9
$CHAMFERA
 40
0.0
  9
$CHAMFERB
 40
0.0
  9
$CHAMFERC
 40
0.0
  9
$CHAMFERD
 40
0.0
  9
$SKPOLY
 70
     0
  9
$TDCREATE
 40
2460215.223985116
  9
$TDUCREATE
 40
2460215.140651783
  9
$TDUPDATE
 40
2460215.224339456
  9
$TDUUPDATE
 40
2460215.141006123
  9
$TDINDWG
 40
0.0000000116
  9
$TDUSRTIMER
 40
0.0000000116
  9
$USRTIMER
 70
     1
  9
$ANGBASE
 50
0.0
  9
$ANGDIR
 70
     0
  9
$PDMODE
 70
     0
  9
$PDSIZE
 40
0.0
  9
$PLINEWID
 40
0.0
  9
$SPLFRAME
 70
     0
  9
$SPLINETYPE
 70
     6
  9
$SPLINESEGS
 70
     8
  9
$HANDSEED
  5
382
  9
$SURFTAB1
 70
     6
  9
$SURFTAB2
 70
     6
  9
$SURFTYPE
 70
     6
  9
$SURFU
 70
     6
  9
$SURFV
 70
     6
  9
$UCSBASE
  2

  9
$UCSNAME
  2

  9
$UCSORG
 10
0.0
 20
0.0
 30
0.0
  9
$UCSXDIR
 10
1.0
 20
0.0
 30
0.0
  9
$UCSYDIR
 10
0.0
 20
1.0
 30
0.0
  9
$UCSORTHOREF
  2

  9
$UCSORTHOVIEW
 70
     0
  9
$UCSORGTOP
 10
0.0
 20
0.0
 30
0.0
  9
$UCSORGBOTTOM
 10
0.0
 20
0.0
 30
0.0
  9
$UCSORGLEFT
 10
0.0
 20
0.0
 30
0.0
  9
$UCSORGRIGHT
 10
0.0
 20
0.0
 30
0.0
  9
$UCSORGFRONT
 10
0.0
 20
0.0
 30
0.0
  9
$UCSORGBACK
 10
0.0
 20
0.0
 30
0.0
  9
$PUCSBASE
  2

  9
$PUCSNAME
  2

  9
$PUCSORG
 10
0.0
 20
0.0
 30
0.0
  9
$PUCSXDIR
 10
1.0
 20
0.0
 30
0.0
  9
$PUCSYDIR
 10
0.0
 20
1.0
 30
0.0
  9
$PUCSORTHOREF
  2

  9
$PUCSORTHOVIEW
 70
     0
  9
$PUCSORGTOP
 10
0.0
 20
0.0
 30
0.0
  9
$PUCSORGBOTTOM
 10
0.0
 20
0.0
 30
0.0
  9
$PUCSORGLEFT
 10
0.0
 20
0.0
 30
0.0
  9
$PUCSORGRIGHT
 10
0.0
 20
0.0
 30
0.0
  9
$PUCSORGFRONT
 10
0.0
 20
0.0
 30
0.0
  9
$PUCSORGBACK
 10
0.0
 20
0.0
 30
0.0
  9
$USERI1
 70
     0
  9
$USERI2
 70
     0
  9
$USERI3
 70
     0
  9
$USERI4
 70
     0
  9
$USERI5
 70
     0
  9
$USERR1
 40
0.0
  9
$USERR2
 40
0.0
  9
$USERR3
 40
0.0
  9
$USERR4
 40
0.0
  9
$USERR5
 40
0.0
  9
$WORLDVIEW
 70
     1
  9
$SHADEDGE
 70
     3
  9
$SHADEDIF
 70
    70
  9
$TILEMODE
 70
     1
  9
$MAXACTVP
 70
    64
  9
$PINSBASE
 10
0.0
 20
0.0
 30
0.0
  9
$PLIMCHECK
 70
     0
  9
$PEXTMIN
 10
-0.5
 20
-0.5
 30
-0.5
  9
$PEXTMAX
 10
5.0
 20
5.0
 30
5.0
  9
$PLIMMIN
 10
-0.5
 20
-0.5
  9
$PLIMMAX
 10
5.0
 20
5.0
  9
$UNITMODE
 70
     0
  9
$VISRETAIN
 70
     1
  9
$PLINEGEN
 70
     0
  9
$PSLTSCALE
 70
     1
  9
$TREEDEPTH
 70
  3020
  9
$CMLSTYLE
  2
Standard
  9
$CMLJUST
 70
     0
  9
$CMLSCALE
 40
1.0
  9
$PROXYGRAPHICS
 70
     1
  9
$MEASUREMENT
 70
     1
  9
$CELWEIGHT
370
    13
  9
$ENDCAPS
280
     0
  9
$JOINSTYLE
280
     0
  9
$LWDISPLAY
290
     0
  9
$INSUNITS
 70
     4
  9
$HYPERLINKBASE
  1

  9
$STYLESHEET
  1

  9
$XEDIT
290
     1
  9
$CEPSNTYPE
380
     0
  9
$PSTYLEMODE
290
     1
  9
$FINGERPRINTGUID
  2
{269b580e-1575-4f73-9d2f-047dc628568e}
  9
$VERSIONGUID
  2
{FAEB1C32-E019-11D5-929B-00C0DF256EC4}
  9
$EXTNAMES
290
     1
  9
$PSVPSCALE
 40
0.0
  9
$OLESTARTUP
290
     0
  9
$SORTENTS
280
   127
  9
$INDEXCTL
280
     0
  9
$HIDETEXT
280
     1
  9
$XCLIPFRAME
290
     0
  9
$HALOGAP
280
     0
  9
$OBSCOLOR
 70
   257
  9
$OBSLTYPE
280
     0
  9
$INTERSECTIONDISPLAY
280
     0
  9
$INTERSECTIONCOLOR
 70
   257
  9
$DIMASSOC
280
     2
  9
$PROJECTNAME
  1

  0
ENDSEC
  0
SECTION
  2
CLASSES
  0
CLASS
  1
ACDBDICTIONARYWDFLT
  2
AcDbDictionaryWithDefault
  3
ObjectDBX Classes
 90
        0
 91
        3
280
     0
281
     0
  0
CLASS
  1
VISUALSTYLE
  2
AcDbVisualStyle
  3
ObjectDBX Classes
 90
     4095
 91
        3
280
     0
281
     0
  0
CLASS
  1
MATERIAL
  2
AcDbMaterial
  3
ObjectDBX Classes
 90
     1153
 91
        3
280
     0
281
     0
  0
CLASS
  1
SCALE
  2
AcDbScale
  3
ObjectDBX Classes
 90
     1153
 91
        3
280
     0
281
     0
  0
CLASS
  1
TABLESTYLE
  2
AcDbTableStyle
  3
ObjectDBX Classes
 90
     4095
 91
        3
280
     0
281
     0
  0
CLASS
  1
MLEADERSTYLE
  2
AcDbMLeaderStyle
  3
ACDB_MLEADERSTYLE_CLASS
 90
     4095
 91
        3
280
     0
281
     0
  0
CLASS
  1
SUN
  2
AcDbSun
  3
SCENEOE
 90
     1153
 91
        3
280
     0
281
     0
  0
CLASS
  1
DIMASSOC
  2
AcDbDimAssoc
  3
"AcDbDimAssoc|Product Desc:     AcDim ARX App For Dimension|Company:          Autodesk, Inc.|WEB Address:      www.autodesk.com"
 90
        0
 91
        3
280
     0
281
     0
  0
CLASS
  1
DICTIONARYVAR
  2
AcDbDictionaryVar
  3
ObjectDBX Classes
 90
        0
 91
        3
280
     0
281
     0
  0
CLASS
  1
CELLSTYLEMAP
  2
AcDbCellStyleMap
  3
ObjectDBX Classes
 90
     1152
 91
        3
280
     0
281
     0
  0
ENDSEC
  0
SECTION
  2
TABLES
  0
TABLE
  2
VPORT
  5
8
102
{ACAD_XDICTIONARY
360
33B
102
}
330
0
100
AcDbSymbolTable
 70
    16
  0
VPORT
  5
29
330
8
100
AcDbSymbolTableRecord
100
AcDbViewportTableRecord
  2
*Active
 70
     0
 10
0.0
 20
0.0
 11
1.0
 21
1.0
 12
216.257057
 22
150.430893
 13
0.0
 23
0.0
 14
0.5
 24
0.5
 15
0.5
 25
0.5
 16
0.0
 26
0.0
 36
1.0
 17
0.0
 27
0.0
 37
0.0
 40
254.0
 41
0.069908
 42
50.0
 43
382.766378
 44
-382.766378
 50
0.0
 51
0.0
 71
     0
 72
   100
 73
     1
 74
     3
 75
     0
 76
     0
 77
     0
 78
     0
281
     0
 65
     1
110
0.0
120
0.0
130
0.0
111
1.0
121
0.0
131
0.0
112
0.0
122
1.0
132
0.0
 79
     0
146
0.0
  0
VPORT
  5
329
330
8
100
AcDbSymbolTableRecord
100
AcDbViewportTableRecord
  2
L1
 70
     0
 10
0.0
 20
0.0
 11
1.0
 21
1.0
 12
216.257057
 22
150.430893
 13
0.0
 23
0.0
 14
0.5
 24
0.5
 15
0.5
 25
0.5
 16
0.0
 26
0.0
 36
1.0
 17
0.0
 27
0.0
 37
0.0
 40
254.0
 41
0.069908
 42
50.0
 43
382.766378
 44
-382.766378
 50
0.0
 51
0.0
 71
     0
 72
   100
 73
     1
 74
     3
 75
     0
 76
     0
 77
     0
 78
     0
281
     0
 65
     1
110
0.0
120
0.0
130
0.0
111
1.0
121
0.0
131
0.0
112
0.0
122
1.0
132
0.0
 79
     0
146
0.0
  0
VPORT
  5
32A
330
8
100
AcDbSymbolTableRecord
100
AcDbViewportTableRecord
  2
L2
 70
     0
 10
0.0
 20
0.0
 11
0.5
 21
1.0
 12
0.0
 22
0.0
 13
0.0
 23
0.0
 14
0.5
 24
0.5
 15
0.5
 25
0.5
 16
0.0
 26
-1.0
 36
0.0
 17
0.0
 27
0.0
 37
0.0
 40
1629.810049
 41
0.010895
 42
50.0
 43
839.998676
 44
-839.998676
 50
0.0
 51
0.0
 71
     0
 72
   100
 73
     1
 74
     3
 75
     0
 76
     0
 77
     0
 78
     0
281
     0
 65
     1
110
0.0
120
0.0
130
0.0
111
1.0
121
0.0
131
0.0
112
0.0
122
1.0
132
0.0
 79
     0
146
0.0
  0
VPORT
  5
32B
330
8
100
AcDbSymbolTableRecord
100
AcDbViewportTableRecord
  2
L2
 70
     0
 10
0.5
 20
0.0
 11
1.0
 21
1.0
 12
0.0
 22
0.0
 13
0.0
 23
0.0
 14
0.5
 24
0.5
 15
0.5
 25
0.5
 16
1.0
 26
0.0
 36
0.0
 17
0.0
 27
0.0
 37
0.0
 40
1629.810049
 41
0.010895
 42
50.0
 43
824.741898
 44
-824.741898
 50
0.0
 51
0.0
 71
     0
 72
   100
 73
     1
 74
     3
 75
     0
 76
     0
 77
     0
 78
     0
281
     0
 65
     1
110
0.0
120
0.0
130
0.0
111
1.0
121
0.0
131
0.0
112
0.0
122
1.0
132
0.0
 79
     0
146
0.0
  0
VPORT
  5
32C
330
8
100
AcDbSymbolTableRecord
100
AcDbViewportTableRecord
  2
L3
 70
     0
 10
0.0
 20
0.5
 11
1.0
 21
1.0
 12
216.257057
 22
150.430893
 13
0.0
 23
0.0
 14
0.5
 24
0.5
 15
0.5
 25
0.5
 16
0.0
 26
0.0
 36
1.0
 17
0.0
 27
0.0
 37
0.0
 40
254.0
 41
0.069908
 42
50.0
 43
382.766378
 44
-382.766378
 50
0.0
 51
0.0
 71
     0
 72
   100
 73
     1
 74
     3
 75
     0
 76
     0
 77
     0
 78
     0
281
     0
 65
     1
110
0.0
120
0.0
130
0.0
111
1.0
121
0.0
131
0.0
112
0.0
122
1.0
132
0.0
 79
     0
146
0.0
  0
VPORT
  5
32D
330
8
100
AcDbSymbolTableRecord
100
AcDbViewportTableRecord
  2
L3
 70
     0
 10
0.0
 20
0.0
 11
1.0
 21
0.5
 12
0.0
 22
0.0
 13
0.0
 23
0.0
 14
0.5
 24
0.5
 15
0.5
 25
0.5
 16
0.0
 26
-1.0
 36
0.0
 17
0.0
 27
0.0
 37
0.0
 40
1629.810049
 41
0.010895
 42
50.0
 43
839.998676
 44
-839.998676
 50
0.0
 51
0.0
 71
     0
 72
   100
 73
     1
 74
     3
 75
     0
 76
     0
 77
     0
 78
     0
281
     0
 65
     1
110
0.0
120
0.0
130
0.0
111
1.0
121
0.0
131
0.0
112
0.0
122
1.0
132
0.0
 79
     0
146
0.0
  0
VPORT
  5
32E
330
8
100
AcDbSymbolTableRecord
100
AcDbViewportTableRecord
  2
L4
 70
     0
 10
0.0
 20
0.5
 11
0.5
 21
1.0
 12
216.257057
 22
150.430893
 13
0.0
 23
0.0
 14
0.5
 24
0.5
 15
0.5
 25
0.5
 16
0.0
 26
0.0
 36
1.0
 17
0.0
 27
0.0
 37
0.0
 40
254.0
 41
0.069908
 42
50.0
 43
382.766378
 44
-382.766378
 50
0.0
 51
0.0
 71
     0
 72
   100
 73
     1
 74
     3
 75
     0
 76
     0
 77
     0
 78
     0
281
     0
 65
     1
110
0.0
120
0.0
130
0.0
111
1.0
121
0.0
131
0.0
112
0.0
122
1.0
132
0.0
 79
     0
146
0.0
  0
VPORT
  5
32F
330
8
100
AcDbSymbolTableRecord
100
AcDbViewportTableRecord
  2
L4
 70
     0
 10
0.0
 20
0.0
 11
0.5
 21
0.5
 12
0.0
 22
0.0
 13
0.0
 23
0.0
 14
0.5
 24
0.5
 15
0.5
 25
0.5
 16
0.0
 26
-1.0
 36
0.0
 17
0.0
 27
0.0
 37
0.0
 40
1629.810049
 41
0.010895
 42
50.0
 43
839.998676
 44
-839.998676
 50
0.0
 51
0.0
 71
     0
 72
   100
 73
     1
 74
     3
 75
     0
 76
     0
 77
     0
 78
     0
281
     0
 65
     1
110
0.0
120
0.0
130
0.0
111
1.0
121
0.0
131
0.0
112
0.0
122
1.0
132
0.0
 79
     0
146
0.0
  0
VPORT
  5
330
330
8
100
AcDbSymbolTableRecord
100
AcDbViewportTableRecord
  2
L4
 70
     0
 10
0.5
 20
0.0
 11
1.0
 21
0.5
 12
0.0
 22
0.0
 13
0.0
 23
0.0
 14
0.5
 24
0.5
 15
0.5
 25
0.5
 16
1.0
 26
0.0
 36
0.0
 17
0.0
 27
0.0
 37
0.0
 40
1629.810049
 41
0.010895
 42
50.0
 43
824.741898
 44
-824.741898
 50
0.0
 51
0.0
 71
     0
 72
   100
 73
     1
 74
     3
 75
     0
 76
     0
 77
     0
 78
     0
281
     0
 65
     1
110
0.0
120
0.0
130
0.0
111
1.0
121
0.0
131
0.0
112
0.0
122
1.0
132
0.0
 79
     0
146
0.0
  0
VPORT
  5
331
330
8
100
AcDbSymbolTableRecord
100
AcDbViewportTableRecord
  2
L4
 70
     0
 10
0.5
 20
0.5
 11
1.0
 21
1.0
 12
0.0
 22
0.0
 13
0.0
 23
0.0
 14
0.5
 24
0.5
 15
0.5
 25
0.5
 16
0.5773502691896258
 26
-0.5773502691896258
 36
0.5773502691896258
 17
0.0
 27
0.0
 37
0.0
 40
1600.817654
 41
0.011092
 42
50.0
 43
833.884309
 44
-833.884309
 50
0.0
 51
0.0
 71
     0
 72
   100
 73
     1
 74
     3
 75
     0
 76
     0
 77
     0
 78
     0
281
     0
 65
     1
110
0.0
120
0.0
130
0.0
111
1.0
121
0.0
131
0.0
112
0.0
122
1.0
132
0.0
 79
     0
146
0.0
  0
VPORT
  5
332
330
8
100
AcDbSymbolTableRecord
100
AcDbViewportTableRecord
  2
L6
 70
     0
 10
0.0
 20
0.5
 11
0.333333
 21
1.0
 12
0.0
 22
0.0
 13
0.0
 23
0.0
 14
0.5
 24
0.5
 15
0.5
 25
0.5
 16
0.7188730927569433
 26
-0.5850486126764433
 36
0.3754192287502549
 17
0.0
 27
0.0
 37
0.0
 40
1689.462501
 41
0.01051
 42
50.0
 43
874.734564
 44
-874.734564
 50
0.0
 51
0.0
 71
     0
 72
   100
 73
     1
 74
     3
 75
     0
 76
     0
 77
     0
 78
     0
281
     0
 65
     1
110
0.0
120
0.0
130
0.0
111
1.0
121
0.0
131
0.0
112
0.0
122
1.0
132
0.0
 79
     0
146
0.0
  0
VPORT
  5
333
330
8
100
AcDbSymbolTableRecord
100
AcDbViewportTableRecord
  2
L6
 70
     0
 10
0.0
 20
0.0
 11
0.333333
 21
0.5
 12
0.0
 22
0.0
 13
0.0
 23
0.0
 14
0.5
 24
0.5
 15
0.5
 25
0.5
 16
-1.0
 26
0.0
 36
0.0
 17
0.0
 27
0.0
 37
0.0
 40
1629.810049
 41
0.010895
 42
50.0
 43
824.741898
 44
-824.741898
 50
0.0
 51
0.0
 71
     0
 72
   100
 73
     1
 74
     3
 75
     0
 76
     0
 77
     0
 78
     0
281
     0
 65
     1
110
0.0
120
0.0
130
0.0
111
1.0
121
0.0
131
0.0
112
0.0
122
1.0
132
0.0
 79
     0
146
0.0
  0
VPORT
  5
334
330
8
100
AcDbSymbolTableRecord
100
AcDbViewportTableRecord
  2
L6
 70
     0
 10
0.333333
 20
0.5
 11
0.666667
 21
1.0
 12
216.257057
 22
150.430893
 13
0.0
 23
0.0
 14
0.5
 24
0.5
 15
0.5
 25
0.5
 16
0.0
 26
0.0
 36
1.0
 17
0.0
 27
0.0
 37
0.0
 40
254.0
 41
0.069908
 42
50.0
 43
382.766378
 44
-382.766378
 50
0.0
 51
0.0
 71
     0
 72
   100
 73
     1
 74
     3
 75
     0
 76
     0
 77
     0
 78
     0
281
     0
 65
     1
110
0.0
120
0.0
130
0.0
111
1.0
121
0.0
131
0.0
112
0.0
122
1.0
132
0.0
 79
     0
146
0.0
  0
VPORT
  5
335
330
8
100
AcDbSymbolTableRecord
100
AcDbViewportTableRecord
  2
L6
 70
     0
 10
0.333333
 20
0.0
 11
0.666667
 21
0.5
 12
0.0
 22
0.0
 13
0.0
 23
0.0
 14
0.5
 24
0.5
 15
0.5
 25
0.5
 16
0.0
 26
-1.0
 36
0.0
 17
0.0
 27
0.0
 37
0.0
 40
1629.810049
 41
0.010895
 42
50.0
 43
839.998676
 44
-839.998676
 50
0.0
 51
0.0
 71
     0
 72
   100
 73
     1
 74
     3
 75
     0
 76
     0
 77
     0
 78
     0
281
     0
 65
     1
110
0.0
120
0.0
130
0.0
111
1.0
121
0.0
131
0.0
112
0.0
122
1.0
132
0.0
 79
     0
146
0.0
  0
VPORT
  5
336
330
8
100
AcDbSymbolTableRecord
100
AcDbViewportTableRecord
  2
L6
 70
     0
 10
0.666667
 20
0.5
 11
1.0
 21
1.0
 12
0.0
 22
0.0
 13
0.0
 23
0.0
 14
0.5
 24
0.5
 15
0.5
 25
0.5
 16
0.5773502691896258
 26
-0.5773502691896258
 36
0.5773502691896258
 17
0.0
 27
0.0
 37
0.0
 40
1600.817654
 41
0.011092
 42
50.0
 43
833.884309
 44
-833.884309
 50
0.0
 51
0.0
 71
     0
 72
   100
 73
     1
 74
     3
 75
     0
 76
     0
 77
     0
 78
     0
281
     0
 65
     1
110
0.0
120
0.0
130
0.0
111
1.0
121
0.0
131
0.0
112
0.0
122
1.0
132
0.0
 79
     0
146
0.0
  0
VPORT
  5
337
330
8
100
AcDbSymbolTableRecord
100
AcDbViewportTableRecord
  2
L6
 70
     0
 10
0.666667
 20
0.0
 11
1.0
 21
0.5
 12
0.0
 22
0.0
 13
0.0
 23
0.0
 14
0.5
 24
0.5
 15
0.5
 25
0.5
 16
1.0
 26
0.0
 36
0.0
 17
0.0
 27
0.0
 37
0.0
 40
1629.810049
 41
0.010895
 42
50.0
 43
824.741898
 44
-824.741898
 50
0.0
 51
0.0
 71
     0
 72
   100
 73
     1
 74
     3
 75
     0
 76
     0
 77
     0
 78
     0
281
     0
 65
     1
110
0.0
120
0.0
130
0.0
111
1.0
121
0.0
131
0.0
112
0.0
122
1.0
132
0.0
 79
     0
146
0.0
  0
ENDTAB
  0
TABLE
  2
LTYPE
  5
5
330
0
100
AcDbSymbolTable
 70
     6
  0
LTYPE
  5
14
330
5
100
AcDbSymbolTableRecord
100
AcDbLinetypeTableRecord
  2
ByBlock
 70
     0
  3

 72
    65
 73
     0
 40
0.0
  0
LTYPE
  5
15
330
5
100
AcDbSymbolTableRecord
100
AcDbLinetypeTableRecord
  2
ByLayer
 70
     0
  3

 72
    65
 73
     0
 40
0.0
  0
LTYPE
  5
16
330
5
100
AcDbSymbolTableRecord
100
AcDbLinetypeTableRecord
  2
Continuous
 70
     0
  3
Solid line
 72
    65
 73
     0
 40
0.0
  0
LTYPE
  5
6E
330
5
100
AcDbSymbolTableRecord
100
AcDbLinetypeTableRecord
  2
CENTER
 70
     0
  3
____ _ ____ _ ____ _ ____
 72
    65
 73
     4
 40
47.4
 49
22.0
 74
     4
 75
     0
340
0
 46
0.0
 50
0.0
 44
0.0
 45
0.0
 49
-8.5
 74
     4
 75
     0
340
0
 46
0.0
 50
0.0
 44
0.0
 45
0.0
 49
8.5
 74
     4
 75
     0
340
0
 46
0.0
 50
0.0
 44
0.0
 45
0.0
 49
-8.5
 74
     4
 75
     0
340
0
 46
0.0
 50
0.0
 44
0.0
 45
0.0
  0
LTYPE
  5
6F
330
5
100
AcDbSymbolTableRecord
100
AcDbLinetypeTableRecord
  2
DASHDOT
 70
     0
  3
_._._._._._._._._._._._._._._._.
 72
    65
 73
     4
 40
70.0
 49
31.0
 74
     4
 75
     0
340
0
 46
0.0
 50
0.0
 44
0.0
 45
0.0
 49
-13.0
 74
     4
 75
     0
340
0
 46
0.0
 50
0.0
 44
0.0
 45
0.0
 49
13.0
 74
     4
 75
     0
340
0
 46
0.0
 50
0.0
 44
0.0
 45
0.0
 49
-13.0
 74
     4
 75
     0
340
0
 46
0.0
 50
0.0
 44
0.0
 45
0.0
  0
LTYPE
  5
70
330
5
100
AcDbSymbolTableRecord
100
AcDbLinetypeTableRecord
  2
DASHED
 70
     0
  3
__ __ __ __ __ __ __ __ __
 72
    65
 73
     2
 40
25.72
 49
12.86
 74
     4
 75
     0
340
0
 46
0.0
 50
0.0
 44
0.0
 45
0.0
 49
-12.86
 74
     4
 75
     0
340
0
 46
0.0
 50
0.0
 44
0.0
 45
0.0
  0
LTYPE
  5
71
330
5
100
AcDbSymbolTableRecord
100
AcDbLinetypeTableRecord
  2
DOT
 70
     0
  3
.........................
 72
    65
 73
     2
 40
10.0
 49
0.0
 74
     4
 75
     0
340
0
 46
0.0
 50
0.0
 44
0.0
 45
0.0
 49
-10.0
 74
     4
 75
     0
340
0
 46
0.0
 50
0.0
 44
0.0
 45
0.0
  0
LTYPE
  5
72
330
5
100
AcDbSymbolTableRecord
100
AcDbLinetypeTableRecord
  2
PHANTOM
 70
     0
  3
____ _ _ ____ _ _ _____ _ _ ____
 72
    65
 73
     6
 40
50.5
 49
18.0
 74
     4
 75
     0
340
0
 46
0.0
 50
0.0
 44
0.0
 45
0.0
 49
-6.5
 74
     4
 75
     0
340
0
 46
0.0
 50
0.0
 44
0.0
 45
0.0
 49
6.5
 74
     4
 75
     0
340
0
 46
0.0
 50
0.0
 44
0.0
 45
0.0
 49
-6.5
 74
     4
 75
     0
340
0
 46
0.0
 50
0.0
 44
0.0
 45
0.0
 49
6.5
 74
     4
 75
     0
340
0
 46
0.0
 50
0.0
 44
0.0
 45
0.0
 49
-6.5
 74
     4
 75
     0
340
0
 46
0.0
 50
0.0
 44
0.0
 45
0.0
  0
ENDTAB
  0
TABLE
  2
LAYER
  5
99901
330
0
100
AcDbSymbolTable
 70
    19
  0
LAYER
  5
99902
102
{ACAD_XDICTIONARY
360
60E
102
}
330
2
100
AcDbSymbolTableRecord
100
AcDbLayerTableRecord
  2
0
 70
     0
 62
     7
  6
CONTINUOUS
370
    -3
390
F
  0
LAYER
  5
99903
102
{ACAD_XDICTIONARY
360
610
102
}
330
2
100
AcDbSymbolTableRecord
100
AcDbLayerTableRecord
  2
1
 70
     0
 62
     4
  6
CONTINUOUS
370
    -3
390
F
  0
LAYER
  5
99904
102
{ACAD_XDICTIONARY
360
612
102
}
330
2
100
AcDbSymbolTableRecord
100
AcDbLayerTableRecord
  2
2
 70
     0
 62
     7
  6
CONTINUOUS
370
    -3
390
F
  0
LAYER
  5
99905
102
{ACAD_XDICTIONARY
360
614
102
}
330
2
100
AcDbSymbolTableRecord
100
AcDbLayerTableRecord
  2
4
 70
     0
 62
     2
  6
CENTER
370
    -3
390
F
  0
LAYER
  5
99906
102
{ACAD_XDICTIONARY
360
616
102
}
330
2
100
AcDbSymbolTableRecord
100
AcDbLayerTableRecord
  2
SK2
 70
     0
 62
     7
  6
CONTINUOUS
370
    -3
390
F
  0
LAYER
  5
99907
102
{ACAD_XDICTIONARY
360
618
102
}
330
2
100
AcDbSymbolTableRecord
100
AcDbLayerTableRecord
  2
SK3
 70
     0
 62
     1
  6
DASHED
370
    -3
390
F
  0
LAYER
  5
99908
102
{ACAD_XDICTIONARY
360
61A
102
}
330
2
100
AcDbSymbolTableRecord
100
AcDbLayerTableRecord
  2
SK4
 70
     0
 62
     2
  6
CENTER
370
    -3
390
F
  0
LAYER
  5
99909
102
{ACAD_XDICTIONARY
360
61C
102
}
330
2
100
AcDbSymbolTableRecord
100
AcDbLayerTableRecord
  2
SK6
 70
     0
 62
     5
  6
CONTINUOUS
370
    -3
390
F
  0
LAYER
  5
9990A
102
{ACAD_XDICTIONARY
360
61E
102
}
330
2
100
AcDbSymbolTableRecord
100
AcDbLayerTableRecord
  2
CUT
 70
     0
 62
     1
  6
CONTINUOUS
370
    -3
390
F
  0
LAYER
  5
9990B
102
{ACAD_XDICTIONARY
360
620
102
}
330
2
100
AcDbSymbolTableRecord
100
AcDbLayerTableRecord
  2
NOCUT
 70
     0
 62
     7
  6
CONTINUOUS
370
    -3
390
F
  0
LAYER
  5
9990C
102
{ACAD_XDICTIONARY
360
622
102
}
330
2
100
AcDbSymbolTableRecord
100
AcDbLayerTableRecord
  2
80
 70
     0
 62
     6
  6
CONTINUOUS
370
    -3
390
F
  0
LAYER
  5
9990D
102
{ACAD_XDICTIONARY
360
624
102
}
330
2
100
AcDbSymbolTableRecord
100
AcDbLayerTableRecord
  2
81
 70
     0
 62
     3
  6
CONTINUOUS
370
    -3
390
F
  0
LAYER
  5
9990E
102
{ACAD_XDICTIONARY
360
626
102
}
330
2
100
AcDbSymbolTableRecord
100
AcDbLayerTableRecord
  2
SK1
 70
     0
 62
     4
  6
CONTINUOUS
370
    -3
390
F
  0
ENDTAB
  0
TABLE
  2
STYLE
  5
3
330
0
100
AcDbSymbolTable
 70
     3
  0
STYLE
  5
11
330
3
100
AcDbSymbolTableRecord
100
AcDbTextStyleTableRecord
  2
Standard
 70
     0
 40
0.0
 41
1.0
 50
0.0
 71
     0
 42
0.2
  3
txt
  4

  0
STYLE
  5
282
330
3
100
AcDbSymbolTableRecord
100
AcDbTextStyleTableRecord
  2
iso_b_vert
 70
     0
 40
0.0
 41
1.0
 50
0.0
 71
     0
 42
0.2
  3
simplex.shx
  4

  0
STYLE
  5
283
330
3
100
AcDbSymbolTableRecord
100
AcDbTextStyleTableRecord
  2
DWGDirectTextStyle
 70
     0
 40
0.0
 41
1.0
 50
0.0
 71
     0
 42
0.2
  3
simplex
  4

  0
ENDTAB
  0
TABLE
  2
VIEW
  5
6
330
0
100
AcDbSymbolTable
 70
     8
  0
VIEW
  5
320
330
6
100
AcDbSymbolTableRecord
100
AcDbViewTableRecord
  2
Top
 70
     0
 40
254.0
 10
216.257057
 20
150.430893
 41
407.566327
 11
0.0
 21
0.0
 31
1.0
 12
0.0
 22
0.0
 32
0.0
 42
50.0
 43
382.766378
 44
-382.766378
 50
0.0
 71
     0
281
     0
 72
     0
  0
VIEW
  5
321
330
6
100
AcDbSymbolTableRecord
100
AcDbViewTableRecord
  2
Front
 70
     0
 40
1629.810049
 10
0.0
 20
0.0
 41
407.566327
 11
0.0
 21
-1.0
 31
0.0
 12
0.0
 22
0.0
 32
0.0
 42
50.0
 43
839.998676
 44
-839.998676
 50
0.0
 71
     0
281
     0
 72
     0
  0
VIEW
  5
322
330
6
100
AcDbSymbolTableRecord
100
AcDbViewTableRecord
  2
Right
 70
     0
 40
1629.810049
 10
0.0
 20
0.0
 41
254.0
 11
1.0
 21
0.0
 31
0.0
 12
0.0
 22
0.0
 32
0.0
 42
50.0
 43
824.741898
 44
-824.741898
 50
0.0
 71
     0
281
     0
 72
     0
  0
VIEW
  5
323
330
6
100
AcDbSymbolTableRecord
100
AcDbViewTableRecord
  2
Back
 70
     0
 40
1629.810049
 10
0.0
 20
0.0
 41
407.566327
 11
0.0
 21
1.0
 31
0.0
 12
0.0
 22
0.0
 32
0.0
 42
50.0
 43
839.998676
 44
-839.998676
 50
0.0
 71
     0
281
     0
 72
     0
  0
VIEW
  5
324
330
6
100
AcDbSymbolTableRecord
100
AcDbViewTableRecord
  2
Bottom
 70
     0
 40
254.0
 10
0.0
 20
0.0
 41
407.566327
 11
0.0
 21
0.0
 31
-1.0
 12
0.0
 22
0.0
 32
0.0
 42
50.0
 43
814.905024
 44
-814.905024
 50
180.0
 71
     0
281
     0
 72
     0
  0
VIEW
  5
325
330
6
100
AcDbSymbolTableRecord
100
AcDbViewTableRecord
  2
Left
 70
     0
 40
1629.810049
 10
0.0
 20
0.0
 41
254.0
 11
-1.0
 21
0.0
 31
0.0
 12
0.0
 22
0.0
 32
0.0
 42
50.0
 43
824.741898
 44
-824.741898
 50
0.0
 71
     0
281
     0
 72
     0
  0
VIEW
  5
326
330
6
100
AcDbSymbolTableRecord
100
AcDbViewTableRecord
  2
Isometric
 70
     0
 40
1600.817654
 10
0.0
 20
0.0
 41
467.798036
 11
0.5773502691896258
 21
-0.5773502691896258
 31
0.5773502691896258
 12
0.0
 22
0.0
 32
0.0
 42
50.0
 43
833.884309
 44
-833.884309
 50
0.0
 71
     0
281
     0
 72
     0
  0
VIEW
  5
327
330
6
100
AcDbSymbolTableRecord
100
AcDbViewTableRecord
  2
Trimetric
 70
     0
 40
1689.462501
 10
0.0
 20
0.0
 41
454.267202
 11
0.7188730927569433
 21
-0.5850486126764433
 31
0.3754192287502549
 12
0.0
 22
0.0
 32
0.0
 42
50.0
 43
874.734564
 44
-874.734564
 50
0.0
 71
     0
281
     0
 72
     0
  0
ENDTAB
  0
TABLE
  2
UCS
  5
7
330
0
100
AcDbSymbolTable
 70
     0
  0
ENDTAB
  0
TABLE
  2
APPID
  5
9
330
0
100
AcDbSymbolTable
 70
     6
  0
APPID
  5
12
330
9
100
AcDbSymbolTableRecord
100
AcDbRegAppTableRecord
  2
ACAD
 70
     0
  0
APPID
  5
28D
330
9
100
AcDbSymbolTableRecord
100
AcDbRegAppTableRecord
  2
ACAD_DSTYLE_DIMBREAK
 70
     0
  0
APPID
  5
338
330
9
100
AcDbSymbolTableRecord
100
AcDbRegAppTableRecord
  2
ACAD_DSTYLE_DIM_LINETYPE
 70
     0
  0
APPID
  5
339
330
9
100
AcDbSymbolTableRecord
100
AcDbRegAppTableRecord
  2
ACAD_DSTYLE_DIM_EXT1_LINETYPE
 70
     0
  0
APPID
  5
33A
330
9
100
AcDbSymbolTableRecord
100
AcDbRegAppTableRecord
  2
ACAD_DSTYLE_DIM_EXT2_LINETYPE
 70
     0
  0
APPID
  5
37A
330
9
100
AcDbSymbolTableRecord
100
AcDbRegAppTableRecord
  2
ACAD_MLEADERVER
 70
     0
  0
ENDTAB
  0
TABLE
  2
DIMSTYLE
  5
A
330
0
100
AcDbSymbolTable
 70
     1
100
AcDbDimStyleTable
  0
DIMSTYLE
105
27
102
{ACAD_REACTORS
330
28E
330
2A7
330
2C1
330
2D9
330
2F1
330
307
102
}
330
A
100
AcDbSymbolTableRecord
100
AcDbDimStyleTableRecord
  2
Standard
 70
     0
178
     0
340
11
1001
ACAD_DSTYLE_DIMBREAK
1070
   391
1040
6.35
  0
ENDTAB
  0
TABLE
  2
BLOCK_RECORD
  5
1
330
0
100
AcDbSymbolTable
 70
    13
  0
BLOCK_RECORD
  5
1F
330
1
100
AcDbSymbolTableRecord
100
AcDbBlockTableRecord
  2
*Model_Space
340
22
  0
BLOCK_RECORD
  5
1B
330
1
100
AcDbSymbolTableRecord
100
AcDbBlockTableRecord
  2
*Paper_Space
340
1E
  0
BLOCK_RECORD
  5
23
330
1
100
AcDbSymbolTableRecord
100
AcDbBlockTableRecord
  2
*Paper_Space0
340
26
  0
BLOCK_RECORD
  5
292
330
1
100
AcDbSymbolTableRecord
100
AcDbBlockTableRecord
  2
*D1
340
0
  0
BLOCK_RECORD
  5
29E
330
1
100
AcDbSymbolTableRecord
100
AcDbBlockTableRecord
  2
_U0
340
0
  0
BLOCK_RECORD
  5
2AA
330
1
100
AcDbSymbolTableRecord
100
AcDbBlockTableRecord
  2
*D3
340
0
  0
BLOCK_RECORD
  5
2B8
330
1
100
AcDbSymbolTableRecord
100
AcDbBlockTableRecord
  2
_U1
340
0
  0
BLOCK_RECORD
  5
2C4
330
1
100
AcDbSymbolTableRecord
100
AcDbBlockTableRecord
  2
*D5
340
0
  0
BLOCK_RECORD
  5
2D0
330
1
100
AcDbSymbolTableRecord
100
AcDbBlockTableRecord
  2
_U2
340
0
  0
BLOCK_RECORD
  5
2DC
330
1
100
AcDbSymbolTableRecord
100
AcDbBlockTableRecord
  2
*D7
340
0
  0
BLOCK_RECORD
  5
2E8
330
1
100
AcDbSymbolTableRecord
100
AcDbBlockTableRecord
  2
_U3
340
0
  0
BLOCK_RECORD
  5
2F4
330
1
100
AcDbSymbolTableRecord
100
AcDbBlockTableRecord
  2
*D9
340
0
  0
BLOCK_RECORD
  5
2FF
330
1
100
AcDbSymbolTableRecord
100
AcDbBlockTableRecord
  2
_U4
340
0
  0
BLOCK_RECORD
  5
30A
330
1
100
AcDbSymbolTableRecord
100
AcDbBlockTableRecord
  2
*D11
340
0
  0
BLOCK_RECORD
  5
316
330
1
100
AcDbSymbolTableRecord
100
AcDbBlockTableRecord
  2
_U5
340
0
  0
ENDTAB
  0
ENDSEC
  0
SECTION
  2
BLOCKS
  0
BLOCK
  5
20
330
1F
100
AcDbEntity
  8
0
100
AcDbBlockBegin
  2
*Model_Space
 70
     0
 10
0.0
 20
0.0
 30
0.0
  3
*Model_Space
  1

  0
ENDBLK
  5
21
330
1F
100
AcDbEntity
  8
0
100
AcDbBlockEnd
  0
BLOCK
  5
1C
330
1B
100
AcDbEntity
 67
     1
  8
0
100
AcDbBlockBegin
  2
*Paper_Space
 70
     0
 10
0.0
 20
0.0
 30
0.0
  3
*Paper_Space
  1

  0
ENDBLK
  5
1D
330
1B
100
AcDbEntity
 67
     1
  8
0
100
AcDbBlockEnd
  0
BLOCK
  5
24
330
23
100
AcDbEntity
  8
0
100
AcDbBlockBegin
  2
*Paper_Space0
 70
     0
 10
0.0
 20
0.0
 30
0.0
  3
*Paper_Space0
  1

  0
ENDBLK
  5
25
330
23
100
AcDbEntity
  8
0
100
AcDbBlockEnd
  0
BLOCK
  5
293
330
292
100
AcDbEntity
  8
0
100
AcDbBlockBegin
  2
*D1
 70
     1
 10
0.0
 20
0.0
 30
0.0
  3
*D1
  1

  0
LINE
  5
295
330
292
100
AcDbEntity
  8
2
370
    -2
100
AcDbLine
 10
196.660025
 20
167.624705
 30
0.0
 11
196.660025
 21
192.942768
 31
0.0
  0
LINE
  5
296
330
292
100
AcDbEntity
  8
2
370
    -2
100
AcDbLine
 10
316.660025
 20
170.099705
 30
0.0
 11
316.660025
 21
192.942768
 31
0.0
  0
LINE
  5
297
330
292
100
AcDbEntity
  8
2
370
    -2
100
AcDbLine
 10
199.835025
 20
190.942768
 30
0.0
 11
313.485025
 21
190.942768
 31
0.0
  0
SOLID
  5
298
330
292
100
AcDbEntity
  8
2
100
AcDbTrace
 10
199.835025
 20
191.471935
 30
0.0
 11
199.835025
 21
190.413602
 31
0.0
 12
196.660025
 22
190.942768
 32
0.0
 13
196.660025
 23
190.942768
 33
0.0
  0
SOLID
  5
299
330
292
100
AcDbEntity
  8
2
100
AcDbTrace
 10
313.485025
 20
190.413602
 30
0.0
 11
313.485025
 21
191.471935
 31
0.0
 12
316.660025
 22
190.942768
 32
0.0
 13
316.660025
 23
190.942768
 33
0.0
  0
MTEXT
  5
29A
330
292
100
AcDbEntity
  8
2
370
    13
100
AcDbMText
 10
256.660025
 20
196.942768
 30
0.0
 40
3.0
 41
0.0
 71
     5
 72
     1
  1
\A1;120
  7
iso_b_vert
 73
     1
 44
1.0
  0
POINT
  5
29B
330
292
100
AcDbEntity
  8
Defpoints
 62
     0
100
AcDbPoint
 10
196.660025
 20
167.624705
 30
0.0
  0
POINT
  5
29C
330
292
100
AcDbEntity
  8
Defpoints
 62
     0
100
AcDbPoint
 10
316.660025
 20
170.099705
 30
0.0
  0
POINT
  5
29D
330
292
100
AcDbEntity
  8
Defpoints
 62
     0
100
AcDbPoint
 10
316.660025
 20
190.942768
 30
0.0
  0
ENDBLK
  5
294
330
292
100
AcDbEntity
  8
0
100
AcDbBlockEnd
  0
BLOCK
  5
2A5
330
29E
100
AcDbEntity
  8
0
100
AcDbBlockBegin
  2
_U0
 70
     0
 10
0.0
 20
0.0
 30
0.0
  3
_U0
  1

  0
MTEXT
  5
29F
330
29E
100
AcDbEntity
  8
2
370
    18
100
AcDbMText
 10
254.281226
 20
191.827883
 30
0.0
 40
3.0
 41
0.0
 71
     7
 72
     5
  1
\W0.7088;120
  7
iso_b_vert
 73
     2
 44
0.987952
  0
LINE
  5
2A0
330
29E
100
AcDbEntity
  8
2
370
    13
100
AcDbLine
 10
196.660025
 20
167.624705
 30
0.0
 11
196.660025
 21
192.942768
 31
0.0
  0
LINE
  5
2A1
330
29E
100
AcDbEntity
  8
2
370
    13
100
AcDbLine
 10
316.660025
 20
170.099705
 30
0.0
 11
316.660025
 21
192.942768
 31
0.0
  0
LINE
  5
2A2
330
29E
100
AcDbEntity
  8
2
370
    13
100
AcDbLine
 10
196.660025
 20
190.942768
 30
0.0
 11
316.660025
 21
190.942768
 31
0.0
  0
SOLID
  5
2A3
330
29E
100
AcDbEntity
  8
2
370
    13
100
AcDbTrace
 10
196.660025
 20
190.942768
 30
0.0
 11
199.835024
 21
191.360765
 31
0.0
 12
199.835027
 22
190.524772
 32
0.0
 13
199.835027
 23
190.524772
 33
0.0
  0
SOLID
  5
2A4
330
29E
100
AcDbEntity
  8
2
370
    13
100
AcDbTrace
 10
316.660025
 20
190.942768
 30
0.0
 11
313.485027
 21
190.524772
 31
0.0
 12
313.485024
 22
191.360765
 32
0.0
 13
313.485024
 23
191.360765
 33
0.0
  0
ENDBLK
  5
2A6
330
29E
100
AcDbEntity
  8
0
100
AcDbBlockEnd
  0
BLOCK
  5
2AB
330
2AA
100
AcDbEntity
  8
0
100
AcDbBlockBegin
  2
*D3
 70
     1
 10
0.0
 20
0.0
 30
0.0
  3
*D3
  1

  0
LINE
  5
2AD
330
2AA
100
AcDbEntity
  8
2
370
    -2
100
AcDbLine
 10
316.660025
 20
169.099705
 30
0.0
 11
316.660025
 21
177.62602
 31
0.0
  0
LINE
  5
2AE
330
2AA
100
AcDbEntity
  8
2
370
    -2
100
AcDbLine
 10
314.767317
 20
168.499206
 30
0.0
 11
314.767317
 21
177.62602
 31
0.0
  0
LINE
  5
2AF
330
2AA
100
AcDbEntity
  8
2
370
    -2
100
AcDbLine
 10
316.660025
 20
175.62602
 30
0.0
 11
337.581454
 21
175.62602
 31
0.0
  0
LINE
  5
2B0
330
2AA
100
AcDbEntity
  8
2
370
    -2
100
AcDbLine
 10
319.835025
 20
175.62602
 30
0.0
 11
323.010025
 21
175.62602
 31
0.0
  0
LINE
  5
2B1
330
2AA
100
AcDbEntity
  8
2
370
    -2
100
AcDbLine
 10
311.592317
 20
175.62602
 30
0.0
 11
308.417317
 21
175.62602
 31
0.0
  0
SOLID
  5
2B2
330
2AA
100
AcDbEntity
  8
2
100
AcDbTrace
 10
319.835025
 20
176.155186
 30
0.0
 11
319.835025
 21
175.096853
 31
0.0
 12
316.660025
 22
175.62602
 32
0.0
 13
316.660025
 23
175.62602
 33
0.0
  0
SOLID
  5
2B3
330
2AA
100
AcDbEntity
  8
2
100
AcDbTrace
 10
311.592317
 20
175.096853
 30
0.0
 11
311.592317
 21
176.155186
 31
0.0
 12
314.767317
 22
175.62602
 32
0.0
 13
314.767317
 23
175.62602
 33
0.0
  0
MTEXT
  5
2B4
330
2AA
100
AcDbEntity
  8
2
370
    13
100
AcDbMText
 10
330.295739
 20
181.62602
 30
0.0
 40
3.0
 41
0.0
 71
     5
 72
     1
  1
\A1;1.9
  7
iso_b_vert
 73
     1
 44
1.0
  0
POINT
  5
2B5
330
2AA
100
AcDbEntity
  8
Defpoints
 62
     0
100
AcDbPoint
 10
316.660025
 20
169.099705
 30
0.0
  0
POINT
  5
2B6
330
2AA
100
AcDbEntity
  8
Defpoints
 62
     0
100
AcDbPoint
 10
314.767317
 20
168.499206
 30
0.0
  0
POINT
  5
2B7
330
2AA
100
AcDbEntity
  8
Defpoints
 62
     0
100
AcDbPoint
 10
314.767317
 20
175.62602
 30
0.0
  0
ENDBLK
  5
2AC
330
2AA
100
AcDbEntity
  8
0
100
AcDbBlockEnd
  0
BLOCK
  5
2BF
330
2B8
100
AcDbEntity
  8
0
100
AcDbBlockBegin
  2
_U1
 70
     0
 10
0.0
 20
0.0
 30
0.0
  3
_U1
  1

  0
MTEXT
  5
2B9
330
2B8
100
AcDbEntity
  8
2
370
    18
100
AcDbMText
 10
322.420346
 20
176.511134
 30
0.0
 40
3.0
 41
0.0
 71
     7
 72
     5
  1
\W0.6983;1,9
  7
iso_b_vert
 73
     2
 44
0.987952
  0
LINE
  5
2BA
330
2B8
100
AcDbEntity
  8
2
370
    13
100
AcDbLine
 10
316.660025
 20
169.099705
 30
0.0
 11
316.660025
 21
177.62602
 31
0.0
  0
LINE
  5
2BB
330
2B8
100
AcDbEntity
  8
2
370
    13
100
AcDbLine
 10
314.767317
 20
168.499206
 30
0.0
 11
314.767317
 21
177.62602
 31
0.0
  0
LINE
  5
2BC
330
2B8
100
AcDbEntity
  8
2
370
    13
100
AcDbLine
 10
307.267317
 20
175.62602
 30
0.0
 11
326.152602
 21
175.62602
 31
0.0
  0
SOLID
  5
2BD
330
2B8
100
AcDbEntity
  8
2
370
    13
100
AcDbTrace
 10
316.660025
 20
175.62602
 30
0.0
 11
319.835024
 21
176.044016
 31
0.0
 12
319.835027
 22
175.208023
 32
0.0
 13
319.835027
 23
175.208023
 33
0.0
  0
SOLID
  5
2BE
330
2B8
100
AcDbEntity
  8
2
370
    13
100
AcDbTrace
 10
314.767317
 20
175.62602
 30
0.0
 11
311.592319
 21
175.208023
 31
0.0
 12
311.592316
 22
176.044016
 32
0.0
 13
311.592316
 23
176.044016
 33
0.0
  0
ENDBLK
  5
2C0
330
2B8
100
AcDbEntity
  8
0
100
AcDbBlockEnd
  0
BLOCK
  5
2C5
330
2C4
100
AcDbEntity
  8
0
100
AcDbBlockBegin
  2
*D5
 70
     1
 10
0.0
 20
0.0
 30
0.0
  3
*D5
  1

  0
LINE
  5
2C7
330
2C4
100
AcDbEntity
  8
SK2
370
    -2
100
AcDbLine
 10
176.660025
 20
151.624705
 30
0.0
 11
176.660025
 21
123.32531
 31
0.0
  0
LINE
  5
2C8
330
2C4
100
AcDbEntity
  8
SK2
370
    -2
100
AcDbLine
 10
316.660025
 20
169.099705
 30
0.0
 11
316.660025
 21
123.32531
 31
0.0
  0
LINE
  5
2C9
330
2C4
100
AcDbEntity
  8
SK2
370
    -2
100
AcDbLine
 10
179.835025
 20
125.32531
 30
0.0
 11
313.485025
 21
125.32531
 31
0.0
  0
SOLID
  5
2CA
330
2C4
100
AcDbEntity
  8
SK2
100
AcDbTrace
 10
179.835025
 20
125.854476
 30
0.0
 11
179.835025
 21
124.796143
 31
0.0
 12
176.660025
 22
125.32531
 32
0.0
 13
176.660025
 23
125.32531
 33
0.0
  0
SOLID
  5
2CB
330
2C4
100
AcDbEntity
  8
SK2
100
AcDbTrace
 10
313.485025
 20
124.796143
 30
0.0
 11
313.485025
 21
125.854476
 31
0.0
 12
316.660025
 22
125.32531
 32
0.0
 13
316.660025
 23
125.32531
 33
0.0
  0
MTEXT
  5
2CC
330
2C4
100
AcDbEntity
  8
SK2
370
    13
100
AcDbMText
 10
246.660025
 20
131.32531
 30
0.0
 40
3.0
 41
0.0
 71
     5
 72
     1
  1
\A1;140
  7
iso_b_vert
 73
     1
 44
1.0
  0
POINT
  5
2CD
330
2C4
100
AcDbEntity
  8
Defpoints
 62
     0
100
AcDbPoint
 10
176.660025
 20
151.624705
 30
0.0
  0
POINT
  5
2CE
330
2C4
100
AcDbEntity
  8
Defpoints
 62
     0
100
AcDbPoint
 10
316.660025
 20
169.099705
 30
0.0
  0
POINT
  5
2CF
330
2C4
100
AcDbEntity
  8
Defpoints
 62
     0
100
AcDbPoint
 10
316.660025
 20
125.32531
 30
0.0
  0
ENDBLK
  5
2C6
330
2C4
100
AcDbEntity
  8
0
100
AcDbBlockEnd
  0
BLOCK
  5
2D7
330
2D0
100
AcDbEntity
  8
0
100
AcDbBlockBegin
  2
_U2
 70
     0
 10
0.0
 20
0.0
 30
0.0
  3
_U2
  1

  0
MTEXT
  5
2D1
330
2D0
100
AcDbEntity
  8
SK2
370
    18
100
AcDbMText
 10
244.123283
 20
126.210424
 30
0.0
 40
3.0
 41
0.0
 71
     7
 72
     5
  1
\W0.7547;140
  7
iso_b_vert
 73
     2
 44
0.987952
  0
LINE
  5
2D2
330
2D0
100
AcDbEntity
  8
SK2
370
    13
100
AcDbLine
 10
176.660025
 20
151.624705
 30
0.0
 11
176.660025
 21
123.32531
 31
0.0
  0
LINE
  5
2D3
330
2D0
100
AcDbEntity
  8
SK2
370
    13
100
AcDbLine
 10
316.660025
 20
168.099705
 30
0.0
 11
316.660025
 21
123.32531
 31
0.0
  0
LINE
  5
2D4
330
2D0
100
AcDbEntity
  8
SK2
370
    13
100
AcDbLine
 10
176.660025
 20
125.32531
 30
0.0
 11
316.660025
 21
125.32531
 31
0.0
  0
SOLID
  5
2D5
330
2D0
100
AcDbEntity
  8
SK2
370
    13
100
AcDbTrace
 10
176.660025
 20
125.32531
 30
0.0
 11
179.835024
 21
125.743306
 31
0.0
 12
179.835027
 22
124.907313
 32
0.0
 13
179.835027
 23
124.907313
 33
0.0
  0
SOLID
  5
2D6
330
2D0
100
AcDbEntity
  8
SK2
370
    13
100
AcDbTrace
 10
316.660025
 20
125.32531
 30
0.0
 11
313.485027
 21
124.907313
 31
0.0
 12
313.485024
 22
125.743306
 32
0.0
 13
313.485024
 23
125.743306
 33
0.0
  0
ENDBLK
  5
2D8
330
2D0
100
AcDbEntity
  8
0
100
AcDbBlockEnd
  0
BLOCK
  5
2DD
330
2DC
100
AcDbEntity
  8
0
100
AcDbBlockBegin
  2
*D7
 70
     1
 10
0.0
 20
0.0
 30
0.0
  3
*D7
  1

  0
LINE
  5
2DF
330
2DC
100
AcDbEntity
  8
SK2
370
    -2
100
AcDbLine
 10
116.660025
 20
166.896764
 30
0.0
 11
116.660025
 21
114.743038
 31
0.0
  0
LINE
  5
2E0
330
2DC
100
AcDbEntity
  8
SK2
370
    -2
100
AcDbLine
 10
316.660025
 20
169.099705
 30
0.0
 11
316.660025
 21
114.743038
 31
0.0
  0
LINE
  5
2E1
330
2DC
100
AcDbEntity
  8
SK2
370
    -2
100
AcDbLine
 10
119.835025
 20
116.743038
 30
0.0
 11
313.485025
 21
116.743038
 31
0.0
  0
SOLID
  5
2E2
330
2DC
100
AcDbEntity
  8
SK2
100
AcDbTrace
 10
119.835025
 20
117.272204
 30
0.0
 11
119.835025
 21
116.213871
 31
0.0
 12
116.660025
 22
116.743038
 32
0.0
 13
116.660025
 23
116.743038
 33
0.0
  0
SOLID
  5
2E3
330
2DC
100
AcDbEntity
  8
SK2
100
AcDbTrace
 10
313.485025
 20
116.213871
 30
0.0
 11
313.485025
 21
117.272204
 31
0.0
 12
316.660025
 22
116.743038
 32
0.0
 13
316.660025
 23
116.743038
 33
0.0
  0
MTEXT
  5
2E4
330
2DC
100
AcDbEntity
  8
SK2
370
    13
100
AcDbMText
 10
216.660025
 20
122.743038
 30
0.0
 40
3.0
 41
0.0
 71
     5
 72
     1
  1
\A1;200
  7
iso_b_vert
 73
     1
 44
1.0
  0
POINT
  5
2E5
330
2DC
100
AcDbEntity
  8
Defpoints
 62
     0
100
AcDbPoint
 10
116.660025
 20
166.896764
 30
0.0
  0
POINT
  5
2E6
330
2DC
100
AcDbEntity
  8
Defpoints
 62
     0
100
AcDbPoint
 10
316.660025
 20
169.099705
 30
0.0
  0
POINT
  5
2E7
330
2DC
100
AcDbEntity
  8
Defpoints
 62
     0
100
AcDbPoint
 10
316.660025
 20
116.743038
 30
0.0
  0
ENDBLK
  5
2DE
330
2DC
100
AcDbEntity
  8
0
100
AcDbBlockEnd
  0
BLOCK
  5
2EF
330
2E8
100
AcDbEntity
  8
0
100
AcDbBlockBegin
  2
_U3
 70
     0
 10
0.0
 20
0.0
 30
0.0
  3
_U3
  1

  0
MTEXT
  5
2E9
330
2E8
100
AcDbEntity
  8
SK2
370
    18
100
AcDbMText
 10
213.906283
 20
117.628152
 30
0.0
 40
3.0
 41
0.0
 71
     7
 72
     5
  1
\W0.7535;200
  7
iso_b_vert
 73
     2
 44
0.987952
  0
LINE
  5
2EA
330
2E8
100
AcDbEntity
  8
SK2
370
    13
100
AcDbLine
 10
116.660025
 20
155.624705
 30
0.0
 11
116.660025
 21
114.743038
 31
0.0
  0
LINE
  5
2EB
330
2E8
100
AcDbEntity
  8
SK2
370
    13
100
AcDbLine
 10
316.660025
 20
168.099705
 30
0.0
 11
316.660025
 21
114.743038
 31
0.0
  0
LINE
  5
2EC
330
2E8
100
AcDbEntity
  8
SK2
370
    13
100
AcDbLine
 10
116.660025
 20
116.743038
 30
0.0
 11
316.660025
 21
116.743038
 31
0.0
  0
SOLID
  5
2ED
330
2E8
100
AcDbEntity
  8
SK2
370
    13
100
AcDbTrace
 10
116.660025
 20
116.743038
 30
0.0
 11
119.835024
 21
117.161034
 31
0.0
 12
119.835027
 22
116.325041
 32
0.0
 13
119.835027
 23
116.325041
 33
0.0
  0
SOLID
  5
2EE
330
2E8
100
AcDbEntity
  8
SK2
370
    13
100
AcDbTrace
 10
316.660025
 20
116.743038
 30
0.0
 11
313.485027
 21
116.325041
 31
0.0
 12
313.485024
 22
117.161034
 32
0.0
 13
313.485024
 23
117.161034
 33
0.0
  0
ENDBLK
  5
2F0
330
2E8
100
AcDbEntity
  8
0
100
AcDbBlockEnd
  0
BLOCK
  5
2F5
330
2F4
100
AcDbEntity
  8
0
100
AcDbBlockBegin
  2
*D9
 70
     1
 10
0.0
 20
0.0
 30
0.0
  3
*D9
  1

  0
LINE
  5
2F7
330
2F4
100
AcDbEntity
  8
2
370
    -2
100
AcDbLine
 10
315.583629
 20
151.624705
 30
0.0
 11
330.798615
 21
151.624705
 31
0.0
  0
LINE
  5
2F8
330
2F4
100
AcDbEntity
  8
2
370
    -2
100
AcDbLine
 10
316.660025
 20
169.099705
 30
0.0
 11
330.798615
 21
169.099705
 31
0.0
  0
LINE
  5
2F9
330
2F4
100
AcDbEntity
  8
2
370
    -2
100
AcDbLine
 10
328.798615
 20
151.624705
 30
0.0
 11
328.798615
 21
169.099705
 31
0.0
  0
SOLID
  5
2FA
330
2F4
100
AcDbEntity
  8
2
100
AcDbTrace
 10
329.327782
 20
165.924705
 30
0.0
 11
328.269448
 21
165.924705
 31
0.0
 12
328.798615
 22
169.099705
 32
0.0
 13
328.798615
 23
169.099705
 33
0.0
  0
MTEXT
  5
2FB
330
2F4
100
AcDbEntity
  8
2
370
    13
100
AcDbMText
 10
322.798615
 20
141.521134
 30
0.0
 40
3.0
 41
0.0
 71
     5
 72
     1
  1
\A1;35
  7
iso_b_vert
 11
0.0
 21
1.0
 31
0.0
 73
     1
 44
1.0
  0
POINT
  5
2FC
330
2F4
100
AcDbEntity
  8
Defpoints
 62
     0
100
AcDbPoint
 10
315.583629
 20
151.624705
 30
0.0
  0
POINT
  5
2FD
330
2F4
100
AcDbEntity
  8
Defpoints
 62
     0
100
AcDbPoint
 10
316.660025
 20
169.099705
 30
0.0
  0
POINT
  5
2FE
330
2F4
100
AcDbEntity
  8
Defpoints
 62
     0
100
AcDbPoint
 10
328.798615
 20
169.099705
 30
0.0
  0
ENDBLK
  5
2F6
330
2F4
100
AcDbEntity
  8
0
100
AcDbBlockEnd
  0
BLOCK
  5
305
330
2FF
100
AcDbEntity
  8
0
100
AcDbBlockBegin
  2
_U4
 70
     0
 10
0.0
 20
0.0
 30
0.0
  3
_U4
  1

  0
MTEXT
  5
300
330
2FF
100
AcDbEntity
  8
2
370
    18
100
AcDbMText
 10
327.645
 20
151.085447
 30
0.0
 40
3.0
 41
0.0
 71
     7
 72
     5
  1
\W0.7335;35
  7
iso_b_vert
 11
6.123233995736766E-17
 21
1.0
 31
0.0
 73
     2
 44
0.987952
  0
MTEXT
  5
301
330
2FF
100
AcDbEntity
  8
2
370
    18
100
AcDbMText
 10
327.645
 20
145.310447
 30
0.0
 40
3.0
 41
0.0
 71
     7
 72
     5
  1
\W4.3910;\H2.25;%%c\H3.00;
  7
iso_b_vert
 11
6.123233995736766E-17
 21
1.0
 31
0.0
 73
     2
 44
0.987952
  0
LINE
  5
302
330
2FF
100
AcDbEntity
  8
2
370
    13
100
AcDbLine
 10
316.660025
 20
169.099705
 30
0.0
 11
330.798615
 21
169.099705
 31
0.0
  0
LINE
  5
303
330
2FF
100
AcDbEntity
  8
2
370
    13
100
AcDbLine
 10
328.798615
 20
169.099705
 30
0.0
 11
328.798615
 21
145.175447
 31
0.0
  0
SOLID
  5
304
330
2FF
100
AcDbEntity
  8
2
370
    13
100
AcDbTrace
 10
328.798615
 20
169.099705
 30
0.0
 11
329.216612
 21
165.924706
 31
0.0
 12
328.380618
 22
165.924703
 32
0.0
 13
328.380618
 23
165.924703
 33
0.0
  0
ENDBLK
  5
306
330
2FF
100
AcDbEntity
  8
0
100
AcDbBlockEnd
  0
BLOCK
  5
30B
330
30A
100
AcDbEntity
  8
0
100
AcDbBlockBegin
  2
*D11
 70
     1
 10
0.0
 20
0.0
 30
0.0
  3
*D11
  1

  0
LINE
  5
30D
330
30A
100
AcDbEntity
  8
SK2
370
    -2
100
AcDbLine
 10
118.660025
 20
167.624705
 30
0.0
 11
105.340502
 21
167.624705
 31
0.0
  0
LINE
  5
30E
330
30A
100
AcDbEntity
  8
SK2
370
    -2
100
AcDbLine
 10
118.660025
 20
135.624705
 30
0.0
 11
105.340502
 21
135.624705
 31
0.0
  0
LINE
  5
30F
330
30A
100
AcDbEntity
  8
SK2
370
    -2
100
AcDbLine
 10
107.340502
 20
164.449705
 30
0.0
 11
107.340502
 21
138.799705
 31
0.0
  0
SOLID
  5
310
330
30A
100
AcDbEntity
  8
SK2
100
AcDbTrace
 10
107.869669
 20
164.449705
 30
0.0
 11
106.811336
 21
164.449705
 31
0.0
 12
107.340502
 22
167.624705
 32
0.0
 13
107.340502
 23
167.624705
 33
0.0
  0
SOLID
  5
311
330
30A
100
AcDbEntity
  8
SK2
100
AcDbTrace
 10
106.811336
 20
138.799705
 30
0.0
 11
107.869669
 21
138.799705
 31
0.0
 12
107.340502
 22
135.624705
 32
0.0
 13
107.340502
 23
135.624705
 33
0.0
  0
MTEXT
  5
312
330
30A
100
AcDbEntity
  8
SK2
370
    13
100
AcDbMText
 10
101.340502
 20
151.214336
 30
0.0
 40
3.0
 41
0.0
 71
     5
 72
     1
  1
\A1;32
  7
iso_b_vert
 11
0.0
 21
1.0
 31
0.0
 73
     1
 44
1.0
  0
POINT
  5
313
330
30A
100
AcDbEntity
  8
Defpoints
 62
     0
100
AcDbPoint
 10
118.660025
 20
167.624705
 30
0.0
  0
POINT
  5
314
330
30A
100
AcDbEntity
  8
Defpoints
 62
     0
100
AcDbPoint
 10
118.660025
 20
135.624705
 30
0.0
  0
POINT
  5
315
330
30A
100
AcDbEntity
  8
Defpoints
 62
     0
100
AcDbPoint
 10
107.340502
 20
135.624705
 30
0.0
  0
ENDBLK
  5
30C
330
30A
100
AcDbEntity
  8
0
100
AcDbBlockEnd
  0
BLOCK
  5
31E
330
316
100
AcDbEntity
  8
0
100
AcDbBlockBegin
  2
_U5
 70
     0
 10
0.0
 20
0.0
 30
0.0
  3
_U5
  1

  0
MTEXT
  5
317
330
316
100
AcDbEntity
  8
SK2
370
    18
100
AcDbMText
 10
106.186888
 20
152.445007
 30
0.0
 40
3.0
 41
0.0
 71
     7
 72
     5
  1
\W0.7335;32
  7
iso_b_vert
 11
6.123233995736766E-17
 21
1.0
 31
0.0
 73
     2
 44
0.987952
  0
MTEXT
  5
318
330
316
100
AcDbEntity
  8
SK2
370
    18
100
AcDbMText
 10
106.186888
 20
146.670007
 30
0.0
 40
3.0
 41
0.0
 71
     7
 72
     5
  1
\W4.3910;\H2.25;%%c\H3.00;
  7
iso_b_vert
 11
6.123233995736766E-17
 21
1.0
 31
0.0
 73
     2
 44
0.987952
  0
LINE
  5
319
330
316
100
AcDbEntity
  8
SK2
370
    13
100
AcDbLine
 10
118.660025
 20
167.624705
 30
0.0
 11
105.340502
 21
167.624705
 31
0.0
  0
LINE
  5
31A
330
316
100
AcDbEntity
  8
SK2
370
    13
100
AcDbLine
 10
118.660025
 20
135.624705
 30
0.0
 11
105.340502
 21
135.624705
 31
0.0
  0
LINE
  5
31B
330
316
100
AcDbEntity
  8
SK2
370
    13
100
AcDbLine
 10
107.340502
 20
167.624705
 30
0.0
 11
107.340502
 21
135.624705
 31
0.0
  0
SOLID
  5
31C
330
316
100
AcDbEntity
  8
SK2
370
    13
100
AcDbTrace
 10
107.340502
 20
167.624705
 30
0.0
 11
107.758499
 21
164.449706
 31
0.0
 12
106.922506
 22
164.449703
 32
0.0
 13
106.922506
 23
164.449703
 33
0.0
  0
SOLID
  5
31D
330
316
100
AcDbEntity
  8
SK2
370
    13
100
AcDbTrace
 10
107.340502
 20
135.624705
 30
0.0
 11
106.922506
 21
138.799703
 31
0.0
 12
107.758499
 22
138.799706
 32
0.0
 13
107.758499
 23
138.799706
 33
0.0
  0
ENDBLK
  5
31F
330
316
100
AcDbEntity
  8
0
100
AcDbBlockEnd
  0
ENDSEC
  0
SECTION
  2
ENTITIES
  0
POINT
  5
73
330
1F
100
AcDbEntity
  8
81
370
    18
100
AcDbPoint
 10
316.660025
 20
169.099705
 30
0.0
  0
POINT
  5
75
102
{ACAD_REACTORS
330
2C3
102
}
330
1F
100
AcDbEntity
  8
80
370
    18
100
AcDbPoint
 10
176.660025
 20
151.624705
 30
0.0
  0
POINT
  5
76
330
1F
100
AcDbEntity
  8
4
 60
     1
370
    13
100
AcDbPoint
 10
196.660025
 20
151.624705
 30
0.0
  0
POINT
  5
78
330
1F
100
AcDbEntity
  8
4
 60
     1
370
    13
100
AcDbPoint
 10
315.583629
 20
151.624705
 30
0.0
  0
POINT
  5
79
330
1F
100
AcDbEntity
  8
SK4
 60
     1
370
    13
100
AcDbPoint
 10
116.660025
 20
151.624705
 30
0.0
  0
POINT
  5
7A
330
1F
100
AcDbEntity
  8
SK4
 60
     1
370
    13
100
AcDbPoint
 10
196.660025
 20
151.624705
 30
0.0
  0
POINT
  5
7B
102
{ACAD_REACTORS
330
2A9
102
}
330
1F
100
AcDbEntity
  8
SK6
 60
     1
370
    13
100
AcDbPoint
 10
314.767317
 20
168.499206
 30
0.0
  0
LINE
  5
7C
330
1F
100
AcDbEntity
  8
1
370
    50
100
AcDbLine
 10
303.910756
 20
148.464405
 30
0.0
 11
303.881073
 21
148.408023
 31
0.0
  0
LINE
  5
7E
330
1F
100
AcDbEntity
  8
1
370
    50
100
AcDbLine
 10
303.138306
 20
147.071292
 30
0.0
 11
302.61113
 21
146.075519
 31
0.0
  0
LINE
  5
7F
330
1F
100
AcDbEntity
  8
SK1
370
    50
100
AcDbLine
 10
118.660025
 20
135.624705
 30
0.0
 11
118.660025
 21
167.624705
 31
0.0
  0
LINE
  5
80
330
1F
100
AcDbEntity
  8
SK1
370
    50
100
AcDbLine
 10
196.660025
 20
135.624705
 30
0.0
 11
196.660025
 21
167.624705
 31
0.0
  0
LINE
  5
81
330
1F
100
AcDbEntity
  8
SK1
370
    50
100
AcDbLine
 10
116.660025
 20
136.352645
 30
0.0
 11
116.660025
 21
166.896764
 31
0.0
  0
LINE
  5
82
330
1F
100
AcDbEntity
  8
NOCUT
370
    13
100
AcDbLine
 10
291.660025
 20
154.624705
 30
0.0
 11
118.392076
 21
154.624705
 31
0.0
  0
LINE
  5
83
330
1F
100
AcDbEntity
  8
NOCUT
370
    13
100
AcDbLine
 10
308.130627
 20
167.025249
 30
0.0
 11
311.83944
 21
167.813581
 31
0.0
  0
LINE
  5
84
330
1F
100
AcDbEntity
  8
1
370
    50
100
AcDbLine
 10
303.907175
 20
158.290393
 30
0.0
 11
302.61113
 21
164.292464
 31
0.0
  0
LINE
  5
85
330
1F
100
AcDbEntity
  8
1
370
    50
100
AcDbLine
 10
311.734754
 20
163.654151
 30
0.0
 11
311.641626
 21
163.74728
 31
0.0
  0
LINE
  5
87
330
1F
100
AcDbEntity
  8
1
370
    50
100
AcDbLine
 10
310.640239
 20
162.68155
 30
0.0
 11
310.800046
 21
162.521743
 31
0.0
  0
LINE
  5
88
330
1F
100
AcDbEntity
  8
1
370
    50
100
AcDbLine
 10
308.856875
 20
160.820973
 30
0.0
 11
308.697068
 21
160.98078
 31
0.0
  0
LINE
  5
89
330
1F
100
AcDbEntity
  8
1
370
    50
100
AcDbLine
 10
308.998875
 20
163.140988
 30
0.0
 11
309.152642
 21
162.987221
 31
0.0
  0
LINE
  5
8A
330
1F
100
AcDbEntity
  8
1
370
    50
100
AcDbLine
 10
308.573983
 20
162.470994
 30
0.0
 11
308.420483
 21
162.624494
 31
0.0
  0
LINE
  5
8B
330
1F
100
AcDbEntity
  8
1
370
    50
100
AcDbLine
 10
310.916824
 20
161.037836
 30
0.0
 11
310.96568
 21
160.98898
 31
0.0
  0
LINE
  5
8C
330
1F
100
AcDbEntity
  8
1
370
    50
100
AcDbLine
 10
310.407207
 20
160.452567
 30
0.0
 11
310.338432
 21
160.521342
 31
0.0
  0
LINE
  5
8D
330
1F
100
AcDbEntity
  8
1
370
    50
100
AcDbLine
 10
307.752538
 20
159.858193
 30
0.0
 11
307.826695
 21
159.784036
 31
0.0
  0
LINE
  5
8E
330
1F
100
AcDbEntity
  8
1
370
    50
100
AcDbLine
 10
199.852787
 20
136.474268
 30
0.0
 11
297.942391
 21
139.899632
 31
0.0
  0
LINE
  5
8F
330
1F
100
AcDbEntity
  8
SK1
370
    50
100
AcDbLine
 10
118.660025
 20
135.624705
 30
0.0
 11
196.660025
 21
135.624705
 31
0.0
  0
LINE
  5
90
330
1F
100
AcDbEntity
  8
SK1
370
    50
100
AcDbLine
 10
118.660025
 20
167.624705
 30
0.0
 11
116.660025
 21
166.896764
 31
0.0
  0
LINE
  5
91
330
1F
100
AcDbEntity
  8
SK1
370
    50
100
AcDbLine
 10
116.660025
 20
136.352645
 30
0.0
 11
118.660025
 21
135.624705
 31
0.0
  0
LINE
  5
92
330
1F
100
AcDbEntity
  8
1
370
    50
100
AcDbLine
 10
196.660025
 20
135.624705
 30
0.0
 11
198.010063
 21
136.116079
 31
0.0
  0
LINE
  5
93
330
1F
100
AcDbEntity
  8
1
370
    50
100
AcDbLine
 10
198.010063
 20
167.133331
 30
0.0
 11
196.660025
 21
167.624705
 31
0.0
  0
LINE
  5
94
330
1F
100
AcDbEntity
  8
1
370
    50
100
AcDbLine
 10
303.291386
 20
138.565978
 30
0.0
 11
303.718384
 21
138.319451
 31
0.0
  0
LINE
  5
95
330
1F
100
AcDbEntity
  8
1
370
    50
100
AcDbLine
 10
284.775274
 20
163.809584
 30
0.0
 11
199.852787
 21
166.775142
 31
0.0
  0
LINE
  5
96
330
1F
100
AcDbEntity
  8
1
370
    50
100
AcDbLine
 10
304.630111
 20
164.992555
 30
0.0
 11
305.45936
 21
161.152249
 31
0.0
  0
LINE
  5
98
330
1F
100
AcDbEntity
  8
1
370
    50
100
AcDbLine
 10
305.45936
 20
161.152249
 30
0.0
 11
306.044079
 21
158.444373
 31
0.0
  0
LINE
  5
99
330
1F
100
AcDbEntity
  8
1
370
    50
100
AcDbLine
 10
312.733265
 20
167.347456
 30
0.0
 11
308.886549
 21
166.489012
 31
0.0
  0
LINE
  5
9A
330
1F
100
AcDbEntity
  8
1
370
    50
100
AcDbLine
 10
308.886549
 20
166.489012
 30
0.0
 11
305.494266
 21
165.73198
 31
0.0
  0
LINE
  5
9B
330
1F
100
AcDbEntity
  8
80
370
    18
100
AcDbLine
 10
175.660025
 20
151.624705
 30
0.0
 11
177.660025
 21
151.624705
 31
0.0
  0
LINE
  5
9C
330
1F
100
AcDbEntity
  8
80
370
    18
100
AcDbLine
 10
176.660025
 20
150.624705
 30
0.0
 11
176.660025
 21
152.624705
 31
0.0
  0
LINE
  5
9D
330
1F
100
AcDbEntity
  8
SK1
370
    18
100
AcDbLine
 10
116.660025
 20
147.624705
 30
0.0
 11
116.660025
 21
155.624705
 31
0.0
  0
LINE
  5
9E
330
1F
100
AcDbEntity
  8
SK1
370
    18
100
AcDbLine
 10
118.660025
 20
167.624705
 30
0.0
 11
116.660025
 21
166.896764
 31
0.0
  0
LINE
  5
9F
330
1F
100
AcDbEntity
  8
SK1
370
    18
100
AcDbLine
 10
116.660025
 20
147.624705
 30
0.0
 11
116.660025
 21
136.352645
 31
0.0
  0
LINE
  5
A0
330
1F
100
AcDbEntity
  8
SK1
370
    18
100
AcDbLine
 10
196.660025
 20
167.624705
 30
0.0
 11
118.660025
 21
167.624705
 31
0.0
  0
LINE
  5
A1
330
1F
100
AcDbEntity
  8
SK1
370
    18
100
AcDbLine
 10
116.660025
 20
136.352645
 30
0.0
 11
118.660025
 21
135.624705
 31
0.0
  0
LINE
  5
A2
330
1F
100
AcDbEntity
  8
NOCUT
370
    13
100
AcDbLine
 10
314.082354
 20
166.670759
 30
0.0
 11
314.230616
 21
166.337757
 31
0.0
  0
LINE
  5
A3
330
1F
100
AcDbEntity
  8
NOCUT
370
    13
100
AcDbLine
 10
199.852787
 20
166.775142
 30
0.0
 11
297.942391
 21
163.349778
 31
0.0
  0
LINE
  5
A4
330
1F
100
AcDbEntity
  8
NOCUT
370
    13
100
AcDbLine
 10
314.310025
 20
156.249705
 30
0.0
 11
313.256517
 21
153.355215
 31
0.0
  0
LINE
  5
A5
330
1F
100
AcDbEntity
  8
NOCUT
370
    13
100
AcDbLine
 10
313.160025
 20
151.624705
 30
0.0
 11
292.693008
 21
151.624705
 31
0.0
  0
LINE
  5
A6
330
1F
100
AcDbEntity
  8
NOCUT
370
    13
100
AcDbLine
 10
118.660025
 20
167.624705
 30
0.0
 11
196.660025
 21
167.624705
 31
0.0
  0
LINE
  5
A7
330
1F
100
AcDbEntity
  8
NOCUT
370
    13
100
AcDbLine
 10
315.297859
 20
159.590724
 30
0.0
 11
314.881565
 21
159.241412
 31
0.0
  0
LINE
  5
A8
330
1F
100
AcDbEntity
  8
NOCUT
370
    13
100
AcDbLine
 10
118.392076
 20
154.624705
 30
0.0
 11
116.660025
 21
155.624705
 31
0.0
  0
LINE
  5
A9
330
1F
100
AcDbEntity
  8
NOCUT
370
    13
100
AcDbLine
 10
116.660025
 20
155.624705
 30
0.0
 11
116.660025
 21
166.896764
 31
0.0
  0
LINE
  5
AA
330
1F
100
AcDbEntity
  8
NOCUT
370
    13
100
AcDbLine
 10
292.693008
 20
151.624705
 30
0.0
 11
291.660025
 21
154.624705
 31
0.0
  0
LINE
  5
AB
330
1F
100
AcDbEntity
  8
NOCUT
370
    13
100
AcDbLine
 10
303.291386
 20
164.683432
 30
0.0
 11
305.793921
 21
166.128271
 31
0.0
  0
LINE
  5
AC
330
1F
100
AcDbEntity
  8
NOCUT
370
    13
100
AcDbLine
 10
313.160025
 20
152.807983
 30
0.0
 11
313.160025
 21
151.624705
 31
0.0
  0
LINE
  5
AD
330
1F
100
AcDbEntity
  8
NOCUT
370
    13
100
AcDbLine
 10
196.660025
 20
167.624705
 30
0.0
 11
198.010063
 21
167.133331
 31
0.0
  0
LINE
  5
AE
330
1F
100
AcDbEntity
  8
NOCUT
370
    13
100
AcDbLine
 10
314.310025
 20
158.015741
 30
0.0
 11
314.310025
 21
156.249705
 31
0.0
  0
LINE
  5
AF
330
1F
100
AcDbEntity
  8
NOCUT
370
    13
100
AcDbLine
 10
116.660025
 20
166.896764
 30
0.0
 11
118.660025
 21
167.624705
 31
0.0
  0
LINE
  5
B0
330
1F
100
AcDbEntity
  8
NOCUT
370
    13
100
AcDbLine
 10
314.424422
 20
165.741283
 30
0.0
 11
315.566147
 21
160.369889
 31
0.0
  0
LINE
  5
B1
330
1F
100
AcDbEntity
  8
1
370
    50
100
AcDbLine
 10
314.495223
 20
155.987587
 30
0.0
 11
315.42659
 21
152.396806
 31
0.0
  0
LINE
  5
B2
330
1F
100
AcDbEntity
  8
1
370
    50
100
AcDbLine
 10
314.302001
 20
156.816973
 30
0.0
 11
313.457824
 21
157.661149
 31
0.0
  0
LINE
  5
B3
330
1F
100
AcDbEntity
  8
1
370
    50
100
AcDbLine
 10
315.583629
 20
151.14782
 30
0.0
 11
315.583629
 21
151.965019
 31
0.0
  0
LINE
  5
B4
330
1F
100
AcDbEntity
  8
1
370
    50
100
AcDbLine
 10
315.42659
 20
143.124004
 30
0.0
 11
314.495223
 21
140.352211
 31
0.0
  0
LINE
  5
B5
330
1F
100
AcDbEntity
  8
1
370
    50
100
AcDbLine
 10
315.583629
 20
144.032363
 30
0.0
 11
315.583629
 21
144.301729
 31
0.0
  0
LINE
  5
B6
330
1F
100
AcDbEntity
  8
1
370
    50
100
AcDbLine
 10
312.136283
 20
156.574394
 30
0.0
 11
312.029635
 21
156.678365
 31
0.0
  0
LINE
  5
B7
330
1F
100
AcDbEntity
  8
1
370
    50
100
AcDbLine
 10
309.208257
 20
156.949685
 30
0.0
 11
308.828337
 21
156.700257
 31
0.0
  0
LINE
  5
B8
330
1F
100
AcDbEntity
  8
1
370
    50
100
AcDbLine
 10
309.210984
 20
136.843818
 30
0.0
 11
309.514375
 21
136.706022
 31
0.0
  0
LINE
  5
B9
330
1F
100
AcDbEntity
  8
1
370
    50
100
AcDbLine
 10
311.798356
 20
136.949031
 30
0.0
 11
312.06596
 21
137.14758
 31
0.0
  0
LINE
  5
BA
330
1F
100
AcDbEntity
  8
1
370
    50
100
AcDbLine
 10
315.958966
 20
144.376002
 30
0.0
 11
315.769077
 21
144.622086
 31
0.0
  0
LINE
  5
BB
330
1F
100
AcDbEntity
  8
1
370
    50
100
AcDbLine
 10
314.9109
 20
141.327826
 30
0.0
 11
315.958966
 21
144.376002
 31
0.0
  0
LINE
  5
BC
330
1F
100
AcDbEntity
  8
1
370
    50
100
AcDbLine
 10
314.773351
 20
141.141505
 30
0.0
 11
314.9109
 21
141.327826
 31
0.0
  0
LINE
  5
BD
330
1F
100
AcDbEntity
  8
1
370
    50
100
AcDbLine
 10
316.084767
 20
144.995935
 30
0.0
 11
315.958966
 21
144.376002
 31
0.0
  0
LINE
  5
BE
330
1F
100
AcDbEntity
  8
1
370
    50
100
AcDbLine
 10
313.780609
 20
144.420976
 30
0.0
 11
313.052194
 21
145.803647
 31
0.0
  0
LINE
  5
BF
330
1F
100
AcDbEntity
  8
1
370
    50
100
AcDbLine
 10
312.650336
 20
147.219214
 30
0.0
 11
312.544642
 21
147.877906
 31
0.0
  0
LINE
  5
C0
330
1F
100
AcDbEntity
  8
1
370
    50
100
AcDbLine
 10
312.544642
 20
147.877906
 30
0.0
 11
313.333122
 21
147.956469
 31
0.0
  0
LINE
  5
C1
330
1F
100
AcDbEntity
  8
1
370
    50
100
AcDbLine
 10
306.490243
 20
147.669264
 30
0.0
 11
312.441552
 21
146.359634
 31
0.0
  0
LINE
  5
C2
330
1F
100
AcDbEntity
  8
1
370
    50
100
AcDbLine
 10
307.380342
 20
148.730444
 30
0.0
 11
306.490243
 21
147.669264
 31
0.0
  0
LINE
  5
C3
330
1F
100
AcDbEntity
  8
1
370
    50
100
AcDbLine
 10
307.380342
 20
148.730444
 30
0.0
 11
312.544642
 21
147.877906
 31
0.0
  0
LINE
  5
C4
330
1F
100
AcDbEntity
  8
1
370
    50
100
AcDbLine
 10
315.958966
 20
151.043313
 30
0.0
 11
315.626957
 21
151.404028
 31
0.0
  0
LINE
  5
C5
330
1F
100
AcDbEntity
  8
1
370
    50
100
AcDbLine
 10
314.9109
 20
148.935299
 30
0.0
 11
315.958966
 21
151.043313
 31
0.0
  0
LINE
  5
C6
330
1F
100
AcDbEntity
  8
1
370
    50
100
AcDbLine
 10
314.064361
 20
148.201793
 30
0.0
 11
314.9109
 21
148.935299
 31
0.0
  0
LINE
  5
C7
330
1F
100
AcDbEntity
  8
1
370
    50
100
AcDbLine
 10
305.493649
 20
149.238593
 30
0.0
 11
307.380342
 21
148.730444
 31
0.0
  0
LINE
  5
C8
330
1F
100
AcDbEntity
  8
1
370
    50
100
AcDbLine
 10
304.447187
 20
149.965949
 30
0.0
 11
304.779196
 21
149.605234
 31
0.0
  0
LINE
  5
C9
330
1F
100
AcDbEntity
  8
1
370
    50
100
AcDbLine
 10
304.48929
 20
150.050632
 30
0.0
 11
304.447187
 21
149.965949
 31
0.0
  0
LINE
  5
CA
330
1F
100
AcDbEntity
  8
1
370
    50
100
AcDbLine
 10
306.490243
 20
147.669264
 30
0.0
 11
304.692443
 21
147.054849
 31
0.0
  0
LINE
  5
CB
330
1F
100
AcDbEntity
  8
1
370
    50
100
AcDbLine
 10
314.92686
 20
147.519253
 30
0.0
 11
314.47096
 21
145.916695
 31
0.0
  0
LINE
  5
CC
330
1F
100
AcDbEntity
  8
1
370
    50
100
AcDbLine
 10
314.92686
 20
147.519253
 30
0.0
 11
316.187887
 21
149.663432
 31
0.0
  0
LINE
  5
CD
330
1F
100
AcDbEntity
  8
1
370
    50
100
AcDbLine
 10
316.349606
 20
148.591737
 30
0.0
 11
316.285985
 21
149.48487
 31
0.0
  0
LINE
  5
CE
330
1F
100
AcDbEntity
  8
1
370
    50
100
AcDbLine
 10
304.680986
 20
145.512258
 30
0.0
 11
304.223147
 21
144.966419
 31
0.0
  0
LINE
  5
CF
330
1F
100
AcDbEntity
  8
1
370
    50
100
AcDbLine
 10
314.9109
 20
148.935299
 30
0.0
 11
314.92686
 21
147.519253
 31
0.0
  0
LINE
  5
D0
330
1F
100
AcDbEntity
  8
1
370
    50
100
AcDbLine
 10
303.470672
 20
146.325178
 30
0.0
 11
303.772443
 21
147.908494
 31
0.0
  0
LINE
  5
D1
330
1F
100
AcDbEntity
  8
1
370
    50
100
AcDbLine
 10
304.211868
 20
149.342724
 30
0.0
 11
304.447187
 21
149.965949
 31
0.0
  0
LINE
  5
D2
330
1F
100
AcDbEntity
  8
1
370
    50
100
AcDbLine
 10
314.959303
 20
144.64093
 30
0.0
 11
314.967513
 21
143.91256
 31
0.0
  0
LINE
  5
D3
102
{ACAD_REACTORS
330
2A9
102
}
330
1F
100
AcDbEntity
  8
81
370
    18
100
AcDbLine
 10
315.660025
 20
169.099705
 30
0.0
 11
317.660025
 21
169.099705
 31
0.0
  0
LINE
  5
D4
102
{ACAD_REACTORS
330
2DB
102
}
330
1F
100
AcDbEntity
  8
SK1
370
    18
100
AcDbLine
 10
116.660025
 20
166.896764
 30
0.0
 11
116.660025
 21
155.624705
 31
0.0
  0
LINE
  5
D5
102
{ACAD_REACTORS
330
290
330
2C3
330
2DB
330
2F3
102
}
330
1F
100
AcDbEntity
  8
81
370
    18
100
AcDbLine
 10
316.660025
 20
168.099705
 30
0.0
 11
316.660025
 21
170.099705
 31
0.0
  0
LINE
  5
D6
102
{ACAD_REACTORS
330
290
330
309
102
}
330
1F
100
AcDbEntity
  8
SK1
370
    50
100
AcDbLine
 10
196.660025
 20
167.624705
 30
0.0
 11
118.660025
 21
167.624705
 31
0.0
  0
LINE
  5
D7
330
1F
100
AcDbEntity
  8
1
370
    13
100
AcDbLine
 10
313.330731
 20
157.784248
 30
0.0
 11
312.99835
 21
158.073615
 31
0.0
  0
LINE
  5
D8
330
1F
100
AcDbEntity
  8
1
370
    13
100
AcDbLine
 10
312.922725
 20
157.888971
 30
0.0
 11
312.99835
 21
158.073615
 31
0.0
  0
LINE
  5
D9
330
1F
100
AcDbEntity
  8
1
370
    13
100
AcDbLine
 10
314.082354
 20
150.745706
 30
0.0
 11
314.230616
 21
150.468511
 31
0.0
  0
LINE
  5
DA
330
1F
100
AcDbEntity
  8
1
370
    13
100
AcDbLine
 10
303.745492
 20
148.716428
 30
0.0
 11
303.881073
 21
148.408023
 31
0.0
  0
LINE
  5
DB
330
1F
100
AcDbEntity
  8
1
370
    13
100
AcDbLine
 10
303.881073
 20
148.408023
 30
0.0
 11
303.868241
 21
148.298025
 31
0.0
  0
LINE
  5
DC
330
1F
100
AcDbEntity
  8
1
370
    13
100
AcDbLine
 10
287.546524
 20
147.545089
 30
0.0
 11
297.942391
 21
146.856462
 31
0.0
  0
LINE
  5
DD
330
1F
100
AcDbEntity
  8
1
370
    13
100
AcDbLine
 10
314.082354
 20
139.056194
 30
0.0
 11
314.230616
 21
139.500328
 31
0.0
  0
LINE
  5
DE
330
1F
100
AcDbEntity
  8
1
370
    13
100
AcDbLine
 10
312.922725
 20
135.631402
 30
0.0
 11
312.99835
 21
135.861155
 31
0.0
  0
LINE
  5
DF
330
1F
100
AcDbEntity
  8
1
370
    13
100
AcDbLine
 10
307.451341
 20
160.216603
 30
0.0
 11
307.752538
 21
159.858193
 31
0.0
  0
LINE
  5
E0
330
1F
100
AcDbEntity
  8
1
370
    13
100
AcDbLine
 10
311.171246
 20
161.768179
 30
0.0
 11
311.110817
 21
161.74976
 31
0.0
  0
LINE
  5
E1
330
1F
100
AcDbEntity
  8
1
370
    13
100
AcDbLine
 10
311.171246
 20
161.768179
 30
0.0
 11
311.262649
 21
161.824998
 31
0.0
  0
LINE
  5
E2
330
1F
100
AcDbEntity
  8
1
370
    13
100
AcDbLine
 10
311.113547
 20
162.5155
 30
0.0
 11
311.007138
 21
162.528175
 31
0.0
  0
LINE
  5
E3
330
1F
100
AcDbEntity
  8
1
370
    13
100
AcDbLine
 10
310.944677
 20
162.519168
 30
0.0
 11
311.007138
 21
162.528175
 31
0.0
  0
LINE
  5
E4
330
1F
100
AcDbEntity
  8
1
370
    13
100
AcDbLine
 10
310.484384
 20
163.101407
 30
0.0
 11
310.469723
 21
163.039985
 31
0.0
  0
LINE
  5
E5
330
1F
100
AcDbEntity
  8
1
370
    13
100
AcDbLine
 10
310.484384
 20
163.101407
 30
0.0
 11
310.481479
 21
163.208603
 31
0.0
  0
LINE
  5
E6
330
1F
100
AcDbEntity
  8
1
370
    13
100
AcDbLine
 10
309.807937
 20
163.420181
 30
0.0
 11
309.743056
 21
163.334279
 31
0.0
  0
LINE
  5
E7
330
1F
100
AcDbEntity
  8
1
370
    13
100
AcDbLine
 10
309.719214
 20
163.275741
 30
0.0
 11
309.743056
 21
163.334279
 31
0.0
  0
LINE
  5
E8
330
1F
100
AcDbEntity
  8
1
370
    13
100
AcDbLine
 10
308.981792
 20
163.164393
 30
0.0
 11
309.02756
 21
163.121389
 31
0.0
  0
LINE
  5
E9
330
1F
100
AcDbEntity
  8
1
370
    13
100
AcDbLine
 10
308.981792
 20
163.164393
 30
0.0
 11
308.887483
 21
163.21477
 31
0.0
  0
LINE
  5
EA
330
1F
100
AcDbEntity
  8
1
370
    13
100
AcDbLine
 10
308.363044
 20
162.735846
 30
0.0
 11
308.404571
 21
162.63727
 31
0.0
  0
LINE
  5
EB
330
1F
100
AcDbEntity
  8
1
370
    13
100
AcDbLine
 10
308.443191
 20
162.587738
 30
0.0
 11
308.404571
 21
162.63727
 31
0.0
  0
LINE
  5
EC
330
1F
100
AcDbEntity
  8
1
370
    13
100
AcDbLine
 10
308.166061
 20
161.894151
 30
0.0
 11
308.22649
 21
161.91257
 31
0.0
  0
LINE
  5
ED
330
1F
100
AcDbEntity
  8
1
370
    13
100
AcDbLine
 10
308.166061
 20
161.894151
 30
0.0
 11
308.074658
 21
161.837332
 31
0.0
  0
LINE
  5
EE
330
1F
100
AcDbEntity
  8
1
370
    13
100
AcDbLine
 10
308.22376
 20
161.14683
 30
0.0
 11
308.330169
 21
161.134155
 31
0.0
  0
LINE
  5
EF
330
1F
100
AcDbEntity
  8
1
370
    13
100
AcDbLine
 10
308.39263
 20
161.143162
 30
0.0
 11
308.330169
 21
161.134155
 31
0.0
  0
LINE
  5
F0
330
1F
100
AcDbEntity
  8
1
370
    13
100
AcDbLine
 10
312.162511
 20
163.097872
 30
0.0
 11
311.734868
 21
163.654038
 31
0.0
  0
LINE
  5
F1
330
1F
100
AcDbEntity
  8
1
370
    13
100
AcDbLine
 10
308.852923
 20
160.560923
 30
0.0
 11
308.867584
 21
160.622345
 31
0.0
  0
LINE
  5
F2
330
1F
100
AcDbEntity
  8
1
370
    13
100
AcDbLine
 10
308.852923
 20
160.560923
 30
0.0
 11
308.855828
 21
160.453727
 31
0.0
  0
LINE
  5
F3
330
1F
100
AcDbEntity
  8
1
370
    13
100
AcDbLine
 10
309.52937
 20
160.242149
 30
0.0
 11
309.594251
 21
160.328051
 31
0.0
  0
LINE
  5
F4
330
1F
100
AcDbEntity
  8
1
370
    13
100
AcDbLine
 10
309.618093
 20
160.386589
 30
0.0
 11
309.594251
 21
160.328051
 31
0.0
  0
LINE
  5
F5
330
1F
100
AcDbEntity
  8
1
370
    13
100
AcDbLine
 10
310.355516
 20
160.497937
 30
0.0
 11
310.309747
 21
160.540941
 31
0.0
  0
LINE
  5
F6
330
1F
100
AcDbEntity
  8
1
370
    13
100
AcDbLine
 10
310.355516
 20
160.497937
 30
0.0
 11
310.449824
 21
160.44756
 31
0.0
  0
LINE
  5
F7
330
1F
100
AcDbEntity
  8
1
370
    13
100
AcDbLine
 10
310.974263
 20
160.926484
 30
0.0
 11
310.932736
 21
161.02506
 31
0.0
  0
LINE
  5
F8
330
1F
100
AcDbEntity
  8
1
370
    13
100
AcDbLine
 10
310.894116
 20
161.074592
 30
0.0
 11
310.932736
 21
161.02506
 31
0.0
  0
LINE
  5
F9
330
1F
100
AcDbEntity
  8
1
370
    13
100
AcDbLine
 10
297.942391
 20
163.285458
 30
0.0
 11
287.546524
 21
163.518915
 31
0.0
  0
LINE
  5
FA
330
1F
100
AcDbEntity
  8
1
370
    13
100
AcDbLine
 10
313.030172
 20
162.316009
 30
0.0
 11
312.963831
 21
162.804325
 31
0.0
  0
LINE
  5
FB
330
1F
100
AcDbEntity
  8
1
370
    13
100
AcDbLine
 10
309.787143
 20
158.923604
 30
0.0
 11
309.885431
 21
158.920832
 31
0.0
  0
LINE
  5
FC
330
1F
100
AcDbEntity
  8
1
370
    13
100
AcDbLine
 10
310.162165
 20
165.091212
 30
0.0
 11
309.295956
 21
165.022804
 31
0.0
  0
LINE
  5
FD
330
1F
100
AcDbEntity
  8
1
370
    13
100
AcDbLine
 10
312.244707
 20
164.089535
 30
0.0
 11
312.13879
 21
164.200924
 31
0.0
  0
LINE
  5
FE
330
1F
100
AcDbEntity
  8
1
370
    13
100
AcDbLine
 10
310.029998
 20
158.926962
 30
0.0
 11
310.518833
 21
158.997015
 31
0.0
  0
LINE
  5
FF
330
1F
100
AcDbEntity
  8
1
370
    13
100
AcDbLine
 10
306.663644
 20
161.901478
 30
0.0
 11
306.729985
 21
161.413162
 31
0.0
  0
LINE
  5
100
330
1F
100
AcDbEntity
  8
1
370
    13
100
AcDbLine
 10
309.663818
 20
165.290524
 30
0.0
 11
309.174983
 21
165.220472
 31
0.0
  0
LINE
  5
101
330
1F
100
AcDbEntity
  8
1
370
    13
100
AcDbLine
 10
313.225111
 20
167.205264
 30
0.0
 11
312.733265
 21
167.347456
 31
0.0
  0
LINE
  5
102
330
1F
100
AcDbEntity
  8
1
370
    13
100
AcDbLine
 10
314.881565
 20
155.462142
 30
0.0
 11
315.297859
 21
153.383882
 31
0.0
  0
LINE
  5
103
330
1F
100
AcDbEntity
  8
1
370
    13
100
AcDbLine
 10
313.044175
 20
135.998903
 30
0.0
 11
312.99835
 21
135.861155
 31
0.0
  0
LINE
  5
104
330
1F
100
AcDbEntity
  8
1
370
    13
100
AcDbLine
 10
315.164284
 20
156.900489
 30
0.0
 11
314.886625
 21
155.435184
 31
0.0
  0
LINE
  5
105
330
1F
100
AcDbEntity
  8
1
370
    13
100
AcDbLine
 10
310.940169
 20
155.815468
 30
0.0
 11
311.47031
 21
155.869734
 31
0.0
  0
LINE
  5
106
330
1F
100
AcDbEntity
  8
1
370
    13
100
AcDbLine
 10
309.256474
 20
155.602807
 30
0.0
 11
310.378327
 21
155.313593
 31
0.0
  0
LINE
  5
107
330
1F
100
AcDbEntity
  8
1
370
    13
100
AcDbLine
 10
308.828421
 20
156.700312
 30
0.0
 11
308.636523
 21
156.522361
 31
0.0
  0
LINE
  5
108
330
1F
100
AcDbEntity
  8
1
370
    13
100
AcDbLine
 10
308.950017
 20
136.992114
 30
0.0
 11
309.211071
 21
136.843778
 31
0.0
  0
LINE
  5
109
330
1F
100
AcDbEntity
  8
1
370
    13
100
AcDbLine
 10
312.066082
 20
137.147671
 30
0.0
 11
312.268699
 21
137.32485
 31
0.0
  0
LINE
  5
10A
330
1F
100
AcDbEntity
  8
1
370
    13
100
AcDbLine
 10
304.680986
 20
145.512258
 30
0.0
 11
311.912661
 21
144.304006
 31
0.0
  0
LINE
  5
10B
330
1F
100
AcDbEntity
  8
1
370
    13
100
AcDbLine
 10
304.181205
 20
145.661435
 30
0.0
 11
304.680986
 21
145.512258
 31
0.0
  0
LINE
  5
10C
330
1F
100
AcDbEntity
  8
1
370
    13
100
AcDbLine
 10
314.959303
 20
144.64093
 30
0.0
 11
316.429279
 21
147.580257
 31
0.0
  0
LINE
  5
10D
330
1F
100
AcDbEntity
  8
1
370
    13
100
AcDbLine
 10
314.730405
 20
144.458609
 30
0.0
 11
314.959303
 21
144.64093
 31
0.0
  0
LINE
  5
10E
330
1F
100
AcDbEntity
  8
1
370
    13
100
AcDbLine
 10
303.348673
 20
146.896516
 30
0.0
 11
303.394317
 21
146.987274
 31
0.0
  0
LINE
  5
10F
330
1F
100
AcDbEntity
  8
CUT
370
    13
100
AcDbLine
 10
315.025589
 20
167.935103
 30
0.0
 11
315.952725
 21
163.566919
 31
0.0
  0
LINE
  5
111
330
1F
100
AcDbEntity
  8
1
370
    13
100
AcDbLine
 10
316.643006
 20
147.271101
 30
0.0
 11
316.505687
 21
148.208448
 31
0.0
  0
LINE
  5
112
330
1F
100
AcDbEntity
  8
1
370
    13
100
AcDbLine
 10
316.505907
 20
148.208188
 30
0.0
 11
316.489129
 21
148.317453
 31
0.0
  0
LINE
  5
113
330
1F
100
AcDbEntity
  8
1
370
    13
100
AcDbLine
 10
315.518458
 20
156.973733
 30
0.0
 11
314.37801
 21
156.725714
 31
0.0
  0
LINE
  5
114
330
1F
100
AcDbEntity
  8
1
370
    13
100
AcDbLine
 10
295.619457
 20
159.080718
 30
0.0
 11
294.006283
 21
159.937858
 31
0.0
  0
LINE
  5
115
330
1F
100
AcDbEntity
  8
1
370
    13
100
AcDbLine
 10
308.583798
 20
158.569175
 30
0.0
 11
308.130627
 21
158.552417
 31
0.0
  0
LINE
  5
116
330
1F
100
AcDbEntity
  8
1
370
    13
100
AcDbLine
 10
312.423338
 20
156.935927
 30
0.0
 11
311.83944
 21
156.235335
 31
0.0
  0
LINE
  5
117
330
1F
100
AcDbEntity
  8
1
370
    13
100
AcDbLine
 10
311.83944
 20
148.128206
 30
0.0
 11
308.130627
 21
148.796436
 31
0.0
  0
LINE
  5
118
330
1F
100
AcDbEntity
  8
1
370
    13
100
AcDbLine
 10
315.42659
 20
152.396806
 30
0.0
 11
314.424422
 21
150.355762
 31
0.0
  0
LINE
  5
119
330
1F
100
AcDbEntity
  8
1
370
    13
100
AcDbLine
 10
314.349434
 20
150.320541
 30
0.0
 11
314.424422
 21
150.355762
 31
0.0
  0
LINE
  5
11A
330
1F
100
AcDbEntity
  8
1
370
    13
100
AcDbLine
 10
314.230616
 20
150.468511
 30
0.0
 11
314.349434
 21
150.320541
 31
0.0
  0
LINE
  5
11B
330
1F
100
AcDbEntity
  8
1
370
    13
100
AcDbLine
 10
305.793921
 20
158.427485
 30
0.0
 11
308.130627
 21
158.552417
 31
0.0
  0
LINE
  5
11C
330
1F
100
AcDbEntity
  8
1
370
    13
100
AcDbLine
 10
305.793921
 20
149.397494
 30
0.0
 11
308.130627
 21
148.796436
 31
0.0
  0
LINE
  5
11D
330
1F
100
AcDbEntity
  8
1
370
    13
100
AcDbLine
 10
314.230616
 20
148.558871
 30
0.0
 11
314.082354
 21
148.42748
 31
0.0
  0
LINE
  5
11E
330
1F
100
AcDbEntity
  8
1
370
    13
100
AcDbLine
 10
303.291386
 20
147.022749
 30
0.0
 11
303.585322
 21
146.926799
 31
0.0
  0
LINE
  5
11F
330
1F
100
AcDbEntity
  8
1
370
    13
100
AcDbLine
 10
305.793921
 20
158.427485
 30
0.0
 11
303.291386
 21
158.245527
 31
0.0
  0
LINE
  5
120
330
1F
100
AcDbEntity
  8
1
370
    13
100
AcDbLine
 10
305.793921
 20
149.397494
 30
0.0
 11
305.216033
 21
149.596468
 31
0.0
  0
LINE
  5
121
330
1F
100
AcDbEntity
  8
1
370
    13
100
AcDbLine
 10
314.230616
 20
148.558871
 30
0.0
 11
314.424422
 21
148.800823
 31
0.0
  0
LINE
  5
122
330
1F
100
AcDbEntity
  8
1
370
    13
100
AcDbLine
 10
315.566147
 20
151.070885
 30
0.0
 11
314.424422
 21
148.800823
 31
0.0
  0
LINE
  5
123
330
1F
100
AcDbEntity
  8
1
370
    13
100
AcDbLine
 10
302.61113
 20
146.075519
 30
0.0
 11
302.689778
 21
146.926011
 31
0.0
  0
LINE
  5
124
330
1F
100
AcDbEntity
  8
1
370
    13
100
AcDbLine
 10
303.291386
 20
158.245527
 30
0.0
 11
300.711006
 21
158.099581
 31
0.0
  0
LINE
  5
125
330
1F
100
AcDbEntity
  8
1
370
    13
100
AcDbLine
 10
299.28247
 20
141.982555
 30
0.0
 11
300.92692
 21
141.866233
 31
0.0
  0
LINE
  5
126
330
1F
100
AcDbEntity
  8
1
370
    13
100
AcDbLine
 10
292.254747
 20
140.333291
 30
0.0
 11
294.006283
 21
140.139538
 31
0.0
  0
LINE
  5
127
330
1F
100
AcDbEntity
  8
1
370
    13
100
AcDbLine
 10
315.566147
 20
151.070885
 30
0.0
 11
315.5836
 21
151.148051
 31
0.0
  0
LINE
  5
128
330
1F
100
AcDbEntity
  8
1
370
    13
100
AcDbLine
 10
308.583798
 20
136.154743
 30
0.0
 11
308.130627
 21
136.249188
 31
0.0
  0
LINE
  5
129
330
1F
100
AcDbEntity
  8
1
370
    13
100
AcDbLine
 10
305.793921
 20
137.130222
 30
0.0
 11
303.291386
 21
138.566407
 31
0.0
  0
LINE
  5
12A
330
1F
100
AcDbEntity
  8
1
370
    13
100
AcDbLine
 10
315.42659
 20
143.124004
 30
0.0
 11
314.424422
 21
140.083353
 31
0.0
  0
LINE
  5
12B
330
1F
100
AcDbEntity
  8
1
370
    13
100
AcDbLine
 10
302.61113
 20
164.292464
 30
0.0
 11
302.689778
 21
164.227749
 31
0.0
  0
LINE
  5
12C
330
1F
100
AcDbEntity
  8
1
370
    13
100
AcDbLine
 10
312.423856
 20
135.691435
 30
0.0
 11
311.83944
 21
135.880032
 31
0.0
  0
LINE
  5
12D
330
1F
100
AcDbEntity
  8
1
370
    13
100
AcDbLine
 10
310.651597
 20
136.338021
 30
0.0
 11
311.83944
 21
135.880032
 31
0.0
  0
LINE
  5
12E
330
1F
100
AcDbEntity
  8
1
370
    13
100
AcDbLine
 10
302.752596
 20
164.233914
 30
0.0
 11
302.886171
 21
164.285806
 31
0.0
  0
LINE
  5
12F
330
1F
100
AcDbEntity
  8
1
370
    13
100
AcDbLine
 10
302.689778
 20
164.227749
 30
0.0
 11
302.752596
 21
164.233914
 31
0.0
  0
LINE
  5
130
330
1F
100
AcDbEntity
  8
1
370
    13
100
AcDbLine
 10
284.733708
 20
145.745944
 30
0.0
 11
284.866828
 21
145.28545
 31
0.0
  0
LINE
  5
131
330
1F
100
AcDbEntity
  8
1
370
    13
100
AcDbLine
 10
284.770586
 20
163.809747
 30
0.0
 11
284.866828
 21
163.802962
 31
0.0
  0
LINE
  5
132
330
1F
100
AcDbEntity
  8
1
370
    13
100
AcDbLine
 10
287.546524
 20
163.518915
 30
0.0
 11
285.559743
 21
163.659988
 31
0.0
  0
LINE
  5
133
330
1F
100
AcDbEntity
  8
1
370
    13
100
AcDbLine
 10
302.992348
 20
147.117551
 30
0.0
 11
303.291386
 21
147.022749
 31
0.0
  0
LINE
  5
134
330
1F
100
AcDbEntity
  8
1
370
    13
100
AcDbLine
 10
309.415432
 20
136.53165
 30
0.0
 11
309.127208
 21
136.532147
 31
0.0
  0
LINE
  5
135
330
1F
100
AcDbEntity
  8
1
370
    13
100
AcDbLine
 10
316.601681
 20
158.011829
 30
0.0
 11
316.349316
 21
157.499798
 31
0.0
  0
LINE
  5
136
330
1F
100
AcDbEntity
  8
1
370
    13
100
AcDbLine
 10
316.349316
 20
157.499798
 30
0.0
 11
315.778437
 21
157.056606
 31
0.0
  0
LINE
  5
137
330
1F
100
AcDbEntity
  8
1
370
    13
100
AcDbLine
 10
302.903384
 20
163.976279
 30
0.0
 11
302.916265
 21
166.033916
 31
0.0
  0
LINE
  5
138
330
1F
100
AcDbEntity
  8
1
370
    13
100
AcDbLine
 10
302.965981
 20
166.320915
 30
0.0
 11
303.235396
 21
166.841081
 31
0.0
  0
LINE
  5
139
330
1F
100
AcDbEntity
  8
1
370
    13
100
AcDbLine
 10
303.235396
 20
166.841081
 30
0.0
 11
303.795127
 21
167.272162
 31
0.0
  0
LINE
  5
13A
330
1F
100
AcDbEntity
  8
1
370
    13
100
AcDbLine
 10
304.060159
 20
167.358953
 30
0.0
 11
308.435669
 21
168.360543
 31
0.0
  0
LINE
  5
13B
330
1F
100
AcDbEntity
  8
1
370
    13
100
AcDbLine
 10
311.495412
 20
169.053624
 30
0.0
 11
311.586056
 21
169.065966
 31
0.0
  0
LINE
  5
13C
330
1F
100
AcDbEntity
  8
1
370
    13
100
AcDbLine
 10
311.586056
 20
169.065966
 30
0.0
 11
313.693376
 21
169.068904
 31
0.0
  0
LINE
  5
13D
330
1F
100
AcDbEntity
  8
1
370
    13
100
AcDbLine
 10
313.970992
 20
169.0257
 30
0.0
 11
314.527076
 21
168.745407
 31
0.0
  0
LINE
  5
13E
330
1F
100
AcDbEntity
  8
1
370
    13
100
AcDbLine
 10
314.527076
 20
168.745407
 30
0.0
 11
314.940643
 21
168.202727
 31
0.0
  0
LINE
  5
13F
330
1F
100
AcDbEntity
  8
1
370
    13
100
AcDbLine
 10
315.025589
 20
167.935103
 30
0.0
 11
315.952725
 21
163.566919
 31
0.0
  0
LINE
  5
140
330
1F
100
AcDbEntity
  8
1
370
    13
100
AcDbLine
 10
316.597496
 20
160.512256
 30
0.0
 11
316.609933
 21
160.421707
 31
0.0
  0
LINE
  5
141
330
1F
100
AcDbEntity
  8
1
370
    13
100
AcDbLine
 10
316.609933
 20
160.421707
 30
0.0
 11
316.646586
 21
158.314537
 31
0.0
  0
LINE
  5
142
330
1F
100
AcDbEntity
  8
1
370
    13
100
AcDbLine
 10
313.442282
 20
166.51519
 30
0.0
 11
313.478347
 21
166.553604
 31
0.0
  0
LINE
  5
143
330
1F
100
AcDbEntity
  8
1
370
    13
100
AcDbLine
 10
305.372086
 20
166.000108
 30
0.0
 11
305.281613
 21
166.361672
 31
0.0
  0
LINE
  5
144
330
1F
100
AcDbEntity
  8
1
370
    13
100
AcDbLine
 10
313.394623
 20
167.279049
 30
0.0
 11
313.730706
 21
167.496104
 31
0.0
  0
LINE
  5
145
330
1F
100
AcDbEntity
  8
1
370
    13
100
AcDbLine
 10
313.270879
 20
167.167868
 30
0.0
 11
313.394623
 21
167.279049
 31
0.0
  0
LINE
  5
146
330
1F
100
AcDbEntity
  8
1
370
    13
100
AcDbLine
 10
313.33697
 20
166.96482
 30
0.0
 11
313.372038
 21
167.003825
 31
0.0
  0
LINE
  5
147
330
1F
100
AcDbEntity
  8
CUT
370
    13
100
AcDbLine
 10
314.527076
 20
168.745407
 30
0.0
 11
314.940643
 21
168.202727
 31
0.0
  0
LINE
  5
148
330
1F
100
AcDbEntity
  8
CUT
370
    13
100
AcDbLine
 10
315.952725
 20
163.566919
 30
0.0
 11
316.597496
 21
160.512256
 31
0.0
  0
LINE
  5
149
330
1F
100
AcDbEntity
  8
1
370
    13
100
AcDbLine
 10
311.222542
 20
162.38584
 30
0.0
 11
311.159998
 21
162.375315
 31
0.0
  0
LINE
  5
14A
330
1F
100
AcDbEntity
  8
1
370
    13
100
AcDbLine
 10
311.099418
 20
162.364427
 30
0.0
 11
311.159998
 21
162.375315
 31
0.0
  0
LINE
  5
14B
330
1F
100
AcDbEntity
  8
1
370
    13
100
AcDbLine
 10
310.799993
 20
162.521794
 30
0.0
 11
311.099418
 21
162.364427
 31
0.0
  0
LINE
  5
14C
330
1F
100
AcDbEntity
  8
1
370
    13
100
AcDbLine
 10
309.957953
 20
163.270166
 30
0.0
 11
309.895915
 21
163.18142
 31
0.0
  0
LINE
  5
14D
330
1F
100
AcDbEntity
  8
1
370
    13
100
AcDbLine
 10
309.873955
 20
163.121
 30
0.0
 11
309.895915
 21
163.18142
 31
0.0
  0
LINE
  5
14E
330
1F
100
AcDbEntity
  8
1
370
    13
100
AcDbLine
 10
308.31892
 20
161.741292
 30
0.0
 11
308.381231
 21
161.757828
 31
0.0
  0
LINE
  5
14F
330
1F
100
AcDbEntity
  8
1
370
    13
100
AcDbLine
 10
308.31892
 20
161.741292
 30
0.0
 11
308.224673
 21
161.687317
 31
0.0
  0
LINE
  5
150
330
1F
100
AcDbEntity
  8
1
370
    13
100
AcDbLine
 10
308.513059
 20
162.585831
 30
0.0
 11
308.523769
 21
162.520547
 31
0.0
  0
LINE
  5
151
330
1F
100
AcDbEntity
  8
1
370
    13
100
AcDbLine
 10
309.005782
 20
160.408063
 30
0.0
 11
309.005843
 21
160.303712
 31
0.0
  0
LINE
  5
152
330
1F
100
AcDbEntity
  8
1
370
    13
100
AcDbLine
 10
309.005782
 20
160.408063
 30
0.0
 11
309.022325
 21
160.467604
 31
0.0
  0
LINE
  5
153
330
1F
100
AcDbEntity
  8
1
370
    13
100
AcDbLine
 10
309.022325
 20
160.467604
 30
0.0
 11
308.856869
 21
160.820981
 31
0.0
  0
LINE
  5
154
330
1F
100
AcDbEntity
  8
1
370
    13
100
AcDbLine
 10
313.204672
 20
167.22469
 30
0.0
 11
313.265788
 21
167.149995
 31
0.0
  0
LINE
  5
155
330
1F
100
AcDbEntity
  8
1
370
    13
100
AcDbLine
 10
313.352452
 20
166.897426
 30
0.0
 11
313.442453
 21
166.514915
 31
0.0
  0
LINE
  5
156
330
1F
100
AcDbEntity
  8
1
370
    13
100
AcDbLine
 10
313.266496
 20
167.151371
 30
0.0
 11
313.335756
 21
166.968014
 31
0.0
  0
LINE
  5
157
330
1F
100
AcDbEntity
  8
1
370
    13
100
AcDbLine
 10
313.336861
 20
166.965071
 30
0.0
 11
313.352429
 21
166.897467
 31
0.0
  0
LINE
  5
158
330
1F
100
AcDbEntity
  8
1
370
    13
100
AcDbLine
 10
314.137819
 20
158.54777
 30
0.0
 11
312.673613
 21
158.227509
 31
0.0
  0
LINE
  5
159
330
1F
100
AcDbEntity
  8
1
370
    13
100
AcDbLine
 10
314.781059
 20
158.729131
 30
0.0
 11
314.591962
 21
158.656688
 31
0.0
  0
LINE
  5
15A
330
1F
100
AcDbEntity
  8
1
370
    13
100
AcDbLine
 10
314.523851
 20
158.640604
 30
0.0
 11
314.137818
 21
158.547633
 31
0.0
  0
LINE
  5
15B
330
1F
100
AcDbEntity
  8
1
370
    13
100
AcDbLine
 10
314.592115
 20
158.656714
 30
0.0
 11
314.523857
 21
158.640616
 31
0.0
  0
LINE
  5
15C
330
1F
100
AcDbEntity
  8
1
370
    13
100
AcDbLine
 10
314.246149
 20
158.021679
 30
0.0
 11
314.137166
 21
158.544901
 31
0.0
  0
LINE
  5
15D
330
1F
100
AcDbEntity
  8
1
370
    13
100
AcDbLine
 10
314.780942
 20
158.725442
 30
0.0
 11
315.043091
 21
158.264276
 31
0.0
  0
LINE
  5
15E
330
1F
100
AcDbEntity
  8
1
370
    13
100
AcDbLine
 10
314.597328
 20
158.615047
 30
0.0
 11
314.70091
 21
158.13017
 31
0.0
  0
LINE
  5
15F
330
1F
100
AcDbEntity
  8
1
370
    13
100
AcDbLine
 10
305.494266
 20
165.73198
 30
0.0
 11
305.110758
 21
165.63669
 31
0.0
  0
LINE
  5
160
330
1F
100
AcDbEntity
  8
1
370
    13
100
AcDbLine
 10
304.924807
 20
165.582466
 30
0.0
 11
304.851431
 21
165.548277
 31
0.0
  0
LINE
  5
161
330
1F
100
AcDbEntity
  8
1
370
    13
100
AcDbLine
 10
305.042978
 20
165.620259
 30
0.0
 11
304.924807
 21
165.582466
 31
0.0
  0
LINE
  5
162
330
1F
100
AcDbEntity
  8
1
370
    13
100
AcDbLine
 10
304.133787
 20
158.306799
 30
0.0
 11
303.584803
 21
160.806856
 31
0.0
  0
LINE
  5
163
330
1F
100
AcDbEntity
  8
1
370
    13
100
AcDbLine
 10
302.915041
 20
163.88651
 30
0.0
 11
302.903384
 21
163.976279
 31
0.0
  0
LINE
  5
164
330
1F
100
AcDbEntity
  8
CUT
370
    13
100
AcDbLine
 10
316.646587
 20
158.314537
 30
0.0
 11
316.601681
 21
158.011829
 31
0.0
  0
LINE
  5
165
330
1F
100
AcDbEntity
  8
CUT
370
    13
100
AcDbLine
 10
307.927262
 20
155.33202
 30
0.0
 11
305.869474
 21
155.279548
 31
0.0
  0
LINE
  5
166
330
1F
100
AcDbEntity
  8
CUT
370
    13
100
AcDbLine
 10
302.915041
 20
163.88651
 30
0.0
 11
302.903384
 21
163.976279
 31
0.0
  0
LINE
  5
167
330
1F
100
AcDbEntity
  8
CUT
370
    13
100
AcDbLine
 10
308.435669
 20
168.360543
 30
0.0
 11
311.495412
 21
169.053624
 31
0.0
  0
LINE
  5
168
330
1F
100
AcDbEntity
  8
CUT
370
    13
100
AcDbLine
 10
315.778437
 20
157.056606
 30
0.0
 11
315.518458
 21
156.973733
 31
0.0
  0
LINE
  5
169
330
1F
100
AcDbEntity
  8
CUT
370
    13
100
AcDbLine
 10
305.060554
 20
155.580102
 30
0.0
 11
304.63705
 21
156.133741
 31
0.0
  0
LINE
  5
16A
330
1F
100
AcDbEntity
  8
CUT
370
    13
100
AcDbLine
 10
302.965981
 20
166.320915
 30
0.0
 11
303.235396
 21
166.841081
 31
0.0
  0
LINE
  5
16B
330
1F
100
AcDbEntity
  8
CUT
370
    13
100
AcDbLine
 10
313.693376
 20
169.068906
 30
0.0
 11
313.970992
 21
169.0257
 31
0.0
  0
LINE
  5
16C
330
1F
100
AcDbEntity
  8
CUT
370
    13
100
AcDbLine
 10
316.609933
 20
160.421707
 30
0.0
 11
316.646586
 21
158.314537
 31
0.0
  0
LINE
  5
16D
330
1F
100
AcDbEntity
  8
CUT
370
    13
100
AcDbLine
 10
308.017124
 20
155.345142
 30
0.0
 11
307.927262
 21
155.33202
 31
0.0
  0
LINE
  5
16E
330
1F
100
AcDbEntity
  8
CUT
370
    13
100
AcDbLine
 10
303.584803
 20
160.806856
 30
0.0
 11
302.915041
 21
163.88651
 31
0.0
  0
LINE
  5
16F
330
1F
100
AcDbEntity
  8
CUT
370
    13
100
AcDbLine
 10
304.060159
 20
167.358953
 30
0.0
 11
308.435669
 21
168.360543
 31
0.0
  0
LINE
  5
170
330
1F
100
AcDbEntity
  8
CUT
370
    13
100
AcDbLine
 10
314.940643
 20
168.202727
 30
0.0
 11
315.025589
 21
167.935103
 31
0.0
  0
LINE
  5
171
330
1F
100
AcDbEntity
  8
CUT
370
    13
100
AcDbLine
 10
316.349316
 20
157.499798
 30
0.0
 11
315.778437
 21
157.056606
 31
0.0
  0
LINE
  5
172
330
1F
100
AcDbEntity
  8
CUT
370
    13
100
AcDbLine
 10
305.574075
 20
155.322266
 30
0.0
 11
305.060554
 21
155.580102
 31
0.0
  0
LINE
  5
173
330
1F
100
AcDbEntity
  8
CUT
370
    13
100
AcDbLine
 10
302.916263
 20
166.033915
 30
0.0
 11
302.965981
 21
166.320915
 31
0.0
  0
LINE
  5
174
330
1F
100
AcDbEntity
  8
CUT
370
    13
100
AcDbLine
 10
311.586056
 20
169.065966
 30
0.0
 11
313.693376
 21
169.068904
 31
0.0
  0
LINE
  5
175
330
1F
100
AcDbEntity
  8
CUT
370
    13
100
AcDbLine
 10
316.597496
 20
160.512256
 30
0.0
 11
316.609933
 21
160.421707
 31
0.0
  0
LINE
  5
176
330
1F
100
AcDbEntity
  8
CUT
370
    13
100
AcDbLine
 10
311.10186
 20
156.013231
 30
0.0
 11
308.017124
 21
155.345142
 31
0.0
  0
LINE
  5
177
330
1F
100
AcDbEntity
  8
CUT
370
    13
100
AcDbLine
 10
304.553028
 20
156.397583
 30
0.0
 11
303.584803
 21
160.806856
 31
0.0
  0
LINE
  5
178
330
1F
100
AcDbEntity
  8
CUT
370
    13
100
AcDbLine
 10
303.795127
 20
167.272162
 30
0.0
 11
304.060159
 21
167.358953
 31
0.0
  0
LINE
  5
179
330
1F
100
AcDbEntity
  8
CUT
370
    13
100
AcDbLine
 10
316.601681
 20
158.011829
 30
0.0
 11
316.349316
 21
157.499798
 31
0.0
  0
LINE
  5
17A
330
1F
100
AcDbEntity
  8
CUT
370
    13
100
AcDbLine
 10
305.869475
 20
155.279546
 30
0.0
 11
305.574075
 21
155.322266
 31
0.0
  0
LINE
  5
17B
330
1F
100
AcDbEntity
  8
CUT
370
    13
100
AcDbLine
 10
302.903384
 20
163.976279
 30
0.0
 11
302.916265
 21
166.033916
 31
0.0
  0
LINE
  5
17C
330
1F
100
AcDbEntity
  8
CUT
370
    13
100
AcDbLine
 10
311.495412
 20
169.053624
 30
0.0
 11
311.586056
 21
169.065966
 31
0.0
  0
LINE
  5
17D
330
1F
100
AcDbEntity
  8
CUT
370
    13
100
AcDbLine
 10
315.518458
 20
156.973733
 30
0.0
 11
311.10186
 21
156.013231
 31
0.0
  0
LINE
  5
17E
330
1F
100
AcDbEntity
  8
CUT
370
    13
100
AcDbLine
 10
303.235396
 20
166.841081
 30
0.0
 11
303.795127
 21
167.272162
 31
0.0
  0
LINE
  5
17F
330
1F
100
AcDbEntity
  8
CUT
370
    13
100
AcDbLine
 10
313.970992
 20
169.0257
 30
0.0
 11
314.527076
 21
168.745407
 31
0.0
  0
LINE
  5
180
330
1F
100
AcDbEntity
  8
CUT
370
    13
100
AcDbLine
 10
304.63705
 20
156.133741
 30
0.0
 11
304.553028
 21
156.397583
 31
0.0
  0
LINE
  5
181
330
1F
100
AcDbEntity
  8
1
370
    13
100
AcDbLine
 10
314.367772
 20
156.738949
 30
0.0
 11
314.310994
 21
156.807205
 31
0.0
  0
LINE
  5
182
330
1F
100
AcDbEntity
  8
1
370
    13
100
AcDbLine
 10
315.566147
 20
151.988244
 30
0.0
 11
315.42659
 21
152.396806
 31
0.0
  0
LINE
  5
183
330
1F
100
AcDbEntity
  8
1
370
    13
100
AcDbLine
 10
314.849809
 20
155.633001
 30
0.0
 11
314.881565
 21
155.462142
 31
0.0
  0
LINE
  5
184
330
1F
100
AcDbEntity
  8
1
370
    13
100
AcDbLine
 10
315.582937
 20
151.95467
 30
0.0
 11
315.577042
 21
152.018093
 31
0.0
  0
LINE
  5
185
330
1F
100
AcDbEntity
  8
1
370
    13
100
AcDbLine
 10
315.557126
 20
144.131821
 30
0.0
 11
315.480944
 21
144.132503
 31
0.0
  0
LINE
  5
186
330
1F
100
AcDbEntity
  8
1
370
    13
100
AcDbLine
 10
315.566147
 20
143.875931
 30
0.0
 11
315.42659
 21
143.124004
 31
0.0
  0
LINE
  5
187
330
1F
100
AcDbEntity
  8
1
370
    13
100
AcDbLine
 10
316.285401
 20
149.511178
 30
0.0
 11
316.50023
 21
149.323471
 31
0.0
  0
LINE
  5
188
330
1F
100
AcDbEntity
  8
1
370
    13
100
AcDbLine
 10
316.539344
 20
148.726794
 30
0.0
 11
316.50066
 21
148.243545
 31
0.0
  0
LINE
  5
189
330
1F
100
AcDbEntity
  8
1
370
    13
100
AcDbLine
 10
316.125519
 20
145.226124
 30
0.0
 11
316.084767
 21
144.995935
 31
0.0
  0
LINE
  5
18A
330
1F
100
AcDbEntity
  8
1
370
    13
100
AcDbLine
 10
316.349316
 20
149.69074
 30
0.0
 11
316.23652
 21
149.752556
 31
0.0
  0
LINE
  5
18B
330
1F
100
AcDbEntity
  8
1
370
    13
100
AcDbLine
 10
316.629743
 20
149.398508
 30
0.0
 11
316.601681
 21
149.456695
 31
0.0
  0
LINE
  5
18C
330
1F
100
AcDbEntity
  8
1
370
    13
100
AcDbLine
 10
316.646587
 20
149.322328
 30
0.0
 11
316.629743
 21
149.398508
 31
0.0
  0
LINE
  5
18D
330
1F
100
AcDbEntity
  8
1
370
    13
100
AcDbLine
 10
316.546762
 20
147.93745
 30
0.0
 11
316.609933
 21
148.355223
 31
0.0
  0
LINE
  5
18E
330
1F
100
AcDbEntity
  8
1
370
    13
100
AcDbLine
 10
316.609933
 20
148.355223
 30
0.0
 11
316.646586
 21
149.322328
 31
0.0
  0
LINE
  5
18F
330
1F
100
AcDbEntity
  8
1
370
    13
100
AcDbLine
 10
314.47096
 20
145.916695
 30
0.0
 11
314.167174
 21
144.471061
 31
0.0
  0
LINE
  5
190
330
1F
100
AcDbEntity
  8
1
370
    13
100
AcDbLine
 10
314.172925
 20
144.380843
 30
0.0
 11
314.167174
 21
144.471061
 31
0.0
  0
LINE
  5
191
330
1F
100
AcDbEntity
  8
1
370
    13
100
AcDbLine
 10
314.367183
 20
144.297531
 30
0.0
 11
314.730405
 21
144.458609
 31
0.0
  0
LINE
  5
192
330
1F
100
AcDbEntity
  8
1
370
    13
100
AcDbLine
 10
313.744027
 20
144.25164
 30
0.0
 11
313.580222
 21
144.184319
 31
0.0
  0
LINE
  5
193
330
1F
100
AcDbEntity
  8
1
370
    13
100
AcDbLine
 10
313.052194
 20
145.803647
 30
0.0
 11
312.708032
 21
146.95262
 31
0.0
  0
LINE
  5
194
330
1F
100
AcDbEntity
  8
1
370
    13
100
AcDbLine
 10
312.708032
 20
146.95262
 30
0.0
 11
312.650336
 21
147.219214
 31
0.0
  0
LINE
  5
195
330
1F
100
AcDbEntity
  8
1
370
    13
100
AcDbLine
 10
315.626957
 20
151.404028
 30
0.0
 11
315.589031
 21
151.442004
 31
0.0
  0
LINE
  5
196
330
1F
100
AcDbEntity
  8
1
370
    13
100
AcDbLine
 10
312.441552
 20
146.359634
 30
0.0
 11
312.545372
 21
146.303218
 31
0.0
  0
LINE
  5
197
330
1F
100
AcDbEntity
  8
1
370
    13
100
AcDbLine
 10
312.545372
 20
146.303218
 30
0.0
 11
313.052194
 21
145.803647
 31
0.0
  0
LINE
  5
198
330
1F
100
AcDbEntity
  8
1
370
    13
100
AcDbLine
 10
304.050421
 20
146.609001
 30
0.0
 11
303.656028
 21
146.148704
 31
0.0
  0
LINE
  5
199
330
1F
100
AcDbEntity
  8
1
370
    13
100
AcDbLine
 10
303.702581
 20
145.867721
 30
0.0
 11
304.181205
 21
145.661435
 31
0.0
  0
LINE
  5
19A
330
1F
100
AcDbEntity
  8
1
370
    13
100
AcDbLine
 10
316.207394
 20
149.669102
 30
0.0
 11
316.285985
 21
149.48487
 31
0.0
  0
LINE
  5
19B
330
1F
100
AcDbEntity
  8
1
370
    13
100
AcDbLine
 10
313.540192
 20
144.185924
 30
0.0
 11
312.01372
 21
144.292159
 31
0.0
  0
LINE
  5
19C
330
1F
100
AcDbEntity
  8
1
370
    13
100
AcDbLine
 10
311.586056
 20
142.810655
 30
0.0
 11
313.693376
 21
142.898654
 31
0.0
  0
LINE
  5
19D
330
1F
100
AcDbEntity
  8
1
370
    13
100
AcDbLine
 10
314.939956
 20
143.519992
 30
0.0
 11
314.908517
 21
143.457618
 31
0.0
  0
LINE
  5
19E
330
1F
100
AcDbEntity
  8
1
370
    13
100
AcDbLine
 10
314.527076
 20
143.051768
 30
0.0
 11
314.940643
 21
143.256994
 31
0.0
  0
LINE
  5
19F
330
1F
100
AcDbEntity
  8
1
370
    13
100
AcDbLine
 10
314.994785
 20
143.313504
 30
0.0
 11
315.025589
 21
143.357939
 31
0.0
  0
LINE
  5
1A0
330
1F
100
AcDbEntity
  8
1
370
    13
100
AcDbLine
 10
314.940643
 20
143.256994
 30
0.0
 11
314.994785
 21
143.313504
 31
0.0
  0
LINE
  5
1A1
330
1F
100
AcDbEntity
  8
1
370
    13
100
AcDbLine
 10
304.060159
 20
144.433183
 30
0.0
 11
308.435669
 21
143.470279
 31
0.0
  0
LINE
  5
1A2
330
1F
100
AcDbEntity
  8
1
370
    13
100
AcDbLine
 10
312.01372
 20
144.292159
 30
0.0
 11
311.912661
 21
144.304006
 31
0.0
  0
LINE
  5
1A3
330
1F
100
AcDbEntity
  8
1
370
    13
100
AcDbLine
 10
311.495412
 20
142.818836
 30
0.0
 11
311.586056
 21
142.810655
 31
0.0
  0
LINE
  5
1A4
330
1F
100
AcDbEntity
  8
1
370
    13
100
AcDbLine
 10
303.166446
 20
145.706594
 30
0.0
 11
303.295688
 21
146.230711
 31
0.0
  0
LINE
  5
1A5
330
1F
100
AcDbEntity
  8
1
370
    13
100
AcDbLine
 10
303.385987
 20
146.199583
 30
0.0
 11
303.295688
 21
146.230711
 31
0.0
  0
LINE
  5
1A6
330
1F
100
AcDbEntity
  8
1
370
    13
100
AcDbLine
 10
303.772443
 20
147.908494
 30
0.0
 11
304.122287
 21
149.082382
 31
0.0
  0
LINE
  5
1A7
330
1F
100
AcDbEntity
  8
1
370
    13
100
AcDbLine
 10
304.122287
 20
149.082382
 30
0.0
 11
304.211868
 21
149.342724
 31
0.0
  0
LINE
  5
1A8
330
1F
100
AcDbEntity
  8
1
370
    13
100
AcDbLine
 10
316.349606
 20
148.591737
 30
0.0
 11
316.489129
 21
148.317453
 31
0.0
  0
LINE
  5
1A9
330
1F
100
AcDbEntity
  8
1
370
    13
100
AcDbLine
 10
316.490038
 20
148.29932
 30
0.0
 11
316.44283
 21
147.623795
 31
0.0
  0
LINE
  5
1AA
330
1F
100
AcDbEntity
  8
1
370
    13
100
AcDbLine
 10
303.935157
 20
144.716445
 30
0.0
 11
303.830235
 21
144.704842
 31
0.0
  0
LINE
  5
1AB
330
1F
100
AcDbEntity
  8
1
370
    13
100
AcDbLine
 10
302.916263
 20
145.002749
 30
0.0
 11
302.936354
 21
144.95287
 31
0.0
  0
LINE
  5
1AC
330
1F
100
AcDbEntity
  8
1
370
    13
100
AcDbLine
 10
315.025589
 20
143.357939
 30
0.0
 11
315.952725
 21
144.934343
 31
0.0
  0
LINE
  5
1AD
330
1F
100
AcDbEntity
  8
1
370
    13
100
AcDbLine
 10
303.929221
 20
148.537311
 30
0.0
 11
303.772443
 21
147.908494
 31
0.0
  0
LINE
  5
1AE
330
1F
100
AcDbEntity
  8
1
370
    13
100
AcDbLine
 10
303.294564
 20
146.24661
 30
0.0
 11
303.335467
 21
146.856572
 31
0.0
  0
LINE
  5
1AF
330
1F
100
AcDbEntity
  8
1
370
    13
100
AcDbLine
 10
302.903384
 20
145.62773
 30
0.0
 11
302.916265
 21
145.002749
 31
0.0
  0
LINE
  5
1B0
330
1F
100
AcDbEntity
  8
1
370
    13
100
AcDbLine
 10
304.177331
 20
149.248584
 30
0.0
 11
303.945858
 21
148.593688
 31
0.0
  0
LINE
  5
1B1
330
1F
100
AcDbEntity
  8
1
370
    13
100
AcDbLine
 10
303.946513
 20
148.595719
 30
0.0
 11
303.929221
 21
148.537311
 31
0.0
  0
LINE
  5
1B2
330
1F
100
AcDbEntity
  8
1
370
    13
100
AcDbLine
 10
303.341571
 20
146.87986
 30
0.0
 11
302.908223
 21
145.645144
 31
0.0
  0
LINE
  5
1B3
330
1F
100
AcDbEntity
  8
1
370
    13
100
AcDbLine
 10
316.12978
 20
150.324584
 30
0.0
 11
316.084767
 21
150.527698
 31
0.0
  0
LINE
  5
1B4
330
1F
100
AcDbEntity
  8
1
370
    13
100
AcDbLine
 10
316.285985
 20
149.48487
 30
0.0
 11
316.12978
 21
150.324584
 31
0.0
  0
LINE
  5
1B5
330
1F
100
AcDbEntity
  8
1
370
    13
100
AcDbLine
 10
316.609933
 20
146.097185
 30
0.0
 11
316.646586
 21
147.23725
 31
0.0
  0
LINE
  5
1B6
102
{ACAD_REACTORS
330
309
102
}
330
1F
100
AcDbEntity
  8
SK1
370
    18
100
AcDbLine
 10
118.660025
 20
135.624705
 30
0.0
 11
196.660025
 21
135.624705
 31
0.0
  0
LINE
  5
1B7
330
1F
100
AcDbEntity
  8
1
370
    50
100
AcDbLine
 10
316.084767
 20
150.527698
 30
0.0
 11
315.958966
 21
151.043313
 31
0.0
  0
LINE
  5
1B8
102
{ACAD_REACTORS
330
328
102
}
330
1F
100
AcDbEntity
  8
2
370
    13
100
AcDbLine
 10
316.597496
 20
160.512256
 30
0.0
 11
311.373011
 21
185.127325
 31
0.0
  0
LINE
  5
1B9
102
{ACAD_REACTORS
330
328
102
}
330
1F
100
AcDbEntity
  8
2
370
    13
100
AcDbLine
 10
316.660025
 20
170.099705
 30
0.0
 11
316.660025
 21
185.682223
 31
0.0
  0
LINE
  5
1BA
330
1F
100
AcDbEntity
  8
2
 60
     1
370
    13
100
AcDbLine
 10
311.788255
 20
183.170907
 30
0.0
 11
308.807019
 21
182.001476
 31
0.0
  0
LINE
  5
1BB
330
1F
100
AcDbEntity
  8
2
 60
     1
370
    13
100
AcDbLine
 10
308.807019
 20
182.001476
 30
0.0
 11
308.605928
 21
182.812924
 31
0.0
  0
LINE
  5
1BC
330
1F
100
AcDbEntity
  8
2
 60
     1
370
    13
100
AcDbLine
 10
308.605928
 20
182.812924
 30
0.0
 11
311.788255
 21
183.170907
 31
0.0
  0
LINE
  5
1BD
330
1F
100
AcDbEntity
  8
2
 60
     1
370
    13
100
AcDbLine
 10
316.660025
 20
183.682223
 30
0.0
 11
319.847328
 21
183.992762
 31
0.0
  0
LINE
  5
1BE
330
1F
100
AcDbEntity
  8
2
 60
     1
370
    13
100
AcDbLine
 10
319.847328
 20
183.992762
 30
0.0
 11
319.8191
 21
183.157245
 31
0.0
  0
LINE
  5
1BF
330
1F
100
AcDbEntity
  8
2
 60
     1
370
    13
100
AcDbLine
 10
319.8191
 20
183.157245
 30
0.0
 11
316.660025
 21
183.682223
 31
0.0
  0
ARC
  5
1C0
330
1F
100
AcDbEntity
  8
1
370
    13
100
AcDbCircle
 10
310.749565
 20
154.835577
 30
0.0
 40
3.918810664291182
100
AcDbArc
 50
17.095741
 51
48.802218
  0
ARC
  5
1C1
330
1F
100
AcDbEntity
  8
1
370
    13
100
AcDbCircle
 10
310.314286
 20
179.456005
 30
0.0
 40
21.02220901538432
100
AcDbArc
 50
268.276569
 51
272.830682
  0
ARC
  5
1C2
330
1F
100
AcDbEntity
  8
1
370
    13
100
AcDbCircle
 10
309.606343
 20
162.636968
 30
0.0
 40
4.194346015893957
100
AcDbArc
 50
255.889586
 51
271.034132
  0
ARC
  5
1C3
330
1F
100
AcDbEntity
  8
1
370
    13
100
AcDbCircle
 10
310.695111
 20
135.729566
 30
0.0
 40
2.153698300575097
100
AcDbArc
 50
121.345517
 51
168.614039
  0
ARC
  5
1C4
330
1F
100
AcDbEntity
  8
1
370
    13
100
AcDbCircle
 10
310.657498
 20
135.726846
 30
0.0
 40
2.136719070345246
100
AcDbArc
 50
71.019451
 51
120.446164
  0
ARC
  5
1C5
330
1F
100
AcDbEntity
  8
1
370
    13
100
AcDbCircle
 10
309.683674
 20
161.781857
 30
0.0
 40
2.726412668303249
100
AcDbArc
 50
171.122803
 51
215.037136
  0
ARC
  5
1C6
330
1F
100
AcDbEntity
  8
1
370
    13
100
AcDbCircle
 10
309.722662
 20
161.776764
 30
0.0
 40
2.765720268757263
100
AcDbArc
 50
127.656362
 51
171.14321
  0
ARC
  5
1C7
330
1F
100
AcDbEntity
  8
1
370
    13
100
AcDbCircle
 10
309.718675
 20
161.78696
 30
0.0
 40
2.75521381950444
100
AcDbArc
 50
84.120169
 51
127.720263
  0
ARC
  5
1C8
330
1F
100
AcDbEntity
  8
1
370
    13
100
AcDbCircle
 10
309.722151
 20
161.826958
 30
0.0
 40
2.715070357006823
100
AcDbArc
 50
40.067014
 51
84.106652
  0
ARC
  5
1C9
330
1F
100
AcDbEntity
  8
1
370
    13
100
AcDbCircle
 10
309.714757
 20
161.82487
 30
0.0
 40
2.722074922071448
100
AcDbArc
 50
356.038335
 51
40.000484
  0
ARC
  5
1CA
330
1F
100
AcDbEntity
  8
1
370
    13
100
AcDbCircle
 10
309.674034
 20
161.827239
 30
0.0
 40
2.762864844642519
100
AcDbArc
 50
312.530108
 51
356.047662
  0
ARC
  5
1CB
330
1F
100
AcDbEntity
  8
1
370
    13
100
AcDbCircle
 10
309.674092
 20
161.82249
 30
0.0
 40
2.759327683680889
100
AcDbArc
 50
269.040214
 51
312.595879
  0
ARC
  5
1CC
330
1F
100
AcDbEntity
  8
1
370
    13
100
AcDbCircle
 10
309.673503
 20
161.781424
 30
0.0
 40
2.718257026927246
100
AcDbArc
 50
225.033779
 51
269.038122
  0
ARC
  5
1CD
330
1F
100
AcDbEntity
  8
1
370
    13
100
AcDbCircle
 10
309.651835
 20
161.814044
 30
0.0
 40
1.77600121684924
100
AcDbArc
 50
189.624517
 51
224.993114
  0
ARC
  5
1CE
330
1F
100
AcDbEntity
  8
1
370
    13
100
AcDbCircle
 10
309.679646
 20
161.81726
 30
0.0
 40
1.803959714834771
100
AcDbArc
 50
135.657067
 51
189.577538
  0
ARC
  5
1CF
330
1F
100
AcDbEntity
  8
1
370
    13
100
AcDbCircle
 10
309.68283
 20
161.819411
 30
0.0
 40
1.804737705035518
100
AcDbArc
 50
81.872166
 51
135.776537
  0
ARC
  5
1D0
330
1F
100
AcDbEntity
  8
1
370
    13
100
AcDbCircle
 10
309.68594
 20
161.848627
 30
0.0
 40
1.77537563930669
100
AcDbArc
 50
27.317783
 51
81.8382
  0
ARC
  5
1D1
330
1F
100
AcDbEntity
  8
1
370
    13
100
AcDbCircle
 10
309.668856
 20
161.843294
 30
0.0
 40
1.793003876615826
100
AcDbArc
 50
333.07018
 51
27.218658
  0
ARC
  5
1D2
330
1F
100
AcDbEntity
  8
1
370
    13
100
AcDbCircle
 10
309.651128
 20
161.848875
 30
0.0
 40
1.811340058675532
100
AcDbArc
 50
279.398548
 51
333.166762
  0
ARC
  5
1D3
330
1F
100
AcDbEntity
  8
1
370
    13
100
AcDbCircle
 10
309.6547
 20
161.819893
 30
0.0
 40
1.782164270593048
100
AcDbArc
 50
225.060959
 51
279.437393
  0
ARC
  5
1D4
330
1F
100
AcDbEntity
  8
1
370
    13
100
AcDbCircle
 10
308.277966
 20
160.561622
 30
0.0
 40
0.5927369497812142
100
AcDbArc
 50
5.88008
 51
78.845815
  0
ARC
  5
1D5
330
1F
100
AcDbEntity
  8
1
370
    13
100
AcDbCircle
 10
311.46508
 20
161.263696
 30
0.0
 40
0.6014653922354914
100
AcDbArc
 50
126.086102
 51
198.32493
  0
ARC
  5
1D6
330
1F
100
AcDbEntity
  8
1
370
    13
100
AcDbCircle
 10
310.719394
 20
162.06904
 30
0.0
 40
0.5955522608819636
100
AcDbArc
 50
335.809308
 51
48.560612
  0
ARC
  5
1D7
330
1F
100
AcDbEntity
  8
1
370
    13
100
AcDbCircle
 10
311.059342
 20
163.100708
 30
0.0
 40
0.5927369497812794
100
AcDbArc
 50
185.88008
 51
258.845815
  0
ARC
  5
1D8
330
1F
100
AcDbEntity
  8
1
370
    13
100
AcDbCircle
 10
310.000861
 20
162.856467
 30
0.0
 40
0.5958131089211459
100
AcDbArc
 50
36.229233
 51
108.892796
  0
ARC
  5
1D9
330
1F
100
AcDbEntity
  8
1
370
    13
100
AcDbCircle
 10
309.26746
 20
163.673229
 30
0.0
 40
0.601729795627097
100
AcDbArc
 50
246.504087
 51
318.656238
  0
ARC
  5
1DA
330
1F
100
AcDbEntity
  8
1
370
    13
100
AcDbCircle
 10
308.955206
 20
162.614008
 30
0.0
 40
0.6045667330896402
100
AcDbArc
 50
96.431741
 51
168.373566
  0
ARC
  5
1DB
330
1F
100
AcDbEntity
  8
1
370
    13
100
AcDbCircle
 10
307.872227
 20
162.398633
 30
0.0
 40
0.6014653922353201
100
AcDbArc
 50
306.086102
 51
18.32493
  0
ARC
  5
1DC
330
1F
100
AcDbEntity
  8
1
370
    13
100
AcDbCircle
 10
308.617913
 20
161.59329
 30
0.0
 40
0.5955522608818197
100
AcDbArc
 50
155.809308
 51
228.560612
  0
ARC
  5
1DD
330
1F
100
AcDbEntity
  8
1
370
    13
100
AcDbCircle
 10
309.79885
 20
161.729549
 30
0.0
 40
2.731154243464569
100
AcDbArc
 50
346.204338
 51
30.066549
  0
ARC
  5
1DE
330
1F
100
AcDbEntity
  8
1
370
    13
100
AcDbCircle
 10
309.762894
 20
161.736843
 30
0.0
 40
2.767812753564626
100
AcDbArc
 50
302.770808
 51
346.23519
  0
ARC
  5
1DF
330
1F
100
AcDbEntity
  8
1
370
    13
100
AcDbCircle
 10
309.336446
 20
160.805863
 30
0.0
 40
0.5958131089216272
100
AcDbArc
 50
216.229233
 51
288.892796
  0
ARC
  5
1E0
330
1F
100
AcDbEntity
  8
1
370
    13
100
AcDbCircle
 10
310.069848
 20
159.989101
 30
0.0
 40
0.601729795627097
100
AcDbArc
 50
66.504087
 51
138.656238
  0
ARC
  5
1E1
330
1F
100
AcDbEntity
  8
1
370
    13
100
AcDbCircle
 10
310.382101
 20
161.048322
 30
0.0
 40
0.604566733089662
100
AcDbArc
 50
276.431741
 51
348.373566
  0
ARC
  5
1E2
330
1F
100
AcDbEntity
  8
1
370
    13
100
AcDbCircle
 10
305.155407
 20
165.105293
 30
0.0
 40
0.5372575653875828
100
AcDbArc
 50
124.461804
 51
192.113007
  0
ARC
  5
1E3
330
1F
100
AcDbEntity
  8
1
370
    13
100
AcDbCircle
 10
309.82744
 20
162.134432
 30
0.0
 40
3.207874756309449
100
AcDbArc
 50
322.848741
 51
3.244878
  0
ARC
  5
1E4
330
1F
100
AcDbEntity
  8
1
370
    13
100
AcDbCircle
 10
309.815786
 20
162.139652
 30
0.0
 40
3.220317635264919
100
AcDbArc
 50
282.610143
 51
322.899936
  0
ARC
  5
1E5
330
1F
100
AcDbEntity
  8
1
370
    13
100
AcDbCircle
 10
309.919923
 20
161.984614
 30
0.0
 40
3.063888336841794
100
AcDbArc
 50
226.075072
 51
267.51618
  0
ARC
  5
1E6
330
1F
100
AcDbEntity
  8
1
370
    13
100
AcDbCircle
 10
309.921004
 20
161.981348
 30
0.0
 40
3.062286851084934
100
AcDbArc
 50
184.562239
 51
226.018117
  0
ARC
  5
1E7
330
1F
100
AcDbEntity
  8
1
370
    13
100
AcDbCircle
 10
309.964649
 20
161.984353
 30
0.0
 40
3.106032755389421
100
AcDbArc
 50
143.496364
 51
184.553451
  0
ARC
  5
1E8
330
1F
100
AcDbEntity
  8
1
370
    13
100
AcDbCircle
 10
309.976958
 20
161.978849
 30
0.0
 40
3.11920277521273
100
AcDbArc
 50
102.610715
 51
143.549604
  0
ARC
  5
1E9
330
1F
100
AcDbEntity
  8
1
370
    13
100
AcDbCircle
 10
309.973949
 20
162.033929
 30
0.0
 40
3.063071007043654
100
AcDbArc
 50
45.028497
 51
86.477141
  0
ARC
  5
1EA
330
1F
100
AcDbEntity
  8
1
370
    13
100
AcDbCircle
 10
309.969615
 20
162.035109
 30
0.0
 40
3.065404835115193
100
AcDbArc
 50
0.655156
 51
42.08229
  0
ARC
  5
1EB
330
1F
100
AcDbEntity
  8
1
370
    13
100
AcDbCircle
 10
309.821367
 20
162.08947
 30
0.0
 40
3.169381848516287
100
AcDbArc
 50
233.04476
 51
273.774355
  0
ARC
  5
1EC
330
1F
100
AcDbEntity
  8
1
370
    13
100
AcDbCircle
 10
309.816235
 20
162.077855
 30
0.0
 40
3.157016351623766
100
AcDbArc
 50
192.15428
 51
232.992458
  0
ARC
  5
1ED
330
1F
100
AcDbEntity
  8
1
370
    13
100
AcDbCircle
 10
309.866376
 20
162.083055
 30
0.0
 40
3.207874756309216
100
AcDbArc
 50
142.848741
 51
183.244878
  0
ARC
  5
1EE
330
1F
100
AcDbEntity
  8
1
370
    13
100
AcDbCircle
 10
309.87803
 20
162.077835
 30
0.0
 40
3.220317635264688
100
AcDbArc
 50
102.610143
 51
142.899936
  0
ARC
  5
1EF
330
1F
100
AcDbEntity
  8
1
370
    13
100
AcDbCircle
 10
309.872449
 20
162.128017
 30
0.0
 40
3.169381848516105
100
AcDbArc
 50
53.04476
 51
93.774355
  0
ARC
  5
1F0
330
1F
100
AcDbEntity
  8
1
370
    13
100
AcDbCircle
 10
309.877581
 20
162.139632
 30
0.0
 40
3.157016351624215
100
AcDbArc
 50
12.15428
 51
52.992458
  0
ARC
  5
1F1
330
1F
100
AcDbEntity
  8
1
370
    13
100
AcDbCircle
 10
5412.578951
 20
-1560.239886
 30
0.0
 40
5374.242361895655
100
AcDbArc
 50
161.569766
 51
161.601524
  0
ARC
  5
1F2
330
1F
100
AcDbEntity
  8
1
370
    13
100
AcDbCircle
 10
1083.430583
 20
-117.349159
 30
0.0
 40
810.9695333438856
100
AcDbArc
 50
161.471914
 51
161.585654
  0
ARC
  5
1F3
330
1F
100
AcDbEntity
  8
1
370
    13
100
AcDbCircle
 10
310.84741
 20
159.171506
 30
0.0
 40
3.357319199265529
100
AcDbArc
 50
245.730517
 51
271.583234
  0
ARC
  5
1F4
330
1F
100
AcDbEntity
  8
1
370
    13
100
AcDbCircle
 10
309.559382
 20
156.645643
 30
0.0
 40
0.5425881669417986
100
AcDbArc
 50
166.928744
 51
260.245719
  0
ARC
  5
1F5
330
1F
100
AcDbEntity
  8
1
370
    13
100
AcDbCircle
 10
309.635927
 20
156.391665
 30
0.0
 40
0.7127497662825008
100
AcDbArc
 50
96.166784
 51
148.095565
  0
ARC
  5
1F6
330
1F
100
AcDbEntity
  8
1
370
    13
100
AcDbCircle
 10
310.33426
 20
153.839358
 30
0.0
 40
3.351737911528671
100
AcDbArc
 50
77.485154
 51
103.367328
  0
ARC
  5
1F7
330
1F
100
AcDbEntity
  8
1
370
    13
100
AcDbCircle
 10
310.863171
 20
155.424148
 30
0.0
 40
1.698816514905636
100
AcDbArc
 50
41.974833
 51
83.327697
  0
ARC
  5
1F8
330
1F
100
AcDbEntity
  8
1
370
    13
100
AcDbCircle
 10
311.208856
 20
137.75536
 30
0.0
 40
1.010362388385261
100
AcDbArc
 50
293.068424
 51
339.364587
  0
ARC
  5
1F9
330
1F
100
AcDbEntity
  8
1
370
    13
100
AcDbCircle
 10
310.400392
 20
139.174435
 30
0.0
 40
2.639433823421106
100
AcDbArc
 50
263.468652
 51
297.148132
  0
ARC
  5
1FA
330
1F
100
AcDbEntity
  8
1
370
    13
100
AcDbCircle
 10
310.111654
 20
137.836566
 30
0.0
 40
1.284484772181461
100
AcDbArc
 50
214.033663
 51
269.487507
  0
ARC
  5
1FB
330
1F
100
AcDbEntity
  8
1
370
    13
100
AcDbCircle
 10
300.267096
 20
169.168803
 30
0.0
 40
11.07811996871223
100
AcDbArc
 50
257.886639
 51
272.296504
  0
ARC
  5
1FC
330
1F
100
AcDbEntity
  8
1
370
    13
100
AcDbCircle
 10
300.484368
 20
170.281766
 30
0.0
 40
12.21191330709632
100
AcDbArc
 50
246.523421
 51
257.985717
  0
ARC
  5
1FD
330
1F
100
AcDbEntity
  8
1
370
    13
100
AcDbCircle
 10
309.825244
 20
158.904668
 30
0.0
 40
3.259759404182212
100
AcDbArc
 50
322.846479
 51
341.84514
  0
ARC
  5
1FE
330
1F
100
AcDbEntity
  8
1
370
    13
100
AcDbCircle
 10
318.417334
 20
152.651149
 30
0.0
 40
4.735268134083166
100
AcDbArc
 50
193.442482
 51
203.72792
  0
ARC
  5
1FF
330
1F
100
AcDbEntity
  8
1
370
    13
100
AcDbCircle
 10
335.029068
 20
157.032378
 30
0.0
 40
21.91404491622845
100
AcDbArc
 50
188.415441
 51
194.487019
  0
ARC
  5
200
330
1F
100
AcDbEntity
  8
1
370
    13
100
AcDbCircle
 10
352.842134
 20
160.041399
 30
0.0
 40
39.97739563526812
100
AcDbArc
 50
183.086362
 51
188.945286
  0
ARC
  5
201
330
1F
100
AcDbEntity
  8
1
370
    13
100
AcDbCircle
 10
313.102156
 20
149.720105
 30
0.0
 40
1.622241876359134
100
AcDbArc
 50
277.281248
 51
307.173053
  0
ARC
  5
202
330
1F
100
AcDbEntity
  8
1
370
    13
100
AcDbCircle
 10
312.623263
 20
152.344199
 30
0.0
 40
4.288236403762552
100
AcDbArc
 50
259.468
 51
279.184934
  0
ARC
  5
203
330
1F
100
AcDbEntity
  8
1
370
    13
100
AcDbCircle
 10
309.431117
 20
158.284801
 30
0.0
 40
3.162329159384754
100
AcDbArc
 50
292.702318
 51
319.602451
  0
ARC
  5
204
330
1F
100
AcDbEntity
  8
1
370
    13
100
AcDbCircle
 10
310.989896
 20
157.389118
 30
0.0
 40
2.507049259570294
100
AcDbArc
 50
191.194075
 51
222.014117
  0
ARC
  5
205
330
1F
100
AcDbEntity
  8
1
370
    13
100
AcDbCircle
 10
311.887242
 20
157.629395
 30
0.0
 40
3.434519871488719
100
AcDbArc
 50
164.119741
 51
192.220105
  0
ARC
  5
206
330
1F
100
AcDbEntity
  8
1
370
    13
100
AcDbCircle
 10
304.294852
 20
148.961081
 30
0.0
 40
1.119057264255255
100
AcDbArc
 50
34.596082
 51
70.031311
  0
ARC
  5
207
330
1F
100
AcDbEntity
  8
1
370
    13
100
AcDbCircle
 10
304.418636
 20
149.301023
 30
0.0
 40
0.7572795137532874
100
AcDbArc
 50
70.050171
 51
118.791089
  0
ARC
  5
208
330
1F
100
AcDbEntity
  8
1
370
    13
100
AcDbCircle
 10
304.471361
 20
149.26244
 30
0.0
 40
0.8169536551194245
100
AcDbArc
 50
120.72885
 51
168.092615
  0
ARC
  5
209
330
1F
100
AcDbEntity
  8
1
370
    13
100
AcDbCircle
 10
304.789308
 20
149.184869
 30
0.0
 40
1.144111089934565
100
AcDbArc
 50
167.576838
 51
204.169476
  0
ARC
  5
20A
330
1F
100
AcDbEntity
  8
1
370
    13
100
AcDbCircle
 10
302.913053
 20
146.908061
 30
0.0
 40
0.2239944770942455
100
AcDbArc
 50
69.26748
 51
175.403603
  0
ARC
  5
20B
330
1F
100
AcDbEntity
  8
1
370
    13
100
AcDbCircle
 10
296.490355
 20
123.82959
 30
0.0
 40
23.07260764694059
100
AcDbArc
 50
74.616218
 51
86.391802
  0
ARC
  5
20C
330
1F
100
AcDbEntity
  8
1
370
    13
100
AcDbCircle
 10
302.157981
 20
149.551138
 30
0.0
 40
7.782884267883334
100
AcDbArc
 50
260.898991
 51
281.379852
  0
ARC
  5
20D
330
1F
100
AcDbEntity
  8
1
370
    13
100
AcDbCircle
 10
34176.857038
 20
-189855.543527
 30
0.0
 40
192993.3362167254
100
AcDbArc
 50
100.106648
 51
100.108611
  0
ARC
  5
20E
330
1F
100
AcDbEntity
  8
1
370
    13
100
AcDbCircle
 10
299.522411
 20
133.01976
 30
0.0
 40
8.966005898197352
100
AcDbArc
 50
91.533489
 51
110.572568
  0
ARC
  5
20F
330
1F
100
AcDbEntity
  8
1
370
    13
100
AcDbCircle
 10
299.899529
 20
132.033519
 30
0.0
 40
10.0218715131702
100
AcDbArc
 50
110.609783
 51
126.017936
  0
ARC
  5
210
330
1F
100
AcDbEntity
  8
1
370
    13
100
AcDbCircle
 10
293.961075
 20
152.779431
 30
0.0
 40
12.5625617989355
100
AcDbArc
 50
247.302829
 51
262.193588
  0
ARC
  5
211
330
1F
100
AcDbEntity
  8
1
370
    13
100
AcDbCircle
 10
292.322894
 20
148.677423
 30
0.0
 40
8.146429644309507
100
AcDbArc
 50
226.144837
 51
246.800037
  0
ARC
  5
212
330
1F
100
AcDbEntity
  8
1
370
    13
100
AcDbCircle
 10
293.272962
 20
149.518751
 30
0.0
 40
9.411903141428741
100
AcDbArc
 50
206.729673
 51
225.522771
  0
ARC
  5
213
330
1F
100
AcDbEntity
  8
1
370
    13
100
AcDbCircle
 10
297.018096
 20
160.9364
 30
0.0
 40
21.01381613424705
100
AcDbArc
 50
261.759683
 51
272.520974
  0
ARC
  5
214
330
1F
100
AcDbEntity
  8
1
370
    13
100
AcDbCircle
 10
298.110881
 20
129.325531
 30
0.0
 40
10.61872733907426
100
AcDbArc
 50
75.826309
 51
90.909165
  0
ARC
  5
215
330
1F
100
AcDbEntity
  8
1
370
    13
100
AcDbCircle
 10
298.210183
 20
129.817861
 30
0.0
 40
10.11709802766459
100
AcDbArc
 50
59.851747
 51
75.688839
  0
ARC
  5
216
330
1F
100
AcDbEntity
  8
1
370
    13
100
AcDbCircle
 10
309.767997
 20
144.131134
 30
0.0
 40
8.050220897226618
100
AcDbArc
 50
240.418536
 51
258.264474
  0
ARC
  5
217
330
1F
100
AcDbEntity
  8
1
370
    13
100
AcDbCircle
 10
210.055737
 20
174.532334
 30
0.0
 40
109.9070276758942
100
AcDbArc
 50
341.608382
 51
341.733489
  0
ARC
  5
218
330
1F
100
AcDbEntity
  8
1
370
    13
100
AcDbCircle
 10
50.702609
 20
227.489964
 30
0.0
 40
277.8294198346669
100
AcDbArc
 50
341.536298
 51
341.613511
  0
ARC
  5
219
330
1F
100
AcDbEntity
  8
1
370
    13
100
AcDbCircle
 10
-217.765747
 20
316.792463
 30
0.0
 40
560.7607187552514
100
AcDbArc
 50
341.384061
 51
341.521086
  0
ARC
  5
21A
330
1F
100
AcDbEntity
  8
1
370
    13
100
AcDbCircle
 10
-72.983219
 20
267.83945
 30
0.0
 40
407.9263758284188
100
AcDbArc
 50
341.177636
 51
341.408482
  0
ARC
  5
21B
330
1F
100
AcDbEntity
  8
1
370
    13
100
AcDbCircle
 10
248.626419
 20
158.155167
 30
0.0
 40
68.12734357664793
100
AcDbArc
 50
340.694032
 51
341.224869
  0
ARC
  5
21C
330
1F
100
AcDbEntity
  8
1
370
    13
100
AcDbCircle
 10
313.195018
 20
139.996957
 30
0.0
 40
4.374038459389189
100
AcDbArc
 50
259.845429
 51
266.430916
  0
ARC
  5
21D
330
1F
100
AcDbEntity
  8
1
370
    13
100
AcDbCircle
 10
309.317223
 20
134.20811
 30
0.0
 40
2.331791845552162
100
AcDbArc
 50
94.674132
 51
100.636088
  0
ARC
  5
21E
330
1F
100
AcDbEntity
  8
1
370
    13
100
AcDbCircle
 10
309.163635
 20
135.002971
 30
0.0
 40
1.522245606026591
100
AcDbArc
 50
100.476449
 51
109.103416
  0
ARC
  5
21F
330
1F
100
AcDbEntity
  8
1
370
    13
100
AcDbCircle
 10
286.023176
 20
145.809491
 30
0.0
 40
1.291032747226042
100
AcDbArc
 50
138.114486
 51
182.821336
  0
ARC
  5
220
330
1F
100
AcDbEntity
  8
1
370
    13
100
AcDbCircle
 10
286.842772
 20
145.097505
 30
0.0
 40
2.376621425154223
100
AcDbArc
 50
108.124576
 51
138.527683
  0
ARC
  5
221
330
1F
100
AcDbEntity
  8
1
370
    13
100
AcDbCircle
 10
287.283721
 20
143.945903
 30
0.0
 40
3.608768210280849
100
AcDbArc
 50
85.823838
 51
109.09034
  0
ARC
  5
222
330
1F
100
AcDbEntity
  8
1
370
    13
100
AcDbCircle
 10
310.071055
 20
156.76319
 30
0.0
 40
1.413402507187968
100
AcDbArc
 50
228.103769
 51
256.674625
  0
ARC
  5
223
330
1F
100
AcDbEntity
  8
1
370
    13
100
AcDbCircle
 10
310.233956
 20
156.958428
 30
0.0
 40
1.644851651917018
100
AcDbArc
 50
252.717316
 51
284.708886
  0
ARC
  5
224
330
1F
100
AcDbEntity
  8
1
370
    13
100
AcDbCircle
 10
309.038057
 20
130.079656
 30
0.0
 40
6.463021311388325
100
AcDbArc
 50
75.542766
 51
86.652603
  0
ARC
  5
225
330
1F
100
AcDbEntity
  8
1
370
    13
100
AcDbCircle
 10
315.210616
 20
158.39069
 30
0.0
 40
1.450011698929708
100
AcDbArc
 50
282.257358
 51
287.009427
  0
ARC
  5
226
330
1F
100
AcDbEntity
  8
1
370
    13
100
AcDbCircle
 10
315.215969
 20
158.372875
 30
0.0
 40
1.431409898297545
100
AcDbArc
 50
287.013127
 51
293.137947
  0
ARC
  5
227
330
1F
100
AcDbEntity
  8
1
370
    13
100
AcDbCircle
 10
304.265518
 20
165.947232
 30
0.0
 40
1.35219574002817
100
AcDbArc
 50
163.957375
 51
169.409776
  0
ARC
  5
228
330
1F
100
AcDbEntity
  8
1
370
    13
100
AcDbCircle
 10
304.244067
 20
165.951227
 30
0.0
 40
1.330376577753786
100
AcDbArc
 50
169.409107
 51
176.436541
  0
ARC
  5
229
330
1F
100
AcDbEntity
  8
1
370
    13
100
AcDbCircle
 10
304.402516
 20
165.859029
 30
0.0
 40
1.538500093676541
100
AcDbArc
 50
102.857493
 51
107.427182
  0
ARC
  5
22A
330
1F
100
AcDbEntity
  8
1
370
    13
100
AcDbCircle
 10
304.384246
 20
165.918133
 30
0.0
 40
1.476636856526501
100
AcDbArc
 50
107.437638
 51
113.513161
  0
ARC
  5
22B
330
1F
100
AcDbEntity
  8
1
370
    13
100
AcDbCircle
 10
316.973093
 20
142.107137
 30
0.0
 40
27.49760258068494
100
AcDbArc
 50
101.490518
 51
103.408533
  0
ARC
  5
22C
330
1F
100
AcDbEntity
  8
1
370
    13
100
AcDbCircle
 10
-18089.808659
 20
80548.081386
 30
0.0
 40
82458.44357624643
100
AcDbArc
 50
282.892435
 51
282.893975
  0
ARC
  5
22D
330
1F
100
AcDbEntity
  8
1
370
    13
100
AcDbCircle
 10
313.618208
 20
167.674454
 30
0.0
 40
1.396539624886605
100
AcDbArc
 50
75.367814
 51
80.449736
  0
ARC
  5
22E
330
1F
100
AcDbEntity
  8
1
370
    13
100
AcDbCircle
 10
313.619824
 20
167.684044
 30
0.0
 40
1.386814093150233
100
AcDbArc
 50
80.44986
 51
86.959819
  0
ARC
  5
22F
330
1F
100
AcDbEntity
  8
1
370
    13
100
AcDbCircle
 10
313.621529
 20
167.637442
 30
0.0
 40
1.435265377499972
100
AcDbArc
 50
11.96951
 51
16.90353
  0
ARC
  5
230
330
1F
100
AcDbEntity
  8
1
370
    13
100
AcDbCircle
 10
313.640575
 20
167.643137
 30
0.0
 40
1.415386231751722
100
AcDbArc
 50
16.907132
 51
23.288564
  0
ARC
  5
231
330
1F
100
AcDbEntity
  8
1
370
    13
100
AcDbCircle
 10
261.83165
 20
149.57463
 30
0.0
 40
55.84737709857887
100
AcDbArc
 50
11.294296
 51
12.235532
  0
ARC
  5
232
330
1F
100
AcDbEntity
  8
1
370
    13
100
AcDbCircle
 10
163269.164553
 20
34748.645977
 30
0.0
 40
166582.9431205954
100
AcDbArc
 50
191.982608
 51
191.983366
  0
ARC
  5
233
330
1F
100
AcDbEntity
  8
1
370
    13
100
AcDbCircle
 10
315.264212
 20
158.36531
 30
0.0
 40
1.383391598584714
100
AcDbArc
 50
345.195746
 51
350.783135
  0
ARC
  5
234
330
1F
100
AcDbEntity
  8
1
370
    13
100
AcDbCircle
 10
315.275071
 20
158.363558
 30
0.0
 40
1.372392592900023
100
AcDbArc
 50
350.782729
 51
357.952995
  0
ARC
  5
235
330
1F
100
AcDbEntity
  8
1
370
    13
100
AcDbCircle
 10
314.228704
 20
165.017075
 30
0.0
 40
1.709958045355148
100
AcDbArc
 50
98.831299
 51
116.028367
  0
ARC
  5
236
330
1F
100
AcDbEntity
  8
1
370
    13
100
AcDbCircle
 10
306.628953
 20
166.333325
 30
0.0
 40
1.300287670783172
100
AcDbArc
 50
194.848496
 51
204.783234
  0
ARC
  5
237
330
1F
100
AcDbEntity
  8
1
370
    13
100
AcDbCircle
 10
314.202559
 20
165.241652
 30
0.0
 40
1.948081078759206
100
AcDbArc
 50
100.099492
 51
115.234715
  0
ARC
  5
238
330
1F
100
AcDbEntity
  8
1
370
    13
100
AcDbCircle
 10
306.931099
 20
167.068213
 30
0.0
 40
2.580401900691633
100
AcDbArc
 50
211.486187
 51
215.548645
  0
ARC
  5
239
330
1F
100
AcDbEntity
  8
1
370
    13
100
AcDbCircle
 10
317.115832
 20
173.551458
 30
0.0
 40
14.6532439605562
100
AcDbArc
 50
210.493921
 51
212.30451
  0
ARC
  5
23A
330
1F
100
AcDbEntity
  8
1
370
    13
100
AcDbCircle
 10
307.379942
 20
166.689921
 30
0.0
 40
2.590141399586884
100
AcDbArc
 50
189.783991
 51
202.900811
  0
ARC
  5
23B
330
1F
100
AcDbEntity
  8
1
370
    13
100
AcDbCircle
 10
310.153671
 20
162.721114
 30
0.0
 40
0.5828929797663059
100
AcDbArc
 50
55.277403
 51
109.619445
  0
ARC
  5
23C
330
1F
100
AcDbEntity
  8
1
370
    13
100
AcDbCircle
 10
308.755322
 20
161.441785
 30
0.0
 40
0.5846998571117488
100
AcDbArc
 50
155.169964
 51
212.55828
  0
ARC
  5
23D
330
1F
100
AcDbEntity
  8
1
370
    13
100
AcDbCircle
 10
308.05539
 20
162.23477
 30
0.0
 40
0.5776207539921026
100
AcDbArc
 50
304.340455
 51
20.070576
  0
ARC
  5
23E
330
1F
100
AcDbEntity
  8
1
370
    13
100
AcDbCircle
 10
309.429145
 20
163.487371
 30
0.0
 40
0.5762673941776383
100
AcDbArc
 50
244.63713
 51
320.523195
  0
ARC
  5
23F
330
1F
100
AcDbEntity
  8
1
370
    13
100
AcDbCircle
 10
309.093498
 20
162.476831
 30
0.0
 40
0.5905847781089568
100
AcDbArc
 50
95.440998
 51
169.364309
  0
ARC
  5
240
330
1F
100
AcDbEntity
  8
1
370
    13
100
AcDbCircle
 10
306.091387
 20
194.933111
 30
0.0
 40
37.02320149466566
100
AcDbArc
 50
242.705167
 51
250.948389
  0
ARC
  5
241
330
1F
100
AcDbEntity
  8
1
370
    13
100
AcDbCircle
 10
256.313309
 20
98.490294
 30
0.0
 40
71.50824116900806
100
AcDbArc
 50
62.697162
 51
64.871969
  0
ARC
  5
242
330
1F
100
AcDbEntity
  8
1
370
    13
100
AcDbCircle
 10
283.982768
 20
157.845673
 30
0.0
 40
6.02252898005358
100
AcDbArc
 50
63.407129
 51
81.558928
  0
ARC
  5
243
330
1F
100
AcDbEntity
  8
1
370
    13
100
AcDbCircle
 10
298.201289
 20
173.402684
 30
0.0
 40
10.12053762177274
100
AcDbArc
 50
268.534131
 51
280.577087
  0
ARC
  5
244
330
1F
100
AcDbEntity
  8
1
370
    13
100
AcDbCircle
 10
298.198872
 20
173.42049
 30
0.0
 40
10.13848479721943
100
AcDbArc
 50
280.572043
 51
295.797958
  0
ARC
  5
245
330
1F
100
AcDbEntity
  8
1
370
    13
100
AcDbCircle
 10
558.023634
 20
213.836899
 30
0.0
 40
249.0742854272231
100
AcDbArc
 50
191.899634
 51
192.649966
  0
ARC
  5
246
330
1F
100
AcDbEntity
  8
1
370
    13
100
AcDbCircle
 10
-60633.818184
 20
-12813.525327
 30
0.0
 40
62314.12367521865
100
AcDbArc
 50
12.01896
 51
12.022755
  0
ARC
  5
247
330
1F
100
AcDbEntity
  8
1
370
    13
100
AcDbCircle
 10
314.479692
 20
159.16507
 30
0.0
 40
0.5291875263713572
100
AcDbArc
 50
304.638672
 51
13.730228
  0
ARC
  5
248
330
1F
100
AcDbEntity
  8
1
370
    13
100
AcDbCircle
 10
333.239438
 20
169.855899
 30
0.0
 40
30.90635324113922
100
AcDbArc
 50
191.136344
 51
192.845983
  0
ARC
  5
249
330
1F
100
AcDbEntity
  8
1
370
    13
100
AcDbCircle
 10
-91345.243161
 20
-19962.859753
 30
0.0
 40
93832.13535398927
100
AcDbArc
 50
12.384115
 51
12.385477
  0
ARC
  5
24A
330
1F
100
AcDbEntity
  8
1
370
    13
100
AcDbCircle
 10
311.275344
 20
155.005405
 30
0.0
 40
3.511672896894702
100
AcDbArc
 50
61.244539
 51
68.49532
  0
ARC
  5
24B
330
1F
100
AcDbEntity
  8
1
370
    13
100
AcDbCircle
 10
311.511136
 20
155.474313
 30
0.0
 40
2.989347558222115
100
AcDbArc
 50
69.405537
 51
93.042726
  0
ARC
  5
24C
330
1F
100
AcDbEntity
  8
1
370
    13
100
AcDbCircle
 10
312.376461
 20
155.212995
 30
0.0
 40
2.508755478177914
100
AcDbArc
 50
9.637615
 51
37.463172
  0
ARC
  5
24D
330
1F
100
AcDbEntity
  8
1
370
    13
100
AcDbCircle
 10
292.430769
 20
147.998161
 30
0.0
 40
23.49276053916817
100
AcDbArc
 50
9.852575
 51
13.252934
  0
ARC
  5
24E
330
1F
100
AcDbEntity
  8
1
370
    13
100
AcDbCircle
 10
310.438884
 20
134.601979
 30
0.0
 40
3.275397413071888
100
AcDbArc
 50
51.385742
 51
73.804208
  0
ARC
  5
24F
330
1F
100
AcDbEntity
  8
1
370
    13
100
AcDbCircle
 10
311.465912
 20
136.005883
 30
0.0
 40
1.539257207213702
100
AcDbArc
 50
354.604795
 51
48.642965
  0
ARC
  5
250
330
1F
100
AcDbEntity
  8
1
370
    13
100
AcDbCircle
 10
315.292776
 20
143.994397
 30
0.0
 40
0.2979364836458479
100
AcDbArc
 50
336.57024
 51
27.467784
  0
ARC
  5
251
330
1F
100
AcDbEntity
  8
1
370
    13
100
AcDbCircle
 10
313.387698
 20
148.957394
 30
0.0
 40
3.160071622551184
100
AcDbArc
 50
355.815243
 51
3.589041
  0
ARC
  5
252
330
1F
100
AcDbEntity
  8
1
370
    13
100
AcDbCircle
 10
316.138874
 20
149.145477
 30
0.0
 40
0.4028156308156716
100
AcDbArc
 50
1.385008
 51
26.223616
  0
ARC
  5
253
330
1F
100
AcDbEntity
  8
1
370
    13
100
AcDbCircle
 10
315.840554
 20
148.856807
 30
0.0
 40
0.9768749559644796
100
AcDbArc
 50
48.692714
 51
58.613652
  0
ARC
  5
254
330
1F
100
AcDbEntity
  8
1
370
    13
100
AcDbCircle
 10
316.060824
 20
149.104478
 30
0.0
 40
0.6454320656259063
100
AcDbArc
 50
33.072974
 51
48.868094
  0
ARC
  5
255
330
1F
100
AcDbEntity
  8
1
370
    13
100
AcDbCircle
 10
313.297088
 20
149.276338
 30
0.0
 40
1.320361460598107
100
AcDbArc
 50
271.56383
 51
305.528535
  0
ARC
  5
256
330
1F
100
AcDbEntity
  8
1
370
    13
100
AcDbCircle
 10
314.310947
 20
144.434539
 30
0.0
 40
0.1480997641234549
100
AcDbArc
 50
201.257886
 51
292.316158
  0
ARC
  5
257
330
1F
100
AcDbEntity
  8
1
370
    13
100
AcDbCircle
 10
314.111794
 20
144.619904
 30
0.0
 40
1.409140383609357
100
AcDbArc
 50
272.663532
 51
304.429786
  0
ARC
  5
258
330
1F
100
AcDbEntity
  8
1
370
    13
100
AcDbCircle
 10
316.830727
 20
145.196559
 30
0.0
 40
3.404469946247009
100
AcDbArc
 50
197.297126
 51
212.307938
  0
ARC
  5
259
330
1F
100
AcDbEntity
  8
1
370
    13
100
AcDbCircle
 10
314.232902
 20
143.52257
 30
0.0
 40
0.3152296137089146
100
AcDbArc
 50
207.507901
 51
259.836584
  0
ARC
  5
25A
330
1F
100
AcDbEntity
  8
1
370
    13
100
AcDbCircle
 10
313.66596
 20
144.357125
 30
0.0
 40
0.1312310757271336
100
AcDbArc
 50
306.504639
 51
29.114773
  0
ARC
  5
25B
330
1F
100
AcDbEntity
  8
1
370
    13
100
AcDbCircle
 10
305.837458
 20
150.78798
 30
0.0
 40
1.587074698811144
100
AcDbArc
 50
228.179429
 51
257.488805
  0
ARC
  5
25C
330
1F
100
AcDbEntity
  8
1
370
    13
100
AcDbCircle
 10
305.389137
 20
145.366427
 30
0.0
 40
1.826513356511726
100
AcDbArc
 50
112.422539
 51
137.13303
  0
ARC
  5
25D
330
1F
100
AcDbEntity
  8
1
370
    13
100
AcDbCircle
 10
303.799803
 20
146.028176
 30
0.0
 40
0.1876117431667676
100
AcDbArc
 50
140.026636
 51
238.787854
  0
ARC
  5
25E
330
1F
100
AcDbEntity
  8
1
370
    13
100
AcDbCircle
 10
304.130028
 20
146.168483
 30
0.0
 40
1.49402884430174
100
AcDbArc
 50
227.244759
 51
258.424395
  0
ARC
  5
25F
330
1F
100
AcDbEntity
  8
1
370
    13
100
AcDbCircle
 10
313.498078
 20
143.818457
 30
0.0
 40
1.472444651998654
100
AcDbArc
 50
348.305099
 51
3.664221
  0
ARC
  5
260
330
1F
100
AcDbEntity
  8
1
370
    13
100
AcDbCircle
 10
313.461064
 20
146.269401
 30
0.0
 40
3.378544621843046
100
AcDbArc
 50
276.609011
 51
278.680904
  0
ARC
  5
261
330
1F
100
AcDbEntity
  8
1
370
    13
100
AcDbCircle
 10
313.438004
 20
146.46988
 30
0.0
 40
3.580345246447668
100
AcDbArc
 50
274.090158
 51
276.606334
  0
ARC
  5
262
330
1F
100
AcDbEntity
  8
1
370
    13
100
AcDbCircle
 10
313.638583
 20
145.993558
 30
0.0
 40
3.073035815655618
100
AcDbArc
 50
282.380133
 51
286.805607
  0
ARC
  5
263
330
1F
100
AcDbEntity
  8
1
370
    13
100
AcDbCircle
 10
312.935334
 20
149.230516
 30
0.0
 40
6.385501646826355
100
AcDbArc
 50
279.333978
 51
282.316464
  0
ARC
  5
264
330
1F
100
AcDbEntity
  8
1
370
    13
100
AcDbCircle
 10
312.782302
 20
151.778374
 30
0.0
 40
9.051486735431832
100
AcDbArc
 50
256.026412
 51
261.826311
  0
ARC
  5
265
330
1F
100
AcDbEntity
  8
1
370
    13
100
AcDbCircle
 10
-5578.968364
 20
-26615.397593
 30
0.0
 40
27398.87837201176
100
AcDbArc
 50
77.587029
 51
77.591656
  0
ARC
  5
266
330
1F
100
AcDbEntity
  8
1
370
    13
100
AcDbCircle
 10
306.190844
 20
144.97744
 30
0.0
 40
3.111052252989684
100
AcDbArc
 50
166.445189
 51
175.032662
  0
ARC
  5
267
330
1F
100
AcDbEntity
  8
1
370
    13
100
AcDbCircle
 10
303.400592
 20
145.20031
 30
0.0
 40
0.3125952658824932
100
AcDbArc
 50
171.443466
 51
204.339321
  0
ARC
  5
268
330
1F
100
AcDbEntity
  8
1
370
    13
100
AcDbCircle
 10
303.325542
 20
146.331686
 30
0.0
 40
0.1452755382677025
100
AcDbArc
 50
294.586742
 51
357.432493
  0
ARC
  5
269
330
1F
100
AcDbEntity
  8
1
370
    13
100
AcDbCircle
 10
303.581022
 20
145.415316
 30
0.0
 40
0.7834747573329602
100
AcDbArc
 50
296.872453
 51
325.04331
  0
ARC
  5
26A
330
1F
100
AcDbEntity
  8
1
370
    13
100
AcDbCircle
 10
303.947156
 20
146.005773
 30
0.0
 40
1.474317103716608
100
AcDbArc
 50
234.520313
 51
241.13336
  0
ARC
  5
26B
330
1F
100
AcDbEntity
  8
1
370
    13
100
AcDbCircle
 10
303.613062
 20
145.540757
 30
0.0
 40
0.9017345901535029
100
AcDbArc
 50
224.143728
 51
234.657444
  0
ARC
  5
26C
330
1F
100
AcDbEntity
  8
1
370
    13
100
AcDbCircle
 10
304.545148
 20
147.328739
 30
0.0
 40
2.930143934195738
100
AcDbArc
 50
249.584804
 51
255.169101
  0
ARC
  5
26D
330
1F
100
AcDbEntity
  8
1
370
    13
100
AcDbCircle
 10
304.275704
 20
146.602163
 30
0.0
 40
2.155217585190466
100
AcDbArc
 50
241.138581
 51
249.560221
  0
ARC
  5
26E
330
1F
100
AcDbEntity
  8
1
370
    13
100
AcDbCircle
 10
306.165988
 20
154.111254
 30
0.0
 40
9.904523110749897
100
AcDbArc
 50
257.022502
 51
257.72448
  0
ARC
  5
26F
330
1F
100
AcDbEntity
  8
1
370
    13
100
AcDbCircle
 10
304.944641
 20
148.800715
 30
0.0
 40
4.455349326106687
100
AcDbArc
 50
255.048128
 51
256.991289
  0
ARC
  5
270
330
1F
100
AcDbEntity
  8
1
370
    13
100
AcDbCircle
 10
313.952107
 20
147.275136
 30
0.0
 40
2.91288262748972
100
AcDbArc
 50
327.559627
 51
335.253494
  0
ARC
  5
271
330
1F
100
AcDbEntity
  8
1
370
    13
100
AcDbCircle
 10
6919.697013
 20
-3738.333697
 30
0.0
 40
7660.888283964328
100
AcDbArc
 50
149.536002
 51
149.542754
  0
ARC
  5
272
330
1F
100
AcDbEntity
  8
NOCUT
370
    13
100
AcDbCircle
 10
309.793921
 20
159.200068
 30
0.0
 40
8.0
100
AcDbArc
 50
102.0
 51
120.0
  0
ARC
  5
273
330
1F
100
AcDbEntity
  8
1
370
    50
100
AcDbCircle
 10
200.062184
 20
172.771487
 30
0.0
 40
6.0
100
AcDbArc
 50
250.0
 51
268.0
  0
ARC
  5
274
330
1F
100
AcDbEntity
  8
1
370
    50
100
AcDbCircle
 10
200.062184
 20
130.477923
 30
0.0
 40
6.0
100
AcDbArc
 50
92.0
 51
110.0
  0
ARC
  5
275
330
1F
100
AcDbEntity
  8
1
370
    50
100
AcDbCircle
 10
298.291386
 20
129.905724
 30
0.0
 40
10.0
100
AcDbArc
 50
60.0
 51
92.0
  0
ARC
  5
276
330
1F
100
AcDbEntity
  8
NOCUT
370
    13
100
AcDbCircle
 10
200.062184
 20
172.771487
 30
0.0
 40
6.0
100
AcDbArc
 50
250.0
 51
268.0
  0
ARC
  5
277
330
1F
100
AcDbEntity
  8
NOCUT
370
    13
100
AcDbCircle
 10
314.760025
 20
152.807983
 30
0.0
 40
1.6
100
AcDbArc
 50
160.0
 51
180.0
  0
ARC
  5
278
330
1F
100
AcDbEntity
  8
NOCUT
370
    13
100
AcDbCircle
 10
314.783629
 20
160.20356
 30
0.0
 40
0.8
100
AcDbArc
 50
310.0
 51
12.0
  0
ARC
  5
279
330
1F
100
AcDbEntity
  8
NOCUT
370
    13
100
AcDbCircle
 10
312.255263
 20
165.857286
 30
0.0
 40
2.0
100
AcDbArc
 50
24.0
 51
102.0
  0
ARC
  5
27A
330
1F
100
AcDbEntity
  8
NOCUT
370
    13
100
AcDbCircle
 10
311.489979
 20
165.117548
 30
0.0
 40
3.0
100
AcDbArc
 50
12.0
 51
24.0
  0
ARC
  5
27B
330
1F
100
AcDbEntity
  8
NOCUT
370
    13
100
AcDbCircle
 10
298.291386
 20
173.343686
 30
0.0
 40
10.0
100
AcDbArc
 50
268.0
 51
300.0
  0
ARC
  5
27C
330
1F
100
AcDbEntity
  8
NOCUT
370
    13
100
AcDbCircle
 10
315.910025
 20
158.015741
 30
0.0
 40
1.6
100
AcDbArc
 50
130.0
 51
180.0
  0
ARC
  5
27D
102
{ACAD_REACTORS
330
328
102
}
330
1F
100
AcDbEntity
  8
2
370
    13
100
AcDbCircle
 10
316.660025
 20
160.217651
 30
0.0
 40
23.46457192635846
100
AcDbArc
 50
72.274519
 51
101.983053
  0
ARC
  5
27E
102
{ACAD_REACTORS
330
328
102
}
330
1F
100
AcDbEntity
  8
2
370
    13
100
AcDbCircle
 10
316.660025
 20
160.217651
 30
0.0
 40
23.46457192635846
100
AcDbArc
 50
101.983053
 51
124.303279
  0
LINE
  5
27F
102
{ACAD_REACTORS
330
2F3
102
}
330
1F
100
AcDbEntity
  8
4
370
    13
100
AcDbLine
 10
201.660025
 20
151.624705
 30
0.0
 11
319.379052
 21
151.624705
 31
0.0
  0
LINE
  5
280
330
1F
100
AcDbEntity
  8
SK4
370
    13
100
AcDbLine
 10
112.660025
 20
151.624705
 30
0.0
 11
199.160025
 21
151.624705
 31
0.0
  0
MTEXT
  5
281
102
{ACAD_REACTORS
330
328
102
}
330
1F
100
AcDbEntity
  8
2
370
    18
100
AcDbMText
 10
303.169397
 20
180.493559
 30
0.0
 40
3.0
 41
0.0
 71
     7
 72
     5
  1
\W0.8285;12%%d
  7
iso_b_vert
 11
0.8785216009183696
 21
0.4777026237313596
 31
0.0
 73
     2
 44
0.987952
  0
LINE
  5
284
102
{ACAD_REACTORS
330
287
102
}
330
1F
100
AcDbEntity
  8
2
 60
     1
370
    13
100
AcDbLine
 10
311.788255
 20
183.170907
 30
0.0
 11
308.807019
 21
182.001476
 31
0.0
  0
LINE
  5
285
102
{ACAD_REACTORS
330
287
102
}
330
1F
100
AcDbEntity
  8
2
 60
     1
370
    13
100
AcDbLine
 10
308.807019
 20
182.001476
 30
0.0
 11
308.605928
 21
182.812924
 31
0.0
  0
LINE
  5
286
102
{ACAD_REACTORS
330
287
102
}
330
1F
100
AcDbEntity
  8
2
 60
     1
370
    13
100
AcDbLine
 10
308.605928
 20
182.812924
 30
0.0
 11
311.788255
 21
183.170907
 31
0.0
  0
HATCH
  5
287
102
{ACAD_REACTORS
330
328
102
}
330
1F
100
AcDbEntity
  8
2
370
    13
100
AcDbHatch
 10
0.0
 20
0.0
 30
0.0
210
0.0
220
0.0
230
1.0
  2
ANSI31
 70
     0
 71
     1
 91
        1
 92
        0
 93
        3
 72
     1
 10
311.7882552641408
 20
183.1709073436665
 11
308.8070194467621
 21
182.0014760819737
 72
     1
 10
308.8070194467621
 20
182.0014760819737
 11
308.6059284859908
 21
182.8129237530684
 72
     1
 10
308.6059284859908
 20
182.8129237530684
 11
311.7882552641408
 21
183.1709073436665
 97
        3
330
284
330
285
330
286
 75
     0
 76
     1
 52
0.0
 41
0.0062
 77
     0
 78
     1
 53
44.99999999999996
 43
0.0
 44
0.0
 45
-0.0139193969876572
 46
0.0139193969876572
 79
     0
 98
        0
  0
LINE
  5
288
102
{ACAD_REACTORS
330
28B
102
}
330
1F
100
AcDbEntity
  8
2
 60
     1
370
    13
100
AcDbLine
 10
316.660025
 20
183.682223
 30
0.0
 11
319.847328
 21
183.992762
 31
0.0
  0
LINE
  5
289
102
{ACAD_REACTORS
330
28B
102
}
330
1F
100
AcDbEntity
  8
2
 60
     1
370
    13
100
AcDbLine
 10
319.847328
 20
183.992762
 30
0.0
 11
319.8191
 21
183.157245
 31
0.0
  0
LINE
  5
28A
102
{ACAD_REACTORS
330
28B
102
}
330
1F
100
AcDbEntity
  8
2
 60
     1
370
    13
100
AcDbLine
 10
319.8191
 20
183.157245
 30
0.0
 11
316.660025
 21
183.682223
 31
0.0
  0
HATCH
  5
28B
102
{ACAD_REACTORS
330
328
102
}
330
1F
100
AcDbEntity
  8
2
370
    13
100
AcDbHatch
 10
0.0
 20
0.0
 30
0.0
210
0.0
220
0.0
230
1.0
  2
ANSI31
 70
     0
 71
     1
 91
        1
 92
        0
 93
        3
 72
     1
 10
316.6600251619055
 20
183.6822225566415
 11
319.8473283603918
 21
183.9927620799957
 72
     1
 10
319.8473283603918
 20
183.9927620799957
 11
319.819100183756
 21
183.1572454329606
 72
     1
 10
319.819100183756
 20
183.1572454329606
 11
316.6600251619055
 21
183.6822225566415
 97
        3
330
288
330
289
330
28A
 75
     0
 76
     1
 52
0.0
 41
0.0062
 77
     0
 78
     1
 53
44.99999999999995
 43
0.0
 44
0.0
 45
-0.0139193969876572
 46
0.0139193969876572
 79
     0
 98
        0
  0
MTEXT
  5
28C
330
1F
100
AcDbEntity
  8
SK6
370
    18
100
AcDbMText
 10
195.626632
 20
104.80414
 30
0.0
 40
3.0
 41
0.0
 71
     7
 72
     5
  1
\W0.7693;35E3R120A32-SSO12-C
  7
iso_b_vert
 73
     2
 44
1.084337
  0
DIMENSION
  5
28E
102
{ACAD_REACTORS
330
290
102
}
102
{ACAD_XDICTIONARY
360
28F
102
}
330
1F
100
AcDbEntity
  8
2
370
    18
100
AcDbDimension
  2
_U0
 10
316.660025
 20
190.942768
 30
0.0
 11
256.660025
 21
190.942768
 31
0.0
 70
   160
 71
     1
 42
120.0
 52
90.0
  3
Standard
100
AcDbAlignedDimension
 13
196.660025
 23
167.624705
 33
0.0
 14
316.660025
 24
170.099705
 34
0.0
100
AcDbRotatedDimension
1001
ACAD
1000
DSTYLE
1002
{
1070
   371
1070
    13
1070
   372
1070
    13
1070
   170
1070
     0
1070
   144
1040
1.0
1070
   277
1070
     2
1070
   284
1070
     8
1070
   278
1070
    44
1070
   146
1040
1.0
1070
   345
1005
16
1070
   347
1005
16
1070
   346
1005
16
1070
   344
1005
0
1070
   343
1005
0
1070
   172
1070
     1
1070
    76
1070
     0
1070
    75
1070
     0
1070
   282
1070
     0
1070
   281
1070
     0
1070
    71
1070
     0
1070
    74
1070
     0
1070
   279
1070
     0
1070
   173
1070
     1
1070
   340
1005
282
1070
   271
1070
     3
1070
   272
1070
     3
1070
    77
1070
     1
1070
    73
1070
     1
1070
   171
1070
     3
1070
   274
1070
     4
1070
   177
1070
   254
1070
   176
1070
   254
1070
   178
1070
   254
1070
    78
1070
     8
1070
    48
1040
-0.1
1070
    41
1040
3.175
1070
   147
1040
1.5
1070
    42
1040
0.0
1070
    44
1040
2.0
1070
   140
1040
3.0
1002
}
1001
ACAD_DSTYLE_DIM_LINETYPE
1070
   380
1005
16
1001
ACAD_DSTYLE_DIM_EXT1_LINETYPE
1070
   381
1005
16
1001
ACAD_DSTYLE_DIM_EXT2_LINETYPE
1070
   382
1005
16
  0
DIMENSION
  5
2A7
102
{ACAD_REACTORS
330
2A9
102
}
102
{ACAD_XDICTIONARY
360
2A8
102
}
330
1F
100
AcDbEntity
  8
2
370
    18
100
AcDbDimension
  2
_U1
 10
314.767317
 20
175.62602
 30
0.0
 11
330.295739
 21
175.62602
 31
0.0
 70
   160
 71
     1
 42
1.892708
 52
90.0
  3
Standard
100
AcDbAlignedDimension
 13
316.660025
 23
169.099705
 33
0.0
 14
314.767317
 24
168.499206
 34
0.0
100
AcDbRotatedDimension
1001
ACAD
1000
DSTYLE
1002
{
1070
   371
1070
    13
1070
   372
1070
    13
1070
   170
1070
     0
1070
   144
1040
1.0
1070
   277
1070
     2
1070
   284
1070
     8
1070
   278
1070
    44
1070
   146
1040
1.0
1070
   345
1005
16
1070
   347
1005
16
1070
   346
1005
16
1070
   344
1005
0
1070
   343
1005
0
1070
   172
1070
     1
1070
    76
1070
     0
1070
    75
1070
     0
1070
   282
1070
     0
1070
   281
1070
     0
1070
    71
1070
     0
1070
    74
1070
     0
1070
   279
1070
     0
1070
   173
1070
     1
1070
   340
1005
282
1070
   271
1070
     1
1070
   272
1070
     3
1070
    77
1070
     1
1070
    73
1070
     1
1070
   171
1070
     3
1070
   274
1070
     4
1070
   177
1070
   254
1070
   176
1070
   254
1070
   178
1070
   254
1070
    78
1070
     8
1070
    48
1040
-0.1
1070
    41
1040
3.175
1070
   147
1040
1.5
1070
    42
1040
0.0
1070
    44
1040
2.0
1070
   140
1040
3.0
1002
}
1001
ACAD_DSTYLE_DIM_LINETYPE
1070
   380
1005
16
1001
ACAD_DSTYLE_DIM_EXT1_LINETYPE
1070
   381
1005
16
1001
ACAD_DSTYLE_DIM_EXT2_LINETYPE
1070
   382
1005
16
  0
DIMENSION
  5
2C1
102
{ACAD_REACTORS
330
2C3
102
}
102
{ACAD_XDICTIONARY
360
2C2
102
}
330
1F
100
AcDbEntity
  8
SK2
370
    18
100
AcDbDimension
  2
_U2
 10
316.660025
 20
125.32531
 30
0.0
 11
246.660025
 21
125.32531
 31
0.0
 70
   160
 71
     1
 42
140.0
 52
90.0
  3
Standard
100
AcDbAlignedDimension
 13
176.660025
 23
151.624705
 33
0.0
 14
316.660025
 24
169.099705
 34
0.0
100
AcDbRotatedDimension
1001
ACAD
1000
DSTYLE
1002
{
1070
   371
1070
    13
1070
   372
1070
    13
1070
   170
1070
     0
1070
   144
1040
1.0
1070
   277
1070
     2
1070
   284
1070
     8
1070
   278
1070
    44
1070
   146
1040
1.0
1070
   345
1005
16
1070
   347
1005
16
1070
   346
1005
16
1070
   344
1005
0
1070
   343
1005
0
1070
   172
1070
     1
1070
    76
1070
     0
1070
    75
1070
     0
1070
   282
1070
     0
1070
   281
1070
     0
1070
    71
1070
     0
1070
    74
1070
     0
1070
   279
1070
     0
1070
   173
1070
     1
1070
   340
1005
282
1070
   271
1070
     3
1070
   272
1070
     3
1070
    77
1070
     1
1070
    73
1070
     1
1070
   171
1070
     3
1070
   274
1070
     4
1070
   177
1070
    95
1070
   176
1070
    95
1070
   178
1070
    95
1070
    78
1070
     8
1070
    48
1040
-0.1
1070
    41
1040
3.175
1070
   147
1040
1.5
1070
    42
1040
0.0
1070
    44
1040
2.0
1070
   140
1040
3.0
1002
}
1001
ACAD_DSTYLE_DIM_LINETYPE
1070
   380
1005
16
1001
ACAD_DSTYLE_DIM_EXT1_LINETYPE
1070
   381
1005
16
1001
ACAD_DSTYLE_DIM_EXT2_LINETYPE
1070
   382
1005
16
  0
DIMENSION
  5
2D9
102
{ACAD_REACTORS
330
2DB
102
}
102
{ACAD_XDICTIONARY
360
2DA
102
}
330
1F
100
AcDbEntity
  8
SK2
370
    18
100
AcDbDimension
  2
_U3
 10
316.660025
 20
116.743038
 30
0.0
 11
216.660025
 21
116.743038
 31
0.0
 70
   160
 71
     1
 42
200.0
 52
90.0
  3
Standard
100
AcDbAlignedDimension
 13
116.660025
 23
166.896764
 33
0.0
 14
316.660025
 24
169.099705
 34
0.0
100
AcDbRotatedDimension
1001
ACAD
1000
DSTYLE
1002
{
1070
   371
1070
    13
1070
   372
1070
    13
1070
   170
1070
     0
1070
   144
1040
1.0
1070
   277
1070
     2
1070
   284
1070
     8
1070
   278
1070
    44
1070
   146
1040
1.0
1070
   345
1005
16
1070
   347
1005
16
1070
   346
1005
16
1070
   344
1005
0
1070
   343
1005
0
1070
   172
1070
     1
1070
    76
1070
     0
1070
    75
1070
     0
1070
   282
1070
     0
1070
   281
1070
     0
1070
    71
1070
     0
1070
    74
1070
     0
1070
   279
1070
     0
1070
   173
1070
     1
1070
   340
1005
282
1070
   271
1070
     3
1070
   272
1070
     3
1070
    77
1070
     1
1070
    73
1070
     1
1070
   171
1070
     3
1070
   274
1070
     4
1070
   177
1070
    95
1070
   176
1070
    95
1070
   178
1070
    95
1070
    78
1070
     8
1070
    48
1040
-0.1
1070
    41
1040
3.175
1070
   147
1040
1.5
1070
    42
1040
0.0
1070
    44
1040
2.0
1070
   140
1040
3.0
1002
}
1001
ACAD_DSTYLE_DIM_LINETYPE
1070
   380
1005
16
1001
ACAD_DSTYLE_DIM_EXT1_LINETYPE
1070
   381
1005
16
1001
ACAD_DSTYLE_DIM_EXT2_LINETYPE
1070
   382
1005
16
  0
DIMENSION
  5
2F1
102
{ACAD_REACTORS
330
2F3
102
}
102
{ACAD_XDICTIONARY
360
2F2
102
}
330
1F
100
AcDbEntity
  8
2
370
    18
100
AcDbDimension
  2
_U4
 10
328.798615
 20
169.099705
 30
0.0
 11
328.798615
 21
141.521134
 31
0.0
 70
   160
  1
\C254;\H2.25;%%c\H3.00;\C254;35
 71
     1
 42
34.95
 52
90.0
  3
Standard
100
AcDbAlignedDimension
 13
315.583629
 23
151.624705
 33
0.0
 14
316.660025
 24
169.099705
 34
0.0
 50
90.0
100
AcDbRotatedDimension
1001
ACAD
1000
DSTYLE
1002
{
1070
   371
1070
    13
1070
   372
1070
    13
1070
     3
1000

1070
   170
1070
     0
1070
   277
1070
     2
1070
   284
1070
     8
1070
   278
1070
    44
1070
   146
1040
1.0
1070
   345
1005
16
1070
   347
1005
16
1070
   346
1005
16
1070
   344
1005
0
1070
   343
1005
0
1070
   172
1070
     1
1070
    75
1070
     1
1070
   282
1070
     0
1070
    71
1070
     0
1070
   144
1040
2.0
1070
    74
1070
     0
1070
   279
1070
     0
1070
   173
1070
     1
1070
   340
1005
282
1070
   271
1070
     1
1070
   272
1070
     3
1070
    77
1070
     1
1070
    73
1070
     0
1070
   171
1070
     3
1070
   274
1070
     4
1070
   281
1070
     1
1070
   177
1070
   254
1070
   176
1070
   254
1070
   178
1070
   254
1070
    78
1070
     8
1070
    48
1040
-0.1
1070
    41
1040
3.175
1070
   147
1040
1.5
1070
    42
1040
0.0
1070
    44
1040
2.0
1070
   140
1040
3.0
1002
}
1001
ACAD_DSTYLE_DIM_LINETYPE
1070
   380
1005
16
1001
ACAD_DSTYLE_DIM_EXT1_LINETYPE
1070
   381
1005
16
1001
ACAD_DSTYLE_DIM_EXT2_LINETYPE
1070
   382
1005
16
  0
DIMENSION
  5
307
102
{ACAD_REACTORS
330
309
102
}
102
{ACAD_XDICTIONARY
360
308
102
}
330
1F
100
AcDbEntity
  8
SK2
370
    18
100
AcDbDimension
  2
_U5
 10
107.340502
 20
135.624705
 30
0.0
 11
107.340502
 21
151.214336
 31
0.0
 70
   160
 71
     1
 42
32.0
 52
90.0
  3
Standard
100
AcDbAlignedDimension
 13
118.660025
 23
167.624705
 33
0.0
 14
118.660025
 24
135.624705
 34
0.0
 50
-90.0
100
AcDbRotatedDimension
1001
ACAD
1000
DSTYLE
1002
{
1070
   371
1070
    13
1070
   372
1070
    13
1070
     3
1000
\C95;\H2.25;%%c\H3.00;<>
1070
   170
1070
     0
1070
   144
1040
1.0
1070
   277
1070
     2
1070
   284
1070
     8
1070
   278
1070
    44
1070
   146
1040
1.0
1070
   345
1005
16
1070
   347
1005
16
1070
   346
1005
16
1070
   344
1005
0
1070
   343
1005
0
1070
   172
1070
     1
1070
    76
1070
     0
1070
    75
1070
     0
1070
   282
1070
     0
1070
   281
1070
     0
1070
    71
1070
     0
1070
    74
1070
     0
1070
   279
1070
     0
1070
   173
1070
     1
1070
   340
1005
282
1070
   271
1070
     3
1070
   272
1070
     3
1070
    77
1070
     1
1070
    73
1070
     0
1070
   171
1070
     3
1070
   274
1070
     4
1070
   177
1070
    95
1070
   176
1070
    95
1070
   178
1070
    95
1070
    78
1070
     8
1070
    48
1040
-0.1
1070
    41
1040
3.175
1070
   147
1040
1.5
1070
    42
1040
0.0
1070
    44
1040
2.0
1070
   140
1040
3.0
1002
}
1001
ACAD_DSTYLE_DIM_LINETYPE
1070
   380
1005
16
1001
ACAD_DSTYLE_DIM_EXT1_LINETYPE
1070
   381
1005
16
1001
ACAD_DSTYLE_DIM_EXT2_LINETYPE
1070
   382
1005
16
  0
ENDSEC
  0
SECTION
  2
OBJECTS
  0
DICTIONARY
  5
C
330
0
100
AcDbDictionary
281
     1
  3
ACAD_DETAILVIEWSTYLE
350
380
  3
ACAD_GROUP
350
D
  3
ACAD_LAYOUT
350
1A
  3
ACAD_MATERIAL
350
43
  3
ACAD_MLEADERSTYLE
350
6B
  3
ACAD_MLINESTYLE
350
17
  3
ACAD_PLOTSETTINGS
350
19
  3
ACAD_PLOTSTYLENAME
350
E
  3
ACAD_SCALELIST
350
47
  3
ACAD_SECTIONVIEWSTYLE
350
381
  3
ACAD_TABLESTYLE
350
69
  3
ACAD_VISUALSTYLE
350
2A
  3
ACDB_RECOMPOSE_DATA
350
37D
  3
AcDbVariableDictionary
350
33D
  0
DICTIONARY
  5
33B
330
8
100
AcDbDictionary
280
     1
281
     1
  3
ACAD_XREC_ROUNDTRIP
360
33C
  0
DICTIONARY
  5
28F
330
28E
100
AcDbDictionary
280
     1
281
     1
  3
ACAD_DIMASSOC
360
290
  0
DICTIONARY
  5
2A8
330
2A7
100
AcDbDictionary
280
     1
281
     1
  3
ACAD_DIMASSOC
360
2A9
  0
DICTIONARY
  5
2C2
330
2C1
100
AcDbDictionary
280
     1
281
     1
  3
ACAD_DIMASSOC
360
2C3
  0
DICTIONARY
  5
2DA
330
2D9
100
AcDbDictionary
280
     1
281
     1
  3
ACAD_DIMASSOC
360
2DB
  0
DICTIONARY
  5
2F2
330
2F1
100
AcDbDictionary
280
     1
281
     1
  3
ACAD_DIMASSOC
360
2F3
  0
DICTIONARY
  5
308
330
307
100
AcDbDictionary
280
     1
281
     1
  3
ACAD_DIMASSOC
360
309
  0
DICTIONARY
  5
380
102
{ACAD_REACTORS
330
C
102
}
330
C
100
AcDbDictionary
281
     1
  0
DICTIONARY
  5
D
102
{ACAD_REACTORS
330
C
102
}
330
C
100
AcDbDictionary
281
     1
  3
ANNOTATION
350
328
  0
DICTIONARY
  5
1A
102
{ACAD_REACTORS
330
C
102
}
330
C
100
AcDbDictionary
281
     1
  3
Layout1
350
1E
  3
Layout2
350
26
  3
Model
350
22
  0
DICTIONARY
  5
43
102
{ACAD_REACTORS
330
C
102
}
330
C
100
AcDbDictionary
281
     1
  3
ByBlock
350
45
  3
ByLayer
350
44
  3
Global
350
46
  0
DICTIONARY
  5
6B
102
{ACAD_REACTORS
330
C
102
}
330
C
100
AcDbDictionary
281
     1
  3
Standard
350
6C
  0
DICTIONARY
  5
17
102
{ACAD_REACTORS
330
C
102
}
330
C
100
AcDbDictionary
281
     1
  3
Standard
350
18
  0
DICTIONARY
  5
19
102
{ACAD_REACTORS
330
C
102
}
330
C
100
AcDbDictionary
281
     1
  0
ACDBDICTIONARYWDFLT
  5
E
102
{ACAD_REACTORS
330
C
102
}
330
C
100
AcDbDictionary
281
     1
  3
Normal
350
F
100
AcDbDictionaryWithDefault
340
F
  0
DICTIONARY
  5
47
102
{ACAD_REACTORS
330
C
102
}
330
C
100
AcDbDictionary
281
     1
  3
A0
350
48
  3
A1
350
49
  3
A2
350
4A
  3
A3
350
4B
  3
A4
350
4C
  3
A5
350
4D
  3
A6
350
4E
  3
A7
350
4F
  3
A8
350
50
  3
A9
350
51
  3
B0
350
52
  3
B1
350
53
  3
B2
350
54
  3
B3
350
55
  3
B4
350
56
  3
B5
350
57
  3
B6
350
58
  3
B7
350
59
  3
B8
350
5A
  3
B9
350
5B
  3
C0
350
5C
  3
C1
350
5D
  3
C2
350
5E
  3
C3
350
5F
  3
C4
350
60
  3
C5
350
61
  3
C6
350
62
  3
C7
350
63
  3
C8
350
64
  3
C9
350
65
  3
D0
350
66
  3
D1
350
67
  3
D2
350
68
  0
DICTIONARY
  5
381
102
{ACAD_REACTORS
330
C
102
}
330
C
100
AcDbDictionary
281
     1
  0
DICTIONARY
  5
69
102
{ACAD_REACTORS
330
C
102
}
330
C
100
AcDbDictionary
281
     1
  3
Standard
350
6A
  0
DICTIONARY
  5
2A
102
{ACAD_REACTORS
330
C
102
}
330
C
100
AcDbDictionary
281
     1
  3
2dWireframe
350
2F
  3
Basic
350
32
  3
Brighten
350
36
  3
ColorChange
350
3A
  3
Conceptual
350
34
  3
Dim
350
35
  3
EdgeColorOff
350
3D
  3
Facepattern
350
39
  3
Flat
350
2B
  3
FlatWithEdges
350
2C
  3
Gouraud
350
2D
  3
GouraudWithEdges
350
2E
  3
Hidden
350
31
  3
JitterOff
350
3B
  3
Linepattern
350
38
  3
OverhangOff
350
3C
  3
Realistic
350
33
  3
Shaded
350
42
  3
Shaded with edges
350
41
  3
Shades of Gray
350
3E
  3
Sketchy
350
3F
  3
Thicken
350
37
  3
Wireframe
350
30
  3
X-Ray
350
40
  0
XRECORD
  5
37D
102
{ACAD_REACTORS
330
C
102
}
330
C
100
AcDbXrecord
280
     1
 90
        1
330
6A
  0
DICTIONARY
  5
33D
102
{ACAD_REACTORS
330
C
102
}
330
C
100
AcDbDictionary
281
     1
  3
CANNOSCALE
350
33E
  3
CMLEADERSTYLE
350
37F
  3
CTABLESTYLE
350
37E
  3
MSLTSCALE
350
33F
  3
XCLIPFRAME
350
340
  0
XRECORD
  5
33C
102
{ACAD_REACTORS
330
33B
102
}
330
33B
100
AcDbXrecord
280
     1
102
VTR_0.000_0.000_1.000_1.000_VISUALSTYLE
340
2F
102
VTR_0.000_0.000_1.000_1.000_GRIDDISPLAY
 70
     3
102
VTR_0.000_0.000_1.000_1.000_GRIDMAJOR
 70
     5
102
VTR_0.000_0.000_1.000_1.000_DEFAULTLIGHTING
280
     1
102
VTR_0.000_0.000_1.000_1.000_DEFAULTLIGHTINGTYPE
 70
     1
102
VTR_0.000_0.000_1.000_1.000_BRIGHTNESS
141
0.0
102
VTR_0.000_0.000_1.000_1.000_CONTRAST
142
0.0
102
VTR_0.000_0.000_0.500_1.000_VISUALSTYLE
340
2F
102
VTR_0.000_0.000_0.500_1.000_GRIDDISPLAY
 70
     3
102
VTR_0.000_0.000_0.500_1.000_GRIDMAJOR
 70
     5
102
VTR_0.000_0.000_0.500_1.000_DEFAULTLIGHTING
280
     1
102
VTR_0.000_0.000_0.500_1.000_DEFAULTLIGHTINGTYPE
 70
     1
102
VTR_0.000_0.000_0.500_1.000_BRIGHTNESS
141
0.0
102
VTR_0.000_0.000_0.500_1.000_CONTRAST
142
0.0
102
VTR_0.500_0.000_1.000_1.000_VISUALSTYLE
340
2F
102
VTR_0.500_0.000_1.000_1.000_GRIDDISPLAY
 70
     3
102
VTR_0.500_0.000_1.000_1.000_GRIDMAJOR
 70
     5
102
VTR_0.500_0.000_1.000_1.000_DEFAULTLIGHTING
280
     1
102
VTR_0.500_0.000_1.000_1.000_DEFAULTLIGHTINGTYPE
 70
     1
102
VTR_0.500_0.000_1.000_1.000_BRIGHTNESS
141
0.0
102
VTR_0.500_0.000_1.000_1.000_CONTRAST
142
0.0
102
VTR_0.000_0.500_1.000_1.000_VISUALSTYLE
340
2F
102
VTR_0.000_0.500_1.000_1.000_GRIDDISPLAY
 70
     3
102
VTR_0.000_0.500_1.000_1.000_GRIDMAJOR
 70
     5
102
VTR_0.000_0.500_1.000_1.000_DEFAULTLIGHTING
280
     1
102
VTR_0.000_0.500_1.000_1.000_DEFAULTLIGHTINGTYPE
 70
     1
102
VTR_0.000_0.500_1.000_1.000_BRIGHTNESS
141
0.0
102
VTR_0.000_0.500_1.000_1.000_CONTRAST
142
0.0
102
VTR_0.000_0.000_1.000_0.500_VISUALSTYLE
340
2F
102
VTR_0.000_0.000_1.000_0.500_GRIDDISPLAY
 70
     3
102
VTR_0.000_0.000_1.000_0.500_GRIDMAJOR
 70
     5
102
VTR_0.000_0.000_1.000_0.500_DEFAULTLIGHTING
280
     1
102
VTR_0.000_0.000_1.000_0.500_DEFAULTLIGHTINGTYPE
 70
     1
102
VTR_0.000_0.000_1.000_0.500_BRIGHTNESS
141
0.0
102
VTR_0.000_0.000_1.000_0.500_CONTRAST
142
0.0
102
VTR_0.000_0.500_0.500_1.000_VISUALSTYLE
340
2F
102
VTR_0.000_0.500_0.500_1.000_GRIDDISPLAY
 70
     3
102
VTR_0.000_0.500_0.500_1.000_GRIDMAJOR
 70
     5
102
VTR_0.000_0.500_0.500_1.000_DEFAULTLIGHTING
280
     1
102
VTR_0.000_0.500_0.500_1.000_DEFAULTLIGHTINGTYPE
 70
     1
102
VTR_0.000_0.500_0.500_1.000_BRIGHTNESS
141
0.0
102
VTR_0.000_0.500_0.500_1.000_CONTRAST
142
0.0
102
VTR_0.000_0.000_0.500_0.500_VISUALSTYLE
340
2F
102
VTR_0.000_0.000_0.500_0.500_GRIDDISPLAY
 70
     3
102
VTR_0.000_0.000_0.500_0.500_GRIDMAJOR
 70
     5
102
VTR_0.000_0.000_0.500_0.500_DEFAULTLIGHTING
280
     1
102
VTR_0.000_0.000_0.500_0.500_DEFAULTLIGHTINGTYPE
 70
     1
102
VTR_0.000_0.000_0.500_0.500_BRIGHTNESS
141
0.0
102
VTR_0.000_0.000_0.500_0.500_CONTRAST
142
0.0
102
VTR_0.500_0.000_1.000_0.500_VISUALSTYLE
340
2F
102
VTR_0.500_0.000_1.000_0.500_GRIDDISPLAY
 70
     3
102
VTR_0.500_0.000_1.000_0.500_GRIDMAJOR
 70
     5
102
VTR_0.500_0.000_1.000_0.500_DEFAULTLIGHTING
280
     1
102
VTR_0.500_0.000_1.000_0.500_DEFAULTLIGHTINGTYPE
 70
     1
102
VTR_0.500_0.000_1.000_0.500_BRIGHTNESS
141
0.0
102
VTR_0.500_0.000_1.000_0.500_CONTRAST
142
0.0
102
VTR_0.500_0.500_1.000_1.000_VISUALSTYLE
340
2F
102
VTR_0.500_0.500_1.000_1.000_GRIDDISPLAY
 70
     3
102
VTR_0.500_0.500_1.000_1.000_GRIDMAJOR
 70
     5
102
VTR_0.500_0.500_1.000_1.000_DEFAULTLIGHTING
280
     1
102
VTR_0.500_0.500_1.000_1.000_DEFAULTLIGHTINGTYPE
 70
     1
102
VTR_0.500_0.500_1.000_1.000_BRIGHTNESS
141
0.0
102
VTR_0.500_0.500_1.000_1.000_CONTRAST
142
0.0
102
VTR_0.000_0.500_0.333_1.000_VISUALSTYLE
340
2F
102
VTR_0.000_0.500_0.333_1.000_GRIDDISPLAY
 70
     3
102
VTR_0.000_0.500_0.333_1.000_GRIDMAJOR
 70
     5
102
VTR_0.000_0.500_0.333_1.000_DEFAULTLIGHTING
280
     1
102
VTR_0.000_0.500_0.333_1.000_DEFAULTLIGHTINGTYPE
 70
     1
102
VTR_0.000_0.500_0.333_1.000_BRIGHTNESS
141
0.0
102
VTR_0.000_0.500_0.333_1.000_CONTRAST
142
0.0
102
VTR_0.000_0.000_0.333_0.500_VISUALSTYLE
340
2F
102
VTR_0.000_0.000_0.333_0.500_GRIDDISPLAY
 70
     3
102
VTR_0.000_0.000_0.333_0.500_GRIDMAJOR
 70
     5
102
VTR_0.000_0.000_0.333_0.500_DEFAULTLIGHTING
280
     1
102
VTR_0.000_0.000_0.333_0.500_DEFAULTLIGHTINGTYPE
 70
     1
102
VTR_0.000_0.000_0.333_0.500_BRIGHTNESS
141
0.0
102
VTR_0.000_0.000_0.333_0.500_CONTRAST
142
0.0
102
VTR_0.333_0.500_0.667_1.000_VISUALSTYLE
340
2F
102
VTR_0.333_0.500_0.667_1.000_GRIDDISPLAY
 70
     3
102
VTR_0.333_0.500_0.667_1.000_GRIDMAJOR
 70
     5
102
VTR_0.333_0.500_0.667_1.000_DEFAULTLIGHTING
280
     1
102
VTR_0.333_0.500_0.667_1.000_DEFAULTLIGHTINGTYPE
 70
     1
102
VTR_0.333_0.500_0.667_1.000_BRIGHTNESS
141
0.0
102
VTR_0.333_0.500_0.667_1.000_CONTRAST
142
0.0
102
VTR_0.333_0.000_0.667_0.500_VISUALSTYLE
340
2F
102
VTR_0.333_0.000_0.667_0.500_GRIDDISPLAY
 70
     3
102
VTR_0.333_0.000_0.667_0.500_GRIDMAJOR
 70
     5
102
VTR_0.333_0.000_0.667_0.500_DEFAULTLIGHTING
280
     1
102
VTR_0.333_0.000_0.667_0.500_DEFAULTLIGHTINGTYPE
 70
     1
102
VTR_0.333_0.000_0.667_0.500_BRIGHTNESS
141
0.0
102
VTR_0.333_0.000_0.667_0.500_CONTRAST
142
0.0
102
VTR_0.667_0.500_1.000_1.000_VISUALSTYLE
340
2F
102
VTR_0.667_0.500_1.000_1.000_GRIDDISPLAY
 70
     3
102
VTR_0.667_0.500_1.000_1.000_GRIDMAJOR
 70
     5
102
VTR_0.667_0.500_1.000_1.000_DEFAULTLIGHTING
280
     1
102
VTR_0.667_0.500_1.000_1.000_DEFAULTLIGHTINGTYPE
 70
     1
102
VTR_0.667_0.500_1.000_1.000_BRIGHTNESS
141
0.0
102
VTR_0.667_0.500_1.000_1.000_CONTRAST
142
0.0
102
VTR_0.667_0.000_1.000_0.500_VISUALSTYLE
340
2F
102
VTR_0.667_0.000_1.000_0.500_GRIDDISPLAY
 70
     3
102
VTR_0.667_0.000_1.000_0.500_GRIDMAJOR
 70
     5
102
VTR_0.667_0.000_1.000_0.500_DEFAULTLIGHTING
280
     1
102
VTR_0.667_0.000_1.000_0.500_DEFAULTLIGHTINGTYPE
 70
     1
102
VTR_0.667_0.000_1.000_0.500_BRIGHTNESS
141
0.0
102
VTR_0.667_0.000_1.000_0.500_CONTRAST
142
0.0
  0
DIMASSOC
  5
290
102
{ACAD_REACTORS
330
28F
102
}
330
28F
100
AcDbDimAssoc
330
28E
 90
        3
 70
     0
 71
     1
  1
AcDbOsnapPointRef
 72
    13
331
D6
 73
     2
 91
        1
 40
0.0
 10
196.660025
 20
167.624705
 30
0.0
 75
     0
  1
AcDbOsnapPointRef
 72
     1
331
D5
 73
     2
 91
        2
 40
1.0
 10
316.660025
 20
170.099705
 30
0.0
 75
     0
  0
DIMASSOC
  5
2A9
102
{ACAD_REACTORS
330
2A8
102
}
330
2A8
100
AcDbDimAssoc
330
2A7
 90
        3
 70
     0
 71
     1
  1
AcDbOsnapPointRef
 72
     2
331
D3
 73
     2
 91
        1
 40
1.0
 10
316.660025
 20
169.099705
 30
0.0
 75
     0
  1
AcDbOsnapPointRef
 72
     4
331
7B
 73
     3
 91
        2
 40
0.0
 10
314.767317
 20
168.499206
 30
0.0
 75
     0
  0
DIMASSOC
  5
2C3
102
{ACAD_REACTORS
330
2C2
102
}
330
2C2
100
AcDbDimAssoc
330
2C1
 90
        3
 70
     0
 71
     1
  1
AcDbOsnapPointRef
 72
     4
331
75
 73
     3
 91
        1
 40
0.0
 10
176.660025
 20
151.624705
 30
0.0
 75
     0
  1
AcDbOsnapPointRef
 72
     2
331
D5
 73
     2
 91
        2
 40
1.0
 10
316.660025
 20
169.099705
 30
0.0
 75
     0
  0
DIMASSOC
  5
2DB
102
{ACAD_REACTORS
330
2DA
102
}
330
2DA
100
AcDbDimAssoc
330
2D9
 90
        3
 70
     0
 71
     1
  1
AcDbOsnapPointRef
 72
    13
331
D4
 73
     2
 91
        1
 40
0.0
 10
116.660025
 20
166.896764
 30
0.0
 75
     0
  1
AcDbOsnapPointRef
 72
     2
331
D5
 73
     2
 91
        2
 40
1.0
 10
316.660025
 20
169.099705
 30
0.0
 75
     0
  0
DIMASSOC
  5
2F3
102
{ACAD_REACTORS
330
2F2
102
}
330
2F2
100
AcDbDimAssoc
330
2F1
 90
        3
 70
     0
 71
     1
  1
AcDbOsnapPointRef
 72
    10
331
27F
 73
     2
 91
        1
 40
113.923604
 10
315.583629
 20
151.624705
 30
0.0
 75
     0
  1
AcDbOsnapPointRef
 72
     2
331
D5
 73
     2
 91
        2
 40
1.0
 10
316.660025
 20
169.099705
 30
0.0
 75
     0
  0
DIMASSOC
  5
309
102
{ACAD_REACTORS
330
308
102
}
330
308
100
AcDbDimAssoc
330
307
 90
        3
 70
     0
 71
     1
  1
AcDbOsnapPointRef
 72
     1
331
D6
 73
     2
 91
        1
 40
1.0
 10
118.660025
 20
167.624705
 30
0.0
 75
     0
  1
AcDbOsnapPointRef
 72
    13
331
1B6
 73
     2
 91
        2
 40
0.0
 10
118.660025
 20
135.624705
 30
0.0
 75
     0
  0
GROUP
  5
328
102
{ACAD_REACTORS
330
D
102
}
330
D
100
AcDbGroup
300

 70
     0
 71
     1
340
281
340
1B8
340
1B9
340
27D
340
27E
340
287
340
28B
  0
LAYOUT
  5
1E
102
{ACAD_REACTORS
330
1A
102
}
330
1A
100
AcDbPlotSettings
  1

  2
none_device
  4

  6

 40
0.0
 41
0.0
 42
0.0
 43
0.0
 44
0.0
 45
0.0
 46
0.0
 47
0.0
 48
0.0
 49
0.0
140
0.0
141
0.0
142
1.0
143
1.0
 70
   688
 72
     0
 73
     0
 74
     5
  7

 75
    16
 76
     0
 77
     2
 78
   300
147
1.0
148
0.0
149
0.0
100
AcDbLayout
  1
Layout1
 70
     1
 71
     1
 10
-0.5
 20
-0.5
 11
5.0
 21
5.0
 12
0.0
 22
0.0
 32
0.0
 14
-0.5
 24
-0.5
 34
-0.5
 15
5.0
 25
5.0
 35
5.0
146
0.0
 13
0.0
 23
0.0
 33
0.0
 16
1.0
 26
0.0
 36
0.0
 17
0.0
 27
1.0
 37
0.0
 76
     0
330
1B
  0
LAYOUT
  5
26
102
{ACAD_REACTORS
330
1A
102
}
330
1A
100
AcDbPlotSettings
  1

  2
none_device
  4

  6

 40
0.0
 41
0.0
 42
0.0
 43
0.0
 44
0.0
 45
0.0
 46
0.0
 47
0.0
 48
0.0
 49
0.0
140
0.0
141
0.0
142
1.0
143
1.0
 70
   688
 72
     0
 73
     0
 74
     5
  7

 75
    16
 76
     0
 77
     2
 78
   300
147
1.0
148
0.0
149
0.0
100
AcDbLayout
  1
Layout2
 70
     1
 71
     2
 10
0.0
 20
0.0
 11
0.0
 21
0.0
 12
0.0
 22
0.0
 32
0.0
 14
0.0
 24
0.0
 34
0.0
 15
0.0
 25
0.0
 35
0.0
146
0.0
 13
0.0
 23
0.0
 33
0.0
 16
1.0
 26
0.0
 36
0.0
 17
0.0
 27
1.0
 37
0.0
 76
     0
330
23
  0
LAYOUT
  5
22
102
{ACAD_REACTORS
330
1A
102
}
330
1A
100
AcDbPlotSettings
  1

  2
none_device
  4
Letter_(8.50_x_11.00_Inches)
  6

 40
6.35
 41
6.35
 42
6.350005
 43
6.350005
 44
215.9
 45
279.4
 46
0.0
 47
0.0
 48
0.0
 49
0.0
140
0.0
141
0.0
142
1.0
143
1.0
 70
  1712
 72
     0
 73
     0
 74
     0
  7

 75
     0
 76
     0
 77
     2
 78
   300
147
1.0
148
0.0
149
0.0
100
AcDbLayout
  1
Model
 70
     1
 71
     0
 10
-0.5
 20
-0.5
 11
5.0
 21
5.0
 12
0.0
 22
0.0
 32
0.0
 14
-0.5
 24
-0.5
 34
-0.5
 15
5.0
 25
5.0
 35
5.0
146
0.0
 13
0.0
 23
0.0
 33
0.0
 16
1.0
 26
0.0
 36
0.0
 17
0.0
 27
1.0
 37
0.0
 76
     0
330
1F
331
29
  0
MATERIAL
  5
45
102
{ACAD_REACTORS
330
43
102
}
102
{ACAD_XDICTIONARY
360
373
102
}
330
43
100
AcDbMaterial
  1
ByBlock
  0
MATERIAL
  5
44
102
{ACAD_REACTORS
330
43
102
}
102
{ACAD_XDICTIONARY
360
371
102
}
330
43
100
AcDbMaterial
  1
ByLayer
  0
MATERIAL
  5
46
102
{ACAD_REACTORS
330
43
102
}
102
{ACAD_XDICTIONARY
360
375
102
}
330
43
100
AcDbMaterial
  1
Global
  0
MLEADERSTYLE
  5
6C
102
{ACAD_REACTORS
330
6B
102
}
102
{ACAD_XDICTIONARY
360
37B
102
}
330
6B
100
AcDbMLeaderStyle
170
     2
171
     1
172
     0
 90
        2
 40
0.0
 41
0.0
173
     1
 91
-1056964608
340
14
 92
       -2
290
     1
 42
0.09
291
     1
 43
0.36
  3
Standard
341
0
 44
0.18
300

342
11
174
     1
178
     6
175
     1
176
     0
 93
-1056964608
 45
0.18
292
     0
297
     0
 46
0.18
343
0
 94
-1056964608
 47
1.0
 49
1.0
140
1.0
293
     1
141
0.0
294
     1
177
     0
142
1.0
295
     0
296
     0
143
0.125
1001
ACAD_MLEADERVER
1070
     2
  0
MLINESTYLE
  5
18
102
{ACAD_REACTORS
330
17
102
}
330
17
100
AcDbMlineStyle
  2
Standard
 70
     0
  3

 62
   256
 51
90.0
 52
90.0
 71
     2
 49
0.5
 62
   256
  6
BYLAYER
 49
-0.5
 62
   256
  6
BYLAYER
  0
ACDBPLACEHOLDER
  5
F
102
{ACAD_REACTORS
330
E
102
}
330
E
  0
SCALE
  5
48
102
{ACAD_REACTORS
330
47
102
}
330
47
100
AcDbScale
 70
     0
300
1:1
140
1.0
141
1.0
290
     1
  0
SCALE
  5
49
102
{ACAD_REACTORS
330
47
102
}
330
47
100
AcDbScale
 70
     0
300
1:2
140
1.0
141
2.0
290
     0
  0
SCALE
  5
4A
102
{ACAD_REACTORS
330
47
102
}
330
47
100
AcDbScale
 70
     0
300
1:4
140
1.0
141
4.0
290
     0
  0
SCALE
  5
4B
102
{ACAD_REACTORS
330
47
102
}
330
47
100
AcDbScale
 70
     0
300
1:5
140
1.0
141
5.0
290
     0
  0
SCALE
  5
4C
102
{ACAD_REACTORS
330
47
102
}
330
47
100
AcDbScale
 70
     0
300
1:8
140
1.0
141
8.0
290
     0
  0
SCALE
  5
4D
102
{ACAD_REACTORS
330
47
102
}
330
47
100
AcDbScale
 70
     0
300
1:10
140
1.0
141
10.0
290
     0
  0
SCALE
  5
4E
102
{ACAD_REACTORS
330
47
102
}
330
47
100
AcDbScale
 70
     0
300
1:16
140
1.0
141
16.0
290
     0
  0
SCALE
  5
4F
102
{ACAD_REACTORS
330
47
102
}
330
47
100
AcDbScale
 70
     0
300
1:20
140
1.0
141
20.0
290
     0
  0
SCALE
  5
50
102
{ACAD_REACTORS
330
47
102
}
330
47
100
AcDbScale
 70
     0
300
1:30
140
1.0
141
30.0
290
     0
  0
SCALE
  5
51
102
{ACAD_REACTORS
330
47
102
}
330
47
100
AcDbScale
 70
     0
300
1:40
140
1.0
141
40.0
290
     0
  0
SCALE
  5
52
102
{ACAD_REACTORS
330
47
102
}
330
47
100
AcDbScale
 70
     0
300
1:50
140
1.0
141
50.0
290
     0
  0
SCALE
  5
53
102
{ACAD_REACTORS
330
47
102
}
330
47
100
AcDbScale
 70
     0
300
1:100
140
1.0
141
100.0
290
     0
  0
SCALE
  5
54
102
{ACAD_REACTORS
330
47
102
}
330
47
100
AcDbScale
 70
     0
300
2:1
140
2.0
141
1.0
290
     0
  0
SCALE
  5
55
102
{ACAD_REACTORS
330
47
102
}
330
47
100
AcDbScale
 70
     0
300
4:1
140
4.0
141
1.0
290
     0
  0
SCALE
  5
56
102
{ACAD_REACTORS
330
47
102
}
330
47
100
AcDbScale
 70
     0
300
8:1
140
8.0
141
1.0
290
     0
  0
SCALE
  5
57
102
{ACAD_REACTORS
330
47
102
}
330
47
100
AcDbScale
 70
     0
300
10:1
140
10.0
141
1.0
290
     0
  0
SCALE
  5
58
102
{ACAD_REACTORS
330
47
102
}
330
47
100
AcDbScale
 70
     0
300
100:1
140
100.0
141
1.0
290
     0
  0
SCALE
  5
59
102
{ACAD_REACTORS
330
47
102
}
330
47
100
AcDbScale
 70
     0
300
1/128" = 1'-0"
140
0.007812
141
12.0
290
     0
  0
SCALE
  5
5A
102
{ACAD_REACTORS
330
47
102
}
330
47
100
AcDbScale
 70
     0
300
1/64" = 1'-0"
140
0.015625
141
12.0
290
     0
  0
SCALE
  5
5B
102
{ACAD_REACTORS
330
47
102
}
330
47
100
AcDbScale
 70
     0
300
1/32" = 1'-0"
140
0.03125
141
12.0
290
     0
  0
SCALE
  5
5C
102
{ACAD_REACTORS
330
47
102
}
330
47
100
AcDbScale
 70
     0
300
1/16" = 1'-0"
140
0.0625
141
12.0
290
     0
  0
SCALE
  5
5D
102
{ACAD_REACTORS
330
47
102
}
330
47
100
AcDbScale
 70
     0
300
3/32" = 1'-0"
140
0.09375
141
12.0
290
     0
  0
SCALE
  5
5E
102
{ACAD_REACTORS
330
47
102
}
330
47
100
AcDbScale
 70
     0
300
1/8" = 1'-0"
140
0.125
141
12.0
290
     0
  0
SCALE
  5
5F
102
{ACAD_REACTORS
330
47
102
}
330
47
100
AcDbScale
 70
     0
300
3/16" = 1'-0"
140
0.1875
141
12.0
290
     0
  0
SCALE
  5
60
102
{ACAD_REACTORS
330
47
102
}
330
47
100
AcDbScale
 70
     0
300
1/4" = 1'-0"
140
0.25
141
12.0
290
     0
  0
SCALE
  5
61
102
{ACAD_REACTORS
330
47
102
}
330
47
100
AcDbScale
 70
     0
300
3/8" = 1'-0"
140
0.375
141
12.0
290
     0
  0
SCALE
  5
62
102
{ACAD_REACTORS
330
47
102
}
330
47
100
AcDbScale
 70
     0
300
1/2" = 1'-0"
140
0.5
141
12.0
290
     0
  0
SCALE
  5
63
102
{ACAD_REACTORS
330
47
102
}
330
47
100
AcDbScale
 70
     0
300
3/4" = 1'-0"
140
0.75
141
12.0
290
     0
  0
SCALE
  5
64
102
{ACAD_REACTORS
330
47
102
}
330
47
100
AcDbScale
 70
     0
300
1" = 1'-0"
140
1.0
141
12.0
290
     0
  0
SCALE
  5
65
102
{ACAD_REACTORS
330
47
102
}
330
47
100
AcDbScale
 70
     0
300
1-1/2" = 1'-0"
140
1.5
141
12.0
290
     0
  0
SCALE
  5
66
102
{ACAD_REACTORS
330
47
102
}
330
47
100
AcDbScale
 70
     0
300
3" = 1'-0"
140
3.0
141
12.0
290
     0
  0
SCALE
  5
67
102
{ACAD_REACTORS
330
47
102
}
330
47
100
AcDbScale
 70
     0
300
6" = 1'-0"
140
6.0
141
12.0
290
     0
  0
SCALE
  5
68
102
{ACAD_REACTORS
330
47
102
}
330
47
100
AcDbScale
 70
     0
300
1'-0" = 1'-0"
140
12.0
141
12.0
290
     0
  0
TABLESTYLE
  5
6A
102
{ACAD_REACTORS
330
69
102
}
102
{ACAD_XDICTIONARY
360
377
102
}
330
69
100
AcDbTableStyle
  3
Standard
 70
     0
 71
     0
 40
0.06
 41
0.06
280
     0
281
     0
  7
Standard
140
0.18
170
     2
 62
     0
 63
   257
283
     0
274
    -2
284
     1
 64
     0
275
    -2
285
     1
 65
     0
276
    -2
286
     1
 66
     0
277
    -2
287
     1
 67
     0
278
    -2
288
     1
 68
     0
279
    -2
289
     1
 69
     0
  7
Standard
140
0.25
170
     5
 62
     0
 63
   257
283
     0
274
    -2
284
     1
 64
     0
275
    -2
285
     1
 65
     0
276
    -2
286
     1
 66
     0
277
    -2
287
     1
 67
     0
278
    -2
288
     1
 68
     0
279
    -2
289
     1
 69
     0
  7
Standard
140
0.18
170
     5
 62
     0
 63
   257
283
     0
274
    -2
284
     1
 64
     0
275
    -2
285
     1
 65
     0
276
    -2
286
     1
 66
     0
277
    -2
287
     1
 67
     0
278
    -2
288
     1
 68
     0
279
    -2
289
     1
 69
     0
  0
VISUALSTYLE
  5
2F
102
{ACAD_REACTORS
330
2A
102
}
102
{ACAD_XDICTIONARY
360
349
102
}
330
2A
100
AcDbVisualStyle
  2
2dWireframe
 70
     4
 71
     0
 72
     2
 73
     0
 90
        0
 40
0.6
 41
30.0
 62
     5
 63
     7
421
 16777215
 74
     1
 91
        4
 64
     7
 65
   257
 75
     1
175
     1
 42
1.0
 92
        0
 66
   257
 43
1.0
 76
     1
 77
     6
 78
     2
 67
     7
 79
     5
170
     0
171
     0
290
     0
174
     0
 93
        1
 44
0.0
173
     0
291
     0
 45
0.0
1001
ACAD
1000
AcDbSavedByObjectVersion
1070
     0
  0
VISUALSTYLE
  5
32
102
{ACAD_REACTORS
330
2A
102
}
102
{ACAD_XDICTIONARY
360
34F
102
}
330
2A
100
AcDbVisualStyle
  2
Basic
 70
     7
 71
     1
 72
     0
 73
     1
 90
        0
 40
0.6
 41
30.0
 62
     5
 63
     7
421
 16777215
 74
     0
 91
        4
 64
     7
 65
   257
 75
     1
175
     1
 42
1.0
 92
        8
 66
     7
 43
1.0
 76
     1
 77
     6
 78
     2
 67
     7
 79
     5
170
     0
171
     0
290
     0
174
     0
 93
        1
 44
0.0
173
     0
291
     1
 45
0.0
1001
ACAD
1000
AcDbSavedByObjectVersion
1070
     0
  0
VISUALSTYLE
  5
36
102
{ACAD_REACTORS
330
2A
102
}
102
{ACAD_XDICTIONARY
360
357
102
}
330
2A
100
AcDbVisualStyle
  2
Brighten
 70
    12
 71
     2
 72
     2
 73
     0
 90
        0
 40
0.6
 41
30.0
 62
     5
 63
     7
421
 16777215
 74
     1
 91
        4
 64
     7
 65
   257
 75
     1
175
     1
 42
1.0
 92
        8
 66
     7
 43
1.0
 76
     1
 77
     6
 78
     2
 67
     7
 79
     5
170
     0
171
     0
290
     0
174
     0
 93
        1
 44
50.0
173
     0
291
     1
 45
0.0
1001
ACAD
1000
AcDbSavedByObjectVersion
1070
     0
  0
VISUALSTYLE
  5
3A
102
{ACAD_REACTORS
330
2A
102
}
102
{ACAD_XDICTIONARY
360
35F
102
}
330
2A
100
AcDbVisualStyle
  2
ColorChange
 70
    16
 71
     2
 72
     2
 73
     3
 90
        0
 40
0.6
 41
30.0
 62
     5
 63
     8
421
  8421504
 74
     1
 91
        4
 64
     7
 65
   257
 75
     1
175
     1
 42
1.0
 92
        8
 66
     8
424
  8421504
 43
1.0
 76
     1
 77
     6
 78
     2
 67
     7
 79
     5
170
     0
171
     0
290
     0
174
     0
 93
        1
 44
0.0
173
     0
291
     1
 45
0.0
1001
ACAD
1000
AcDbSavedByObjectVersion
1070
     0
  0
VISUALSTYLE
  5
34
102
{ACAD_REACTORS
330
2A
102
}
102
{ACAD_XDICTIONARY
360
353
102
}
330
2A
100
AcDbVisualStyle
  2
Conceptual
 70
     9
 71
     3
 72
     2
 73
     0
 90
        0
 40
0.6
 41
30.0
 62
     5
 63
     7
421
 16777215
 74
     2
 91
        2
 64
     7
 65
   257
 75
     1
175
     1
 42
179.0
 92
        8
 66
     7
 43
1.0
 76
     1
 77
     6
 78
     2
 67
     7
 79
     3
170
     0
171
     0
290
     0
174
     0
 93
        1
 44
0.0
173
     0
291
     0
 45
0.0
1001
ACAD
1000
AcDbSavedByObjectVersion
1070
     0
  0
VISUALSTYLE
  5
35
102
{ACAD_REACTORS
330
2A
102
}
102
{ACAD_XDICTIONARY
360
355
102
}
330
2A
100
AcDbVisualStyle
  2
Dim
 70
    11
 71
     2
 72
     2
 73
     0
 90
        0
 40
0.6
 41
30.0
 62
     5
 63
     7
421
 16777215
 74
     1
 91
        4
 64
     7
 65
   257
 75
     1
175
     1
 42
1.0
 92
        8
 66
     7
 43
1.0
 76
     1
 77
     6
 78
     2
 67
     7
 79
     5
170
     0
171
     0
290
     0
174
     0
 93
        1
 44
-50.0
173
     0
291
     1
 45
0.0
1001
ACAD
1000
AcDbSavedByObjectVersion
1070
     0
  0
VISUALSTYLE
  5
3D
102
{ACAD_REACTORS
330
2A
102
}
102
{ACAD_XDICTIONARY
360
365
102
}
330
2A
100
AcDbVisualStyle
  2
EdgeColorOff
 70
    22
 71
     2
 72
     2
 73
     0
 90
        0
 40
0.6
 41
30.0
 62
     5
 63
     7
421
 16777215
 74
     1
 91
        4
 64
     7
 65
   257
 75
     1
175
     1
 42
1.0
 92
        8
 66
     7
 43
1.0
 76
     1
 77
     6
 78
     2
 67
     7
 79
     5
170
     0
171
     0
290
     0
174
     0
 93
        1
 44
0.0
173
     0
291
     1
 45
0.0
1001
ACAD
1000
AcDbSavedByObjectVersion
1070
     0
  0
VISUALSTYLE
  5
39
102
{ACAD_REACTORS
330
2A
102
}
102
{ACAD_XDICTIONARY
360
35D
102
}
330
2A
100
AcDbVisualStyle
  2
Facepattern
 70
    15
 71
     2
 72
     2
 73
     0
 90
        0
 40
0.6
 41
30.0
 62
     5
 63
     7
421
 16777215
 74
     1
 91
        4
 64
     7
 65
   257
 75
     1
175
     1
 42
1.0
 92
        8
 66
     7
 43
1.0
 76
     1
 77
     6
 78
     2
 67
     7
 79
     5
170
     0
171
     0
290
     0
174
     0
 93
        1
 44
0.0
173
     0
291
     1
 45
0.0
1001
ACAD
1000
AcDbSavedByObjectVersion
1070
     0
  0
VISUALSTYLE
  5
2B
102
{ACAD_REACTORS
330
2A
102
}
102
{ACAD_XDICTIONARY
360
341
102
}
330
2A
100
AcDbVisualStyle
  2
Flat
 70
     0
 71
     2
 72
     1
 73
     1
 90
        2
 40
0.6
 41
30.0
 62
     5
 63
     7
421
 16777215
 74
     0
 91
        0
 64
     7
 65
   257
 75
     1
175
     1
 42
1.0
 92
        8
 66
     7
 43
1.0
 76
     1
 77
     6
 78
     2
 67
     7
 79
     5
170
     0
171
     0
290
     0
174
     0
 93
       13
 44
0.0
173
     0
291
     1
 45
0.0
1001
ACAD
1000
AcDbSavedByObjectVersion
1070
     0
  0
VISUALSTYLE
  5
2C
102
{ACAD_REACTORS
330
2A
102
}
102
{ACAD_XDICTIONARY
360
343
102
}
330
2A
100
AcDbVisualStyle
  2
FlatWithEdges
 70
     1
 71
     2
 72
     1
 73
     1
 90
        2
 40
0.6
 41
30.0
 62
     5
 63
     7
421
 16777215
 74
     1
 91
        0
 64
     7
 65
   257
 75
     1
175
     1
 42
1.0
 92
        0
 66
   257
 43
1.0
 76
     1
 77
     6
 78
     2
 67
     7
 79
     5
170
     0
171
     0
290
     0
174
     0
 93
       13
 44
0.0
173
     0
291
     1
 45
0.0
1001
ACAD
1000
AcDbSavedByObjectVersion
1070
     0
  0
VISUALSTYLE
  5
2D
102
{ACAD_REACTORS
330
2A
102
}
102
{ACAD_XDICTIONARY
360
345
102
}
330
2A
100
AcDbVisualStyle
  2
Gouraud
 70
     2
 71
     2
 72
     2
 73
     1
 90
        2
 40
0.6
 41
30.0
 62
     5
 63
     7
421
 16777215
 74
     0
 91
        0
 64
     7
 65
   257
 75
     1
175
     1
 42
1.0
 92
        0
 66
     7
 43
1.0
 76
     1
 77
     6
 78
     2
 67
     7
 79
     5
170
     0
171
     0
290
     0
174
     0
 93
       13
 44
0.0
173
     0
291
     1
 45
0.0
1001
ACAD
1000
AcDbSavedByObjectVersion
1070
     0
  0
VISUALSTYLE
  5
2E
102
{ACAD_REACTORS
330
2A
102
}
102
{ACAD_XDICTIONARY
360
347
102
}
330
2A
100
AcDbVisualStyle
  2
GouraudWithEdges
 70
     3
 71
     2
 72
     2
 73
     1
 90
        2
 40
0.6
 41
30.0
 62
     5
 63
     7
421
 16777215
 74
     1
 91
        0
 64
     7
 65
   257
 75
     1
175
     1
 42
1.0
 92
        0
 66
   257
 43
1.0
 76
     1
 77
     6
 78
     2
 67
     7
 79
     5
170
     0
171
     0
290
     0
174
     0
 93
       13
 44
0.0
173
     0
291
     1
 45
0.0
1001
ACAD
1000
AcDbSavedByObjectVersion
1070
     0
  0
VISUALSTYLE
  5
31
102
{ACAD_REACTORS
330
2A
102
}
102
{ACAD_XDICTIONARY
360
34D
102
}
330
2A
100
AcDbVisualStyle
  2
Hidden
 70
     6
 71
     1
 72
     2
 73
     2
 90
        0
 40
0.6
 41
30.0
 62
     5
 63
     7
421
 16777215
 74
     2
 91
        2
 64
     7
 65
   257
 75
     2
175
     1
 42
40.0
 92
        0
 66
   257
 43
1.0
 76
     1
 77
     6
 78
     2
 67
     7
 79
     3
170
     0
171
     0
290
     0
174
     0
 93
        1
 44
0.0
173
     0
291
     0
 45
0.0
1001
ACAD
1000
AcDbSavedByObjectVersion
1070
     0
  0
VISUALSTYLE
  5
3B
102
{ACAD_REACTORS
330
2A
102
}
102
{ACAD_XDICTIONARY
360
361
102
}
330
2A
100
AcDbVisualStyle
  2
JitterOff
 70
    20
 71
     2
 72
     2
 73
     0
 90
        0
 40
0.6
 41
30.0
 62
     5
 63
     7
421
 16777215
 74
     1
 91
        4
 64
     7
 65
   257
 75
     1
175
     1
 42
1.0
 92
       10
 66
     7
 43
1.0
 76
     1
 77
     6
 78
     2
 67
     7
 79
     5
170
     0
171
     0
290
     0
174
     0
 93
        1
 44
0.0
173
     0
291
     1
 45
0.0
1001
ACAD
1000
AcDbSavedByObjectVersion
1070
     0
  0
VISUALSTYLE
  5
38
102
{ACAD_REACTORS
330
2A
102
}
102
{ACAD_XDICTIONARY
360
35B
102
}
330
2A
100
AcDbVisualStyle
  2
Linepattern
 70
    14
 71
     2
 72
     2
 73
     0
 90
        0
 40
0.6
 41
30.0
 62
     5
 63
     7
421
 16777215
 74
     1
 91
        4
 64
     7
 65
   257
 75
     7
175
     7
 42
1.0
 92
        8
 66
     7
 43
1.0
 76
     1
 77
     6
 78
     2
 67
     7
 79
     5
170
     0
171
     0
290
     0
174
     0
 93
        1
 44
0.0
173
     0
291
     1
 45
0.0
1001
ACAD
1000
AcDbSavedByObjectVersion
1070
     0
  0
VISUALSTYLE
  5
3C
102
{ACAD_REACTORS
330
2A
102
}
102
{ACAD_XDICTIONARY
360
363
102
}
330
2A
100
AcDbVisualStyle
  2
OverhangOff
 70
    21
 71
     2
 72
     2
 73
     0
 90
        0
 40
0.6
 41
30.0
 62
     5
 63
     7
421
 16777215
 74
     1
 91
        4
 64
     7
 65
   257
 75
     1
175
     1
 42
1.0
 92
        9
 66
     7
 43
1.0
 76
     1
 77
     6
 78
     2
 67
     7
 79
     5
170
     0
171
     0
290
     0
174
     0
 93
        1
 44
0.0
173
     0
291
     1
 45
0.0
1001
ACAD
1000
AcDbSavedByObjectVersion
1070
     0
  0
VISUALSTYLE
  5
33
102
{ACAD_REACTORS
330
2A
102
}
102
{ACAD_XDICTIONARY
360
351
102
}
330
2A
100
AcDbVisualStyle
  2
Realistic
 70
     8
 71
     2
 72
     3
 73
     0
 90
        2
 40
0.6
 41
30.0
 62
     5
 63
     7
421
 16777215
 74
     0
 91
        0
 64
     7
 65
   257
 75
     1
175
     1
 42
1.0
 92
        8
 66
   257
 43
1.0
 76
     1
 77
     6
 78
     2
 67
     7
 79
     3
170
     0
171
     0
290
     0
174
     0
 93
       13
 44
0.0
173
     0
291
     0
 45
0.0
1001
ACAD
1000
AcDbSavedByObjectVersion
1070
     0
  0
VISUALSTYLE
  5
42
102
{ACAD_REACTORS
330
2A
102
}
102
{ACAD_XDICTIONARY
360
36F
102
}
330
2A
100
AcDbVisualStyle
  2
Shaded
 70
    27
 71
     2
 72
     2
 73
     1
 90
        2
 40
0.6
 41
30.0
 62
     5
 63
     7
421
 16777215
 74
     0
 91
        4
 64
     7
 65
   257
 75
     1
175
     1
 42
1.0
 92
        8
 66
   257
 43
1.0
 76
     1
 77
     6
 78
     2
 67
     8
425
  7895160
 79
     3
170
     0
171
     0
290
     0
174
     0
 93
        5
 44
0.0
173
     0
291
     0
 45
0.0
1001
ACAD
1000
AcDbSavedByObjectVersion
1070
     0
  0
VISUALSTYLE
  5
41
102
{ACAD_REACTORS
330
2A
102
}
102
{ACAD_XDICTIONARY
360
36D
102
}
330
2A
100
AcDbVisualStyle
  2
Shaded with edges
 70
    26
 71
     2
 72
     2
 73
     1
 90
        2
 40
0.6
 41
30.0
 62
     5
 63
     7
421
 16777215
 74
     1
 91
       10
 64
     7
 65
   257
 75
     2
175
     1
 42
1.0
 92
        8
 66
   257
 43
1.0
 76
     1
 77
     6
 78
     2
 67
     7
 79
     3
170
     0
171
     0
290
     0
174
     0
 93
        5
 44
0.0
173
     0
291
     0
 45
0.0
1001
ACAD
1000
AcDbSavedByObjectVersion
1070
     0
  0
VISUALSTYLE
  5
3E
102
{ACAD_REACTORS
330
2A
102
}
102
{ACAD_XDICTIONARY
360
367
102
}
330
2A
100
AcDbVisualStyle
  2
Shades of Gray
 70
    23
 71
     2
 72
     2
 73
     3
 90
        0
 40
0.6
 41
30.0
 62
     5
 63
     7
421
 16777215
 74
     2
 91
        2
 64
     7
 65
     7
 75
     1
175
     1
 42
40.0
 92
        8
 66
     7
 43
1.0
 76
     1
 77
     6
 78
     2
 67
     7
 79
     3
170
     0
171
     0
290
     0
174
     0
 93
        1
 44
0.0
173
     0
291
     0
 45
0.0
1001
ACAD
1000
AcDbSavedByObjectVersion
1070
     0
  0
VISUALSTYLE
  5
3F
102
{ACAD_REACTORS
330
2A
102
}
102
{ACAD_XDICTIONARY
360
369
102
}
330
2A
100
AcDbVisualStyle
  2
Sketchy
 70
    24
 71
     1
 72
     2
 73
     2
 90
        0
 40
0.6
 41
30.0
 62
     5
 63
     7
421
 16777215
 74
     2
 91
        2
 64
     7
 65
     7
 75
     1
175
     1
 42
40.0
 92
       11
 66
     7
 43
1.0
 76
     1
 77
     6
 78
     2
 67
     7
 79
     6
170
     0
171
     0
290
     0
174
     0
 93
        1
 44
0.0
173
     0
291
     0
 45
0.0
1001
ACAD
1000
AcDbSavedByObjectVersion
1070
     0
  0
VISUALSTYLE
  5
37
102
{ACAD_REACTORS
330
2A
102
}
102
{ACAD_XDICTIONARY
360
359
102
}
330
2A
100
AcDbVisualStyle
  2
Thicken
 70
    13
 71
     2
 72
     2
 73
     0
 90
        0
 40
0.6
 41
30.0
 62
     5
 63
     7
421
 16777215
 74
     1
 91
        4
 64
     7
 65
   257
 75
     1
175
     1
 42
1.0
 92
       12
 66
     7
 43
1.0
 76
     1
 77
     6
 78
     2
 67
     7
 79
     5
170
     0
171
     0
290
     0
174
     0
 93
        1
 44
0.0
173
     0
291
     1
 45
0.0
1001
ACAD
1000
AcDbSavedByObjectVersion
1070
     0
  0
VISUALSTYLE
  5
30
102
{ACAD_REACTORS
330
2A
102
}
102
{ACAD_XDICTIONARY
360
34B
102
}
330
2A
100
AcDbVisualStyle
  2
Wireframe
 70
     5
 71
     0
 72
     2
 73
     0
 90
        0
 40
0.6
 41
30.0
 62
     5
 63
     7
421
 16777215
 74
     1
 91
        4
 64
     7
 65
   257
 75
     1
175
     1
 42
1.0
 92
        0
 66
   257
 43
1.0
 76
     1
 77
     6
 78
     2
 67
     7
 79
     3
170
     0
171
     0
290
     0
174
     0
 93
        1
 44
0.0
173
     0
291
     0
 45
0.0
1001
ACAD
1000
AcDbSavedByObjectVersion
1070
     0
  0
VISUALSTYLE
  5
40
102
{ACAD_REACTORS
330
2A
102
}
102
{ACAD_XDICTIONARY
360
36B
102
}
330
2A
100
AcDbVisualStyle
  2
X-Ray
 70
    25
 71
     2
 72
     2
 73
     1
 90
        1
 40
0.5
 41
30.0
 62
     5
 63
     7
421
 16777215
 74
     1
 91
        0
 64
     7
 65
   257
 75
     1
175
     1
 42
1.0
 92
        8
 66
     7
 43
1.0
 76
     1
 77
     6
 78
     2
 67
     7
 79
     3
170
     0
171
     0
290
     0
174
     0
 93
       13
 44
0.0
173
     0
291
     0
 45
0.0
1001
ACAD
1000
AcDbSavedByObjectVersion
1070
     0
  0
DICTIONARYVAR
  5
33E
102
{ACAD_REACTORS
330
33D
102
}
330
33D
100
DictionaryVariables
280
     0
  1
1:1
  0
DICTIONARYVAR
  5
37F
102
{ACAD_REACTORS
330
33D
102
}
330
33D
100
DictionaryVariables
280
     0
  1
Standard
  0
DICTIONARYVAR
  5
37E
102
{ACAD_REACTORS
330
33D
102
}
330
33D
100
DictionaryVariables
280
     0
  1
Standard
  0
DICTIONARYVAR
  5
33F
102
{ACAD_REACTORS
330
33D
102
}
330
33D
100
DictionaryVariables
280
     0
  1
1
  0
DICTIONARYVAR
  5
340
102
{ACAD_REACTORS
330
33D
102
}
330
33D
100
DictionaryVariables
280
     0
  1
2
  0
DICTIONARY
  5
373
330
45
100
AcDbDictionary
280
     1
281
     1
  3
ACAD_XREC_ROUNDTRIP
360
374
  0
DICTIONARY
  5
371
330
44
100
AcDbDictionary
280
     1
281
     1
  3
ACAD_XREC_ROUNDTRIP
360
372
  0
DICTIONARY
  5
375
330
46
100
AcDbDictionary
280
     1
281
     1
  3
ACAD_XREC_ROUNDTRIP
360
376
  0
DICTIONARY
  5
37B
330
6C
100
AcDbDictionary
280
     1
281
     1
  3
ACAD_XREC_ROUNDTRIP
360
37C
  0
DICTIONARY
  5
377
330
6A
100
AcDbDictionary
280
     1
281
     1
  3
ACAD_ROUNDTRIP_2008_TABLESTYLE_CELLSTYLEMAP
360
379
  3
ACAD_XREC_ROUNDTRIP
360
378
  0
DICTIONARY
  5
349
330
2F
100
AcDbDictionary
280
     1
281
     1
  3
ACAD_XREC_ROUNDTRIP
360
34A
  0
DICTIONARY
  5
34F
330
32
100
AcDbDictionary
280
     1
281
     1
  3
ACAD_XREC_ROUNDTRIP
360
350
  0
DICTIONARY
  5
357
330
36
100
AcDbDictionary
280
     1
281
     1
  3
ACAD_XREC_ROUNDTRIP
360
358
  0
DICTIONARY
  5
35F
330
3A
100
AcDbDictionary
280
     1
281
     1
  3
ACAD_XREC_ROUNDTRIP
360
360
  0
DICTIONARY
  5
353
330
34
100
AcDbDictionary
280
     1
281
     1
  3
ACAD_XREC_ROUNDTRIP
360
354
  0
DICTIONARY
  5
355
330
35
100
AcDbDictionary
280
     1
281
     1
  3
ACAD_XREC_ROUNDTRIP
360
356
  0
DICTIONARY
  5
365
330
3D
100
AcDbDictionary
280
     1
281
     1
  3
ACAD_XREC_ROUNDTRIP
360
366
  0
DICTIONARY
  5
35D
330
39
100
AcDbDictionary
280
     1
281
     1
  3
ACAD_XREC_ROUNDTRIP
360
35E
  0
DICTIONARY
  5
341
330
2B
100
AcDbDictionary
280
     1
281
     1
  3
ACAD_XREC_ROUNDTRIP
360
342
  0
DICTIONARY
  5
343
330
2C
100
AcDbDictionary
280
     1
281
     1
  3
ACAD_XREC_ROUNDTRIP
360
344
  0
DICTIONARY
  5
345
330
2D
100
AcDbDictionary
280
     1
281
     1
  3
ACAD_XREC_ROUNDTRIP
360
346
  0
DICTIONARY
  5
347
330
2E
100
AcDbDictionary
280
     1
281
     1
  3
ACAD_XREC_ROUNDTRIP
360
348
  0
DICTIONARY
  5
34D
330
31
100
AcDbDictionary
280
     1
281
     1
  3
ACAD_XREC_ROUNDTRIP
360
34E
  0
DICTIONARY
  5
361
330
3B
100
AcDbDictionary
280
     1
281
     1
  3
ACAD_XREC_ROUNDTRIP
360
362
  0
DICTIONARY
  5
35B
330
38
100
AcDbDictionary
280
     1
281
     1
  3
ACAD_XREC_ROUNDTRIP
360
35C
  0
DICTIONARY
  5
363
330
3C
100
AcDbDictionary
280
     1
281
     1
  3
ACAD_XREC_ROUNDTRIP
360
364
  0
DICTIONARY
  5
351
330
33
100
AcDbDictionary
280
     1
281
     1
  3
ACAD_XREC_ROUNDTRIP
360
352
  0
DICTIONARY
  5
36F
330
42
100
AcDbDictionary
280
     1
281
     1
  3
ACAD_XREC_ROUNDTRIP
360
370
  0
DICTIONARY
  5
36D
330
41
100
AcDbDictionary
280
     1
281
     1
  3
ACAD_XREC_ROUNDTRIP
360
36E
  0
DICTIONARY
  5
367
330
3E
100
AcDbDictionary
280
     1
281
     1
  3
ACAD_XREC_ROUNDTRIP
360
368
  0
DICTIONARY
  5
369
330
3F
100
AcDbDictionary
280
     1
281
     1
  3
ACAD_XREC_ROUNDTRIP
360
36A
  0
DICTIONARY
  5
359
330
37
100
AcDbDictionary
280
     1
281
     1
  3
ACAD_XREC_ROUNDTRIP
360
35A
  0
DICTIONARY
  5
34B
330
30
100
AcDbDictionary
280
     1
281
     1
  3
ACAD_XREC_ROUNDTRIP
360
34C
  0
DICTIONARY
  5
36B
330
40
100
AcDbDictionary
280
     1
281
     1
  3
ACAD_XREC_ROUNDTRIP
360
36C
  0
XRECORD
  5
374
102
{ACAD_REACTORS
330
373
102
}
330
373
100
AcDbXrecord
280
     1
102
MATERIAL
148
0.0
149
0.0
149
0.0
 93
        0
 94
      127
282
     0
 72
     1
 77
     1
171
     1
175
     1
179
     1
273
     0
  0
XRECORD
  5
372
102
{ACAD_REACTORS
330
371
102
}
330
371
100
AcDbXrecord
280
     1
102
MATERIAL
148
0.0
149
0.0
149
0.0
 93
        0
 94
      127
282
     0
 72
     1
 77
     1
171
     1
175
     1
179
     1
273
     0
  0
XRECORD
  5
376
102
{ACAD_REACTORS
330
375
102
}
330
375
100
AcDbXrecord
280
     1
102
MATERIAL
148
0.0
149
0.0
149
0.0
 93
        0
 94
      127
282
     0
 72
     1
 77
     1
171
     1
175
     1
179
     1
273
     0
  0
XRECORD
  5
37C
102
{ACAD_REACTORS
330
37B
102
}
330
37B
100
AcDbXrecord
280
     1
102
ACAD_ROUNDTRIP_2010_MLEADER_STYLE
  0
CELLSTYLEMAP
  5
379
102
{ACAD_REACTORS
330
377
102
}
330
377
100
AcDbCellStyleMap
 90
        3
300
CELLSTYLE
  1
TABLEFORMAT_BEGIN
 90
        5
170
     1
 91
        0
 92
    32768
 62
   257
 93
        1
300
CONTENTFORMAT
  1
CONTENTFORMAT_BEGIN
 90
        0
 91
        0
 92
        4
 93
        0
300

 40
0.0
140
1.0
 94
        5
 62
     0
340
11
144
0.25
309
CONTENTFORMAT_END
171
     1
301
MARGIN
  1
CELLMARGIN_BEGIN
 40
0.06
 40
0.06
 40
0.06
 40
0.06
 40
0.06
 40
0.06
309
CELLMARGIN_END
 94
        6
 95
        1
302
GRIDFORMAT
  1
GRIDFORMAT_BEGIN
 90
        0
 91
        1
 62
     0
 92
       -2
340
14
 93
        0
 40
0.045
309
GRIDFORMAT_END
 95
        2
302
GRIDFORMAT
  1
GRIDFORMAT_BEGIN
 90
        0
 91
        1
 62
     0
 92
       -2
340
14
 93
        0
 40
0.045
309
GRIDFORMAT_END
 95
        4
302
GRIDFORMAT
  1
GRIDFORMAT_BEGIN
 90
        0
 91
        1
 62
     0
 92
       -2
340
14
 93
        0
 40
0.045
309
GRIDFORMAT_END
 95
        8
302
GRIDFORMAT
  1
GRIDFORMAT_BEGIN
 90
        0
 91
        1
 62
     0
 92
       -2
340
14
 93
        0
 40
0.045
309
GRIDFORMAT_END
 95
       16
302
GRIDFORMAT
  1
GRIDFORMAT_BEGIN
 90
        0
 91
        1
 62
     0
 92
       -2
340
14
 93
        0
 40
0.045
309
GRIDFORMAT_END
 95
       32
302
GRIDFORMAT
  1
GRIDFORMAT_BEGIN
 90
        0
 91
        1
 62
     0
 92
       -2
340
14
 93
        0
 40
0.045
309
GRIDFORMAT_END
309
TABLEFORMAT_END
  1
CELLSTYLE_BEGIN
 90
        1
 91
        1
300
_TITLE
309
CELLSTYLE_END
300
CELLSTYLE
  1
TABLEFORMAT_BEGIN
 90
        5
170
     1
 91
        0
 92
        0
 62
   257
 93
        1
300
CONTENTFORMAT
  1
CONTENTFORMAT_BEGIN
 90
        0
 91
        0
 92
        4
 93
        0
300

 40
0.0
140
1.0
 94
        5
 62
     0
340
11
144
0.18
309
CONTENTFORMAT_END
171
     1
301
MARGIN
  1
CELLMARGIN_BEGIN
 40
0.06
 40
0.06
 40
0.06
 40
0.06
 40
0.06
 40
0.06
309
CELLMARGIN_END
 94
        6
 95
        1
302
GRIDFORMAT
  1
GRIDFORMAT_BEGIN
 90
        0
 91
        1
 62
     0
 92
       -2
340
14
 93
        0
 40
0.045
309
GRIDFORMAT_END
 95
        2
302
GRIDFORMAT
  1
GRIDFORMAT_BEGIN
 90
        0
 91
        1
 62
     0
 92
       -2
340
14
 93
        0
 40
0.045
309
GRIDFORMAT_END
 95
        4
302
GRIDFORMAT
  1
GRIDFORMAT_BEGIN
 90
        0
 91
        1
 62
     0
 92
       -2
340
14
 93
        0
 40
0.045
309
GRIDFORMAT_END
 95
        8
302
GRIDFORMAT
  1
GRIDFORMAT_BEGIN
 90
        0
 91
        1
 62
     0
 92
       -2
340
14
 93
        0
 40
0.045
309
GRIDFORMAT_END
 95
       16
302
GRIDFORMAT
  1
GRIDFORMAT_BEGIN
 90
        0
 91
        1
 62
     0
 92
       -2
340
14
 93
        0
 40
0.045
309
GRIDFORMAT_END
 95
       32
302
GRIDFORMAT
  1
GRIDFORMAT_BEGIN
 90
        0
 91
        1
 62
     0
 92
       -2
340
14
 93
        0
 40
0.045
309
GRIDFORMAT_END
309
TABLEFORMAT_END
  1
CELLSTYLE_BEGIN
 90
        2
 91
        1
300
_HEADER
309
CELLSTYLE_END
300
CELLSTYLE
  1
TABLEFORMAT_BEGIN
 90
        5
170
     1
 91
        0
 92
        0
 62
   257
 93
        1
300
CONTENTFORMAT
  1
CONTENTFORMAT_BEGIN
 90
        0
 91
        0
 92
        4
 93
        0
300

 40
0.0
140
1.0
 94
        2
 62
     0
340
11
144
0.18
309
CONTENTFORMAT_END
171
     1
301
MARGIN
  1
CELLMARGIN_BEGIN
 40
0.06
 40
0.06
 40
0.06
 40
0.06
 40
0.06
 40
0.06
309
CELLMARGIN_END
 94
        6
 95
        1
302
GRIDFORMAT
  1
GRIDFORMAT_BEGIN
 90
        0
 91
        1
 62
     0
 92
       -2
340
14
 93
        0
 40
0.045
309
GRIDFORMAT_END
 95
        2
302
GRIDFORMAT
  1
GRIDFORMAT_BEGIN
 90
        0
 91
        1
 62
     0
 92
       -2
340
14
 93
        0
 40
0.045
309
GRIDFORMAT_END
 95
        4
302
GRIDFORMAT
  1
GRIDFORMAT_BEGIN
 90
        0
 91
        1
 62
     0
 92
       -2
340
14
 93
        0
 40
0.045
309
GRIDFORMAT_END
 95
        8
302
GRIDFORMAT
  1
GRIDFORMAT_BEGIN
 90
        0
 91
        1
 62
     0
 92
       -2
340
14
 93
        0
 40
0.045
309
GRIDFORMAT_END
 95
       16
302
GRIDFORMAT
  1
GRIDFORMAT_BEGIN
 90
        0
 91
        1
 62
     0
 92
       -2
340
14
 93
        0
 40
0.045
309
GRIDFORMAT_END
 95
       32
302
GRIDFORMAT
  1
GRIDFORMAT_BEGIN
 90
        0
 91
        1
 62
     0
 92
       -2
340
14
 93
        0
 40
0.045
309
GRIDFORMAT_END
309
TABLEFORMAT_END
  1
CELLSTYLE_BEGIN
 90
        3
 91
        2
300
_DATA
309
CELLSTYLE_END
  0
XRECORD
  5
378
102
{ACAD_REACTORS
330
377
102
}
330
377
100
AcDbXrecord
280
     1
102
ACAD_ROUNDTRIP_PRE2007_TABLESTYLE
 90
        4
 91
        0
  1

 92
        4
 93
        0
  2

 94
        4
 95
        0
  3

  0
XRECORD
  5
34A
102
{ACAD_REACTORS
330
349
102
}
330
349
100
AcDbXrecord
280
     1
102
RTVSPropertyOp0
 70
     1
102
RTVSPropertyOp1
 70
     1
102
RTVSPropertyOp2
 70
     1
102
RTVSPropertyOp3
 70
     1
102
RTVSPropertyOp4
 70
     1
102
RTVSPropertyOp5
 70
     1
102
RTVSPropertyOp6
 70
     1
102
RTVSPropertyOp7
 70
     1
102
RTVSPropertyOp8
 70
     1
102
RTVSPropertyOp9
 70
     1
102
RTVSPropertyOp10
 70
     1
102
RTVSPropertyOp11
 70
     1
102
RTVSPropertyOp12
 70
     1
102
RTVSPropertyOp13
 70
     1
102
RTVSPropertyOp14
 70
     1
102
RTVSPropertyOp15
 70
     1
102
RTVSPropertyOp16
 70
     1
102
RTVSPropertyOp17
 70
     1
102
RTVSPropertyOp18
 70
     1
102
RTVSPropertyOp19
 70
     1
102
RTVSPropertyOp20
 70
     1
102
RTVSPropertyOp21
 70
     1
102
RTVSPropertyOp22
 70
     1
102
RTVSPropertyOp23
 70
     1
102
RTVSPropertyOp24
 70
     1
102
RTVSPropertyOp25
 70
     1
102
RTVSPropertyOp26
 70
     1
102
RTVSPropertyOp27
 70
     1
102
RTVSPropertyOp28
 70
     1
102
RTVSPropertyOp29
 70
     1
102
RTVSPropertyOp30
 70
     1
102
RTVSPropertyOp31
 70
     1
102
RTVSPropertyOp32
 70
     1
102
RTVSPropertyOp33
 70
     1
102
RTVSPropertyOp34
 70
     1
102
RTVSPropertyOp35
 70
     1
102
RTVSPropertyOp36
 70
     1
102
RTVSPropertyOp37
 70
     1
102
RTVSPropertyOp38
 70
     1
102
RTVSPropertyOp39
 70
     1
102
RTVSPropertyOp40
 70
     1
102
RTVSPropertyOp41
 70
     1
102
RTVSPropertyOp42
 70
     1
102
RTVSPropertyOp43
 70
     1
102
RTVSPropertyOp44
 70
     1
102
RTVSPropertyOp45
 70
     1
102
RTVSPropertyOp46
 70
     1
102
RTVSPropertyOp47
 70
     1
102
RTVSPropertyOp48
 70
     1
102
RTVSPropertyOp49
 70
     1
102
RTVSPropertyOp50
 70
     1
102
RTVSPropertyOp51
 70
     0
102
RTVSPropertyOp52
 70
     0
102
RTVSPropertyOp53
 70
     1
102
RTVSPropertyOp54
 70
     1
102
RTVSPropertyOp55
 70
     1
102
RTVSPropertyOp56
 70
     1
102
RTVSPropertyOp57
 70
     1
102
RTVSPost2010Prop28
280
     1
102
RTVSPost2010PropOp28
 70
     1
102
RTVSPost2010Prop29
280
     1
102
RTVSPost2010PropOp29
 70
     1
102
RTVSPost2010Prop30
280
     0
102
RTVSPost2010PropOp30
 70
     1
102
RTVSPost2010Prop31
280
     0
102
RTVSPost2010PropOp31
 70
     1
102
RTVSPost2010Prop32
280
     0
102
RTVSPost2010PropOp32
 70
     1
102
RTVSPost2010Prop33
280
     0
102
RTVSPost2010PropOp33
 70
     1
102
RTVSPost2010Prop34
280
     0
102
RTVSPost2010PropOp34
 70
     1
102
RTVSPost2010Prop35
280
     0
102
RTVSPost2010PropOp35
 70
     1
102
RTVSPost2010Prop36
280
     0
102
RTVSPost2010PropOp36
 70
     1
102
RTVSPost2010Prop37
 90
       50
102
RTVSPost2010PropOp37
 70
     1
102
RTVSPost2010Prop38
140
0.0
102
RTVSPost2010PropOp38
 70
     1
102
RTVSPost2010Prop39
140
1.0
102
RTVSPost2010PropOp39
 70
     1
102
RTVSPost2010Prop40
 90
        0
102
RTVSPost2010PropOp40
 70
     1
102
RTVSPost2010Prop41ColorIndex
 90
       18
102
RTVSPost2010Prop41ColorRGB
 90
        0
102
RTVSPost2010PropOp41
 70
     1
102
RTVSPost2010Prop42
 90
       50
102
RTVSPost2010PropOp42
 70
     1
102
RTVSPost2010Prop43
 90
        3
102
RTVSPost2010PropOp43
 70
     1
102
RTVSPost2010Prop44ColorIndex
 90
        5
102
RTVSPost2010Prop44ColorRGB
 90
      255
102
RTVSPost2010PropOp44
 70
     1
102
RTVSPost2010Prop45
280
     0
102
RTVSPost2010PropOp45
 70
     1
102
RTVSPost2010Prop46
 90
       50
102
RTVSPost2010PropOp46
 70
     1
102
RTVSPost2010Prop47
 90
       50
102
RTVSPost2010PropOp47
 70
     1
102
RTVSPost2010Prop48
 90
       50
102
RTVSPost2010PropOp48
 70
     1
102
RTVSPost2010Prop49
280
     0
102
RTVSPost2010PropOp49
 70
     1
102
RTVSPost2010Prop50
 90
       50
102
RTVSPost2010PropOp50
 70
     1
102
RTVSPost2010Prop51ColorIndex
 90
      256
102
RTVSPost2010Prop51ColorRGB
 90
-16777216
102
RTVSPost2010PropOp51
 70
     0
102
RTVSPost2010Prop52
140
1.0
102
RTVSPost2010PropOp52
 70
     0
102
RTVSPost2010Prop53
 90
        2
102
RTVSPost2010PropOp53
 70
     1
102
RTVSPost2010Prop54
  1
strokes_ogs.tif
102
RTVSPost2010PropOp54
 70
     1
102
RTVSPost2010Prop55
280
     0
102
RTVSPost2010PropOp55
 70
     1
102
RTVSPost2010Prop56
140
1.0
102
RTVSPost2010PropOp56
 70
     1
102
RTVSPost2010Prop57
140
1.0
102
RTVSPost2010PropOp57
 70
     1
  0
XRECORD
  5
350
102
{ACAD_REACTORS
330
34F
102
}
330
34F
100
AcDbXrecord
280
     1
102
RTVSPropertyOp0
 70
     1
102
RTVSPropertyOp1
 70
     1
102
RTVSPropertyOp2
 70
     1
102
RTVSPropertyOp3
 70
     1
102
RTVSPropertyOp4
 70
     1
102
RTVSPropertyOp5
 70
     1
102
RTVSPropertyOp6
 70
     1
102
RTVSPropertyOp7
 70
     1
102
RTVSPropertyOp8
 70
     1
102
RTVSPropertyOp9
 70
     1
102
RTVSPropertyOp10
 70
     1
102
RTVSPropertyOp11
 70
     1
102
RTVSPropertyOp12
 70
     1
102
RTVSPropertyOp13
 70
     1
102
RTVSPropertyOp14
 70
     1
102
RTVSPropertyOp15
 70
     1
102
RTVSPropertyOp16
 70
     1
102
RTVSPropertyOp17
 70
     1
102
RTVSPropertyOp18
 70
     1
102
RTVSPropertyOp19
 70
     1
102
RTVSPropertyOp20
 70
     1
102
RTVSPropertyOp21
 70
     1
102
RTVSPropertyOp22
 70
     1
102
RTVSPropertyOp23
 70
     1
102
RTVSPropertyOp24
 70
     1
102
RTVSPropertyOp25
 70
     1
102
RTVSPropertyOp26
 70
     1
102
RTVSPropertyOp27
 70
     1
102
RTVSPropertyOp28
 70
     1
102
RTVSPropertyOp29
 70
     1
102
RTVSPropertyOp30
 70
     1
102
RTVSPropertyOp31
 70
     1
102
RTVSPropertyOp32
 70
     1
102
RTVSPropertyOp33
 70
     1
102
RTVSPropertyOp34
 70
     1
102
RTVSPropertyOp35
 70
     1
102
RTVSPropertyOp36
 70
     1
102
RTVSPropertyOp37
 70
     1
102
RTVSPropertyOp38
 70
     1
102
RTVSPropertyOp39
 70
     1
102
RTVSPropertyOp40
 70
     1
102
RTVSPropertyOp41
 70
     1
102
RTVSPropertyOp42
 70
     1
102
RTVSPropertyOp43
 70
     1
102
RTVSPropertyOp44
 70
     1
102
RTVSPropertyOp45
 70
     1
102
RTVSPropertyOp46
 70
     1
102
RTVSPropertyOp47
 70
     1
102
RTVSPropertyOp48
 70
     1
102
RTVSPropertyOp49
 70
     1
102
RTVSPropertyOp50
 70
     1
102
RTVSPropertyOp51
 70
     0
102
RTVSPropertyOp52
 70
     0
102
RTVSPropertyOp53
 70
     1
102
RTVSPropertyOp54
 70
     1
102
RTVSPropertyOp55
 70
     1
102
RTVSPropertyOp56
 70
     1
102
RTVSPropertyOp57
 70
     1
102
RTVSPost2010Prop28
280
     0
102
RTVSPost2010PropOp28
 70
     1
102
RTVSPost2010Prop29
280
     1
102
RTVSPost2010PropOp29
 70
     1
102
RTVSPost2010Prop30
280
     1
102
RTVSPost2010PropOp30
 70
     1
102
RTVSPost2010Prop31
280
     0
102
RTVSPost2010PropOp31
 70
     1
102
RTVSPost2010Prop32
280
     0
102
RTVSPost2010PropOp32
 70
     1
102
RTVSPost2010Prop33
280
     0
102
RTVSPost2010PropOp33
 70
     1
102
RTVSPost2010Prop34
280
     0
102
RTVSPost2010PropOp34
 70
     1
102
RTVSPost2010Prop35
280
     0
102
RTVSPost2010PropOp35
 70
     1
102
RTVSPost2010Prop36
280
     0
102
RTVSPost2010PropOp36
 70
     1
102
RTVSPost2010Prop37
 90
       50
102
RTVSPost2010PropOp37
 70
     1
102
RTVSPost2010Prop38
140
0.0
102
RTVSPost2010PropOp38
 70
     1
102
RTVSPost2010Prop39
140
1.0
102
RTVSPost2010PropOp39
 70
     1
102
RTVSPost2010Prop40
 90
        0
102
RTVSPost2010PropOp40
 70
     1
102
RTVSPost2010Prop41ColorIndex
 90
       18
102
RTVSPost2010Prop41ColorRGB
 90
        0
102
RTVSPost2010PropOp41
 70
     1
102
RTVSPost2010Prop42
 90
       50
102
RTVSPost2010PropOp42
 70
     1
102
RTVSPost2010Prop43
 90
        3
102
RTVSPost2010PropOp43
 70
     1
102
RTVSPost2010Prop44ColorIndex
 90
        5
102
RTVSPost2010Prop44ColorRGB
 90
      255
102
RTVSPost2010PropOp44
 70
     1
102
RTVSPost2010Prop45
280
     0
102
RTVSPost2010PropOp45
 70
     1
102
RTVSPost2010Prop46
 90
       50
102
RTVSPost2010PropOp46
 70
     1
102
RTVSPost2010Prop47
 90
       50
102
RTVSPost2010PropOp47
 70
     1
102
RTVSPost2010Prop48
 90
       50
102
RTVSPost2010PropOp48
 70
     1
102
RTVSPost2010Prop49
280
     0
102
RTVSPost2010PropOp49
 70
     1
102
RTVSPost2010Prop50
 90
       50
102
RTVSPost2010PropOp50
 70
     1
102
RTVSPost2010Prop51ColorIndex
 90
      256
102
RTVSPost2010Prop51ColorRGB
 90
-16777216
102
RTVSPost2010PropOp51
 70
     0
102
RTVSPost2010Prop52
140
1.0
102
RTVSPost2010PropOp52
 70
     0
102
RTVSPost2010Prop53
 90
        2
102
RTVSPost2010PropOp53
 70
     1
102
RTVSPost2010Prop54
  1
strokes_ogs.tif
102
RTVSPost2010PropOp54
 70
     1
102
RTVSPost2010Prop55
280
     0
102
RTVSPost2010PropOp55
 70
     1
102
RTVSPost2010Prop56
140
1.0
102
RTVSPost2010PropOp56
 70
     1
102
RTVSPost2010Prop57
140
1.0
102
RTVSPost2010PropOp57
 70
     1
  0
XRECORD
  5
358
102
{ACAD_REACTORS
330
357
102
}
330
357
100
AcDbXrecord
280
     1
102
RTVSPropertyOp0
 70
     1
102
RTVSPropertyOp1
 70
     1
102
RTVSPropertyOp2
 70
     1
102
RTVSPropertyOp3
 70
     1
102
RTVSPropertyOp4
 70
     1
102
RTVSPropertyOp5
 70
     1
102
RTVSPropertyOp6
 70
     1
102
RTVSPropertyOp7
 70
     1
102
RTVSPropertyOp8
 70
     1
102
RTVSPropertyOp9
 70
     1
102
RTVSPropertyOp10
 70
     1
102
RTVSPropertyOp11
 70
     1
102
RTVSPropertyOp12
 70
     1
102
RTVSPropertyOp13
 70
     1
102
RTVSPropertyOp14
 70
     1
102
RTVSPropertyOp15
 70
     1
102
RTVSPropertyOp16
 70
     1
102
RTVSPropertyOp17
 70
     1
102
RTVSPropertyOp18
 70
     1
102
RTVSPropertyOp19
 70
     1
102
RTVSPropertyOp20
 70
     1
102
RTVSPropertyOp21
 70
     1
102
RTVSPropertyOp22
 70
     1
102
RTVSPropertyOp23
 70
     1
102
RTVSPropertyOp24
 70
     1
102
RTVSPropertyOp25
 70
     1
102
RTVSPropertyOp26
 70
     1
102
RTVSPropertyOp27
 70
     1
102
RTVSPropertyOp28
 70
     1
102
RTVSPropertyOp29
 70
     1
102
RTVSPropertyOp30
 70
     1
102
RTVSPropertyOp31
 70
     1
102
RTVSPropertyOp32
 70
     1
102
RTVSPropertyOp33
 70
     1
102
RTVSPropertyOp34
 70
     1
102
RTVSPropertyOp35
 70
     1
102
RTVSPropertyOp36
 70
     1
102
RTVSPropertyOp37
 70
     1
102
RTVSPropertyOp38
 70
     1
102
RTVSPropertyOp39
 70
     1
102
RTVSPropertyOp40
 70
     1
102
RTVSPropertyOp41
 70
     1
102
RTVSPropertyOp42
 70
     1
102
RTVSPropertyOp43
 70
     1
102
RTVSPropertyOp44
 70
     1
102
RTVSPropertyOp45
 70
     1
102
RTVSPropertyOp46
 70
     1
102
RTVSPropertyOp47
 70
     1
102
RTVSPropertyOp48
 70
     1
102
RTVSPropertyOp49
 70
     1
102
RTVSPropertyOp50
 70
     1
102
RTVSPropertyOp51
 70
     0
102
RTVSPropertyOp52
 70
     0
102
RTVSPropertyOp53
 70
     1
102
RTVSPropertyOp54
 70
     1
102
RTVSPropertyOp55
 70
     1
102
RTVSPropertyOp56
 70
     1
102
RTVSPropertyOp57
 70
     1
102
RTVSPost2010Prop28
280
     0
102
RTVSPost2010PropOp28
 70
     1
102
RTVSPost2010Prop29
280
     1
102
RTVSPost2010PropOp29
 70
     1
102
RTVSPost2010Prop30
280
     1
102
RTVSPost2010PropOp30
 70
     1
102
RTVSPost2010Prop31
280
     0
102
RTVSPost2010PropOp31
 70
     1
102
RTVSPost2010Prop32
280
     0
102
RTVSPost2010PropOp32
 70
     1
102
RTVSPost2010Prop33
280
     0
102
RTVSPost2010PropOp33
 70
     1
102
RTVSPost2010Prop34
280
     0
102
RTVSPost2010PropOp34
 70
     1
102
RTVSPost2010Prop35
280
     0
102
RTVSPost2010PropOp35
 70
     1
102
RTVSPost2010Prop36
280
     0
102
RTVSPost2010PropOp36
 70
     1
102
RTVSPost2010Prop37
 90
       50
102
RTVSPost2010PropOp37
 70
     1
102
RTVSPost2010Prop38
140
0.0
102
RTVSPost2010PropOp38
 70
     1
102
RTVSPost2010Prop39
140
1.0
102
RTVSPost2010PropOp39
 70
     1
102
RTVSPost2010Prop40
 90
        0
102
RTVSPost2010PropOp40
 70
     1
102
RTVSPost2010Prop41ColorIndex
 90
       18
102
RTVSPost2010Prop41ColorRGB
 90
        0
102
RTVSPost2010PropOp41
 70
     1
102
RTVSPost2010Prop42
 90
       50
102
RTVSPost2010PropOp42
 70
     1
102
RTVSPost2010Prop43
 90
        3
102
RTVSPost2010PropOp43
 70
     1
102
RTVSPost2010Prop44ColorIndex
 90
        5
102
RTVSPost2010Prop44ColorRGB
 90
      255
102
RTVSPost2010PropOp44
 70
     1
102
RTVSPost2010Prop45
280
     0
102
RTVSPost2010PropOp45
 70
     1
102
RTVSPost2010Prop46
 90
       50
102
RTVSPost2010PropOp46
 70
     1
102
RTVSPost2010Prop47
 90
       50
102
RTVSPost2010PropOp47
 70
     1
102
RTVSPost2010Prop48
 90
       50
102
RTVSPost2010PropOp48
 70
     1
102
RTVSPost2010Prop49
280
     0
102
RTVSPost2010PropOp49
 70
     1
102
RTVSPost2010Prop50
 90
       50
102
RTVSPost2010PropOp50
 70
     1
102
RTVSPost2010Prop51ColorIndex
 90
      256
102
RTVSPost2010Prop51ColorRGB
 90
-16777216
102
RTVSPost2010PropOp51
 70
     0
102
RTVSPost2010Prop52
140
1.0
102
RTVSPost2010PropOp52
 70
     0
102
RTVSPost2010Prop53
 90
        2
102
RTVSPost2010PropOp53
 70
     1
102
RTVSPost2010Prop54
  1
strokes_ogs.tif
102
RTVSPost2010PropOp54
 70
     1
102
RTVSPost2010Prop55
280
     0
102
RTVSPost2010PropOp55
 70
     1
102
RTVSPost2010Prop56
140
1.0
102
RTVSPost2010PropOp56
 70
     1
102
RTVSPost2010Prop57
140
1.0
102
RTVSPost2010PropOp57
 70
     1
  0
XRECORD
  5
360
102
{ACAD_REACTORS
330
35F
102
}
330
35F
100
AcDbXrecord
280
     1
102
RTVSPropertyOp0
 70
     1
102
RTVSPropertyOp1
 70
     1
102
RTVSPropertyOp2
 70
     1
102
RTVSPropertyOp3
 70
     1
102
RTVSPropertyOp4
 70
     1
102
RTVSPropertyOp5
 70
     1
102
RTVSPropertyOp6
 70
     1
102
RTVSPropertyOp7
 70
     1
102
RTVSPropertyOp8
 70
     1
102
RTVSPropertyOp9
 70
     1
102
RTVSPropertyOp10
 70
     1
102
RTVSPropertyOp11
 70
     1
102
RTVSPropertyOp12
 70
     1
102
RTVSPropertyOp13
 70
     1
102
RTVSPropertyOp14
 70
     1
102
RTVSPropertyOp15
 70
     1
102
RTVSPropertyOp16
 70
     1
102
RTVSPropertyOp17
 70
     1
102
RTVSPropertyOp18
 70
     1
102
RTVSPropertyOp19
 70
     1
102
RTVSPropertyOp20
 70
     1
102
RTVSPropertyOp21
 70
     1
102
RTVSPropertyOp22
 70
     1
102
RTVSPropertyOp23
 70
     1
102
RTVSPropertyOp24
 70
     1
102
RTVSPropertyOp25
 70
     1
102
RTVSPropertyOp26
 70
     1
102
RTVSPropertyOp27
 70
     1
102
RTVSPropertyOp28
 70
     1
102
RTVSPropertyOp29
 70
     1
102
RTVSPropertyOp30
 70
     1
102
RTVSPropertyOp31
 70
     1
102
RTVSPropertyOp32
 70
     1
102
RTVSPropertyOp33
 70
     1
102
RTVSPropertyOp34
 70
     1
102
RTVSPropertyOp35
 70
     1
102
RTVSPropertyOp36
 70
     1
102
RTVSPropertyOp37
 70
     1
102
RTVSPropertyOp38
 70
     1
102
RTVSPropertyOp39
 70
     1
102
RTVSPropertyOp40
 70
     1
102
RTVSPropertyOp41
 70
     1
102
RTVSPropertyOp42
 70
     1
102
RTVSPropertyOp43
 70
     1
102
RTVSPropertyOp44
 70
     1
102
RTVSPropertyOp45
 70
     1
102
RTVSPropertyOp46
 70
     1
102
RTVSPropertyOp47
 70
     1
102
RTVSPropertyOp48
 70
     1
102
RTVSPropertyOp49
 70
     1
102
RTVSPropertyOp50
 70
     1
102
RTVSPropertyOp51
 70
     0
102
RTVSPropertyOp52
 70
     0
102
RTVSPropertyOp53
 70
     1
102
RTVSPropertyOp54
 70
     1
102
RTVSPropertyOp55
 70
     1
102
RTVSPropertyOp56
 70
     1
102
RTVSPropertyOp57
 70
     1
102
RTVSPost2010Prop28
280
     0
102
RTVSPost2010PropOp28
 70
     1
102
RTVSPost2010Prop29
280
     1
102
RTVSPost2010PropOp29
 70
     1
102
RTVSPost2010Prop30
280
     1
102
RTVSPost2010PropOp30
 70
     1
102
RTVSPost2010Prop31
280
     0
102
RTVSPost2010PropOp31
 70
     1
102
RTVSPost2010Prop32
280
     0
102
RTVSPost2010PropOp32
 70
     1
102
RTVSPost2010Prop33
280
     0
102
RTVSPost2010PropOp33
 70
     1
102
RTVSPost2010Prop34
280
     0
102
RTVSPost2010PropOp34
 70
     1
102
RTVSPost2010Prop35
280
     0
102
RTVSPost2010PropOp35
 70
     1
102
RTVSPost2010Prop36
280
     0
102
RTVSPost2010PropOp36
 70
     1
102
RTVSPost2010Prop37
 90
       50
102
RTVSPost2010PropOp37
 70
     1
102
RTVSPost2010Prop38
140
0.0
102
RTVSPost2010PropOp38
 70
     1
102
RTVSPost2010Prop39
140
1.0
102
RTVSPost2010PropOp39
 70
     1
102
RTVSPost2010Prop40
 90
        0
102
RTVSPost2010PropOp40
 70
     1
102
RTVSPost2010Prop41ColorIndex
 90
       18
102
RTVSPost2010Prop41ColorRGB
 90
        0
102
RTVSPost2010PropOp41
 70
     1
102
RTVSPost2010Prop42
 90
       50
102
RTVSPost2010PropOp42
 70
     1
102
RTVSPost2010Prop43
 90
        3
102
RTVSPost2010PropOp43
 70
     1
102
RTVSPost2010Prop44ColorIndex
 90
        5
102
RTVSPost2010Prop44ColorRGB
 90
      255
102
RTVSPost2010PropOp44
 70
     1
102
RTVSPost2010Prop45
280
     0
102
RTVSPost2010PropOp45
 70
     1
102
RTVSPost2010Prop46
 90
       50
102
RTVSPost2010PropOp46
 70
     1
102
RTVSPost2010Prop47
 90
       50
102
RTVSPost2010PropOp47
 70
     1
102
RTVSPost2010Prop48
 90
       50
102
RTVSPost2010PropOp48
 70
     1
102
RTVSPost2010Prop49
280
     0
102
RTVSPost2010PropOp49
 70
     1
102
RTVSPost2010Prop50
 90
       50
102
RTVSPost2010PropOp50
 70
     1
102
RTVSPost2010Prop51ColorIndex
 90
      256
102
RTVSPost2010Prop51ColorRGB
 90
-16777216
102
RTVSPost2010PropOp51
 70
     0
102
RTVSPost2010Prop52
140
1.0
102
RTVSPost2010PropOp52
 70
     0
102
RTVSPost2010Prop53
 90
        2
102
RTVSPost2010PropOp53
 70
     1
102
RTVSPost2010Prop54
  1
strokes_ogs.tif
102
RTVSPost2010PropOp54
 70
     1
102
RTVSPost2010Prop55
280
     0
102
RTVSPost2010PropOp55
 70
     1
102
RTVSPost2010Prop56
140
1.0
102
RTVSPost2010PropOp56
 70
     1
102
RTVSPost2010Prop57
140
1.0
102
RTVSPost2010PropOp57
 70
     1
  0
XRECORD
  5
354
102
{ACAD_REACTORS
330
353
102
}
330
353
100
AcDbXrecord
280
     1
102
RTVSPropertyOp0
 70
     1
102
RTVSPropertyOp1
 70
     1
102
RTVSPropertyOp2
 70
     1
102
RTVSPropertyOp3
 70
     1
102
RTVSPropertyOp4
 70
     1
102
RTVSPropertyOp5
 70
     1
102
RTVSPropertyOp6
 70
     1
102
RTVSPropertyOp7
 70
     1
102
RTVSPropertyOp8
 70
     1
102
RTVSPropertyOp9
 70
     1
102
RTVSPropertyOp10
 70
     1
102
RTVSPropertyOp11
 70
     1
102
RTVSPropertyOp12
 70
     1
102
RTVSPropertyOp13
 70
     1
102
RTVSPropertyOp14
 70
     1
102
RTVSPropertyOp15
 70
     1
102
RTVSPropertyOp16
 70
     1
102
RTVSPropertyOp17
 70
     1
102
RTVSPropertyOp18
 70
     1
102
RTVSPropertyOp19
 70
     1
102
RTVSPropertyOp20
 70
     1
102
RTVSPropertyOp21
 70
     1
102
RTVSPropertyOp22
 70
     1
102
RTVSPropertyOp23
 70
     1
102
RTVSPropertyOp24
 70
     1
102
RTVSPropertyOp25
 70
     1
102
RTVSPropertyOp26
 70
     1
102
RTVSPropertyOp27
 70
     1
102
RTVSPropertyOp28
 70
     1
102
RTVSPropertyOp29
 70
     1
102
RTVSPropertyOp30
 70
     1
102
RTVSPropertyOp31
 70
     1
102
RTVSPropertyOp32
 70
     1
102
RTVSPropertyOp33
 70
     1
102
RTVSPropertyOp34
 70
     1
102
RTVSPropertyOp35
 70
     1
102
RTVSPropertyOp36
 70
     1
102
RTVSPropertyOp37
 70
     1
102
RTVSPropertyOp38
 70
     1
102
RTVSPropertyOp39
 70
     1
102
RTVSPropertyOp40
 70
     1
102
RTVSPropertyOp41
 70
     1
102
RTVSPropertyOp42
 70
     1
102
RTVSPropertyOp43
 70
     1
102
RTVSPropertyOp44
 70
     1
102
RTVSPropertyOp45
 70
     1
102
RTVSPropertyOp46
 70
     1
102
RTVSPropertyOp47
 70
     1
102
RTVSPropertyOp48
 70
     1
102
RTVSPropertyOp49
 70
     1
102
RTVSPropertyOp50
 70
     1
102
RTVSPropertyOp51
 70
     0
102
RTVSPropertyOp52
 70
     0
102
RTVSPropertyOp53
 70
     1
102
RTVSPropertyOp54
 70
     1
102
RTVSPropertyOp55
 70
     1
102
RTVSPropertyOp56
 70
     1
102
RTVSPropertyOp57
 70
     1
102
RTVSPost2010Prop28
280
     0
102
RTVSPost2010PropOp28
 70
     1
102
RTVSPost2010Prop29
280
     1
102
RTVSPost2010PropOp29
 70
     1
102
RTVSPost2010Prop30
280
     1
102
RTVSPost2010PropOp30
 70
     1
102
RTVSPost2010Prop31
280
     0
102
RTVSPost2010PropOp31
 70
     1
102
RTVSPost2010Prop32
280
     0
102
RTVSPost2010PropOp32
 70
     1
102
RTVSPost2010Prop33
280
     0
102
RTVSPost2010PropOp33
 70
     1
102
RTVSPost2010Prop34
280
     0
102
RTVSPost2010PropOp34
 70
     1
102
RTVSPost2010Prop35
280
     0
102
RTVSPost2010PropOp35
 70
     1
102
RTVSPost2010Prop36
280
     0
102
RTVSPost2010PropOp36
 70
     1
102
RTVSPost2010Prop37
 90
       50
102
RTVSPost2010PropOp37
 70
     1
102
RTVSPost2010Prop38
140
0.0
102
RTVSPost2010PropOp38
 70
     1
102
RTVSPost2010Prop39
140
1.0
102
RTVSPost2010PropOp39
 70
     1
102
RTVSPost2010Prop40
 90
        0
102
RTVSPost2010PropOp40
 70
     1
102
RTVSPost2010Prop41ColorIndex
 90
       18
102
RTVSPost2010Prop41ColorRGB
 90
        0
102
RTVSPost2010PropOp41
 70
     1
102
RTVSPost2010Prop42
 90
       50
102
RTVSPost2010PropOp42
 70
     1
102
RTVSPost2010Prop43
 90
        3
102
RTVSPost2010PropOp43
 70
     1
102
RTVSPost2010Prop44ColorIndex
 90
        5
102
RTVSPost2010Prop44ColorRGB
 90
      255
102
RTVSPost2010PropOp44
 70
     1
102
RTVSPost2010Prop45
280
     0
102
RTVSPost2010PropOp45
 70
     1
102
RTVSPost2010Prop46
 90
       50
102
RTVSPost2010PropOp46
 70
     1
102
RTVSPost2010Prop47
 90
       50
102
RTVSPost2010PropOp47
 70
     1
102
RTVSPost2010Prop48
 90
       50
102
RTVSPost2010PropOp48
 70
     1
102
RTVSPost2010Prop49
280
     0
102
RTVSPost2010PropOp49
 70
     1
102
RTVSPost2010Prop50
 90
       50
102
RTVSPost2010PropOp50
 70
     1
102
RTVSPost2010Prop51ColorIndex
 90
      256
102
RTVSPost2010Prop51ColorRGB
 90
-16777216
102
RTVSPost2010PropOp51
 70
     0
102
RTVSPost2010Prop52
140
1.0
102
RTVSPost2010PropOp52
 70
     0
102
RTVSPost2010Prop53
 90
        2
102
RTVSPost2010PropOp53
 70
     1
102
RTVSPost2010Prop54
  1
strokes_ogs.tif
102
RTVSPost2010PropOp54
 70
     1
102
RTVSPost2010Prop55
280
     0
102
RTVSPost2010PropOp55
 70
     1
102
RTVSPost2010Prop56
140
1.0
102
RTVSPost2010PropOp56
 70
     1
102
RTVSPost2010Prop57
140
1.0
102
RTVSPost2010PropOp57
 70
     1
  0
XRECORD
  5
356
102
{ACAD_REACTORS
330
355
102
}
330
355
100
AcDbXrecord
280
     1
102
RTVSPropertyOp0
 70
     1
102
RTVSPropertyOp1
 70
     1
102
RTVSPropertyOp2
 70
     1
102
RTVSPropertyOp3
 70
     1
102
RTVSPropertyOp4
 70
     1
102
RTVSPropertyOp5
 70
     1
102
RTVSPropertyOp6
 70
     1
102
RTVSPropertyOp7
 70
     1
102
RTVSPropertyOp8
 70
     1
102
RTVSPropertyOp9
 70
     1
102
RTVSPropertyOp10
 70
     1
102
RTVSPropertyOp11
 70
     1
102
RTVSPropertyOp12
 70
     1
102
RTVSPropertyOp13
 70
     1
102
RTVSPropertyOp14
 70
     1
102
RTVSPropertyOp15
 70
     1
102
RTVSPropertyOp16
 70
     1
102
RTVSPropertyOp17
 70
     1
102
RTVSPropertyOp18
 70
     1
102
RTVSPropertyOp19
 70
     1
102
RTVSPropertyOp20
 70
     1
102
RTVSPropertyOp21
 70
     1
102
RTVSPropertyOp22
 70
     1
102
RTVSPropertyOp23
 70
     1
102
RTVSPropertyOp24
 70
     1
102
RTVSPropertyOp25
 70
     1
102
RTVSPropertyOp26
 70
     1
102
RTVSPropertyOp27
 70
     1
102
RTVSPropertyOp28
 70
     1
102
RTVSPropertyOp29
 70
     1
102
RTVSPropertyOp30
 70
     1
102
RTVSPropertyOp31
 70
     1
102
RTVSPropertyOp32
 70
     1
102
RTVSPropertyOp33
 70
     1
102
RTVSPropertyOp34
 70
     1
102
RTVSPropertyOp35
 70
     1
102
RTVSPropertyOp36
 70
     1
102
RTVSPropertyOp37
 70
     1
102
RTVSPropertyOp38
 70
     1
102
RTVSPropertyOp39
 70
     1
102
RTVSPropertyOp40
 70
     1
102
RTVSPropertyOp41
 70
     1
102
RTVSPropertyOp42
 70
     1
102
RTVSPropertyOp43
 70
     1
102
RTVSPropertyOp44
 70
     1
102
RTVSPropertyOp45
 70
     1
102
RTVSPropertyOp46
 70
     1
102
RTVSPropertyOp47
 70
     1
102
RTVSPropertyOp48
 70
     1
102
RTVSPropertyOp49
 70
     1
102
RTVSPropertyOp50
 70
     1
102
RTVSPropertyOp51
 70
     0
102
RTVSPropertyOp52
 70
     0
102
RTVSPropertyOp53
 70
     1
102
RTVSPropertyOp54
 70
     1
102
RTVSPropertyOp55
 70
     1
102
RTVSPropertyOp56
 70
     1
102
RTVSPropertyOp57
 70
     1
102
RTVSPost2010Prop28
280
     0
102
RTVSPost2010PropOp28
 70
     1
102
RTVSPost2010Prop29
280
     1
102
RTVSPost2010PropOp29
 70
     1
102
RTVSPost2010Prop30
280
     1
102
RTVSPost2010PropOp30
 70
     1
102
RTVSPost2010Prop31
280
     0
102
RTVSPost2010PropOp31
 70
     1
102
RTVSPost2010Prop32
280
     0
102
RTVSPost2010PropOp32
 70
     1
102
RTVSPost2010Prop33
280
     0
102
RTVSPost2010PropOp33
 70
     1
102
RTVSPost2010Prop34
280
     0
102
RTVSPost2010PropOp34
 70
     1
102
RTVSPost2010Prop35
280
     0
102
RTVSPost2010PropOp35
 70
     1
102
RTVSPost2010Prop36
280
     0
102
RTVSPost2010PropOp36
 70
     1
102
RTVSPost2010Prop37
 90
       50
102
RTVSPost2010PropOp37
 70
     1
102
RTVSPost2010Prop38
140
0.0
102
RTVSPost2010PropOp38
 70
     1
102
RTVSPost2010Prop39
140
1.0
102
RTVSPost2010PropOp39
 70
     1
102
RTVSPost2010Prop40
 90
        0
102
RTVSPost2010PropOp40
 70
     1
102
RTVSPost2010Prop41ColorIndex
 90
       18
102
RTVSPost2010Prop41ColorRGB
 90
        0
102
RTVSPost2010PropOp41
 70
     1
102
RTVSPost2010Prop42
 90
       50
102
RTVSPost2010PropOp42
 70
     1
102
RTVSPost2010Prop43
 90
        3
102
RTVSPost2010PropOp43
 70
     1
102
RTVSPost2010Prop44ColorIndex
 90
        5
102
RTVSPost2010Prop44ColorRGB
 90
      255
102
RTVSPost2010PropOp44
 70
     1
102
RTVSPost2010Prop45
280
     0
102
RTVSPost2010PropOp45
 70
     1
102
RTVSPost2010Prop46
 90
       50
102
RTVSPost2010PropOp46
 70
     1
102
RTVSPost2010Prop47
 90
       50
102
RTVSPost2010PropOp47
 70
     1
102
RTVSPost2010Prop48
 90
       50
102
RTVSPost2010PropOp48
 70
     1
102
RTVSPost2010Prop49
280
     0
102
RTVSPost2010PropOp49
 70
     1
102
RTVSPost2010Prop50
 90
       50
102
RTVSPost2010PropOp50
 70
     1
102
RTVSPost2010Prop51ColorIndex
 90
      256
102
RTVSPost2010Prop51ColorRGB
 90
-16777216
102
RTVSPost2010PropOp51
 70
     0
102
RTVSPost2010Prop52
140
1.0
102
RTVSPost2010PropOp52
 70
     0
102
RTVSPost2010Prop53
 90
        2
102
RTVSPost2010PropOp53
 70
     1
102
RTVSPost2010Prop54
  1
strokes_ogs.tif
102
RTVSPost2010PropOp54
 70
     1
102
RTVSPost2010Prop55
280
     0
102
RTVSPost2010PropOp55
 70
     1
102
RTVSPost2010Prop56
140
1.0
102
RTVSPost2010PropOp56
 70
     1
102
RTVSPost2010Prop57
140
1.0
102
RTVSPost2010PropOp57
 70
     1
  0
XRECORD
  5
366
102
{ACAD_REACTORS
330
365
102
}
330
365
100
AcDbXrecord
280
     1
102
RTVSPropertyOp0
 70
     0
102
RTVSPropertyOp1
 70
     0
102
RTVSPropertyOp2
 70
     0
102
RTVSPropertyOp3
 70
     0
102
RTVSPropertyOp4
 70
     0
102
RTVSPropertyOp5
 70
     0
102
RTVSPropertyOp6
 70
     0
102
RTVSPropertyOp7
 70
     0
102
RTVSPropertyOp8
 70
     0
102
RTVSPropertyOp9
 70
     0
102
RTVSPropertyOp10
 70
     0
102
RTVSPropertyOp11
 70
     0
102
RTVSPropertyOp12
 70
     0
102
RTVSPropertyOp13
 70
     0
102
RTVSPropertyOp14
 70
     2
102
RTVSPropertyOp15
 70
     0
102
RTVSPropertyOp16
 70
     0
102
RTVSPropertyOp17
 70
     0
102
RTVSPropertyOp18
 70
     0
102
RTVSPropertyOp19
 70
     0
102
RTVSPropertyOp20
 70
     0
102
RTVSPropertyOp21
 70
     0
102
RTVSPropertyOp22
 70
     0
102
RTVSPropertyOp23
 70
     0
102
RTVSPropertyOp24
 70
     0
102
RTVSPropertyOp25
 70
     0
102
RTVSPropertyOp26
 70
     0
102
RTVSPropertyOp27
 70
     0
102
RTVSPropertyOp28
 70
     0
102
RTVSPropertyOp29
 70
     0
102
RTVSPropertyOp30
 70
     0
102
RTVSPropertyOp31
 70
     0
102
RTVSPropertyOp32
 70
     0
102
RTVSPropertyOp33
 70
     0
102
RTVSPropertyOp34
 70
     0
102
RTVSPropertyOp35
 70
     0
102
RTVSPropertyOp36
 70
     0
102
RTVSPropertyOp37
 70
     0
102
RTVSPropertyOp38
 70
     0
102
RTVSPropertyOp39
 70
     0
102
RTVSPropertyOp40
 70
     0
102
RTVSPropertyOp41
 70
     0
102
RTVSPropertyOp42
 70
     0
102
RTVSPropertyOp43
 70
     0
102
RTVSPropertyOp44
 70
     0
102
RTVSPropertyOp45
 70
     0
102
RTVSPropertyOp46
 70
     0
102
RTVSPropertyOp47
 70
     0
102
RTVSPropertyOp48
 70
     0
102
RTVSPropertyOp49
 70
     0
102
RTVSPropertyOp50
 70
     0
102
RTVSPropertyOp51
 70
     0
102
RTVSPropertyOp52
 70
     0
102
RTVSPropertyOp53
 70
     0
102
RTVSPropertyOp54
 70
     0
102
RTVSPropertyOp55
 70
     0
102
RTVSPropertyOp56
 70
     0
102
RTVSPropertyOp57
 70
     0
102
RTVSPost2010Prop28
280
     0
102
RTVSPost2010PropOp28
 70
     0
102
RTVSPost2010Prop29
280
     1
102
RTVSPost2010PropOp29
 70
     0
102
RTVSPost2010Prop30
280
     1
102
RTVSPost2010PropOp30
 70
     0
102
RTVSPost2010Prop31
280
     0
102
RTVSPost2010PropOp31
 70
     0
102
RTVSPost2010Prop32
280
     0
102
RTVSPost2010PropOp32
 70
     0
102
RTVSPost2010Prop33
280
     0
102
RTVSPost2010PropOp33
 70
     0
102
RTVSPost2010Prop34
280
     0
102
RTVSPost2010PropOp34
 70
     0
102
RTVSPost2010Prop35
280
     0
102
RTVSPost2010PropOp35
 70
     0
102
RTVSPost2010Prop36
280
     0
102
RTVSPost2010PropOp36
 70
     0
102
RTVSPost2010Prop37
 90
       50
102
RTVSPost2010PropOp37
 70
     0
102
RTVSPost2010Prop38
140
0.0
102
RTVSPost2010PropOp38
 70
     0
102
RTVSPost2010Prop39
140
1.0
102
RTVSPost2010PropOp39
 70
     0
102
RTVSPost2010Prop40
 90
        0
102
RTVSPost2010PropOp40
 70
     0
102
RTVSPost2010Prop41ColorIndex
 90
       18
102
RTVSPost2010Prop41ColorRGB
 90
        0
102
RTVSPost2010PropOp41
 70
     0
102
RTVSPost2010Prop42
 90
       50
102
RTVSPost2010PropOp42
 70
     0
102
RTVSPost2010Prop43
 90
        3
102
RTVSPost2010PropOp43
 70
     0
102
RTVSPost2010Prop44ColorIndex
 90
        5
102
RTVSPost2010Prop44ColorRGB
 90
      255
102
RTVSPost2010PropOp44
 70
     0
102
RTVSPost2010Prop45
280
     0
102
RTVSPost2010PropOp45
 70
     0
102
RTVSPost2010Prop46
 90
       50
102
RTVSPost2010PropOp46
 70
     0
102
RTVSPost2010Prop47
 90
       50
102
RTVSPost2010PropOp47
 70
     0
102
RTVSPost2010Prop48
 90
       50
102
RTVSPost2010PropOp48
 70
     0
102
RTVSPost2010Prop49
280
     0
102
RTVSPost2010PropOp49
 70
     0
102
RTVSPost2010Prop50
 90
       50
102
RTVSPost2010PropOp50
 70
     0
102
RTVSPost2010Prop51ColorIndex
 90
      256
102
RTVSPost2010Prop51ColorRGB
 90
-16777216
102
RTVSPost2010PropOp51
 70
     0
102
RTVSPost2010Prop52
140
1.0
102
RTVSPost2010PropOp52
 70
     0
102
RTVSPost2010Prop53
 90
        2
102
RTVSPost2010PropOp53
 70
     0
102
RTVSPost2010Prop54
  1
strokes_ogs.tif
102
RTVSPost2010PropOp54
 70
     0
102
RTVSPost2010Prop55
280
     0
102
RTVSPost2010PropOp55
 70
     0
102
RTVSPost2010Prop56
140
1.0
102
RTVSPost2010PropOp56
 70
     0
102
RTVSPost2010Prop57
140
1.0
102
RTVSPost2010PropOp57
 70
     0
  0
XRECORD
  5
35E
102
{ACAD_REACTORS
330
35D
102
}
330
35D
100
AcDbXrecord
280
     1
102
RTVSPropertyOp0
 70
     1
102
RTVSPropertyOp1
 70
     1
102
RTVSPropertyOp2
 70
     1
102
RTVSPropertyOp3
 70
     1
102
RTVSPropertyOp4
 70
     1
102
RTVSPropertyOp5
 70
     1
102
RTVSPropertyOp6
 70
     1
102
RTVSPropertyOp7
 70
     1
102
RTVSPropertyOp8
 70
     1
102
RTVSPropertyOp9
 70
     1
102
RTVSPropertyOp10
 70
     1
102
RTVSPropertyOp11
 70
     1
102
RTVSPropertyOp12
 70
     1
102
RTVSPropertyOp13
 70
     1
102
RTVSPropertyOp14
 70
     1
102
RTVSPropertyOp15
 70
     1
102
RTVSPropertyOp16
 70
     1
102
RTVSPropertyOp17
 70
     1
102
RTVSPropertyOp18
 70
     1
102
RTVSPropertyOp19
 70
     1
102
RTVSPropertyOp20
 70
     1
102
RTVSPropertyOp21
 70
     1
102
RTVSPropertyOp22
 70
     1
102
RTVSPropertyOp23
 70
     1
102
RTVSPropertyOp24
 70
     1
102
RTVSPropertyOp25
 70
     1
102
RTVSPropertyOp26
 70
     1
102
RTVSPropertyOp27
 70
     1
102
RTVSPropertyOp28
 70
     1
102
RTVSPropertyOp29
 70
     1
102
RTVSPropertyOp30
 70
     1
102
RTVSPropertyOp31
 70
     1
102
RTVSPropertyOp32
 70
     1
102
RTVSPropertyOp33
 70
     1
102
RTVSPropertyOp34
 70
     1
102
RTVSPropertyOp35
 70
     1
102
RTVSPropertyOp36
 70
     1
102
RTVSPropertyOp37
 70
     1
102
RTVSPropertyOp38
 70
     1
102
RTVSPropertyOp39
 70
     1
102
RTVSPropertyOp40
 70
     1
102
RTVSPropertyOp41
 70
     1
102
RTVSPropertyOp42
 70
     1
102
RTVSPropertyOp43
 70
     1
102
RTVSPropertyOp44
 70
     1
102
RTVSPropertyOp45
 70
     1
102
RTVSPropertyOp46
 70
     1
102
RTVSPropertyOp47
 70
     1
102
RTVSPropertyOp48
 70
     1
102
RTVSPropertyOp49
 70
     1
102
RTVSPropertyOp50
 70
     1
102
RTVSPropertyOp51
 70
     0
102
RTVSPropertyOp52
 70
     0
102
RTVSPropertyOp53
 70
     1
102
RTVSPropertyOp54
 70
     1
102
RTVSPropertyOp55
 70
     1
102
RTVSPropertyOp56
 70
     1
102
RTVSPropertyOp57
 70
     1
102
RTVSPost2010Prop28
280
     0
102
RTVSPost2010PropOp28
 70
     1
102
RTVSPost2010Prop29
280
     1
102
RTVSPost2010PropOp29
 70
     1
102
RTVSPost2010Prop30
280
     1
102
RTVSPost2010PropOp30
 70
     1
102
RTVSPost2010Prop31
280
     0
102
RTVSPost2010PropOp31
 70
     1
102
RTVSPost2010Prop32
280
     0
102
RTVSPost2010PropOp32
 70
     1
102
RTVSPost2010Prop33
280
     0
102
RTVSPost2010PropOp33
 70
     1
102
RTVSPost2010Prop34
280
     0
102
RTVSPost2010PropOp34
 70
     1
102
RTVSPost2010Prop35
280
     0
102
RTVSPost2010PropOp35
 70
     1
102
RTVSPost2010Prop36
280
     0
102
RTVSPost2010PropOp36
 70
     1
102
RTVSPost2010Prop37
 90
       50
102
RTVSPost2010PropOp37
 70
     1
102
RTVSPost2010Prop38
140
0.0
102
RTVSPost2010PropOp38
 70
     1
102
RTVSPost2010Prop39
140
1.0
102
RTVSPost2010PropOp39
 70
     1
102
RTVSPost2010Prop40
 90
        0
102
RTVSPost2010PropOp40
 70
     1
102
RTVSPost2010Prop41ColorIndex
 90
       18
102
RTVSPost2010Prop41ColorRGB
 90
        0
102
RTVSPost2010PropOp41
 70
     1
102
RTVSPost2010Prop42
 90
       50
102
RTVSPost2010PropOp42
 70
     1
102
RTVSPost2010Prop43
 90
        3
102
RTVSPost2010PropOp43
 70
     1
102
RTVSPost2010Prop44ColorIndex
 90
        5
102
RTVSPost2010Prop44ColorRGB
 90
      255
102
RTVSPost2010PropOp44
 70
     1
102
RTVSPost2010Prop45
280
     0
102
RTVSPost2010PropOp45
 70
     1
102
RTVSPost2010Prop46
 90
       50
102
RTVSPost2010PropOp46
 70
     1
102
RTVSPost2010Prop47
 90
       50
102
RTVSPost2010PropOp47
 70
     1
102
RTVSPost2010Prop48
 90
       50
102
RTVSPost2010PropOp48
 70
     1
102
RTVSPost2010Prop49
280
     0
102
RTVSPost2010PropOp49
 70
     1
102
RTVSPost2010Prop50
 90
       50
102
RTVSPost2010PropOp50
 70
     1
102
RTVSPost2010Prop51ColorIndex
 90
      256
102
RTVSPost2010Prop51ColorRGB
 90
-16777216
102
RTVSPost2010PropOp51
 70
     0
102
RTVSPost2010Prop52
140
1.0
102
RTVSPost2010PropOp52
 70
     0
102
RTVSPost2010Prop53
 90
        2
102
RTVSPost2010PropOp53
 70
     1
102
RTVSPost2010Prop54
  1
strokes_ogs.tif
102
RTVSPost2010PropOp54
 70
     1
102
RTVSPost2010Prop55
280
     0
102
RTVSPost2010PropOp55
 70
     1
102
RTVSPost2010Prop56
140
1.0
102
RTVSPost2010PropOp56
 70
     1
102
RTVSPost2010Prop57
140
1.0
102
RTVSPost2010PropOp57
 70
     1
  0
XRECORD
  5
342
102
{ACAD_REACTORS
330
341
102
}
330
341
100
AcDbXrecord
280
     1
102
RTVSPropertyOp0
 70
     1
102
RTVSPropertyOp1
 70
     1
102
RTVSPropertyOp2
 70
     1
102
RTVSPropertyOp3
 70
     1
102
RTVSPropertyOp4
 70
     1
102
RTVSPropertyOp5
 70
     1
102
RTVSPropertyOp6
 70
     1
102
RTVSPropertyOp7
 70
     1
102
RTVSPropertyOp8
 70
     1
102
RTVSPropertyOp9
 70
     1
102
RTVSPropertyOp10
 70
     1
102
RTVSPropertyOp11
 70
     1
102
RTVSPropertyOp12
 70
     1
102
RTVSPropertyOp13
 70
     1
102
RTVSPropertyOp14
 70
     1
102
RTVSPropertyOp15
 70
     1
102
RTVSPropertyOp16
 70
     1
102
RTVSPropertyOp17
 70
     1
102
RTVSPropertyOp18
 70
     1
102
RTVSPropertyOp19
 70
     1
102
RTVSPropertyOp20
 70
     1
102
RTVSPropertyOp21
 70
     1
102
RTVSPropertyOp22
 70
     1
102
RTVSPropertyOp23
 70
     1
102
RTVSPropertyOp24
 70
     1
102
RTVSPropertyOp25
 70
     1
102
RTVSPropertyOp26
 70
     1
102
RTVSPropertyOp27
 70
     1
102
RTVSPropertyOp28
 70
     1
102
RTVSPropertyOp29
 70
     1
102
RTVSPropertyOp30
 70
     1
102
RTVSPropertyOp31
 70
     1
102
RTVSPropertyOp32
 70
     1
102
RTVSPropertyOp33
 70
     1
102
RTVSPropertyOp34
 70
     1
102
RTVSPropertyOp35
 70
     1
102
RTVSPropertyOp36
 70
     1
102
RTVSPropertyOp37
 70
     1
102
RTVSPropertyOp38
 70
     1
102
RTVSPropertyOp39
 70
     1
102
RTVSPropertyOp40
 70
     1
102
RTVSPropertyOp41
 70
     1
102
RTVSPropertyOp42
 70
     1
102
RTVSPropertyOp43
 70
     1
102
RTVSPropertyOp44
 70
     1
102
RTVSPropertyOp45
 70
     1
102
RTVSPropertyOp46
 70
     1
102
RTVSPropertyOp47
 70
     1
102
RTVSPropertyOp48
 70
     1
102
RTVSPropertyOp49
 70
     1
102
RTVSPropertyOp50
 70
     1
102
RTVSPropertyOp51
 70
     0
102
RTVSPropertyOp52
 70
     0
102
RTVSPropertyOp53
 70
     1
102
RTVSPropertyOp54
 70
     1
102
RTVSPropertyOp55
 70
     1
102
RTVSPropertyOp56
 70
     1
102
RTVSPropertyOp57
 70
     1
102
RTVSPost2010Prop28
280
     0
102
RTVSPost2010PropOp28
 70
     1
102
RTVSPost2010Prop29
280
     1
102
RTVSPost2010PropOp29
 70
     1
102
RTVSPost2010Prop30
280
     1
102
RTVSPost2010PropOp30
 70
     1
102
RTVSPost2010Prop31
280
     0
102
RTVSPost2010PropOp31
 70
     1
102
RTVSPost2010Prop32
280
     0
102
RTVSPost2010PropOp32
 70
     1
102
RTVSPost2010Prop33
280
     0
102
RTVSPost2010PropOp33
 70
     1
102
RTVSPost2010Prop34
280
     0
102
RTVSPost2010PropOp34
 70
     1
102
RTVSPost2010Prop35
280
     0
102
RTVSPost2010PropOp35
 70
     1
102
RTVSPost2010Prop36
280
     0
102
RTVSPost2010PropOp36
 70
     1
102
RTVSPost2010Prop37
 90
       50
102
RTVSPost2010PropOp37
 70
     1
102
RTVSPost2010Prop38
140
0.0
102
RTVSPost2010PropOp38
 70
     1
102
RTVSPost2010Prop39
140
1.0
102
RTVSPost2010PropOp39
 70
     1
102
RTVSPost2010Prop40
 90
        0
102
RTVSPost2010PropOp40
 70
     1
102
RTVSPost2010Prop41ColorIndex
 90
       18
102
RTVSPost2010Prop41ColorRGB
 90
        0
102
RTVSPost2010PropOp41
 70
     1
102
RTVSPost2010Prop42
 90
       50
102
RTVSPost2010PropOp42
 70
     1
102
RTVSPost2010Prop43
 90
        3
102
RTVSPost2010PropOp43
 70
     1
102
RTVSPost2010Prop44ColorIndex
 90
        5
102
RTVSPost2010Prop44ColorRGB
 90
      255
102
RTVSPost2010PropOp44
 70
     1
102
RTVSPost2010Prop45
280
     0
102
RTVSPost2010PropOp45
 70
     1
102
RTVSPost2010Prop46
 90
       50
102
RTVSPost2010PropOp46
 70
     1
102
RTVSPost2010Prop47
 90
       50
102
RTVSPost2010PropOp47
 70
     1
102
RTVSPost2010Prop48
 90
       50
102
RTVSPost2010PropOp48
 70
     1
102
RTVSPost2010Prop49
280
     0
102
RTVSPost2010PropOp49
 70
     1
102
RTVSPost2010Prop50
 90
       50
102
RTVSPost2010PropOp50
 70
     1
102
RTVSPost2010Prop51ColorIndex
 90
      256
102
RTVSPost2010Prop51ColorRGB
 90
-16777216
102
RTVSPost2010PropOp51
 70
     0
102
RTVSPost2010Prop52
140
1.0
102
RTVSPost2010PropOp52
 70
     0
102
RTVSPost2010Prop53
 90
        2
102
RTVSPost2010PropOp53
 70
     1
102
RTVSPost2010Prop54
  1
strokes_ogs.tif
102
RTVSPost2010PropOp54
 70
     1
102
RTVSPost2010Prop55
280
     0
102
RTVSPost2010PropOp55
 70
     1
102
RTVSPost2010Prop56
140
1.0
102
RTVSPost2010PropOp56
 70
     1
102
RTVSPost2010Prop57
140
1.0
102
RTVSPost2010PropOp57
 70
     1
  0
XRECORD
  5
344
102
{ACAD_REACTORS
330
343
102
}
330
343
100
AcDbXrecord
280
     1
102
RTVSPropertyOp0
 70
     1
102
RTVSPropertyOp1
 70
     1
102
RTVSPropertyOp2
 70
     1
102
RTVSPropertyOp3
 70
     1
102
RTVSPropertyOp4
 70
     1
102
RTVSPropertyOp5
 70
     1
102
RTVSPropertyOp6
 70
     1
102
RTVSPropertyOp7
 70
     1
102
RTVSPropertyOp8
 70
     1
102
RTVSPropertyOp9
 70
     1
102
RTVSPropertyOp10
 70
     1
102
RTVSPropertyOp11
 70
     1
102
RTVSPropertyOp12
 70
     1
102
RTVSPropertyOp13
 70
     1
102
RTVSPropertyOp14
 70
     1
102
RTVSPropertyOp15
 70
     1
102
RTVSPropertyOp16
 70
     1
102
RTVSPropertyOp17
 70
     1
102
RTVSPropertyOp18
 70
     1
102
RTVSPropertyOp19
 70
     1
102
RTVSPropertyOp20
 70
     1
102
RTVSPropertyOp21
 70
     1
102
RTVSPropertyOp22
 70
     1
102
RTVSPropertyOp23
 70
     1
102
RTVSPropertyOp24
 70
     1
102
RTVSPropertyOp25
 70
     1
102
RTVSPropertyOp26
 70
     1
102
RTVSPropertyOp27
 70
     1
102
RTVSPropertyOp28
 70
     1
102
RTVSPropertyOp29
 70
     1
102
RTVSPropertyOp30
 70
     1
102
RTVSPropertyOp31
 70
     1
102
RTVSPropertyOp32
 70
     1
102
RTVSPropertyOp33
 70
     1
102
RTVSPropertyOp34
 70
     1
102
RTVSPropertyOp35
 70
     1
102
RTVSPropertyOp36
 70
     1
102
RTVSPropertyOp37
 70
     1
102
RTVSPropertyOp38
 70
     1
102
RTVSPropertyOp39
 70
     1
102
RTVSPropertyOp40
 70
     1
102
RTVSPropertyOp41
 70
     1
102
RTVSPropertyOp42
 70
     1
102
RTVSPropertyOp43
 70
     1
102
RTVSPropertyOp44
 70
     1
102
RTVSPropertyOp45
 70
     1
102
RTVSPropertyOp46
 70
     1
102
RTVSPropertyOp47
 70
     1
102
RTVSPropertyOp48
 70
     1
102
RTVSPropertyOp49
 70
     1
102
RTVSPropertyOp50
 70
     1
102
RTVSPropertyOp51
 70
     0
102
RTVSPropertyOp52
 70
     0
102
RTVSPropertyOp53
 70
     1
102
RTVSPropertyOp54
 70
     1
102
RTVSPropertyOp55
 70
     1
102
RTVSPropertyOp56
 70
     1
102
RTVSPropertyOp57
 70
     1
102
RTVSPost2010Prop28
280
     0
102
RTVSPost2010PropOp28
 70
     1
102
RTVSPost2010Prop29
280
     1
102
RTVSPost2010PropOp29
 70
     1
102
RTVSPost2010Prop30
280
     1
102
RTVSPost2010PropOp30
 70
     1
102
RTVSPost2010Prop31
280
     0
102
RTVSPost2010PropOp31
 70
     1
102
RTVSPost2010Prop32
280
     0
102
RTVSPost2010PropOp32
 70
     1
102
RTVSPost2010Prop33
280
     0
102
RTVSPost2010PropOp33
 70
     1
102
RTVSPost2010Prop34
280
     0
102
RTVSPost2010PropOp34
 70
     1
102
RTVSPost2010Prop35
280
     0
102
RTVSPost2010PropOp35
 70
     1
102
RTVSPost2010Prop36
280
     0
102
RTVSPost2010PropOp36
 70
     1
102
RTVSPost2010Prop37
 90
       50
102
RTVSPost2010PropOp37
 70
     1
102
RTVSPost2010Prop38
140
0.0
102
RTVSPost2010PropOp38
 70
     1
102
RTVSPost2010Prop39
140
1.0
102
RTVSPost2010PropOp39
 70
     1
102
RTVSPost2010Prop40
 90
        0
102
RTVSPost2010PropOp40
 70
     1
102
RTVSPost2010Prop41ColorIndex
 90
       18
102
RTVSPost2010Prop41ColorRGB
 90
        0
102
RTVSPost2010PropOp41
 70
     1
102
RTVSPost2010Prop42
 90
       50
102
RTVSPost2010PropOp42
 70
     1
102
RTVSPost2010Prop43
 90
        3
102
RTVSPost2010PropOp43
 70
     1
102
RTVSPost2010Prop44ColorIndex
 90
        5
102
RTVSPost2010Prop44ColorRGB
 90
      255
102
RTVSPost2010PropOp44
 70
     1
102
RTVSPost2010Prop45
280
     0
102
RTVSPost2010PropOp45
 70
     1
102
RTVSPost2010Prop46
 90
       50
102
RTVSPost2010PropOp46
 70
     1
102
RTVSPost2010Prop47
 90
       50
102
RTVSPost2010PropOp47
 70
     1
102
RTVSPost2010Prop48
 90
       50
102
RTVSPost2010PropOp48
 70
     1
102
RTVSPost2010Prop49
280
     0
102
RTVSPost2010PropOp49
 70
     1
102
RTVSPost2010Prop50
 90
       50
102
RTVSPost2010PropOp50
 70
     1
102
RTVSPost2010Prop51ColorIndex
 90
      256
102
RTVSPost2010Prop51ColorRGB
 90
-16777216
102
RTVSPost2010PropOp51
 70
     0
102
RTVSPost2010Prop52
140
1.0
102
RTVSPost2010PropOp52
 70
     0
102
RTVSPost2010Prop53
 90
        2
102
RTVSPost2010PropOp53
 70
     1
102
RTVSPost2010Prop54
  1
strokes_ogs.tif
102
RTVSPost2010PropOp54
 70
     1
102
RTVSPost2010Prop55
280
     0
102
RTVSPost2010PropOp55
 70
     1
102
RTVSPost2010Prop56
140
1.0
102
RTVSPost2010PropOp56
 70
     1
102
RTVSPost2010Prop57
140
1.0
102
RTVSPost2010PropOp57
 70
     1
  0
XRECORD
  5
346
102
{ACAD_REACTORS
330
345
102
}
330
345
100
AcDbXrecord
280
     1
102
RTVSPropertyOp0
 70
     1
102
RTVSPropertyOp1
 70
     1
102
RTVSPropertyOp2
 70
     1
102
RTVSPropertyOp3
 70
     1
102
RTVSPropertyOp4
 70
     1
102
RTVSPropertyOp5
 70
     1
102
RTVSPropertyOp6
 70
     1
102
RTVSPropertyOp7
 70
     1
102
RTVSPropertyOp8
 70
     1
102
RTVSPropertyOp9
 70
     1
102
RTVSPropertyOp10
 70
     1
102
RTVSPropertyOp11
 70
     1
102
RTVSPropertyOp12
 70
     1
102
RTVSPropertyOp13
 70
     1
102
RTVSPropertyOp14
 70
     1
102
RTVSPropertyOp15
 70
     1
102
RTVSPropertyOp16
 70
     1
102
RTVSPropertyOp17
 70
     1
102
RTVSPropertyOp18
 70
     1
102
RTVSPropertyOp19
 70
     1
102
RTVSPropertyOp20
 70
     1
102
RTVSPropertyOp21
 70
     1
102
RTVSPropertyOp22
 70
     1
102
RTVSPropertyOp23
 70
     1
102
RTVSPropertyOp24
 70
     1
102
RTVSPropertyOp25
 70
     1
102
RTVSPropertyOp26
 70
     1
102
RTVSPropertyOp27
 70
     1
102
RTVSPropertyOp28
 70
     1
102
RTVSPropertyOp29
 70
     1
102
RTVSPropertyOp30
 70
     1
102
RTVSPropertyOp31
 70
     1
102
RTVSPropertyOp32
 70
     1
102
RTVSPropertyOp33
 70
     1
102
RTVSPropertyOp34
 70
     1
102
RTVSPropertyOp35
 70
     1
102
RTVSPropertyOp36
 70
     1
102
RTVSPropertyOp37
 70
     1
102
RTVSPropertyOp38
 70
     1
102
RTVSPropertyOp39
 70
     1
102
RTVSPropertyOp40
 70
     1
102
RTVSPropertyOp41
 70
     1
102
RTVSPropertyOp42
 70
     1
102
RTVSPropertyOp43
 70
     1
102
RTVSPropertyOp44
 70
     1
102
RTVSPropertyOp45
 70
     1
102
RTVSPropertyOp46
 70
     1
102
RTVSPropertyOp47
 70
     1
102
RTVSPropertyOp48
 70
     1
102
RTVSPropertyOp49
 70
     1
102
RTVSPropertyOp50
 70
     1
102
RTVSPropertyOp51
 70
     0
102
RTVSPropertyOp52
 70
     0
102
RTVSPropertyOp53
 70
     1
102
RTVSPropertyOp54
 70
     1
102
RTVSPropertyOp55
 70
     1
102
RTVSPropertyOp56
 70
     1
102
RTVSPropertyOp57
 70
     1
102
RTVSPost2010Prop28
280
     0
102
RTVSPost2010PropOp28
 70
     1
102
RTVSPost2010Prop29
280
     1
102
RTVSPost2010PropOp29
 70
     1
102
RTVSPost2010Prop30
280
     1
102
RTVSPost2010PropOp30
 70
     1
102
RTVSPost2010Prop31
280
     0
102
RTVSPost2010PropOp31
 70
     1
102
RTVSPost2010Prop32
280
     0
102
RTVSPost2010PropOp32
 70
     1
102
RTVSPost2010Prop33
280
     0
102
RTVSPost2010PropOp33
 70
     1
102
RTVSPost2010Prop34
280
     0
102
RTVSPost2010PropOp34
 70
     1
102
RTVSPost2010Prop35
280
     0
102
RTVSPost2010PropOp35
 70
     1
102
RTVSPost2010Prop36
280
     0
102
RTVSPost2010PropOp36
 70
     1
102
RTVSPost2010Prop37
 90
       50
102
RTVSPost2010PropOp37
 70
     1
102
RTVSPost2010Prop38
140
0.0
102
RTVSPost2010PropOp38
 70
     1
102
RTVSPost2010Prop39
140
1.0
102
RTVSPost2010PropOp39
 70
     1
102
RTVSPost2010Prop40
 90
        0
102
RTVSPost2010PropOp40
 70
     1
102
RTVSPost2010Prop41ColorIndex
 90
       18
102
RTVSPost2010Prop41ColorRGB
 90
        0
102
RTVSPost2010PropOp41
 70
     1
102
RTVSPost2010Prop42
 90
       50
102
RTVSPost2010PropOp42
 70
     1
102
RTVSPost2010Prop43
 90
        3
102
RTVSPost2010PropOp43
 70
     1
102
RTVSPost2010Prop44ColorIndex
 90
        5
102
RTVSPost2010Prop44ColorRGB
 90
      255
102
RTVSPost2010PropOp44
 70
     1
102
RTVSPost2010Prop45
280
     0
102
RTVSPost2010PropOp45
 70
     1
102
RTVSPost2010Prop46
 90
       50
102
RTVSPost2010PropOp46
 70
     1
102
RTVSPost2010Prop47
 90
       50
102
RTVSPost2010PropOp47
 70
     1
102
RTVSPost2010Prop48
 90
       50
102
RTVSPost2010PropOp48
 70
     1
102
RTVSPost2010Prop49
280
     0
102
RTVSPost2010PropOp49
 70
     1
102
RTVSPost2010Prop50
 90
       50
102
RTVSPost2010PropOp50
 70
     1
102
RTVSPost2010Prop51ColorIndex
 90
      256
102
RTVSPost2010Prop51ColorRGB
 90
-16777216
102
RTVSPost2010PropOp51
 70
     0
102
RTVSPost2010Prop52
140
1.0
102
RTVSPost2010PropOp52
 70
     0
102
RTVSPost2010Prop53
 90
        2
102
RTVSPost2010PropOp53
 70
     1
102
RTVSPost2010Prop54
  1
strokes_ogs.tif
102
RTVSPost2010PropOp54
 70
     1
102
RTVSPost2010Prop55
280
     0
102
RTVSPost2010PropOp55
 70
     1
102
RTVSPost2010Prop56
140
1.0
102
RTVSPost2010PropOp56
 70
     1
102
RTVSPost2010Prop57
140
1.0
102
RTVSPost2010PropOp57
 70
     1
  0
XRECORD
  5
348
102
{ACAD_REACTORS
330
347
102
}
330
347
100
AcDbXrecord
280
     1
102
RTVSPropertyOp0
 70
     1
102
RTVSPropertyOp1
 70
     1
102
RTVSPropertyOp2
 70
     1
102
RTVSPropertyOp3
 70
     1
102
RTVSPropertyOp4
 70
     1
102
RTVSPropertyOp5
 70
     1
102
RTVSPropertyOp6
 70
     1
102
RTVSPropertyOp7
 70
     1
102
RTVSPropertyOp8
 70
     1
102
RTVSPropertyOp9
 70
     1
102
RTVSPropertyOp10
 70
     1
102
RTVSPropertyOp11
 70
     1
102
RTVSPropertyOp12
 70
     1
102
RTVSPropertyOp13
 70
     1
102
RTVSPropertyOp14
 70
     1
102
RTVSPropertyOp15
 70
     1
102
RTVSPropertyOp16
 70
     1
102
RTVSPropertyOp17
 70
     1
102
RTVSPropertyOp18
 70
     1
102
RTVSPropertyOp19
 70
     1
102
RTVSPropertyOp20
 70
     1
102
RTVSPropertyOp21
 70
     1
102
RTVSPropertyOp22
 70
     1
102
RTVSPropertyOp23
 70
     1
102
RTVSPropertyOp24
 70
     1
102
RTVSPropertyOp25
 70
     1
102
RTVSPropertyOp26
 70
     1
102
RTVSPropertyOp27
 70
     1
102
RTVSPropertyOp28
 70
     1
102
RTVSPropertyOp29
 70
     1
102
RTVSPropertyOp30
 70
     1
102
RTVSPropertyOp31
 70
     1
102
RTVSPropertyOp32
 70
     1
102
RTVSPropertyOp33
 70
     1
102
RTVSPropertyOp34
 70
     1
102
RTVSPropertyOp35
 70
     1
102
RTVSPropertyOp36
 70
     1
102
RTVSPropertyOp37
 70
     1
102
RTVSPropertyOp38
 70
     1
102
RTVSPropertyOp39
 70
     1
102
RTVSPropertyOp40
 70
     1
102
RTVSPropertyOp41
 70
     1
102
RTVSPropertyOp42
 70
     1
102
RTVSPropertyOp43
 70
     1
102
RTVSPropertyOp44
 70
     1
102
RTVSPropertyOp45
 70
     1
102
RTVSPropertyOp46
 70
     1
102
RTVSPropertyOp47
 70
     1
102
RTVSPropertyOp48
 70
     1
102
RTVSPropertyOp49
 70
     1
102
RTVSPropertyOp50
 70
     1
102
RTVSPropertyOp51
 70
     0
102
RTVSPropertyOp52
 70
     0
102
RTVSPropertyOp53
 70
     1
102
RTVSPropertyOp54
 70
     1
102
RTVSPropertyOp55
 70
     1
102
RTVSPropertyOp56
 70
     1
102
RTVSPropertyOp57
 70
     1
102
RTVSPost2010Prop28
280
     0
102
RTVSPost2010PropOp28
 70
     1
102
RTVSPost2010Prop29
280
     1
102
RTVSPost2010PropOp29
 70
     1
102
RTVSPost2010Prop30
280
     1
102
RTVSPost2010PropOp30
 70
     1
102
RTVSPost2010Prop31
280
     0
102
RTVSPost2010PropOp31
 70
     1
102
RTVSPost2010Prop32
280
     0
102
RTVSPost2010PropOp32
 70
     1
102
RTVSPost2010Prop33
280
     0
102
RTVSPost2010PropOp33
 70
     1
102
RTVSPost2010Prop34
280
     0
102
RTVSPost2010PropOp34
 70
     1
102
RTVSPost2010Prop35
280
     0
102
RTVSPost2010PropOp35
 70
     1
102
RTVSPost2010Prop36
280
     0
102
RTVSPost2010PropOp36
 70
     1
102
RTVSPost2010Prop37
 90
       50
102
RTVSPost2010PropOp37
 70
     1
102
RTVSPost2010Prop38
140
0.0
102
RTVSPost2010PropOp38
 70
     1
102
RTVSPost2010Prop39
140
1.0
102
RTVSPost2010PropOp39
 70
     1
102
RTVSPost2010Prop40
 90
        0
102
RTVSPost2010PropOp40
 70
     1
102
RTVSPost2010Prop41ColorIndex
 90
       18
102
RTVSPost2010Prop41ColorRGB
 90
        0
102
RTVSPost2010PropOp41
 70
     1
102
RTVSPost2010Prop42
 90
       50
102
RTVSPost2010PropOp42
 70
     1
102
RTVSPost2010Prop43
 90
        3
102
RTVSPost2010PropOp43
 70
     1
102
RTVSPost2010Prop44ColorIndex
 90
        5
102
RTVSPost2010Prop44ColorRGB
 90
      255
102
RTVSPost2010PropOp44
 70
     1
102
RTVSPost2010Prop45
280
     0
102
RTVSPost2010PropOp45
 70
     1
102
RTVSPost2010Prop46
 90
       50
102
RTVSPost2010PropOp46
 70
     1
102
RTVSPost2010Prop47
 90
       50
102
RTVSPost2010PropOp47
 70
     1
102
RTVSPost2010Prop48
 90
       50
102
RTVSPost2010PropOp48
 70
     1
102
RTVSPost2010Prop49
280
     0
102
RTVSPost2010PropOp49
 70
     1
102
RTVSPost2010Prop50
 90
       50
102
RTVSPost2010PropOp50
 70
     1
102
RTVSPost2010Prop51ColorIndex
 90
      256
102
RTVSPost2010Prop51ColorRGB
 90
-16777216
102
RTVSPost2010PropOp51
 70
     0
102
RTVSPost2010Prop52
140
1.0
102
RTVSPost2010PropOp52
 70
     0
102
RTVSPost2010Prop53
 90
        2
102
RTVSPost2010PropOp53
 70
     1
102
RTVSPost2010Prop54
  1
strokes_ogs.tif
102
RTVSPost2010PropOp54
 70
     1
102
RTVSPost2010Prop55
280
     0
102
RTVSPost2010PropOp55
 70
     1
102
RTVSPost2010Prop56
140
1.0
102
RTVSPost2010PropOp56
 70
     1
102
RTVSPost2010Prop57
140
1.0
102
RTVSPost2010PropOp57
 70
     1
  0
XRECORD
  5
34E
102
{ACAD_REACTORS
330
34D
102
}
330
34D
100
AcDbXrecord
280
     1
102
RTVSPropertyOp0
 70
     1
102
RTVSPropertyOp1
 70
     1
102
RTVSPropertyOp2
 70
     1
102
RTVSPropertyOp3
 70
     1
102
RTVSPropertyOp4
 70
     1
102
RTVSPropertyOp5
 70
     1
102
RTVSPropertyOp6
 70
     1
102
RTVSPropertyOp7
 70
     1
102
RTVSPropertyOp8
 70
     1
102
RTVSPropertyOp9
 70
     1
102
RTVSPropertyOp10
 70
     1
102
RTVSPropertyOp11
 70
     1
102
RTVSPropertyOp12
 70
     1
102
RTVSPropertyOp13
 70
     1
102
RTVSPropertyOp14
 70
     1
102
RTVSPropertyOp15
 70
     1
102
RTVSPropertyOp16
 70
     1
102
RTVSPropertyOp17
 70
     1
102
RTVSPropertyOp18
 70
     1
102
RTVSPropertyOp19
 70
     1
102
RTVSPropertyOp20
 70
     1
102
RTVSPropertyOp21
 70
     1
102
RTVSPropertyOp22
 70
     1
102
RTVSPropertyOp23
 70
     1
102
RTVSPropertyOp24
 70
     1
102
RTVSPropertyOp25
 70
     1
102
RTVSPropertyOp26
 70
     1
102
RTVSPropertyOp27
 70
     1
102
RTVSPropertyOp28
 70
     1
102
RTVSPropertyOp29
 70
     1
102
RTVSPropertyOp30
 70
     1
102
RTVSPropertyOp31
 70
     1
102
RTVSPropertyOp32
 70
     1
102
RTVSPropertyOp33
 70
     1
102
RTVSPropertyOp34
 70
     1
102
RTVSPropertyOp35
 70
     1
102
RTVSPropertyOp36
 70
     1
102
RTVSPropertyOp37
 70
     1
102
RTVSPropertyOp38
 70
     1
102
RTVSPropertyOp39
 70
     1
102
RTVSPropertyOp40
 70
     1
102
RTVSPropertyOp41
 70
     1
102
RTVSPropertyOp42
 70
     1
102
RTVSPropertyOp43
 70
     1
102
RTVSPropertyOp44
 70
     1
102
RTVSPropertyOp45
 70
     1
102
RTVSPropertyOp46
 70
     1
102
RTVSPropertyOp47
 70
     1
102
RTVSPropertyOp48
 70
     1
102
RTVSPropertyOp49
 70
     1
102
RTVSPropertyOp50
 70
     1
102
RTVSPropertyOp51
 70
     0
102
RTVSPropertyOp52
 70
     0
102
RTVSPropertyOp53
 70
     1
102
RTVSPropertyOp54
 70
     1
102
RTVSPropertyOp55
 70
     1
102
RTVSPropertyOp56
 70
     1
102
RTVSPropertyOp57
 70
     1
102
RTVSPost2010Prop28
280
     0
102
RTVSPost2010PropOp28
 70
     1
102
RTVSPost2010Prop29
280
     1
102
RTVSPost2010PropOp29
 70
     1
102
RTVSPost2010Prop30
280
     1
102
RTVSPost2010PropOp30
 70
     1
102
RTVSPost2010Prop31
280
     0
102
RTVSPost2010PropOp31
 70
     1
102
RTVSPost2010Prop32
280
     0
102
RTVSPost2010PropOp32
 70
     1
102
RTVSPost2010Prop33
280
     0
102
RTVSPost2010PropOp33
 70
     1
102
RTVSPost2010Prop34
280
     0
102
RTVSPost2010PropOp34
 70
     1
102
RTVSPost2010Prop35
280
     0
102
RTVSPost2010PropOp35
 70
     1
102
RTVSPost2010Prop36
280
     0
102
RTVSPost2010PropOp36
 70
     1
102
RTVSPost2010Prop37
 90
       50
102
RTVSPost2010PropOp37
 70
     1
102
RTVSPost2010Prop38
140
0.0
102
RTVSPost2010PropOp38
 70
     1
102
RTVSPost2010Prop39
140
1.0
102
RTVSPost2010PropOp39
 70
     1
102
RTVSPost2010Prop40
 90
        0
102
RTVSPost2010PropOp40
 70
     1
102
RTVSPost2010Prop41ColorIndex
 90
       18
102
RTVSPost2010Prop41ColorRGB
 90
        0
102
RTVSPost2010PropOp41
 70
     1
102
RTVSPost2010Prop42
 90
       50
102
RTVSPost2010PropOp42
 70
     1
102
RTVSPost2010Prop43
 90
        3
102
RTVSPost2010PropOp43
 70
     1
102
RTVSPost2010Prop44ColorIndex
 90
        5
102
RTVSPost2010Prop44ColorRGB
 90
      255
102
RTVSPost2010PropOp44
 70
     1
102
RTVSPost2010Prop45
280
     0
102
RTVSPost2010PropOp45
 70
     1
102
RTVSPost2010Prop46
 90
       50
102
RTVSPost2010PropOp46
 70
     1
102
RTVSPost2010Prop47
 90
       50
102
RTVSPost2010PropOp47
 70
     1
102
RTVSPost2010Prop48
 90
       50
102
RTVSPost2010PropOp48
 70
     1
102
RTVSPost2010Prop49
280
     0
102
RTVSPost2010PropOp49
 70
     1
102
RTVSPost2010Prop50
 90
       50
102
RTVSPost2010PropOp50
 70
     1
102
RTVSPost2010Prop51ColorIndex
 90
      256
102
RTVSPost2010Prop51ColorRGB
 90
-16777216
102
RTVSPost2010PropOp51
 70
     0
102
RTVSPost2010Prop52
140
1.0
102
RTVSPost2010PropOp52
 70
     0
102
RTVSPost2010Prop53
 90
        2
102
RTVSPost2010PropOp53
 70
     1
102
RTVSPost2010Prop54
  1
strokes_ogs.tif
102
RTVSPost2010PropOp54
 70
     1
102
RTVSPost2010Prop55
280
     0
102
RTVSPost2010PropOp55
 70
     1
102
RTVSPost2010Prop56
140
1.0
102
RTVSPost2010PropOp56
 70
     1
102
RTVSPost2010Prop57
140
1.0
102
RTVSPost2010PropOp57
 70
     1
  0
XRECORD
  5
362
102
{ACAD_REACTORS
330
361
102
}
330
361
100
AcDbXrecord
280
     1
102
RTVSPropertyOp0
 70
     0
102
RTVSPropertyOp1
 70
     0
102
RTVSPropertyOp2
 70
     0
102
RTVSPropertyOp3
 70
     0
102
RTVSPropertyOp4
 70
     0
102
RTVSPropertyOp5
 70
     0
102
RTVSPropertyOp6
 70
     0
102
RTVSPropertyOp7
 70
     0
102
RTVSPropertyOp8
 70
     0
102
RTVSPropertyOp9
 70
     0
102
RTVSPropertyOp10
 70
     0
102
RTVSPropertyOp11
 70
     0
102
RTVSPropertyOp12
 70
     0
102
RTVSPropertyOp13
 70
     0
102
RTVSPropertyOp14
 70
     2
102
RTVSPropertyOp15
 70
     0
102
RTVSPropertyOp16
 70
     0
102
RTVSPropertyOp17
 70
     0
102
RTVSPropertyOp18
 70
     0
102
RTVSPropertyOp19
 70
     0
102
RTVSPropertyOp20
 70
     0
102
RTVSPropertyOp21
 70
     0
102
RTVSPropertyOp22
 70
     0
102
RTVSPropertyOp23
 70
     0
102
RTVSPropertyOp24
 70
     0
102
RTVSPropertyOp25
 70
     0
102
RTVSPropertyOp26
 70
     0
102
RTVSPropertyOp27
 70
     0
102
RTVSPropertyOp28
 70
     0
102
RTVSPropertyOp29
 70
     0
102
RTVSPropertyOp30
 70
     0
102
RTVSPropertyOp31
 70
     0
102
RTVSPropertyOp32
 70
     0
102
RTVSPropertyOp33
 70
     0
102
RTVSPropertyOp34
 70
     0
102
RTVSPropertyOp35
 70
     0
102
RTVSPropertyOp36
 70
     0
102
RTVSPropertyOp37
 70
     0
102
RTVSPropertyOp38
 70
     0
102
RTVSPropertyOp39
 70
     0
102
RTVSPropertyOp40
 70
     0
102
RTVSPropertyOp41
 70
     0
102
RTVSPropertyOp42
 70
     0
102
RTVSPropertyOp43
 70
     0
102
RTVSPropertyOp44
 70
     0
102
RTVSPropertyOp45
 70
     0
102
RTVSPropertyOp46
 70
     0
102
RTVSPropertyOp47
 70
     0
102
RTVSPropertyOp48
 70
     0
102
RTVSPropertyOp49
 70
     0
102
RTVSPropertyOp50
 70
     0
102
RTVSPropertyOp51
 70
     0
102
RTVSPropertyOp52
 70
     0
102
RTVSPropertyOp53
 70
     0
102
RTVSPropertyOp54
 70
     0
102
RTVSPropertyOp55
 70
     0
102
RTVSPropertyOp56
 70
     0
102
RTVSPropertyOp57
 70
     0
102
RTVSPost2010Prop28
280
     0
102
RTVSPost2010PropOp28
 70
     0
102
RTVSPost2010Prop29
280
     1
102
RTVSPost2010PropOp29
 70
     0
102
RTVSPost2010Prop30
280
     1
102
RTVSPost2010PropOp30
 70
     0
102
RTVSPost2010Prop31
280
     0
102
RTVSPost2010PropOp31
 70
     0
102
RTVSPost2010Prop32
280
     0
102
RTVSPost2010PropOp32
 70
     0
102
RTVSPost2010Prop33
280
     0
102
RTVSPost2010PropOp33
 70
     0
102
RTVSPost2010Prop34
280
     0
102
RTVSPost2010PropOp34
 70
     0
102
RTVSPost2010Prop35
280
     0
102
RTVSPost2010PropOp35
 70
     0
102
RTVSPost2010Prop36
280
     0
102
RTVSPost2010PropOp36
 70
     0
102
RTVSPost2010Prop37
 90
       50
102
RTVSPost2010PropOp37
 70
     0
102
RTVSPost2010Prop38
140
0.0
102
RTVSPost2010PropOp38
 70
     0
102
RTVSPost2010Prop39
140
1.0
102
RTVSPost2010PropOp39
 70
     0
102
RTVSPost2010Prop40
 90
        0
102
RTVSPost2010PropOp40
 70
     0
102
RTVSPost2010Prop41ColorIndex
 90
       18
102
RTVSPost2010Prop41ColorRGB
 90
        0
102
RTVSPost2010PropOp41
 70
     0
102
RTVSPost2010Prop42
 90
       50
102
RTVSPost2010PropOp42
 70
     0
102
RTVSPost2010Prop43
 90
        3
102
RTVSPost2010PropOp43
 70
     0
102
RTVSPost2010Prop44ColorIndex
 90
        5
102
RTVSPost2010Prop44ColorRGB
 90
      255
102
RTVSPost2010PropOp44
 70
     0
102
RTVSPost2010Prop45
280
     0
102
RTVSPost2010PropOp45
 70
     0
102
RTVSPost2010Prop46
 90
       50
102
RTVSPost2010PropOp46
 70
     0
102
RTVSPost2010Prop47
 90
       50
102
RTVSPost2010PropOp47
 70
     0
102
RTVSPost2010Prop48
 90
       50
102
RTVSPost2010PropOp48
 70
     0
102
RTVSPost2010Prop49
280
     0
102
RTVSPost2010PropOp49
 70
     0
102
RTVSPost2010Prop50
 90
       50
102
RTVSPost2010PropOp50
 70
     0
102
RTVSPost2010Prop51ColorIndex
 90
      256
102
RTVSPost2010Prop51ColorRGB
 90
-16777216
102
RTVSPost2010PropOp51
 70
     0
102
RTVSPost2010Prop52
140
1.0
102
RTVSPost2010PropOp52
 70
     0
102
RTVSPost2010Prop53
 90
        2
102
RTVSPost2010PropOp53
 70
     0
102
RTVSPost2010Prop54
  1
strokes_ogs.tif
102
RTVSPost2010PropOp54
 70
     0
102
RTVSPost2010Prop55
280
     0
102
RTVSPost2010PropOp55
 70
     0
102
RTVSPost2010Prop56
140
1.0
102
RTVSPost2010PropOp56
 70
     0
102
RTVSPost2010Prop57
140
1.0
102
RTVSPost2010PropOp57
 70
     0
  0
XRECORD
  5
35C
102
{ACAD_REACTORS
330
35B
102
}
330
35B
100
AcDbXrecord
280
     1
102
RTVSPropertyOp0
 70
     1
102
RTVSPropertyOp1
 70
     1
102
RTVSPropertyOp2
 70
     1
102
RTVSPropertyOp3
 70
     1
102
RTVSPropertyOp4
 70
     1
102
RTVSPropertyOp5
 70
     1
102
RTVSPropertyOp6
 70
     1
102
RTVSPropertyOp7
 70
     1
102
RTVSPropertyOp8
 70
     1
102
RTVSPropertyOp9
 70
     1
102
RTVSPropertyOp10
 70
     1
102
RTVSPropertyOp11
 70
     1
102
RTVSPropertyOp12
 70
     1
102
RTVSPropertyOp13
 70
     1
102
RTVSPropertyOp14
 70
     1
102
RTVSPropertyOp15
 70
     1
102
RTVSPropertyOp16
 70
     1
102
RTVSPropertyOp17
 70
     1
102
RTVSPropertyOp18
 70
     1
102
RTVSPropertyOp19
 70
     1
102
RTVSPropertyOp20
 70
     1
102
RTVSPropertyOp21
 70
     1
102
RTVSPropertyOp22
 70
     1
102
RTVSPropertyOp23
 70
     1
102
RTVSPropertyOp24
 70
     1
102
RTVSPropertyOp25
 70
     1
102
RTVSPropertyOp26
 70
     1
102
RTVSPropertyOp27
 70
     1
102
RTVSPropertyOp28
 70
     1
102
RTVSPropertyOp29
 70
     1
102
RTVSPropertyOp30
 70
     1
102
RTVSPropertyOp31
 70
     1
102
RTVSPropertyOp32
 70
     1
102
RTVSPropertyOp33
 70
     1
102
RTVSPropertyOp34
 70
     1
102
RTVSPropertyOp35
 70
     1
102
RTVSPropertyOp36
 70
     1
102
RTVSPropertyOp37
 70
     1
102
RTVSPropertyOp38
 70
     1
102
RTVSPropertyOp39
 70
     1
102
RTVSPropertyOp40
 70
     1
102
RTVSPropertyOp41
 70
     1
102
RTVSPropertyOp42
 70
     1
102
RTVSPropertyOp43
 70
     1
102
RTVSPropertyOp44
 70
     1
102
RTVSPropertyOp45
 70
     1
102
RTVSPropertyOp46
 70
     1
102
RTVSPropertyOp47
 70
     1
102
RTVSPropertyOp48
 70
     1
102
RTVSPropertyOp49
 70
     1
102
RTVSPropertyOp50
 70
     1
102
RTVSPropertyOp51
 70
     0
102
RTVSPropertyOp52
 70
     0
102
RTVSPropertyOp53
 70
     1
102
RTVSPropertyOp54
 70
     1
102
RTVSPropertyOp55
 70
     1
102
RTVSPropertyOp56
 70
     1
102
RTVSPropertyOp57
 70
     1
102
RTVSPost2010Prop28
280
     0
102
RTVSPost2010PropOp28
 70
     1
102
RTVSPost2010Prop29
280
     1
102
RTVSPost2010PropOp29
 70
     1
102
RTVSPost2010Prop30
280
     1
102
RTVSPost2010PropOp30
 70
     1
102
RTVSPost2010Prop31
280
     0
102
RTVSPost2010PropOp31
 70
     1
102
RTVSPost2010Prop32
280
     0
102
RTVSPost2010PropOp32
 70
     1
102
RTVSPost2010Prop33
280
     0
102
RTVSPost2010PropOp33
 70
     1
102
RTVSPost2010Prop34
280
     0
102
RTVSPost2010PropOp34
 70
     1
102
RTVSPost2010Prop35
280
     0
102
RTVSPost2010PropOp35
 70
     1
102
RTVSPost2010Prop36
280
     0
102
RTVSPost2010PropOp36
 70
     1
102
RTVSPost2010Prop37
 90
       50
102
RTVSPost2010PropOp37
 70
     1
102
RTVSPost2010Prop38
140
0.0
102
RTVSPost2010PropOp38
 70
     1
102
RTVSPost2010Prop39
140
1.0
102
RTVSPost2010PropOp39
 70
     1
102
RTVSPost2010Prop40
 90
        0
102
RTVSPost2010PropOp40
 70
     1
102
RTVSPost2010Prop41ColorIndex
 90
       18
102
RTVSPost2010Prop41ColorRGB
 90
        0
102
RTVSPost2010PropOp41
 70
     1
102
RTVSPost2010Prop42
 90
       50
102
RTVSPost2010PropOp42
 70
     1
102
RTVSPost2010Prop43
 90
        3
102
RTVSPost2010PropOp43
 70
     1
102
RTVSPost2010Prop44ColorIndex
 90
        5
102
RTVSPost2010Prop44ColorRGB
 90
      255
102
RTVSPost2010PropOp44
 70
     1
102
RTVSPost2010Prop45
280
     0
102
RTVSPost2010PropOp45
 70
     1
102
RTVSPost2010Prop46
 90
       50
102
RTVSPost2010PropOp46
 70
     1
102
RTVSPost2010Prop47
 90
       50
102
RTVSPost2010PropOp47
 70
     1
102
RTVSPost2010Prop48
 90
       50
102
RTVSPost2010PropOp48
 70
     1
102
RTVSPost2010Prop49
280
     0
102
RTVSPost2010PropOp49
 70
     1
102
RTVSPost2010Prop50
 90
       50
102
RTVSPost2010PropOp50
 70
     1
102
RTVSPost2010Prop51ColorIndex
 90
      256
102
RTVSPost2010Prop51ColorRGB
 90
-16777216
102
RTVSPost2010PropOp51
 70
     0
102
RTVSPost2010Prop52
140
1.0
102
RTVSPost2010PropOp52
 70
     0
102
RTVSPost2010Prop53
 90
        2
102
RTVSPost2010PropOp53
 70
     1
102
RTVSPost2010Prop54
  1
strokes_ogs.tif
102
RTVSPost2010PropOp54
 70
     1
102
RTVSPost2010Prop55
280
     0
102
RTVSPost2010PropOp55
 70
     1
102
RTVSPost2010Prop56
140
1.0
102
RTVSPost2010PropOp56
 70
     1
102
RTVSPost2010Prop57
140
1.0
102
RTVSPost2010PropOp57
 70
     1
  0
XRECORD
  5
364
102
{ACAD_REACTORS
330
363
102
}
330
363
100
AcDbXrecord
280
     1
102
RTVSPropertyOp0
 70
     0
102
RTVSPropertyOp1
 70
     0
102
RTVSPropertyOp2
 70
     0
102
RTVSPropertyOp3
 70
     0
102
RTVSPropertyOp4
 70
     0
102
RTVSPropertyOp5
 70
     0
102
RTVSPropertyOp6
 70
     0
102
RTVSPropertyOp7
 70
     0
102
RTVSPropertyOp8
 70
     0
102
RTVSPropertyOp9
 70
     0
102
RTVSPropertyOp10
 70
     0
102
RTVSPropertyOp11
 70
     0
102
RTVSPropertyOp12
 70
     0
102
RTVSPropertyOp13
 70
     0
102
RTVSPropertyOp14
 70
     2
102
RTVSPropertyOp15
 70
     0
102
RTVSPropertyOp16
 70
     0
102
RTVSPropertyOp17
 70
     0
102
RTVSPropertyOp18
 70
     0
102
RTVSPropertyOp19
 70
     0
102
RTVSPropertyOp20
 70
     0
102
RTVSPropertyOp21
 70
     0
102
RTVSPropertyOp22
 70
     0
102
RTVSPropertyOp23
 70
     0
102
RTVSPropertyOp24
 70
     0
102
RTVSPropertyOp25
 70
     0
102
RTVSPropertyOp26
 70
     0
102
RTVSPropertyOp27
 70
     0
102
RTVSPropertyOp28
 70
     0
102
RTVSPropertyOp29
 70
     0
102
RTVSPropertyOp30
 70
     0
102
RTVSPropertyOp31
 70
     0
102
RTVSPropertyOp32
 70
     0
102
RTVSPropertyOp33
 70
     0
102
RTVSPropertyOp34
 70
     0
102
RTVSPropertyOp35
 70
     0
102
RTVSPropertyOp36
 70
     0
102
RTVSPropertyOp37
 70
     0
102
RTVSPropertyOp38
 70
     0
102
RTVSPropertyOp39
 70
     0
102
RTVSPropertyOp40
 70
     0
102
RTVSPropertyOp41
 70
     0
102
RTVSPropertyOp42
 70
     0
102
RTVSPropertyOp43
 70
     0
102
RTVSPropertyOp44
 70
     0
102
RTVSPropertyOp45
 70
     0
102
RTVSPropertyOp46
 70
     0
102
RTVSPropertyOp47
 70
     0
102
RTVSPropertyOp48
 70
     0
102
RTVSPropertyOp49
 70
     0
102
RTVSPropertyOp50
 70
     0
102
RTVSPropertyOp51
 70
     0
102
RTVSPropertyOp52
 70
     0
102
RTVSPropertyOp53
 70
     0
102
RTVSPropertyOp54
 70
     0
102
RTVSPropertyOp55
 70
     0
102
RTVSPropertyOp56
 70
     0
102
RTVSPropertyOp57
 70
     0
102
RTVSPost2010Prop28
280
     0
102
RTVSPost2010PropOp28
 70
     0
102
RTVSPost2010Prop29
280
     1
102
RTVSPost2010PropOp29
 70
     0
102
RTVSPost2010Prop30
280
     1
102
RTVSPost2010PropOp30
 70
     0
102
RTVSPost2010Prop31
280
     0
102
RTVSPost2010PropOp31
 70
     0
102
RTVSPost2010Prop32
280
     0
102
RTVSPost2010PropOp32
 70
     0
102
RTVSPost2010Prop33
280
     0
102
RTVSPost2010PropOp33
 70
     0
102
RTVSPost2010Prop34
280
     0
102
RTVSPost2010PropOp34
 70
     0
102
RTVSPost2010Prop35
280
     0
102
RTVSPost2010PropOp35
 70
     0
102
RTVSPost2010Prop36
280
     0
102
RTVSPost2010PropOp36
 70
     0
102
RTVSPost2010Prop37
 90
       50
102
RTVSPost2010PropOp37
 70
     0
102
RTVSPost2010Prop38
140
0.0
102
RTVSPost2010PropOp38
 70
     0
102
RTVSPost2010Prop39
140
1.0
102
RTVSPost2010PropOp39
 70
     0
102
RTVSPost2010Prop40
 90
        0
102
RTVSPost2010PropOp40
 70
     0
102
RTVSPost2010Prop41ColorIndex
 90
       18
102
RTVSPost2010Prop41ColorRGB
 90
        0
102
RTVSPost2010PropOp41
 70
     0
102
RTVSPost2010Prop42
 90
       50
102
RTVSPost2010PropOp42
 70
     0
102
RTVSPost2010Prop43
 90
        3
102
RTVSPost2010PropOp43
 70
     0
102
RTVSPost2010Prop44ColorIndex
 90
        5
102
RTVSPost2010Prop44ColorRGB
 90
      255
102
RTVSPost2010PropOp44
 70
     0
102
RTVSPost2010Prop45
280
     0
102
RTVSPost2010PropOp45
 70
     0
102
RTVSPost2010Prop46
 90
       50
102
RTVSPost2010PropOp46
 70
     0
102
RTVSPost2010Prop47
 90
       50
102
RTVSPost2010PropOp47
 70
     0
102
RTVSPost2010Prop48
 90
       50
102
RTVSPost2010PropOp48
 70
     0
102
RTVSPost2010Prop49
280
     0
102
RTVSPost2010PropOp49
 70
     0
102
RTVSPost2010Prop50
 90
       50
102
RTVSPost2010PropOp50
 70
     0
102
RTVSPost2010Prop51ColorIndex
 90
      256
102
RTVSPost2010Prop51ColorRGB
 90
-16777216
102
RTVSPost2010PropOp51
 70
     0
102
RTVSPost2010Prop52
140
1.0
102
RTVSPost2010PropOp52
 70
     0
102
RTVSPost2010Prop53
 90
        2
102
RTVSPost2010PropOp53
 70
     0
102
RTVSPost2010Prop54
  1
strokes_ogs.tif
102
RTVSPost2010PropOp54
 70
     0
102
RTVSPost2010Prop55
280
     0
102
RTVSPost2010PropOp55
 70
     0
102
RTVSPost2010Prop56
140
1.0
102
RTVSPost2010PropOp56
 70
     0
102
RTVSPost2010Prop57
140
1.0
102
RTVSPost2010PropOp57
 70
     0
  0
XRECORD
  5
352
102
{ACAD_REACTORS
330
351
102
}
330
351
100
AcDbXrecord
280
     1
102
RTVSPropertyOp0
 70
     1
102
RTVSPropertyOp1
 70
     1
102
RTVSPropertyOp2
 70
     1
102
RTVSPropertyOp3
 70
     1
102
RTVSPropertyOp4
 70
     1
102
RTVSPropertyOp5
 70
     1
102
RTVSPropertyOp6
 70
     1
102
RTVSPropertyOp7
 70
     1
102
RTVSPropertyOp8
 70
     1
102
RTVSPropertyOp9
 70
     1
102
RTVSPropertyOp10
 70
     1
102
RTVSPropertyOp11
 70
     1
102
RTVSPropertyOp12
 70
     1
102
RTVSPropertyOp13
 70
     1
102
RTVSPropertyOp14
 70
     1
102
RTVSPropertyOp15
 70
     1
102
RTVSPropertyOp16
 70
     1
102
RTVSPropertyOp17
 70
     1
102
RTVSPropertyOp18
 70
     1
102
RTVSPropertyOp19
 70
     1
102
RTVSPropertyOp20
 70
     1
102
RTVSPropertyOp21
 70
     1
102
RTVSPropertyOp22
 70
     1
102
RTVSPropertyOp23
 70
     1
102
RTVSPropertyOp24
 70
     1
102
RTVSPropertyOp25
 70
     1
102
RTVSPropertyOp26
 70
     1
102
RTVSPropertyOp27
 70
     1
102
RTVSPropertyOp28
 70
     1
102
RTVSPropertyOp29
 70
     1
102
RTVSPropertyOp30
 70
     1
102
RTVSPropertyOp31
 70
     1
102
RTVSPropertyOp32
 70
     1
102
RTVSPropertyOp33
 70
     1
102
RTVSPropertyOp34
 70
     1
102
RTVSPropertyOp35
 70
     1
102
RTVSPropertyOp36
 70
     1
102
RTVSPropertyOp37
 70
     1
102
RTVSPropertyOp38
 70
     1
102
RTVSPropertyOp39
 70
     1
102
RTVSPropertyOp40
 70
     1
102
RTVSPropertyOp41
 70
     1
102
RTVSPropertyOp42
 70
     1
102
RTVSPropertyOp43
 70
     1
102
RTVSPropertyOp44
 70
     1
102
RTVSPropertyOp45
 70
     1
102
RTVSPropertyOp46
 70
     1
102
RTVSPropertyOp47
 70
     1
102
RTVSPropertyOp48
 70
     1
102
RTVSPropertyOp49
 70
     1
102
RTVSPropertyOp50
 70
     1
102
RTVSPropertyOp51
 70
     0
102
RTVSPropertyOp52
 70
     0
102
RTVSPropertyOp53
 70
     1
102
RTVSPropertyOp54
 70
     1
102
RTVSPropertyOp55
 70
     1
102
RTVSPropertyOp56
 70
     1
102
RTVSPropertyOp57
 70
     1
102
RTVSPost2010Prop28
280
     0
102
RTVSPost2010PropOp28
 70
     1
102
RTVSPost2010Prop29
280
     1
102
RTVSPost2010PropOp29
 70
     1
102
RTVSPost2010Prop30
280
     1
102
RTVSPost2010PropOp30
 70
     1
102
RTVSPost2010Prop31
280
     0
102
RTVSPost2010PropOp31
 70
     1
102
RTVSPost2010Prop32
280
     0
102
RTVSPost2010PropOp32
 70
     1
102
RTVSPost2010Prop33
280
     0
102
RTVSPost2010PropOp33
 70
     1
102
RTVSPost2010Prop34
280
     0
102
RTVSPost2010PropOp34
 70
     1
102
RTVSPost2010Prop35
280
     0
102
RTVSPost2010PropOp35
 70
     1
102
RTVSPost2010Prop36
280
     0
102
RTVSPost2010PropOp36
 70
     1
102
RTVSPost2010Prop37
 90
       50
102
RTVSPost2010PropOp37
 70
     1
102
RTVSPost2010Prop38
140
0.0
102
RTVSPost2010PropOp38
 70
     1
102
RTVSPost2010Prop39
140
1.0
102
RTVSPost2010PropOp39
 70
     1
102
RTVSPost2010Prop40
 90
        0
102
RTVSPost2010PropOp40
 70
     1
102
RTVSPost2010Prop41ColorIndex
 90
       18
102
RTVSPost2010Prop41ColorRGB
 90
        0
102
RTVSPost2010PropOp41
 70
     1
102
RTVSPost2010Prop42
 90
       50
102
RTVSPost2010PropOp42
 70
     1
102
RTVSPost2010Prop43
 90
        3
102
RTVSPost2010PropOp43
 70
     1
102
RTVSPost2010Prop44ColorIndex
 90
        5
102
RTVSPost2010Prop44ColorRGB
 90
      255
102
RTVSPost2010PropOp44
 70
     1
102
RTVSPost2010Prop45
280
     0
102
RTVSPost2010PropOp45
 70
     1
102
RTVSPost2010Prop46
 90
       50
102
RTVSPost2010PropOp46
 70
     1
102
RTVSPost2010Prop47
 90
       50
102
RTVSPost2010PropOp47
 70
     1
102
RTVSPost2010Prop48
 90
       50
102
RTVSPost2010PropOp48
 70
     1
102
RTVSPost2010Prop49
280
     0
102
RTVSPost2010PropOp49
 70
     1
102
RTVSPost2010Prop50
 90
       50
102
RTVSPost2010PropOp50
 70
     1
102
RTVSPost2010Prop51ColorIndex
 90
      256
102
RTVSPost2010Prop51ColorRGB
 90
-16777216
102
RTVSPost2010PropOp51
 70
     0
102
RTVSPost2010Prop52
140
1.0
102
RTVSPost2010PropOp52
 70
     0
102
RTVSPost2010Prop53
 90
        2
102
RTVSPost2010PropOp53
 70
     1
102
RTVSPost2010Prop54
  1
strokes_ogs.tif
102
RTVSPost2010PropOp54
 70
     1
102
RTVSPost2010Prop55
280
     0
102
RTVSPost2010PropOp55
 70
     1
102
RTVSPost2010Prop56
140
1.0
102
RTVSPost2010PropOp56
 70
     1
102
RTVSPost2010Prop57
140
1.0
102
RTVSPost2010PropOp57
 70
     1
  0
XRECORD
  5
370
102
{ACAD_REACTORS
330
36F
102
}
330
36F
100
AcDbXrecord
280
     1
102
RTVSPropertyOp0
 70
     1
102
RTVSPropertyOp1
 70
     1
102
RTVSPropertyOp2
 70
     1
102
RTVSPropertyOp3
 70
     1
102
RTVSPropertyOp4
 70
     1
102
RTVSPropertyOp5
 70
     1
102
RTVSPropertyOp6
 70
     1
102
RTVSPropertyOp7
 70
     1
102
RTVSPropertyOp8
 70
     1
102
RTVSPropertyOp9
 70
     1
102
RTVSPropertyOp10
 70
     1
102
RTVSPropertyOp11
 70
     1
102
RTVSPropertyOp12
 70
     1
102
RTVSPropertyOp13
 70
     1
102
RTVSPropertyOp14
 70
     1
102
RTVSPropertyOp15
 70
     1
102
RTVSPropertyOp16
 70
     1
102
RTVSPropertyOp17
 70
     1
102
RTVSPropertyOp18
 70
     1
102
RTVSPropertyOp19
 70
     1
102
RTVSPropertyOp20
 70
     1
102
RTVSPropertyOp21
 70
     1
102
RTVSPropertyOp22
 70
     1
102
RTVSPropertyOp23
 70
     1
102
RTVSPropertyOp24
 70
     1
102
RTVSPropertyOp25
 70
     1
102
RTVSPropertyOp26
 70
     1
102
RTVSPropertyOp27
 70
     1
102
RTVSPropertyOp28
 70
     1
102
RTVSPropertyOp29
 70
     1
102
RTVSPropertyOp30
 70
     1
102
RTVSPropertyOp31
 70
     1
102
RTVSPropertyOp32
 70
     1
102
RTVSPropertyOp33
 70
     1
102
RTVSPropertyOp34
 70
     1
102
RTVSPropertyOp35
 70
     1
102
RTVSPropertyOp36
 70
     1
102
RTVSPropertyOp37
 70
     1
102
RTVSPropertyOp38
 70
     1
102
RTVSPropertyOp39
 70
     1
102
RTVSPropertyOp40
 70
     1
102
RTVSPropertyOp41
 70
     1
102
RTVSPropertyOp42
 70
     1
102
RTVSPropertyOp43
 70
     1
102
RTVSPropertyOp44
 70
     1
102
RTVSPropertyOp45
 70
     1
102
RTVSPropertyOp46
 70
     1
102
RTVSPropertyOp47
 70
     1
102
RTVSPropertyOp48
 70
     1
102
RTVSPropertyOp49
 70
     1
102
RTVSPropertyOp50
 70
     1
102
RTVSPropertyOp51
 70
     0
102
RTVSPropertyOp52
 70
     0
102
RTVSPropertyOp53
 70
     1
102
RTVSPropertyOp54
 70
     1
102
RTVSPropertyOp55
 70
     1
102
RTVSPropertyOp56
 70
     1
102
RTVSPropertyOp57
 70
     1
102
RTVSPost2010Prop28
280
     0
102
RTVSPost2010PropOp28
 70
     1
102
RTVSPost2010Prop29
280
     1
102
RTVSPost2010PropOp29
 70
     1
102
RTVSPost2010Prop30
280
     1
102
RTVSPost2010PropOp30
 70
     1
102
RTVSPost2010Prop31
280
     0
102
RTVSPost2010PropOp31
 70
     1
102
RTVSPost2010Prop32
280
     0
102
RTVSPost2010PropOp32
 70
     1
102
RTVSPost2010Prop33
280
     0
102
RTVSPost2010PropOp33
 70
     1
102
RTVSPost2010Prop34
280
     0
102
RTVSPost2010PropOp34
 70
     1
102
RTVSPost2010Prop35
280
     0
102
RTVSPost2010PropOp35
 70
     1
102
RTVSPost2010Prop36
280
     0
102
RTVSPost2010PropOp36
 70
     1
102
RTVSPost2010Prop37
 90
       50
102
RTVSPost2010PropOp37
 70
     1
102
RTVSPost2010Prop38
140
0.0
102
RTVSPost2010PropOp38
 70
     1
102
RTVSPost2010Prop39
140
1.0
102
RTVSPost2010PropOp39
 70
     1
102
RTVSPost2010Prop40
 90
        0
102
RTVSPost2010PropOp40
 70
     1
102
RTVSPost2010Prop41ColorIndex
 90
       18
102
RTVSPost2010Prop41ColorRGB
 90
        0
102
RTVSPost2010PropOp41
 70
     1
102
RTVSPost2010Prop42
 90
       50
102
RTVSPost2010PropOp42
 70
     1
102
RTVSPost2010Prop43
 90
        3
102
RTVSPost2010PropOp43
 70
     1
102
RTVSPost2010Prop44ColorIndex
 90
        5
102
RTVSPost2010Prop44ColorRGB
 90
      255
102
RTVSPost2010PropOp44
 70
     1
102
RTVSPost2010Prop45
280
     0
102
RTVSPost2010PropOp45
 70
     1
102
RTVSPost2010Prop46
 90
       50
102
RTVSPost2010PropOp46
 70
     1
102
RTVSPost2010Prop47
 90
       50
102
RTVSPost2010PropOp47
 70
     1
102
RTVSPost2010Prop48
 90
       50
102
RTVSPost2010PropOp48
 70
     1
102
RTVSPost2010Prop49
280
     0
102
RTVSPost2010PropOp49
 70
     1
102
RTVSPost2010Prop50
 90
       50
102
RTVSPost2010PropOp50
 70
     1
102
RTVSPost2010Prop51ColorIndex
 90
      256
102
RTVSPost2010Prop51ColorRGB
 90
-16777216
102
RTVSPost2010PropOp51
 70
     0
102
RTVSPost2010Prop52
140
1.0
102
RTVSPost2010PropOp52
 70
     0
102
RTVSPost2010Prop53
 90
        2
102
RTVSPost2010PropOp53
 70
     1
102
RTVSPost2010Prop54
  1
strokes_ogs.tif
102
RTVSPost2010PropOp54
 70
     1
102
RTVSPost2010Prop55
280
     0
102
RTVSPost2010PropOp55
 70
     1
102
RTVSPost2010Prop56
140
1.0
102
RTVSPost2010PropOp56
 70
     1
102
RTVSPost2010Prop57
140
1.0
102
RTVSPost2010PropOp57
 70
     1
  0
XRECORD
  5
36E
102
{ACAD_REACTORS
330
36D
102
}
330
36D
100
AcDbXrecord
280
     1
102
RTVSPropertyOp0
 70
     1
102
RTVSPropertyOp1
 70
     1
102
RTVSPropertyOp2
 70
     1
102
RTVSPropertyOp3
 70
     1
102
RTVSPropertyOp4
 70
     1
102
RTVSPropertyOp5
 70
     1
102
RTVSPropertyOp6
 70
     1
102
RTVSPropertyOp7
 70
     1
102
RTVSPropertyOp8
 70
     1
102
RTVSPropertyOp9
 70
     1
102
RTVSPropertyOp10
 70
     1
102
RTVSPropertyOp11
 70
     1
102
RTVSPropertyOp12
 70
     1
102
RTVSPropertyOp13
 70
     1
102
RTVSPropertyOp14
 70
     1
102
RTVSPropertyOp15
 70
     1
102
RTVSPropertyOp16
 70
     1
102
RTVSPropertyOp17
 70
     1
102
RTVSPropertyOp18
 70
     1
102
RTVSPropertyOp19
 70
     1
102
RTVSPropertyOp20
 70
     1
102
RTVSPropertyOp21
 70
     1
102
RTVSPropertyOp22
 70
     1
102
RTVSPropertyOp23
 70
     1
102
RTVSPropertyOp24
 70
     1
102
RTVSPropertyOp25
 70
     1
102
RTVSPropertyOp26
 70
     1
102
RTVSPropertyOp27
 70
     1
102
RTVSPropertyOp28
 70
     1
102
RTVSPropertyOp29
 70
     1
102
RTVSPropertyOp30
 70
     1
102
RTVSPropertyOp31
 70
     1
102
RTVSPropertyOp32
 70
     1
102
RTVSPropertyOp33
 70
     1
102
RTVSPropertyOp34
 70
     1
102
RTVSPropertyOp35
 70
     1
102
RTVSPropertyOp36
 70
     1
102
RTVSPropertyOp37
 70
     1
102
RTVSPropertyOp38
 70
     1
102
RTVSPropertyOp39
 70
     1
102
RTVSPropertyOp40
 70
     1
102
RTVSPropertyOp41
 70
     1
102
RTVSPropertyOp42
 70
     1
102
RTVSPropertyOp43
 70
     1
102
RTVSPropertyOp44
 70
     1
102
RTVSPropertyOp45
 70
     1
102
RTVSPropertyOp46
 70
     1
102
RTVSPropertyOp47
 70
     1
102
RTVSPropertyOp48
 70
     1
102
RTVSPropertyOp49
 70
     1
102
RTVSPropertyOp50
 70
     1
102
RTVSPropertyOp51
 70
     0
102
RTVSPropertyOp52
 70
     0
102
RTVSPropertyOp53
 70
     1
102
RTVSPropertyOp54
 70
     1
102
RTVSPropertyOp55
 70
     1
102
RTVSPropertyOp56
 70
     1
102
RTVSPropertyOp57
 70
     1
102
RTVSPost2010Prop28
280
     0
102
RTVSPost2010PropOp28
 70
     1
102
RTVSPost2010Prop29
280
     1
102
RTVSPost2010PropOp29
 70
     1
102
RTVSPost2010Prop30
280
     1
102
RTVSPost2010PropOp30
 70
     1
102
RTVSPost2010Prop31
280
     0
102
RTVSPost2010PropOp31
 70
     1
102
RTVSPost2010Prop32
280
     0
102
RTVSPost2010PropOp32
 70
     1
102
RTVSPost2010Prop33
280
     0
102
RTVSPost2010PropOp33
 70
     1
102
RTVSPost2010Prop34
280
     0
102
RTVSPost2010PropOp34
 70
     1
102
RTVSPost2010Prop35
280
     0
102
RTVSPost2010PropOp35
 70
     1
102
RTVSPost2010Prop36
280
     0
102
RTVSPost2010PropOp36
 70
     1
102
RTVSPost2010Prop37
 90
       50
102
RTVSPost2010PropOp37
 70
     1
102
RTVSPost2010Prop38
140
0.0
102
RTVSPost2010PropOp38
 70
     1
102
RTVSPost2010Prop39
140
1.0
102
RTVSPost2010PropOp39
 70
     1
102
RTVSPost2010Prop40
 90
        0
102
RTVSPost2010PropOp40
 70
     1
102
RTVSPost2010Prop41ColorIndex
 90
       18
102
RTVSPost2010Prop41ColorRGB
 90
        0
102
RTVSPost2010PropOp41
 70
     1
102
RTVSPost2010Prop42
 90
       50
102
RTVSPost2010PropOp42
 70
     1
102
RTVSPost2010Prop43
 90
        3
102
RTVSPost2010PropOp43
 70
     1
102
RTVSPost2010Prop44ColorIndex
 90
        5
102
RTVSPost2010Prop44ColorRGB
 90
      255
102
RTVSPost2010PropOp44
 70
     1
102
RTVSPost2010Prop45
280
     0
102
RTVSPost2010PropOp45
 70
     1
102
RTVSPost2010Prop46
 90
       50
102
RTVSPost2010PropOp46
 70
     1
102
RTVSPost2010Prop47
 90
       50
102
RTVSPost2010PropOp47
 70
     1
102
RTVSPost2010Prop48
 90
       50
102
RTVSPost2010PropOp48
 70
     1
102
RTVSPost2010Prop49
280
     0
102
RTVSPost2010PropOp49
 70
     1
102
RTVSPost2010Prop50
 90
       50
102
RTVSPost2010PropOp50
 70
     1
102
RTVSPost2010Prop51ColorIndex
 90
      256
102
RTVSPost2010Prop51ColorRGB
 90
-16777216
102
RTVSPost2010PropOp51
 70
     0
102
RTVSPost2010Prop52
140
1.0
102
RTVSPost2010PropOp52
 70
     0
102
RTVSPost2010Prop53
 90
        2
102
RTVSPost2010PropOp53
 70
     1
102
RTVSPost2010Prop54
  1
strokes_ogs.tif
102
RTVSPost2010PropOp54
 70
     1
102
RTVSPost2010Prop55
280
     0
102
RTVSPost2010PropOp55
 70
     1
102
RTVSPost2010Prop56
140
1.0
102
RTVSPost2010PropOp56
 70
     1
102
RTVSPost2010Prop57
140
1.0
102
RTVSPost2010PropOp57
 70
     1
  0
XRECORD
  5
368
102
{ACAD_REACTORS
330
367
102
}
330
367
100
AcDbXrecord
280
     1
102
RTVSPropertyOp0
 70
     1
102
RTVSPropertyOp1
 70
     1
102
RTVSPropertyOp2
 70
     1
102
RTVSPropertyOp3
 70
     1
102
RTVSPropertyOp4
 70
     1
102
RTVSPropertyOp5
 70
     1
102
RTVSPropertyOp6
 70
     1
102
RTVSPropertyOp7
 70
     1
102
RTVSPropertyOp8
 70
     1
102
RTVSPropertyOp9
 70
     1
102
RTVSPropertyOp10
 70
     1
102
RTVSPropertyOp11
 70
     1
102
RTVSPropertyOp12
 70
     1
102
RTVSPropertyOp13
 70
     1
102
RTVSPropertyOp14
 70
     1
102
RTVSPropertyOp15
 70
     1
102
RTVSPropertyOp16
 70
     1
102
RTVSPropertyOp17
 70
     1
102
RTVSPropertyOp18
 70
     1
102
RTVSPropertyOp19
 70
     1
102
RTVSPropertyOp20
 70
     1
102
RTVSPropertyOp21
 70
     1
102
RTVSPropertyOp22
 70
     1
102
RTVSPropertyOp23
 70
     1
102
RTVSPropertyOp24
 70
     1
102
RTVSPropertyOp25
 70
     1
102
RTVSPropertyOp26
 70
     1
102
RTVSPropertyOp27
 70
     1
102
RTVSPropertyOp28
 70
     1
102
RTVSPropertyOp29
 70
     1
102
RTVSPropertyOp30
 70
     1
102
RTVSPropertyOp31
 70
     1
102
RTVSPropertyOp32
 70
     1
102
RTVSPropertyOp33
 70
     1
102
RTVSPropertyOp34
 70
     1
102
RTVSPropertyOp35
 70
     1
102
RTVSPropertyOp36
 70
     1
102
RTVSPropertyOp37
 70
     1
102
RTVSPropertyOp38
 70
     1
102
RTVSPropertyOp39
 70
     1
102
RTVSPropertyOp40
 70
     1
102
RTVSPropertyOp41
 70
     1
102
RTVSPropertyOp42
 70
     1
102
RTVSPropertyOp43
 70
     1
102
RTVSPropertyOp44
 70
     1
102
RTVSPropertyOp45
 70
     1
102
RTVSPropertyOp46
 70
     1
102
RTVSPropertyOp47
 70
     1
102
RTVSPropertyOp48
 70
     1
102
RTVSPropertyOp49
 70
     1
102
RTVSPropertyOp50
 70
     1
102
RTVSPropertyOp51
 70
     0
102
RTVSPropertyOp52
 70
     0
102
RTVSPropertyOp53
 70
     1
102
RTVSPropertyOp54
 70
     1
102
RTVSPropertyOp55
 70
     1
102
RTVSPropertyOp56
 70
     1
102
RTVSPropertyOp57
 70
     1
102
RTVSPost2010Prop28
280
     0
102
RTVSPost2010PropOp28
 70
     1
102
RTVSPost2010Prop29
280
     1
102
RTVSPost2010PropOp29
 70
     1
102
RTVSPost2010Prop30
280
     1
102
RTVSPost2010PropOp30
 70
     1
102
RTVSPost2010Prop31
280
     0
102
RTVSPost2010PropOp31
 70
     1
102
RTVSPost2010Prop32
280
     0
102
RTVSPost2010PropOp32
 70
     1
102
RTVSPost2010Prop33
280
     0
102
RTVSPost2010PropOp33
 70
     1
102
RTVSPost2010Prop34
280
     0
102
RTVSPost2010PropOp34
 70
     1
102
RTVSPost2010Prop35
280
     0
102
RTVSPost2010PropOp35
 70
     1
102
RTVSPost2010Prop36
280
     0
102
RTVSPost2010PropOp36
 70
     1
102
RTVSPost2010Prop37
 90
       50
102
RTVSPost2010PropOp37
 70
     1
102
RTVSPost2010Prop38
140
0.0
102
RTVSPost2010PropOp38
 70
     1
102
RTVSPost2010Prop39
140
1.0
102
RTVSPost2010PropOp39
 70
     1
102
RTVSPost2010Prop40
 90
        0
102
RTVSPost2010PropOp40
 70
     1
102
RTVSPost2010Prop41ColorIndex
 90
       18
102
RTVSPost2010Prop41ColorRGB
 90
        0
102
RTVSPost2010PropOp41
 70
     1
102
RTVSPost2010Prop42
 90
       50
102
RTVSPost2010PropOp42
 70
     1
102
RTVSPost2010Prop43
 90
        3
102
RTVSPost2010PropOp43
 70
     1
102
RTVSPost2010Prop44ColorIndex
 90
        5
102
RTVSPost2010Prop44ColorRGB
 90
      255
102
RTVSPost2010PropOp44
 70
     1
102
RTVSPost2010Prop45
280
     0
102
RTVSPost2010PropOp45
 70
     1
102
RTVSPost2010Prop46
 90
       50
102
RTVSPost2010PropOp46
 70
     1
102
RTVSPost2010Prop47
 90
       50
102
RTVSPost2010PropOp47
 70
     1
102
RTVSPost2010Prop48
 90
       50
102
RTVSPost2010PropOp48
 70
     1
102
RTVSPost2010Prop49
280
     0
102
RTVSPost2010PropOp49
 70
     1
102
RTVSPost2010Prop50
 90
       50
102
RTVSPost2010PropOp50
 70
     1
102
RTVSPost2010Prop51ColorIndex
 90
      256
102
RTVSPost2010Prop51ColorRGB
 90
-16777216
102
RTVSPost2010PropOp51
 70
     0
102
RTVSPost2010Prop52
140
1.0
102
RTVSPost2010PropOp52
 70
     0
102
RTVSPost2010Prop53
 90
        2
102
RTVSPost2010PropOp53
 70
     1
102
RTVSPost2010Prop54
  1
strokes_ogs.tif
102
RTVSPost2010PropOp54
 70
     1
102
RTVSPost2010Prop55
280
     0
102
RTVSPost2010PropOp55
 70
     1
102
RTVSPost2010Prop56
140
1.0
102
RTVSPost2010PropOp56
 70
     1
102
RTVSPost2010Prop57
140
1.0
102
RTVSPost2010PropOp57
 70
     1
  0
XRECORD
  5
36A
102
{ACAD_REACTORS
330
369
102
}
330
369
100
AcDbXrecord
280
     1
102
RTVSPropertyOp0
 70
     1
102
RTVSPropertyOp1
 70
     1
102
RTVSPropertyOp2
 70
     1
102
RTVSPropertyOp3
 70
     1
102
RTVSPropertyOp4
 70
     1
102
RTVSPropertyOp5
 70
     1
102
RTVSPropertyOp6
 70
     1
102
RTVSPropertyOp7
 70
     1
102
RTVSPropertyOp8
 70
     1
102
RTVSPropertyOp9
 70
     1
102
RTVSPropertyOp10
 70
     1
102
RTVSPropertyOp11
 70
     1
102
RTVSPropertyOp12
 70
     1
102
RTVSPropertyOp13
 70
     1
102
RTVSPropertyOp14
 70
     1
102
RTVSPropertyOp15
 70
     1
102
RTVSPropertyOp16
 70
     1
102
RTVSPropertyOp17
 70
     1
102
RTVSPropertyOp18
 70
     1
102
RTVSPropertyOp19
 70
     1
102
RTVSPropertyOp20
 70
     1
102
RTVSPropertyOp21
 70
     1
102
RTVSPropertyOp22
 70
     1
102
RTVSPropertyOp23
 70
     1
102
RTVSPropertyOp24
 70
     1
102
RTVSPropertyOp25
 70
     1
102
RTVSPropertyOp26
 70
     1
102
RTVSPropertyOp27
 70
     1
102
RTVSPropertyOp28
 70
     1
102
RTVSPropertyOp29
 70
     1
102
RTVSPropertyOp30
 70
     1
102
RTVSPropertyOp31
 70
     1
102
RTVSPropertyOp32
 70
     1
102
RTVSPropertyOp33
 70
     1
102
RTVSPropertyOp34
 70
     1
102
RTVSPropertyOp35
 70
     1
102
RTVSPropertyOp36
 70
     1
102
RTVSPropertyOp37
 70
     1
102
RTVSPropertyOp38
 70
     1
102
RTVSPropertyOp39
 70
     1
102
RTVSPropertyOp40
 70
     1
102
RTVSPropertyOp41
 70
     1
102
RTVSPropertyOp42
 70
     1
102
RTVSPropertyOp43
 70
     1
102
RTVSPropertyOp44
 70
     1
102
RTVSPropertyOp45
 70
     1
102
RTVSPropertyOp46
 70
     1
102
RTVSPropertyOp47
 70
     1
102
RTVSPropertyOp48
 70
     1
102
RTVSPropertyOp49
 70
     1
102
RTVSPropertyOp50
 70
     1
102
RTVSPropertyOp51
 70
     0
102
RTVSPropertyOp52
 70
     0
102
RTVSPropertyOp53
 70
     1
102
RTVSPropertyOp54
 70
     1
102
RTVSPropertyOp55
 70
     1
102
RTVSPropertyOp56
 70
     1
102
RTVSPropertyOp57
 70
     1
102
RTVSPost2010Prop28
280
     0
102
RTVSPost2010PropOp28
 70
     1
102
RTVSPost2010Prop29
280
     1
102
RTVSPost2010PropOp29
 70
     1
102
RTVSPost2010Prop30
280
     1
102
RTVSPost2010PropOp30
 70
     1
102
RTVSPost2010Prop31
280
     0
102
RTVSPost2010PropOp31
 70
     1
102
RTVSPost2010Prop32
280
     0
102
RTVSPost2010PropOp32
 70
     1
102
RTVSPost2010Prop33
280
     0
102
RTVSPost2010PropOp33
 70
     1
102
RTVSPost2010Prop34
280
     0
102
RTVSPost2010PropOp34
 70
     1
102
RTVSPost2010Prop35
280
     0
102
RTVSPost2010PropOp35
 70
     1
102
RTVSPost2010Prop36
280
     0
102
RTVSPost2010PropOp36
 70
     1
102
RTVSPost2010Prop37
 90
       50
102
RTVSPost2010PropOp37
 70
     1
102
RTVSPost2010Prop38
140
0.0
102
RTVSPost2010PropOp38
 70
     1
102
RTVSPost2010Prop39
140
1.0
102
RTVSPost2010PropOp39
 70
     1
102
RTVSPost2010Prop40
 90
        0
102
RTVSPost2010PropOp40
 70
     1
102
RTVSPost2010Prop41ColorIndex
 90
       18
102
RTVSPost2010Prop41ColorRGB
 90
        0
102
RTVSPost2010PropOp41
 70
     1
102
RTVSPost2010Prop42
 90
       50
102
RTVSPost2010PropOp42
 70
     1
102
RTVSPost2010Prop43
 90
        3
102
RTVSPost2010PropOp43
 70
     1
102
RTVSPost2010Prop44ColorIndex
 90
        5
102
RTVSPost2010Prop44ColorRGB
 90
      255
102
RTVSPost2010PropOp44
 70
     1
102
RTVSPost2010Prop45
280
     0
102
RTVSPost2010PropOp45
 70
     1
102
RTVSPost2010Prop46
 90
       50
102
RTVSPost2010PropOp46
 70
     1
102
RTVSPost2010Prop47
 90
       50
102
RTVSPost2010PropOp47
 70
     1
102
RTVSPost2010Prop48
 90
       50
102
RTVSPost2010PropOp48
 70
     1
102
RTVSPost2010Prop49
280
     0
102
RTVSPost2010PropOp49
 70
     1
102
RTVSPost2010Prop50
 90
       50
102
RTVSPost2010PropOp50
 70
     1
102
RTVSPost2010Prop51ColorIndex
 90
      256
102
RTVSPost2010Prop51ColorRGB
 90
-16777216
102
RTVSPost2010PropOp51
 70
     0
102
RTVSPost2010Prop52
140
1.0
102
RTVSPost2010PropOp52
 70
     0
102
RTVSPost2010Prop53
 90
        2
102
RTVSPost2010PropOp53
 70
     1
102
RTVSPost2010Prop54
  1
strokes_ogs.tif
102
RTVSPost2010PropOp54
 70
     1
102
RTVSPost2010Prop55
280
     0
102
RTVSPost2010PropOp55
 70
     1
102
RTVSPost2010Prop56
140
1.0
102
RTVSPost2010PropOp56
 70
     1
102
RTVSPost2010Prop57
140
1.0
102
RTVSPost2010PropOp57
 70
     1
  0
XRECORD
  5
35A
102
{ACAD_REACTORS
330
359
102
}
330
359
100
AcDbXrecord
280
     1
102
RTVSPropertyOp0
 70
     1
102
RTVSPropertyOp1
 70
     1
102
RTVSPropertyOp2
 70
     1
102
RTVSPropertyOp3
 70
     1
102
RTVSPropertyOp4
 70
     1
102
RTVSPropertyOp5
 70
     1
102
RTVSPropertyOp6
 70
     1
102
RTVSPropertyOp7
 70
     1
102
RTVSPropertyOp8
 70
     1
102
RTVSPropertyOp9
 70
     1
102
RTVSPropertyOp10
 70
     1
102
RTVSPropertyOp11
 70
     1
102
RTVSPropertyOp12
 70
     1
102
RTVSPropertyOp13
 70
     1
102
RTVSPropertyOp14
 70
     1
102
RTVSPropertyOp15
 70
     1
102
RTVSPropertyOp16
 70
     1
102
RTVSPropertyOp17
 70
     1
102
RTVSPropertyOp18
 70
     1
102
RTVSPropertyOp19
 70
     1
102
RTVSPropertyOp20
 70
     1
102
RTVSPropertyOp21
 70
     1
102
RTVSPropertyOp22
 70
     1
102
RTVSPropertyOp23
 70
     1
102
RTVSPropertyOp24
 70
     1
102
RTVSPropertyOp25
 70
     1
102
RTVSPropertyOp26
 70
     1
102
RTVSPropertyOp27
 70
     1
102
RTVSPropertyOp28
 70
     1
102
RTVSPropertyOp29
 70
     1
102
RTVSPropertyOp30
 70
     1
102
RTVSPropertyOp31
 70
     1
102
RTVSPropertyOp32
 70
     1
102
RTVSPropertyOp33
 70
     1
102
RTVSPropertyOp34
 70
     1
102
RTVSPropertyOp35
 70
     1
102
RTVSPropertyOp36
 70
     1
102
RTVSPropertyOp37
 70
     1
102
RTVSPropertyOp38
 70
     1
102
RTVSPropertyOp39
 70
     1
102
RTVSPropertyOp40
 70
     1
102
RTVSPropertyOp41
 70
     1
102
RTVSPropertyOp42
 70
     1
102
RTVSPropertyOp43
 70
     1
102
RTVSPropertyOp44
 70
     1
102
RTVSPropertyOp45
 70
     1
102
RTVSPropertyOp46
 70
     1
102
RTVSPropertyOp47
 70
     1
102
RTVSPropertyOp48
 70
     1
102
RTVSPropertyOp49
 70
     1
102
RTVSPropertyOp50
 70
     1
102
RTVSPropertyOp51
 70
     0
102
RTVSPropertyOp52
 70
     0
102
RTVSPropertyOp53
 70
     1
102
RTVSPropertyOp54
 70
     1
102
RTVSPropertyOp55
 70
     1
102
RTVSPropertyOp56
 70
     1
102
RTVSPropertyOp57
 70
     1
102
RTVSPost2010Prop28
280
     0
102
RTVSPost2010PropOp28
 70
     1
102
RTVSPost2010Prop29
280
     1
102
RTVSPost2010PropOp29
 70
     1
102
RTVSPost2010Prop30
280
     1
102
RTVSPost2010PropOp30
 70
     1
102
RTVSPost2010Prop31
280
     0
102
RTVSPost2010PropOp31
 70
     1
102
RTVSPost2010Prop32
280
     0
102
RTVSPost2010PropOp32
 70
     1
102
RTVSPost2010Prop33
280
     0
102
RTVSPost2010PropOp33
 70
     1
102
RTVSPost2010Prop34
280
     0
102
RTVSPost2010PropOp34
 70
     1
102
RTVSPost2010Prop35
280
     0
102
RTVSPost2010PropOp35
 70
     1
102
RTVSPost2010Prop36
280
     0
102
RTVSPost2010PropOp36
 70
     1
102
RTVSPost2010Prop37
 90
       50
102
RTVSPost2010PropOp37
 70
     1
102
RTVSPost2010Prop38
140
0.0
102
RTVSPost2010PropOp38
 70
     1
102
RTVSPost2010Prop39
140
1.0
102
RTVSPost2010PropOp39
 70
     1
102
RTVSPost2010Prop40
 90
        0
102
RTVSPost2010PropOp40
 70
     1
102
RTVSPost2010Prop41ColorIndex
 90
       18
102
RTVSPost2010Prop41ColorRGB
 90
        0
102
RTVSPost2010PropOp41
 70
     1
102
RTVSPost2010Prop42
 90
       50
102
RTVSPost2010PropOp42
 70
     1
102
RTVSPost2010Prop43
 90
        3
102
RTVSPost2010PropOp43
 70
     1
102
RTVSPost2010Prop44ColorIndex
 90
        5
102
RTVSPost2010Prop44ColorRGB
 90
      255
102
RTVSPost2010PropOp44
 70
     1
102
RTVSPost2010Prop45
280
     0
102
RTVSPost2010PropOp45
 70
     1
102
RTVSPost2010Prop46
 90
       50
102
RTVSPost2010PropOp46
 70
     1
102
RTVSPost2010Prop47
 90
       50
102
RTVSPost2010PropOp47
 70
     1
102
RTVSPost2010Prop48
 90
       50
102
RTVSPost2010PropOp48
 70
     1
102
RTVSPost2010Prop49
280
     0
102
RTVSPost2010PropOp49
 70
     1
102
RTVSPost2010Prop50
 90
       50
102
RTVSPost2010PropOp50
 70
     1
102
RTVSPost2010Prop51ColorIndex
 90
      256
102
RTVSPost2010Prop51ColorRGB
 90
-16777216
102
RTVSPost2010PropOp51
 70
     0
102
RTVSPost2010Prop52
140
1.0
102
RTVSPost2010PropOp52
 70
     0
102
RTVSPost2010Prop53
 90
        2
102
RTVSPost2010PropOp53
 70
     1
102
RTVSPost2010Prop54
  1
strokes_ogs.tif
102
RTVSPost2010PropOp54
 70
     1
102
RTVSPost2010Prop55
280
     0
102
RTVSPost2010PropOp55
 70
     1
102
RTVSPost2010Prop56
140
1.0
102
RTVSPost2010PropOp56
 70
     1
102
RTVSPost2010Prop57
140
1.0
102
RTVSPost2010PropOp57
 70
     1
  0
XRECORD
  5
34C
102
{ACAD_REACTORS
330
34B
102
}
330
34B
100
AcDbXrecord
280
     1
102
RTVSPropertyOp0
 70
     1
102
RTVSPropertyOp1
 70
     1
102
RTVSPropertyOp2
 70
     1
102
RTVSPropertyOp3
 70
     1
102
RTVSPropertyOp4
 70
     1
102
RTVSPropertyOp5
 70
     1
102
RTVSPropertyOp6
 70
     1
102
RTVSPropertyOp7
 70
     1
102
RTVSPropertyOp8
 70
     1
102
RTVSPropertyOp9
 70
     1
102
RTVSPropertyOp10
 70
     1
102
RTVSPropertyOp11
 70
     1
102
RTVSPropertyOp12
 70
     1
102
RTVSPropertyOp13
 70
     1
102
RTVSPropertyOp14
 70
     1
102
RTVSPropertyOp15
 70
     1
102
RTVSPropertyOp16
 70
     1
102
RTVSPropertyOp17
 70
     1
102
RTVSPropertyOp18
 70
     1
102
RTVSPropertyOp19
 70
     1
102
RTVSPropertyOp20
 70
     1
102
RTVSPropertyOp21
 70
     1
102
RTVSPropertyOp22
 70
     1
102
RTVSPropertyOp23
 70
     1
102
RTVSPropertyOp24
 70
     1
102
RTVSPropertyOp25
 70
     1
102
RTVSPropertyOp26
 70
     1
102
RTVSPropertyOp27
 70
     1
102
RTVSPropertyOp28
 70
     1
102
RTVSPropertyOp29
 70
     1
102
RTVSPropertyOp30
 70
     1
102
RTVSPropertyOp31
 70
     1
102
RTVSPropertyOp32
 70
     1
102
RTVSPropertyOp33
 70
     1
102
RTVSPropertyOp34
 70
     1
102
RTVSPropertyOp35
 70
     1
102
RTVSPropertyOp36
 70
     1
102
RTVSPropertyOp37
 70
     1
102
RTVSPropertyOp38
 70
     1
102
RTVSPropertyOp39
 70
     1
102
RTVSPropertyOp40
 70
     1
102
RTVSPropertyOp41
 70
     1
102
RTVSPropertyOp42
 70
     1
102
RTVSPropertyOp43
 70
     1
102
RTVSPropertyOp44
 70
     1
102
RTVSPropertyOp45
 70
     1
102
RTVSPropertyOp46
 70
     1
102
RTVSPropertyOp47
 70
     1
102
RTVSPropertyOp48
 70
     1
102
RTVSPropertyOp49
 70
     1
102
RTVSPropertyOp50
 70
     1
102
RTVSPropertyOp51
 70
     0
102
RTVSPropertyOp52
 70
     0
102
RTVSPropertyOp53
 70
     1
102
RTVSPropertyOp54
 70
     1
102
RTVSPropertyOp55
 70
     1
102
RTVSPropertyOp56
 70
     1
102
RTVSPropertyOp57
 70
     1
102
RTVSPost2010Prop28
280
     0
102
RTVSPost2010PropOp28
 70
     1
102
RTVSPost2010Prop29
280
     1
102
RTVSPost2010PropOp29
 70
     1
102
RTVSPost2010Prop30
280
     1
102
RTVSPost2010PropOp30
 70
     1
102
RTVSPost2010Prop31
280
     0
102
RTVSPost2010PropOp31
 70
     1
102
RTVSPost2010Prop32
280
     0
102
RTVSPost2010PropOp32
 70
     1
102
RTVSPost2010Prop33
280
     0
102
RTVSPost2010PropOp33
 70
     1
102
RTVSPost2010Prop34
280
     0
102
RTVSPost2010PropOp34
 70
     1
102
RTVSPost2010Prop35
280
     0
102
RTVSPost2010PropOp35
 70
     1
102
RTVSPost2010Prop36
280
     0
102
RTVSPost2010PropOp36
 70
     1
102
RTVSPost2010Prop37
 90
       50
102
RTVSPost2010PropOp37
 70
     1
102
RTVSPost2010Prop38
140
0.0
102
RTVSPost2010PropOp38
 70
     1
102
RTVSPost2010Prop39
140
1.0
102
RTVSPost2010PropOp39
 70
     1
102
RTVSPost2010Prop40
 90
        0
102
RTVSPost2010PropOp40
 70
     1
102
RTVSPost2010Prop41ColorIndex
 90
       18
102
RTVSPost2010Prop41ColorRGB
 90
        0
102
RTVSPost2010PropOp41
 70
     1
102
RTVSPost2010Prop42
 90
       50
102
RTVSPost2010PropOp42
 70
     1
102
RTVSPost2010Prop43
 90
        3
102
RTVSPost2010PropOp43
 70
     1
102
RTVSPost2010Prop44ColorIndex
 90
        5
102
RTVSPost2010Prop44ColorRGB
 90
      255
102
RTVSPost2010PropOp44
 70
     1
102
RTVSPost2010Prop45
280
     0
102
RTVSPost2010PropOp45
 70
     1
102
RTVSPost2010Prop46
 90
       50
102
RTVSPost2010PropOp46
 70
     1
102
RTVSPost2010Prop47
 90
       50
102
RTVSPost2010PropOp47
 70
     1
102
RTVSPost2010Prop48
 90
       50
102
RTVSPost2010PropOp48
 70
     1
102
RTVSPost2010Prop49
280
     0
102
RTVSPost2010PropOp49
 70
     1
102
RTVSPost2010Prop50
 90
       50
102
RTVSPost2010PropOp50
 70
     1
102
RTVSPost2010Prop51ColorIndex
 90
      256
102
RTVSPost2010Prop51ColorRGB
 90
-16777216
102
RTVSPost2010PropOp51
 70
     0
102
RTVSPost2010Prop52
140
1.0
102
RTVSPost2010PropOp52
 70
     0
102
RTVSPost2010Prop53
 90
        2
102
RTVSPost2010PropOp53
 70
     1
102
RTVSPost2010Prop54
  1
strokes_ogs.tif
102
RTVSPost2010PropOp54
 70
     1
102
RTVSPost2010Prop55
280
     0
102
RTVSPost2010PropOp55
 70
     1
102
RTVSPost2010Prop56
140
1.0
102
RTVSPost2010PropOp56
 70
     1
102
RTVSPost2010Prop57
140
1.0
102
RTVSPost2010PropOp57
 70
     1
  0
XRECORD
  5
36C
102
{ACAD_REACTORS
330
36B
102
}
330
36B
100
AcDbXrecord
280
     1
102
RTVSPropertyOp0
 70
     1
102
RTVSPropertyOp1
 70
     1
102
RTVSPropertyOp2
 70
     1
102
RTVSPropertyOp3
 70
     1
102
RTVSPropertyOp4
 70
     1
102
RTVSPropertyOp5
 70
     1
102
RTVSPropertyOp6
 70
     1
102
RTVSPropertyOp7
 70
     1
102
RTVSPropertyOp8
 70
     1
102
RTVSPropertyOp9
 70
     1
102
RTVSPropertyOp10
 70
     1
102
RTVSPropertyOp11
 70
     1
102
RTVSPropertyOp12
 70
     1
102
RTVSPropertyOp13
 70
     1
102
RTVSPropertyOp14
 70
     1
102
RTVSPropertyOp15
 70
     1
102
RTVSPropertyOp16
 70
     1
102
RTVSPropertyOp17
 70
     1
102
RTVSPropertyOp18
 70
     1
102
RTVSPropertyOp19
 70
     1
102
RTVSPropertyOp20
 70
     1
102
RTVSPropertyOp21
 70
     1
102
RTVSPropertyOp22
 70
     1
102
RTVSPropertyOp23
 70
     1
102
RTVSPropertyOp24
 70
     1
102
RTVSPropertyOp25
 70
     1
102
RTVSPropertyOp26
 70
     1
102
RTVSPropertyOp27
 70
     1
102
RTVSPropertyOp28
 70
     1
102
RTVSPropertyOp29
 70
     1
102
RTVSPropertyOp30
 70
     1
102
RTVSPropertyOp31
 70
     1
102
RTVSPropertyOp32
 70
     1
102
RTVSPropertyOp33
 70
     1
102
RTVSPropertyOp34
 70
     1
102
RTVSPropertyOp35
 70
     1
102
RTVSPropertyOp36
 70
     1
102
RTVSPropertyOp37
 70
     1
102
RTVSPropertyOp38
 70
     1
102
RTVSPropertyOp39
 70
     1
102
RTVSPropertyOp40
 70
     1
102
RTVSPropertyOp41
 70
     1
102
RTVSPropertyOp42
 70
     1
102
RTVSPropertyOp43
 70
     1
102
RTVSPropertyOp44
 70
     1
102
RTVSPropertyOp45
 70
     1
102
RTVSPropertyOp46
 70
     1
102
RTVSPropertyOp47
 70
     1
102
RTVSPropertyOp48
 70
     1
102
RTVSPropertyOp49
 70
     1
102
RTVSPropertyOp50
 70
     1
102
RTVSPropertyOp51
 70
     0
102
RTVSPropertyOp52
 70
     0
102
RTVSPropertyOp53
 70
     1
102
RTVSPropertyOp54
 70
     1
102
RTVSPropertyOp55
 70
     1
102
RTVSPropertyOp56
 70
     1
102
RTVSPropertyOp57
 70
     1
102
RTVSPost2010Prop28
280
     0
102
RTVSPost2010PropOp28
 70
     1
102
RTVSPost2010Prop29
280
     1
102
RTVSPost2010PropOp29
 70
     1
102
RTVSPost2010Prop30
280
     1
102
RTVSPost2010PropOp30
 70
     1
102
RTVSPost2010Prop31
280
     0
102
RTVSPost2010PropOp31
 70
     1
102
RTVSPost2010Prop32
280
     0
102
RTVSPost2010PropOp32
 70
     1
102
RTVSPost2010Prop33
280
     0
102
RTVSPost2010PropOp33
 70
     1
102
RTVSPost2010Prop34
280
     0
102
RTVSPost2010PropOp34
 70
     1
102
RTVSPost2010Prop35
280
     0
102
RTVSPost2010PropOp35
 70
     1
102
RTVSPost2010Prop36
280
     0
102
RTVSPost2010PropOp36
 70
     1
102
RTVSPost2010Prop37
 90
       50
102
RTVSPost2010PropOp37
 70
     1
102
RTVSPost2010Prop38
140
0.0
102
RTVSPost2010PropOp38
 70
     1
102
RTVSPost2010Prop39
140
1.0
102
RTVSPost2010PropOp39
 70
     1
102
RTVSPost2010Prop40
 90
        0
102
RTVSPost2010PropOp40
 70
     1
102
RTVSPost2010Prop41ColorIndex
 90
       18
102
RTVSPost2010Prop41ColorRGB
 90
        0
102
RTVSPost2010PropOp41
 70
     1
102
RTVSPost2010Prop42
 90
       50
102
RTVSPost2010PropOp42
 70
     1
102
RTVSPost2010Prop43
 90
        3
102
RTVSPost2010PropOp43
 70
     1
102
RTVSPost2010Prop44ColorIndex
 90
        5
102
RTVSPost2010Prop44ColorRGB
 90
      255
102
RTVSPost2010PropOp44
 70
     1
102
RTVSPost2010Prop45
280
     0
102
RTVSPost2010PropOp45
 70
     1
102
RTVSPost2010Prop46
 90
       50
102
RTVSPost2010PropOp46
 70
     1
102
RTVSPost2010Prop47
 90
       50
102
RTVSPost2010PropOp47
 70
     1
102
RTVSPost2010Prop48
 90
       50
102
RTVSPost2010PropOp48
 70
     1
102
RTVSPost2010Prop49
280
     0
102
RTVSPost2010PropOp49
 70
     1
102
RTVSPost2010Prop50
 90
       50
102
RTVSPost2010PropOp50
 70
     1
102
RTVSPost2010Prop51ColorIndex
 90
      256
102
RTVSPost2010Prop51ColorRGB
 90
-16777216
102
RTVSPost2010PropOp51
 70
     0
102
RTVSPost2010Prop52
140
1.0
102
RTVSPost2010PropOp52
 70
     0
102
RTVSPost2010Prop53
 90
        2
102
RTVSPost2010PropOp53
 70
     1
102
RTVSPost2010Prop54
  1
strokes_ogs.tif
102
RTVSPost2010PropOp54
 70
     1
102
RTVSPost2010Prop55
280
     0
102
RTVSPost2010PropOp55
 70
     1
102
RTVSPost2010Prop56
140
1.0
102
RTVSPost2010PropOp56
 70
     1
102
RTVSPost2010Prop57
140
1.0
102
RTVSPost2010PropOp57
 70
     1
  0
ENDSEC
  0
EOF
