  0
SECTION
  2
HEADER
  9
$ACADVER
  1
AC1027
  9
$ACADMAINTVER
 70
   125
  9
$DWGCODEPAGE
  3
ANSI_1250
  9
$LASTSAVEDBY
  1
lf1902
  9
$REQUIREDVERSIONS
160
                 0
  9
$INSBASE
 10
0.0
 20
0.0
 30
0.0
  9
$EXTMIN
 10
-77.88248672623919
 20
-16.0
 30
0.0
  9
$EXTMAX
 10
149.733970111869
 20
69.35490172623919
 30
0.0
  9
$LIMMIN
 10
-0.5
 20
-0.5
  9
$LIMMAX
 10
5.0
 20
5.0
  9
$ORTHOMODE
 70
     0
  9
$REGENMODE
 70
     1
  9
$FILLMODE
 70
     1
  9
$QTEXTMODE
 70
     0
  9
$MIRRTEXT
 70
     1
  9
$LTSCALE
 40
1.0
  9
$ATTMODE
 70
     1
  9
$TEXTSIZE
 40
0.2
  9
$TRACEWID
 40
0.05
  9
$TEXTSTYLE
  7
Standard
  9
$CLAYER
  8
0
  9
$CELTYPE
  6
ByLayer
  9
$CECOLOR
 62
   256
  9
$CELTSCALE
 40
1.0
  9
$DISPSILH
 70
     0
  9
$DIMSCALE
 40
1.0
  9
$DIMASZ
 40
0.18
  9
$DIMEXO
 40
0.0625
  9
$DIMDLI
 40
0.38
  9
$DIMRND
 40
0.0
  9
$DIMDLE
 40
0.0
  9
$DIMEXE
 40
0.18
  9
$DIMTP
 40
0.0
  9
$DIMTM
 40
0.0
  9
$DIMTXT
 40
0.18
  9
$DIMCEN
 40
0.09
  9
$DIMTSZ
 40
0.0
  9
$DIMTOL
 70
     0
  9
$DIMLIM
 70
     0
  9
$DIMTIH
 70
     1
  9
$DIMTOH
 70
     1
  9
$DIMSE1
 70
     0
  9
$DIMSE2
 70
     0
  9
$DIMTAD
 70
     0
  9
$DIMZIN
 70
     0
  9
$DIMBLK
  1

  9
$DIMASO
 70
     1
  9
$DIMSHO
 70
     1
  9
$DIMPOST
  1

  9
$DIMAPOST
  1

  9
$DIMALT
 70
     0
  9
$DIMALTD
 70
     2
  9
$DIMALTF
 40
25.4
  9
$DIMLFAC
 40
1.0
  9
$DIMTOFL
 70
     0
  9
$DIMTVP
 40
0.0
  9
$DIMTIX
 70
     0
  9
$DIMSOXD
 70
     0
  9
$DIMSAH
 70
     0
  9
$DIMBLK1
  1

  9
$DIMBLK2
  1

  9
$DIMSTYLE
  2
Standard
  9
$DIMCLRD
 70
     0
  9
$DIMCLRE
 70
     0
  9
$DIMCLRT
 70
     0
  9
$DIMTFAC
 40
1.0
  9
$DIMGAP
 40
0.09
  9
$DIMJUST
 70
     0
  9
$DIMSD1
 70
     0
  9
$DIMSD2
 70
     0
  9
$DIMTOLJ
 70
     1
  9
$DIMTZIN
 70
     0
  9
$DIMALTZ
 70
     0
  9
$DIMALTTZ
 70
     0
  9
$DIMUPT
 70
     0
  9
$DIMDEC
 70
     4
  9
$DIMTDEC
 70
     4
  9
$DIMALTU
 70
     2
  9
$DIMALTTD
 70
     2
  9
$DIMTXSTY
  7
Standard
  9
$DIMAUNIT
 70
     0
  9
$DIMADEC
 70
     0
  9
$DIMALTRND
 40
0.0
  9
$DIMAZIN
 70
     0
  9
$DIMDSEP
 70
    46
  9
$DIMATFIT
 70
     3
  9
$DIMFRAC
 70
     0
  9
$DIMLDRBLK
  1

  9
$DIMLUNIT
 70
     2
  9
$DIMLWD
 70
    -2
  9
$DIMLWE
 70
    -2
  9
$DIMTMOVE
 70
     0
  9
$DIMFXL
 40
1.0
  9
$DIMFXLON
 70
     0
  9
$DIMJOGANG
 40
0.7853981633974483
  9
$DIMTFILL
 70
     0
  9
$DIMTFILLCLR
 70
     0
  9
$DIMARCSYM
 70
     0
  9
$DIMLTYPE
  6

  9
$DIMLTEX1
  6

  9
$DIMLTEX2
  6

  9
$DIMTXTDIRECTION
 70
     0
  9
$LUNITS
 70
     2
  9
$LUPREC
 70
     2
  9
$SKETCHINC
 40
0.1
  9
$FILLETRAD
 40
0.5
  9
$AUNITS
 70
     0
  9
$AUPREC
 70
     0
  9
$MENU
  1
.
  9
$ELEVATION
 40
0.0
  9
$PELEVATION
 40
0.0
  9
$THICKNESS
 40
0.0
  9
$LIMCHECK
 70
     0
  9
$CHAMFERA
 40
0.0
  9
$CHAMFERB
 40
0.0
  9
$CHAMFERC
 40
0.0
  9
$CHAMFERD
 40
0.0
  9
$SKPOLY
 70
     0
  9
$TDCREATE
 40
2459412.479016204
  9
$TDUCREATE
 40
2459412.395689827
  9
$TDUPDATE
 40
2459412.482060185
  9
$TDUUPDATE
 40
2459412.398726852
  9
$TDINDWG
 40
0.0004398264
  9
$TDUSRTIMER
 40
0.0004398264
  9
$USRTIMER
 70
     1
  9
$ANGBASE
 50
0.0
  9
$ANGDIR
 70
     0
  9
$PDMODE
 70
     0
  9
$PDSIZE
 40
0.0
  9
$PLINEWID
 40
0.0
  9
$SPLFRAME
 70
     0
  9
$SPLINETYPE
 70
     6
  9
$SPLINESEGS
 70
     8
  9
$HANDSEED
  5
6DD
  9
$SURFTAB1
 70
     6
  9
$SURFTAB2
 70
     6
  9
$SURFTYPE
 70
     6
  9
$SURFU
 70
     6
  9
$SURFV
 70
     6
  9
$UCSBASE
  2

  9
$UCSNAME
  2

  9
$UCSORG
 10
0.0
 20
0.0
 30
0.0
  9
$UCSXDIR
 10
1.0
 20
0.0
 30
0.0
  9
$UCSYDIR
 10
0.0
 20
1.0
 30
0.0
  9
$UCSORTHOREF
  2

  9
$UCSORTHOVIEW
 70
     0
  9
$UCSORGTOP
 10
0.0
 20
0.0
 30
0.0
  9
$UCSORGBOTTOM
 10
0.0
 20
0.0
 30
0.0
  9
$UCSORGLEFT
 10
0.0
 20
0.0
 30
0.0
  9
$UCSORGRIGHT
 10
0.0
 20
0.0
 30
0.0
  9
$UCSORGFRONT
 10
0.0
 20
0.0
 30
0.0
  9
$UCSORGBACK
 10
0.0
 20
0.0
 30
0.0
  9
$PUCSBASE
  2

  9
$PUCSNAME
  2

  9
$PUCSORG
 10
0.0
 20
0.0
 30
0.0
  9
$PUCSXDIR
 10
1.0
 20
0.0
 30
0.0
  9
$PUCSYDIR
 10
0.0
 20
1.0
 30
0.0
  9
$PUCSORTHOREF
  2

  9
$PUCSORTHOVIEW
 70
     0
  9
$PUCSORGTOP
 10
0.0
 20
0.0
 30
0.0
  9
$PUCSORGBOTTOM
 10
0.0
 20
0.0
 30
0.0
  9
$PUCSORGLEFT
 10
0.0
 20
0.0
 30
0.0
  9
$PUCSORGRIGHT
 10
0.0
 20
0.0
 30
0.0
  9
$PUCSORGFRONT
 10
0.0
 20
0.0
 30
0.0
  9
$PUCSORGBACK
 10
0.0
 20
0.0
 30
0.0
  9
$USERI1
 70
     0
  9
$USERI2
 70
     0
  9
$USERI3
 70
     0
  9
$USERI4
 70
     0
  9
$USERI5
 70
     0
  9
$USERR1
 40
0.0
  9
$USERR2
 40
0.0
  9
$USERR3
 40
0.0
  9
$USERR4
 40
0.0
  9
$USERR5
 40
0.0
  9
$WORLDVIEW
 70
     1
  9
$SHADEDGE
 70
     3
  9
$SHADEDIF
 70
    70
  9
$TILEMODE
 70
     1
  9
$MAXACTVP
 70
    64
  9
$PINSBASE
 10
0.0
 20
0.0
 30
0.0
  9
$PLIMCHECK
 70
     0
  9
$PEXTMIN
 10
-0.5
 20
-0.5
 30
-0.5
  9
$PEXTMAX
 10
5.0
 20
5.0
 30
5.0
  9
$PLIMMIN
 10
-0.5
 20
-0.5
  9
$PLIMMAX
 10
5.0
 20
5.0
  9
$UNITMODE
 70
     0
  9
$VISRETAIN
 70
     1
  9
$PLINEGEN
 70
     0
  9
$PSLTSCALE
 70
     1
  9
$TREEDEPTH
 70
  3020
  9
$CMLSTYLE
  2
Standard
  9
$CMLJUST
 70
     0
  9
$CMLSCALE
 40
1.0
  9
$PROXYGRAPHICS
 70
     1
  9
$MEASUREMENT
 70
     1
  9
$CELWEIGHT
370
    18
  9
$ENDCAPS
280
     0
  9
$JOINSTYLE
280
     0
  9
$LWDISPLAY
290
     1
  9
$INSUNITS
 70
     4
  9
$HYPERLINKBASE
  1

  9
$STYLESHEET
  1

  9
$XEDIT
290
     1
  9
$CEPSNTYPE
380
     0
  9
$PSTYLEMODE
290
     1
  9
$FINGERPRINTGUID
  2
{3F5027C2-7772-4FA6-BEBA-EFDD1767E0C1}
  9
$VERSIONGUID
  2
{0D639701-2835-A545-AF34-6173A3189D5E}
  9
$EXTNAMES
290
     1
  9
$PSVPSCALE
 40
0.0
  9
$OLESTARTUP
290
     0
  9
$SORTENTS
280
   127
  9
$INDEXCTL
280
     0
  9
$HIDETEXT
280
     1
  9
$XCLIPFRAME
280
     2
  9
$HALOGAP
280
     0
  9
$OBSCOLOR
 70
   257
  9
$OBSLTYPE
280
     0
  9
$INTERSECTIONDISPLAY
280
     0
  9
$INTERSECTIONCOLOR
 70
   257
  9
$DIMASSOC
280
     2
  9
$PROJECTNAME
  1

  9
$CAMERADISPLAY
290
     0
  9
$LENSLENGTH
 40
50.0
  9
$CAMERAHEIGHT
 40
0.0
  9
$STEPSPERSEC
 40
2.0
  9
$STEPSIZE
 40
6.0
  9
$3DDWFPREC
 40
2.0
  9
$PSOLWIDTH
 40
0.25
  9
$PSOLHEIGHT
 40
4.0
  9
$LOFTANG1
 40
1.570796326794896
  9
$LOFTANG2
 40
1.570796326794896
  9
$LOFTMAG1
 40
0.0
  9
$LOFTMAG2
 40
0.0
  9
$LOFTPARAM
 70
     7
  9
$LOFTNORMALS
280
     1
  9
$LATITUDE
 40
37.795
  9
$LONGITUDE
 40
-122.394
  9
$NORTHDIRECTION
 40
0.0
  9
$TIMEZONE
 70
 -8000
  9
$LIGHTGLYPHDISPLAY
280
     1
  9
$TILEMODELIGHTSYNCH
280
     1
  9
$CMATERIAL
347
44
  9
$SOLIDHIST
280
     0
  9
$SHOWHIST
280
     1
  9
$DWFFRAME
280
     2
  9
$DGNFRAME
280
     0
  9
$REALWORLDSCALE
290
     1
  9
$INTERFERECOLOR
 62
     1
  9
$INTERFEREOBJVS
345
33
  9
$INTERFEREVPVS
346
30
  9
$CSHADOW
280
     0
  9
$SHADOWPLANELOCATION
 40
0.0
  0
ENDSEC
  0
SECTION
  2
CLASSES
  0
CLASS
  1
ACDBDICTIONARYWDFLT
  2
AcDbDictionaryWithDefault
  3
ObjectDBX Classes
 90
        0
 91
        1
280
     0
281
     0
  0
CLASS
  1
VISUALSTYLE
  2
AcDbVisualStyle
  3
ObjectDBX Classes
 90
     4095
 91
       24
280
     0
281
     0
  0
CLASS
  1
MATERIAL
  2
AcDbMaterial
  3
ObjectDBX Classes
 90
     1153
 91
        3
280
     0
281
     0
  0
CLASS
  1
SCALE
  2
AcDbScale
  3
ObjectDBX Classes
 90
     1153
 91
       33
280
     0
281
     0
  0
CLASS
  1
TABLESTYLE
  2
AcDbTableStyle
  3
ObjectDBX Classes
 90
     4095
 91
        1
280
     0
281
     0
  0
CLASS
  1
MLEADERSTYLE
  2
AcDbMLeaderStyle
  3
ACDB_MLEADERSTYLE_CLASS
 90
     4095
 91
        1
280
     0
281
     0
  0
CLASS
  1
SUN
  2
AcDbSun
  3
SCENEOE
 90
     1153
 91
        0
280
     0
281
     0
  0
CLASS
  1
DIMASSOC
  2
AcDbDimAssoc
  3
"AcDbDimAssoc|Product Desc:     AcDim ARX App For Dimension|Company:          Autodesk, Inc.|WEB Address:      www.autodesk.com"
 90
        0
 91
        6
280
     0
281
     0
  0
CLASS
  1
DICTIONARYVAR
  2
AcDbDictionaryVar
  3
ObjectDBX Classes
 90
        0
 91
       10
280
     0
281
     0
  0
CLASS
  1
CELLSTYLEMAP
  2
AcDbCellStyleMap
  3
ObjectDBX Classes
 90
     1152
 91
        2
280
     0
281
     0
  0
CLASS
  1
ACDBSECTIONVIEWSTYLE
  2
AcDbSectionViewStyle
  3
ObjectDBX Classes
 90
     1025
 91
        2
280
     0
281
     0
  0
CLASS
  1
ACDBDETAILVIEWSTYLE
  2
AcDbDetailViewStyle
  3
ObjectDBX Classes
 90
     1025
 91
        2
280
     0
281
     0
  0
CLASS
  1
AMGSETTINGSOBJ
  2
AmgSettingsObj
  3
"AcadM|Product Description: AutoCAD Mechanical|Company: Autodesk, Inc."
 90
     1024
 91
        2
280
     0
281
     0
  0
CLASS
  1
ACME_DOCUMENT
  2
AcMeDbDoc
  3
AcMeServices
 90
     1024
 91
        1
280
     0
281
     0
  0
CLASS
  1
ACMESCOPE
  2
AcMeScope
  3
AcMeServices
 90
     1024
 91
        1
280
     0
281
     0
  0
CLASS
  1
ACMECOMMANDHISTORY
  2
AcMeCommandHistory
  3
AcMeServices
 90
     1024
 91
        1
280
     0
281
     0
  0
CLASS
  1
ACIMSYSVARMAN
  2
AcImSysVarManager
  3
AcMeServices
 90
     1024
 91
        3
280
     0
281
     0
  0
CLASS
  1
ACIMINTSYSVAR
  2
AcImIntSysVar
  3
AcMeServices
 90
     1024
 91
        2
280
     0
281
     0
  0
CLASS
  1
ACMESTATEMGR
  2
AcMeStateMgr
  3
AcMeServices
 90
     1024
 91
        1
280
     0
281
     0
  0
CLASS
  1
ACDBENTITYCACHE
  2
AcMeEntityCache
  3
AcMeServices
 90
     1024
 91
        1
280
     0
281
     0
  0
CLASS
  1
ACGREFMASTER
  2
AcGrefMaster
  3
AcAttribServices
 90
     1024
 91
        1
280
     0
281
     0
  0
CLASS
  1
ACME_DATABASE
  2
AcMeDbDatabase
  3
AcMeServices
 90
     1024
 91
        1
280
     0
281
     0
  0
CLASS
  1
ACRFINSADJUSTERMGR
  2
AcRfInsAdjusterMgr
  3
AcMeServices
 90
     1024
 91
        1
280
     0
281
     0
  0
CLASS
  1
ACGREFACADMASTER
  2
AcGrefacadMaster
  3
AcGrefServices
 90
     1024
 91
        1
280
     0
281
     0
  0
CLASS
  1
AMDTMENUSTATEMGR
  2
AmdtMenuStateMgr
  3
McadcomServices
 90
     1024
 91
        1
280
     0
281
     0
  0
CLASS
  1
AMDTMCOMMENUSTATE
  2
AmdtMcomMenuState
  3
McadcomServices
 90
     1024
 91
        1
280
     0
281
     0
  0
CLASS
  1
AMIMASTER
  2
AmiMaster
  3
AmiServices
 90
     1024
 91
        1
280
     0
281
     0
  0
CLASS
  1
MAPIAMMOUDLE
  2
MApiAmModule
  3
MApiAmServices
 90
     1024
 91
        1
280
     0
281
     0
  0
CLASS
  1
ACIMSTRSYSVAR
  2
AcImStrSysVar
  3
AcMeServices
 90
     1024
 91
        5
280
     0
281
     0
  0
CLASS
  1
AMDTAMMENUSTATE
  2
AmdtAmMenuState
  3
DesignerAssemblies
 90
     1024
 91
        1
280
     0
281
     0
  0
CLASS
  1
ACAMPROJECT
  2
AcAmProject
  3
DesignerAssemblies
 90
     1024
 91
        1
280
     0
281
     0
  0
CLASS
  1
ACAMGRCOMPDEF
  2
AcAmGrCompDef
  3
DesignerAssemblies
 90
     1024
 91
        1
280
     0
281
     0
  0
CLASS
  1
ACAMCOMPDEF
  2
AcAmCompDef
  3
DesignerAssemblies
 90
     1024
 91
        1
280
     0
281
     0
  0
CLASS
  1
ACAMCOMPDEFMGR
  2
AcAmCompDefMgr
  3
DesignerAssemblies
 90
     1024
 91
        1
280
     0
281
     0
  0
CLASS
  1
AMCONTEXTMGR
  2
AcAmContextMgr
  3
DesignerAssemblies
 90
     1024
 91
        1
280
     0
281
     0
  0
CLASS
  1
ACAMCONTEXTMODELER
  2
AcAmContextModeler
  3
DesignerAssemblies
 90
     1024
 91
        1
280
     0
281
     0
  0
CLASS
  1
ACMDATADICTIONARY
  2
AcmDataDictionary
  3
"AcmSymBB|Product Description: AutoCAD Mechanical|Company: Autodesk, Inc."
 90
     1024
 91
        1
280
     0
281
     0
  0
CLASS
  1
ACAMGRCOMPDEFSET
  2
AcAmGrCompDefSet
  3
DesignerAssemblies
 90
     1024
 91
        1
280
     0
281
     0
  0
CLASS
  1
AMDTBROWSERDBTAB
  2
AmdtBrowserDbTab
  3
McadcomServices
 90
     1024
 91
        1
280
     0
281
     0
  0
CLASS
  1
CBROWSERAPPOBJECT
  2
CBrowserAppObject
  3
McadcomServices
 90
     1024
 91
        2
280
     0
281
     0
  0
CLASS
  1
DM_PLACEHOLDER
  2
AcDmSelsetPlaceholder
  3
McadcomServices
 90
     1024
 91
        1
280
     0
281
     0
  0
CLASS
  1
ACMSTANDARDISO
  2
AcmStandardISO
  3
"Amdt_StdImp|Product Description: AutoCAD Mechanical|Company: Autodesk, Inc."
 90
     1024
 91
        1
280
     0
281
     0
  0
CLASS
  1
AMDTEDGESTANDARDISO13715
  2
AmdtEdgeStdISO13715
  3
"Amdt_StdImp|Product Description: AutoCAD Mechanical|Company: Autodesk, Inc."
 90
     1024
 91
        1
280
     0
281
     0
  0
CLASS
  1
ACMSURFSTANDARDISO2002
  2
AcmSurfTextStdISO2002
  3
"Amdt_StdImp|Product Description: AutoCAD Mechanical|Company: Autodesk, Inc."
 90
     1024
 91
        1
280
     0
281
     0
  0
CLASS
  1
ACMFCFSTANDARDISO2012
  2
AcmFCFStdISO2012
  3
"Amdt_StdImp|Product Description: AutoCAD Mechanical|Company: Autodesk, Inc."
 90
     1024
 91
        1
280
     0
281
     0
  0
CLASS
  1
ACMWELDSTANDARDISO
  2
AcmWeldingStdISO
  3
"Amdt_StdImp|Product Description: AutoCAD Mechanical|Company: Autodesk, Inc."
 90
     1024
 91
        1
280
     0
281
     0
  0
CLASS
  1
ACMIDSTANDARDISO2012
  2
AcmIdStdISO2012
  3
"Amdt_StdImp|Product Description: AutoCAD Mechanical|Company: Autodesk, Inc."
 90
     1024
 91
        1
280
     0
281
     0
  0
CLASS
  1
ACMDATUMSTANDARDISO2012
  2
AcmDatumStdISO2012
  3
"Amdt_StdImp|Product Description: AutoCAD Mechanical|Company: Autodesk, Inc."
 90
     1024
 91
        1
280
     0
281
     0
  0
CLASS
  1
ACMBOMSTANDARDISO
  2
AcmBOMStdISO
  3
"Amdt_StdImp|Product Description: AutoCAD Mechanical|Company: Autodesk, Inc."
 90
     1024
 91
        1
280
     0
281
     0
  0
CLASS
  1
ACMDETAILSTANDARDISO
  2
AmdtDetailSymStdISO
  3
"Amdt_StdImp|Product Description: AutoCAD Mechanical|Company: Autodesk, Inc."
 90
     1024
 91
        1
280
     0
281
     0
  0
CLASS
  1
ACMSECTIONSTANDARDISO2001
  2
AmdtSectionSymStdISO2001
  3
"Amdt_StdImp|Product Description: AutoCAD Mechanical|Company: Autodesk, Inc."
 90
     1024
 91
        1
280
     0
281
     0
  0
CLASS
  1
ACMCENTERLINESTANDARDISO
  2
AmdtCenterLineStdISO
  3
"Amdt_StdImp|Product Description: AutoCAD Mechanical|Company: Autodesk, Inc."
 90
     1024
 91
        1
280
     0
281
     0
  0
CLASS
  1
ACMTHREADLINESTANDARDISO
  2
AmdtThreadLineStdISO
  3
"Amdt_StdImp|Product Description: AutoCAD Mechanical|Company: Autodesk, Inc."
 90
     1024
 91
        1
280
     0
281
     0
  0
CLASS
  1
ACMNOTESTANDARDISO
  2
AmdtNoteStdISO
  3
"Amdt_StdImp|Product Description: AutoCAD Mechanical|Company: Autodesk, Inc."
 90
     1024
 91
        1
280
     0
281
     0
  0
CLASS
  1
ACMTAPERSTANDARDISO
  2
AcmTaperStdISO
  3
"Amdt_StdImp|Product Description: AutoCAD Mechanical|Company: Autodesk, Inc."
 90
     1024
 91
        1
280
     0
281
     0
  0
CLASS
  1
ACMANOOTATIONVIEWSTANDARDISO
  2
AmdtAnViewStdISO
  3
"Amdt_StdImp|Product Description: AutoCAD Mechanical|Company: Autodesk, Inc."
 90
     1024
 91
        1
280
     0
281
     0
  0
CLASS
  1
ACAMGLAYSTD
  2
AcAmgLayStd
  3
"AmgLay|Product Description: AutoCAD Mechanical|Company: Autodesk, Inc."
 90
     1024
 91
        1
280
     0
281
     0
  0
CLASS
  1
ACAMGDIMSTD
  2
AcAmgDimStd
  3
"AmgDim|Product Description: AutoCAD Mechanical|Company: Autodesk, Inc."
 90
     1024
 91
        1
280
     0
281
     0
  0
CLASS
  1
AMGOBJPROPCFG
  2
AmgObjPropCfg
  3
"AmgLay|Product Description: AutoCAD Mechanical|Company: Autodesk, Inc."
 90
     1024
 91
        1
280
     0
281
     0
  0
CLASS
  1
ACAMGHOLECHARTSTDISO
  2
AcAmgHoleChartStdISO
  3
AmgDim|Product Description: AutoCAD Mechanical|Company: Autodesk, Inc.
 90
     1024
 91
        1
280
     0
281
     0
  0
CLASS
  1
ACAMGTITLESTD
  2
AcAmgTitleStd
  3
"AmgTitle|Product Description: AutoCAD Mechanical|Company: Autodesk, Inc."
 90
     1024
 91
        1
280
     0
281
     0
  0
CLASS
  1
ACMSECTIONSTANDARDCUSTOM
  2
AmdtSectionSymStdCustom
  3
"Amdt_StdImp|Product Description: AutoCAD Mechanical|Company: Autodesk, Inc."
 90
     1024
 91
        1
280
     0
281
     0
  0
CLASS
  1
ACMDETAILTANDARDCUSTOM
  2
AmdtDetailSymStdCustom
  3
"Amdt_StdImp|Product Description: AutoCAD Mechanical|Company: Autodesk, Inc."
 90
     1024
 91
        1
280
     0
281
     0
  0
CLASS
  1
FIELD
  2
AcDbField
  3
ObjectDBX Classes
 90
     1152
 91
        3
280
     0
281
     0
  0
CLASS
  1
FIELDLIST
  2
AcDbFieldList
  3
ObjectDBX Classes
 90
     1152
 91
        1
280
     0
281
     0
  0
CLASS
  1
AMDTNOTETEMPLATEDB
  2
AmdtNoteTemplateDB
  3
AcmSymBB|Product Description: AutoCAD Mechanical|Company: Autodesk, Inc.
 90
     1024
 91
        7
280
     0
281
     0
  0
CLASS
  1
ACAMGFILTERDAT
  2
AcAmgFilterDat
  3
"AcadM|Product Description: AutoCAD Mechanical|Company: Autodesk, Inc."
 90
     1024
 91
        6
280
     0
281
     0
  0
ENDSEC
  0
SECTION
  2
TABLES
  0
TABLE
  2
VPORT
  5
8
330
0
100
AcDbSymbolTable
 70
    16
1001
ACAD
1000
DbSaveVer
1071
       11
  0
VPORT
  5
29
330
8
100
AcDbSymbolTableRecord
100
AcDbViewportTableRecord
  2
*Active
 70
     0
 10
0.0
 20
0.0
 11
1.0
 21
1.0
 12
45.57202070122847
 22
14.41534286482242
 13
0.0
 23
0.0
 14
0.5
 24
0.5
 15
0.5
 25
0.5
 16
0.0
 26
0.0
 36
1.0
 17
0.0
 27
0.0
 37
0.0
 40
151.6198721997767
 41
2.317632850241545
 42
50.0
 43
375.493335
 44
-375.493335
 50
0.0
 51
0.0
 71
     0
 72
   100
 73
     1
 74
     3
 75
     0
 76
     0
 77
     0
 78
     0
281
     0
 65
     0
110
0.0
120
0.0
130
0.0
111
1.0
121
0.0
131
0.0
112
0.0
122
1.0
132
0.0
 79
     0
146
0.0
348
2F
 60
     3
 61
     5
292
     1
282
     1
141
0.0
142
0.0
 63
   250
421
  3355443
1001
ACAD_NAV_VCDISPLAY
1070
     3
  0
VPORT
  5
3A1
330
8
100
AcDbSymbolTableRecord
100
AcDbViewportTableRecord
  2
L1
 70
     0
 10
0.0
 20
0.0
 11
1.0
 21
1.0
 12
35.490021
 22
26.265068
 13
0.0
 23
0.0
 14
0.5
 24
0.5
 15
0.5
 25
0.5
 16
0.0
 26
0.0
 36
1.0
 17
0.0
 27
0.0
 37
0.0
 40
254.0
 41
0.069908
 42
50.0
 43
375.493335
 44
-375.493335
 50
0.0
 51
0.0
 71
     0
 72
   100
 73
     1
 74
     3
 75
     0
 76
     0
 77
     0
 78
     0
281
     0
 65
     1
110
0.0
120
0.0
130
0.0
111
1.0
121
0.0
131
0.0
112
0.0
122
1.0
132
0.0
 79
     0
146
0.0
348
2F
 60
     3
 61
     5
292
     1
282
     1
141
0.0
142
0.0
 63
   250
421
  3355443
  0
VPORT
  5
3A2
330
8
100
AcDbSymbolTableRecord
100
AcDbViewportTableRecord
  2
L2
 70
     0
 10
0.0
 20
0.0
 11
0.5
 21
1.0
 12
0.0
 22
0.0
 13
0.0
 23
0.0
 14
0.5
 24
0.5
 15
0.5
 25
0.5
 16
0.0
 26
-1.0
 36
0.0
 17
0.0
 27
0.0
 37
0.0
 40
1597.431954
 41
0.011116
 42
50.0
 43
822.540112
 44
-822.540112
 50
0.0
 51
0.0
 71
     0
 72
   100
 73
     1
 74
     3
 75
     0
 76
     0
 77
     0
 78
     0
281
     0
 65
     1
110
0.0
120
0.0
130
0.0
111
1.0
121
0.0
131
0.0
112
0.0
122
1.0
132
0.0
 79
     0
146
0.0
348
2F
 60
     3
 61
     5
292
     1
282
     1
141
0.0
142
0.0
 63
   250
421
  3355443
  0
VPORT
  5
3A3
330
8
100
AcDbSymbolTableRecord
100
AcDbViewportTableRecord
  2
L2
 70
     0
 10
0.5
 20
0.0
 11
1.0
 21
1.0
 12
0.0
 22
0.0
 13
0.0
 23
0.0
 14
0.5
 24
0.5
 15
0.5
 25
0.5
 16
1.0
 26
0.0
 36
0.0
 17
0.0
 27
0.0
 37
0.0
 40
1597.431954
 41
0.011116
 42
50.0
 43
808.749783
 44
-808.749783
 50
0.0
 51
0.0
 71
     0
 72
   100
 73
     1
 74
     3
 75
     0
 76
     0
 77
     0
 78
     0
281
     0
 65
     1
110
0.0
120
0.0
130
0.0
111
1.0
121
0.0
131
0.0
112
0.0
122
1.0
132
0.0
 79
     0
146
0.0
348
2F
 60
     3
 61
     5
292
     1
282
     1
141
0.0
142
0.0
 63
   250
421
  3355443
  0
VPORT
  5
3A4
330
8
100
AcDbSymbolTableRecord
100
AcDbViewportTableRecord
  2
L3
 70
     0
 10
0.0
 20
0.5
 11
1.0
 21
1.0
 12
35.490021
 22
26.265068
 13
0.0
 23
0.0
 14
0.5
 24
0.5
 15
0.5
 25
0.5
 16
0.0
 26
0.0
 36
1.0
 17
0.0
 27
0.0
 37
0.0
 40
254.0
 41
0.069908
 42
50.0
 43
375.493335
 44
-375.493335
 50
0.0
 51
0.0
 71
     0
 72
   100
 73
     1
 74
     3
 75
     0
 76
     0
 77
     0
 78
     0
281
     0
 65
     1
110
0.0
120
0.0
130
0.0
111
1.0
121
0.0
131
0.0
112
0.0
122
1.0
132
0.0
 79
     0
146
0.0
348
2F
 60
     3
 61
     5
292
     1
282
     1
141
0.0
142
0.0
 63
   250
421
  3355443
  0
VPORT
  5
3A5
330
8
100
AcDbSymbolTableRecord
100
AcDbViewportTableRecord
  2
L3
 70
     0
 10
0.0
 20
0.0
 11
1.0
 21
0.5
 12
0.0
 22
0.0
 13
0.0
 23
0.0
 14
0.5
 24
0.5
 15
0.5
 25
0.5
 16
0.0
 26
-1.0
 36
0.0
 17
0.0
 27
0.0
 37
0.0
 40
1597.431954
 41
0.011116
 42
50.0
 43
822.540112
 44
-822.540112
 50
0.0
 51
0.0
 71
     0
 72
   100
 73
     1
 74
     3
 75
     0
 76
     0
 77
     0
 78
     0
281
     0
 65
     1
110
0.0
120
0.0
130
0.0
111
1.0
121
0.0
131
0.0
112
0.0
122
1.0
132
0.0
 79
     0
146
0.0
348
2F
 60
     3
 61
     5
292
     1
282
     1
141
0.0
142
0.0
 63
   250
421
  3355443
  0
VPORT
  5
3A6
330
8
100
AcDbSymbolTableRecord
100
AcDbViewportTableRecord
  2
L4
 70
     0
 10
0.0
 20
0.5
 11
0.5
 21
1.0
 12
35.490021
 22
26.265068
 13
0.0
 23
0.0
 14
0.5
 24
0.5
 15
0.5
 25
0.5
 16
0.0
 26
0.0
 36
1.0
 17
0.0
 27
0.0
 37
0.0
 40
254.0
 41
0.069908
 42
50.0
 43
375.493335
 44
-375.493335
 50
0.0
 51
0.0
 71
     0
 72
   100
 73
     1
 74
     3
 75
     0
 76
     0
 77
     0
 78
     0
281
     0
 65
     1
110
0.0
120
0.0
130
0.0
111
1.0
121
0.0
131
0.0
112
0.0
122
1.0
132
0.0
 79
     0
146
0.0
348
2F
 60
     3
 61
     5
292
     1
282
     1
141
0.0
142
0.0
 63
   250
421
  3355443
  0
VPORT
  5
3A7
330
8
100
AcDbSymbolTableRecord
100
AcDbViewportTableRecord
  2
L4
 70
     0
 10
0.0
 20
0.0
 11
0.5
 21
0.5
 12
0.0
 22
0.0
 13
0.0
 23
0.0
 14
0.5
 24
0.5
 15
0.5
 25
0.5
 16
0.0
 26
-1.0
 36
0.0
 17
0.0
 27
0.0
 37
0.0
 40
1597.431954
 41
0.011116
 42
50.0
 43
822.540112
 44
-822.540112
 50
0.0
 51
0.0
 71
     0
 72
   100
 73
     1
 74
     3
 75
     0
 76
     0
 77
     0
 78
     0
281
     0
 65
     1
110
0.0
120
0.0
130
0.0
111
1.0
121
0.0
131
0.0
112
0.0
122
1.0
132
0.0
 79
     0
146
0.0
348
2F
 60
     3
 61
     5
292
     1
282
     1
141
0.0
142
0.0
 63
   250
421
  3355443
  0
VPORT
  5
3A8
330
8
100
AcDbSymbolTableRecord
100
AcDbViewportTableRecord
  2
L4
 70
     0
 10
0.5
 20
0.0
 11
1.0
 21
0.5
 12
0.0
 22
0.0
 13
0.0
 23
0.0
 14
0.5
 24
0.5
 15
0.5
 25
0.5
 16
1.0
 26
0.0
 36
0.0
 17
0.0
 27
0.0
 37
0.0
 40
1597.431954
 41
0.011116
 42
50.0
 43
808.749783
 44
-808.749783
 50
0.0
 51
0.0
 71
     0
 72
   100
 73
     1
 74
     3
 75
     0
 76
     0
 77
     0
 78
     0
281
     0
 65
     1
110
0.0
120
0.0
130
0.0
111
1.0
121
0.0
131
0.0
112
0.0
122
1.0
132
0.0
 79
     0
146
0.0
348
2F
 60
     3
 61
     5
292
     1
282
     1
141
0.0
142
0.0
 63
   250
421
  3355443
  0
VPORT
  5
3A9
330
8
100
AcDbSymbolTableRecord
100
AcDbViewportTableRecord
  2
L4
 70
     0
 10
0.5
 20
0.5
 11
1.0
 21
1.0
 12
0.0
 22
0.0
 13
0.0
 23
0.0
 14
0.5
 24
0.5
 15
0.5
 25
0.5
 16
0.5773502691896259
 26
-0.5773502691896259
 36
0.5773502691896259
 17
0.0
 27
0.0
 37
0.0
 40
1568.460909
 41
0.011321
 42
50.0
 43
816.9174039999999
 44
-816.9174039999999
 50
0.0
 51
0.0
 71
     0
 72
   100
 73
     1
 74
     3
 75
     0
 76
     0
 77
     0
 78
     0
281
     0
 65
     1
110
0.0
120
0.0
130
0.0
111
1.0
121
0.0
131
0.0
112
0.0
122
1.0
132
0.0
 79
     0
146
0.0
348
2F
 60
     3
 61
     5
292
     1
282
     1
141
0.0
142
0.0
 63
   250
421
  3355443
  0
VPORT
  5
3AA
330
8
100
AcDbSymbolTableRecord
100
AcDbViewportTableRecord
  2
L6
 70
     0
 10
0.0
 20
0.5
 11
0.333333
 21
1.0
 12
0.0
 22
0.0
 13
0.0
 23
0.0
 14
0.5
 24
0.5
 15
0.5
 25
0.5
 16
0.7188730927569434
 26
-0.5850486126764433
 36
0.3754192287502549
 17
0.0
 27
0.0
 37
0.0
 40
1655.230247
 41
0.010728
 42
50.0
 43
857.0171189999999
 44
-857.0171189999999
 50
0.0
 51
0.0
 71
     0
 72
   100
 73
     1
 74
     3
 75
     0
 76
     0
 77
     0
 78
     0
281
     0
 65
     1
110
0.0
120
0.0
130
0.0
111
1.0
121
0.0
131
0.0
112
0.0
122
1.0
132
0.0
 79
     0
146
0.0
348
2F
 60
     3
 61
     5
292
     1
282
     1
141
0.0
142
0.0
 63
   250
421
  3355443
  0
VPORT
  5
3AB
330
8
100
AcDbSymbolTableRecord
100
AcDbViewportTableRecord
  2
L6
 70
     0
 10
0.0
 20
0.0
 11
0.333333
 21
0.5
 12
0.0
 22
0.0
 13
0.0
 23
0.0
 14
0.5
 24
0.5
 15
0.5
 25
0.5
 16
-1.0
 26
0.0
 36
0.0
 17
0.0
 27
0.0
 37
0.0
 40
1597.431954
 41
0.011116
 42
50.0
 43
808.749783
 44
-808.749783
 50
0.0
 51
0.0
 71
     0
 72
   100
 73
     1
 74
     3
 75
     0
 76
     0
 77
     0
 78
     0
281
     0
 65
     1
110
0.0
120
0.0
130
0.0
111
1.0
121
0.0
131
0.0
112
0.0
122
1.0
132
0.0
 79
     0
146
0.0
348
2F
 60
     3
 61
     5
292
     1
282
     1
141
0.0
142
0.0
 63
   250
421
  3355443
  0
VPORT
  5
3AC
330
8
100
AcDbSymbolTableRecord
100
AcDbViewportTableRecord
  2
L6
 70
     0
 10
0.333333
 20
0.5
 11
0.666667
 21
1.0
 12
35.490021
 22
26.265068
 13
0.0
 23
0.0
 14
0.5
 24
0.5
 15
0.5
 25
0.5
 16
0.0
 26
0.0
 36
1.0
 17
0.0
 27
0.0
 37
0.0
 40
254.0
 41
0.069908
 42
50.0
 43
375.493335
 44
-375.493335
 50
0.0
 51
0.0
 71
     0
 72
   100
 73
     1
 74
     3
 75
     0
 76
     0
 77
     0
 78
     0
281
     0
 65
     1
110
0.0
120
0.0
130
0.0
111
1.0
121
0.0
131
0.0
112
0.0
122
1.0
132
0.0
 79
     0
146
0.0
348
2F
 60
     3
 61
     5
292
     1
282
     1
141
0.0
142
0.0
 63
   250
421
  3355443
  0
VPORT
  5
3AD
330
8
100
AcDbSymbolTableRecord
100
AcDbViewportTableRecord
  2
L6
 70
     0
 10
0.333333
 20
0.0
 11
0.666667
 21
0.5
 12
0.0
 22
0.0
 13
0.0
 23
0.0
 14
0.5
 24
0.5
 15
0.5
 25
0.5
 16
0.0
 26
-1.0
 36
0.0
 17
0.0
 27
0.0
 37
0.0
 40
1597.431954
 41
0.011116
 42
50.0
 43
822.540112
 44
-822.540112
 50
0.0
 51
0.0
 71
     0
 72
   100
 73
     1
 74
     3
 75
     0
 76
     0
 77
     0
 78
     0
281
     0
 65
     1
110
0.0
120
0.0
130
0.0
111
1.0
121
0.0
131
0.0
112
0.0
122
1.0
132
0.0
 79
     0
146
0.0
348
2F
 60
     3
 61
     5
292
     1
282
     1
141
0.0
142
0.0
 63
   250
421
  3355443
  0
VPORT
  5
3AE
330
8
100
AcDbSymbolTableRecord
100
AcDbViewportTableRecord
  2
L6
 70
     0
 10
0.666667
 20
0.5
 11
1.0
 21
1.0
 12
0.0
 22
0.0
 13
0.0
 23
0.0
 14
0.5
 24
0.5
 15
0.5
 25
0.5
 16
0.5773502691896259
 26
-0.5773502691896259
 36
0.5773502691896259
 17
0.0
 27
0.0
 37
0.0
 40
1568.460909
 41
0.011321
 42
50.0
 43
816.9174039999999
 44
-816.9174039999999
 50
0.0
 51
0.0
 71
     0
 72
   100
 73
     1
 74
     3
 75
     0
 76
     0
 77
     0
 78
     0
281
     0
 65
     1
110
0.0
120
0.0
130
0.0
111
1.0
121
0.0
131
0.0
112
0.0
122
1.0
132
0.0
 79
     0
146
0.0
348
2F
 60
     3
 61
     5
292
     1
282
     1
141
0.0
142
0.0
 63
   250
421
  3355443
  0
VPORT
  5
3AF
330
8
100
AcDbSymbolTableRecord
100
AcDbViewportTableRecord
  2
L6
 70
     0
 10
0.666667
 20
0.0
 11
1.0
 21
0.5
 12
0.0
 22
0.0
 13
0.0
 23
0.0
 14
0.5
 24
0.5
 15
0.5
 25
0.5
 16
1.0
 26
0.0
 36
0.0
 17
0.0
 27
0.0
 37
0.0
 40
1597.431954
 41
0.011116
 42
50.0
 43
808.749783
 44
-808.749783
 50
0.0
 51
0.0
 71
     0
 72
   100
 73
     1
 74
     3
 75
     0
 76
     0
 77
     0
 78
     0
281
     0
 65
     1
110
0.0
120
0.0
130
0.0
111
1.0
121
0.0
131
0.0
112
0.0
122
1.0
132
0.0
 79
     0
146
0.0
348
2F
 60
     3
 61
     5
292
     1
282
     1
141
0.0
142
0.0
 63
   250
421
  3355443
  0
ENDTAB
  0
TABLE
  2
LTYPE
  5
5
330
0
100
AcDbSymbolTable
 70
    18
  0
LTYPE
  5
14
330
5
100
AcDbSymbolTableRecord
100
AcDbLinetypeTableRecord
  2
ByBlock
 70
     0
  3

 72
    65
 73
     0
 40
0.0
  0
LTYPE
  5
15
330
5
100
AcDbSymbolTableRecord
100
AcDbLinetypeTableRecord
  2
ByLayer
 70
     0
  3

 72
    65
 73
     0
 40
0.0
  0
LTYPE
  5
16
330
5
100
AcDbSymbolTableRecord
100
AcDbLinetypeTableRecord
  2
Continuous
 70
     0
  3
Solid line
 72
    65
 73
     0
 40
0.0
  0
LTYPE
  5
6E
330
5
100
AcDbSymbolTableRecord
100
AcDbLinetypeTableRecord
  2
CENTER
 70
     0
  3
____ _ ____ _ ____ _ ____
 72
    65
 73
     4
 40
47.4
 49
22.0
 74
     4
 75
     0
340
0
 46
0.0
 50
0.0
 44
0.0
 45
0.0
 49
-8.5
 74
     4
 75
     0
340
0
 46
0.0
 50
0.0
 44
0.0
 45
0.0
 49
8.5
 74
     4
 75
     0
340
0
 46
0.0
 50
0.0
 44
0.0
 45
0.0
 49
-8.5
 74
     4
 75
     0
340
0
 46
0.0
 50
0.0
 44
0.0
 45
0.0
  0
LTYPE
  5
6F
330
5
100
AcDbSymbolTableRecord
100
AcDbLinetypeTableRecord
  2
DASHDOT
 70
     0
  3
_._._._._._._._._._._._._._._._.
 72
    65
 73
     4
 40
70.0
 49
31.0
 74
     4
 75
     0
340
0
 46
0.0
 50
0.0
 44
0.0
 45
0.0
 49
-13.0
 74
     4
 75
     0
340
0
 46
0.0
 50
0.0
 44
0.0
 45
0.0
 49
13.0
 74
     4
 75
     0
340
0
 46
0.0
 50
0.0
 44
0.0
 45
0.0
 49
-13.0
 74
     4
 75
     0
340
0
 46
0.0
 50
0.0
 44
0.0
 45
0.0
  0
LTYPE
  5
70
330
5
100
AcDbSymbolTableRecord
100
AcDbLinetypeTableRecord
  2
DASHED
 70
     0
  3
__ __ __ __ __ __ __ __ __
 72
    65
 73
     2
 40
25.72
 49
12.86
 74
     4
 75
     0
340
0
 46
0.0
 50
0.0
 44
0.0
 45
0.0
 49
-12.86
 74
     4
 75
     0
340
0
 46
0.0
 50
0.0
 44
0.0
 45
0.0
  0
LTYPE
  5
71
330
5
100
AcDbSymbolTableRecord
100
AcDbLinetypeTableRecord
  2
DOT
 70
     0
  3
.........................
 72
    65
 73
     2
 40
10.0
 49
0.0
 74
     4
 75
     0
340
0
 46
0.0
 50
0.0
 44
0.0
 45
0.0
 49
-10.0
 74
     4
 75
     0
340
0
 46
0.0
 50
0.0
 44
0.0
 45
0.0
  0
LTYPE
  5
72
330
5
100
AcDbSymbolTableRecord
100
AcDbLinetypeTableRecord
  2
PHANTOM
 70
     0
  3
____ _ _ ____ _ _ _____ _ _ ____
 72
    65
 73
     6
 40
50.5
 49
18.0
 74
     4
 75
     0
340
0
 46
0.0
 50
0.0
 44
0.0
 45
0.0
 49
-6.5
 74
     4
 75
     0
340
0
 46
0.0
 50
0.0
 44
0.0
 45
0.0
 49
6.5
 74
     4
 75
     0
340
0
 46
0.0
 50
0.0
 44
0.0
 45
0.0
 49
-6.5
 74
     4
 75
     0
340
0
 46
0.0
 50
0.0
 44
0.0
 45
0.0
 49
6.5
 74
     4
 75
     0
340
0
 46
0.0
 50
0.0
 44
0.0
 45
0.0
 49
-6.5
 74
     4
 75
     0
340
0
 46
0.0
 50
0.0
 44
0.0
 45
0.0
  0
LTYPE
  5
63C
330
5
100
AcDbSymbolTableRecord
100
AcDbLinetypeTableRecord
  2
HIDDEN
 70
     0
  3
Hidden __ __ __ __ __ __ __ __ __ __ __ __ __ _
 72
    65
 73
     2
 40
9.524999999999998
 49
6.349999999999999
 74
     0
 49
-3.174999999999999
 74
     0
  0
LTYPE
  5
63D
330
5
100
AcDbSymbolTableRecord
100
AcDbLinetypeTableRecord
  2
PHANTOM2
 70
     0
  3
Phantom (.5x) ___ _ _ ___ _ _ ___ _ _ ___ _ _
 72
    65
 73
     6
 40
31.75
 49
15.875
 74
     0
 49
-3.174999999999999
 74
     0
 49
3.174999999999999
 74
     0
 49
-3.174999999999999
 74
     0
 49
3.174999999999999
 74
     0
 49
-3.174999999999999
 74
     0
  0
LTYPE
  5
677
330
5
100
AcDbSymbolTableRecord
100
AcDbLinetypeTableRecord
  2
AM_ISO02W050
 70
     0
  3
__ __ __ __ __ __ __ __ __ __ __ __ __ __ __
 72
    65
 73
     2
 40
7.5
 49
6.0
 74
     0
 49
-1.5
 74
     0
  0
LTYPE
  5
678
330
5
100
AcDbSymbolTableRecord
100
AcDbLinetypeTableRecord
  2
AM_ISO08W050
 70
     0
  3
____ . ____ . ____ . ____ . ____ . ____ . ____
 72
    65
 73
     4
 40
18.0
 49
12.0
 74
     0
 49
-1.5
 74
     0
 49
3.0
 74
     0
 49
-1.5
 74
     0
  0
LTYPE
  5
679
330
5
100
AcDbSymbolTableRecord
100
AcDbLinetypeTableRecord
  2
AM_ISO09W050
 70
     0
  3
_____ . . _____ . . _____ . . ____ .. ____
 72
    65
 73
     6
 40
22.5
 49
12.0
 74
     0
 49
-1.5
 74
     0
 49
3.0
 74
     0
 49
-1.5
 74
     0
 49
3.0
 74
     0
 49
-1.5
 74
     0
  0
LTYPE
  5
67A
330
5
100
AcDbSymbolTableRecord
100
AcDbLinetypeTableRecord
  2
Amconstr
 70
     0
  3
_______________________
 72
    65
 73
     2
 40
9999.0
 49
9999.0
 74
     0
 49
0.0
 74
     0
  0
LTYPE
  5
67B
330
5
100
AcDbSymbolTableRecord
100
AcDbLinetypeTableRecord
  2
AM_ISO08W050x2
 70
     0
  3
__ . __ . __ . __ . __ . __
 72
    65
 73
     4
 40
9.0
 49
6.0
 74
     0
 49
-0.75
 74
     0
 49
1.5
 74
     0
 49
-0.75
 74
     0
  0
LTYPE
  5
67C
330
5
100
AcDbSymbolTableRecord
100
AcDbLinetypeTableRecord
  2
AM_ISO02W050x2
 70
     0
  3
 _ _ _ _ _ _ _ _ _ _ _ _
 72
    65
 73
     2
 40
3.75
 49
3.0
 74
     0
 49
-0.75
 74
     0
  0
LTYPE
  5
67F
330
5
100
AcDbSymbolTableRecord
100
AcDbLinetypeTableRecord
  2
Amzigzag
 70
     0
  3
/\/-/\/-/\/-/\/-/\/-/\/
 72
    65
 73
     2
 40
11.0001
 49
0.0001
 74
     4
 75
   136
340
67E
 46
0.04
 50
0.0
 44
0.0
 45
0.0
 49
-11.0
 74
     0
  0
LTYPE
  5
690
330
5
100
AcDbSymbolTableRecord
100
AcDbLinetypeTableRecord
  2
ACISOWELD
 70
     0
  3
_ _ _ _ _
 72
    65
 73
     2
 40
2.0
 49
2.0
 74
     0
 49
-1.0
 74
     0
  0
LTYPE
  5
691
330
5
100
AcDbSymbolTableRecord
100
AcDbLinetypeTableRecord
  2
ACISOTGL
 70
     0
  3
_ _ _ _ _
 72
    65
 73
     2
 40
3.0
 49
2.0
 74
     0
 49
-1.0
 74
     0
  0
LTYPE
  5
692
330
5
100
AcDbSymbolTableRecord
100
AcDbLinetypeTableRecord
  2
ACISOTGB
 70
     0
  3
__ . . __ . .
 72
    65
 73
     6
 40
9.0
 49
4.0
 74
     0
 49
-1.0
 74
     0
 49
1.0
 74
     0
 49
-1.0
 74
     0
 49
1.0
 74
     0
 49
-1.0
 74
     0
  0
ENDTAB
  0
TABLE
  2
LAYER
  5
2
330
0
100
AcDbSymbolTable
 70
    14
  0
LAYER
  5
10
102
{ACAD_XDICTIONARY
360
60E
102
}
330
2
100
AcDbSymbolTableRecord
100
AcDbLayerTableRecord
  2
0
 70
     0
 62
     7
  6
Continuous
370
    -3
390
F
347
46
348
0
  0
LAYER
  5
601
102
{ACAD_XDICTIONARY
360
610
102
}
330
2
100
AcDbSymbolTableRecord
100
AcDbLayerTableRecord
  2
1
 70
     0
 62
     4
  6
Continuous
370
    -3
390
F
347
46
348
0
  0
LAYER
  5
602
102
{ACAD_XDICTIONARY
360
612
102
}
330
2
100
AcDbSymbolTableRecord
100
AcDbLayerTableRecord
  2
2
 70
     0
 62
     7
  6
Continuous
370
    -3
390
F
347
46
348
0
  0
LAYER
  5
603
102
{ACAD_XDICTIONARY
360
614
102
}
330
2
100
AcDbSymbolTableRecord
100
AcDbLayerTableRecord
  2
4
 70
     0
 62
     2
  6
CENTER
370
    -3
390
F
347
46
348
0
  0
LAYER
  5
605
102
{ACAD_XDICTIONARY
360
616
102
}
330
2
100
AcDbSymbolTableRecord
100
AcDbLayerTableRecord
  2
SK2
 70
     0
 62
     7
  6
Continuous
370
    -3
390
F
347
46
348
0
  0
LAYER
  5
606
102
{ACAD_XDICTIONARY
360
618
102
}
330
2
100
AcDbSymbolTableRecord
100
AcDbLayerTableRecord
  2
SK3
 70
     0
 62
     1
  6
DASHED
370
    -3
390
F
347
46
348
0
  0
LAYER
  5
607
102
{ACAD_XDICTIONARY
360
61A
102
}
330
2
100
AcDbSymbolTableRecord
100
AcDbLayerTableRecord
  2
SK4
 70
     0
 62
     2
  6
CENTER
370
    -3
390
F
347
46
348
0
  0
LAYER
  5
608
102
{ACAD_XDICTIONARY
360
61C
102
}
330
2
100
AcDbSymbolTableRecord
100
AcDbLayerTableRecord
  2
SK6
 70
     0
 62
     5
  6
Continuous
370
    -3
390
F
347
46
348
0
  0
LAYER
  5
609
102
{ACAD_XDICTIONARY
360
61E
102
}
330
2
100
AcDbSymbolTableRecord
100
AcDbLayerTableRecord
  2
CUT
 70
     0
 62
     1
  6
Continuous
370
    -3
390
F
347
46
348
0
  0
LAYER
  5
60A
102
{ACAD_XDICTIONARY
360
620
102
}
330
2
100
AcDbSymbolTableRecord
100
AcDbLayerTableRecord
  2
NOCUT
 70
     0
 62
     7
  6
Continuous
370
    -3
390
F
347
46
348
0
  0
LAYER
  5
60B
102
{ACAD_XDICTIONARY
360
622
102
}
330
2
100
AcDbSymbolTableRecord
100
AcDbLayerTableRecord
  2
80
 70
     0
 62
     6
  6
Continuous
370
    -3
390
F
347
46
348
0
  0
LAYER
  5
60C
102
{ACAD_XDICTIONARY
360
624
102
}
330
2
100
AcDbSymbolTableRecord
100
AcDbLayerTableRecord
  2
81
 70
     0
 62
     3
  6
Continuous
370
    -3
390
F
347
46
348
0
  0
LAYER
  5
60D
102
{ACAD_XDICTIONARY
360
626
102
}
330
2
100
AcDbSymbolTableRecord
100
AcDbLayerTableRecord
  2
SK1
 70
     0
 62
     4
  6
Continuous
370
    -3
390
F
347
46
348
0
  0
LAYER
  5
3FC
330
2
100
AcDbSymbolTableRecord
100
AcDbLayerTableRecord
  2
Defpoints
 70
     0
 62
     7
  6
Continuous
290
     0
370
    -3
390
F
347
46
348
0
  0
ENDTAB
  0
TABLE
  2
STYLE
  5
3
330
0
100
AcDbSymbolTable
 70
     5
  0
STYLE
  5
11
330
3
100
AcDbSymbolTableRecord
100
AcDbTextStyleTableRecord
  2
Standard
 70
     0
 40
0.0
 41
1.0
 50
0.0
 71
     0
 42
0.2
  3
txt
  4

  0
STYLE
  5
2F9
330
3
100
AcDbSymbolTableRecord
100
AcDbTextStyleTableRecord
  2
Arial
 70
     0
 40
0.0
 41
1.0
 50
0.0
 71
     0
 42
0.2
  3
Arial
  4

1001
ACAD
1000
Arial
1071
        0
  0
STYLE
  5
67E
330
3
100
AcDbSymbolTableRecord
100
AcDbTextStyleTableRecord
  2

 70
     1
 40
0.0
 41
1.0
 50
0.0
 71
     0
 42
0.2
  3
genltshp.shx
  4

  0
STYLE
  5
68E
330
3
100
AcDbSymbolTableRecord
100
AcDbTextStyleTableRecord
  2
ACISOTS
 70
     0
 40
0.0
 41
1.0
 50
0.0
 71
     0
 42
0.2
  3
isocp.shx
  4

  0
STYLE
  5
68F
330
3
100
AcDbSymbolTableRecord
100
AcDbTextStyleTableRecord
  2
ACISOGDT
 70
     0
 40
0.0
 41
1.0
 50
0.0
 71
     0
 42
0.2
  3
amgdt.shx
  4

  0
ENDTAB
  0
TABLE
  2
VIEW
  5
6
330
0
100
AcDbSymbolTable
 70
     8
  0
VIEW
  5
398
330
6
100
AcDbSymbolTableRecord
100
AcDbViewTableRecord
  2
Top
 70
     0
 40
254.0
 10
35.490021
 20
26.265068
 41
393.065
 11
0.0
 21
0.0
 31
1.0
 12
0.0
 22
0.0
 32
0.0
 42
50.0
 43
375.493335
 44
-375.493335
 50
0.0
 71
     0
281
     0
 72
     0
 73
     0
348
2F
  0
VIEW
  5
399
330
6
100
AcDbSymbolTableRecord
100
AcDbViewTableRecord
  2
Front
 70
     0
 40
1597.431954
 10
0.0
 20
0.0
 41
393.065
 11
0.0
 21
-1.0
 31
0.0
 12
0.0
 22
0.0
 32
0.0
 42
50.0
 43
822.540112
 44
-822.540112
 50
0.0
 71
     0
281
     0
 72
     0
 73
     0
348
2F
  0
VIEW
  5
39A
330
6
100
AcDbSymbolTableRecord
100
AcDbViewTableRecord
  2
Right
 70
     0
 40
1597.431954
 10
0.0
 20
0.0
 41
254.0
 11
1.0
 21
0.0
 31
0.0
 12
0.0
 22
0.0
 32
0.0
 42
50.0
 43
808.749783
 44
-808.749783
 50
0.0
 71
     0
281
     0
 72
     0
 73
     0
348
2F
  0
VIEW
  5
39B
330
6
100
AcDbSymbolTableRecord
100
AcDbViewTableRecord
  2
Back
 70
     0
 40
1597.431954
 10
0.0
 20
0.0
 41
393.065
 11
0.0
 21
1.0
 31
0.0
 12
0.0
 22
0.0
 32
0.0
 42
50.0
 43
822.540112
 44
-822.540112
 50
0.0
 71
     0
281
     0
 72
     0
 73
     0
348
2F
  0
VIEW
  5
39C
330
6
100
AcDbSymbolTableRecord
100
AcDbViewTableRecord
  2
Bottom
 70
     0
 40
254.0
 10
0.0
 20
0.0
 41
393.065
 11
0.0
 21
0.0
 31
-1.0
 12
0.0
 22
0.0
 32
0.0
 42
50.0
 43
798.7159769999999
 44
-798.7159769999999
 50
180.0
 71
     0
281
     0
 72
     0
 73
     0
348
2F
  0
VIEW
  5
39D
330
6
100
AcDbSymbolTableRecord
100
AcDbViewTableRecord
  2
Left
 70
     0
 40
1597.431954
 10
0.0
 20
0.0
 41
254.0
 11
-1.0
 21
0.0
 31
0.0
 12
0.0
 22
0.0
 32
0.0
 42
50.0
 43
808.749783
 44
-808.749783
 50
0.0
 71
     0
281
     0
 72
     0
 73
     0
348
2F
  0
VIEW
  5
39E
330
6
100
AcDbSymbolTableRecord
100
AcDbViewTableRecord
  2
Isometric
 70
     0
 40
1568.460909
 10
0.0
 20
0.0
 41
457.544049
 11
0.5773502691896259
 21
-0.5773502691896259
 31
0.5773502691896259
 12
0.0
 22
0.0
 32
0.0
 42
50.0
 43
816.9174039999999
 44
-816.9174039999999
 50
0.0
 71
     0
281
     0
 72
     0
 73
     0
348
2F
  0
VIEW
  5
39F
330
6
100
AcDbSymbolTableRecord
100
AcDbViewTableRecord
  2
Trimetric
 70
     0
 40
1655.230247
 10
0.0
 20
0.0
 41
445.1136879999999
 11
0.7188730927569434
 21
-0.5850486126764433
 31
0.3754192287502549
 12
0.0
 22
0.0
 32
0.0
 42
50.0
 43
857.0171189999999
 44
-857.0171189999999
 50
0.0
 71
     0
281
     0
 72
     0
 73
     0
348
2F
  0
ENDTAB
  0
TABLE
  2
UCS
  5
7
330
0
100
AcDbSymbolTable
 70
     0
  0
ENDTAB
  0
TABLE
  2
APPID
  5
9
330
0
100
AcDbSymbolTable
 70
    13
  0
APPID
  5
12
330
9
100
AcDbSymbolTableRecord
100
AcDbRegAppTableRecord
  2
ACAD
 70
     0
  0
APPID
  5
300
330
9
100
AcDbSymbolTableRecord
100
AcDbRegAppTableRecord
  2
ACAD_DSTYLE_DIMBREAK
 70
     0
  0
APPID
  5
37E
330
9
100
AcDbSymbolTableRecord
100
AcDbRegAppTableRecord
  2
ACAD_DSTYLE_DIMANGULAR_EXTENSION
 70
     0
  0
APPID
  5
3B0
330
9
100
AcDbSymbolTableRecord
100
AcDbRegAppTableRecord
  2
ACAD_DSTYLE_DIM_LINETYPE
 70
     0
  0
APPID
  5
3B1
330
9
100
AcDbSymbolTableRecord
100
AcDbRegAppTableRecord
  2
ACAD_DSTYLE_DIM_EXT1_LINETYPE
 70
     0
  0
APPID
  5
3B2
330
9
100
AcDbSymbolTableRecord
100
AcDbRegAppTableRecord
  2
ACAD_DSTYLE_DIM_EXT2_LINETYPE
 70
     0
  0
APPID
  5
3F2
330
9
100
AcDbSymbolTableRecord
100
AcDbRegAppTableRecord
  2
ACAD_MLEADERVER
 70
     0
  0
APPID
  5
635
330
9
100
AcDbSymbolTableRecord
100
AcDbRegAppTableRecord
  2
MCAD_NO_VIS
 70
     0
  0
APPID
  5
636
330
9
100
AcDbSymbolTableRecord
100
AcDbRegAppTableRecord
  2
ACAD_TEMP_GRAPHIC
 70
     0
  0
APPID
  5
642
330
9
100
AcDbSymbolTableRecord
100
AcDbRegAppTableRecord
  2
ACATTRIBSERVICES
 70
     0
  0
APPID
  5
65A
330
9
100
AcDbSymbolTableRecord
100
AcDbRegAppTableRecord
  2
DESIGNERASSEMBLIES
 70
     0
  0
APPID
  5
675
330
9
100
AcDbSymbolTableRecord
100
AcDbRegAppTableRecord
  2
ACAD_DSTYLE_DIMJAG
 70
     0
  0
APPID
  5
6A2
330
9
100
AcDbSymbolTableRecord
100
AcDbRegAppTableRecord
  2
ACAD_NAV_VCDISPLAY
 70
     0
  0
ENDTAB
  0
TABLE
  2
DIMSTYLE
  5
A
330
0
100
AcDbSymbolTable
 70
     8
100
AcDbDimStyleTable
 71
     0
  0
DIMSTYLE
105
27
102
{ACAD_REACTORS
330
301
330
31B
330
335
330
34D
330
365
330
37D
102
}
330
A
100
AcDbSymbolTableRecord
100
AcDbDimStyleTableRecord
  2
Standard
 70
     0
340
11
1001
ACAD_DSTYLE_DIMBREAK
1070
   391
1040
6.349999999999999
  0
DIMSTYLE
105
674
102
{ACAD_REACTORS
330
663
102
}
330
A
100
AcDbSymbolTableRecord
100
AcDbDimStyleTableRecord
  2
AM_ISO
 70
     0
  4
"
 41
3.5
 42
1.0
 43
10.0
 44
1.0
 47
0.1
 48
0.1
 73
     0
 74
     0
 77
     1
 78
     8
 79
     2
 90
     1
140
3.5
141
0.0
143
0.0393701
146
0.71
147
1.5
172
     1
176
   256
177
   256
178
     2
271
     2
272
     3
274
     4
283
     0
284
     8
340
11
345
14
346
14
347
14
371
    -1
372
    -1
1001
ACAD_DSTYLE_DIMJAG
1070
   388
1040
1.5
1001
ACAD_DSTYLE_DIMBREAK
1070
   391
1040
3.75
  0
DIMSTYLE
105
680
330
A
100
AcDbSymbolTableRecord
100
AcDbDimStyleTableRecord
  2
AM_ISO$3
 70
     0
  4
"
 41
3.5
 42
1.0
 43
10.0
 44
1.0
 47
0.1
 48
0.1
 73
     0
 77
     1
 78
     8
 79
     2
 90
     1
140
3.5
141
0.0
143
0.0393701
146
0.71
147
1.5
176
   256
177
   256
178
     2
271
     2
272
     3
274
     4
283
     0
284
     8
288
     1
289
     0
340
11
345
14
346
14
347
14
371
    -1
372
    -1
1001
ACAD_DSTYLE_DIMBREAK
1070
   391
1040
3.75
1001
ACAD_DSTYLE_DIMJAG
1070
   388
1040
1.5
  0
DIMSTYLE
105
681
330
A
100
AcDbSymbolTableRecord
100
AcDbDimStyleTableRecord
  2
AM_ISO$4
 70
     0
  4
"
 41
3.5
 42
1.0
 43
10.0
 44
1.0
 47
0.1
 48
0.1
 73
     0
 77
     1
 78
     8
 79
     2
 90
     1
140
3.5
141
0.0
143
0.0393701
146
0.71
147
1.5
176
   256
177
   256
178
     2
271
     2
272
     3
274
     4
283
     0
284
     8
288
     1
289
     0
340
11
345
14
346
14
347
14
371
    -1
372
    -1
1001
ACAD_DSTYLE_DIMBREAK
1070
   391
1040
3.75
1001
ACAD_DSTYLE_DIMJAG
1070
   388
1040
1.5
  0
DIMSTYLE
105
682
330
A
100
AcDbSymbolTableRecord
100
AcDbDimStyleTableRecord
  2
AM_ISO$6
 70
     0
  4
"
 41
3.5
 42
1.0
 43
10.0
 44
1.0
 47
0.1
 48
0.1
 73
     0
 74
     0
 78
     8
 79
     2
 90
     1
140
3.5
141
0.0
143
0.0393701
146
0.71
147
1.5
172
     1
176
   256
177
   256
178
     2
271
     2
272
     3
274
     4
283
     0
284
     8
340
11
345
14
346
14
347
14
371
    -1
372
    -1
1001
ACAD_DSTYLE_DIMBREAK
1070
   391
1040
3.75
1001
ACAD_DSTYLE_DIMJAG
1070
   388
1040
1.5
  0
DIMSTYLE
105
683
330
A
100
AcDbSymbolTableRecord
100
AcDbDimStyleTableRecord
  2
AM_ISO$7
 70
     0
  4
"
 41
3.5
 42
1.0
 43
10.0
 44
1.0
 47
0.1
 48
0.1
 73
     0
 74
     0
 77
     1
 78
     8
 79
     2
 90
     1
140
3.5
141
0.0
143
0.0393701
146
0.71
147
1.5
172
     1
176
   256
177
   256
178
     2
271
     2
272
     3
274
     4
283
     0
284
     8
340
11
345
14
346
14
347
14
371
    -1
372
    -1
1001
ACAD_DSTYLE_DIMBREAK
1070
   391
1040
3.75
1001
ACAD_DSTYLE_DIMJAG
1070
   388
1040
1.5
  0
DIMSTYLE
105
684
330
A
100
AcDbSymbolTableRecord
100
AcDbDimStyleTableRecord
  2
AM_ISO$SF
 70
     0
  4
"
 41
3.5
 42
1.0
 43
10.0
 44
1.0
 47
0.1
 48
0.1
 73
     0
 74
     0
 75
     1
 76
     1
 77
     1
 78
     8
 79
     2
 90
     1
140
3.5
141
0.0
143
0.0393701
146
0.71
147
1.5
172
     1
176
   256
177
   256
178
     2
271
     2
272
     3
274
     4
283
     0
284
     8
340
11
345
14
346
14
347
14
371
    -1
372
    -1
1001
ACAD_DSTYLE_DIMBREAK
1070
   391
1040
3.75
1001
ACAD_DSTYLE_DIMJAG
1070
   388
1040
1.5
  0
DIMSTYLE
105
689
330
A
100
AcDbSymbolTableRecord
100
AcDbDimStyleTableRecord
  2
AM_ISO$SH
 70
     0
  4
"
 41
3.5
 42
1.0
 43
10.0
 44
1.0
 47
0.1
 48
0.1
 73
     0
 74
     0
 75
     1
 76
     1
 77
     1
 78
     8
 79
     2
 90
     1
140
3.5
141
0.0
143
0.0393701
144
2.0
146
0.71
147
1.5
172
     1
173
     1
176
   256
177
   256
178
     2
271
     2
272
     3
274
     4
283
     0
284
     8
340
11
343
685
345
14
346
14
347
14
371
    -1
372
    -1
1001
ACAD_DSTYLE_DIMBREAK
1070
   391
1040
3.75
1001
ACAD_DSTYLE_DIMJAG
1070
   388
1040
1.5
  0
ENDTAB
  0
TABLE
  2
BLOCK_RECORD
  5
1
330
0
100
AcDbSymbolTable
 70
    15
  0
BLOCK_RECORD
  5
1F
330
1
100
AcDbSymbolTableRecord
100
AcDbBlockTableRecord
  2
*Model_Space
340
22
 70
     0
280
     1
281
     0
  0
BLOCK_RECORD
  5
1B
330
1
100
AcDbSymbolTableRecord
100
AcDbBlockTableRecord
  2
*Paper_Space
340
1E
 70
     0
280
     1
281
     0
  0
BLOCK_RECORD
  5
23
330
1
100
AcDbSymbolTableRecord
100
AcDbBlockTableRecord
  2
*Paper_Space0
340
26
 70
     0
280
     1
281
     0
  0
BLOCK_RECORD
  5
305
330
1
100
AcDbSymbolTableRecord
100
AcDbBlockTableRecord
  2
*D1
340
0
 70
     0
280
     1
281
     0
  0
BLOCK_RECORD
  5
311
330
1
100
AcDbSymbolTableRecord
100
AcDbBlockTableRecord
  2
_U0
340
0
 70
     0
280
     1
281
     0
  0
BLOCK_RECORD
  5
31E
330
1
100
AcDbSymbolTableRecord
100
AcDbBlockTableRecord
  2
*D3
340
0
 70
     0
280
     1
281
     0
  0
BLOCK_RECORD
  5
32C
330
1
100
AcDbSymbolTableRecord
100
AcDbBlockTableRecord
  2
_U1
340
0
 70
     0
280
     1
281
     0
  0
BLOCK_RECORD
  5
338
330
1
100
AcDbSymbolTableRecord
100
AcDbBlockTableRecord
  2
*D5
340
0
 70
     0
280
     1
281
     0
  0
BLOCK_RECORD
  5
344
330
1
100
AcDbSymbolTableRecord
100
AcDbBlockTableRecord
  2
_U2
340
0
 70
     0
280
     1
281
     0
  0
BLOCK_RECORD
  5
350
330
1
100
AcDbSymbolTableRecord
100
AcDbBlockTableRecord
  2
*D7
340
0
 70
     0
280
     1
281
     0
  0
BLOCK_RECORD
  5
35C
330
1
100
AcDbSymbolTableRecord
100
AcDbBlockTableRecord
  2
_U3
340
0
 70
     0
280
     1
281
     0
  0
BLOCK_RECORD
  5
368
330
1
100
AcDbSymbolTableRecord
100
AcDbBlockTableRecord
  2
*D9
340
0
 70
     0
280
     1
281
     0
  0
BLOCK_RECORD
  5
374
330
1
100
AcDbSymbolTableRecord
100
AcDbBlockTableRecord
  2
_U4
340
0
 70
     0
280
     1
281
     0
  0
BLOCK_RECORD
  5
381
330
1
100
AcDbSymbolTableRecord
100
AcDbBlockTableRecord
  2
*D11
340
0
 70
     0
280
     1
281
     0
  0
BLOCK_RECORD
  5
38F
330
1
100
AcDbSymbolTableRecord
100
AcDbBlockTableRecord
  2
_U5
340
0
 70
     0
280
     1
281
     0
  0
BLOCK_RECORD
  5
685
330
1
100
AcDbSymbolTableRecord
100
AcDbBlockTableRecord
  2
GENAXEH
340
0
 70
     0
280
     1
281
     0
  0
ENDTAB
  0
ENDSEC
  0
SECTION
  2
BLOCKS
  0
BLOCK
  5
20
330
1F
100
AcDbEntity
  8
0
100
AcDbBlockBegin
  2
*Model_Space
 70
     0
 10
0.0
 20
0.0
 30
0.0
  3
*Model_Space
  1

  0
ENDBLK
  5
21
330
1F
100
AcDbEntity
  8
0
100
AcDbBlockEnd
  0
BLOCK
  5
1C
330
1B
100
AcDbEntity
 67
     1
  8
0
100
AcDbBlockBegin
  2
*Paper_Space
 70
     0
 10
0.0
 20
0.0
 30
0.0
  3
*Paper_Space
  1

  0
ENDBLK
  5
1D
330
1B
100
AcDbEntity
 67
     1
  8
0
100
AcDbBlockEnd
  0
BLOCK
  5
24
330
23
100
AcDbEntity
 67
     1
  8
0
100
AcDbBlockBegin
  2
*Paper_Space0
 70
     0
 10
0.0
 20
0.0
 30
0.0
  3
*Paper_Space0
  1

  0
ENDBLK
  5
25
330
23
100
AcDbEntity
 67
     1
  8
0
100
AcDbBlockEnd
  0
BLOCK
  5
306
330
305
100
AcDbEntity
  8
0
100
AcDbBlockBegin
  2
*D1
 70
     1
 10
0.0
 20
0.0
 30
0.0
  3
*D1
  1

  0
LINE
  5
308
330
305
100
AcDbEntity
  8
SK2
370
    -2
100
AcDbLine
 10
44.0
 20
16.0
 30
0.0
 11
-75.035477
 21
16.0
 31
0.0
  0
LINE
  5
309
330
305
100
AcDbEntity
  8
SK2
370
    -2
100
AcDbLine
 10
-59.0
 20
-16.0
 30
0.0
 11
-75.035477
 21
-16.0
 31
0.0
  0
LINE
  5
30A
330
305
100
AcDbEntity
  8
SK2
370
    -2
100
AcDbLine
 10
-73.035477
 20
13.5
 30
0.0
 11
-73.035477
 21
-13.5
 31
0.0
  0
SOLID
  5
30B
330
305
100
AcDbEntity
  8
SK2
100
AcDbTrace
 10
-72.61880999999999
 20
13.5
 30
0.0
 11
-73.45214399999999
 21
13.5
 31
0.0
 12
-73.035477
 22
16.0
 32
0.0
 13
-73.035477
 23
16.0
 33
0.0
  0
SOLID
  5
30C
330
305
100
AcDbEntity
  8
SK2
100
AcDbTrace
 10
-73.45214399999999
 20
-13.5
 30
0.0
 11
-72.61880999999999
 21
-13.5
 31
0.0
 12
-73.035477
 22
-16.0
 32
0.0
 13
-73.035477
 23
-16.0
 33
0.0
  0
MTEXT
  5
30D
330
305
100
AcDbEntity
  8
SK2
370
    18
100
AcDbMText
 10
-76.81172700000001
 20
0.0
 30
0.0
 40
2.5
 41
0.0
 46
0.0
 71
     5
 72
     1
  1
\A1;32
  7
Arial
 11
0.0
 21
1.0
 31
0.0
 73
     1
 44
1.0
  0
POINT
  5
30E
330
305
100
AcDbEntity
  8
Defpoints
 62
     0
100
AcDbPoint
 10
45.0
 20
16.0
 30
0.0
  0
POINT
  5
30F
330
305
100
AcDbEntity
  8
Defpoints
 62
     0
100
AcDbPoint
 10
-58.0
 20
-16.0
 30
0.0
  0
POINT
  5
310
330
305
100
AcDbEntity
  8
Defpoints
 62
     0
100
AcDbPoint
 10
-73.035477
 20
-16.0
 30
0.0
  0
ENDBLK
  5
307
330
305
100
AcDbEntity
  8
0
100
AcDbBlockEnd
  0
BLOCK
  5
319
330
311
100
AcDbEntity
  8
0
100
AcDbBlockBegin
  2
_U0
 70
     0
 10
0.0
 20
0.0
 30
0.0
  3
_U0
  1

  0
MTEXT
  5
312
330
311
100
AcDbEntity
  8
SK2
440
 16777216
370
    13
100
AcDbMText
 10
-73.887489
 20
0.088033
 30
0.0
 40
2.5
 41
0.0
 46
0.0
 71
     7
 72
     5
  1
\fArial|b0|i0;\W1.0000;32
  7
Arial
 11
0.0000000000000001
 21
1.0
 31
0.0
 73
     2
 44
1.047437
  0
MTEXT
  5
313
330
311
100
AcDbEntity
  8
SK2
440
 16777216
370
    13
100
AcDbMText
 10
-73.887489
 20
-3.997752999999999
 30
0.0
 40
2.5
 41
0.0
 46
0.0
 71
     7
 72
     5
  1
\fArial|b0|i0;%%c
  7
Arial
 11
0.0000000000000001
 21
1.0
 31
0.0
 73
     2
 44
1.047437
  0
LINE
  5
314
330
311
100
AcDbEntity
  8
SK2
440
 16777216
370
    13
100
AcDbLine
 10
-59.0
 20
16.0
 30
0.0
 11
-75.035477
 21
16.0
 31
0.0
  0
LINE
  5
315
330
311
100
AcDbEntity
  8
SK2
440
 16777216
370
    13
100
AcDbLine
 10
-59.0
 20
-16.0
 30
0.0
 11
-75.035477
 21
-16.0
 31
0.0
  0
LINE
  5
316
330
311
100
AcDbEntity
  8
SK2
440
 16777216
370
    13
100
AcDbLine
 10
-73.035477
 20
16.0
 30
0.0
 11
-73.035477
 21
-16.0
 31
0.0
  0
SOLID
  5
317
330
311
100
AcDbEntity
  8
SK2
440
 16777216
370
    18
100
AcDbTrace
 10
-73.035477
 20
16.0
 30
0.0
 11
-72.59466
 21
13.500002
 31
0.0
 12
-73.47629399999999
 22
13.499998
 32
0.0
 13
-73.47629399999999
 23
13.499998
 33
0.0
  0
SOLID
  5
318
330
311
100
AcDbEntity
  8
SK2
440
 16777216
370
    18
100
AcDbTrace
 10
-73.035477
 20
-16.0
 30
0.0
 11
-73.47629399999999
 21
-13.500002
 31
0.0
 12
-72.59466
 22
-13.499998
 32
0.0
 13
-72.59466
 23
-13.499998
 33
0.0
  0
ENDBLK
  5
31A
330
311
100
AcDbEntity
  8
0
100
AcDbBlockEnd
  0
BLOCK
  5
31F
330
31E
100
AcDbEntity
  8
0
100
AcDbBlockBegin
  2
*D3
 70
     1
 10
0.0
 20
0.0
 30
0.0
  3
*D3
  1

  0
LINE
  5
321
330
31E
100
AcDbEntity
  8
2
370
    -2
100
AcDbLine
 10
132.5
 20
16.981073
 30
0.0
 11
132.5
 21
23.482384
 31
0.0
  0
LINE
  5
322
330
31E
100
AcDbEntity
  8
2
370
    -2
100
AcDbLine
 10
135.0
 20
17.4875
 30
0.0
 11
135.0
 21
23.482384
 31
0.0
  0
LINE
  5
323
330
31E
100
AcDbEntity
  8
2
370
    -2
100
AcDbLine
 10
135.0
 20
21.482384
 30
0.0
 11
150.981274
 21
21.482384
 31
0.0
  0
LINE
  5
324
330
31E
100
AcDbEntity
  8
2
370
    -2
100
AcDbLine
 10
130.0
 20
21.482384
 30
0.0
 11
127.5
 21
21.482384
 31
0.0
  0
LINE
  5
325
330
31E
100
AcDbEntity
  8
2
370
    -2
100
AcDbLine
 10
137.5
 20
21.482384
 30
0.0
 11
140.0
 21
21.482384
 31
0.0
  0
SOLID
  5
326
330
31E
100
AcDbEntity
  8
2
100
AcDbTrace
 10
130.0
 20
21.065717
 30
0.0
 11
130.0
 21
21.899051
 31
0.0
 12
132.5
 22
21.482384
 32
0.0
 13
132.5
 23
21.482384
 33
0.0
  0
SOLID
  5
327
330
31E
100
AcDbEntity
  8
2
100
AcDbTrace
 10
137.5
 20
21.899051
 30
0.0
 11
137.5
 21
21.065717
 31
0.0
 12
135.0
 22
21.482384
 32
0.0
 13
135.0
 23
21.482384
 33
0.0
  0
MTEXT
  5
328
330
31E
100
AcDbEntity
  8
2
370
    18
100
AcDbMText
 10
146.177524
 20
25.258634
 30
0.0
 40
2.5
 41
0.0
 46
0.0
 71
     5
 72
     1
  1
\A1;2.5
  7
Arial
 73
     1
 44
1.0
  0
POINT
  5
329
330
31E
100
AcDbEntity
  8
Defpoints
 62
     0
100
AcDbPoint
 10
132.5
 20
15.981073
 30
0.0
  0
POINT
  5
32A
330
31E
100
AcDbEntity
  8
Defpoints
 62
     0
100
AcDbPoint
 10
135.0
 20
16.4875
 30
0.0
  0
POINT
  5
32B
330
31E
100
AcDbEntity
  8
Defpoints
 62
     0
100
AcDbPoint
 10
135.0
 20
21.482384
 30
0.0
  0
ENDBLK
  5
320
330
31E
100
AcDbEntity
  8
0
100
AcDbBlockEnd
  0
BLOCK
  5
333
330
32C
100
AcDbEntity
  8
0
100
AcDbBlockBegin
  2
_U1
 70
     0
 10
0.0
 20
0.0
 30
0.0
  3
_U1
  1

  0
LINE
  5
6C8
330
32C
100
AcDbEntity
  8
2
  6
Continuous
 62
   254
440
 16777216
370
    13
100
AcDbLine
 10
124.9869740162833
 20
16.96949820518239
 30
0.0
 11
124.9869740162833
 21
23.482384
 31
0.0
  0
LINE
  5
6C9
330
32C
100
AcDbEntity
  8
2
  6
Continuous
 62
   254
440
 16777216
370
    13
100
AcDbLine
 10
135.0
 20
17.4875
 30
0.0
 11
135.0
 21
23.482384
 31
0.0
  0
LINE
  5
6CA
330
32C
100
AcDbEntity
  8
2
  6
Continuous
 62
   254
440
 16777216
370
    13
100
AcDbLine
 10
127.4869740162833
 20
21.482384
 30
0.0
 11
132.5
 21
21.482384
 31
0.0
  0
LINE
  5
6CB
330
32C
100
AcDbEntity
  8
2
  6
Continuous
 62
   254
440
 16777216
370
    13
100
AcDbLine
 10
135.0
 20
21.482384
 30
0.0
 11
149.096180207367
 21
21.482384
 31
0.0
  0
SOLID
  5
6CC
330
32C
100
AcDbEntity
  8
2
 62
   254
440
 16777216
370
    18
100
AcDbTrace
 10
127.4869740162833
 20
21.89905066666667
 30
0.0
 11
127.4869740162833
 21
21.06571733333333
 31
0.0
 12
124.9869740162833
 22
21.482384
 32
0.0
 13
124.9869740162833
 23
21.482384
 33
0.0
  0
SOLID
  5
6CD
330
32C
100
AcDbEntity
  8
2
 62
   254
440
 16777216
370
    18
100
AcDbTrace
 10
132.5
 20
21.89905066666667
 30
0.0
 11
132.5
 21
21.06571733333333
 31
0.0
 12
135.0
 22
21.482384
 32
0.0
 13
135.0
 23
21.482384
 33
0.0
  0
MTEXT
  5
6CE
330
32C
100
AcDbEntity
  8
2
 62
   254
440
 16777216
370
    13
100
AcDbMText
 10
144.508867792633
 20
25.28524893860846
 30
0.0
 40
2.5
 41
0.0
 46
0.0
 71
     1
 72
     1
  1
\A1;10
  7
Arial
 73
     1
 44
1.0
  0
POINT
  5
6CF
330
32C
100
AcDbEntity
  8
Defpoints
 62
     0
440
 16777216
370
    18
100
AcDbPoint
 10
124.9869740162833
 20
15.96949820518239
 30
0.0
  0
POINT
  5
6D0
330
32C
100
AcDbEntity
  8
Defpoints
 62
     0
440
 16777216
370
    18
100
AcDbPoint
 10
135.0
 20
16.4875
 30
0.0
  0
POINT
  5
6D1
330
32C
100
AcDbEntity
  8
Defpoints
 62
     0
440
 16777216
370
    18
100
AcDbPoint
 10
135.0
 20
21.482384
 30
0.0
  0
ENDBLK
  5
334
330
32C
100
AcDbEntity
  8
0
100
AcDbBlockEnd
  0
BLOCK
  5
339
330
338
100
AcDbEntity
  8
0
100
AcDbBlockBegin
  2
*D5
 70
     1
 10
0.0
 20
0.0
 30
0.0
  3
*D5
  1

  0
LINE
  5
33B
330
338
100
AcDbEntity
  8
2
370
    -2
100
AcDbLine
 10
45.0
 20
17.0
 30
0.0
 11
45.0
 21
39.48238400000001
 31
0.0
  0
LINE
  5
33C
330
338
100
AcDbEntity
  8
2
370
    -2
100
AcDbLine
 10
135.0
 20
17.4875
 30
0.0
 11
135.0
 21
39.48238400000001
 31
0.0
  0
LINE
  5
33D
330
338
100
AcDbEntity
  8
2
370
    -2
100
AcDbLine
 10
47.5
 20
37.482384
 30
0.0
 11
132.5
 21
37.482384
 31
0.0
  0
SOLID
  5
33E
330
338
100
AcDbEntity
  8
2
100
AcDbTrace
 10
47.5
 20
37.899051
 30
0.0
 11
47.5
 21
37.065717
 31
0.0
 12
45.0
 22
37.482384
 32
0.0
 13
45.0
 23
37.482384
 33
0.0
  0
SOLID
  5
33F
330
338
100
AcDbEntity
  8
2
100
AcDbTrace
 10
132.5
 20
37.065717
 30
0.0
 11
132.5
 21
37.899051
 31
0.0
 12
135.0
 22
37.482384
 32
0.0
 13
135.0
 23
37.482384
 33
0.0
  0
MTEXT
  5
340
330
338
100
AcDbEntity
  8
2
370
    18
100
AcDbMText
 10
90.0
 20
41.258634
 30
0.0
 40
2.5
 41
0.0
 46
0.0
 71
     5
 72
     1
  1
\A1;90
  7
Arial
 73
     1
 44
1.0
  0
POINT
  5
341
330
338
100
AcDbEntity
  8
Defpoints
 62
     0
100
AcDbPoint
 10
45.0
 20
16.0
 30
0.0
  0
POINT
  5
342
330
338
100
AcDbEntity
  8
Defpoints
 62
     0
100
AcDbPoint
 10
135.0
 20
16.4875
 30
0.0
  0
POINT
  5
343
330
338
100
AcDbEntity
  8
Defpoints
 62
     0
100
AcDbPoint
 10
135.0
 20
37.482384
 30
0.0
  0
ENDBLK
  5
33A
330
338
100
AcDbEntity
  8
0
100
AcDbBlockEnd
  0
BLOCK
  5
34B
330
344
100
AcDbEntity
  8
0
100
AcDbBlockBegin
  2
_U2
 70
     0
 10
0.0
 20
0.0
 30
0.0
  3
_U2
  1

  0
MTEXT
  5
345
330
344
100
AcDbEntity
  8
2
440
 16777216
370
    13
100
AcDbMText
 10
88.06513999999999
 20
38.104788
 30
0.0
 40
2.5
 41
0.0
 46
0.0
 71
     7
 72
     5
  1
\fArial|b0|i0;\W1.0000;90
  7
Arial
 73
     2
 44
1.047437
  0
LINE
  5
346
330
344
100
AcDbEntity
  8
2
440
 16777216
370
    13
100
AcDbLine
 10
45.0
 20
17.0
 30
0.0
 11
45.0
 21
39.48238400000001
 31
0.0
  0
LINE
  5
347
330
344
100
AcDbEntity
  8
2
440
 16777216
370
    13
100
AcDbLine
 10
135.0
 20
17.4875
 30
0.0
 11
135.0
 21
39.48238400000001
 31
0.0
  0
LINE
  5
348
330
344
100
AcDbEntity
  8
2
440
 16777216
370
    13
100
AcDbLine
 10
45.0
 20
37.482384
 30
0.0
 11
135.0
 21
37.482384
 31
0.0
  0
SOLID
  5
349
330
344
100
AcDbEntity
  8
2
440
 16777216
370
    18
100
AcDbTrace
 10
45.0
 20
37.482384
 30
0.0
 11
47.499998
 21
37.923201
 31
0.0
 12
47.500002
 22
37.041567
 32
0.0
 13
47.500002
 23
37.041567
 33
0.0
  0
SOLID
  5
34A
330
344
100
AcDbEntity
  8
2
440
 16777216
370
    18
100
AcDbTrace
 10
135.0
 20
37.482384
 30
0.0
 11
132.500002
 21
37.041567
 31
0.0
 12
132.499998
 22
37.923201
 32
0.0
 13
132.499998
 23
37.923201
 33
0.0
  0
ENDBLK
  5
34C
330
344
100
AcDbEntity
  8
0
100
AcDbBlockEnd
  0
BLOCK
  5
351
330
350
100
AcDbEntity
  8
0
100
AcDbBlockBegin
  2
*D7
 70
     1
 10
0.0
 20
0.0
 30
0.0
  3
*D7
  1

  0
LINE
  5
353
330
350
100
AcDbEntity
  8
SK2
370
    -2
100
AcDbLine
 10
0.0
 20
1.5
 30
0.0
 11
0.0
 21
47.482384
 31
0.0
  0
LINE
  5
354
330
350
100
AcDbEntity
  8
SK2
370
    -2
100
AcDbLine
 10
135.0
 20
17.4875
 30
0.0
 11
135.0
 21
47.482384
 31
0.0
  0
LINE
  5
355
330
350
100
AcDbEntity
  8
SK2
370
    -2
100
AcDbLine
 10
2.5
 20
45.482384
 30
0.0
 11
132.5
 21
45.482384
 31
0.0
  0
SOLID
  5
356
330
350
100
AcDbEntity
  8
SK2
100
AcDbTrace
 10
2.5
 20
45.899051
 30
0.0
 11
2.5
 21
45.065717
 31
0.0
 12
0.0
 22
45.482384
 32
0.0
 13
0.0
 23
45.482384
 33
0.0
  0
SOLID
  5
357
330
350
100
AcDbEntity
  8
SK2
100
AcDbTrace
 10
132.5
 20
45.065717
 30
0.0
 11
132.5
 21
45.899051
 31
0.0
 12
135.0
 22
45.482384
 32
0.0
 13
135.0
 23
45.482384
 33
0.0
  0
MTEXT
  5
358
330
350
100
AcDbEntity
  8
SK2
370
    18
100
AcDbMText
 10
67.5
 20
49.258634
 30
0.0
 40
2.5
 41
0.0
 46
0.0
 71
     5
 72
     1
  1
\A1;135
  7
Arial
 73
     1
 44
1.0
  0
POINT
  5
359
330
350
100
AcDbEntity
  8
Defpoints
 62
     0
100
AcDbPoint
 10
0.0
 20
0.5
 30
0.0
  0
POINT
  5
35A
330
350
100
AcDbEntity
  8
Defpoints
 62
     0
100
AcDbPoint
 10
135.0
 20
16.4875
 30
0.0
  0
POINT
  5
35B
330
350
100
AcDbEntity
  8
Defpoints
 62
     0
100
AcDbPoint
 10
135.0
 20
45.482384
 30
0.0
  0
ENDBLK
  5
352
330
350
100
AcDbEntity
  8
0
100
AcDbBlockEnd
  0
BLOCK
  5
363
330
35C
100
AcDbEntity
  8
0
100
AcDbBlockBegin
  2
_U3
 70
     0
 10
0.0
 20
0.0
 30
0.0
  3
_U3
  1

  0
MTEXT
  5
35D
330
35C
100
AcDbEntity
  8
SK2
440
 16777216
370
    13
100
AcDbMText
 10
64.46895999999999
 20
46.104788
 30
0.0
 40
2.5
 41
0.0
 46
0.0
 71
     7
 72
     5
  1
\fArial|b0|i0;\W1.0000;135
  7
Arial
 73
     2
 44
1.047437
  0
LINE
  5
35E
330
35C
100
AcDbEntity
  8
SK2
440
 16777216
370
    13
100
AcDbLine
 10
0.0
 20
1.5
 30
0.0
 11
0.0
 21
47.482384
 31
0.0
  0
LINE
  5
35F
330
35C
100
AcDbEntity
  8
SK2
440
 16777216
370
    13
100
AcDbLine
 10
135.0
 20
17.4875
 30
0.0
 11
135.0
 21
47.482384
 31
0.0
  0
LINE
  5
360
330
35C
100
AcDbEntity
  8
SK2
440
 16777216
370
    13
100
AcDbLine
 10
0.0
 20
45.482384
 30
0.0
 11
135.0
 21
45.482384
 31
0.0
  0
SOLID
  5
361
330
35C
100
AcDbEntity
  8
SK2
440
 16777216
370
    18
100
AcDbTrace
 10
0.0
 20
45.482384
 30
0.0
 11
2.499998
 21
45.923201
 31
0.0
 12
2.500001999999999
 22
45.041567
 32
0.0
 13
2.500001999999999
 23
45.041567
 33
0.0
  0
SOLID
  5
362
330
35C
100
AcDbEntity
  8
SK2
440
 16777216
370
    18
100
AcDbTrace
 10
135.0
 20
45.482384
 30
0.0
 11
132.500002
 21
45.041567
 31
0.0
 12
132.499998
 22
45.923201
 32
0.0
 13
132.499998
 23
45.923201
 33
0.0
  0
ENDBLK
  5
364
330
35C
100
AcDbEntity
  8
0
100
AcDbBlockEnd
  0
BLOCK
  5
369
330
368
100
AcDbEntity
  8
0
100
AcDbBlockBegin
  2
*D9
 70
     1
 10
0.0
 20
0.0
 30
0.0
  3
*D9
  1

  0
LINE
  5
36B
330
368
100
AcDbEntity
  8
SK2
370
    -2
100
AcDbLine
 10
-60.0
 20
15.0
 30
0.0
 11
-60.0
 21
55.48238399999999
 31
0.0
  0
LINE
  5
36C
330
368
100
AcDbEntity
  8
SK2
370
    -2
100
AcDbLine
 10
135.0
 20
17.4875
 30
0.0
 11
135.0
 21
55.48238399999999
 31
0.0
  0
LINE
  5
36D
330
368
100
AcDbEntity
  8
SK2
370
    -2
100
AcDbLine
 10
-57.5
 20
53.48238399999999
 30
0.0
 11
132.5
 21
53.48238399999999
 31
0.0
  0
SOLID
  5
36E
330
368
100
AcDbEntity
  8
SK2
100
AcDbTrace
 10
-57.5
 20
53.899051
 30
0.0
 11
-57.5
 21
53.06571700000001
 31
0.0
 12
-60.0
 22
53.48238399999999
 32
0.0
 13
-60.0
 23
53.48238399999999
 33
0.0
  0
SOLID
  5
36F
330
368
100
AcDbEntity
  8
SK2
100
AcDbTrace
 10
132.5
 20
53.06571700000001
 30
0.0
 11
132.5
 21
53.899051
 31
0.0
 12
135.0
 22
53.48238399999999
 32
0.0
 13
135.0
 23
53.48238399999999
 33
0.0
  0
MTEXT
  5
370
330
368
100
AcDbEntity
  8
SK2
370
    18
100
AcDbMText
 10
37.5
 20
57.25863399999999
 30
0.0
 40
2.5
 41
0.0
 46
0.0
 71
     5
 72
     1
  1
\A1;195
  7
Arial
 73
     1
 44
1.0
  0
POINT
  5
371
330
368
100
AcDbEntity
  8
Defpoints
 62
     0
100
AcDbPoint
 10
-60.0
 20
14.0
 30
0.0
  0
POINT
  5
372
330
368
100
AcDbEntity
  8
Defpoints
 62
     0
100
AcDbPoint
 10
135.0
 20
16.4875
 30
0.0
  0
POINT
  5
373
330
368
100
AcDbEntity
  8
Defpoints
 62
     0
100
AcDbPoint
 10
135.0
 20
53.48238399999999
 30
0.0
  0
ENDBLK
  5
36A
330
368
100
AcDbEntity
  8
0
100
AcDbBlockEnd
  0
BLOCK
  5
37B
330
374
100
AcDbEntity
  8
0
100
AcDbBlockBegin
  2
_U4
 70
     0
 10
0.0
 20
0.0
 30
0.0
  3
_U4
  1

  0
MTEXT
  5
375
330
374
100
AcDbEntity
  8
SK2
440
 16777216
370
    13
100
AcDbMText
 10
34.46896
 20
54.10478799999999
 30
0.0
 40
2.5
 41
0.0
 46
0.0
 71
     7
 72
     5
  1
\fArial|b0|i0;\W1.0000;195
  7
Arial
 73
     2
 44
1.047437
  0
LINE
  5
376
330
374
100
AcDbEntity
  8
SK2
440
 16777216
370
    13
100
AcDbLine
 10
-60.0
 20
15.0
 30
0.0
 11
-60.0
 21
55.48238399999999
 31
0.0
  0
LINE
  5
377
330
374
100
AcDbEntity
  8
SK2
440
 16777216
370
    13
100
AcDbLine
 10
135.0
 20
17.4875
 30
0.0
 11
135.0
 21
55.48238399999999
 31
0.0
  0
LINE
  5
378
330
374
100
AcDbEntity
  8
SK2
440
 16777216
370
    13
100
AcDbLine
 10
-60.0
 20
53.48238399999999
 30
0.0
 11
135.0
 21
53.48238399999999
 31
0.0
  0
SOLID
  5
379
330
374
100
AcDbEntity
  8
SK2
440
 16777216
370
    18
100
AcDbTrace
 10
-60.0
 20
53.48238399999999
 30
0.0
 11
-57.500002
 21
53.923201
 31
0.0
 12
-57.499998
 22
53.041567
 32
0.0
 13
-57.499998
 23
53.041567
 33
0.0
  0
SOLID
  5
37A
330
374
100
AcDbEntity
  8
SK2
440
 16777216
370
    18
100
AcDbTrace
 10
135.0
 20
53.48238399999999
 30
0.0
 11
132.500002
 21
53.041567
 31
0.0
 12
132.499998
 22
53.923201
 32
0.0
 13
132.499998
 23
53.923201
 33
0.0
  0
ENDBLK
  5
37C
330
374
100
AcDbEntity
  8
0
100
AcDbBlockEnd
  0
BLOCK
  5
382
330
381
100
AcDbEntity
  8
0
100
AcDbBlockBegin
  2
*D11
 70
     1
 10
0.0
 20
0.0
 30
0.0
  3
*D11
  1

  0
LINE
  5
384
330
381
100
AcDbEntity
  8
2
370
    -2
100
AcDbLine
 10
135.0
 20
17.4875
 30
0.0
 11
135.0
 21
35.875723
 31
0.0
  0
LINE
  5
385
330
381
100
AcDbEntity
  8
2
370
    -2
100
AcDbLine
 10
133.237285
 20
15.984457
 30
0.0
 11
115.108735
 21
15.984457
 31
0.0
  0
ARC
  5
386
330
381
100
AcDbEntity
  8
2
370
    -2
100
AcDbCircle
 10
135.0
 20
15.984457
 30
0.0
 40
17.89126532385572
100
AcDbArc
 50
98.012638
 51
171.987362
  0
SOLID
  5
387
330
381
100
AcDbEntity
  8
2
100
AcDbTrace
 10
132.5352199999999
 20
33.28540800000001
 30
0.0
 11
132.476998
 21
34.116705
 31
0.0
 12
135.0
 22
33.875723
 32
0.0
 13
135.0
 23
33.875723
 33
0.0
  0
SOLID
  5
388
330
381
100
AcDbEntity
  8
2
100
AcDbTrace
 10
116.867752
 20
18.507459
 30
0.0
 11
117.699049
 21
18.449237
 31
0.0
 12
117.108735
 22
15.984457
 32
0.0
 13
117.108735
 23
15.984457
 33
0.0
  0
MTEXT
  5
389
330
381
100
AcDbEntity
  8
2
370
    18
100
AcDbMText
 10
119.667262
 20
31.317195
 30
0.0
 40
2.5
 41
0.0
 46
0.0
 71
     5
 72
     1
  1
\A1;90%%d
  7
Arial
 11
0.7071067811865478
 21
0.7071067811865475
 31
0.0
 73
     1
 44
1.0
  0
POINT
  5
38A
330
381
100
AcDbEntity
  8
Defpoints
 62
     0
100
AcDbPoint
 10
126.054367
 20
31.478748
 30
0.0
  0
POINT
  5
38B
330
381
100
AcDbEntity
  8
Defpoints
 62
     0
100
AcDbPoint
 10
134.247285
 20
15.984457
 30
0.0
  0
POINT
  5
38C
330
381
100
AcDbEntity
  8
Defpoints
 62
     0
100
AcDbPoint
 10
135.0
 20
15.4875
 30
0.0
  0
POINT
  5
38D
330
381
100
AcDbEntity
  8
Defpoints
 62
     0
100
AcDbPoint
 10
135.0
 20
16.4875
 30
0.0
  0
POINT
  5
38E
330
381
100
AcDbEntity
  8
Defpoints
 62
     0
100
AcDbPoint
 10
134.237285
 20
15.984457
 30
0.0
  0
ENDBLK
  5
383
330
381
100
AcDbEntity
  8
0
100
AcDbBlockEnd
  0
BLOCK
  5
396
330
38F
100
AcDbEntity
  8
0
100
AcDbBlockBegin
  2
_U5
 70
     0
 10
0.0
 20
0.0
 30
0.0
  3
_U5
  1

  0
MTEXT
  5
390
330
38F
100
AcDbEntity
  8
2
440
 16777216
370
    13
100
AcDbMText
 10
121.977097
 20
25.421968
 30
0.0
 40
2.5
 41
0.0
 46
0.0
 71
     7
 72
     5
  1
\fArial|b0|i0;\W1.0000;90%%d
  7
Arial
 11
0.7071067811865476
 21
0.7071067811865476
 31
0.0
 73
     2
 44
1.047437
  0
LINE
  5
391
330
38F
100
AcDbEntity
  8
2
440
 16777216
370
    13
100
AcDbLine
 10
135.0
 20
17.4875
 30
0.0
 11
135.0
 21
33.370607
 31
0.0
  0
LINE
  5
392
330
38F
100
AcDbEntity
  8
2
440
 16777216
370
    13
100
AcDbLine
 10
133.237285
 20
15.984457
 30
0.0
 11
117.613851
 21
15.984457
 31
0.0
  0
ARC
  5
393
330
38F
100
AcDbEntity
  8
2
440
 16777216
370
    13
100
AcDbCircle
 10
135.0
 20
15.984457
 30
0.0
 40
15.3861493620549
100
AcDbArc
 50
90.0
 51
179.999943
  0
SOLID
  5
394
330
38F
100
AcDbEntity
  8
2
440
 16777216
370
    18
100
AcDbTrace
 10
135.0
 20
31.370607
 30
0.0
 11
132.519917
 21
30.828849
 31
0.0
 12
132.484189
 22
31.70976
 32
0.0
 13
132.484189
 23
31.70976
 33
0.0
  0
SOLID
  5
395
330
38F
100
AcDbEntity
  8
2
440
 16777216
370
    18
100
AcDbTrace
 10
119.613851
 20
15.984457
 30
0.0
 11
119.274697
 21
18.500265
 31
0.0
 12
120.155608
 22
18.464543
 32
0.0
 13
120.155608
 23
18.464543
 33
0.0
  0
ENDBLK
  5
397
330
38F
100
AcDbEntity
  8
0
100
AcDbBlockEnd
  0
BLOCK
  5
687
330
685
100
AcDbEntity
  8
0
370
    18
100
AcDbBlockBegin
  2
GENAXEH
 70
     0
 10
0.0
 20
0.0
 30
0.0
  3
GENAXEH
  1

  0
LINE
  5
686
330
685
100
AcDbEntity
  8
0
100
AcDbLine
 10
-1.0
 20
0.0
 30
0.0
 11
1.0
 21
0.0
 31
0.0
  0
ENDBLK
  5
688
330
685
100
AcDbEntity
  8
0
370
    18
100
AcDbBlockEnd
  0
ENDSEC
  0
SECTION
  2
ENTITIES
  0
LINE
  5
75
330
1F
100
AcDbEntity
  8
NOCUT
370
    18
100
AcDbLine
 10
45.0
 20
16.0
 30
0.0
 11
45.0
 21
15.5975
 31
0.0
  0
LINE
  5
77
330
1F
100
AcDbEntity
  8
NOCUT
370
    18
100
AcDbLine
 10
133.85
 20
-13.8975
 30
0.0
 11
133.85
 21
-9.523398
 31
0.0
  0
LINE
  5
78
330
1F
100
AcDbEntity
  8
NOCUT
370
    18
100
AcDbLine
 10
-60.0
 20
5.154701
 30
0.0
 11
-58.0
 21
4.0
 31
0.0
  0
LINE
  5
79
330
1F
100
AcDbEntity
  8
NOCUT
370
    18
100
AcDbLine
 10
45.0
 20
-16.0
 30
0.0
 11
-58.0
 21
-16.0
 31
0.0
  0
LINE
  5
7A
330
1F
100
AcDbEntity
  8
NOCUT
370
    18
100
AcDbLine
 10
132.117949
 20
5.987499999999999
 30
0.0
 11
133.582051
 21
8.523398
 31
0.0
  0
LINE
  5
7B
330
1F
100
AcDbEntity
  8
NOCUT
370
    18
100
AcDbLine
 10
118.415799
 20
14.5975
 30
0.0
 11
46.0
 21
14.5975
 31
0.0
  0
LINE
  5
7C
330
1F
100
AcDbEntity
  8
NOCUT
370
    18
100
AcDbLine
 10
114.0
 20
4.0
 30
0.0
 11
116.309401
 21
0.0
 31
0.0
  0
LINE
  5
7D
330
1F
100
AcDbEntity
  8
NOCUT
370
    18
100
AcDbLine
 10
-60.0
 20
-14.0
 30
0.0
 11
-60.0
 21
-5.154701
 31
0.0
  0
LINE
  5
7E
330
1F
100
AcDbEntity
  8
NOCUT
370
    18
100
AcDbLine
 10
131.85
 20
-4.987499999999999
 30
0.0
 11
131.85
 21
4.987499999999999
 31
0.0
  0
LINE
  5
7F
330
1F
100
AcDbEntity
  8
NOCUT
370
    18
100
AcDbLine
 10
119.277701
 20
-14.672348
 30
0.0
 11
122.422299
 21
-15.222652
 31
0.0
  0
LINE
  5
80
330
1F
100
AcDbEntity
  8
NOCUT
370
    18
100
AcDbLine
 10
-58.0
 20
4.0
 30
0.0
 11
114.0
 21
4.0
 31
0.0
  0
LINE
  5
81
330
1F
100
AcDbEntity
  8
NOCUT
370
    18
100
AcDbLine
 10
-60.0
 20
-14.0
 30
0.0
 11
-58.0
 21
-16.0
 31
0.0
  0
LINE
  5
82
330
1F
100
AcDbEntity
  8
NOCUT
370
    18
100
AcDbLine
 10
132.45
 20
15.2975
 30
0.0
 11
123.284201
 21
15.2975
 31
0.0
  0
LINE
  5
83
330
1F
100
AcDbEntity
  8
NOCUT
370
    18
100
AcDbLine
 10
-58.0
 20
-4.0
 30
0.0
 11
-60.0
 21
-5.154701
 31
0.0
  0
LINE
  5
84
330
1F
100
AcDbEntity
  8
NOCUT
370
    18
100
AcDbLine
 10
45.0
 20
-15.5975
 30
0.0
 11
45.0
 21
-16.0
 31
0.0
  0
LINE
  5
85
330
1F
100
AcDbEntity
  8
NOCUT
370
    18
100
AcDbLine
 10
133.85
 20
9.523398
 30
0.0
 11
133.85
 21
13.8975
 31
0.0
  0
LINE
  5
86
330
1F
100
AcDbEntity
  8
NOCUT
370
    18
100
AcDbLine
 10
46.0
 20
-14.5975
 30
0.0
 11
118.415799
 21
-14.5975
 31
0.0
  0
LINE
  5
87
330
1F
100
AcDbEntity
  8
NOCUT
370
    18
100
AcDbLine
 10
116.309401
 20
0.0
 30
0.0
 11
114.0
 21
-4.0
 31
0.0
  0
LINE
  5
88
330
1F
100
AcDbEntity
  8
NOCUT
370
    18
100
AcDbLine
 10
-58.0
 20
16.0
 30
0.0
 11
45.0
 21
16.0
 31
0.0
  0
LINE
  5
89
330
1F
100
AcDbEntity
  8
NOCUT
370
    18
100
AcDbLine
 10
133.582051
 20
-8.523398
 30
0.0
 11
132.117949
 21
-5.987499999999999
 31
0.0
  0
LINE
  5
8A
330
1F
100
AcDbEntity
  8
NOCUT
370
    18
100
AcDbLine
 10
122.422299
 20
15.222652
 30
0.0
 11
119.277701
 21
14.672348
 31
0.0
  0
LINE
  5
8B
330
1F
100
AcDbEntity
  8
NOCUT
370
    18
100
AcDbLine
 10
114.0
 20
-4.0
 30
0.0
 11
-58.0
 21
-4.0
 31
0.0
  0
LINE
  5
8C
330
1F
100
AcDbEntity
  8
NOCUT
370
    18
100
AcDbLine
 10
-60.0
 20
5.154701
 30
0.0
 11
-60.0
 21
14.0
 31
0.0
  0
LINE
  5
8D
330
1F
100
AcDbEntity
  8
NOCUT
370
    18
100
AcDbLine
 10
-58.0
 20
16.0
 30
0.0
 11
-60.0
 21
14.0
 31
0.0
  0
LINE
  5
8E
330
1F
100
AcDbEntity
  8
NOCUT
370
    18
100
AcDbLine
 10
123.284201
 20
-15.2975
 30
0.0
 11
132.45
 21
-15.2975
 31
0.0
  0
LINE
  5
8F
330
1F
100
AcDbEntity
  8
CUT
370
    18
100
AcDbLine
 10
121.812493
 20
-15.216999
 30
0.0
 11
121.802795
 21
-15.076823
 31
0.0
  0
LINE
  5
91
330
1F
100
AcDbEntity
  8
CUT
370
    18
100
AcDbLine
 10
135.013806
 20
-13.179315
 30
0.0
 11
135.017821
 21
-15.021217
 31
0.0
  0
LINE
  5
92
330
1F
100
AcDbEntity
  8
CUT
370
    18
100
AcDbLine
 10
121.802795
 20
15.076823
 30
0.0
 11
121.812493
 21
15.216999
 31
0.0
  0
LINE
  5
93
330
1F
100
AcDbEntity
  8
1
370
    13
100
AcDbLine
 10
121.536817
 20
-7.117521
 30
0.0
 11
121.579736
 21
-6.750877
 31
0.0
  0
LINE
  5
94
330
1F
100
AcDbEntity
  8
1
370
    13
100
AcDbLine
 10
128.813214
 20
2.525795
 30
0.0
 11
128.762296
 21
2.482629999999999
 31
0.0
  0
LINE
  5
95
330
1F
100
AcDbEntity
  8
1
370
    13
100
AcDbLine
 10
133.85
 20
10.932863
 30
0.0
 11
133.85
 21
6.416358999999999
 31
0.0
  0
LINE
  5
96
330
1F
100
AcDbEntity
  8
1
370
    13
100
AcDbLine
 10
121.722472
 20
-5.898876
 30
0.0
 11
121.203985
 21
0.4608640000000001
 31
0.0
  0
LINE
  5
97
330
1F
100
AcDbEntity
  8
1
370
    13
100
AcDbLine
 10
121.722472
 20
-5.898876
 30
0.0
 11
121.712982
 21
-6.585727
 31
0.0
  0
LINE
  5
98
330
1F
100
AcDbEntity
  8
1
370
    13
100
AcDbLine
 10
121.641873
 20
-6.992950999999999
 30
0.0
 11
121.536817
 21
-7.117521
 31
0.0
  0
LINE
  5
99
330
1F
100
AcDbEntity
  8
1
370
    13
100
AcDbLine
 10
121.712982
 20
-6.585727
 30
0.0
 11
121.67163
 21
-6.938991
 31
0.0
  0
LINE
  5
9A
330
1F
100
AcDbEntity
  8
1
370
    13
100
AcDbLine
 10
133.770509
 20
-12.905519
 30
0.0
 11
133.770509
 21
-7.800203999999999
 31
0.0
  0
LINE
  5
9B
330
1F
100
AcDbEntity
  8
1
370
    13
100
AcDbLine
 10
133.85
 20
-7.811383
 30
0.0
 11
133.85
 21
-12.896758
 31
0.0
  0
LINE
  5
9C
330
1F
100
AcDbEntity
  8
1
370
    13
100
AcDbLine
 10
133.85
 20
-13.8975
 30
0.0
 11
133.85
 21
-12.896758
 31
0.0
  0
LINE
  5
9D
330
1F
100
AcDbEntity
  8
1
370
    13
100
AcDbLine
 10
121.536817
 20
12.118734
 30
0.0
 11
121.579736
 21
13.34314
 31
0.0
  0
LINE
  5
9E
330
1F
100
AcDbEntity
  8
1
370
    13
100
AcDbLine
 10
121.49663
 20
11.377573
 30
0.0
 11
121.667081
 21
12.184566
 31
0.0
  0
LINE
  5
9F
330
1F
100
AcDbEntity
  8
1
370
    13
100
AcDbLine
 10
121.641873
 20
12.178582
 30
0.0
 11
121.536817
 21
12.118734
 31
0.0
  0
LINE
  5
A0
330
1F
100
AcDbEntity
  8
1
370
    13
100
AcDbLine
 10
121.712982
 20
13.446229
 30
0.0
 11
121.67163
 21
12.266504
 31
0.0
  0
LINE
  5
A1
330
1F
100
AcDbEntity
  8
1
370
    13
100
AcDbLine
 10
121.712982
 20
13.446229
 30
0.0
 11
121.722472
 21
14.409652
 31
0.0
  0
LINE
  5
A2
330
1F
100
AcDbEntity
  8
1
370
    13
100
AcDbLine
 10
121.76162
 20
13.272002
 30
0.0
 11
121.917189
 21
12.178073
 31
0.0
  0
LINE
  5
A4
330
1F
100
AcDbEntity
  8
1
370
    13
100
AcDbLine
 10
122.108776
 20
12.257063
 30
0.0
 11
121.967142
 21
13.253006
 31
0.0
  0
LINE
  5
A5
330
1F
100
AcDbEntity
  8
1
370
    13
100
AcDbLine
 10
121.812493
 20
15.182186
 30
0.0
 11
121.802795
 21
15.044072
 31
0.0
  0
LINE
  5
A6
330
1F
100
AcDbEntity
  8
1
370
    13
100
AcDbLine
 10
121.777998
 20
14.58031
 30
0.0
 11
121.769316
 21
14.295351
 31
0.0
  0
LINE
  5
A7
330
1F
100
AcDbEntity
  8
1
370
    13
100
AcDbLine
 10
121.769316
 20
14.295351
 30
0.0
 11
121.747277
 21
13.571936
 31
0.0
  0
LINE
  5
A8
330
1F
100
AcDbEntity
  8
1
370
    13
100
AcDbLine
 10
121.950393
 20
13.605269
 30
0.0
 11
121.970573
 21
14.267667
 31
0.0
  0
LINE
  5
A9
330
1F
100
AcDbEntity
  8
1
370
    13
100
AcDbLine
 10
134.817509
 20
14.900036
 30
0.0
 11
134.813855
 21
13.216225
 31
0.0
  0
LINE
  5
AA
330
1F
100
AcDbEntity
  8
1
370
    13
100
AcDbLine
 10
135.013806
 20
13.170858
 30
0.0
 11
135.017821
 21
15.020332
 31
0.0
  0
LINE
  5
AB
330
1F
100
AcDbEntity
  8
1
370
    13
100
AcDbLine
 10
134.640449
 20
10.79232
 30
0.0
 11
134.632261
 21
10.634654
 31
0.0
  0
LINE
  5
AC
330
1F
100
AcDbEntity
  8
1
370
    13
100
AcDbLine
 10
134.832578
 20
10.643508
 30
0.0
 11
134.838928
 21
10.765773
 31
0.0
  0
LINE
  5
AD
330
1F
100
AcDbEntity
  8
1
370
    13
100
AcDbLine
 10
121.970573
 20
14.267667
 30
0.0
 11
121.979998
 21
14.577041
 31
0.0
  0
LINE
  5
AE
330
1F
100
AcDbEntity
  8
1
370
    13
100
AcDbLine
 10
134.790391
 20
12.673574
 30
0.0
 11
134.711911
 21
11.73516
 31
0.0
  0
LINE
  5
AF
330
1F
100
AcDbEntity
  8
1
370
    13
100
AcDbLine
 10
134.908174
 20
11.683832
 30
0.0
 11
134.993882
 21
12.708689
 31
0.0
  0
LINE
  5
B0
330
1F
100
AcDbEntity
  8
1
370
    13
100
AcDbLine
 10
134.711911
 20
11.73516
 30
0.0
 11
134.675258
 21
11.296873
 31
0.0
  0
LINE
  5
B1
330
1F
100
AcDbEntity
  8
1
370
    13
100
AcDbLine
 10
134.874413
 20
11.280133
 30
0.0
 11
134.908174
 21
11.683832
 31
0.0
  0
LINE
  5
B2
330
1F
100
AcDbEntity
  8
1
370
    13
100
AcDbLine
 10
122.004323
 20
15.031961
 30
0.0
 11
122.016828
 21
15.210065
 31
0.0
  0
LINE
  5
B3
330
1F
100
AcDbEntity
  8
1
370
    13
100
AcDbLine
 10
120.99128
 20
2.224727999999999
 30
0.0
 11
121.00183
 21
3.003197999999999
 31
0.0
  0
LINE
  5
B4
330
1F
100
AcDbEntity
  8
1
370
    13
100
AcDbLine
 10
134.239353
 20
2.360177
 30
0.0
 11
134.257967
 21
3.082078
 31
0.0
  0
LINE
  5
B5
330
1F
100
AcDbEntity
  8
1
370
    13
100
AcDbLine
 10
135.013806
 20
-6.176611
 30
0.0
 11
135.017821
 21
-7.368997
 31
0.0
  0
LINE
  5
B6
330
1F
100
AcDbEntity
  8
1
370
    13
100
AcDbLine
 10
121.777998
 20
-6.660609
 30
0.0
 11
121.769316
 21
-6.767383999999999
 31
0.0
  0
LINE
  5
B7
330
1F
100
AcDbEntity
  8
1
370
    13
100
AcDbLine
 10
121.769316
 20
-6.767383999999999
 30
0.0
 11
121.747277
 21
-7.038450999999999
 31
0.0
  0
LINE
  5
B8
330
1F
100
AcDbEntity
  8
1
370
    13
100
AcDbLine
 10
134.055262
 20
3.057542999999999
 30
0.0
 11
134.037324
 21
2.361845
 31
0.0
  0
LINE
  5
B9
330
1F
100
AcDbEntity
  8
1
370
    13
100
AcDbLine
 10
133.879181
 20
4.440684
 30
0.0
 11
134.034075
 21
3.367315
 31
0.0
  0
LINE
  5
BA
330
1F
100
AcDbEntity
  8
1
370
    13
100
AcDbLine
 10
134.239845
 20
3.346004
 30
0.0
 11
134.069712
 21
4.524977999999999
 31
0.0
  0
LINE
  5
BB
330
1F
100
AcDbEntity
  8
1
370
    13
100
AcDbLine
 10
121.950393
 20
-7.025574
 30
0.0
 11
121.966408
 21
-6.828593999999999
 31
0.0
  0
LINE
  5
BC
330
1F
100
AcDbEntity
  8
1
370
    13
100
AcDbLine
 10
122.108776
 20
-7.905766
 30
0.0
 11
121.967142
 21
-7.209238
 31
0.0
  0
LINE
  5
BD
330
1F
100
AcDbEntity
  8
1
370
    13
100
AcDbLine
 10
121.76162
 20
-7.194983999999999
 30
0.0
 11
121.917189
 21
-7.960041
 31
0.0
  0
LINE
  5
BE
330
1F
100
AcDbEntity
  8
1
370
    13
100
AcDbLine
 10
134.227062
 20
-13.813054
 30
0.0
 11
134.52686
 21
-11.555132
 31
0.0
  0
LINE
  5
BF
330
1F
100
AcDbEntity
  8
1
370
    13
100
AcDbLine
 10
134.52686
 20
-11.555132
 30
0.0
 11
134.893159
 21
-8.796357
 31
0.0
  0
LINE
  5
C0
330
1F
100
AcDbEntity
  8
1
370
    13
100
AcDbLine
 10
128.964326
 20
-1.101533
 30
0.0
 11
128.971153
 21
-1.295555
 31
0.0
  0
LINE
  5
C2
330
1F
100
AcDbEntity
  8
1
370
    13
100
AcDbLine
 10
126.907236
 20
-1.516903
 30
0.0
 11
126.900353
 21
-1.321293
 31
0.0
  0
LINE
  5
C3
330
1F
100
AcDbEntity
  8
1
370
    13
100
AcDbLine
 10
129.116636
 20
-2.968865
 30
0.0
 11
129.123519
 21
-3.164474999999999
 31
0.0
  0
LINE
  5
C4
330
1F
100
AcDbEntity
  8
1
370
    13
100
AcDbLine
 10
127.059603
 20
-3.385823
 30
0.0
 11
127.052776
 21
-3.191800999999999
 31
0.0
  0
LINE
  5
C5
102
{ACAD_REACTORS
330
303
102
}
330
1F
100
AcDbEntity
  8
SK1
370
    13
100
AcDbLine
 10
-58.0
 20
-16.0
 30
0.0
 11
45.0
 21
-16.0
 31
0.0
  0
LINE
  5
C6
102
{ACAD_REACTORS
330
303
102
}
330
1F
100
AcDbEntity
  8
SK1
370
    13
100
AcDbLine
 10
45.0
 20
16.0
 30
0.0
 11
-58.0
 21
16.0
 31
0.0
  0
LINE
  5
C7
330
1F
100
AcDbEntity
  8
SK1
370
    13
100
AcDbLine
 10
-58.0
 20
16.0
 30
0.0
 11
-60.0
 21
14.0
 31
0.0
  0
LINE
  5
C8
330
1F
100
AcDbEntity
  8
SK1
370
    13
100
AcDbLine
 10
-60.0
 20
-14.0
 30
0.0
 11
-58.0
 21
-16.0
 31
0.0
  0
LINE
  5
C9
330
1F
100
AcDbEntity
  8
1
370
    13
100
AcDbLine
 10
46.0
 20
-14.5975
 30
0.0
 11
118.415799
 21
-14.5975
 31
0.0
  0
LINE
  5
CA
330
1F
100
AcDbEntity
  8
1
370
    13
100
AcDbLine
 10
89.62544900000001
 20
14.5975
 30
0.0
 11
46.0
 21
14.5975
 31
0.0
  0
LINE
  5
CB
330
1F
100
AcDbEntity
  8
1
370
    13
100
AcDbLine
 10
123.284201
 20
-15.2975
 30
0.0
 11
132.45
 21
-15.2975
 31
0.0
  0
LINE
  5
CC
330
1F
100
AcDbEntity
  8
1
370
    13
100
AcDbLine
 10
119.277701
 20
-14.672348
 30
0.0
 11
122.422299
 21
-15.222652
 31
0.0
  0
LINE
  5
CD
330
1F
100
AcDbEntity
  8
1
370
    13
100
AcDbLine
 10
134.496399
 20
8.994669999999999
 30
0.0
 11
134.796514
 21
10.41556
 31
0.0
  0
LINE
  5
CE
330
1F
100
AcDbEntity
  8
1
370
    13
100
AcDbLine
 10
121.806992
 20
15.213347
 30
0.0
 11
121.652395
 21
14.481411
 31
0.0
  0
LINE
  5
CF
330
1F
100
AcDbEntity
  8
1
370
    13
100
AcDbLine
 10
134.129541
 20
7.257786
 30
0.0
 11
134.496399
 21
8.994669999999999
 31
0.0
  0
LINE
  5
D0
330
1F
100
AcDbEntity
  8
1
370
    13
100
AcDbLine
 10
135.011046
 20
-6.033994999999999
 30
0.0
 11
134.256597
 21
3.220051999999999
 31
0.0
  0
LINE
  5
D1
330
1F
100
AcDbEntity
  8
1
370
    13
100
AcDbLine
 10
121.707139
 20
-6.635488999999999
 30
0.0
 11
121.745675
 21
-7.108169
 31
0.0
  0
LINE
  5
D2
330
1F
100
AcDbEntity
  8
80
370
    18
100
AcDbLine
 10
-0.5
 20
0.0
 30
0.0
 11
0.5
 21
0.0
 31
0.0
  0
LINE
  5
D3
330
1F
100
AcDbEntity
  8
81
370
    18
100
AcDbLine
 10
134.5
 20
15.9875
 30
0.0
 11
135.5
 21
15.9875
 31
0.0
  0
LINE
  5
D4
102
{ACAD_REACTORS
330
34F
102
}
330
1F
100
AcDbEntity
  8
80
370
    18
100
AcDbLine
 10
0.0
 20
-0.5
 30
0.0
 11
0.0
 21
0.5
 31
0.0
  0
LINE
  5
D5
102
{ACAD_REACTORS
330
380
102
}
330
1F
100
AcDbEntity
  8
2
370
    18
100
AcDbLine
 10
134.247285
 20
15.984457
 30
0.0
 11
134.237285
 21
15.984457
 31
0.0
  0
LINE
  5
D6
330
1F
100
AcDbEntity
  8
4
370
    18
100
AcDbLine
 10
43.0
 20
0.0
 30
0.0
 11
137.5
 21
0.0
 31
0.0
  0
LINE
  5
D7
330
1F
100
AcDbEntity
  8
SK4
370
    18
100
AcDbLine
 10
-62.0
 20
0.0
 30
0.0
 11
47.0
 21
0.0
 31
0.0
  0
LINE
  5
D8
330
1F
100
AcDbEntity
  8
1
370
    18
100
AcDbLine
 10
134.257967
 20
-12.694287
 30
0.0
 11
134.259307
 21
-12.636544
 31
0.0
  0
LINE
  5
D9
330
1F
100
AcDbEntity
  8
1
370
    18
100
AcDbLine
 10
128.993692
 20
-1.199504
 30
0.0
 11
128.971023
 21
-1.258094999999999
 31
0.0
  0
LINE
  5
DA
330
1F
100
AcDbEntity
  8
1
370
    18
100
AcDbLine
 10
128.993692
 20
-1.199504
 30
0.0
 11
129.004931
 21
-1.093328999999999
 31
0.0
  0
LINE
  5
DB
330
1F
100
AcDbEntity
  8
1
370
    18
100
AcDbLine
 10
128.363254
 20
-0.791898
 30
0.0
 11
128.287435
 21
-0.867735
 31
0.0
  0
LINE
  5
DC
330
1F
100
AcDbEntity
  8
1
370
    18
100
AcDbLine
 10
128.256019
 20
-0.9222179999999999
 30
0.0
 11
128.287435
 21
-0.867735
 31
0.0
  0
LINE
  5
DD
330
1F
100
AcDbEntity
  8
1
370
    18
100
AcDbLine
 10
127.50828
 20
-0.930643
 30
0.0
 11
127.54811
 21
-0.9793739999999999
 31
0.0
  0
LINE
  5
DE
330
1F
100
AcDbEntity
  8
1
370
    18
100
AcDbLine
 10
127.50828
 20
-0.930643
 30
0.0
 11
127.421168
 21
-0.867961
 31
0.0
  0
LINE
  5
DF
330
1F
100
AcDbEntity
  8
1
370
    18
100
AcDbLine
 10
126.836711
 20
-1.268389999999999
 30
0.0
 11
126.865002
 21
-1.371372
 31
0.0
  0
LINE
  5
E0
330
1F
100
AcDbEntity
  8
1
370
    18
100
AcDbLine
 10
126.896865
 20
-1.425561
 30
0.0
 11
126.865002
 21
-1.371372
 31
0.0
  0
LINE
  5
E1
330
1F
100
AcDbEntity
  8
1
370
    18
100
AcDbLine
 10
126.529965
 20
-2.071829
 30
0.0
 11
126.592465
 21
-2.061968
 31
0.0
  0
LINE
  5
E2
330
1F
100
AcDbEntity
  8
1
370
    18
100
AcDbLine
 10
126.529965
 20
-2.071829
 30
0.0
 11
126.431614
 21
-2.115320999999999
 31
0.0
  0
LINE
  5
E3
330
1F
100
AcDbEntity
  8
1
370
    18
100
AcDbLine
 10
126.488835
 20
-2.817181
 30
0.0
 11
126.592944
 21
-2.844325999999999
 31
0.0
  0
LINE
  5
E4
330
1F
100
AcDbEntity
  8
1
370
    18
100
AcDbLine
 10
126.656224
 20
-2.844031999999999
 30
0.0
 11
126.592944
 21
-2.844325999999999
 31
0.0
  0
LINE
  5
E5
330
1F
100
AcDbEntity
  8
1
370
    18
100
AcDbLine
 10
127.037063
 20
-3.481873999999999
 30
0.0
 11
127.059732
 21
-3.423283
 31
0.0
  0
LINE
  5
E6
330
1F
100
AcDbEntity
  8
1
370
    18
100
AcDbLine
 10
127.037063
 20
-3.481873999999999
 30
0.0
 11
127.025824
 21
-3.588048
 31
0.0
  0
LINE
  5
E7
330
1F
100
AcDbEntity
  8
1
370
    18
100
AcDbLine
 10
127.667502
 20
-3.88948
 30
0.0
 11
127.743321
 21
-3.813642999999999
 31
0.0
  0
LINE
  5
E8
330
1F
100
AcDbEntity
  8
1
370
    18
100
AcDbLine
 10
127.774736
 20
-3.75916
 30
0.0
 11
127.743321
 21
-3.813642999999999
 31
0.0
  0
LINE
  5
E9
330
1F
100
AcDbEntity
  8
1
370
    18
100
AcDbLine
 10
128.522476
 20
-3.750733999999999
 30
0.0
 11
128.482645
 21
-3.702004
 31
0.0
  0
LINE
  5
EA
330
1F
100
AcDbEntity
  8
1
370
    18
100
AcDbLine
 10
128.522476
 20
-3.750733999999999
 30
0.0
 11
128.609588
 21
-3.813416999999999
 31
0.0
  0
LINE
  5
EB
330
1F
100
AcDbEntity
  8
1
370
    18
100
AcDbLine
 10
129.194045
 20
-3.412987999999999
 30
0.0
 11
129.165754
 21
-3.310005
 31
0.0
  0
LINE
  5
EC
330
1F
100
AcDbEntity
  8
1
370
    18
100
AcDbLine
 10
129.1338899999999
 20
-3.255816999999999
 30
0.0
 11
129.165754
 21
-3.310005
 31
0.0
  0
LINE
  5
ED
330
1F
100
AcDbEntity
  8
1
370
    18
100
AcDbLine
 10
129.50079
 20
-2.609549
 30
0.0
 11
129.438291
 21
-2.619409999999999
 31
0.0
  0
LINE
  5
EE
330
1F
100
AcDbEntity
  8
1
370
    18
100
AcDbLine
 10
129.50079
 20
-2.609549
 30
0.0
 11
129.599141
 21
-2.566056999999999
 31
0.0
  0
LINE
  5
EF
330
1F
100
AcDbEntity
  8
1
370
    18
100
AcDbLine
 10
129.541921
 20
-1.864197
 30
0.0
 11
129.437811
 21
-1.837052
 31
0.0
  0
LINE
  5
F0
330
1F
100
AcDbEntity
  8
1
370
    18
100
AcDbLine
 10
129.374532
 20
-1.837345999999999
 30
0.0
 11
129.437811
 21
-1.837052
 31
0.0
  0
LINE
  5
F1
330
1F
100
AcDbEntity
  8
1
370
    18
100
AcDbLine
 10
130.561511
 20
-2.185937
 30
0.0
 11
130.554772
 21
-2.070397
 31
0.0
  0
LINE
  5
F2
330
1F
100
AcDbEntity
  8
1
370
    18
100
AcDbLine
 10
121.401968
 20
-7.36801
 30
0.0
 11
121.836275
 21
-7.562263999999999
 31
0.0
  0
LINE
  5
F3
330
1F
100
AcDbEntity
  8
1
370
    18
100
AcDbLine
 10
122.810397
 20
3.135226999999999
 30
0.0
 11
122.316404
 21
3.769922
 31
0.0
  0
LINE
  5
F4
330
1F
100
AcDbEntity
  8
1
370
    18
100
AcDbLine
 10
120.641616
 20
1.279657999999999
 30
0.0
 11
120.553265
 21
1.208366
 31
0.0
  0
LINE
  5
F5
330
1F
100
AcDbEntity
  8
1
370
    18
100
AcDbLine
 10
121.149529
 20
-4.240232999999999
 30
0.0
 11
121.200323
 21
-4.855536999999999
 31
0.0
  0
LINE
  5
F6
330
1F
100
AcDbEntity
  8
1
370
    18
100
AcDbLine
 10
132.45
 20
3.102041999999999
 30
0.0
 11
128.976406
 21
2.575469
 31
0.0
  0
LINE
  5
F7
330
1F
100
AcDbEntity
  8
1
370
    18
100
AcDbLine
 10
121.638584
 20
-6.640613
 30
0.0
 11
121.712982
 21
-6.585727
 31
0.0
  0
LINE
  5
F8
330
1F
100
AcDbEntity
  8
1
370
    18
100
AcDbLine
 10
121.67163
 20
-6.938991
 30
0.0
 11
121.641873
 21
-6.992950999999999
 31
0.0
  0
LINE
  5
F9
330
1F
100
AcDbEntity
  8
1
370
    18
100
AcDbLine
 10
120.613327
 20
2.525042
 30
0.0
 11
120.665899
 21
2.183812
 31
0.0
  0
LINE
  5
FA
330
1F
100
AcDbEntity
  8
1
370
    18
100
AcDbLine
 10
120.535308
 20
3.275930999999999
 30
0.0
 11
120.462602
 21
3.594587
 31
0.0
  0
LINE
  5
FB
330
1F
100
AcDbEntity
  8
1
370
    18
100
AcDbLine
 10
121.638584
 20
13.530518
 30
0.0
 11
121.712982
 21
13.446229
 31
0.0
  0
LINE
  5
FC
330
1F
100
AcDbEntity
  8
1
370
    18
100
AcDbLine
 10
121.67163
 20
12.266504
 30
0.0
 11
121.641873
 21
12.178582
 31
0.0
  0
LINE
  5
FD
330
1F
100
AcDbEntity
  8
1
370
    18
100
AcDbLine
 10
121.67163
 20
12.266504
 30
0.0
 11
121.667081
 21
12.184566
 31
0.0
  0
LINE
  5
FE
330
1F
100
AcDbEntity
  8
1
370
    18
100
AcDbLine
 10
121.752709
 20
13.336848
 30
0.0
 11
121.76162
 21
13.272002
 31
0.0
  0
LINE
  5
FF
330
1F
100
AcDbEntity
  8
1
370
    18
100
AcDbLine
 10
123.200059
 20
12.451579
 30
0.0
 11
123.415959
 21
12.366971
 31
0.0
  0
LINE
  5
100
330
1F
100
AcDbEntity
  8
1
370
    18
100
AcDbLine
 10
123.526486
 20
12.335218
 30
0.0
 11
123.461342
 21
12.354154
 31
0.0
  0
LINE
  5
101
330
1F
100
AcDbEntity
  8
1
370
    18
100
AcDbLine
 10
121.747277
 20
13.571936
 30
0.0
 11
121.744927
 21
13.488843
 31
0.0
  0
LINE
  5
102
330
1F
100
AcDbEntity
  8
1
370
    18
100
AcDbLine
 10
135.004058
 20
12.828831
 30
0.0
 11
134.993882
 21
12.708689
 31
0.0
  0
LINE
  5
103
330
1F
100
AcDbEntity
  8
1
370
    18
100
AcDbLine
 10
135.013806
 20
13.170858
 30
0.0
 11
135.013757
 21
13.06359
 31
0.0
  0
LINE
  5
104
330
1F
100
AcDbEntity
  8
1
370
    18
100
AcDbLine
 10
125.283976
 20
-2.356304
 30
0.0
 11
125.292819
 21
-2.560506
 31
0.0
  0
LINE
  5
105
330
1F
100
AcDbEntity
  8
1
370
    18
100
AcDbLine
 10
130.74678
 20
-2.325073
 30
0.0
 11
130.737937
 21
-2.120872
 31
0.0
  0
LINE
  5
106
330
1F
100
AcDbEntity
  8
1
370
    18
100
AcDbLine
 10
134.257967
 20
3.082078
 30
0.0
 11
134.259307
 21
3.144881999999999
 31
0.0
  0
LINE
  5
107
330
1F
100
AcDbEntity
  8
1
370
    18
100
AcDbLine
 10
135.013757
 20
-6.109163999999999
 30
0.0
 11
135.013806
 21
-6.176611
 31
0.0
  0
LINE
  5
108
330
1F
100
AcDbEntity
  8
1
370
    18
100
AcDbLine
 10
134.239845
 20
3.346004
 30
0.0
 11
134.249608
 21
3.279341999999999
 31
0.0
  0
LINE
  5
109
330
1F
100
AcDbEntity
  8
1
370
    18
100
AcDbLine
 10
134.053787
 20
-11.763179
 30
0.0
 11
133.852482
 21
-11.527017
 31
0.0
  0
LINE
  5
10A
330
1F
100
AcDbEntity
  8
1
370
    18
100
AcDbLine
 10
134.069712
 20
-11.831326
 30
0.0
 11
134.053787
 21
-11.763179
 31
0.0
  0
LINE
  5
10B
330
1F
100
AcDbEntity
  8
1
370
    18
100
AcDbLine
 10
134.036793
 20
-12.500297
 30
0.0
 11
134.054901
 21
-12.698603
 31
0.0
  0
LINE
  5
10C
330
1F
100
AcDbEntity
  8
1
370
    18
100
AcDbLine
 10
134.249608
 20
-12.536244
 30
0.0
 11
134.259307
 21
-12.636544
 31
0.0
  0
LINE
  5
10D
330
1F
100
AcDbEntity
  8
1
370
    18
100
AcDbLine
 10
134.219415
 20
-13.785281
 30
0.0
 11
134.239353
 21
-13.405801
 31
0.0
  0
LINE
  5
10E
330
1F
100
AcDbEntity
  8
1
370
    18
100
AcDbLine
 10
134.211011
 20
-13.90962
 30
0.0
 11
134.230741
 21
-13.775524
 31
0.0
  0
LINE
  5
10F
330
1F
100
AcDbEntity
  8
1
370
    18
100
AcDbLine
 10
134.037324
 20
-13.404848
 30
0.0
 11
134.017766
 21
-13.777093
 31
0.0
  0
LINE
  5
110
330
1F
100
AcDbEntity
  8
1
370
    18
100
AcDbLine
 10
134.199323
 20
-13.9941
 30
0.0
 11
134.211011
 21
-13.90962
 31
0.0
  0
LINE
  5
111
330
1F
100
AcDbEntity
  8
1
370
    18
100
AcDbLine
 10
133.783552
 20
-14.320496
 30
0.0
 11
134.006932
 21
-13.937423
 31
0.0
  0
LINE
  5
112
330
1F
100
AcDbEntity
  8
1
370
    18
100
AcDbLine
 10
134.006932
 20
-13.937433
 30
0.0
 11
134.199322
 21
-13.994099
 31
0.0
  0
LINE
  5
113
330
1F
100
AcDbEntity
  8
1
370
    18
100
AcDbLine
 10
133.849995
 20
-13.868036
 30
0.0
 11
134.006925
 21
-13.937432
 31
0.0
  0
LINE
  5
114
330
1F
100
AcDbEntity
  8
1
370
    18
100
AcDbLine
 10
135.017821
 20
-7.651335999999999
 30
0.0
 11
135.01769
 21
-7.718750999999999
 31
0.0
  0
LINE
  5
115
330
1F
100
AcDbEntity
  8
1
370
    18
100
AcDbLine
 10
135.01769
 20
-7.718750999999999
 30
0.0
 11
134.896204
 21
-8.763605999999999
 31
0.0
  0
LINE
  5
116
330
1F
100
AcDbEntity
  8
1
370
    18
100
AcDbLine
 10
126.900315
 20
-1.320204
 30
0.0
 11
126.890077
 21
-1.232642999999999
 31
0.0
  0
LINE
  5
117
330
1F
100
AcDbEntity
  8
1
370
    18
100
AcDbLine
 10
129.592602
 20
-2.380224
 30
0.0
 11
129.67482
 21
-2.161834999999999
 31
0.0
  0
LINE
  5
118
330
1F
100
AcDbEntity
  8
1
370
    18
100
AcDbLine
 10
126.346091
 20
-2.353596
 30
0.0
 11
126.482296
 21
-2.631347
 31
0.0
  0
LINE
  5
119
330
1F
100
AcDbEntity
  8
1
370
    18
100
AcDbLine
 10
129.494101
 20
-2.419452
 30
0.0
 11
129.592602
 21
-2.380224
 31
0.0
  0
LINE
  5
11A
330
1F
100
AcDbEntity
  8
1
370
    18
100
AcDbLine
 10
129.494101
 20
-2.419452
 30
0.0
 11
129.431502
 21
-2.426491999999999
 31
0.0
  0
LINE
  5
11B
330
1F
100
AcDbEntity
  8
1
370
    18
100
AcDbLine
 10
126.482296
 20
-2.631347
 30
0.0
 11
126.586255
 21
-2.654228999999999
 31
0.0
  0
LINE
  5
11C
330
1F
100
AcDbEntity
  8
1
370
    18
100
AcDbLine
 10
126.649435
 20
-2.651113999999999
 30
0.0
 11
126.586255
 21
-2.654228999999999
 31
0.0
  0
LINE
  5
11D
330
1F
100
AcDbEntity
  8
1
370
    18
100
AcDbLine
 10
128.515787
 20
-3.560637
 30
0.0
 11
128.475857
 21
-3.509085999999999
 31
0.0
  0
LINE
  5
11E
330
1F
100
AcDbEntity
  8
1
370
    18
100
AcDbLine
 10
127.767948
 20
-3.566241999999999
 30
0.0
 11
127.736632
 21
-3.623544999999999
 31
0.0
  0
LINE
  5
11F
330
1F
100
AcDbEntity
  8
1
370
    18
100
AcDbLine
 10
128.515787
 20
-3.560637
 30
0.0
 11
128.603049
 21
-3.627583
 31
0.0
  0
LINE
  5
120
330
1F
100
AcDbEntity
  8
1
370
    18
100
AcDbLine
 10
127.660963
 20
-3.703645999999999
 30
0.0
 11
127.736632
 21
-3.623544999999999
 31
0.0
  0
LINE
  5
121
330
1F
100
AcDbEntity
  8
1
370
    18
100
AcDbLine
 10
88.50660299999999
 20
-3.107331999999999
 30
0.0
 11
88.45124799999998
 21
-1.181353
 31
0.0
  0
LINE
  5
122
330
1F
100
AcDbEntity
  8
1
370
    18
100
AcDbLine
 10
88.45124799999998
 20
-1.181353
 30
0.0
 11
88.51938100000001
 21
-1.179767
 31
0.0
  0
LINE
  5
123
330
1F
100
AcDbEntity
  8
1
370
    18
100
AcDbLine
 10
123.241094
 20
-8.435319999999999
 30
0.0
 11
122.498228
 21
-8.147831
 31
0.0
  0
LINE
  5
124
330
1F
100
AcDbEntity
  8
1
370
    18
100
AcDbLine
 10
97.39421400000001
 20
-0.956508
 30
0.0
 11
90.978878
 21
0.4008580000000001
 31
0.0
  0
LINE
  5
125
330
1F
100
AcDbEntity
  8
1
370
    18
100
AcDbLine
 10
119.275396
 20
-5.820237999999999
 30
0.0
 11
118.399751
 21
-5.63675
 31
0.0
  0
LINE
  5
126
330
1F
100
AcDbEntity
  8
1
370
    18
100
AcDbLine
 10
121.344385
 20
-6.204168
 30
0.0
 11
119.275396
 21
-5.820237999999999
 31
0.0
  0
LINE
  5
127
330
1F
100
AcDbEntity
  8
1
370
    18
100
AcDbLine
 10
121.57969
 20
-6.750869999999999
 30
0.0
 11
121.344385
 21
-6.204168
 31
0.0
  0
LINE
  5
128
330
1F
100
AcDbEntity
  8
1
370
    18
100
AcDbLine
 10
90.978878
 20
0.4008580000000001
 30
0.0
 11
90.994927
 21
0.4795670000000001
 31
0.0
  0
LINE
  5
129
330
1F
100
AcDbEntity
  8
1
370
    18
100
AcDbLine
 10
128.813214
 20
2.525795
 30
0.0
 11
123.266716
 21
3.708911
 31
0.0
  0
LINE
  5
12A
330
1F
100
AcDbEntity
  8
1
370
    18
100
AcDbLine
 10
128.976406
 20
2.575469
 30
0.0
 11
128.813214
 21
2.525795
 31
0.0
  0
LINE
  5
12B
330
1F
100
AcDbEntity
  8
1
370
    18
100
AcDbLine
 10
123.266716
 20
3.708911
 30
0.0
 11
122.423089
 21
3.808076999999999
 31
0.0
  0
LINE
  5
12C
330
1F
100
AcDbEntity
  8
1
370
    18
100
AcDbLine
 10
122.368104
 20
3.809708
 30
0.0
 11
122.316397
 21
3.769916
 31
0.0
  0
LINE
  5
12D
330
1F
100
AcDbEntity
  8
1
370
    18
100
AcDbLine
 10
122.423089
 20
3.808076999999999
 30
0.0
 11
122.368104
 21
3.809708
 31
0.0
  0
LINE
  5
12E
330
1F
100
AcDbEntity
  8
1
370
    18
100
AcDbLine
 10
120.669314
 20
2.161931
 30
0.0
 11
120.990708
 21
2.376379999999999
 31
0.0
  0
LINE
  5
12F
330
1F
100
AcDbEntity
  8
1
370
    18
100
AcDbLine
 10
120.516189
 20
1.603703
 30
0.0
 11
120.669314
 21
2.161931
 31
0.0
  0
LINE
  5
130
330
1F
100
AcDbEntity
  8
1
370
    18
100
AcDbLine
 10
121.203985
 20
0.4608640000000001
 30
0.0
 11
120.749342
 21
1.011120999999999
 31
0.0
  0
LINE
  5
131
330
1F
100
AcDbEntity
  8
1
370
    18
100
AcDbLine
 10
120.736704
 20
0.9486899999999998
 30
0.0
 11
120.733343
 21
0.8978569999999999
 31
0.0
  0
LINE
  5
132
330
1F
100
AcDbEntity
  8
1
370
    18
100
AcDbLine
 10
120.749342
 20
1.011233
 30
0.0
 11
120.736704
 21
0.9486899999999998
 31
0.0
  0
LINE
  5
133
330
1F
100
AcDbEntity
  8
1
370
    18
100
AcDbLine
 10
122.297021
 20
3.902873999999999
 30
0.0
 11
122.368104
 21
3.809708
 31
0.0
  0
LINE
  5
134
330
1F
100
AcDbEntity
  8
1
370
    18
100
AcDbLine
 10
90.417096
 20
0.5403090000000001
 30
0.0
 11
90.994927
 21
0.4795670000000001
 31
0.0
  0
LINE
  5
135
330
1F
100
AcDbEntity
  8
1
370
    18
100
AcDbLine
 10
132.45
 20
3.102041999999999
 30
0.0
 11
132.756665
 21
3.124833
 31
0.0
  0
LINE
  5
136
330
1F
100
AcDbEntity
  8
1
370
    18
100
AcDbLine
 10
132.939439
 20
4.069244999999999
 30
0.0
 11
132.756665
 21
3.124833
 31
0.0
  0
LINE
  5
137
330
1F
100
AcDbEntity
  8
1
370
    18
100
AcDbLine
 10
120.113212
 20
11.246299
 30
0.0
 11
119.277701
 21
11.210513
 31
0.0
  0
LINE
  5
138
330
1F
100
AcDbEntity
  8
1
370
    18
100
AcDbLine
 10
122.422295
 20
11.525482
 30
0.0
 11
120.113212
 21
11.246299
 31
0.0
  0
LINE
  5
139
330
1F
100
AcDbEntity
  8
1
370
    18
100
AcDbLine
 10
122.297046
 20
3.902894999999999
 30
0.0
 11
122.422299
 21
3.899117999999999
 31
0.0
  0
LINE
  5
13A
330
1F
100
AcDbEntity
  8
1
370
    18
100
AcDbLine
 10
120.755997
 20
0.5945420000000001
 30
0.0
 11
120.733346
 21
0.8978309999999998
 31
0.0
  0
LINE
  5
13B
330
1F
100
AcDbEntity
  8
1
370
    18
100
AcDbLine
 10
121.358512
 20
-6.162462
 30
0.0
 11
121.200323
 21
-4.855536999999999
 31
0.0
  0
LINE
  5
13C
330
1F
100
AcDbEntity
  8
1
370
    18
100
AcDbLine
 10
119.277701
 20
-5.775058999999999
 30
0.0
 11
121.358512
 21
-6.162462
 31
0.0
  0
LINE
  5
13D
330
1F
100
AcDbEntity
  8
1
370
    18
100
AcDbLine
 10
132.756665
 20
3.124833
 30
0.0
 11
132.687025
 21
2.330738
 31
0.0
  0
LINE
  5
13E
330
1F
100
AcDbEntity
  8
1
370
    18
100
AcDbLine
 10
132.45
 20
11.590654
 30
0.0
 11
123.284201
 21
11.610436
 31
0.0
  0
LINE
  5
13F
330
1F
100
AcDbEntity
  8
1
370
    18
100
AcDbLine
 10
121.476223
 20
-6.183555999999999
 30
0.0
 11
121.722472
 21
-5.898876
 31
0.0
  0
LINE
  5
140
330
1F
100
AcDbEntity
  8
1
370
    18
100
AcDbLine
 10
121.421256
 20
-6.186563999999999
 30
0.0
 11
121.47623
 21
-6.183473
 31
0.0
  0
LINE
  5
141
330
1F
100
AcDbEntity
  8
1
370
    18
100
AcDbLine
 10
121.36625
 20
-6.18158
 30
0.0
 11
121.421256
 21
-6.186563999999999
 31
0.0
  0
LINE
  5
142
330
1F
100
AcDbEntity
  8
1
370
    18
100
AcDbLine
 10
108.981041
 20
14.002137
 30
0.0
 11
118.415799
 21
14.473319
 31
0.0
  0
LINE
  5
143
330
1F
100
AcDbEntity
  8
1
370
    18
100
AcDbLine
 10
90.41154699999999
 20
14.518788
 30
0.0
 11
89.61291199999999
 21
14.597499
 31
0.0
  0
LINE
  5
144
330
1F
100
AcDbEntity
  8
1
370
    18
100
AcDbLine
 10
118.415799
 20
-13.694183
 30
0.0
 11
101.998337
 21
-12.91441
 31
0.0
  0
LINE
  5
145
330
1F
100
AcDbEntity
  8
1
370
    18
100
AcDbLine
 10
121.638587
 20
-6.640610999999999
 30
0.0
 11
121.579774
 21
-6.750846000000001
 31
0.0
  0
LINE
  5
146
330
1F
100
AcDbEntity
  8
1
370
    18
100
AcDbLine
 10
120.916822
 20
0.777808
 30
0.0
 11
121.089365
 21
0.8591229999999999
 31
0.0
  0
LINE
  5
147
330
1F
100
AcDbEntity
  8
1
370
    18
100
AcDbLine
 10
133.75894
 20
5.655679
 30
0.0
 11
133.516321
 21
5.674813999999999
 31
0.0
  0
LINE
  5
148
330
1F
100
AcDbEntity
  8
1
370
    18
100
AcDbLine
 10
120.83743
 20
0.90311
 30
0.0
 11
120.916822
 21
0.777808
 31
0.0
  0
LINE
  5
149
330
1F
100
AcDbEntity
  8
1
370
    18
100
AcDbLine
 10
120.83743
 20
0.90311
 30
0.0
 11
120.641616
 21
1.279657999999999
 31
0.0
  0
LINE
  5
14A
330
1F
100
AcDbEntity
  8
1
370
    18
100
AcDbLine
 10
133.758942
 20
5.655692
 30
0.0
 11
133.849996
 21
5.763705999999999
 31
0.0
  0
LINE
  5
14B
330
1F
100
AcDbEntity
  8
1
370
    18
100
AcDbLine
 10
133.85
 20
6.440796999999999
 30
0.0
 11
133.85
 21
6.570827999999999
 31
0.0
  0
LINE
  5
14C
330
1F
100
AcDbEntity
  8
1
370
    18
100
AcDbLine
 10
133.85
 20
6.272301999999999
 30
0.0
 11
133.85
 21
6.440796999999999
 31
0.0
  0
LINE
  5
14D
330
1F
100
AcDbEntity
  8
1
370
    18
100
AcDbLine
 10
133.85
 20
6.081395999999999
 30
0.0
 11
133.85
 21
6.272301999999999
 31
0.0
  0
LINE
  5
14E
330
1F
100
AcDbEntity
  8
1
370
    18
100
AcDbLine
 10
133.85
 20
5.763710999999999
 30
0.0
 11
133.85
 21
6.081395999999999
 31
0.0
  0
LINE
  5
14F
330
1F
100
AcDbEntity
  8
1
370
    18
100
AcDbLine
 10
123.284437
 20
11.622933
 30
0.0
 11
132.450237
 21
11.603254
 31
0.0
  0
LINE
  5
150
330
1F
100
AcDbEntity
  8
1
370
    18
100
AcDbLine
 10
133.85
 20
5.763701
 30
0.0
 11
133.85
 21
4.878601
 31
0.0
  0
LINE
  5
151
330
1F
100
AcDbEntity
  8
1
370
    18
100
AcDbLine
 10
125.218826
 20
-7.396783
 30
0.0
 11
125.335572
 21
-7.275677
 31
0.0
  0
LINE
  5
152
330
1F
100
AcDbEntity
  8
1
370
    18
100
AcDbLine
 10
123.612135
 20
-8.155047999999998
 30
0.0
 11
123.241062
 21
-8.435306
 31
0.0
  0
LINE
  5
153
330
1F
100
AcDbEntity
  8
1
370
    18
100
AcDbLine
 10
102.007317
 20
-12.827838
 30
0.0
 11
118.424779
 21
-13.603352
 31
0.0
  0
LINE
  5
154
330
1F
100
AcDbEntity
  8
1
370
    18
100
AcDbLine
 10
119.300424
 20
-13.712999
 30
0.0
 11
120.135935
 21
-13.889632
 31
0.0
  0
LINE
  5
155
330
1F
100
AcDbEntity
  8
1
370
    18
100
AcDbLine
 10
118.424779
 20
-13.603352
 30
0.0
 11
119.300424
 21
-13.712999
 31
0.0
  0
LINE
  5
156
330
1F
100
AcDbEntity
  8
1
370
    18
100
AcDbLine
 10
125.935575
 20
-8.791913
 30
0.0
 11
125.556074
 21
-9.345367999999998
 31
0.0
  0
LINE
  5
157
330
1F
100
AcDbEntity
  8
1
370
    18
100
AcDbLine
 10
126.89061
 20
-11.312607
 30
0.0
 11
126.628373
 21
-11.671767
 31
0.0
  0
LINE
  5
158
330
1F
100
AcDbEntity
  8
1
370
    18
100
AcDbLine
 10
126.628373
 20
-11.671767
 30
0.0
 11
126.190271
 21
-11.259369
 31
0.0
  0
LINE
  5
159
330
1F
100
AcDbEntity
  8
1
370
    18
100
AcDbLine
 10
124.717931
 20
-12.803399
 30
0.0
 11
126.190271
 21
-11.259369
 31
0.0
  0
LINE
  5
15A
330
1F
100
AcDbEntity
  8
1
370
    18
100
AcDbLine
 10
122.454109
 20
-14.284775
 30
0.0
 11
122.812991
 21
-14.388156
 31
0.0
  0
LINE
  5
15B
330
1F
100
AcDbEntity
  8
1
370
    18
100
AcDbLine
 10
123.284437
 20
-14.364799
 30
0.0
 11
132.450237
 21
-14.374786
 31
0.0
  0
LINE
  5
15C
330
1F
100
AcDbEntity
  8
1
370
    18
100
AcDbLine
 10
133.770509
 20
-12.905519
 30
0.0
 11
133.85
 21
-12.896758
 31
0.0
  0
LINE
  5
15D
330
1F
100
AcDbEntity
  8
1
370
    18
100
AcDbLine
 10
132.45
 20
-14.441291
 30
0.0
 11
123.284201
 21
-14.431252
 31
0.0
  0
LINE
  5
15E
330
1F
100
AcDbEntity
  8
1
370
    18
100
AcDbLine
 10
120.113212
 20
-13.979758
 30
0.0
 11
119.277701
 21
-13.802917
 31
0.0
  0
LINE
  5
15F
330
1F
100
AcDbEntity
  8
1
370
    18
100
AcDbLine
 10
119.275396
 20
14.543788
 30
0.0
 11
118.399751
 21
14.447544
 31
0.0
  0
LINE
  5
160
330
1F
100
AcDbEntity
  8
1
370
    18
100
AcDbLine
 10
121.344385
 20
14.9323
 30
0.0
 11
119.275396
 21
14.543788
 31
0.0
  0
LINE
  5
161
330
1F
100
AcDbEntity
  8
1
370
    18
100
AcDbLine
 10
121.57969
 20
13.343129
 30
0.0
 11
121.344385
 21
14.9323
 31
0.0
  0
LINE
  5
162
330
1F
100
AcDbEntity
  8
1
370
    18
100
AcDbLine
 10
121.638587
 20
13.530515
 30
0.0
 11
121.579774
 21
13.343108
 31
0.0
  0
LINE
  5
163
330
1F
100
AcDbEntity
  8
1
370
    18
100
AcDbLine
 10
121.421256
 20
14.843004
 30
0.0
 11
121.47623
 21
14.759661
 31
0.0
  0
LINE
  5
164
330
1F
100
AcDbEntity
  8
1
370
    18
100
AcDbLine
 10
121.36625
 20
14.951071
 30
0.0
 11
121.421256
 21
14.843004
 31
0.0
  0
LINE
  5
165
330
1F
100
AcDbEntity
  8
1
370
    18
100
AcDbLine
 10
121.476223
 20
14.759711
 30
0.0
 11
121.722472
 21
14.409652
 31
0.0
  0
LINE
  5
166
330
1F
100
AcDbEntity
  8
1
370
    18
100
AcDbLine
 10
119.277701
 20
14.568491
 30
0.0
 11
121.358512
 21
14.959365
 31
0.0
  0
LINE
  5
167
330
1F
100
AcDbEntity
  8
1
370
    18
100
AcDbLine
 10
133.85
 20
5.848315
 30
0.0
 11
133.85
 21
5.955352999999999
 31
0.0
  0
LINE
  5
168
330
1F
100
AcDbEntity
  8
1
370
    18
100
AcDbLine
 10
133.85
 20
5.756428999999999
 30
0.0
 11
133.85
 21
5.848315
 31
0.0
  0
LINE
  5
169
330
1F
100
AcDbEntity
  8
1
370
    18
100
AcDbLine
 10
133.85
 20
5.680426999999999
 30
0.0
 11
133.85
 21
5.756428999999999
 31
0.0
  0
LINE
  5
16A
330
1F
100
AcDbEntity
  8
1
370
    18
100
AcDbLine
 10
133.85
 20
5.595157
 30
0.0
 11
133.85
 21
5.680426999999999
 31
0.0
  0
LINE
  5
16B
330
1F
100
AcDbEntity
  8
1
370
    18
100
AcDbLine
 10
121.917189
 20
12.178073
 30
0.0
 11
121.931706
 21
12.069888
 31
0.0
  0
LINE
  5
16C
330
1F
100
AcDbEntity
  8
1
370
    18
100
AcDbLine
 10
122.144544
 20
12.11907
 30
0.0
 11
122.112627
 21
12.233999
 31
0.0
  0
LINE
  5
16D
330
1F
100
AcDbEntity
  8
1
370
    18
100
AcDbLine
 10
122.636739
 20
11.631811
 30
0.0
 11
122.741716
 21
11.589261
 31
0.0
  0
LINE
  5
16E
330
1F
100
AcDbEntity
  8
1
370
    18
100
AcDbLine
 10
133.8493
 20
10.104557
 30
0.0
 11
134.064905
 21
10.089674
 31
0.0
  0
LINE
  5
16F
330
1F
100
AcDbEntity
  8
1
370
    18
100
AcDbLine
 10
133.850708
 20
9.873857
 30
0.0
 11
134.013715
 21
9.858926
 31
0.0
  0
LINE
  5
170
330
1F
100
AcDbEntity
  8
1
370
    18
100
AcDbLine
 10
133.849569
 20
10.21561
 30
0.0
 11
134.057285
 21
10.201274
 31
0.0
  0
LINE
  5
171
330
1F
100
AcDbEntity
  8
1
370
    18
100
AcDbLine
 10
134.105843
 20
10.087609
 30
0.0
 11
134.057299
 21
10.201262
 31
0.0
  0
LINE
  5
172
330
1F
100
AcDbEntity
  8
1
370
    18
100
AcDbLine
 10
134.057285
 20
10.201274
 30
0.0
 11
133.85006
 21
10.296106
 31
0.0
  0
LINE
  5
173
330
1F
100
AcDbEntity
  8
1
370
    18
100
AcDbLine
 10
123.942796
 20
12.102357
 30
0.0
 11
124.402951
 21
11.766958
 31
0.0
  0
LINE
  5
174
330
1F
100
AcDbEntity
  8
1
370
    18
100
AcDbLine
 10
123.154141
 20
12.475964
 30
0.0
 11
123.200059
 21
12.451579
 31
0.0
  0
LINE
  5
175
330
1F
100
AcDbEntity
  8
1
370
    18
100
AcDbLine
 10
123.777119
 20
12.259145
 30
0.0
 11
123.9412
 21
12.104681
 31
0.0
  0
LINE
  5
176
330
1F
100
AcDbEntity
  8
1
370
    18
100
AcDbLine
 10
124.435274
 20
11.809224
 30
0.0
 11
123.991331
 21
12.098512
 31
0.0
  0
LINE
  5
177
330
1F
100
AcDbEntity
  8
1
370
    18
100
AcDbLine
 10
123.824052
 20
12.244659
 30
0.0
 11
123.988855
 21
12.101651
 31
0.0
  0
LINE
  5
178
330
1F
100
AcDbEntity
  8
1
370
    18
100
AcDbLine
 10
121.964733
 20
13.276192
 30
0.0
 11
121.950404
 21
13.576126
 31
0.0
  0
LINE
  5
179
330
1F
100
AcDbEntity
  8
1
370
    18
100
AcDbLine
 10
121.752709
 20
13.336848
 30
0.0
 11
121.744927
 21
13.488843
 31
0.0
  0
LINE
  5
17A
330
1F
100
AcDbEntity
  8
1
370
    18
100
AcDbLine
 10
124.526436
 20
12.040847
 30
0.0
 11
125.590114
 21
11.758528
 31
0.0
  0
LINE
  5
17B
330
1F
100
AcDbEntity
  8
1
370
    18
100
AcDbLine
 10
121.802795
 20
15.044072
 30
0.0
 11
121.777998
 21
14.58031
 31
0.0
  0
LINE
  5
17C
330
1F
100
AcDbEntity
  8
1
370
    18
100
AcDbLine
 10
134.529456
 20
10.177375
 30
0.0
 11
134.105878
 21
10.087619
 31
0.0
  0
LINE
  5
17D
330
1F
100
AcDbEntity
  8
1
370
    18
100
AcDbLine
 10
134.822383
 20
10.560984
 30
0.0
 11
134.832578
 21
10.643508
 31
0.0
  0
LINE
  5
17E
330
1F
100
AcDbEntity
  8
1
370
    18
100
AcDbLine
 10
134.582966
 20
10.053841
 30
0.0
 11
134.799684
 21
10.43157
 31
0.0
  0
LINE
  5
17F
330
1F
100
AcDbEntity
  8
1
370
    18
100
AcDbLine
 10
134.49241
 20
10.338516
 30
0.0
 11
134.632261
 21
10.634643
 31
0.0
  0
LINE
  5
180
330
1F
100
AcDbEntity
  8
1
370
    18
100
AcDbLine
 10
134.632265
 20
10.634654
 30
0.0
 11
134.822382
 21
10.560985
 31
0.0
  0
LINE
  5
181
330
1F
100
AcDbEntity
  8
1
370
    18
100
AcDbLine
 10
133.887178
 20
10.742662
 30
0.0
 11
134.632257
 21
10.634654
 31
0.0
  0
LINE
  5
182
330
1F
100
AcDbEntity
  8
1
370
    18
100
AcDbLine
 10
133.911585
 20
15.813181
 30
0.0
 11
128.404934
 21
15.778899
 31
0.0
  0
LINE
  5
183
330
1F
100
AcDbEntity
  8
1
370
    18
100
AcDbLine
 10
128.404934
 20
15.778899
 30
0.0
 11
122.615905
 21
15.757551
 31
0.0
  0
LINE
  5
184
330
1F
100
AcDbEntity
  8
1
370
    18
100
AcDbLine
 10
122.578835
 20
15.925606
 30
0.0
 11
122.615892
 21
15.757567
 31
0.0
  0
LINE
  5
185
330
1F
100
AcDbEntity
  8
1
370
    18
100
AcDbLine
 10
135.017821
 20
15.020332
 30
0.0
 11
135.01769
 21
15.196628
 31
0.0
  0
LINE
  5
186
330
1F
100
AcDbEntity
  8
1
370
    18
100
AcDbLine
 10
134.796529
 20
15.108039
 30
0.0
 11
134.816957
 21
14.938717
 31
0.0
  0
LINE
  5
187
330
1F
100
AcDbEntity
  8
1
370
    18
100
AcDbLine
 10
134.33357
 20
15.733716
 30
0.0
 11
134.0799669999999
 21
15.812293
 31
0.0
  0
LINE
  5
188
330
1F
100
AcDbEntity
  8
1
370
    18
100
AcDbLine
 10
133.985614
 20
15.81705
 30
0.0
 11
133.911585
 21
15.813183
 31
0.0
  0
LINE
  5
189
330
1F
100
AcDbEntity
  8
1
370
    18
100
AcDbLine
 10
134.0799669999999
 20
15.812293
 30
0.0
 11
133.985614
 21
15.81705
 31
0.0
  0
LINE
  5
18A
330
1F
100
AcDbEntity
  8
1
370
    18
100
AcDbLine
 10
134.008605
 20
15.983314
 30
0.0
 11
134.247285
 21
15.983811
 31
0.0
  0
LINE
  5
18B
330
1F
100
AcDbEntity
  8
1
370
    18
100
AcDbLine
 10
134.741532
 20
15.801188
 30
0.0
 11
134.247285
 21
15.983811
 31
0.0
  0
LINE
  5
18C
330
1F
100
AcDbEntity
  8
1
370
    18
100
AcDbLine
 10
134.080069
 20
15.813892
 30
0.0
 11
133.911585
 21
15.813181
 31
0.0
  0
LINE
  5
18D
330
1F
100
AcDbEntity
  8
1
370
    18
100
AcDbLine
 10
122.615905
 20
15.757551
 30
0.0
 11
123.38217
 21
15.065394
 31
0.0
  0
LINE
  5
18E
330
1F
100
AcDbEntity
  8
1
370
    18
100
AcDbLine
 10
134.675258
 20
11.296873
 30
0.0
 11
134.640449
 21
10.79232
 31
0.0
  0
LINE
  5
18F
330
1F
100
AcDbEntity
  8
1
370
    18
100
AcDbLine
 10
134.838928
 20
10.765773
 30
0.0
 11
134.874413
 21
11.280133
 31
0.0
  0
LINE
  5
190
330
1F
100
AcDbEntity
  8
1
370
    18
100
AcDbLine
 10
134.812893
 20
13.177083
 30
0.0
 11
134.792956
 21
12.714914
 31
0.0
  0
LINE
  5
191
330
1F
100
AcDbEntity
  8
1
370
    18
100
AcDbLine
 10
135.013757
 20
13.06359
 30
0.0
 11
135.004058
 21
12.828831
 31
0.0
  0
LINE
  5
192
330
1F
100
AcDbEntity
  8
1
370
    18
100
AcDbLine
 10
132.833804
 20
14.346059
 30
0.0
 11
132.380504
 21
14.713913
 31
0.0
  0
LINE
  5
193
330
1F
100
AcDbEntity
  8
1
370
    18
100
AcDbLine
 10
121.979998
 20
14.577041
 30
0.0
 11
122.004323
 21
15.031961
 31
0.0
  0
LINE
  5
194
330
1F
100
AcDbEntity
  8
1
370
    18
100
AcDbLine
 10
132.914435
 20
14.023313
 30
0.0
 11
132.779634
 21
14.308363
 31
0.0
  0
LINE
  5
195
330
1F
100
AcDbEntity
  8
1
370
    18
100
AcDbLine
 10
132.214953
 20
13.956451
 30
0.0
 11
132.230582
 21
14.15488
 31
0.0
  0
LINE
  5
196
330
1F
100
AcDbEntity
  8
1
370
    18
100
AcDbLine
 10
132.334783
 20
14.608216
 30
0.0
 11
132.777225
 21
14.311819
 31
0.0
  0
LINE
  5
197
330
1F
100
AcDbEntity
  8
1
370
    18
100
AcDbLine
 10
122.725656
 20
14.930411
 30
0.0
 11
122.016832
 21
15.210064
 31
0.0
  0
LINE
  5
198
330
1F
100
AcDbEntity
  8
1
370
    18
100
AcDbLine
 10
122.016824
 20
15.210065
 30
0.0
 11
121.82506
 21
15.275936
 31
0.0
  0
LINE
  5
199
330
1F
100
AcDbEntity
  8
1
370
    18
100
AcDbLine
 10
121.825059
 20
15.275937
 30
0.0
 11
121.812493
 21
15.182186
 31
0.0
  0
LINE
  5
19A
330
1F
100
AcDbEntity
  8
1
370
    18
100
AcDbLine
 10
122.140479
 20
15.766042
 30
0.0
 11
122.5788
 21
15.925598
 31
0.0
  0
LINE
  5
19B
330
1F
100
AcDbEntity
  8
1
370
    18
100
AcDbLine
 10
121.800265
 20
15.176825
 30
0.0
 11
121.79307
 21
15.112132
 31
0.0
  0
LINE
  5
19C
330
1F
100
AcDbEntity
  8
1
370
    18
100
AcDbLine
 10
121.81785
 20
15.257697
 30
0.0
 11
121.800265
 21
15.176825
 31
0.0
  0
LINE
  5
19D
330
1F
100
AcDbEntity
  8
1
370
    18
100
AcDbLine
 10
122.168073
 20
15.560148
 30
0.0
 11
122.016825
 21
15.21006
 31
0.0
  0
LINE
  5
19E
330
1F
100
AcDbEntity
  8
1
370
    18
100
AcDbLine
 10
134.129515
 20
7.257664
 30
0.0
 11
133.843654
 21
6.81216
 31
0.0
  0
LINE
  5
19F
330
1F
100
AcDbEntity
  8
1
370
    18
100
AcDbLine
 10
134.00036
 20
6.899928999999999
 30
0.0
 11
133.852483
 21
6.655786999999999
 31
0.0
  0
LINE
  5
1A0
330
1F
100
AcDbEntity
  8
1
370
    18
100
AcDbLine
 10
130.900354
 20
1.951052999999999
 30
0.0
 11
133.433773
 21
1.846612
 31
0.0
  0
LINE
  5
1A1
330
1F
100
AcDbEntity
  8
1
370
    18
100
AcDbLine
 10
125.130449
 20
-6.632432
 30
0.0
 11
122.596983
 21
-6.527989999999999
 31
0.0
  0
LINE
  5
1A2
330
1F
100
AcDbEntity
  8
1
370
    18
100
AcDbLine
 10
121.321811
 20
1.726850999999999
 30
0.0
 11
121.127607
 21
1.719743
 31
0.0
  0
LINE
  5
1A3
330
1F
100
AcDbEntity
  8
1
370
    18
100
AcDbLine
 10
121.00183
 20
3.003197999999999
 30
0.0
 11
121.003369
 21
3.072073
 31
0.0
  0
LINE
  5
1A4
330
1F
100
AcDbEntity
  8
1
370
    18
100
AcDbLine
 10
134.037769
 20
1.911195
 30
0.0
 11
134.230741
 21
1.958774
 31
0.0
  0
LINE
  5
1A5
330
1F
100
AcDbEntity
  8
1
370
    18
100
AcDbLine
 10
134.828421
 20
-6.280101
 30
0.0
 11
134.896204
 21
-6.203767
 31
0.0
  0
LINE
  5
1A6
330
1F
100
AcDbEntity
  8
1
370
    18
100
AcDbLine
 10
128.379144
 20
2.485870999999999
 30
0.0
 11
133.409754
 21
2.313327
 31
0.0
  0
LINE
  5
1A7
330
1F
100
AcDbEntity
  8
1
370
    18
100
AcDbLine
 10
122.019221
 20
3.235466999999999
 30
0.0
 11
121.780418
 21
3.272834999999999
 31
0.0
  0
LINE
  5
1A8
330
1F
100
AcDbEntity
  8
1
370
    18
100
AcDbLine
 10
121.230404
 20
3.244702999999999
 30
0.0
 11
121.780418
 21
3.272834999999999
 31
0.0
  0
LINE
  5
1A9
330
1F
100
AcDbEntity
  8
1
370
    18
100
AcDbLine
 10
121.866417
 20
-6.493038999999999
 30
0.0
 11
121.79307
 21
-6.442798999999999
 31
0.0
  0
LINE
  5
1AA
330
1F
100
AcDbEntity
  8
1
370
    18
100
AcDbLine
 10
134.226662
 20
2.230909999999999
 30
0.0
 11
134.239353
 21
2.360177
 31
0.0
  0
LINE
  5
1AB
330
1F
100
AcDbEntity
  8
1
370
    18
100
AcDbLine
 10
135.017821
 20
-7.368997
 30
0.0
 11
135.01769
 21
-7.477877
 31
0.0
  0
LINE
  5
1AC
330
1F
100
AcDbEntity
  8
1
370
    18
100
AcDbLine
 10
134.249608
 20
3.279341999999999
 30
0.0
 11
134.259307
 21
3.144881999999999
 31
0.0
  0
LINE
  5
1AD
330
1F
100
AcDbEntity
  8
1
370
    18
100
AcDbLine
 10
135.013757
 20
-6.109163999999999
 30
0.0
 11
135.010881
 21
-6.031939
 31
0.0
  0
LINE
  5
1AE
330
1F
100
AcDbEntity
  8
1
370
    18
100
AcDbLine
 10
121.752709
 20
-7.152525999999999
 30
0.0
 11
121.744927
 21
-7.072561
 31
0.0
  0
LINE
  5
1AF
330
1F
100
AcDbEntity
  8
1
370
    18
100
AcDbLine
 10
127.650175
 20
-7.144047999999999
 30
0.0
 11
122.620462
 21
-6.979356
 31
0.0
  0
LINE
  5
1B0
330
1F
100
AcDbEntity
  8
1
370
    18
100
AcDbLine
 10
134.008605
 20
-7.833569
 30
0.0
 11
134.247285
 21
-7.867466999999999
 31
0.0
  0
LINE
  5
1B1
330
1F
100
AcDbEntity
  8
1
370
    18
100
AcDbLine
 10
134.037324
 20
2.361845
 30
0.0
 11
134.021478
 21
2.229109
 31
0.0
  0
LINE
  5
1B2
330
1F
100
AcDbEntity
  8
1
370
    18
100
AcDbLine
 10
122.140479
 20
-6.902951999999999
 30
0.0
 11
122.5788
 21
-6.978328999999999
 31
0.0
  0
LINE
  5
1B3
330
1F
100
AcDbEntity
  8
1
370
    18
100
AcDbLine
 10
134.036793
 20
3.34233
 30
0.0
 11
134.054901
 21
3.078402999999999
 31
0.0
  0
LINE
  5
1B4
330
1F
100
AcDbEntity
  8
1
370
    18
100
AcDbLine
 10
133.841708
 20
4.553244999999999
 30
0.0
 11
133.875025
 21
4.465062
 31
0.0
  0
LINE
  5
1B5
330
1F
100
AcDbEntity
  8
1
370
    18
100
AcDbLine
 10
121.964733
 20
-7.193025999999999
 30
0.0
 11
121.950404
 21
-7.036491999999999
 31
0.0
  0
LINE
  5
1B6
330
1F
100
AcDbEntity
  8
1
370
    18
100
AcDbLine
 10
133.344162
 20
4.769801999999999
 30
0.0
 11
133.091539
 21
4.749264
 31
0.0
  0
LINE
  5
1B7
330
1F
100
AcDbEntity
  8
1
370
    18
100
AcDbLine
 10
134.069712
 20
4.524977999999999
 30
0.0
 11
134.053787
 21
4.632562
 31
0.0
  0
LINE
  5
1B8
330
1F
100
AcDbEntity
  8
1
370
    18
100
AcDbLine
 10
123.050656
 20
-7.939296999999999
 30
0.0
 11
125.858813
 21
-7.057641999999999
 31
0.0
  0
LINE
  5
1B9
330
1F
100
AcDbEntity
  8
1
370
    18
100
AcDbLine
 10
123.050656
 20
-7.939296999999999
 30
0.0
 11
122.888713
 21
-7.994011999999999
 31
0.0
  0
LINE
  5
1BA
330
1F
100
AcDbEntity
  8
1
370
    18
100
AcDbLine
 10
122.144544
 20
-7.969864
 30
0.0
 11
122.112627
 21
-7.921467999999999
 31
0.0
  0
LINE
  5
1BB
330
1F
100
AcDbEntity
  8
1
370
    18
100
AcDbLine
 10
122.969634
 20
-8.025172999999998
 30
0.0
 11
126.061463
 21
-7.057033999999999
 31
0.0
  0
LINE
  5
1BC
330
1F
100
AcDbEntity
  8
1
370
    18
100
AcDbLine
 10
122.636739
 20
-8.034366
 30
0.0
 11
122.144544
 21
-7.969864
 31
0.0
  0
LINE
  5
1BD
330
1F
100
AcDbEntity
  8
1
370
    18
100
AcDbLine
 10
122.636739
 20
-8.034366
 30
0.0
 11
122.888631
 21
-7.993052999999999
 31
0.0
  0
LINE
  5
1BE
330
1F
100
AcDbEntity
  8
1
370
    18
100
AcDbLine
 10
122.97975
 20
-7.964435
 30
0.0
 11
123.050657
 21
-7.939302
 31
0.0
  0
LINE
  5
1BF
330
1F
100
AcDbEntity
  8
1
370
    18
100
AcDbLine
 10
122.888631
 20
-7.993052999999999
 30
0.0
 11
122.97975
 21
-7.964435
 31
0.0
  0
LINE
  5
1C0
330
1F
100
AcDbEntity
  8
1
370
    18
100
AcDbLine
 10
122.18972
 20
-8.161088000000001
 30
0.0
 11
122.739806
 21
-8.100398
 31
0.0
  0
LINE
  5
1C1
330
1F
100
AcDbEntity
  8
1
370
    18
100
AcDbLine
 10
122.969592
 20
-8.025197
 30
0.0
 11
122.739806
 21
-8.100398
 31
0.0
  0
LINE
  5
1C2
330
1F
100
AcDbEntity
  8
1
370
    18
100
AcDbLine
 10
121.917189
 20
-7.960041
 30
0.0
 11
121.931706
 21
-8.027620999999999
 31
0.0
  0
LINE
  5
1C3
330
1F
100
AcDbEntity
  8
1
370
    18
100
AcDbLine
 10
123.795585
 20
12.254561
 30
0.0
 11
123.54139
 21
12.331609
 31
0.0
  0
LINE
  5
1C4
330
1F
100
AcDbEntity
  8
1
370
    18
100
AcDbLine
 10
123.844059
 20
12.239598
 30
0.0
 11
123.782522
 21
12.258574
 31
0.0
  0
LINE
  5
1C5
330
1F
100
AcDbEntity
  8
1
370
    18
100
AcDbLine
 10
124.53376
 20
12.039567
 30
0.0
 11
124.462384
 21
12.058752
 31
0.0
  0
LINE
  5
1C6
330
1F
100
AcDbEntity
  8
1
370
    18
100
AcDbLine
 10
125.690915
 20
11.74802
 30
0.0
 11
125.59046
 21
11.759359
 31
0.0
  0
LINE
  5
1C7
330
1F
100
AcDbEntity
  8
1
370
    18
100
AcDbLine
 10
134.800336
 20
10.431537
 30
0.0
 11
134.824318
 21
10.568327
 31
0.0
  0
LINE
  5
1C8
330
1F
100
AcDbEntity
  8
1
370
    18
100
AcDbLine
 10
121.838018
 20
15.33061
 30
0.0
 11
121.817605
 21
15.257821
 31
0.0
  0
LINE
  5
1C9
330
1F
100
AcDbEntity
  8
1
370
    18
100
AcDbLine
 10
133.999305
 20
6.900813999999999
 30
0.0
 11
134.095303
 21
7.147444999999999
 31
0.0
  0
LINE
  5
1CA
330
1F
100
AcDbEntity
  8
CUT
370
    18
100
AcDbLine
 10
121.744927
 20
13.494163
 30
0.0
 11
121.747277
 21
13.575067
 31
0.0
  0
LINE
  5
1CB
330
1F
100
AcDbEntity
  8
CUT
370
    18
100
AcDbLine
 10
135.01769
 20
15.197264
 30
0.0
 11
135.017821
 21
15.021217
 31
0.0
  0
LINE
  5
1CC
330
1F
100
AcDbEntity
  8
CUT
370
    18
100
AcDbLine
 10
134.993882
 20
-12.718911
 30
0.0
 11
135.004058
 21
-12.838874
 31
0.0
  0
LINE
  5
1CD
330
1F
100
AcDbEntity
  8
CUT
370
    18
100
AcDbLine
 10
129.149024
 20
-10.574685
 30
0.0
 11
134.064905
 21
-10.093566
 31
0.0
  0
LINE
  5
1CE
330
1F
100
AcDbEntity
  8
CUT
370
    18
100
AcDbLine
 10
121.931706
 20
12.287251
 30
0.0
 11
121.917189
 21
12.368225
 31
0.0
  0
LINE
  5
1CF
330
1F
100
AcDbEntity
  8
CUT
370
    18
100
AcDbLine
 10
121.752709
 20
13.348558
 30
0.0
 11
121.744927
 21
13.494163
 31
0.0
  0
LINE
  5
1D0
330
1F
100
AcDbEntity
  8
CUT
370
    18
100
AcDbLine
 10
121.825059
 20
-15.312164
 30
0.0
 11
121.812493
 21
-15.216999
 31
0.0
  0
LINE
  5
1D1
330
1F
100
AcDbEntity
  8
CUT
370
    18
100
AcDbLine
 10
134.843118
 20
15.696458
 30
0.0
 11
135.01769
 21
15.197264
 31
0.0
  0
LINE
  5
1D2
330
1F
100
AcDbEntity
  8
CUT
370
    18
100
AcDbLine
 10
135.004058
 20
-12.838874
 30
0.0
 11
135.013757
 21
-13.072702
 31
0.0
  0
LINE
  5
1D3
330
1F
100
AcDbEntity
  8
CUT
370
    18
100
AcDbLine
 10
134.874413
 20
11.291465
 30
0.0
 11
134.838928
 21
10.771844
 31
0.0
  0
LINE
  5
1D4
330
1F
100
AcDbEntity
  8
CUT
370
    18
100
AcDbLine
 10
122.040551
 20
12.099875
 30
0.0
 11
121.931706
 21
12.287251
 31
0.0
  0
LINE
  5
1D5
330
1F
100
AcDbEntity
  8
CUT
370
    18
100
AcDbLine
 10
121.76162
 20
13.287688
 30
0.0
 11
121.752709
 21
13.348558
 31
0.0
  0
LINE
  5
1D6
330
1F
100
AcDbEntity
  8
CUT
370
    18
100
AcDbLine
 10
121.802795
 20
-15.076823
 30
0.0
 11
121.777998
 21
-14.598421
 31
0.0
  0
LINE
  5
1D7
330
1F
100
AcDbEntity
  8
CUT
370
    18
100
AcDbLine
 10
135.013757
 20
-13.072702
 30
0.0
 11
135.013806
 21
-13.179315
 31
0.0
  0
LINE
  5
1D8
330
1F
100
AcDbEntity
  8
CUT
370
    18
100
AcDbLine
 10
134.604497
 20
-10.224469
 30
0.0
 11
134.822384
 21
-10.563643
 31
0.0
  0
LINE
  5
1D9
330
1F
100
AcDbEntity
  8
CUT
370
    18
100
AcDbLine
 10
122.790529
 20
11.771923
 30
0.0
 11
122.739806
 21
11.783313
 31
0.0
  0
LINE
  5
1DA
330
1F
100
AcDbEntity
  8
CUT
370
    18
100
AcDbLine
 10
122.969634
 20
11.728353
 30
0.0
 11
122.891627
 21
11.747639
 31
0.0
  0
LINE
  5
1DB
330
1F
100
AcDbEntity
  8
CUT
370
    18
100
AcDbLine
 10
134.835375
 20
10.702155
 30
0.0
 11
134.832578
 21
10.6474
 31
0.0
  0
LINE
  5
1DC
330
1F
100
AcDbEntity
  8
CUT
370
    18
100
AcDbLine
 10
134.838928
 20
10.771844
 30
0.0
 11
134.835375
 21
10.702155
 31
0.0
  0
LINE
  5
1DD
330
1F
100
AcDbEntity
  8
CUT
370
    18
100
AcDbLine
 10
135.017821
 20
-15.021217
 30
0.0
 11
135.01769
 21
-15.197264
 31
0.0
  0
LINE
  5
1DE
330
1F
100
AcDbEntity
  8
CUT
370
    18
100
AcDbLine
 10
121.812493
 20
15.216999
 30
0.0
 11
121.825059
 21
15.312164
 31
0.0
  0
LINE
  5
1DF
330
1F
100
AcDbEntity
  8
CUT
370
    18
100
AcDbLine
 10
135.004058
 20
12.838874
 30
0.0
 11
134.993882
 21
12.718911
 31
0.0
  0
LINE
  5
1E0
330
1F
100
AcDbEntity
  8
CUT
370
    18
100
AcDbLine
 10
134.822384
 20
-10.563643
 30
0.0
 11
134.832578
 21
-10.6474
 31
0.0
  0
LINE
  5
1E1
330
1F
100
AcDbEntity
  8
CUT
370
    18
100
AcDbLine
 10
121.747277
 20
-13.575067
 30
0.0
 11
121.744927
 21
-13.494163
 31
0.0
  0
LINE
  5
1E2
330
1F
100
AcDbEntity
  8
CUT
370
    18
100
AcDbLine
 10
135.013757
 20
13.072702
 30
0.0
 11
135.004058
 21
12.838874
 31
0.0
  0
LINE
  5
1E3
330
1F
100
AcDbEntity
  8
CUT
370
    18
100
AcDbLine
 10
134.836137
 20
-10.717089
 30
0.0
 11
134.838928
 21
-10.771844
 31
0.0
  0
LINE
  5
1E4
330
1F
100
AcDbEntity
  8
CUT
370
    18
100
AcDbLine
 10
134.832578
 20
-10.6474
 30
0.0
 11
134.836137
 21
-10.717089
 31
0.0
  0
LINE
  5
1E5
330
1F
100
AcDbEntity
  8
CUT
370
    18
100
AcDbLine
 10
121.917189
 20
-12.368225
 30
0.0
 11
121.931706
 21
-12.287251
 31
0.0
  0
LINE
  5
1E6
330
1F
100
AcDbEntity
  8
CUT
370
    18
100
AcDbLine
 10
121.744927
 20
-13.494163
 30
0.0
 11
121.752709
 21
-13.348558
 31
0.0
  0
LINE
  5
1E7
330
1F
100
AcDbEntity
  8
CUT
370
    18
100
AcDbLine
 10
121.777998
 20
14.598421
 30
0.0
 11
121.802795
 21
15.076823
 31
0.0
  0
LINE
  5
1E8
330
1F
100
AcDbEntity
  8
CUT
370
    18
100
AcDbLine
 10
134.741647
 20
-15.801263
 30
0.0
 11
134.247285
 21
-15.984457
 31
0.0
  0
LINE
  5
1E9
330
1F
100
AcDbEntity
  8
CUT
370
    18
100
AcDbLine
 10
135.013806
 20
13.179315
 30
0.0
 11
135.013757
 21
13.072702
 31
0.0
  0
LINE
  5
1EA
330
1F
100
AcDbEntity
  8
CUT
370
    18
100
AcDbLine
 10
134.838928
 20
-10.771844
 30
0.0
 11
134.874413
 21
-11.291465
 31
0.0
  0
LINE
  5
1EB
330
1F
100
AcDbEntity
  8
CUT
370
    18
100
AcDbLine
 10
134.508122
 20
10.16708
 30
0.0
 11
134.105872
 21
10.09131
 31
0.0
  0
LINE
  5
1EC
330
1F
100
AcDbEntity
  8
CUT
370
    18
100
AcDbLine
 10
121.752709
 20
-13.348558
 30
0.0
 11
121.76162
 21
-13.287688
 31
0.0
  0
LINE
  5
1ED
330
1F
100
AcDbEntity
  8
CUT
370
    18
100
AcDbLine
 10
121.996842
 20
-15.670891
 30
0.0
 11
121.825059
 21
-15.312163
 31
0.0
  0
LINE
  5
1EE
330
1F
100
AcDbEntity
  8
CUT
370
    18
100
AcDbLine
 10
122.574577
 20
-15.965874
 30
0.0
 11
122.511675
 21
-15.959554
 31
0.0
  0
LINE
  5
1EF
330
1F
100
AcDbEntity
  8
CUT
370
    18
100
AcDbLine
 10
134.832578
 20
10.6474
 30
0.0
 11
134.822384
 21
10.563643
 31
0.0
  0
LINE
  5
1F0
330
1F
100
AcDbEntity
  8
CUT
370
    18
100
AcDbLine
 10
122.868678
 20
-11.753274
 30
0.0
 11
122.944387
 21
-11.734589
 31
0.0
  0
LINE
  5
1F1
330
1F
100
AcDbEntity
  8
1
370
    13
100
AcDbLine
 10
134.239845
 20
-12.495981
 30
0.0
 11
134.069712
 21
-11.831326
 31
0.0
  0
LINE
  5
1F2
330
1F
100
AcDbEntity
  8
1
370
    13
100
AcDbLine
 10
133.879181
 20
-11.881082
 30
0.0
 11
134.034075
 21
-12.486202
 31
0.0
  0
LINE
  5
1F3
330
1F
100
AcDbEntity
  8
1
370
    13
100
AcDbLine
 10
134.211011
 20
-13.90962
 30
0.0
 11
134.219415
 21
-13.785281
 31
0.0
  0
LINE
  5
1F4
330
1F
100
AcDbEntity
  8
1
370
    13
100
AcDbLine
 10
134.239353
 20
-13.405801
 30
0.0
 11
134.257967
 21
-12.694287
 31
0.0
  0
LINE
  5
1F5
330
1F
100
AcDbEntity
  8
1
370
    13
100
AcDbLine
 10
134.055262
 20
-12.719161
 30
0.0
 11
134.037324
 21
-13.404848
 31
0.0
  0
LINE
  5
1F6
330
1F
100
AcDbEntity
  8
1
370
    13
100
AcDbLine
 10
134.017766
 20
-13.777093
 30
0.0
 11
134.006928
 21
-13.937433
 31
0.0
  0
LINE
  5
1F7
330
1F
100
AcDbEntity
  8
1
370
    13
100
AcDbLine
 10
135.016779
 20
-7.480821
 30
0.0
 11
135.017821
 21
-7.651335999999999
 31
0.0
  0
LINE
  5
1F8
102
{ACAD_REACTORS
330
337
102
}
330
1F
100
AcDbEntity
  8
SK1
370
    13
100
AcDbLine
 10
45.0
 20
16.0
 30
0.0
 11
45.0
 21
-16.0
 31
0.0
  0
LINE
  5
1F9
330
1F
100
AcDbEntity
  8
SK1
370
    13
100
AcDbLine
 10
-58.0
 20
-16.0
 30
0.0
 11
-58.0
 21
16.0
 31
0.0
  0
LINE
  5
1FA
102
{ACAD_REACTORS
330
367
102
}
330
1F
100
AcDbEntity
  8
SK1
370
    13
100
AcDbLine
 10
-60.0
 20
-14.0
 30
0.0
 11
-60.0
 21
14.0
 31
0.0
  0
LINE
  5
1FB
330
1F
100
AcDbEntity
  8
1
370
    13
100
AcDbLine
 10
120.991226
 20
2.145877999999999
 30
0.0
 11
121.123667
 21
0.521359
 31
0.0
  0
LINE
  5
1FC
102
{ACAD_REACTORS
330
31D
330
337
330
34F
330
367
330
380
102
}
330
1F
100
AcDbEntity
  8
81
370
    18
100
AcDbLine
 10
135.0
 20
15.4875
 30
0.0
 11
135.0
 21
16.4875
 31
0.0
  0
LINE
  5
1FD
330
1F
100
AcDbEntity
  8
CUT
370
    18
100
AcDbLine
 10
135.017821
 20
15.021217
 30
0.0
 11
135.013806
 21
13.179315
 31
0.0
  0
LINE
  5
1FE
102
{ACAD_REACTORS
330
3A0
102
}
330
1F
100
AcDbEntity
  8
2
370
    13
100
AcDbLine
 10
145.964523
 20
15.9875
 30
0.0
 11
145.964523
 21
-7.912777
 31
0.0
  0
LINE
  5
1FF
102
{ACAD_REACTORS
330
3A0
102
}
330
1F
100
AcDbEntity
  8
2
370
    13
100
AcDbLine
 10
136.5
 20
15.9875
 30
0.0
 11
147.964523
 21
15.9875
 31
0.0
  0
LINE
  5
200
330
1F
100
AcDbEntity
  8
2
 60
     1
370
    18
100
AcDbLine
 10
145.964523
 20
15.9875
 30
0.0
 11
146.40534
 21
13.487502
 31
0.0
  0
LINE
  5
201
330
1F
100
AcDbEntity
  8
2
 60
     1
370
    18
100
AcDbLine
 10
146.40534
 20
13.487502
 30
0.0
 11
145.523706
 21
13.487498
 31
0.0
  0
LINE
  5
202
330
1F
100
AcDbEntity
  8
2
 60
     1
370
    18
100
AcDbLine
 10
145.523706
 20
13.487498
 30
0.0
 11
145.964523
 21
15.9875
 31
0.0
  0
ARC
  5
203
330
1F
100
AcDbEntity
  8
1
370
    18
100
AcDbCircle
 10
128.048552
 20
-2.306209999999999
 30
0.0
 40
2.515633800592782
100
AcDbArc
 50
319.93392
 51
1.985580999999999
  0
ARC
  5
204
330
1F
100
AcDbEntity
  8
1
370
    18
100
AcDbCircle
 10
128.0159
 20
-2.278086
 30
0.0
 40
2.55872543616849
100
AcDbArc
 50
274.701858
 51
319.922584
  0
ARC
  5
205
330
1F
100
AcDbEntity
  8
1
370
    18
100
AcDbCircle
 10
128.011886
 20
-2.274158
 30
0.0
 40
2.562971638569829
100
AcDbArc
 50
229.614676
 51
274.784095
  0
ARC
  5
206
330
1F
100
AcDbEntity
  8
1
370
    18
100
AcDbCircle
 10
127.983177
 20
-2.307383
 30
0.0
 40
2.5190631683212
100
AcDbArc
 50
183.915357
 51
229.622436
  0
ARC
  5
207
330
1F
100
AcDbEntity
  8
1
370
    18
100
AcDbCircle
 10
127.98062
 20
-2.31128
 30
0.0
 40
2.516249442655531
100
AcDbArc
 50
138.088712
 51
183.830789
  0
ARC
  5
208
330
1F
100
AcDbEntity
  8
1
370
    18
100
AcDbCircle
 10
128.013261
 20
-2.340756
 30
0.0
 40
2.560228966135886
100
AcDbArc
 50
92.883212
 51
138.085755
  0
ARC
  5
209
330
1F
100
AcDbEntity
  8
1
370
    18
100
AcDbCircle
 10
128.017019
 20
-2.341983
 30
0.0
 40
2.561646331153706
100
AcDbArc
 50
47.780359
 51
92.965776
  0
ARC
  5
20A
330
1F
100
AcDbEntity
  8
1
370
    18
100
AcDbCircle
 10
128.046687
 20
-2.309444
 30
0.0
 40
2.517611716852107
100
AcDbArc
 50
2.057647
 51
47.78277199999999
  0
ARC
  5
20B
330
1F
100
AcDbEntity
  8
1
370
    18
100
AcDbCircle
 10
128.042351
 20
-2.339498999999999
 30
0.0
 40
1.773002012655463
100
AcDbArc
 50
326.608893
 51
2.007506
  0
ARC
  5
20C
330
1F
100
AcDbEntity
  8
1
370
    18
100
AcDbCircle
 10
128.016995
 20
-2.320794999999999
 30
0.0
 40
1.804466410328346
100
AcDbArc
 50
272.663985
 51
326.556112
  0
ARC
  5
20D
330
1F
100
AcDbEntity
  8
1
370
    18
100
AcDbCircle
 10
128.012726
 20
-2.320122
 30
0.0
 40
1.805342348925993
100
AcDbArc
 50
218.924329
 51
272.798344
  0
ARC
  5
20E
330
1F
100
AcDbEntity
  8
1
370
    18
100
AcDbCircle
 10
127.987759
 20
-2.341800999999999
 30
0.0
 40
1.772298148391593
100
AcDbArc
 50
164.318315
 51
218.886225
  0
ARC
  5
20F
330
1F
100
AcDbEntity
  8
1
370
    18
100
AcDbCircle
 10
128.005908
 20
-2.350524
 30
0.0
 40
1.792133448690625
100
AcDbArc
 50
110.057888
 51
164.206637
  0
ARC
  5
210
330
1F
100
AcDbEntity
  8
1
370
    18
100
AcDbCircle
 10
128.016218
 20
-2.368733
 30
0.0
 40
1.812776764768308
100
AcDbArc
 50
56.445693
 51
110.166593
  0
ARC
  5
211
330
1F
100
AcDbEntity
  8
1
370
    18
100
AcDbCircle
 10
128.035506
 20
-2.342117
 30
0.0
 40
1.779935427286803
100
AcDbArc
 50
2.084001999999999
 51
56.489571
  0
ARC
  5
212
330
1F
100
AcDbEntity
  8
1
370
    18
100
AcDbCircle
 10
129.567129
 20
-1.273012999999999
 30
0.0
 40
0.5962928315742519
100
AcDbArc
 50
178.566418
 51
251.156063
  0
ARC
  5
213
330
1F
100
AcDbEntity
  8
1
370
    18
100
AcDbCircle
 10
128.476783
 20
-1.383927
 30
0.0
 40
0.6028162803958863
100
AcDbArc
 50
28.820471
 51
100.855416
  0
ARC
  5
214
330
1F
100
AcDbEntity
  8
1
370
    18
100
AcDbCircle
 10
127.862656
 20
-0.4627010000000001
 30
0.0
 40
0.6048888664548733
100
AcDbArc
 50
238.667317
 51
310.564688
  0
ARC
  5
215
330
1F
100
AcDbEntity
  8
1
370
    18
100
AcDbCircle
 10
127.402942
 20
-1.468104
 30
0.0
 40
0.600419961314285
100
AcDbArc
 50
88.26053700000001
 51
160.571827
  0
ARC
  5
216
330
1F
100
AcDbEntity
  8
1
370
    18
100
AcDbCircle
 10
126.313613
 20
-1.537587999999999
 30
0.0
 40
0.5939129725962934
100
AcDbArc
 50
298.002856
 51
10.872532
  0
ARC
  5
217
330
1F
100
AcDbEntity
  8
1
370
    18
100
AcDbCircle
 10
126.934389
 20
-2.427594
 30
0.0
 40
0.5918584594806085
100
AcDbArc
 50
148.155574
 51
221.166054
  0
ARC
  5
218
330
1F
100
AcDbEntity
  8
1
370
    18
100
AcDbCircle
 10
126.463626
 20
-3.408365
 30
0.0
 40
0.596292831574531
100
AcDbArc
 50
358.566418
 51
71.156063
  0
ARC
  5
219
330
1F
100
AcDbEntity
  8
1
370
    18
100
AcDbCircle
 10
127.553972
 20
-3.297451
 30
0.0
 40
0.6028162803957045
100
AcDbArc
 50
208.820471
 51
280.855416
  0
ARC
  5
21A
330
1F
100
AcDbEntity
  8
1
370
    18
100
AcDbCircle
 10
128.168099
 20
-4.218676999999999
 30
0.0
 40
0.6048888664548681
100
AcDbArc
 50
58.667317
 51
130.564688
  0
ARC
  5
21B
330
1F
100
AcDbEntity
  8
1
370
    18
100
AcDbCircle
 10
128.6278129999999
 20
-3.213273
 30
0.0
 40
0.6004199613146155
100
AcDbArc
 50
268.260537
 51
340.571827
  0
ARC
  5
21C
330
1F
100
AcDbEntity
  8
1
370
    18
100
AcDbCircle
 10
129.717142
 20
-3.14379
 30
0.0
 40
0.5939129725963202
100
AcDbArc
 50
118.002856
 51
190.872532
  0
ARC
  5
21D
330
1F
100
AcDbEntity
  8
1
370
    18
100
AcDbCircle
 10
129.096367
 20
-2.253784
 30
0.0
 40
0.5918584594805785
100
AcDbArc
 50
328.155574
 51
41.166054
  0
ARC
  5
21E
330
1F
100
AcDbEntity
  8
1
370
    18
100
AcDbCircle
 10
127.978383
 20
-2.278030999999999
 30
0.0
 40
2.51523132834079
100
AcDbArc
 50
140.721589
 51
181.989749
  0
ARC
  5
21F
330
1F
100
AcDbEntity
  8
1
370
    18
100
AcDbCircle
 10
128.011135
 20
-2.305633
 30
0.0
 40
2.558058562632913
100
AcDbArc
 50
95.47866500000001
 51
140.707463
  0
ARC
  5
220
330
1F
100
AcDbEntity
  8
1
370
    18
100
AcDbCircle
 10
128.015307
 20
-2.310703999999999
 30
0.0
 40
2.563508236889922
100
AcDbArc
 50
50.397718
 51
95.56066300000001
  0
ARC
  5
221
330
1F
100
AcDbEntity
  8
1
370
    18
100
AcDbCircle
 10
128.043567
 20
-2.277238999999999
 30
0.0
 40
2.519708800563082
100
AcDbArc
 50
4.708690999999999
 51
50.407749
  0
ARC
  5
222
330
1F
100
AcDbEntity
  8
1
370
    18
100
AcDbCircle
 10
121.420071
 20
-7.221394999999999
 30
0.0
 40
0.1477285309992022
100
AcDbArc
 50
44.42765999999999
 51
262.961354
  0
ARC
  5
223
330
1F
100
AcDbEntity
  8
1
370
    18
100
AcDbCircle
 10
2577.648435
 20
198.142521
 30
0.0
 40
2464.821627559942
100
AcDbArc
 50
184.5970129999999
 51
184.709771
  0
ARC
  5
224
330
1F
100
AcDbEntity
  8
1
370
    18
100
AcDbCircle
 10
152.482104
 20
7.561513999999999
 30
0.0
 40
32.26429991689697
100
AcDbArc
 50
187.0624409999999
 51
188.980623
  0
ARC
  5
225
330
1F
100
AcDbEntity
  8
1
370
    18
100
AcDbCircle
 10
45.227705
 20
-9.583196
 30
0.0
 40
76.39759323816102
100
AcDbArc
 50
8.630684999999999
 51
9.690066999999999
  0
ARC
  5
226
330
1F
100
AcDbEntity
  8
1
370
    18
100
AcDbCircle
 10
85.43303299999999
 20
-3.695679
 30
0.0
 40
35.76466634527492
100
AcDbArc
 50
7.185444999999998
 51
8.971210000000001
  0
ARC
  5
227
330
1F
100
AcDbEntity
  8
1
370
    18
100
AcDbCircle
 10
121.933863
 20
11.58558
 30
0.0
 40
0.6633111580579238
100
AcDbArc
 50
127.99106
 51
200.946265
  0
ARC
  5
228
330
1F
100
AcDbEntity
  8
1
370
    18
100
AcDbCircle
 10
123.754856
 20
13.196796
 30
0.0
 40
0.9222181755765056
100
AcDbArc
 50
181.159155
 51
235.804661
  0
ARC
  5
229
330
1F
100
AcDbEntity
  8
1
370
    18
100
AcDbCircle
 10
127.981419
 20
-2.344225999999999
 30
0.0
 40
2.697470675871715
100
AcDbArc
 50
136.089529
 51
180.256558
  0
ARC
  5
22A
330
1F
100
AcDbEntity
  8
1
370
    18
100
AcDbCircle
 10
128.014693
 20
-2.376081999999999
 30
0.0
 40
2.743534807929475
100
AcDbArc
 50
92.43337199999999
 51
136.092166
  0
ARC
  5
22B
330
1F
100
AcDbEntity
  8
1
370
    18
100
AcDbCircle
 10
128.01831
 20
-2.376668999999999
 30
0.0
 40
2.744277823813666
100
AcDbArc
 50
48.85758
 51
92.508295
  0
ARC
  5
22C
330
1F
100
AcDbEntity
  8
1
370
    18
100
AcDbCircle
 10
128.048763
 20
-2.342175
 30
0.0
 40
2.698264363913366
100
AcDbArc
 50
4.704502999999999
 51
48.86265
  0
ARC
  5
22D
330
1F
100
AcDbEntity
  8
1
370
    18
100
AcDbCircle
 10
128.049336
 20
-2.337152
 30
0.0
 40
2.697470675872545
100
AcDbArc
 50
316.089529
 51
0.256558
  0
ARC
  5
22E
330
1F
100
AcDbEntity
  8
1
370
    18
100
AcDbCircle
 10
128.016063
 20
-2.305295999999999
 30
0.0
 40
2.74353480792956
100
AcDbArc
 50
272.433372
 51
316.092166
  0
ARC
  5
22F
330
1F
100
AcDbEntity
  8
1
370
    18
100
AcDbCircle
 10
128.012446
 20
-2.304708
 30
0.0
 40
2.74427782381303
100
AcDbArc
 50
228.85758
 51
272.508295
  0
ARC
  5
230
330
1F
100
AcDbEntity
  8
1
370
    18
100
AcDbCircle
 10
127.981993
 20
-2.339202999999999
 30
0.0
 40
2.698264363912776
100
AcDbArc
 50
184.704503
 51
228.86265
  0
ARC
  5
231
330
1F
100
AcDbEntity
  8
1
370
    18
100
AcDbCircle
 10
128.053463
 20
-2.288831999999999
 30
0.0
 40
2.664091383409703
100
AcDbArc
 50
358.273524
 51
34.428495
  0
ARC
  5
232
330
1F
100
AcDbEntity
  8
1
370
    18
100
AcDbCircle
 10
128.04541
 20
-2.285419
 30
0.0
 40
2.67224556739689
100
AcDbArc
 50
313.835553
 51
358.205599
  0
ARC
  5
233
330
1F
100
AcDbEntity
  8
1
370
    18
100
AcDbCircle
 10
128.013561
 20
-2.252845
 30
0.0
 40
2.717800849824552
100
AcDbArc
 50
269.984036
 51
313.844246
  0
ARC
  5
234
330
1F
100
AcDbEntity
  8
1
370
    18
100
AcDbCircle
 10
128.01002
 20
-2.255888999999999
 30
0.0
 40
2.714757512129321
100
AcDbArc
 50
226.461278
 51
270.0587529999999
  0
ARC
  5
235
330
1F
100
AcDbEntity
  8
1
370
    18
100
AcDbCircle
 10
127.978592
 20
-2.289031
 30
0.0
 40
2.669084012958879
100
AcDbArc
 50
182.054284
 51
226.460261
  0
ARC
  5
236
330
1F
100
AcDbEntity
  8
1
370
    18
100
AcDbCircle
 10
127.972672
 20
-2.291463999999999
 30
0.0
 40
2.663080992331029
100
AcDbArc
 50
149.597582
 51
182.00653
  0
ARC
  5
237
330
1F
100
AcDbEntity
  8
1
370
    18
100
AcDbCircle
 10
133.553267
 20
-10.807942
 30
0.0
 40
0.5975898165208497
100
AcDbArc
 50
8.763619
 51
59.69467900000001
  0
ARC
  5
238
330
1F
100
AcDbEntity
  8
1
370
    18
100
AcDbCircle
 10
133.418538
 20
-13.796616
 30
0.0
 40
0.8053730097648982
100
AcDbArc
 50
286.979414
 51
345.805657
  0
ARC
  5
239
330
1F
100
AcDbEntity
  8
1
370
    18
100
AcDbCircle
 10
129.691116
 20
-2.939794
 30
0.0
 40
0.5752196139817114
100
AcDbArc
 50
116.828985
 51
182.931116
  0
ARC
  5
23A
330
1F
100
AcDbEntity
  8
1
370
    18
100
AcDbCircle
 10
126.477792
 20
-3.199956999999999
 30
0.0
 40
0.5750569930897852
100
AcDbArc
 50
0.7490210000000001
 51
72.63366399999999
  0
ARC
  5
23B
330
1F
100
AcDbEntity
  8
1
370
    18
100
AcDbCircle
 10
128.629863
 20
-3.040636999999999
 30
0.0
 40
0.5875584253961996
100
AcDbArc
 50
267.384289
 51
332.979904
  0
ARC
  5
23C
330
1F
100
AcDbEntity
  8
1
370
    18
100
AcDbCircle
 10
127.539944
 20
-3.128115
 30
0.0
 40
0.5881176029352219
100
AcDbArc
 50
213.311227
 51
281.874716
  0
ARC
  5
23D
330
1F
100
AcDbEntity
  8
1
370
    18
100
AcDbCircle
 10
128.158314
 20
-3.988633999999999
 30
0.0
 40
0.5751528434502296
100
AcDbArc
 50
56.488603
 51
132.743401
  0
ARC
  5
23E
330
1F
100
AcDbEntity
  8
1
370
    18
100
AcDbCircle
 10
100.36268
 20
-2.273286999999999
 30
0.0
 40
11.88537736268209
100
AcDbArc
 50
184.023987
 51
201.739809
  0
ARC
  5
23F
330
1F
100
AcDbEntity
  8
1
370
    18
100
AcDbCircle
 10
96.83832500000001
 20
-3.613732
 30
0.0
 40
8.115424648824308
100
AcDbArc
 50
202.165441
 51
226.289876
  0
ARC
  5
240
330
1F
100
AcDbEntity
  8
1
370
    18
100
AcDbCircle
 10
97.94356399999999
 20
-2.239259
 30
0.0
 40
9.873839306026773
100
AcDbArc
 50
227.165309
 51
248.202036
  0
ARC
  5
241
330
1F
100
AcDbEntity
  8
1
370
    18
100
AcDbCircle
 10
101.034812
 20
5.347859999999999
 30
0.0
 40
18.06643750560507
100
AcDbArc
 50
248.034401
 51
260.247487
  0
ARC
  5
242
330
1F
100
AcDbEntity
  8
1
370
    18
100
AcDbCircle
 10
103.656385
 20
19.633679
 30
0.0
 40
32.59029319899023
100
AcDbArc
 50
259.959561
 51
267.083789
  0
ARC
  5
243
330
1F
100
AcDbEntity
  8
1
370
    18
100
AcDbCircle
 10
103.694584
 20
20.302405
 30
0.0
 40
33.17317972798308
100
AcDbArc
 50
260.51544
 51
267.084542
  0
ARC
  5
244
330
1F
100
AcDbEntity
  8
1
370
    18
100
AcDbCircle
 10
101.283472
 20
6.384587
 30
0.0
 40
19.04849910155737
100
AcDbArc
 50
249.846384
 51
260.770354
  0
ARC
  5
245
330
1F
100
AcDbEntity
  8
1
370
    18
100
AcDbCircle
 10
98.363601
 20
-1.482599999999999
 30
0.0
 40
10.65703809693372
100
AcDbArc
 50
232.417895
 51
250.010614
  0
ARC
  5
246
330
1F
100
AcDbEntity
  8
1
370
    18
100
AcDbCircle
 10
96.767391
 20
-3.661944999999999
 30
0.0
 40
7.956685175700879
100
AcDbArc
 50
209.926414
 51
231.955499
  0
ARC
  5
247
330
1F
100
AcDbEntity
  8
1
370
    18
100
AcDbCircle
 10
98.38565899999998
 20
-2.848247
 30
0.0
 40
9.765661886715852
100
AcDbArc
 50
190.395406
 51
209.32721
  0
ARC
  5
248
330
1F
100
AcDbEntity
  8
1
370
    18
100
AcDbCircle
 10
104.564256
 20
-1.684714
 30
0.0
 40
16.05281850625453
100
AcDbArc
 50
178.197447
 51
190.500937
  0
ARC
  5
249
330
1F
100
AcDbEntity
  8
1
370
    18
100
AcDbCircle
 10
-178.908218
 20
-1293.276343
 30
0.0
 40
1321.526991264955
100
AcDbArc
 50
77.425803
 51
77.931664
  0
ARC
  5
24A
330
1F
100
AcDbEntity
  8
1
370
    18
100
AcDbCircle
 10
-114.581734
 20
-1005.26145
 30
0.0
 40
1026.416052128678
100
AcDbArc
 50
76.88034399999999
 51
77.43036299999999
  0
ARC
  5
24B
330
1F
100
AcDbEntity
  8
1
370
    18
100
AcDbCircle
 10
-163.076213
 20
-1212.091087
 30
0.0
 40
1238.902633557607
100
AcDbArc
 50
76.867087
 51
78.16596
  0
ARC
  5
24C
330
1F
100
AcDbEntity
  8
1
370
    18
100
AcDbCircle
 10
60.787788
 20
-301.059033
 30
0.0
 40
311.1970409675709
100
AcDbArc
 50
77.342814
 51
77.81457299999999
  0
ARC
  5
24D
330
1F
100
AcDbEntity
  8
1
370
    18
100
AcDbCircle
 10
54.28955799999999
 20
-331.157227
 30
0.0
 40
341.9887318233534
100
AcDbArc
 50
77.81477199999999
 51
78.36095799999999
  0
ARC
  5
24E
330
1F
100
AcDbEntity
  8
1
370
    18
100
AcDbCircle
 10
120.799082
 20
1.526905
 30
0.0
 40
0.2931321844452208
100
AcDbArc
 50
164.811599
 51
237.507781
  0
ARC
  5
24F
330
1F
100
AcDbEntity
  8
1
370
    18
100
AcDbCircle
 10
121.59296
 20
2.211307
 30
0.0
 40
1.467014557058318
100
AcDbArc
 50
190.242932
 51
234.896861
  0
ARC
  5
250
330
1F
100
AcDbEntity
  8
1
370
    18
100
AcDbCircle
 10
121.742544
 20
2.248736999999999
 30
0.0
 40
1.620902761903349
100
AcDbArc
 50
149.947419
 51
190.604697
  0
ARC
  5
251
330
1F
100
AcDbEntity
  8
1
370
    18
100
AcDbCircle
 10
121.774497
 20
2.234611
 30
0.0
 40
1.655638696190429
100
AcDbArc
 50
110.020667
 51
150.078073
  0
ARC
  5
252
330
1F
100
AcDbEntity
  8
1
370
    18
100
AcDbCircle
 10
121.73641
 20
2.379384999999999
 30
0.0
 40
1.50663753559437
100
AcDbArc
 50
67.35947900000001
 51
110.544673
  0
ARC
  5
253
330
1F
100
AcDbEntity
  8
1
370
    18
100
AcDbCircle
 10
121.71814
 20
2.387399
 30
0.0
 40
1.622285823081961
100
AcDbArc
 50
69.09363899999999
 51
112.366791
  0
ARC
  5
254
330
1F
100
AcDbEntity
  8
1
370
    18
100
AcDbCircle
 10
121.757965
 20
2.250983999999999
 30
0.0
 40
1.763656145681443
100
AcDbArc
 50
111.876811
 51
152.286363
  0
ARC
  5
255
330
1F
100
AcDbEntity
  8
1
370
    18
100
AcDbCircle
 10
121.724916
 20
2.265671999999999
 30
0.0
 40
1.727569769275918
100
AcDbArc
 50
152.2078699999999
 51
193.112784
  0
ARC
  5
256
330
1F
100
AcDbEntity
  8
1
370
    18
100
AcDbCircle
 10
121.563308
 20
2.218072999999999
 30
0.0
 40
1.559407333354093
100
AcDbArc
 50
192.756614
 51
237.846727
  0
ARC
  5
257
330
1F
100
AcDbEntity
  8
1
370
    18
100
AcDbCircle
 10
90.10510600000001
 20
-1.193424
 30
0.0
 40
1.585784218993425
100
AcDbArc
 50
149.137824
 51
179.506575
  0
ARC
  5
258
330
1F
100
AcDbEntity
  8
1
370
    18
100
AcDbCircle
 10
90.14087700000001
 20
-1.232745999999999
 30
0.0
 40
1.636733362024131
100
AcDbArc
 50
119.126185
 51
148.5985649999999
  0
ARC
  5
259
330
1F
100
AcDbEntity
  8
1
370
    18
100
AcDbCircle
 10
90.432693
 20
-1.875495
 30
0.0
 40
2.340960891164435
100
AcDbArc
 50
76.507592
 51
117.708135
  0
ARC
  5
25A
330
1F
100
AcDbEntity
  8
1
370
    18
100
AcDbCircle
 10
90.393363
 20
-1.676500999999999
 30
0.0
 40
2.216936964594325
100
AcDbArc
 50
89.38662800000001
 51
119.476227
  0
ARC
  5
25B
330
1F
100
AcDbEntity
  8
1
370
    18
100
AcDbCircle
 10
90.17049300000001
 20
-1.251352
 30
0.0
 40
1.73721964605778
100
AcDbArc
 50
119.976821
 51
148.791334
  0
ARC
  5
25C
330
1F
100
AcDbEntity
  8
1
370
    18
100
AcDbCircle
 10
90.143056
 20
-1.209169
 30
0.0
 40
1.692036601428671
100
AcDbArc
 50
149.53166
 51
179.058075
  0
ARC
  5
25D
330
1F
100
AcDbEntity
  8
1
370
    18
100
AcDbCircle
 10
132.499359
 20
9.210079999999999
 30
0.0
 40
2.381085222908061
100
AcDbArc
 50
66.031706
 51
91.18779899999999
  0
ARC
  5
25E
330
1F
100
AcDbEntity
  8
1
370
    18
100
AcDbCircle
 10
133.292803
 20
10.850013
 30
0.0
 40
0.5633225566228398
100
AcDbArc
 50
8.457456
 51
72.026748
  0
ARC
  5
25F
330
1F
100
AcDbEntity
  8
1
370
    18
100
AcDbCircle
 10
142.194597
 20
1.635301
 30
0.0
 40
9.569850025936982
100
AcDbArc
 50
154.366742
 51
165.265839
  0
ARC
  5
260
330
1F
100
AcDbEntity
  8
1
370
    18
100
AcDbCircle
 10
117.107905
 20
13.802104
 30
0.0
 40
18.31169090611477
100
AcDbArc
 50
334.001807
 51
335.797827
  0
ARC
  5
261
330
1F
100
AcDbEntity
  8
1
370
    18
100
AcDbCircle
 10
133.380588
 20
6.503665999999999
 30
0.0
 40
0.4774622538477118
100
AcDbArc
 50
334.096968
 51
349.4639
  0
ARC
  5
262
330
1F
100
AcDbEntity
  8
1
370
    18
100
AcDbCircle
 10
122.249705
 20
-1.326320999999999
 30
0.0
 40
5.229204432041829
100
AcDbArc
 50
78.589883
 51
82.796359
  0
ARC
  5
263
330
1F
100
AcDbEntity
  8
1
370
    18
100
AcDbCircle
 10
122.275894
 20
-1.116726
 30
0.0
 40
5.017979748301218
100
AcDbArc
 50
82.79293100000002
 51
88.328094
  0
ARC
  5
264
330
1F
100
AcDbEntity
  8
1
370
    18
100
AcDbCircle
 10
117.130365
 20
38.021032
 30
0.0
 40
27.01887834271544
100
AcDbArc
 50
281.295
 51
281.643798
  0
ARC
  5
265
330
1F
100
AcDbEntity
  8
1
370
    18
100
AcDbCircle
 10
-232.708806
 20
1735.921475
 30
0.0
 40
1760.585536800019
100
AcDbArc
 50
281.642442
 51
281.649245
  0
ARC
  5
266
330
1F
100
AcDbEntity
  8
1
370
    18
100
AcDbCircle
 10
123.258612
 20
0.577069
 30
0.0
 40
11.03337250250609
100
AcDbArc
 50
91.31163599999998
 51
92.443492
  0
ARC
  5
267
330
1F
100
AcDbEntity
  8
1
370
    18
100
AcDbCircle
 10
123.260292
 20
0.5081760000000001
 30
0.0
 40
11.10228554428806
100
AcDbArc
 50
89.87661199999999
 51
91.312163
  0
ARC
  5
268
330
1F
100
AcDbEntity
  8
1
370
    18
100
AcDbCircle
 10
118.976818
 20
18.709742
 30
0.0
 40
7.505603010760045
100
AcDbArc
 50
265.713335
 51
268.626303
  0
ARC
  5
269
330
1F
100
AcDbEntity
  8
1
370
    18
100
AcDbCircle
 10
118.972995
 20
18.539924
 30
0.0
 40
7.335742185641442
100
AcDbArc
 50
268.624356
 51
272.380589
  0
ARC
  5
26A
330
1F
100
AcDbEntity
  8
1
370
    18
100
AcDbCircle
 10
122.566629
 20
11.715533
 30
0.0
 40
17.79713098673169
100
AcDbArc
 50
258.102594
 51
259.350467
  0
ARC
  5
26B
330
1F
100
AcDbEntity
  8
1
370
    18
100
AcDbCircle
 10
122.767182
 20
12.676369
 30
0.0
 40
18.77867256216612
100
AcDbArc
 50
256.601679
 51
258.108211
  0
ARC
  5
26C
330
1F
100
AcDbEntity
  8
1
370
    18
100
AcDbCircle
 10
134.078923
 20
-366.400378
 30
0.0
 40
381.2295598872201
100
AcDbArc
 50
93.77474300000001
 51
95.593283
  0
ARC
  5
26D
330
1F
100
AcDbEntity
  8
1
370
    18
100
AcDbCircle
 10
85.11037700000001
 20
-13.519324
 30
0.0
 40
28.53485796375034
100
AcDbArc
 50
74.790892
 51
79.29346200000001
  0
ARC
  5
26E
330
1F
100
AcDbEntity
  8
1
370
    18
100
AcDbCircle
 10
113.383486
 20
93.06429300000001
 30
0.0
 40
81.73570454149958
100
AcDbArc
 50
255.266576
 51
258.030898
  0
ARC
  5
26F
330
1F
100
AcDbEntity
  8
1
370
    18
100
AcDbCircle
 10
104.636159
 20
52.67353100000001
 30
0.0
 40
40.40940139680158
100
AcDbArc
 50
258.287184
 51
266.257217
  0
ARC
  5
270
330
1F
100
AcDbEntity
  8
1
370
    18
100
AcDbCircle
 10
4.498307999999999
 20
-1529.155822
 30
0.0
 40
1544.586491768783
100
AcDbArc
 50
86.112365
 51
86.38087199999999
  0
ARC
  5
271
330
1F
100
AcDbEntity
  8
1
370
    18
100
AcDbCircle
 10
0.017072
 20
-1594.916958
 30
0.0
 40
1610.500134707017
100
AcDbArc
 50
85.783997
 51
86.11192700000001
  0
ARC
  5
272
330
1F
100
AcDbEntity
  8
1
370
    18
100
AcDbCircle
 10
123.783717
 20
-5.621849
 30
0.0
 40
2.374752754417718
100
AcDbArc
 50
200.072597
 51
205.403819
  0
ARC
  5
273
330
1F
100
AcDbEntity
  8
1
370
    18
100
AcDbCircle
 10
123.763142
 20
-5.627162999999999
 30
0.0
 40
2.353604018701991
100
AcDbArc
 50
193.673319
 51
200.122996
  0
ARC
  5
274
330
1F
100
AcDbEntity
  8
1
370
    18
100
AcDbCircle
 10
208.76302
 20
4.556497
 30
0.0
 40
75.01212918879099
100
AcDbArc
 50
179.160393
 51
179.349323
  0
ARC
  5
275
330
1F
100
AcDbEntity
  8
1
370
    18
100
AcDbCircle
 10
-249.293251
 20
9.741562
 30
0.0
 40
383.073487962133
100
AcDbArc
 50
359.276076
 51
359.351874
  0
ARC
  5
276
330
1F
100
AcDbEntity
  8
1
370
    18
100
AcDbCircle
 10
132.519118
 20
9.427928999999998
 30
0.0
 40
2.176415104009619
100
AcDbArc
 50
64.05546300000001
 51
91.813643
  0
ARC
  5
277
330
1F
100
AcDbEntity
  8
1
370
    18
100
AcDbCircle
 10
123.480508
 20
0.554009
 30
0.0
 40
11.07078438133662
100
AcDbArc
 50
91.04751400000001
 51
92.10525999999999
  0
ARC
  5
278
330
1F
100
AcDbEntity
  8
1
370
    18
100
AcDbCircle
 10
123.492819
 20
0.203014
 30
0.0
 40
11.42199481883097
100
AcDbArc
 50
92.10229400000001
 51
93.412251
  0
ARC
  5
279
330
1F
100
AcDbEntity
  8
1
370
    18
100
AcDbCircle
 10
126.632723
 20
-6.094416
 30
0.0
 40
1.666355642735043
100
AcDbArc
 50
284.458161
 51
319.14302
  0
ARC
  5
27A
330
1F
100
AcDbEntity
  8
1
370
    18
100
AcDbCircle
 10
126.366959
 20
-5.175966
 30
0.0
 40
2.622222259189879
100
AcDbArc
 50
256.576778
 51
285.07076
  0
ARC
  5
27B
330
1F
100
AcDbEntity
  8
1
370
    18
100
AcDbCircle
 10
125.822841
 20
-7.040273
 30
0.0
 40
0.6893162683632414
100
AcDbArc
 50
209.86727
 51
264.6216569999999
  0
ARC
  5
27C
330
1F
100
AcDbEntity
  8
1
370
    18
100
AcDbCircle
 10
125.386647
 20
-7.53036
 30
0.0
 40
0.2144920090490625
100
AcDbArc
 50
141.481924
 51
225.02867
  0
ARC
  5
27D
330
1F
100
AcDbEntity
  8
1
370
    18
100
AcDbCircle
 10
125.896321
 20
-6.956596
 30
0.0
 40
0.9816498028772128
100
AcDbArc
 50
227.652312
 51
266.539859
  0
ARC
  5
27E
330
1F
100
AcDbEntity
  8
1
370
    18
100
AcDbCircle
 10
126.272406
 20
-5.194899999999999
 30
0.0
 40
2.775905154397326
100
AcDbArc
 50
260.977337
 51
281.298826
  0
ARC
  5
27F
330
1F
100
AcDbEntity
  8
1
370
    18
100
AcDbCircle
 10
126.501716
 20
-6.010151
 30
0.0
 40
1.932624502801845
100
AcDbArc
 50
279.367385
 51
322.23624
  0
ARC
  5
280
330
1F
100
AcDbEntity
  8
1
370
    18
100
AcDbCircle
 10
121.805445
 20
-19.303998
 30
0.0
 40
11.29433452175631
100
AcDbArc
 50
68.55045699999999
 51
80.79535899999999
  0
ARC
  5
281
330
1F
100
AcDbEntity
  8
1
370
    18
100
AcDbCircle
 10
125.379191
 20
3.253427999999999
 30
0.0
 40
11.54450463498697
100
AcDbArc
 50
259.682143
 51
261.195391
  0
ARC
  5
282
330
1F
100
AcDbEntity
  8
1
370
    18
100
AcDbCircle
 10
124.444904
 20
-1.816615
 30
0.0
 40
6.389118934752596
100
AcDbArc
 50
256.520415
 51
259.781588
  0
ARC
  5
283
330
1F
100
AcDbEntity
  8
1
370
    18
100
AcDbCircle
 10
119.678775
 20
-20.897076
 30
0.0
 40
12.96088966861427
100
AcDbArc
 50
63.033836
 51
74.047149
  0
ARC
  5
284
330
1F
100
AcDbEntity
  8
1
370
    18
100
AcDbCircle
 10
124.759488
 20
-11.233283
 30
0.0
 40
2.049091133129399
100
AcDbArc
 50
31.89956
 51
67.12320699999999
  0
ARC
  5
285
330
1F
100
AcDbEntity
  8
1
370
    18
100
AcDbCircle
 10
125.793129
 20
-10.517057
 30
0.0
 40
0.7954866555700944
100
AcDbArc
 50
342.180779
 51
27.440216
  0
ARC
  5
286
330
1F
100
AcDbEntity
  8
1
370
    18
100
AcDbCircle
 10
125.495191
 20
-10.378072
 30
0.0
 40
1.12241706678531
100
AcDbArc
 50
308.262894
 51
340.080051
  0
ARC
  5
287
330
1F
100
AcDbEntity
  8
1
370
    18
100
AcDbCircle
 10
125.532688
 20
-10.522907
 30
0.0
 40
1.570853487697043
100
AcDbArc
 50
329.819837
 51
0.8568989999999999
  0
ARC
  5
288
330
1F
100
AcDbEntity
  8
1
370
    18
100
AcDbCircle
 10
125.44687
 20
-10.551167
 30
0.0
 40
1.65730392577884
100
AcDbArc
 50
1.789455
 51
35.73054600000001
  0
ARC
  5
289
330
1F
100
AcDbEntity
  8
1
370
    18
100
AcDbCircle
 10
124.382485
 20
-11.332319
 30
0.0
 40
2.977541440505556
100
AcDbArc
 50
35.97192800000001
 51
58.560252
  0
ARC
  5
28A
330
1F
100
AcDbEntity
  8
1
370
    18
100
AcDbCircle
 10
119.447057
 20
-7.218580999999999
 30
0.0
 40
7.679342421065577
100
AcDbArc
 50
293.056193
 51
313.343484
  0
ARC
  5
28B
330
1F
100
AcDbEntity
  8
1
370
    18
100
AcDbCircle
 10
119.431295
 20
-6.652433
 30
0.0
 40
8.618541147553619
100
AcDbArc
 50
296.547042
 51
307.946133
  0
ARC
  5
28C
330
1F
100
AcDbEntity
  8
1
370
    18
100
AcDbCircle
 10
115.763774
 20
-1.973715999999999
 30
0.0
 40
14.56336827545704
100
AcDbArc
 50
308.005653
 51
318.246989
  0
ARC
  5
28D
330
1F
100
AcDbEntity
  8
1
370
    18
100
AcDbCircle
 10
122.821022
 20
-9.894576999999999
 30
0.0
 40
4.493521626727816
100
AcDbArc
 50
273.225039
 51
275.838403
  0
ARC
  5
28E
330
1F
100
AcDbEntity
  8
1
370
    18
100
AcDbCircle
 10
122.819963
 20
-9.883389999999998
 30
0.0
 40
4.504750679669728
100
AcDbArc
 50
269.911232
 51
273.23048
  0
ARC
  5
28F
330
1F
100
AcDbEntity
  8
1
370
    18
100
AcDbCircle
 10
126.383336
 20
15.755791
 30
0.0
 40
30.2962992326438
100
AcDbArc
 50
260.596545
 51
262.548208
  0
ARC
  5
290
330
1F
100
AcDbEntity
  8
1
370
    18
100
AcDbCircle
 10
126.419112
 20
15.977689
 30
0.0
 40
30.52106140517612
100
AcDbArc
 50
258.119938
 51
260.598346
  0
ARC
  5
291
330
1F
100
AcDbEntity
  8
1
370
    18
100
AcDbCircle
 10
132.189448
 20
-12.916513
 30
0.0
 40
1.581099203999388
100
AcDbArc
 50
325.47397
 51
0.398414
  0
ARC
  5
292
330
1F
100
AcDbEntity
  8
1
370
    18
100
AcDbCircle
 10
132.434689
 20
-13.099471
 30
0.0
 40
1.275409873039504
100
AcDbArc
 50
270.698468
 51
326.001144
  0
ARC
  5
293
330
1F
100
AcDbEntity
  8
1
370
    18
100
AcDbCircle
 10
132.442509
 20
-13.111621
 30
0.0
 40
1.329690913802973
100
AcDbArc
 50
270.32277
 51
314.292558
  0
ARC
  5
294
330
1F
100
AcDbEntity
  8
1
370
    18
100
AcDbCircle
 10
132.235858
 20
-12.915731
 30
0.0
 40
1.614253111593335
100
AcDbArc
 50
314.687354
 51
0.6734130000000001
  0
ARC
  5
295
330
1F
100
AcDbEntity
  8
1
370
    18
100
AcDbCircle
 10
123.289411
 20
-9.884739999999998
 30
0.0
 40
4.546521311355967
100
AcDbArc
 50
263.671007
 51
266.426793
  0
ARC
  5
296
330
1F
100
AcDbEntity
  8
1
370
    18
100
AcDbCircle
 10
123.289181
 20
-9.888491
 30
0.0
 40
4.542764185844766
100
AcDbArc
 50
266.42673
 51
269.93718
  0
ARC
  5
297
330
1F
100
AcDbEntity
  8
1
370
    18
100
AcDbCircle
 10
118.208459
 20
-18.796169
 30
0.0
 40
5.106197639525586
100
AcDbArc
 50
83.382676
 51
87.67282900000001
  0
ARC
  5
298
330
1F
100
AcDbEntity
  8
1
370
    18
100
AcDbCircle
 10
118.20205
 20
-18.851625
 30
0.0
 40
5.162023000799151
100
AcDbArc
 50
77.972701
 51
83.38295200000001
  0
ARC
  5
299
330
1F
100
AcDbEntity
  8
1
370
    18
100
AcDbCircle
 10
122.869204
 20
-10.974259
 30
0.0
 40
3.429892625641154
100
AcDbArc
 50
262.51322
 51
265.22174
  0
ARC
  5
29A
330
1F
100
AcDbEntity
  8
1
370
    18
100
AcDbCircle
 10
122.888167
 20
-10.747351
 30
0.0
 40
3.657591659497131
100
AcDbArc
 50
265.221799
 51
268.434262
  0
ARC
  5
29B
330
1F
100
AcDbEntity
  8
1
370
    18
100
AcDbCircle
 10
126.405187
 20
15.864419
 30
0.0
 40
30.500226795427
100
AcDbArc
 50
258.094814
 51
260.035947
  0
ARC
  5
29C
330
1F
100
AcDbEntity
  8
1
370
    18
100
AcDbCircle
 10
126.421856
 20
15.932509
 30
0.0
 40
30.57017475091006
100
AcDbArc
 50
260.0272589999999
 51
262.48232
  0
ARC
  5
29D
330
1F
100
AcDbEntity
  8
1
370
    18
100
AcDbCircle
 10
134.75865
 20
-376.57584
 30
0.0
 40
391.4069462760153
100
AcDbArc
 50
94.088411
 51
95.536889
  0
ARC
  5
29E
330
1F
100
AcDbEntity
  8
1
370
    18
100
AcDbCircle
 10
128.642936
 20
-287.80911
 30
0.0
 40
302.4301704849991
100
AcDbArc
 50
91.940956
 51
94.13170799999999
  0
ARC
  5
29F
330
1F
100
AcDbEntity
  8
1
370
    18
100
AcDbCircle
 10
133.472815
 20
15.685121
 30
0.0
 40
12.02876767231724
100
AcDbArc
 50
187.724931
 51
190.318549
  0
ARC
  5
2A0
330
1F
100
AcDbEntity
  8
1
370
    18
100
AcDbCircle
 10
135.759759
 20
15.99973
 30
0.0
 40
14.33724685716187
100
AcDbArc
 50
184.961845
 51
187.742314
  0
ARC
  5
2A1
330
1F
100
AcDbEntity
  8
1
370
    18
100
AcDbCircle
 10
118.232182
 20
20.097739
 30
0.0
 40
5.62722817655791
100
AcDbArc
 50
276.7908339999999
 51
280.707566
  0
ARC
  5
2A2
330
1F
100
AcDbEntity
  8
1
370
    18
100
AcDbCircle
 10
118.225824
 20
20.152259
 30
0.0
 40
5.682116744827047
100
AcDbArc
 50
271.915973
 51
276.78949
  0
ARC
  5
2A3
330
1F
100
AcDbEntity
  8
1
370
    18
100
AcDbCircle
 10
122.666071
 20
12.273027
 30
0.0
 40
0.7619435481687868
100
AcDbArc
 50
195.462486
 51
252.4571180000001
  0
ARC
  5
2A4
330
1F
100
AcDbEntity
  8
1
370
    18
100
AcDbCircle
 10
122.958917
 20
12.449473
 30
0.0
 40
0.8788460118277832
100
AcDbArc
 50
202.083087
 51
248.494398
  0
ARC
  5
2A5
330
1F
100
AcDbEntity
  8
1
370
    18
100
AcDbCircle
 10
128.606122
 20
27.302662
 30
0.0
 40
15.79772412877509
100
AcDbArc
 50
253.669898
 51
254.820514
  0
ARC
  5
2A6
330
1F
100
AcDbEntity
  8
1
370
    18
100
AcDbCircle
 10
131.107972
 20
35.827058
 30
0.0
 40
24.68167365439311
100
AcDbArc
 50
252.835595
 51
253.660363
  0
ARC
  5
2A7
330
1F
100
AcDbEntity
  8
1
370
    18
100
AcDbCircle
 10
134.284131
 20
10.668353
 30
0.0
 40
0.5488565698658005
100
AcDbArc
 50
296.549801
 51
348.719837
  0
ARC
  5
2A8
330
1F
100
AcDbEntity
  8
1
370
    18
100
AcDbCircle
 10
134.053862
 20
10.669475
 30
0.0
 40
0.811760758281582
100
AcDbArc
 50
268.170185
 51
310.677256
  0
ARC
  5
2A9
330
1F
100
AcDbEntity
  8
1
370
    18
100
AcDbCircle
 10
134.113558
 20
10.781194
 30
0.0
 40
0.5826602992318505
100
AcDbArc
 50
264.459104
 51
310.557567
  0
ARC
  5
2AA
330
1F
100
AcDbEntity
  8
1
370
    18
100
AcDbCircle
 10
120.845511
 20
1263.71769
 30
0.0
 40
1247.792153716513
100
AcDbArc
 50
270.081502
 51
270.312456
  0
ARC
  5
2AB
330
1F
100
AcDbEntity
  8
1
370
    18
100
AcDbCircle
 10
253.39068
 20
-19851.583472
 30
0.0
 40
19867.92546145568
100
AcDbArc
 50
90.34428400000001
 51
90.362617
  0
ARC
  5
2AC
330
1F
100
AcDbEntity
  8
1
370
    18
100
AcDbCircle
 10
133.886934
 20
14.919118
 30
0.0
 40
0.9290070410176786
100
AcDbArc
 50
11.73339
 51
61.264513
  0
ARC
  5
2AD
330
1F
100
AcDbEntity
  8
1
370
    18
100
AcDbCircle
 10
134.218817
 20
15.197062
 30
0.0
 40
0.7988734279309997
100
AcDbArc
 50
359.968865
 51
49.132236
  0
ARC
  5
2AE
330
1F
100
AcDbEntity
  8
1
370
    18
100
AcDbCircle
 10
133.835713
 20
14.58265
 30
0.0
 40
1.028576521906335
100
AcDbArc
 50
193.447955
 51
202.04289
  0
ARC
  5
2AF
330
1F
100
AcDbEntity
  8
1
370
    18
100
AcDbCircle
 10
133.627053
 20
14.494481
 30
0.0
 40
0.8020864479792933
100
AcDbArc
 50
201.79902
 51
214.688452
  0
ARC
  5
2B0
330
1F
100
AcDbEntity
  8
1
370
    18
100
AcDbCircle
 10
122.620597
 20
15.110498
 30
0.0
 40
0.8125579660837535
100
AcDbArc
 50
126.218882
 51
168.252297
  0
ARC
  5
2B1
330
1F
100
AcDbEntity
  8
1
370
    18
100
AcDbCircle
 10
122.616125
 20
15.150421
 30
0.0
 40
0.6071460419556197
100
AcDbArc
 50
90.021993
 51
137.558241
  0
ARC
  5
2B2
330
1F
100
AcDbEntity
  8
1
370
    18
100
AcDbCircle
 10
128.72701
 20
-115.151764
 30
0.0
 40
117.1229835880312
100
AcDbArc
 50
88.93675400000001
 51
93.328796
  0
ARC
  5
2B3
330
1F
100
AcDbEntity
  8
1
370
    18
100
AcDbCircle
 10
127.303735
 20
110.470816
 30
0.0
 40
117.1234128528378
100
AcDbArc
 50
268.936786
 51
273.328789
  0
ARC
  5
2B4
330
1F
100
AcDbEntity
  8
1
370
    18
100
AcDbCircle
 10
119.421444
 20
30.154628
 30
0.0
 40
28.49122486980485
100
AcDbArc
 50
273.824473
 51
275.031491
  0
ARC
  5
2B5
330
1F
100
AcDbEntity
  8
1
370
    18
100
AcDbCircle
 10
132.831217
 20
10.215742
 30
0.0
 40
8.391737878881418
100
AcDbArc
 50
274.216163
 51
278.266554
  0
ARC
  5
2B6
330
1F
100
AcDbEntity
  8
1
370
    18
100
AcDbCircle
 10
134.089656
 20
-4.804472
 30
0.0
 40
1.650228209363493
100
AcDbArc
 50
270.725054
 51
296.594568
  0
ARC
  5
2B7
330
1F
100
AcDbEntity
  8
1
370
    18
100
AcDbCircle
 10
132.590536
 20
65.573166
 30
0.0
 40
63.22770374350334
100
AcDbArc
 50
260.375309
 51
266.180887
  0
ARC
  5
2B8
330
1F
100
AcDbEntity
  8
1
370
    18
100
AcDbCircle
 10
121.246863
 20
2.987449
 30
0.0
 40
0.2577803010259846
100
AcDbArc
 50
93.660823
 51
160.835535
  0
ARC
  5
2B9
330
1F
100
AcDbEntity
  8
1
370
    18
100
AcDbCircle
 10
122.31636
 20
-4.631916
 30
0.0
 40
1.914739647333469
100
AcDbArc
 50
256.408994
 51
277.992154
  0
ARC
  5
2BA
330
1F
100
AcDbEntity
  8
1
370
    18
100
AcDbCircle
 10
133.325642
 20
-1.885572999999999
 30
0.0
 40
4.200046279656975
100
AcDbArc
 50
82.300698
 51
88.28412400000001
  0
ARC
  5
2BB
330
1F
100
AcDbEntity
  8
1
370
    18
100
AcDbCircle
 10
132.620105
 20
-6.514431
 30
0.0
 40
8.882049230418903
100
AcDbArc
 50
79.75842800000001
 51
81.79089300000001
  0
ARC
  5
2BC
330
1F
100
AcDbEntity
  8
1
370
    18
100
AcDbCircle
 10
123.249932
 20
-77.38324300000001
 30
0.0
 40
70.37689032246541
100
AcDbArc
 50
81.20777399999999
 51
86.415302
  0
ARC
  5
2BD
330
1F
100
AcDbEntity
  8
1
370
    18
100
AcDbCircle
 10
134.377039
 20
-6.914969999999999
 30
0.0
 40
0.9612948381187473
100
AcDbArc
 50
262.242678
 51
295.763793
  0
ARC
  5
2BE
330
1F
100
AcDbEntity
  8
1
370
    18
100
AcDbCircle
 10
134.656824
 20
-7.445746
 30
0.0
 40
0.3622937653610054
100
AcDbArc
 50
292.398954
 51
354.911838
  0
ARC
  5
2BF
330
1F
100
AcDbEntity
  8
1
370
    18
100
AcDbCircle
 10
122.309753
 20
-6.23068
 30
0.0
 40
0.6932553421383254
100
AcDbArc
 50
225.640676
 51
255.867126
  0
ARC
  5
2C0
330
1F
100
AcDbEntity
  8
1
370
    18
100
AcDbCircle
 10
133.518206
 20
3.985366999999999
 30
0.0
 40
0.9507121337618698
100
AcDbArc
 50
73.312951
 51
107.075773
  0
ARC
  5
2C1
330
1F
100
AcDbEntity
  8
1
370
    18
100
AcDbCircle
 10
133.709401
 20
4.551930999999999
 30
0.0
 40
0.3536992371953584
100
AcDbArc
 50
13.177366
 51
76.62871199999999
  0
ARC
  5
2C2
330
1F
100
AcDbEntity
  8
1
370
    18
100
AcDbCircle
 10
133.363798
 20
4.135074999999999
 30
0.0
 40
0.6350312701708952
100
AcDbArc
 50
41.18584600000001
 51
91.77190999999998
  0
ARC
  5
2C3
330
1F
100
AcDbEntity
  8
1
370
    18
100
AcDbCircle
 10
122.165246
 20
-7.892275999999999
 30
0.0
 40
0.2699237868779748
100
AcDbArc
 50
210.093804
 51
275.202359
  0
ARC
  5
2C4
330
1F
100
AcDbEntity
  8
CUT
370
    18
100
AcDbCircle
 10
141.525887
 20
-16.106059
 30
0.0
 40
19.96177476224699
100
AcDbArc
 50
169.207685
 51
170.385466
  0
ARC
  5
2C5
330
1F
100
AcDbEntity
  8
CUT
370
    18
100
AcDbCircle
 10
151.844127
 20
-17.858703
 30
0.0
 40
30.42780669323688
100
AcDbArc
 50
170.376644
 51
171.360039
  0
ARC
  5
2C6
330
1F
100
AcDbEntity
  8
CUT
370
    18
100
AcDbCircle
 10
117.754387
 20
7140.626956
 30
0.0
 40
7124.661142396412
100
AcDbArc
 50
270.090415
 51
270.130709
  0
ARC
  5
2C7
330
1F
100
AcDbEntity
  8
CUT
370
    18
100
AcDbCircle
 10
115.414084
 20
8968.082235
 30
0.0
 40
8952.117855150662
100
AcDbArc
 50
270.046123
 51
270.086937
  0
ARC
  5
2C8
330
1F
100
AcDbEntity
  8
CUT
370
    18
100
AcDbCircle
 10
136.21521
 20
-65.549762
 30
0.0
 40
55.42734038634008
100
AcDbArc
 50
97.32431600000001
 51
103.825868
  0
ARC
  5
2C9
330
1F
100
AcDbEntity
  8
CUT
370
    18
100
AcDbCircle
 10
134.24203
 20
15.213235
 30
0.0
 40
0.7712403173357783
100
AcDbArc
 50
38.796276
 51
89.60956999999998
  0
ARC
  5
2CA
330
1F
100
AcDbEntity
  8
CUT
370
    18
100
AcDbCircle
 10
122.929054
 20
13.131915
 30
0.0
 40
1.361816192467171
100
AcDbArc
 50
229.274243
 51
262.011908
  0
ARC
  5
2CB
330
1F
100
AcDbEntity
  8
CUT
370
    18
100
AcDbCircle
 10
122.62318
 20
15.166484
 30
0.0
 40
0.8008707110682793
100
AcDbArc
 50
94.38630999999999
 51
112.37205
  0
ARC
  5
2CC
330
1F
100
AcDbEntity
  8
CUT
370
    18
100
AcDbCircle
 10
122.628544
 20
15.147895
 30
0.0
 40
0.8201049404944246
100
AcDbArc
 50
112.224278
 51
168.44538
  0
ARC
  5
2CD
330
1F
100
AcDbEntity
  8
CUT
370
    18
100
AcDbCircle
 10
134.163104
 20
-4.664928999999999
 30
0.0
 40
20.64955746639934
100
AcDbArc
 50
89.766425
 51
90.05869999999999
  0
ARC
  5
2CE
330
1F
100
AcDbEntity
  8
CUT
370
    18
100
AcDbCircle
 10
134.228461
 20
-62.309702
 30
0.0
 40
78.2943679515097
100
AcDbArc
 50
90.06331000000001
 51
90.16141899999999
  0
ARC
  5
2CF
330
1F
100
AcDbEntity
  8
CUT
370
    18
100
AcDbCircle
 10
134.160649
 20
-10.886349
 30
0.0
 40
0.7969236661785582
100
AcDbArc
 50
56.154717
 51
93.94014399999999
  0
ARC
  5
2D0
330
1F
100
AcDbEntity
  8
CUT
370
    18
100
AcDbCircle
 10
121.158641
 20
4.755507999999999
 30
0.0
 40
7.203689636673451
100
AcDbArc
 50
76.079854
 51
76.90684
  0
ARC
  5
2D1
330
1F
100
AcDbEntity
  8
CUT
370
    18
100
AcDbCircle
 10
153.829761
 20
18.172476
 30
0.0
 40
32.43804523531202
100
AcDbArc
 50
188.661017
 51
189.385801
  0
ARC
  5
2D2
330
1F
100
AcDbEntity
  8
CUT
370
    18
100
AcDbCircle
 10
143.04279
 20
16.380796
 30
0.0
 40
21.50329604910157
100
AcDbArc
 50
189.363047
 51
190.75458
  0
ARC
  5
2D3
330
1F
100
AcDbEntity
  8
CUT
370
    18
100
AcDbCircle
 10
-312.393255
 20
-27.089938
 30
0.0
 40
434.3508416015438
100
AcDbArc
 50
1.723629
 51
1.783052
  0
ARC
  5
2D4
330
1F
100
AcDbEntity
  8
CUT
370
    18
100
AcDbCircle
 10
-411.78163
 20
-30.080653
 30
0.0
 40
533.7842031505137
100
AcDbArc
 50
1.662077999999999
 51
1.723618999999999
  0
ARC
  5
2D5
330
1F
100
AcDbEntity
  8
CUT
370
    18
100
AcDbCircle
 10
136.167582
 20
65.32675600000001
 30
0.0
 40
55.19941472688592
100
AcDbArc
 50
256.16682
 51
261.296162
  0
ARC
  5
2D6
330
1F
100
AcDbEntity
  8
CUT
370
    18
100
AcDbCircle
 10
139.422667
 20
89.630197
 30
0.0
 40
79.71688199302779
100
AcDbArc
 50
261.626906
 51
266.146252
  0
ARC
  5
2D7
330
1F
100
AcDbEntity
  8
CUT
370
    18
100
AcDbCircle
 10
114.658056
 20
-9693.118751
 30
0.0
 40
9677.15474649078
100
AcDbArc
 50
89.92319100000001
 51
89.952857
  0
ARC
  5
2D8
330
1F
100
AcDbEntity
  8
CUT
370
    18
100
AcDbCircle
 10
118.407866
 20
-6807.739854000001
 30
0.0
 40
6791.773416001031
100
AcDbArc
 50
89.868397
 51
89.92219399999999
  0
ARC
  5
2D9
330
1F
100
AcDbEntity
  8
CUT
370
    18
100
AcDbCircle
 10
-83510.191003
 20
7012.619639
 30
0.0
 40
83937.56944695603
100
AcDbArc
 50
355.215335
 51
355.215765
  0
ARC
  5
2DA
330
1F
100
AcDbEntity
  8
CUT
370
    18
100
AcDbCircle
 10
-99209.89693200001
 20
8326.609933
 30
0.0
 40
99692.16676769752
100
AcDbArc
 50
355.215765
 51
355.216226
  0
ARC
  5
2DB
330
1F
100
AcDbEntity
  8
CUT
370
    18
100
AcDbCircle
 10
134.215051
 20
-15.195517
 30
0.0
 40
0.8026406807273909
100
AcDbArc
 50
311.001518
 51
359.875238
  0
ARC
  5
2DC
330
1F
100
AcDbEntity
  8
CUT
370
    18
100
AcDbCircle
 10
134.271043
 20
10.67776
 30
0.0
 40
0.5630272626863377
100
AcDbArc
 50
294.902736
 51
348.306035
  0
ARC
  5
2DD
330
1F
100
AcDbEntity
  8
CUT
370
    18
100
AcDbCircle
 10
123.020853
 20
-13.371873
 30
0.0
 40
1.613229996889381
100
AcDbArc
 50
100.03294
 51
124.302687
  0
ARC
  5
2DE
330
1F
100
AcDbEntity
  8
CUT
370
    18
100
AcDbCircle
 10
122.339508
 20
-12.393872
 30
0.0
 40
0.4215100313015937
100
AcDbArc
 50
122.7158
 51
165.347891
  0
ARC
  5
2DF
330
1F
100
AcDbEntity
  8
CUT
370
    18
100
AcDbCircle
 10
-429.748621
 20
30.608702
 30
0.0
 40
551.7589510927709
100
AcDbArc
 50
358.290448
 51
358.337226
  0
ARC
  5
2E0
330
1F
100
AcDbEntity
  8
CUT
370
    18
100
AcDbCircle
 10
-327.9428
 20
27.566819
 30
0.0
 40
449.9076953876141
100
AcDbArc
 50
358.217862
 51
358.290876
  0
ARC
  5
2E1
330
1F
100
AcDbEntity
  8
CUT
370
    18
100
AcDbCircle
 10
122.62804
 20
-15.148581
 30
0.0
 40
0.8192793365142698
100
AcDbArc
 50
219.607422
 51
261.834496
  0
ARC
  5
2E2
330
1F
100
AcDbEntity
  8
CUT
370
    18
100
AcDbCircle
 10
134.379599
 20
130.353803
 30
0.0
 40
146.3386306847234
100
AcDbArc
 50
269.854463
 51
269.895705
  0
ARC
  5
2E3
330
1F
100
AcDbEntity
  8
CUT
370
    18
100
AcDbCircle
 10
134.157882
 20
7.540642
 30
0.0
 40
23.52526957367875
100
AcDbArc
 50
269.891227
 51
270.217743
  0
ARC
  5
2E4
330
1F
100
AcDbEntity
  8
CUT
370
    18
100
AcDbCircle
 10
-102051.847507
 20
-8564.452682
 30
0.0
 40
102544.0525026939
100
AcDbArc
 50
4.783777999999999
 51
4.78413
  0
ARC
  5
2E5
330
1F
100
AcDbEntity
  8
CUT
370
    18
100
AcDbCircle
 10
-85967.979049
 20
-7218.335181
 30
0.0
 40
86403.9516069473
100
AcDbArc
 50
4.784127999999999
 51
4.784659999999999
  0
ARC
  5
2E6
330
1F
100
AcDbEntity
  8
CUT
370
    18
100
AcDbCircle
 10
121.598308
 20
-6.594717
 30
0.0
 40
5.31267748409395
100
AcDbArc
 50
282.407491
 51
283.834639
  0
ARC
  5
2E7
330
1F
100
AcDbEntity
  8
1
370
    13
100
AcDbCircle
 10
46.0
 20
-15.5975
 30
0.0
 40
1.0
100
AcDbArc
 50
90.0
 51
180.0
  0
ARC
  5
2E8
330
1F
100
AcDbEntity
  8
1
370
    13
100
AcDbCircle
 10
46.0
 20
15.5975
 30
0.0
 40
1.0
100
AcDbArc
 50
180.0
 51
270.0
  0
ARC
  5
2E9
330
1F
100
AcDbEntity
  8
1
370
    13
100
AcDbCircle
 10
132.45
 20
-13.8975
 30
0.0
 40
1.399999999999999
100
AcDbArc
 50
270.0
 51
0.0
  0
ARC
  5
2EA
330
1F
100
AcDbEntity
  8
1
370
    13
100
AcDbCircle
 10
123.284201
 20
-10.2975
 30
0.0
 40
5.0
100
AcDbArc
 50
260.073754
 51
270.0
  0
ARC
  5
2EB
330
1F
100
AcDbEntity
  8
1
370
    13
100
AcDbCircle
 10
118.415799
 20
-19.5975
 30
0.0
 40
5.0
100
AcDbArc
 50
80.073754
 51
90.0
  0
ARC
  5
2EC
330
1F
100
AcDbEntity
  8
NOCUT
370
    18
100
AcDbCircle
 10
133.85
 20
-4.987499999999999
 30
0.0
 40
2.0
100
AcDbArc
 50
180.0
 51
210.0
  0
ARC
  5
2ED
330
1F
100
AcDbEntity
  8
NOCUT
370
    18
100
AcDbCircle
 10
118.415799
 20
-19.5975
 30
0.0
 40
5.0
100
AcDbArc
 50
80.073754
 51
90.0
  0
ARC
  5
2EE
330
1F
100
AcDbEntity
  8
NOCUT
370
    18
100
AcDbCircle
 10
46.0
 20
15.5975
 30
0.0
 40
1.0
100
AcDbArc
 50
180.0
 51
270.0
  0
ARC
  5
2EF
330
1F
100
AcDbEntity
  8
NOCUT
370
    18
100
AcDbCircle
 10
132.45
 20
13.8975
 30
0.0
 40
1.399999999999999
100
AcDbArc
 50
0.0
 51
90.0
  0
ARC
  5
2F0
330
1F
100
AcDbEntity
  8
NOCUT
370
    18
100
AcDbCircle
 10
131.85
 20
9.523398
 30
0.0
 40
2.0
100
AcDbArc
 50
330.0
 51
0.0
  0
ARC
  5
2F1
330
1F
100
AcDbEntity
  8
NOCUT
370
    18
100
AcDbCircle
 10
133.85
 20
4.987499999999999
 30
0.0
 40
2.0
100
AcDbArc
 50
150.0
 51
180.0
  0
ARC
  5
2F2
330
1F
100
AcDbEntity
  8
NOCUT
370
    18
100
AcDbCircle
 10
123.284201
 20
-10.2975
 30
0.0
 40
5.0
100
AcDbArc
 50
260.073754
 51
270.0
  0
ARC
  5
2F3
330
1F
100
AcDbEntity
  8
NOCUT
370
    18
100
AcDbCircle
 10
46.0
 20
-15.5975
 30
0.0
 40
1.0
100
AcDbArc
 50
90.0
 51
180.0
  0
ARC
  5
2F4
330
1F
100
AcDbEntity
  8
NOCUT
370
    18
100
AcDbCircle
 10
118.415799
 20
19.5975
 30
0.0
 40
5.0
100
AcDbArc
 50
270.0
 51
279.926246
  0
ARC
  5
2F5
330
1F
100
AcDbEntity
  8
NOCUT
370
    18
100
AcDbCircle
 10
132.45
 20
-13.8975
 30
0.0
 40
1.399999999999999
100
AcDbArc
 50
270.0
 51
0.0
  0
ARC
  5
2F6
330
1F
100
AcDbEntity
  8
NOCUT
370
    18
100
AcDbCircle
 10
131.85
 20
-9.523398
 30
0.0
 40
2.0
100
AcDbArc
 50
0.0
 51
30.0
  0
ARC
  5
2F7
330
1F
100
AcDbEntity
  8
NOCUT
370
    18
100
AcDbCircle
 10
123.284201
 20
10.2975
 30
0.0
 40
5.0
100
AcDbArc
 50
90.0
 51
99.92624599999999
  0
MTEXT
  5
2F8
102
{ACAD_REACTORS
330
3A0
102
}
330
1F
100
AcDbEntity
  8
2
370
    18
100
AcDbMText
 10
145.13809
 20
-6.063824999999999
 30
0.0
 40
2.5
 41
0.0
 46
0.0
 71
     7
 72
     5
  1
\fArial|b1|i0;%%c
  7
Arial
 11
0.0000000000000007
 21
1.0
 31
0.0
 73
     2
 44
1.047437
  0
MTEXT
  5
2FA
102
{ACAD_REACTORS
330
3A0
102
}
330
1F
100
AcDbEntity
  8
2
370
    18
100
AcDbMText
 10
145.112511
 20
-2.714490999999999
 30
0.0
 40
2.5
 41
0.0
 46
0.0
 71
     7
 72
     5
  1
\fArial|b1|i0;\W1.0000;31,98
  7
Arial
 11
0.0000000000000007
 21
1.0
 31
0.0
 73
     2
 44
1.047437
  0
LINE
  5
2FB
102
{ACAD_REACTORS
330
2FE
102
}
330
1F
100
AcDbEntity
  8
2
 60
     1
370
    18
100
AcDbLine
 10
145.964523
 20
15.9875
 30
0.0
 11
146.40534
 21
13.487502
 31
0.0
  0
LINE
  5
2FC
102
{ACAD_REACTORS
330
2FE
102
}
330
1F
100
AcDbEntity
  8
2
 60
     1
370
    18
100
AcDbLine
 10
146.40534
 20
13.487502
 30
0.0
 11
145.523706
 21
13.487498
 31
0.0
  0
LINE
  5
2FD
102
{ACAD_REACTORS
330
2FE
102
}
330
1F
100
AcDbEntity
  8
2
 60
     1
370
    18
100
AcDbLine
 10
145.523706
 20
13.487498
 30
0.0
 11
145.964523
 21
15.9875
 31
0.0
  0
HATCH
  5
2FE
102
{ACAD_REACTORS
330
3A0
102
}
330
1F
100
AcDbEntity
  8
2
370
    13
100
AcDbHatch
 10
0.0
 20
0.0
 30
0.0
210
0.0
220
0.0
230
1.0
  2
ANSI31
 70
     0
 71
     1
 91
        1
 92
        0
 93
        3
 72
     1
 10
145.9645230185097
 20
15.98749999999993
 11
146.4053404702775
 21
13.48750161921284
 72
     1
 10
146.4053404702775
 20
13.48750161921284
 11
145.523705566742
 21
13.48749838078701
 72
     1
 10
145.523705566742
 20
13.48749838078701
 11
145.9645230185097
 21
15.98749999999993
 97
        3
330
2FB
330
2FC
330
2FD
 75
     0
 76
     1
 52
0.0
 41
0.0062
 77
     0
 78
     1
 53
44.99999999999996
 43
0.0
 44
0.0
 45
-0.0139193969876572
 46
0.0139193969876572
 79
     0
 98
        0
  0
MTEXT
  5
2FF
330
1F
100
AcDbEntity
  8
SK6
370
    13
100
AcDbMText
 10
-59.8675
 20
65.359904
 30
0.0
 40
2.5
 41
0.0
 46
0.0
 71
     7
 72
     5
  1
\fArial|b0|i0;\W1.0000;32A3R090A32-SLN12X-C
  7
Arial
 73
     2
 44
1.047437
  0
DIMENSION
  5
301
102
{ACAD_XDICTIONARY
360
302
102
}
102
{ACAD_REACTORS
330
303
102
}
330
1F
100
AcDbEntity
  8
SK2
370
    13
100
AcDbDimension
280
     0
  2
_U0
 10
-73.035477
 20
-16.0
 30
0.0
 11
-73.035477
 21
0.0
 31
0.0
 70
   160
 42
32.0
 73
     0
 74
     0
 75
     0
 52
90.0
  3
Standard
100
AcDbAlignedDimension
 13
45.0
 23
16.0
 33
0.0
 14
-58.0
 24
-16.0
 34
0.0
 50
-90.0
100
AcDbRotatedDimension
1001
ACAD
1000
DSTYLE
1002
{
1070
   371
1070
    13
1070
   372
1070
    13
1070
     3
1000
%%c<>
1070
   170
1070
     0
1070
   144
1040
1.0
1070
   277
1070
     2
1070
   284
1070
     8
1070
   278
1070
    44
1070
   146
1040
1.0
1070
   345
1005
16
1070
   347
1005
16
1070
   346
1005
16
1070
   344
1005
0
1070
   343
1005
0
1070
   172
1070
     1
1070
    76
1070
     0
1070
    75
1070
     0
1070
   282
1070
     0
1070
   281
1070
     0
1070
    71
1070
     0
1070
    74
1070
     0
1070
   279
1070
     0
1070
   173
1070
     1
1070
   340
1005
2F9
1070
   271
1070
     1
1070
   272
1070
     2
1070
    77
1070
     1
1070
    73
1070
     0
1070
   171
1070
     3
1070
   274
1070
     4
1070
   177
1070
    95
1070
   176
1070
    95
1070
   178
1070
    95
1070
    78
1070
     8
1070
    48
1040
-0.1
1070
    41
1040
2.5
1070
   147
1040
1.25
1070
    42
1040
1.0
1070
    44
1040
2.0
1070
   140
1040
2.5
1002
}
1001
ACAD_DSTYLE_DIM_LINETYPE
1070
   380
1005
16
1001
ACAD_DSTYLE_DIM_EXT1_LINETYPE
1070
   381
1005
16
1001
ACAD_DSTYLE_DIM_EXT2_LINETYPE
1070
   382
1005
16
  0
DIMENSION
  5
31B
102
{ACAD_XDICTIONARY
360
31C
102
}
102
{ACAD_REACTORS
330
31D
102
}
330
1F
100
AcDbEntity
  8
2
370
    13
100
AcDbDimension
280
     0
  2
_U1
 10
135.0
 20
21.482384
 30
0.0
 11
146.177524
 21
21.482384
 31
0.0
 70
   160
 42
10.01302598371671
 73
     0
 74
     0
 75
     0
 52
90.0
  3
Standard
100
AcDbAlignedDimension
 13
124.9869740162833
 23
15.96949820518239
 33
0.0
 14
135.0
 24
16.4875
 34
0.0
100
AcDbRotatedDimension
1001
ACAD
1000
DSTYLE
1002
{
1070
   371
1070
    13
1070
   372
1070
    13
1070
   170
1070
     0
1070
   144
1040
1.0
1070
   277
1070
     2
1070
   284
1070
     8
1070
   278
1070
    44
1070
   146
1040
1.0
1070
   345
1005
16
1070
   347
1005
16
1070
   346
1005
16
1070
   344
1005
0
1070
   343
1005
0
1070
   172
1070
     1
1070
    76
1070
     0
1070
    75
1070
     0
1070
   282
1070
     0
1070
   281
1070
     0
1070
    71
1070
     0
1070
    74
1070
     0
1070
   279
1070
     0
1070
   173
1070
     1
1070
   340
1005
2F9
1070
   271
1070
     1
1070
   272
1070
     2
1070
    77
1070
     1
1070
    73
1070
     1
1070
   171
1070
     3
1070
   274
1070
     4
1070
   177
1070
   254
1070
   176
1070
   254
1070
   178
1070
   254
1070
    78
1070
     8
1070
    48
1040
-0.1
1070
    41
1040
2.5
1070
   147
1040
1.25
1070
    42
1040
1.0
1070
    44
1040
2.0
1070
   140
1040
2.5
1002
}
1001
ACAD_DSTYLE_DIM_LINETYPE
1070
   380
1005
16
1001
ACAD_DSTYLE_DIM_EXT1_LINETYPE
1070
   381
1005
16
1001
ACAD_DSTYLE_DIM_EXT2_LINETYPE
1070
   382
1005
16
  0
DIMENSION
  5
335
102
{ACAD_XDICTIONARY
360
336
102
}
102
{ACAD_REACTORS
330
337
102
}
330
1F
100
AcDbEntity
  8
2
370
    13
100
AcDbDimension
280
     0
  2
_U2
 10
135.0
 20
37.482384
 30
0.0
 11
90.0
 21
37.482384
 31
0.0
 70
   160
 42
90.0
 73
     0
 74
     0
 75
     0
 52
90.0
  3
Standard
100
AcDbAlignedDimension
 13
45.0
 23
16.0
 33
0.0
 14
135.0
 24
16.4875
 34
0.0
100
AcDbRotatedDimension
1001
ACAD
1000
DSTYLE
1002
{
1070
   371
1070
    13
1070
   372
1070
    13
1070
   170
1070
     0
1070
   144
1040
1.0
1070
   277
1070
     2
1070
   284
1070
     8
1070
   278
1070
    44
1070
   146
1040
1.0
1070
   345
1005
16
1070
   347
1005
16
1070
   346
1005
16
1070
   344
1005
0
1070
   343
1005
0
1070
   172
1070
     1
1070
    76
1070
     0
1070
    75
1070
     0
1070
   282
1070
     0
1070
   281
1070
     0
1070
    71
1070
     0
1070
    74
1070
     0
1070
   279
1070
     0
1070
   173
1070
     1
1070
   340
1005
2F9
1070
   271
1070
     1
1070
   272
1070
     2
1070
    77
1070
     1
1070
    73
1070
     1
1070
   171
1070
     3
1070
   274
1070
     4
1070
   177
1070
   254
1070
   176
1070
   254
1070
   178
1070
   254
1070
    78
1070
     8
1070
    48
1040
-0.1
1070
    41
1040
2.5
1070
   147
1040
1.25
1070
    42
1040
1.0
1070
    44
1040
2.0
1070
   140
1040
2.5
1002
}
1001
ACAD_DSTYLE_DIM_LINETYPE
1070
   380
1005
16
1001
ACAD_DSTYLE_DIM_EXT1_LINETYPE
1070
   381
1005
16
1001
ACAD_DSTYLE_DIM_EXT2_LINETYPE
1070
   382
1005
16
  0
DIMENSION
  5
34D
102
{ACAD_XDICTIONARY
360
34E
102
}
102
{ACAD_REACTORS
330
34F
102
}
330
1F
100
AcDbEntity
  8
SK2
370
    13
100
AcDbDimension
280
     0
  2
_U3
 10
135.0
 20
45.482384
 30
0.0
 11
67.5
 21
45.482384
 31
0.0
 70
   160
 42
135.0
 73
     0
 74
     0
 75
     0
 52
90.0
  3
Standard
100
AcDbAlignedDimension
 13
0.0
 23
0.5
 33
0.0
 14
135.0
 24
16.4875
 34
0.0
100
AcDbRotatedDimension
1001
ACAD
1000
DSTYLE
1002
{
1070
   371
1070
    13
1070
   372
1070
    13
1070
   170
1070
     0
1070
   144
1040
1.0
1070
   277
1070
     2
1070
   284
1070
     8
1070
   278
1070
    44
1070
   146
1040
1.0
1070
   345
1005
16
1070
   347
1005
16
1070
   346
1005
16
1070
   344
1005
0
1070
   343
1005
0
1070
   172
1070
     1
1070
    76
1070
     0
1070
    75
1070
     0
1070
   282
1070
     0
1070
   281
1070
     0
1070
    71
1070
     0
1070
    74
1070
     0
1070
   279
1070
     0
1070
   173
1070
     1
1070
   340
1005
2F9
1070
   271
1070
     1
1070
   272
1070
     2
1070
    77
1070
     1
1070
    73
1070
     1
1070
   171
1070
     3
1070
   274
1070
     4
1070
   177
1070
    95
1070
   176
1070
    95
1070
   178
1070
    95
1070
    78
1070
     8
1070
    48
1040
-0.1
1070
    41
1040
2.5
1070
   147
1040
1.25
1070
    42
1040
1.0
1070
    44
1040
2.0
1070
   140
1040
2.5
1002
}
1001
ACAD_DSTYLE_DIM_LINETYPE
1070
   380
1005
16
1001
ACAD_DSTYLE_DIM_EXT1_LINETYPE
1070
   381
1005
16
1001
ACAD_DSTYLE_DIM_EXT2_LINETYPE
1070
   382
1005
16
  0
DIMENSION
  5
365
102
{ACAD_XDICTIONARY
360
366
102
}
102
{ACAD_REACTORS
330
367
102
}
330
1F
100
AcDbEntity
  8
SK2
370
    13
100
AcDbDimension
280
     0
  2
_U4
 10
135.0
 20
53.48238399999999
 30
0.0
 11
37.5
 21
53.48238399999999
 31
0.0
 70
   160
 42
195.0
 73
     0
 74
     0
 75
     0
 52
90.0
  3
Standard
100
AcDbAlignedDimension
 13
-60.0
 23
14.0
 33
0.0
 14
135.0
 24
16.4875
 34
0.0
100
AcDbRotatedDimension
1001
ACAD
1000
DSTYLE
1002
{
1070
   371
1070
    13
1070
   372
1070
    13
1070
   170
1070
     0
1070
   144
1040
1.0
1070
   277
1070
     2
1070
   284
1070
     8
1070
   278
1070
    44
1070
   146
1040
1.0
1070
   345
1005
16
1070
   347
1005
16
1070
   346
1005
16
1070
   344
1005
0
1070
   343
1005
0
1070
   172
1070
     1
1070
    76
1070
     0
1070
    75
1070
     0
1070
   282
1070
     0
1070
   281
1070
     0
1070
    71
1070
     0
1070
    74
1070
     0
1070
   279
1070
     0
1070
   173
1070
     1
1070
   340
1005
2F9
1070
   271
1070
     1
1070
   272
1070
     2
1070
    77
1070
     1
1070
    73
1070
     1
1070
   171
1070
     3
1070
   274
1070
     4
1070
   177
1070
    95
1070
   176
1070
    95
1070
   178
1070
    95
1070
    78
1070
     8
1070
    48
1040
-0.1
1070
    41
1040
2.5
1070
   147
1040
1.25
1070
    42
1040
1.0
1070
    44
1040
2.0
1070
   140
1040
2.5
1002
}
1001
ACAD_DSTYLE_DIM_LINETYPE
1070
   380
1005
16
1001
ACAD_DSTYLE_DIM_EXT1_LINETYPE
1070
   381
1005
16
1001
ACAD_DSTYLE_DIM_EXT2_LINETYPE
1070
   382
1005
16
  0
DIMENSION
  5
37D
102
{ACAD_XDICTIONARY
360
37F
102
}
102
{ACAD_REACTORS
330
380
102
}
330
1F
100
AcDbEntity
  8
2
370
    13
100
AcDbDimension
280
     0
  2
_U5
 10
134.237285
 20
15.984457
 30
0.0
 11
122.348965
 21
28.635492
 31
0.0
 70
   162
 42
1.570795999999999
 73
     0
 74
     0
 75
     0
  3
Standard
100
AcDb2LineAngularDimension
 13
135.0
 23
15.4875
 33
0.0
 14
135.0
 24
16.4875
 34
0.0
 15
134.247285
 25
15.984457
 35
0.0
 16
126.054367
 26
31.478748
 36
0.0
1001
ACAD
1000
DSTYLE
1002
{
1070
   371
1070
    13
1070
   372
1070
    13
1070
   170
1070
     0
1070
   179
1070
     1
1070
   275
1070
     0
1070
   144
1040
1.0
1070
   277
1070
     2
1070
    79
1070
     2
1070
   284
1070
     8
1070
   278
1070
    44
1070
   146
1040
1.0
1070
   345
1005
16
1070
   347
1005
16
1070
   346
1005
16
1070
   344
1005
0
1070
   343
1005
0
1070
   172
1070
     1
1070
    76
1070
     0
1070
    75
1070
     0
1070
   282
1070
     0
1070
   281
1070
     0
1070
    71
1070
     0
1070
   279
1070
     0
1070
   173
1070
     1
1070
   340
1005
2F9
1070
   271
1070
     1
1070
   272
1070
     1
1070
    77
1070
     1
1070
    73
1070
     0
1070
   171
1070
     3
1070
   274
1070
     4
1070
   177
1070
   254
1070
   176
1070
   254
1070
   178
1070
   254
1070
    78
1070
     8
1070
    41
1040
2.5
1070
   147
1040
1.25
1070
    42
1040
1.0
1070
    44
1040
2.0
1070
   140
1040
2.5
1002
}
1001
ACAD_DSTYLE_DIMANGULAR_EXTENSION
1070
   387
1070
     1
1001
ACAD_DSTYLE_DIM_LINETYPE
1070
   380
1005
16
1001
ACAD_DSTYLE_DIM_EXT1_LINETYPE
1070
   381
1005
16
1001
ACAD_DSTYLE_DIM_EXT2_LINETYPE
1070
   382
1005
16
  0
ENDSEC
  0
SECTION
  2
OBJECTS
  0
DICTIONARY
  5
C
330
0
100
AcDbDictionary
281
     1
  3
ACAD_CIP_PREVIOUS_PRODUCT_INFO
350
62F
  3
ACAD_COLOR
350
627
  3
ACAD_DETAILVIEWSTYLE
350
3F8
  3
ACAD_FIELDLIST
350
699
  3
ACAD_GROUP
350
D
  3
ACAD_LAYOUT
350
1A
  3
ACAD_MATERIAL
350
43
  3
ACAD_MLEADERSTYLE
350
6B
  3
ACAD_MLINESTYLE
350
17
  3
ACAD_PLOTSETTINGS
350
19
  3
ACAD_PLOTSTYLENAME
350
E
  3
ACAD_SCALELIST
350
47
  3
ACAD_SECTIONVIEWSTYLE
350
3F9
  3
ACAD_TABLESTYLE
350
69
  3
ACAD_VISUALSTYLE
350
2A
  3
ACDB_RECOMPOSE_DATA
350
6DC
  3
AcDbVariableDictionary
350
3B5
  3
AcmDictionary
350
65B
  3
AMG
350
630
  3
AMGSNAPSETTINGS
350
6A3
  0
DICTIONARY
  5
302
330
301
100
AcDbDictionary
280
     1
281
     1
  3
ACAD_DIMASSOC
360
303
  0
DICTIONARY
  5
31C
330
31B
100
AcDbDictionary
280
     1
281
     1
  3
ACAD_DIMASSOC
360
31D
  0
DICTIONARY
  5
336
330
335
100
AcDbDictionary
280
     1
281
     1
  3
ACAD_DIMASSOC
360
337
  0
DICTIONARY
  5
34E
330
34D
100
AcDbDictionary
280
     1
281
     1
  3
ACAD_DIMASSOC
360
34F
  0
DICTIONARY
  5
366
330
365
100
AcDbDictionary
280
     1
281
     1
  3
ACAD_DIMASSOC
360
367
  0
DICTIONARY
  5
37F
330
37D
100
AcDbDictionary
280
     1
281
     1
  3
ACAD_DIMASSOC
360
380
  0
XRECORD
  5
62F
102
{ACAD_REACTORS
330
C
102
}
330
C
100
AcDbXrecord
280
     1
300
AMECH_PP
300
2017
300
86627AMECH_PP_2017_0F
  0
DICTIONARY
  5
627
102
{ACAD_REACTORS
330
C
102
}
330
C
100
AcDbDictionary
281
     1
  0
DICTIONARY
  5
3F8
102
{ACAD_REACTORS
330
C
102
}
330
C
100
AcDbDictionary
281
     1
  3
Metric50
350
629
  0
FIELDLIST
  5
699
102
{ACAD_REACTORS
330
C
102
}
330
C
100
AcDbIdSet
 90
        3
330
697
330
698
330
69A
100
AcDbFieldList
  0
DICTIONARY
  5
D
102
{ACAD_REACTORS
330
C
102
}
330
C
100
AcDbDictionary
281
     1
  3
ANNOTATION
350
3A0
  0
DICTIONARY
  5
1A
102
{ACAD_REACTORS
330
C
102
}
330
C
100
AcDbDictionary
281
     1
  3
Layout1
350
1E
  3
Layout2
350
26
  3
Model
350
22
  0
DICTIONARY
  5
43
102
{ACAD_REACTORS
330
C
102
}
330
C
100
AcDbDictionary
281
     1
  3
ByBlock
350
45
  3
ByLayer
350
44
  3
Global
350
46
  0
DICTIONARY
  5
6B
102
{ACAD_REACTORS
330
C
102
}
330
C
100
AcDbDictionary
281
     1
  3
Standard
350
6C
  0
DICTIONARY
  5
17
102
{ACAD_REACTORS
330
C
102
}
330
C
100
AcDbDictionary
281
     1
  3
Standard
350
18
  0
DICTIONARY
  5
19
102
{ACAD_REACTORS
330
C
102
}
330
C
100
AcDbDictionary
281
     1
  0
ACDBDICTIONARYWDFLT
  5
E
102
{ACAD_REACTORS
330
C
102
}
330
C
100
AcDbDictionary
281
     1
  3
Normal
350
F
100
AcDbDictionaryWithDefault
340
F
  0
DICTIONARY
  5
47
102
{ACAD_REACTORS
330
C
102
}
330
C
100
AcDbDictionary
281
     1
  3
A0
350
48
  3
A1
350
49
  3
A2
350
4A
  3
A3
350
4B
  3
A4
350
4C
  3
A5
350
4D
  3
A6
350
4E
  3
A7
350
4F
  3
A8
350
50
  3
A9
350
51
  3
B0
350
52
  3
B1
350
53
  3
B2
350
54
  3
B3
350
55
  3
B4
350
56
  3
B5
350
57
  3
B6
350
58
  3
B7
350
59
  3
B8
350
5A
  3
B9
350
5B
  3
C0
350
5C
  3
C1
350
5D
  3
C2
350
5E
  3
C3
350
5F
  3
C4
350
60
  3
C5
350
61
  3
C6
350
62
  3
C7
350
63
  3
C8
350
64
  3
C9
350
65
  3
D0
350
66
  3
D1
350
67
  3
D2
350
68
  0
DICTIONARY
  5
3F9
102
{ACAD_REACTORS
330
C
102
}
330
C
100
AcDbDictionary
281
     1
  3
Metric50
350
628
  0
DICTIONARY
  5
69
102
{ACAD_REACTORS
330
C
102
}
330
C
100
AcDbDictionary
281
     1
  3
Standard
350
6A
  0
DICTIONARY
  5
2A
102
{ACAD_REACTORS
330
C
102
}
330
C
100
AcDbDictionary
281
     1
  3
2dWireframe
350
2F
  3
Basic
350
32
  3
Brighten
350
36
  3
ColorChange
350
3A
  3
Conceptual
350
34
  3
Dim
350
35
  3
EdgeColorOff
350
3D
  3
Facepattern
350
39
  3
Flat
350
2B
  3
FlatWithEdges
350
2C
  3
Gouraud
350
2D
  3
GouraudWithEdges
350
2E
  3
Hidden
350
31
  3
JitterOff
350
3B
  3
Linepattern
350
38
  3
OverhangOff
350
3C
  3
Realistic
350
33
  3
Shaded
350
42
  3
Shaded with edges
350
41
  3
Shades of Gray
350
3E
  3
Sketchy
350
3F
  3
Thicken
350
37
  3
Wireframe
350
30
  3
X-Ray
350
40
  0
XRECORD
  5
6DC
102
{ACAD_REACTORS
330
C
102
}
330
C
100
AcDbXrecord
280
     1
 90
        1
330
6A
330
628
330
629
  0
DICTIONARY
  5
3B5
102
{ACAD_REACTORS
330
C
102
}
330
C
100
AcDbDictionary
281
     1
  3
CANNOSCALE
350
3B6
  3
CMLEADERSTYLE
350
3F7
  3
CTABLESTYLE
350
3F6
  3
CVIEWDETAILSTYLE
350
6D2
  3
CVIEWSECTIONSTYLE
350
6D3
  3
LAYEREVAL
350
6D5
  3
LAYERNOTIFY
350
6D6
  3
LIGHTINGUNITS
350
6D4
  3
MSLTSCALE
350
3B7
  0
DICTIONARY
  5
65B
102
{ACAD_REACTORS
330
C
102
}
330
C
100
AcDbDictionary
281
     1
  3
AcmStdDictionary
350
662
  0
DICTIONARY
  5
630
102
{ACAD_REACTORS
330
C
102
}
330
C
100
AcDbDictionary
281
     1
  0
DICTIONARY
  5
6A3
102
{ACAD_REACTORS
330
C
102
}
330
C
100
AcDbDictionary
281
     1
  0
DIMASSOC
  5
303
102
{ACAD_REACTORS
330
302
102
}
330
302
100
AcDbDimAssoc
330
301
 90
        3
 70
     0
 71
     1
  1
AcDbOsnapPointRef
 72
    13
331
C6
 73
     2
 91
        1
 40
0.0
 10
45.0
 20
16.0
 30
0.0
 75
     0
  1
AcDbOsnapPointRef
 72
    13
331
C5
 73
     2
 91
        2
 40
0.0
 10
-58.0
 20
-16.0
 30
0.0
 75
     0
  0
DIMASSOC
  5
31D
102
{ACAD_REACTORS
330
31C
102
}
330
31C
100
AcDbDimAssoc
330
31B
 90
        2
 70
     0
 71
     1
  1
AcDbOsnapPointRef
 72
     1
331
1FC
 73
     2
 91
        2
 40
1.0
 10
135.0
 20
16.4875
 30
0.0
 75
     0
  0
DIMASSOC
  5
337
102
{ACAD_REACTORS
330
336
102
}
330
336
100
AcDbDimAssoc
330
335
 90
        3
 70
     0
 71
     1
  1
AcDbOsnapPointRef
 72
    13
331
1F8
 73
     2
 91
        1
 40
0.0
 10
45.0
 20
16.0
 30
0.0
 75
     0
  1
AcDbOsnapPointRef
 72
     1
331
1FC
 73
     2
 91
        2
 40
1.0
 10
135.0
 20
16.4875
 30
0.0
 75
     0
  0
DIMASSOC
  5
34F
102
{ACAD_REACTORS
330
34E
102
}
330
34E
100
AcDbDimAssoc
330
34D
 90
        3
 70
     0
 71
     1
  1
AcDbOsnapPointRef
 72
     1
331
D4
 73
     2
 91
        1
 40
1.0
 10
0.0
 20
0.5
 30
0.0
 75
     0
  1
AcDbOsnapPointRef
 72
     1
331
1FC
 73
     2
 91
        2
 40
1.0
 10
135.0
 20
16.4875
 30
0.0
 75
     0
  0
DIMASSOC
  5
367
102
{ACAD_REACTORS
330
366
102
}
330
366
100
AcDbDimAssoc
330
365
 90
        3
 70
     0
 71
     1
  1
AcDbOsnapPointRef
 72
     1
331
1FA
 73
     2
 91
        1
 40
1.0
 10
-60.0
 20
14.0
 30
0.0
 75
     0
  1
AcDbOsnapPointRef
 72
     1
331
1FC
 73
     2
 91
        2
 40
1.0
 10
135.0
 20
16.4875
 30
0.0
 75
     0
  0
DIMASSOC
  5
380
102
{ACAD_REACTORS
330
37F
102
}
330
37F
100
AcDbDimAssoc
330
37D
 90
       15
 70
     0
 71
     1
  1
AcDbOsnapPointRef
 72
    13
331
1FC
 73
     2
 91
        1
 40
0.0
 10
135.0
 20
15.4875
 30
0.0
 75
     0
  1
AcDbOsnapPointRef
 72
     1
331
1FC
 73
     2
 91
        1
 40
1.0
 10
135.0
 20
16.4875
 30
0.0
 75
     0
  1
AcDbOsnapPointRef
 72
    13
331
D5
 73
     2
 91
        2
 40
0.0
 10
134.247285
 20
15.984457
 30
0.0
 75
     0
  1
AcDbOsnapPointRef
 72
     1
331
D5
 73
     2
 91
        2
 40
1.0
 10
134.237285
 20
15.984457
 30
0.0
 75
     0
  0
ACDBDETAILVIEWSTYLE
  5
629
102
{ACAD_XDICTIONARY
360
6DA
102
}
102
{ACAD_REACTORS
330
3F8
330
68D
102
}
330
3F8
100
AcDbModelDocViewStyle
 70
     0
  3
Metric50
290
     0
100
AcDbDetailViewStyle
 70
     0
 71
     0
 90
        3
 71
     1
340
11
 62
   256
 40
5.0
340
0
 62
   256
 40
5.0
300

 40
0.0
280
     1
 71
     2
340
16
 90
       25
 62
   256
 71
     3
340
11
 62
   256
 40
5.0
 90
        0
 40
15.0
 90
        1
300
%<\AcVar ViewDetailId>% (%<\AcVar ViewScale \f "%sn">%)
 71
     4
340
16
 90
       25
 62
   256
340
16
 90
       25
 62
   256
280
     0
  0
GROUP
  5
3A0
102
{ACAD_REACTORS
330
D
102
}
330
D
100
AcDbGroup
300

 70
     0
 71
     1
340
2F8
340
2FA
340
1FE
340
1FF
340
2FE
  0
LAYOUT
  5
1E
102
{ACAD_REACTORS
330
1A
102
}
330
1A
100
AcDbPlotSettings
  1

  2
none_device
  4

  6

 40
0.0
 41
0.0
 42
0.0
 43
0.0
 44
0.0
 45
0.0
 46
0.0
 47
0.0
 48
0.0
 49
0.0
140
0.0
141
0.0
142
1.0
143
1.0
 70
   688
 72
     0
 73
     0
 74
     5
  7

 75
    16
147
1.0
 76
     0
 77
     2
 78
   300
148
0.0
149
0.0
100
AcDbLayout
  1
Layout1
 70
     1
 71
     1
 10
-0.5
 20
-0.5
 11
5.0
 21
5.0
 12
0.0
 22
0.0
 32
0.0
 14
-0.5
 24
-0.5
 34
-0.5
 15
5.0
 25
5.0
 35
5.0
146
0.0
 13
0.0
 23
0.0
 33
0.0
 16
1.0
 26
0.0
 36
0.0
 17
0.0
 27
1.0
 37
0.0
 76
     0
330
1B
  0
LAYOUT
  5
26
102
{ACAD_REACTORS
330
1A
102
}
330
1A
100
AcDbPlotSettings
  1

  2
none_device
  4

  6

 40
0.0
 41
0.0
 42
0.0
 43
0.0
 44
0.0
 45
0.0
 46
0.0
 47
0.0
 48
0.0
 49
0.0
140
0.0
141
0.0
142
1.0
143
1.0
 70
   688
 72
     0
 73
     0
 74
     5
  7

 75
    16
147
1.0
 76
     0
 77
     2
 78
   300
148
0.0
149
0.0
100
AcDbLayout
  1
Layout2
 70
     1
 71
     2
 10
0.0
 20
0.0
 11
0.0
 21
0.0
 12
0.0
 22
0.0
 32
0.0
 14
0.0
 24
0.0
 34
0.0
 15
0.0
 25
0.0
 35
0.0
146
0.0
 13
0.0
 23
0.0
 33
0.0
 16
1.0
 26
0.0
 36
0.0
 17
0.0
 27
1.0
 37
0.0
 76
     0
330
23
  0
LAYOUT
  5
22
102
{ACAD_REACTORS
330
1A
102
}
330
1A
100
AcDbPlotSettings
  1

  2
none_device
  4
Letter_(8.50_x_11.00_Inches)
  6

 40
6.349999999999999
 41
6.349999999999999
 42
6.350005
 43
6.350005
 44
215.9
 45
279.4
 46
0.0
 47
0.0
 48
0.0
 49
0.0
140
0.0
141
0.0
142
1.0
143
1.0
 70
  1712
 72
     0
 73
     0
 74
     0
  7

 75
     0
147
1.0
 76
     0
 77
     2
 78
   300
148
0.0
149
0.0
100
AcDbLayout
  1
Model
 70
     1
 71
     0
 10
-0.5
 20
-0.5
 11
5.0
 21
5.0
 12
0.0
 22
0.0
 32
0.0
 14
-0.5
 24
-0.5
 34
-0.5
 15
5.0
 25
5.0
 35
5.0
146
0.0
 13
0.0
 23
0.0
 33
0.0
 16
1.0
 26
0.0
 36
0.0
 17
0.0
 27
1.0
 37
0.0
 76
     0
330
1F
331
29
  0
MATERIAL
  5
45
102
{ACAD_XDICTIONARY
360
3EB
102
}
102
{ACAD_REACTORS
330
43
102
}
330
43
100
AcDbMaterial
  1
ByBlock
  0
MATERIAL
  5
44
102
{ACAD_XDICTIONARY
360
3E9
102
}
102
{ACAD_REACTORS
330
43
102
}
330
43
100
AcDbMaterial
  1
ByLayer
  0
MATERIAL
  5
46
102
{ACAD_XDICTIONARY
360
3ED
102
}
102
{ACAD_REACTORS
330
43
102
}
330
43
100
AcDbMaterial
  1
Global
  0
MLEADERSTYLE
  5
6C
102
{ACAD_REACTORS
330
6B
102
}
330
6B
100
AcDbMLeaderStyle
179
     2
170
     2
171
     1
172
     0
 90
        2
 40
0.0
 41
0.0
173
     1
 91
-1056964608
340
14
 92
       -2
290
     1
 42
0.09
291
     1
 43
0.36
  3
Standard
 44
0.18
300

342
11
174
     1
178
     6
175
     1
176
     0
 93
-1056964608
 45
0.18
292
     0
297
     0
 46
0.18
 94
-1056964608
 47
1.0
 49
1.0
140
1.0
293
     1
141
0.0
294
     1
177
     0
142
1.0
295
     0
296
     0
143
0.125
271
     0
272
     9
273
     9
298
     0
1001
ACAD_MLEADERVER
1070
     2
  0
MLINESTYLE
  5
18
102
{ACAD_REACTORS
330
17
102
}
330
17
100
AcDbMlineStyle
  2
STANDARD
 70
     0
  3

 62
   256
 51
90.0
 52
90.0
 71
     2
 49
0.5
 62
   256
  6
BYLAYER
 49
-0.5
 62
   256
  6
BYLAYER
  0
ACDBPLACEHOLDER
  5
F
102
{ACAD_REACTORS
330
E
102
}
330
E
  0
SCALE
  5
48
102
{ACAD_REACTORS
330
47
102
}
330
47
100
AcDbScale
 70
     0
300
1:1
140
1.0
141
1.0
290
     1
  0
SCALE
  5
49
102
{ACAD_REACTORS
330
47
102
}
330
47
100
AcDbScale
 70
     0
300
1:2
140
1.0
141
2.0
290
     0
  0
SCALE
  5
4A
102
{ACAD_REACTORS
330
47
102
}
330
47
100
AcDbScale
 70
     0
300
1:4
140
1.0
141
4.0
290
     0
  0
SCALE
  5
4B
102
{ACAD_REACTORS
330
47
102
}
330
47
100
AcDbScale
 70
     0
300
1:5
140
1.0
141
5.0
290
     0
  0
SCALE
  5
4C
102
{ACAD_REACTORS
330
47
102
}
330
47
100
AcDbScale
 70
     0
300
1:8
140
1.0
141
8.0
290
     0
  0
SCALE
  5
4D
102
{ACAD_REACTORS
330
47
102
}
330
47
100
AcDbScale
 70
     0
300
1:10
140
1.0
141
10.0
290
     0
  0
SCALE
  5
4E
102
{ACAD_REACTORS
330
47
102
}
330
47
100
AcDbScale
 70
     0
300
1:16
140
1.0
141
16.0
290
     0
  0
SCALE
  5
4F
102
{ACAD_REACTORS
330
47
102
}
330
47
100
AcDbScale
 70
     0
300
1:20
140
1.0
141
20.0
290
     0
  0
SCALE
  5
50
102
{ACAD_REACTORS
330
47
102
}
330
47
100
AcDbScale
 70
     0
300
1:30
140
1.0
141
30.0
290
     0
  0
SCALE
  5
51
102
{ACAD_REACTORS
330
47
102
}
330
47
100
AcDbScale
 70
     0
300
1:40
140
1.0
141
40.0
290
     0
  0
SCALE
  5
52
102
{ACAD_REACTORS
330
47
102
}
330
47
100
AcDbScale
 70
     0
300
1:50
140
1.0
141
50.0
290
     0
  0
SCALE
  5
53
102
{ACAD_REACTORS
330
47
102
}
330
47
100
AcDbScale
 70
     0
300
1:100
140
1.0
141
100.0
290
     0
  0
SCALE
  5
54
102
{ACAD_REACTORS
330
47
102
}
330
47
100
AcDbScale
 70
     0
300
2:1
140
2.0
141
1.0
290
     0
  0
SCALE
  5
55
102
{ACAD_REACTORS
330
47
102
}
330
47
100
AcDbScale
 70
     0
300
4:1
140
4.0
141
1.0
290
     0
  0
SCALE
  5
56
102
{ACAD_REACTORS
330
47
102
}
330
47
100
AcDbScale
 70
     0
300
8:1
140
8.0
141
1.0
290
     0
  0
SCALE
  5
57
102
{ACAD_REACTORS
330
47
102
}
330
47
100
AcDbScale
 70
     0
300
10:1
140
10.0
141
1.0
290
     0
  0
SCALE
  5
58
102
{ACAD_REACTORS
330
47
102
}
330
47
100
AcDbScale
 70
     0
300
100:1
140
100.0
141
1.0
290
     0
  0
SCALE
  5
59
102
{ACAD_REACTORS
330
47
102
}
330
47
100
AcDbScale
 70
     0
300
1/128" = 1'-0"
140
0.007812
141
12.0
290
     0
  0
SCALE
  5
5A
102
{ACAD_REACTORS
330
47
102
}
330
47
100
AcDbScale
 70
     0
300
1/64" = 1'-0"
140
0.015625
141
12.0
290
     0
  0
SCALE
  5
5B
102
{ACAD_REACTORS
330
47
102
}
330
47
100
AcDbScale
 70
     0
300
1/32" = 1'-0"
140
0.03125
141
12.0
290
     0
  0
SCALE
  5
5C
102
{ACAD_REACTORS
330
47
102
}
330
47
100
AcDbScale
 70
     0
300
1/16" = 1'-0"
140
0.0625
141
12.0
290
     0
  0
SCALE
  5
5D
102
{ACAD_REACTORS
330
47
102
}
330
47
100
AcDbScale
 70
     0
300
3/32" = 1'-0"
140
0.09375
141
12.0
290
     0
  0
SCALE
  5
5E
102
{ACAD_REACTORS
330
47
102
}
330
47
100
AcDbScale
 70
     0
300
1/8" = 1'-0"
140
0.125
141
12.0
290
     0
  0
SCALE
  5
5F
102
{ACAD_REACTORS
330
47
102
}
330
47
100
AcDbScale
 70
     0
300
3/16" = 1'-0"
140
0.1875
141
12.0
290
     0
  0
SCALE
  5
60
102
{ACAD_REACTORS
330
47
102
}
330
47
100
AcDbScale
 70
     0
300
1/4" = 1'-0"
140
0.25
141
12.0
290
     0
  0
SCALE
  5
61
102
{ACAD_REACTORS
330
47
102
}
330
47
100
AcDbScale
 70
     0
300
3/8" = 1'-0"
140
0.375
141
12.0
290
     0
  0
SCALE
  5
62
102
{ACAD_REACTORS
330
47
102
}
330
47
100
AcDbScale
 70
     0
300
1/2" = 1'-0"
140
0.5
141
12.0
290
     0
  0
SCALE
  5
63
102
{ACAD_REACTORS
330
47
102
}
330
47
100
AcDbScale
 70
     0
300
3/4" = 1'-0"
140
0.75
141
12.0
290
     0
  0
SCALE
  5
64
102
{ACAD_REACTORS
330
47
102
}
330
47
100
AcDbScale
 70
     0
300
1" = 1'-0"
140
1.0
141
12.0
290
     0
  0
SCALE
  5
65
102
{ACAD_REACTORS
330
47
102
}
330
47
100
AcDbScale
 70
     0
300
1-1/2" = 1'-0"
140
1.5
141
12.0
290
     0
  0
SCALE
  5
66
102
{ACAD_REACTORS
330
47
102
}
330
47
100
AcDbScale
 70
     0
300
3" = 1'-0"
140
3.0
141
12.0
290
     0
  0
SCALE
  5
67
102
{ACAD_REACTORS
330
47
102
}
330
47
100
AcDbScale
 70
     0
300
6" = 1'-0"
140
6.0
141
12.0
290
     0
  0
SCALE
  5
68
102
{ACAD_REACTORS
330
47
102
}
330
47
100
AcDbScale
 70
     0
300
1'-0" = 1'-0"
140
12.0
141
12.0
290
     0
  0
ACDBSECTIONVIEWSTYLE
  5
628
102
{ACAD_XDICTIONARY
360
6D8
102
}
102
{ACAD_REACTORS
330
3F9
330
68C
102
}
330
3F9
100
AcDbModelDocViewStyle
 70
     0
  3
Metric50
290
     0
100
AcDbSectionViewStyle
 70
     0
 71
     0
 90
      102
 71
     1
340
11
 62
   256
 40
5.0
340
0
340
0
 62
   256
 40
5.0
300
I, O, Q, S, X, Z
 40
10.0
 90
        0
 40
2.5
 90
        0
 71
     2
340
16
 90
       25
 62
   256
340
16
 90
       50
 62
   256
 40
5.0
 40
2.5
 40
5.0
 71
     3
340
11
 62
   256
 40
5.0
 90
        0
 40
15.0
 90
        1
300
%<\AcVar ViewSectionStartId>%-%<\AcVar ViewSectionEndId>% (%<\AcVar ViewScale \f "%sn">%)
 71
     4
 62
   256
 62
   257
300
ANSI31
 40
1.0
 90
        0
290
     0
290
     0
 90
        6
 40
0.0
 40
1.570796326794896
 40
0.2617993877991494
 40
1.308996938995747
 40
-0.2617993877991494
 40
1.832595714594046
  0
TABLESTYLE
  5
6A
102
{ACAD_XDICTIONARY
360
3EF
102
}
102
{ACAD_REACTORS
330
69
102
}
330
69
100
AcDbTableStyle
280
     0
  3
Standard
 70
     0
 71
     0
 40
0.06
 41
0.06
280
     0
281
     0
  7
Standard
140
0.18
170
     2
 62
     0
 63
     7
283
     0
 90
        4
 91
        0
  1

274
    -2
284
     1
 64
     0
275
    -2
285
     1
 65
     0
276
    -2
286
     1
 66
     0
277
    -2
287
     1
 67
     0
278
    -2
288
     1
 68
     0
279
    -2
289
     1
 69
     0
  7
Standard
140
0.25
170
     5
 62
     0
 63
     7
283
     0
 90
        4
 91
        0
  1

274
    -2
284
     1
 64
     0
275
    -2
285
     1
 65
     0
276
    -2
286
     1
 66
     0
277
    -2
287
     1
 67
     0
278
    -2
288
     1
 68
     0
279
    -2
289
     1
 69
     0
  7
Standard
140
0.18
170
     5
 62
     0
 63
     7
283
     0
 90
        4
 91
        0
  1

274
    -2
284
     1
 64
     0
275
    -2
285
     1
 65
     0
276
    -2
286
     1
 66
     0
277
    -2
287
     1
 67
     0
278
    -2
288
     1
 68
     0
279
    -2
289
     1
 69
     0
  0
VISUALSTYLE
  5
2F
102
{ACAD_REACTORS
330
2A
102
}
330
2A
100
AcDbVisualStyle
  2

 70
     4
177
     3
291
     0
 70
    58
 90
        0
176
     1
 90
        2
176
     1
 90
        0
176
     1
 90
        0
176
     1
 40
0.6
176
     1
 40
30.0
176
     1
 62
     7
420
 16777215
176
     1
 90
        1
176
     1
 90
        4
176
     1
 62
     7
176
     1
 62
   257
176
     1
 90
        1
176
     1
 90
        1
176
     1
 40
1.0
176
     1
 90
        0
176
     1
 62
   257
176
     1
 40
1.0
176
     1
 90
        1
176
     1
 90
        6
176
     1
 90
        2
176
     1
 62
     7
176
     1
 90
        5
176
     1
 90
        0
176
     1
 90
        0
176
     1
290
     0
176
     1
 90
        1
176
     1
 40
0.0
176
     1
 90
        0
176
     1
290
     1
176
     1
290
     1
176
     1
290
     0
176
     1
290
     0
176
     1
290
     0
176
     1
290
     0
176
     1
290
     0
176
     1
290
     0
176
     1
290
     0
176
     1
 90
       50
176
     1
 40
0.0
176
     1
 40
1.0
176
     1
 90
        0
176
     1
 62
    18
420
        0
176
     1
 90
       50
176
     1
 90
        3
176
     1
 62
     5
420
      255
176
     1
290
     0
176
     1
 90
       50
176
     1
 90
       50
176
     1
 90
       50
176
     1
290
     0
176
     1
 90
       50
176
     1
 62
   256
176
     0
 40
1.0
176
     0
 90
        2
176
     1
  1
strokes_ogs.tif
176
     1
290
     0
176
     1
 40
1.0
176
     1
 40
1.0
176
     1
1001
ACAD
1000
AcDbSavedByObjectVersion
1070
     0
  0
VISUALSTYLE
  5
32
102
{ACAD_REACTORS
330
2A
102
}
330
2A
100
AcDbVisualStyle
  2

 70
     7
177
     3
291
     1
 70
    58
 90
        1
176
     1
 90
        0
176
     1
 90
        1
176
     1
 90
        0
176
     1
 40
0.6
176
     1
 40
30.0
176
     1
 62
     7
420
 16777215
176
     1
 90
        0
176
     1
 90
        4
176
     1
 62
     7
176
     1
 62
   257
176
     1
 90
        1
176
     1
 90
        1
176
     1
 40
1.0
176
     1
 90
        8
176
     1
 62
     7
176
     1
 40
1.0
176
     1
 90
        1
176
     1
 90
        6
176
     1
 90
        2
176
     1
 62
     7
176
     1
 90
        5
176
     1
 90
        0
176
     1
 90
        0
176
     1
290
     0
176
     1
 90
        1
176
     1
 40
0.0
176
     1
 90
        0
176
     1
290
     0
176
     1
290
     1
176
     1
290
     1
176
     1
290
     0
176
     1
290
     0
176
     1
290
     0
176
     1
290
     0
176
     1
290
     0
176
     1
290
     0
176
     1
 90
       50
176
     1
 40
0.0
176
     1
 40
1.0
176
     1
 90
        0
176
     1
 62
    18
420
        0
176
     1
 90
       50
176
     1
 90
        3
176
     1
 62
     5
420
      255
176
     1
290
     0
176
     1
 90
       50
176
     1
 90
       50
176
     1
 90
       50
176
     1
290
     0
176
     1
 90
       50
176
     1
 62
   256
176
     0
 40
1.0
176
     0
 90
        2
176
     1
  1
strokes_ogs.tif
176
     1
290
     0
176
     1
 40
1.0
176
     1
 40
1.0
176
     1
1001
ACAD
1000
AcDbSavedByObjectVersion
1070
     0
  0
VISUALSTYLE
  5
36
102
{ACAD_REACTORS
330
2A
102
}
330
2A
100
AcDbVisualStyle
  2

 70
    12
177
     3
291
     1
 70
    58
 90
        2
176
     1
 90
        2
176
     1
 90
        0
176
     1
 90
        0
176
     1
 40
0.6
176
     1
 40
30.0
176
     1
 62
     7
420
 16777215
176
     1
 90
        1
176
     1
 90
        4
176
     1
 62
     7
176
     1
 62
   257
176
     1
 90
        1
176
     1
 90
        1
176
     1
 40
1.0
176
     1
 90
        8
176
     1
 62
     7
176
     1
 40
1.0
176
     1
 90
        1
176
     1
 90
        6
176
     1
 90
        2
176
     1
 62
     7
176
     1
 90
        5
176
     1
 90
        0
176
     1
 90
        0
176
     1
290
     0
176
     1
 90
        1
176
     1
 40
50.0
176
     1
 90
        0
176
     1
290
     0
176
     1
290
     1
176
     1
290
     1
176
     1
290
     0
176
     1
290
     0
176
     1
290
     0
176
     1
290
     0
176
     1
290
     0
176
     1
290
     0
176
     1
 90
       50
176
     1
 40
0.0
176
     1
 40
1.0
176
     1
 90
        0
176
     1
 62
    18
420
        0
176
     1
 90
       50
176
     1
 90
        3
176
     1
 62
     5
420
      255
176
     1
290
     0
176
     1
 90
       50
176
     1
 90
       50
176
     1
 90
       50
176
     1
290
     0
176
     1
 90
       50
176
     1
 62
   256
176
     0
 40
1.0
176
     0
 90
        2
176
     1
  1
strokes_ogs.tif
176
     1
290
     0
176
     1
 40
1.0
176
     1
 40
1.0
176
     1
1001
ACAD
1000
AcDbSavedByObjectVersion
1070
     0
  0
VISUALSTYLE
  5
3A
102
{ACAD_REACTORS
330
2A
102
}
330
2A
100
AcDbVisualStyle
  2

 70
    16
177
     3
291
     1
 70
    58
 90
        2
176
     1
 90
        2
176
     1
 90
        3
176
     1
 90
        0
176
     1
 40
0.6
176
     1
 40
30.0
176
     1
 62
     8
420
  8421504
176
     1
 90
        1
176
     1
 90
        4
176
     1
 62
     7
176
     1
 62
   257
176
     1
 90
        1
176
     1
 90
        1
176
     1
 40
1.0
176
     1
 90
        8
176
     1
 62
     8
420
  8421504
176
     1
 40
1.0
176
     1
 90
        1
176
     1
 90
        6
176
     1
 90
        2
176
     1
 62
     7
176
     1
 90
        5
176
     1
 90
        0
176
     1
 90
        0
176
     1
290
     0
176
     1
 90
        1
176
     1
 40
0.0
176
     1
 90
        0
176
     1
290
     0
176
     1
290
     1
176
     1
290
     1
176
     1
290
     0
176
     1
290
     0
176
     1
290
     0
176
     1
290
     0
176
     1
290
     0
176
     1
290
     0
176
     1
 90
       50
176
     1
 40
0.0
176
     1
 40
1.0
176
     1
 90
        0
176
     1
 62
    18
420
        0
176
     1
 90
       50
176
     1
 90
        3
176
     1
 62
     5
420
      255
176
     1
290
     0
176
     1
 90
       50
176
     1
 90
       50
176
     1
 90
       50
176
     1
290
     0
176
     1
 90
       50
176
     1
 62
   256
176
     0
 40
1.0
176
     0
 90
        2
176
     1
  1
strokes_ogs.tif
176
     1
290
     0
176
     1
 40
1.0
176
     1
 40
1.0
176
     1
1001
ACAD
1000
AcDbSavedByObjectVersion
1070
     0
  0
VISUALSTYLE
  5
34
102
{ACAD_REACTORS
330
2A
102
}
330
2A
100
AcDbVisualStyle
  2

 70
     9
177
     3
291
     0
 70
    58
 90
        3
176
     1
 90
        2
176
     1
 90
        0
176
     1
 90
        0
176
     1
 40
0.6
176
     1
 40
30.0
176
     1
 62
     7
420
 16777215
176
     1
 90
        2
176
     1
 90
        2
176
     1
 62
     7
176
     1
 62
   257
176
     1
 90
        1
176
     1
 90
        1
176
     1
 40
179.0
176
     1
 90
        8
176
     1
 62
     7
176
     1
 40
1.0
176
     1
 90
        1
176
     1
 90
        6
176
     1
 90
        2
176
     1
 62
     7
176
     1
 90
        3
176
     1
 90
        0
176
     1
 90
        0
176
     1
290
     0
176
     1
 90
        1
176
     1
 40
0.0
176
     1
 90
        0
176
     1
290
     0
176
     1
290
     1
176
     1
290
     1
176
     1
290
     0
176
     1
290
     0
176
     1
290
     0
176
     1
290
     0
176
     1
290
     0
176
     1
290
     0
176
     1
 90
       50
176
     1
 40
0.0
176
     1
 40
1.0
176
     1
 90
        0
176
     1
 62
    18
420
        0
176
     1
 90
       50
176
     1
 90
        3
176
     1
 62
     5
420
      255
176
     1
290
     0
176
     1
 90
       50
176
     1
 90
       50
176
     1
 90
       50
176
     1
290
     0
176
     1
 90
       50
176
     1
 62
   256
176
     0
 40
1.0
176
     0
 90
        2
176
     1
  1
strokes_ogs.tif
176
     1
290
     0
176
     1
 40
1.0
176
     1
 40
1.0
176
     1
1001
ACAD
1000
AcDbSavedByObjectVersion
1070
     0
  0
VISUALSTYLE
  5
35
102
{ACAD_REACTORS
330
2A
102
}
330
2A
100
AcDbVisualStyle
  2

 70
    11
177
     3
291
     1
 70
    58
 90
        2
176
     1
 90
        2
176
     1
 90
        0
176
     1
 90
        0
176
     1
 40
0.6
176
     1
 40
30.0
176
     1
 62
     7
420
 16777215
176
     1
 90
        1
176
     1
 90
        4
176
     1
 62
     7
176
     1
 62
   257
176
     1
 90
        1
176
     1
 90
        1
176
     1
 40
1.0
176
     1
 90
        8
176
     1
 62
     7
176
     1
 40
1.0
176
     1
 90
        1
176
     1
 90
        6
176
     1
 90
        2
176
     1
 62
     7
176
     1
 90
        5
176
     1
 90
        0
176
     1
 90
        0
176
     1
290
     0
176
     1
 90
        1
176
     1
 40
-50.0
176
     1
 90
        0
176
     1
290
     0
176
     1
290
     1
176
     1
290
     1
176
     1
290
     0
176
     1
290
     0
176
     1
290
     0
176
     1
290
     0
176
     1
290
     0
176
     1
290
     0
176
     1
 90
       50
176
     1
 40
0.0
176
     1
 40
1.0
176
     1
 90
        0
176
     1
 62
    18
420
        0
176
     1
 90
       50
176
     1
 90
        3
176
     1
 62
     5
420
      255
176
     1
290
     0
176
     1
 90
       50
176
     1
 90
       50
176
     1
 90
       50
176
     1
290
     0
176
     1
 90
       50
176
     1
 62
   256
176
     0
 40
1.0
176
     0
 90
        2
176
     1
  1
strokes_ogs.tif
176
     1
290
     0
176
     1
 40
1.0
176
     1
 40
1.0
176
     1
1001
ACAD
1000
AcDbSavedByObjectVersion
1070
     0
  0
VISUALSTYLE
  5
3D
102
{ACAD_REACTORS
330
2A
102
}
330
2A
100
AcDbVisualStyle
  2

 70
    22
177
     3
291
     1
 70
    58
 90
        2
176
     0
 90
        2
176
     0
 90
        0
176
     0
 90
        0
176
     0
 40
0.6
176
     0
 40
30.0
176
     0
 62
     7
420
 16777215
176
     0
 90
        1
176
     0
 90
        4
176
     0
 62
     7
176
     0
 62
   257
176
     0
 90
        1
176
     0
 90
        1
176
     0
 40
1.0
176
     0
 90
        8
176
     2
 62
     7
176
     0
 40
1.0
176
     0
 90
        1
176
     0
 90
        6
176
     0
 90
        2
176
     0
 62
     7
176
     0
 90
        5
176
     0
 90
        0
176
     0
 90
        0
176
     0
290
     0
176
     0
 90
        1
176
     0
 40
0.0
176
     0
 90
        0
176
     0
290
     0
176
     0
290
     1
176
     0
290
     1
176
     0
290
     0
176
     0
290
     0
176
     0
290
     0
176
     0
290
     0
176
     0
290
     0
176
     0
290
     0
176
     0
 90
       50
176
     0
 40
0.0
176
     0
 40
1.0
176
     0
 90
        0
176
     0
 62
    18
420
        0
176
     0
 90
       50
176
     0
 90
        3
176
     0
 62
     5
420
      255
176
     0
290
     0
176
     0
 90
       50
176
     0
 90
       50
176
     0
 90
       50
176
     0
290
     0
176
     0
 90
       50
176
     0
 62
   256
176
     0
 40
1.0
176
     0
 90
        2
176
     0
  1
strokes_ogs.tif
176
     0
290
     0
176
     0
 40
1.0
176
     0
 40
1.0
176
     0
1001
ACAD
1000
AcDbSavedByObjectVersion
1070
     0
  0
VISUALSTYLE
  5
39
102
{ACAD_REACTORS
330
2A
102
}
330
2A
100
AcDbVisualStyle
  2

 70
    15
177
     3
291
     1
 70
    58
 90
        2
176
     1
 90
        2
176
     1
 90
        0
176
     1
 90
        0
176
     1
 40
0.6
176
     1
 40
30.0
176
     1
 62
     7
420
 16777215
176
     1
 90
        1
176
     1
 90
        4
176
     1
 62
     7
176
     1
 62
   257
176
     1
 90
        1
176
     1
 90
        1
176
     1
 40
1.0
176
     1
 90
        8
176
     1
 62
     7
176
     1
 40
1.0
176
     1
 90
        1
176
     1
 90
        6
176
     1
 90
        2
176
     1
 62
     7
176
     1
 90
        5
176
     1
 90
        0
176
     1
 90
        0
176
     1
290
     0
176
     1
 90
        1
176
     1
 40
0.0
176
     1
 90
        0
176
     1
290
     0
176
     1
290
     1
176
     1
290
     1
176
     1
290
     0
176
     1
290
     0
176
     1
290
     0
176
     1
290
     0
176
     1
290
     0
176
     1
290
     0
176
     1
 90
       50
176
     1
 40
0.0
176
     1
 40
1.0
176
     1
 90
        0
176
     1
 62
    18
420
        0
176
     1
 90
       50
176
     1
 90
        3
176
     1
 62
     5
420
      255
176
     1
290
     0
176
     1
 90
       50
176
     1
 90
       50
176
     1
 90
       50
176
     1
290
     0
176
     1
 90
       50
176
     1
 62
   256
176
     0
 40
1.0
176
     0
 90
        2
176
     1
  1
strokes_ogs.tif
176
     1
290
     0
176
     1
 40
1.0
176
     1
 40
1.0
176
     1
1001
ACAD
1000
AcDbSavedByObjectVersion
1070
     0
  0
VISUALSTYLE
  5
2B
102
{ACAD_REACTORS
330
2A
102
}
330
2A
100
AcDbVisualStyle
  2

 70
     0
177
     3
291
     1
 70
    58
 90
        2
176
     1
 90
        1
176
     1
 90
        1
176
     1
 90
        2
176
     1
 40
0.6
176
     1
 40
30.0
176
     1
 62
     7
420
 16777215
176
     1
 90
        0
176
     1
 90
        0
176
     1
 62
     7
176
     1
 62
   257
176
     1
 90
        1
176
     1
 90
        1
176
     1
 40
1.0
176
     1
 90
        8
176
     1
 62
     7
176
     1
 40
1.0
176
     1
 90
        1
176
     1
 90
        6
176
     1
 90
        2
176
     1
 62
     7
176
     1
 90
        5
176
     1
 90
        0
176
     1
 90
        0
176
     1
290
     0
176
     1
 90
       13
176
     1
 40
0.0
176
     1
 90
        0
176
     1
290
     0
176
     1
290
     1
176
     1
290
     1
176
     1
290
     0
176
     1
290
     0
176
     1
290
     0
176
     1
290
     0
176
     1
290
     0
176
     1
290
     0
176
     1
 90
       50
176
     1
 40
0.0
176
     1
 40
1.0
176
     1
 90
        0
176
     1
 62
    18
420
        0
176
     1
 90
       50
176
     1
 90
        3
176
     1
 62
     5
420
      255
176
     1
290
     0
176
     1
 90
       50
176
     1
 90
       50
176
     1
 90
       50
176
     1
290
     0
176
     1
 90
       50
176
     1
 62
   256
176
     0
 40
1.0
176
     0
 90
        2
176
     1
  1
strokes_ogs.tif
176
     1
290
     0
176
     1
 40
1.0
176
     1
 40
1.0
176
     1
1001
ACAD
1000
AcDbSavedByObjectVersion
1070
     0
  0
VISUALSTYLE
  5
2C
102
{ACAD_REACTORS
330
2A
102
}
330
2A
100
AcDbVisualStyle
  2

 70
     1
177
     3
291
     1
 70
    58
 90
        2
176
     1
 90
        1
176
     1
 90
        1
176
     1
 90
        2
176
     1
 40
0.6
176
     1
 40
30.0
176
     1
 62
     7
420
 16777215
176
     1
 90
        1
176
     1
 90
        0
176
     1
 62
     7
176
     1
 62
   257
176
     1
 90
        1
176
     1
 90
        1
176
     1
 40
1.0
176
     1
 90
        0
176
     1
 62
   257
176
     1
 40
1.0
176
     1
 90
        1
176
     1
 90
        6
176
     1
 90
        2
176
     1
 62
     7
176
     1
 90
        5
176
     1
 90
        0
176
     1
 90
        0
176
     1
290
     0
176
     1
 90
       13
176
     1
 40
0.0
176
     1
 90
        0
176
     1
290
     0
176
     1
290
     1
176
     1
290
     1
176
     1
290
     0
176
     1
290
     0
176
     1
290
     0
176
     1
290
     0
176
     1
290
     0
176
     1
290
     0
176
     1
 90
       50
176
     1
 40
0.0
176
     1
 40
1.0
176
     1
 90
        0
176
     1
 62
    18
420
        0
176
     1
 90
       50
176
     1
 90
        3
176
     1
 62
     5
420
      255
176
     1
290
     0
176
     1
 90
       50
176
     1
 90
       50
176
     1
 90
       50
176
     1
290
     0
176
     1
 90
       50
176
     1
 62
   256
176
     0
 40
1.0
176
     0
 90
        2
176
     1
  1
strokes_ogs.tif
176
     1
290
     0
176
     1
 40
1.0
176
     1
 40
1.0
176
     1
1001
ACAD
1000
AcDbSavedByObjectVersion
1070
     0
  0
VISUALSTYLE
  5
2D
102
{ACAD_REACTORS
330
2A
102
}
330
2A
100
AcDbVisualStyle
  2

 70
     2
177
     3
291
     1
 70
    58
 90
        2
176
     1
 90
        2
176
     1
 90
        1
176
     1
 90
        2
176
     1
 40
0.6
176
     1
 40
30.0
176
     1
 62
     7
420
 16777215
176
     1
 90
        0
176
     1
 90
        0
176
     1
 62
     7
176
     1
 62
   257
176
     1
 90
        1
176
     1
 90
        1
176
     1
 40
1.0
176
     1
 90
        0
176
     1
 62
     7
176
     1
 40
1.0
176
     1
 90
        1
176
     1
 90
        6
176
     1
 90
        2
176
     1
 62
     7
176
     1
 90
        5
176
     1
 90
        0
176
     1
 90
        0
176
     1
290
     0
176
     1
 90
       13
176
     1
 40
0.0
176
     1
 90
        0
176
     1
290
     0
176
     1
290
     1
176
     1
290
     1
176
     1
290
     0
176
     1
290
     0
176
     1
290
     0
176
     1
290
     0
176
     1
290
     0
176
     1
290
     0
176
     1
 90
       50
176
     1
 40
0.0
176
     1
 40
1.0
176
     1
 90
        0
176
     1
 62
    18
420
        0
176
     1
 90
       50
176
     1
 90
        3
176
     1
 62
     5
420
      255
176
     1
290
     0
176
     1
 90
       50
176
     1
 90
       50
176
     1
 90
       50
176
     1
290
     0
176
     1
 90
       50
176
     1
 62
   256
176
     0
 40
1.0
176
     0
 90
        2
176
     1
  1
strokes_ogs.tif
176
     1
290
     0
176
     1
 40
1.0
176
     1
 40
1.0
176
     1
1001
ACAD
1000
AcDbSavedByObjectVersion
1070
     0
  0
VISUALSTYLE
  5
2E
102
{ACAD_REACTORS
330
2A
102
}
330
2A
100
AcDbVisualStyle
  2

 70
     3
177
     3
291
     1
 70
    58
 90
        2
176
     1
 90
        2
176
     1
 90
        1
176
     1
 90
        2
176
     1
 40
0.6
176
     1
 40
30.0
176
     1
 62
     7
420
 16777215
176
     1
 90
        1
176
     1
 90
        0
176
     1
 62
     7
176
     1
 62
   257
176
     1
 90
        1
176
     1
 90
        1
176
     1
 40
1.0
176
     1
 90
        0
176
     1
 62
   257
176
     1
 40
1.0
176
     1
 90
        1
176
     1
 90
        6
176
     1
 90
        2
176
     1
 62
     7
176
     1
 90
        5
176
     1
 90
        0
176
     1
 90
        0
176
     1
290
     0
176
     1
 90
       13
176
     1
 40
0.0
176
     1
 90
        0
176
     1
290
     0
176
     1
290
     1
176
     1
290
     1
176
     1
290
     0
176
     1
290
     0
176
     1
290
     0
176
     1
290
     0
176
     1
290
     0
176
     1
290
     0
176
     1
 90
       50
176
     1
 40
0.0
176
     1
 40
1.0
176
     1
 90
        0
176
     1
 62
    18
420
        0
176
     1
 90
       50
176
     1
 90
        3
176
     1
 62
     5
420
      255
176
     1
290
     0
176
     1
 90
       50
176
     1
 90
       50
176
     1
 90
       50
176
     1
290
     0
176
     1
 90
       50
176
     1
 62
   256
176
     0
 40
1.0
176
     0
 90
        2
176
     1
  1
strokes_ogs.tif
176
     1
290
     0
176
     1
 40
1.0
176
     1
 40
1.0
176
     1
1001
ACAD
1000
AcDbSavedByObjectVersion
1070
     0
  0
VISUALSTYLE
  5
31
102
{ACAD_REACTORS
330
2A
102
}
330
2A
100
AcDbVisualStyle
  2

 70
     6
177
     3
291
     0
 70
    58
 90
        1
176
     1
 90
        2
176
     1
 90
        2
176
     1
 90
        0
176
     1
 40
0.6
176
     1
 40
30.0
176
     1
 62
     7
420
 16777215
176
     1
 90
        2
176
     1
 90
        2
176
     1
 62
     7
176
     1
 62
   257
176
     1
 90
        2
176
     1
 90
        1
176
     1
 40
40.0
176
     1
 90
        0
176
     1
 62
   257
176
     1
 40
1.0
176
     1
 90
        1
176
     1
 90
        6
176
     1
 90
        2
176
     1
 62
     7
176
     1
 90
        3
176
     1
 90
        0
176
     1
 90
        0
176
     1
290
     0
176
     1
 90
        1
176
     1
 40
0.0
176
     1
 90
        0
176
     1
290
     0
176
     1
290
     1
176
     1
290
     1
176
     1
290
     0
176
     1
290
     0
176
     1
290
     0
176
     1
290
     0
176
     1
290
     0
176
     1
290
     0
176
     1
 90
       50
176
     1
 40
0.0
176
     1
 40
1.0
176
     1
 90
        0
176
     1
 62
    18
420
        0
176
     1
 90
       50
176
     1
 90
        3
176
     1
 62
     5
420
      255
176
     1
290
     0
176
     1
 90
       50
176
     1
 90
       50
176
     1
 90
       50
176
     1
290
     0
176
     1
 90
       50
176
     1
 62
   256
176
     0
 40
1.0
176
     0
 90
        2
176
     1
  1
strokes_ogs.tif
176
     1
290
     0
176
     1
 40
1.0
176
     1
 40
1.0
176
     1
1001
ACAD
1000
AcDbSavedByObjectVersion
1070
     0
  0
VISUALSTYLE
  5
3B
102
{ACAD_REACTORS
330
2A
102
}
330
2A
100
AcDbVisualStyle
  2

 70
    20
177
     3
291
     1
 70
    58
 90
        2
176
     0
 90
        2
176
     0
 90
        0
176
     0
 90
        0
176
     0
 40
0.6
176
     0
 40
30.0
176
     0
 62
     7
420
 16777215
176
     0
 90
        1
176
     0
 90
        4
176
     0
 62
     7
176
     0
 62
   257
176
     0
 90
        1
176
     0
 90
        1
176
     0
 40
1.0
176
     0
 90
       10
176
     2
 62
     7
176
     0
 40
1.0
176
     0
 90
        1
176
     0
 90
        6
176
     0
 90
        2
176
     0
 62
     7
176
     0
 90
        5
176
     0
 90
        0
176
     0
 90
        0
176
     0
290
     0
176
     0
 90
        1
176
     0
 40
0.0
176
     0
 90
        0
176
     0
290
     0
176
     0
290
     1
176
     0
290
     1
176
     0
290
     0
176
     0
290
     0
176
     0
290
     0
176
     0
290
     0
176
     0
290
     0
176
     0
290
     0
176
     0
 90
       50
176
     0
 40
0.0
176
     0
 40
1.0
176
     0
 90
        0
176
     0
 62
    18
420
        0
176
     0
 90
       50
176
     0
 90
        3
176
     0
 62
     5
420
      255
176
     0
290
     0
176
     0
 90
       50
176
     0
 90
       50
176
     0
 90
       50
176
     0
290
     0
176
     0
 90
       50
176
     0
 62
   256
176
     0
 40
1.0
176
     0
 90
        2
176
     0
  1
strokes_ogs.tif
176
     0
290
     0
176
     0
 40
1.0
176
     0
 40
1.0
176
     0
1001
ACAD
1000
AcDbSavedByObjectVersion
1070
     0
  0
VISUALSTYLE
  5
38
102
{ACAD_REACTORS
330
2A
102
}
330
2A
100
AcDbVisualStyle
  2

 70
    14
177
     3
291
     1
 70
    58
 90
        2
176
     1
 90
        2
176
     1
 90
        0
176
     1
 90
        0
176
     1
 40
0.6
176
     1
 40
30.0
176
     1
 62
     7
420
 16777215
176
     1
 90
        1
176
     1
 90
        4
176
     1
 62
     7
176
     1
 62
   257
176
     1
 90
        7
176
     1
 90
        7
176
     1
 40
1.0
176
     1
 90
        8
176
     1
 62
     7
176
     1
 40
1.0
176
     1
 90
        1
176
     1
 90
        6
176
     1
 90
        2
176
     1
 62
     7
176
     1
 90
        5
176
     1
 90
        0
176
     1
 90
        0
176
     1
290
     0
176
     1
 90
        1
176
     1
 40
0.0
176
     1
 90
        0
176
     1
290
     0
176
     1
290
     1
176
     1
290
     1
176
     1
290
     0
176
     1
290
     0
176
     1
290
     0
176
     1
290
     0
176
     1
290
     0
176
     1
290
     0
176
     1
 90
       50
176
     1
 40
0.0
176
     1
 40
1.0
176
     1
 90
        0
176
     1
 62
    18
420
        0
176
     1
 90
       50
176
     1
 90
        3
176
     1
 62
     5
420
      255
176
     1
290
     0
176
     1
 90
       50
176
     1
 90
       50
176
     1
 90
       50
176
     1
290
     0
176
     1
 90
       50
176
     1
 62
   256
176
     0
 40
1.0
176
     0
 90
        2
176
     1
  1
strokes_ogs.tif
176
     1
290
     0
176
     1
 40
1.0
176
     1
 40
1.0
176
     1
1001
ACAD
1000
AcDbSavedByObjectVersion
1070
     0
  0
VISUALSTYLE
  5
3C
102
{ACAD_REACTORS
330
2A
102
}
330
2A
100
AcDbVisualStyle
  2

 70
    21
177
     3
291
     1
 70
    58
 90
        2
176
     0
 90
        2
176
     0
 90
        0
176
     0
 90
        0
176
     0
 40
0.6
176
     0
 40
30.0
176
     0
 62
     7
420
 16777215
176
     0
 90
        1
176
     0
 90
        4
176
     0
 62
     7
176
     0
 62
   257
176
     0
 90
        1
176
     0
 90
        1
176
     0
 40
1.0
176
     0
 90
        9
176
     2
 62
     7
176
     0
 40
1.0
176
     0
 90
        1
176
     0
 90
        6
176
     0
 90
        2
176
     0
 62
     7
176
     0
 90
        5
176
     0
 90
        0
176
     0
 90
        0
176
     0
290
     0
176
     0
 90
        1
176
     0
 40
0.0
176
     0
 90
        0
176
     0
290
     0
176
     0
290
     1
176
     0
290
     1
176
     0
290
     0
176
     0
290
     0
176
     0
290
     0
176
     0
290
     0
176
     0
290
     0
176
     0
290
     0
176
     0
 90
       50
176
     0
 40
0.0
176
     0
 40
1.0
176
     0
 90
        0
176
     0
 62
    18
420
        0
176
     0
 90
       50
176
     0
 90
        3
176
     0
 62
     5
420
      255
176
     0
290
     0
176
     0
 90
       50
176
     0
 90
       50
176
     0
 90
       50
176
     0
290
     0
176
     0
 90
       50
176
     0
 62
   256
176
     0
 40
1.0
176
     0
 90
        2
176
     0
  1
strokes_ogs.tif
176
     0
290
     0
176
     0
 40
1.0
176
     0
 40
1.0
176
     0
1001
ACAD
1000
AcDbSavedByObjectVersion
1070
     0
  0
VISUALSTYLE
  5
33
102
{ACAD_REACTORS
330
2A
102
}
330
2A
100
AcDbVisualStyle
  2

 70
     8
177
     3
291
     0
 70
    58
 90
        2
176
     1
 90
        3
176
     1
 90
        0
176
     1
 90
        2
176
     1
 40
0.6
176
     1
 40
30.0
176
     1
 62
     7
420
 16777215
176
     1
 90
        0
176
     1
 90
        0
176
     1
 62
     7
176
     1
 62
   257
176
     1
 90
        1
176
     1
 90
        1
176
     1
 40
1.0
176
     1
 90
        8
176
     1
 62
   257
176
     1
 40
1.0
176
     1
 90
        1
176
     1
 90
        6
176
     1
 90
        2
176
     1
 62
     7
176
     1
 90
        3
176
     1
 90
        0
176
     1
 90
        0
176
     1
290
     0
176
     1
 90
       13
176
     1
 40
0.0
176
     1
 90
        0
176
     1
290
     0
176
     1
290
     1
176
     1
290
     1
176
     1
290
     0
176
     1
290
     0
176
     1
290
     0
176
     1
290
     0
176
     1
290
     0
176
     1
290
     0
176
     1
 90
       50
176
     1
 40
0.0
176
     1
 40
1.0
176
     1
 90
        0
176
     1
 62
    18
420
        0
176
     1
 90
       50
176
     1
 90
        3
176
     1
 62
     5
420
      255
176
     1
290
     0
176
     1
 90
       50
176
     1
 90
       50
176
     1
 90
       50
176
     1
290
     0
176
     1
 90
       50
176
     1
 62
   256
176
     0
 40
1.0
176
     0
 90
        2
176
     1
  1
strokes_ogs.tif
176
     1
290
     0
176
     1
 40
1.0
176
     1
 40
1.0
176
     1
1001
ACAD
1000
AcDbSavedByObjectVersion
1070
     0
  0
VISUALSTYLE
  5
42
102
{ACAD_REACTORS
330
2A
102
}
330
2A
100
AcDbVisualStyle
  2

 70
    27
177
     3
291
     0
 70
    58
 90
        2
176
     1
 90
        2
176
     1
 90
        1
176
     1
 90
        2
176
     1
 40
0.6
176
     1
 40
30.0
176
     1
 62
     7
420
 16777215
176
     1
 90
        0
176
     1
 90
        4
176
     1
 62
     7
176
     1
 62
   257
176
     1
 90
        1
176
     1
 90
        1
176
     1
 40
1.0
176
     1
 90
        8
176
     1
 62
   257
176
     1
 40
1.0
176
     1
 90
        1
176
     1
 90
        6
176
     1
 90
        2
176
     1
 62
     8
420
  7895160
176
     1
 90
        3
176
     1
 90
        0
176
     1
 90
        0
176
     1
290
     0
176
     1
 90
        5
176
     1
 40
0.0
176
     1
 90
        0
176
     1
290
     0
176
     1
290
     1
176
     1
290
     1
176
     1
290
     0
176
     1
290
     0
176
     1
290
     0
176
     1
290
     0
176
     1
290
     0
176
     1
290
     0
176
     1
 90
       50
176
     1
 40
0.0
176
     1
 40
1.0
176
     1
 90
        0
176
     1
 62
    18
420
        0
176
     1
 90
       50
176
     1
 90
        3
176
     1
 62
     5
420
      255
176
     1
290
     0
176
     1
 90
       50
176
     1
 90
       50
176
     1
 90
       50
176
     1
290
     0
176
     1
 90
       50
176
     1
 62
   256
176
     0
 40
1.0
176
     0
 90
        2
176
     1
  1
strokes_ogs.tif
176
     1
290
     0
176
     1
 40
1.0
176
     1
 40
1.0
176
     1
1001
ACAD
1000
AcDbSavedByObjectVersion
1070
     0
  0
VISUALSTYLE
  5
41
102
{ACAD_REACTORS
330
2A
102
}
330
2A
100
AcDbVisualStyle
  2

 70
    26
177
     3
291
     0
 70
    58
 90
        2
176
     1
 90
        2
176
     1
 90
        1
176
     1
 90
        2
176
     1
 40
0.6
176
     1
 40
30.0
176
     1
 62
     7
420
 16777215
176
     1
 90
        1
176
     1
 90
       10
176
     1
 62
     7
176
     1
 62
   257
176
     1
 90
        2
176
     1
 90
        1
176
     1
 40
1.0
176
     1
 90
        8
176
     1
 62
   257
176
     1
 40
1.0
176
     1
 90
        1
176
     1
 90
        6
176
     1
 90
        2
176
     1
 62
     7
176
     1
 90
        3
176
     1
 90
        0
176
     1
 90
        0
176
     1
290
     0
176
     1
 90
        5
176
     1
 40
0.0
176
     1
 90
        0
176
     1
290
     0
176
     1
290
     1
176
     1
290
     1
176
     1
290
     0
176
     1
290
     0
176
     1
290
     0
176
     1
290
     0
176
     1
290
     0
176
     1
290
     0
176
     1
 90
       50
176
     1
 40
0.0
176
     1
 40
1.0
176
     1
 90
        0
176
     1
 62
    18
420
        0
176
     1
 90
       50
176
     1
 90
        3
176
     1
 62
     5
420
      255
176
     1
290
     0
176
     1
 90
       50
176
     1
 90
       50
176
     1
 90
       50
176
     1
290
     0
176
     1
 90
       50
176
     1
 62
   256
176
     0
 40
1.0
176
     0
 90
        2
176
     1
  1
strokes_ogs.tif
176
     1
290
     0
176
     1
 40
1.0
176
     1
 40
1.0
176
     1
1001
ACAD
1000
AcDbSavedByObjectVersion
1070
     0
  0
VISUALSTYLE
  5
3E
102
{ACAD_REACTORS
330
2A
102
}
330
2A
100
AcDbVisualStyle
  2

 70
    23
177
     3
291
     0
 70
    58
 90
        2
176
     1
 90
        2
176
     1
 90
        3
176
     1
 90
        0
176
     1
 40
0.6
176
     1
 40
30.0
176
     1
 62
     7
420
 16777215
176
     1
 90
        2
176
     1
 90
        2
176
     1
 62
     7
176
     1
 62
     7
176
     1
 90
        1
176
     1
 90
        1
176
     1
 40
40.0
176
     1
 90
        8
176
     1
 62
     7
176
     1
 40
1.0
176
     1
 90
        1
176
     1
 90
        6
176
     1
 90
        2
176
     1
 62
     7
176
     1
 90
        3
176
     1
 90
        0
176
     1
 90
        0
176
     1
290
     0
176
     1
 90
        1
176
     1
 40
0.0
176
     1
 90
        0
176
     1
290
     0
176
     1
290
     1
176
     1
290
     1
176
     1
290
     0
176
     1
290
     0
176
     1
290
     0
176
     1
290
     0
176
     1
290
     0
176
     1
290
     0
176
     1
 90
       50
176
     1
 40
0.0
176
     1
 40
1.0
176
     1
 90
        0
176
     1
 62
    18
420
        0
176
     1
 90
       50
176
     1
 90
        3
176
     1
 62
     5
420
      255
176
     1
290
     0
176
     1
 90
       50
176
     1
 90
       50
176
     1
 90
       50
176
     1
290
     0
176
     1
 90
       50
176
     1
 62
   256
176
     0
 40
1.0
176
     0
 90
        2
176
     1
  1
strokes_ogs.tif
176
     1
290
     0
176
     1
 40
1.0
176
     1
 40
1.0
176
     1
1001
ACAD
1000
AcDbSavedByObjectVersion
1070
     0
  0
VISUALSTYLE
  5
3F
102
{ACAD_REACTORS
330
2A
102
}
330
2A
100
AcDbVisualStyle
  2

 70
    24
177
     3
291
     0
 70
    58
 90
        1
176
     1
 90
        2
176
     1
 90
        2
176
     1
 90
        0
176
     1
 40
0.6
176
     1
 40
30.0
176
     1
 62
     7
420
 16777215
176
     1
 90
        2
176
     1
 90
        2
176
     1
 62
     7
176
     1
 62
     7
176
     1
 90
        1
176
     1
 90
        1
176
     1
 40
40.0
176
     1
 90
       11
176
     1
 62
     7
176
     1
 40
1.0
176
     1
 90
        1
176
     1
 90
        6
176
     1
 90
        2
176
     1
 62
     7
176
     1
 90
        6
176
     1
 90
        0
176
     1
 90
        0
176
     1
290
     0
176
     1
 90
        1
176
     1
 40
0.0
176
     1
 90
        0
176
     1
290
     0
176
     1
290
     1
176
     1
290
     1
176
     1
290
     0
176
     1
290
     0
176
     1
290
     0
176
     1
290
     0
176
     1
290
     0
176
     1
290
     0
176
     1
 90
       50
176
     1
 40
0.0
176
     1
 40
1.0
176
     1
 90
        0
176
     1
 62
    18
420
        0
176
     1
 90
       50
176
     1
 90
        3
176
     1
 62
     5
420
      255
176
     1
290
     0
176
     1
 90
       50
176
     1
 90
       50
176
     1
 90
       50
176
     1
290
     0
176
     1
 90
       50
176
     1
 62
   256
176
     0
 40
1.0
176
     0
 90
        2
176
     1
  1
strokes_ogs.tif
176
     1
290
     0
176
     1
 40
1.0
176
     1
 40
1.0
176
     1
1001
ACAD
1000
AcDbSavedByObjectVersion
1070
     0
  0
VISUALSTYLE
  5
37
102
{ACAD_REACTORS
330
2A
102
}
330
2A
100
AcDbVisualStyle
  2

 70
    13
177
     3
291
     1
 70
    58
 90
        2
176
     1
 90
        2
176
     1
 90
        0
176
     1
 90
        0
176
     1
 40
0.6
176
     1
 40
30.0
176
     1
 62
     7
420
 16777215
176
     1
 90
        1
176
     1
 90
        4
176
     1
 62
     7
176
     1
 62
   257
176
     1
 90
        1
176
     1
 90
        1
176
     1
 40
1.0
176
     1
 90
       12
176
     1
 62
     7
176
     1
 40
1.0
176
     1
 90
        1
176
     1
 90
        6
176
     1
 90
        2
176
     1
 62
     7
176
     1
 90
        5
176
     1
 90
        0
176
     1
 90
        0
176
     1
290
     0
176
     1
 90
        1
176
     1
 40
0.0
176
     1
 90
        0
176
     1
290
     0
176
     1
290
     1
176
     1
290
     1
176
     1
290
     0
176
     1
290
     0
176
     1
290
     0
176
     1
290
     0
176
     1
290
     0
176
     1
290
     0
176
     1
 90
       50
176
     1
 40
0.0
176
     1
 40
1.0
176
     1
 90
        0
176
     1
 62
    18
420
        0
176
     1
 90
       50
176
     1
 90
        3
176
     1
 62
     5
420
      255
176
     1
290
     0
176
     1
 90
       50
176
     1
 90
       50
176
     1
 90
       50
176
     1
290
     0
176
     1
 90
       50
176
     1
 62
   256
176
     0
 40
1.0
176
     0
 90
        2
176
     1
  1
strokes_ogs.tif
176
     1
290
     0
176
     1
 40
1.0
176
     1
 40
1.0
176
     1
1001
ACAD
1000
AcDbSavedByObjectVersion
1070
     0
  0
VISUALSTYLE
  5
30
102
{ACAD_REACTORS
330
2A
102
}
330
2A
100
AcDbVisualStyle
  2

 70
     5
177
     3
291
     0
 70
    58
 90
        0
176
     1
 90
        2
176
     1
 90
        0
176
     1
 90
        0
176
     1
 40
0.6
176
     1
 40
30.0
176
     1
 62
     7
420
 16777215
176
     1
 90
        1
176
     1
 90
        4
176
     1
 62
     7
176
     1
 62
   257
176
     1
 90
        1
176
     1
 90
        1
176
     1
 40
1.0
176
     1
 90
        0
176
     1
 62
   257
176
     1
 40
1.0
176
     1
 90
        1
176
     1
 90
        6
176
     1
 90
        2
176
     1
 62
     7
176
     1
 90
        3
176
     1
 90
        0
176
     1
 90
        0
176
     1
290
     0
176
     1
 90
        1
176
     1
 40
0.0
176
     1
 90
        0
176
     1
290
     0
176
     1
290
     1
176
     1
290
     1
176
     1
290
     0
176
     1
290
     0
176
     1
290
     0
176
     1
290
     0
176
     1
290
     0
176
     1
290
     0
176
     1
 90
       50
176
     1
 40
0.0
176
     1
 40
1.0
176
     1
 90
        0
176
     1
 62
    18
420
        0
176
     1
 90
       50
176
     1
 90
        3
176
     1
 62
     5
420
      255
176
     1
290
     0
176
     1
 90
       50
176
     1
 90
       50
176
     1
 90
       50
176
     1
290
     0
176
     1
 90
       50
176
     1
 62
   256
176
     0
 40
1.0
176
     0
 90
        2
176
     1
  1
strokes_ogs.tif
176
     1
290
     0
176
     1
 40
1.0
176
     1
 40
1.0
176
     1
1001
ACAD
1000
AcDbSavedByObjectVersion
1070
     0
  0
VISUALSTYLE
  5
40
102
{ACAD_REACTORS
330
2A
102
}
330
2A
100
AcDbVisualStyle
  2

 70
    25
177
     3
291
     0
 70
    58
 90
        2
176
     1
 90
        2
176
     1
 90
        1
176
     1
 90
        1
176
     1
 40
0.5
176
     1
 40
30.0
176
     1
 62
     7
420
 16777215
176
     1
 90
        1
176
     1
 90
        0
176
     1
 62
     7
176
     1
 62
   257
176
     1
 90
        1
176
     1
 90
        1
176
     1
 40
1.0
176
     1
 90
        8
176
     1
 62
     7
176
     1
 40
1.0
176
     1
 90
        1
176
     1
 90
        6
176
     1
 90
        2
176
     1
 62
     7
176
     1
 90
        3
176
     1
 90
        0
176
     1
 90
        0
176
     1
290
     0
176
     1
 90
       13
176
     1
 40
0.0
176
     1
 90
        0
176
     1
290
     0
176
     1
290
     1
176
     1
290
     1
176
     1
290
     0
176
     1
290
     0
176
     1
290
     0
176
     1
290
     0
176
     1
290
     0
176
     1
290
     0
176
     1
 90
       50
176
     1
 40
0.0
176
     1
 40
1.0
176
     1
 90
        0
176
     1
 62
    18
420
        0
176
     1
 90
       50
176
     1
 90
        3
176
     1
 62
     5
420
      255
176
     1
290
     0
176
     1
 90
       50
176
     1
 90
       50
176
     1
 90
       50
176
     1
290
     0
176
     1
 90
       50
176
     1
 62
   256
176
     0
 40
1.0
176
     0
 90
        2
176
     1
  1
strokes_ogs.tif
176
     1
290
     0
176
     1
 40
1.0
176
     1
 40
1.0
176
     1
1001
ACAD
1000
AcDbSavedByObjectVersion
1070
     0
  0
DICTIONARYVAR
  5
3B6
102
{ACAD_REACTORS
330
3B5
102
}
330
3B5
100
DictionaryVariables
280
     0
  1
1:1
  0
DICTIONARYVAR
  5
3F7
102
{ACAD_REACTORS
330
3B5
102
}
330
3B5
100
DictionaryVariables
280
     0
  1
STANDARD
  0
DICTIONARYVAR
  5
3F6
102
{ACAD_REACTORS
330
3B5
102
}
330
3B5
100
DictionaryVariables
280
     0
  1
STANDARD
  0
DICTIONARYVAR
  5
6D2
102
{ACAD_REACTORS
330
3B5
102
}
330
3B5
100
DictionaryVariables
280
     0
  1
Metric50
  0
DICTIONARYVAR
  5
6D3
102
{ACAD_REACTORS
330
3B5
102
}
330
3B5
100
DictionaryVariables
280
     0
  1
Metric50
  0
DICTIONARYVAR
  5
6D5
102
{ACAD_REACTORS
330
3B5
102
}
330
3B5
100
DictionaryVariables
280
     0
  1
1
  0
DICTIONARYVAR
  5
6D6
102
{ACAD_REACTORS
330
3B5
102
}
330
3B5
100
DictionaryVariables
280
     0
  1
15
  0
DICTIONARYVAR
  5
6D4
102
{ACAD_REACTORS
330
3B5
102
}
330
3B5
100
DictionaryVariables
280
     0
  1
0
  0
DICTIONARYVAR
  5
3B7
102
{ACAD_REACTORS
330
3B5
102
}
330
3B5
100
DictionaryVariables
280
     0
  1
1
  0
DICTIONARY
  5
662
102
{ACAD_REACTORS
330
65B
102
}
330
65B
100
AcDbDictionary
281
     1
  0
DICTIONARY
  5
6DA
330
629
100
AcDbDictionary
280
     1
281
     1
  3
ACAD_XREC_ROUNDTRIP
360
6DB
  0
DICTIONARY
  5
3EB
330
45
100
AcDbDictionary
280
     1
281
     1
  3
ACAD_XREC_ROUNDTRIP
360
3EC
  0
DICTIONARY
  5
3E9
330
44
100
AcDbDictionary
280
     1
281
     1
  3
ACAD_XREC_ROUNDTRIP
360
3EA
  0
DICTIONARY
  5
3ED
330
46
100
AcDbDictionary
280
     1
281
     1
  3
ACAD_XREC_ROUNDTRIP
360
3EE
  0
DICTIONARY
  5
6D8
330
628
100
AcDbDictionary
280
     1
281
     1
  3
ACAD_XREC_ROUNDTRIP
360
6D9
  0
DICTIONARY
  5
3EF
330
6A
100
AcDbDictionary
280
     1
281
     1
  3
ACAD_ROUNDTRIP_2008_TABLESTYLE_CELLSTYLEMAP
360
6D7
  0
XRECORD
  5
6DB
102
{ACAD_REACTORS
330
6DA
102
}
330
6DA
100
AcDbXrecord
280
     1
102
DISPLAYNAME
  1
Metric50
102
FLAGS
 90
        0
  0
XRECORD
  5
3EC
102
{ACAD_REACTORS
330
3EB
102
}
330
3EB
100
AcDbXrecord
280
     1
102
MATERIAL
148
0.0
149
0.0
149
0.0
 93
        0
 94
      127
282
     0
 72
     1
 77
     1
171
     1
175
     1
179
     1
273
     0
  0
XRECORD
  5
3EA
102
{ACAD_REACTORS
330
3E9
102
}
330
3E9
100
AcDbXrecord
280
     1
102
MATERIAL
148
0.0
149
0.0
149
0.0
 93
        0
 94
      127
282
     0
 72
     1
 77
     1
171
     1
175
     1
179
     1
273
     0
  0
XRECORD
  5
3EE
102
{ACAD_REACTORS
330
3ED
102
}
330
3ED
100
AcDbXrecord
280
     1
102
MATERIAL
148
0.0
149
0.0
149
0.0
 93
        0
 94
      127
282
     0
 72
     1
 77
     1
171
     1
175
     1
179
     1
273
     0
  0
XRECORD
  5
6D9
102
{ACAD_REACTORS
330
6D8
102
}
330
6D8
100
AcDbXrecord
280
     1
102
DISPLAYNAME
  1
Metric50
102
FLAGS
 90
        0
  0
CELLSTYLEMAP
  5
6D7
102
{ACAD_REACTORS
330
3EF
102
}
330
3EF
100
AcDbCellStyleMap
 90
        3
300
CELLSTYLE
  1
TABLEFORMAT_BEGIN
 90
        5
170
     1
 91
        0
 92
    32768
 62
   257
 93
        1
300
CONTENTFORMAT
  1
CONTENTFORMAT_BEGIN
 90
        0
 91
        0
 92
        4
 93
        0
300

 40
0.0
140
1.0
 94
        5
 62
     0
340
11
144
0.25
309
CONTENTFORMAT_END
171
     1
301
MARGIN
  1
CELLMARGIN_BEGIN
 40
0.06
 40
0.06
 40
0.06
 40
0.06
 40
0.18
 40
0.18
309
CELLMARGIN_END
 94
        6
 95
        1
302
GRIDFORMAT
  1
GRIDFORMAT_BEGIN
 90
        0
 91
        1
 62
     0
 92
       -2
340
14
 93
        0
 40
0.045
309
GRIDFORMAT_END
 95
        2
302
GRIDFORMAT
  1
GRIDFORMAT_BEGIN
 90
        0
 91
        1
 62
     0
 92
       -2
340
14
 93
        0
 40
0.045
309
GRIDFORMAT_END
 95
        4
302
GRIDFORMAT
  1
GRIDFORMAT_BEGIN
 90
        0
 91
        1
 62
     0
 92
       -2
340
14
 93
        0
 40
0.045
309
GRIDFORMAT_END
 95
        8
302
GRIDFORMAT
  1
GRIDFORMAT_BEGIN
 90
        0
 91
        1
 62
     0
 92
       -2
340
14
 93
        0
 40
0.045
309
GRIDFORMAT_END
 95
       16
302
GRIDFORMAT
  1
GRIDFORMAT_BEGIN
 90
        0
 91
        1
 62
     0
 92
       -2
340
14
 93
        0
 40
0.045
309
GRIDFORMAT_END
 95
       32
302
GRIDFORMAT
  1
GRIDFORMAT_BEGIN
 90
        0
 91
        1
 62
     0
 92
       -2
340
14
 93
        0
 40
0.045
309
GRIDFORMAT_END
309
TABLEFORMAT_END
  1
CELLSTYLE_BEGIN
 90
        1
 91
        1
300
_TITLE
309
CELLSTYLE_END
300
CELLSTYLE
  1
TABLEFORMAT_BEGIN
 90
        5
170
     1
 91
        0
 92
        0
 62
   257
 93
        1
300
CONTENTFORMAT
  1
CONTENTFORMAT_BEGIN
 90
        0
 91
        0
 92
        4
 93
        0
300

 40
0.0
140
1.0
 94
        5
 62
     0
340
11
144
0.18
309
CONTENTFORMAT_END
171
     1
301
MARGIN
  1
CELLMARGIN_BEGIN
 40
0.06
 40
0.06
 40
0.06
 40
0.06
 40
0.18
 40
0.18
309
CELLMARGIN_END
 94
        6
 95
        1
302
GRIDFORMAT
  1
GRIDFORMAT_BEGIN
 90
        0
 91
        1
 62
     0
 92
       -2
340
14
 93
        0
 40
0.045
309
GRIDFORMAT_END
 95
        2
302
GRIDFORMAT
  1
GRIDFORMAT_BEGIN
 90
        0
 91
        1
 62
     0
 92
       -2
340
14
 93
        0
 40
0.045
309
GRIDFORMAT_END
 95
        4
302
GRIDFORMAT
  1
GRIDFORMAT_BEGIN
 90
        0
 91
        1
 62
     0
 92
       -2
340
14
 93
        0
 40
0.045
309
GRIDFORMAT_END
 95
        8
302
GRIDFORMAT
  1
GRIDFORMAT_BEGIN
 90
        0
 91
        1
 62
     0
 92
       -2
340
14
 93
        0
 40
0.045
309
GRIDFORMAT_END
 95
       16
302
GRIDFORMAT
  1
GRIDFORMAT_BEGIN
 90
        0
 91
        1
 62
     0
 92
       -2
340
14
 93
        0
 40
0.045
309
GRIDFORMAT_END
 95
       32
302
GRIDFORMAT
  1
GRIDFORMAT_BEGIN
 90
        0
 91
        1
 62
     0
 92
       -2
340
14
 93
        0
 40
0.045
309
GRIDFORMAT_END
309
TABLEFORMAT_END
  1
CELLSTYLE_BEGIN
 90
        2
 91
        1
300
_HEADER
309
CELLSTYLE_END
300
CELLSTYLE
  1
TABLEFORMAT_BEGIN
 90
        5
170
     1
 91
        0
 92
        0
 62
   257
 93
        1
300
CONTENTFORMAT
  1
CONTENTFORMAT_BEGIN
 90
        0
 91
        0
 92
        4
 93
        0
300

 40
0.0
140
1.0
 94
        2
 62
     0
340
11
144
0.18
309
CONTENTFORMAT_END
171
     1
301
MARGIN
  1
CELLMARGIN_BEGIN
 40
0.06
 40
0.06
 40
0.06
 40
0.06
 40
0.18
 40
0.18
309
CELLMARGIN_END
 94
        6
 95
        1
302
GRIDFORMAT
  1
GRIDFORMAT_BEGIN
 90
        0
 91
        1
 62
     0
 92
       -2
340
14
 93
        0
 40
0.045
309
GRIDFORMAT_END
 95
        2
302
GRIDFORMAT
  1
GRIDFORMAT_BEGIN
 90
        0
 91
        1
 62
     0
 92
       -2
340
14
 93
        0
 40
0.045
309
GRIDFORMAT_END
 95
        4
302
GRIDFORMAT
  1
GRIDFORMAT_BEGIN
 90
        0
 91
        1
 62
     0
 92
       -2
340
14
 93
        0
 40
0.045
309
GRIDFORMAT_END
 95
        8
302
GRIDFORMAT
  1
GRIDFORMAT_BEGIN
 90
        0
 91
        1
 62
     0
 92
       -2
340
14
 93
        0
 40
0.045
309
GRIDFORMAT_END
 95
       16
302
GRIDFORMAT
  1
GRIDFORMAT_BEGIN
 90
        0
 91
        1
 62
     0
 92
       -2
340
14
 93
        0
 40
0.045
309
GRIDFORMAT_END
 95
       32
302
GRIDFORMAT
  1
GRIDFORMAT_BEGIN
 90
        0
 91
        1
 62
     0
 92
       -2
340
14
 93
        0
 40
0.045
309
GRIDFORMAT_END
309
TABLEFORMAT_END
  1
CELLSTYLE_BEGIN
 90
        3
 91
        2
300
_DATA
309
CELLSTYLE_END
  0
ENDSEC
  0
EOF
