  0
SECTION
  2
HEADER
  9
$ACADVER
  1
AC1018
  9
$ACADMAINTVER
 70
     0
  9
$DWGCODEPAGE
  3
ANSI_1252
  9
$INSBASE
 10
0.0
 20
0.0
 30
0.0
  9
$EXTMIN
 10
-0.5
 20
-0.5
 30
-0.5
  9
$EXTMAX
 10
5.0
 20
5.0
 30
5.0
  9
$LIMMIN
 10
-0.5
 20
-0.5
  9
$LIMMAX
 10
5.0
 20
5.0
  9
$ORTHOMODE
 70
     0
  9
$REGENMODE
 70
     1
  9
$FILLMODE
 70
     1
  9
$QTEXTMODE
 70
     0
  9
$MIRRTEXT
 70
     1
  9
$LTSCALE
 40
1.0
  9
$ATTMODE
 70
     1
  9
$TEXTSIZE
 40
0.2
  9
$TRACEWID
 40
0.05
  9
$TEXTSTYLE
  7
Standard
  9
$CLAYER
  8
0
  9
$CELTYPE
  6
ByLayer
  9
$CECOLOR
 62
   256
  9
$CELTSCALE
 40
1.0
  9
$DISPSILH
 70
     0
  9
$DIMSCALE
 40
1.0
  9
$DIMASZ
 40
0.18
  9
$DIMEXO
 40
0.0625
  9
$DIMDLI
 40
0.38
  9
$DIMRND
 40
0.0
  9
$DIMDLE
 40
0.0
  9
$DIMEXE
 40
0.18
  9
$DIMTP
 40
0.0
  9
$DIMTM
 40
0.0
  9
$DIMTXT
 40
0.18
  9
$DIMCEN
 40
0.09
  9
$DIMTSZ
 40
0.0
  9
$DIMTOL
 70
     0
  9
$DIMLIM
 70
     0
  9
$DIMTIH
 70
     1
  9
$DIMTOH
 70
     1
  9
$DIMSE1
 70
     0
  9
$DIMSE2
 70
     0
  9
$DIMTAD
 70
     0
  9
$DIMZIN
 70
     0
  9
$DIMBLK
  1

  9
$DIMASO
 70
     1
  9
$DIMSHO
 70
     1
  9
$DIMPOST
  1

  9
$DIMAPOST
  1

  9
$DIMALT
 70
     0
  9
$DIMALTD
 70
     2
  9
$DIMALTF
 40
25.4
  9
$DIMLFAC
 40
1.0
  9
$DIMTOFL
 70
     0
  9
$DIMTVP
 40
0.0
  9
$DIMTIX
 70
     0
  9
$DIMSOXD
 70
     0
  9
$DIMSAH
 70
     0
  9
$DIMBLK1
  1

  9
$DIMBLK2
  1

  9
$DIMSTYLE
  2
Standard
  9
$DIMCLRD
 70
     0
  9
$DIMCLRE
 70
     0
  9
$DIMCLRT
 70
     0
  9
$DIMTFAC
 40
1.0
  9
$DIMGAP
 40
0.09
  9
$DIMJUST
 70
     0
  9
$DIMSD1
 70
     0
  9
$DIMSD2
 70
     0
  9
$DIMTOLJ
 70
     1
  9
$DIMTZIN
 70
     0
  9
$DIMALTZ
 70
     0
  9
$DIMALTTZ
 70
     0
  9
$DIMUPT
 70
     0
  9
$DIMDEC
 70
     4
  9
$DIMTDEC
 70
     4
  9
$DIMALTU
 70
     2
  9
$DIMALTTD
 70
     2
  9
$DIMTXSTY
  7
Standard
  9
$DIMAUNIT
 70
     0
  9
$DIMADEC
 70
     0
  9
$DIMALTRND
 40
0.0
  9
$DIMAZIN
 70
     0
  9
$DIMDSEP
 70
    46
  9
$DIMATFIT
 70
     3
  9
$DIMFRAC
 70
     0
  9
$DIMLDRBLK
  1

  9
$DIMLUNIT
 70
     2
  9
$DIMLWD
 70
    -2
  9
$DIMLWE
 70
    -2
  9
$DIMTMOVE
 70
     0
  9
$LUNITS
 70
     2
  9
$LUPREC
 70
     4
  9
$SKETCHINC
 40
0.1
  9
$FILLETRAD
 40
0.5
  9
$AUNITS
 70
     0
  9
$AUPREC
 70
     0
  9
$MENU
  1
.
  9
$ELEVATION
 40
0.0
  9
$PELEVATION
 40
0.0
  9
$THICKNESS
 40
0.0
  9
$LIMCHECK
 70
     0
  9
$CHAMFERA
 40
0.0
  9
$CHAMFERB
 40
0.0
  9
$CHAMFERC
 40
0.0
  9
$CHAMFERD
 40
0.0
  9
$SKPOLY
 70
     0
  9
$TDCREATE
 40
2459445.43804765
  9
$TDUCREATE
 40
2459445.354714317
  9
$TDUPDATE
 40
2459445.438409178
  9
$TDUUPDATE
 40
2459445.355075845
  9
$TDINDWG
 40
0.0000000116
  9
$TDUSRTIMER
 40
0.0000000116
  9
$USRTIMER
 70
     1
  9
$ANGBASE
 50
0.0
  9
$ANGDIR
 70
     0
  9
$PDMODE
 70
     0
  9
$PDSIZE
 40
0.0
  9
$PLINEWID
 40
0.0
  9
$SPLFRAME
 70
     0
  9
$SPLINETYPE
 70
     6
  9
$SPLINESEGS
 70
     8
  9
$HANDSEED
  5
4E1
  9
$SURFTAB1
 70
     6
  9
$SURFTAB2
 70
     6
  9
$SURFTYPE
 70
     6
  9
$SURFU
 70
     6
  9
$SURFV
 70
     6
  9
$UCSBASE
  2

  9
$UCSNAME
  2

  9
$UCSORG
 10
0.0
 20
0.0
 30
0.0
  9
$UCSXDIR
 10
1.0
 20
0.0
 30
0.0
  9
$UCSYDIR
 10
0.0
 20
1.0
 30
0.0
  9
$UCSORTHOREF
  2

  9
$UCSORTHOVIEW
 70
     0
  9
$UCSORGTOP
 10
0.0
 20
0.0
 30
0.0
  9
$UCSORGBOTTOM
 10
0.0
 20
0.0
 30
0.0
  9
$UCSORGLEFT
 10
0.0
 20
0.0
 30
0.0
  9
$UCSORGRIGHT
 10
0.0
 20
0.0
 30
0.0
  9
$UCSORGFRONT
 10
0.0
 20
0.0
 30
0.0
  9
$UCSORGBACK
 10
0.0
 20
0.0
 30
0.0
  9
$PUCSBASE
  2

  9
$PUCSNAME
  2

  9
$PUCSORG
 10
0.0
 20
0.0
 30
0.0
  9
$PUCSXDIR
 10
1.0
 20
0.0
 30
0.0
  9
$PUCSYDIR
 10
0.0
 20
1.0
 30
0.0
  9
$PUCSORTHOREF
  2

  9
$PUCSORTHOVIEW
 70
     0
  9
$PUCSORGTOP
 10
0.0
 20
0.0
 30
0.0
  9
$PUCSORGBOTTOM
 10
0.0
 20
0.0
 30
0.0
  9
$PUCSORGLEFT
 10
0.0
 20
0.0
 30
0.0
  9
$PUCSORGRIGHT
 10
0.0
 20
0.0
 30
0.0
  9
$PUCSORGFRONT
 10
0.0
 20
0.0
 30
0.0
  9
$PUCSORGBACK
 10
0.0
 20
0.0
 30
0.0
  9
$USERI1
 70
     0
  9
$USERI2
 70
     0
  9
$USERI3
 70
     0
  9
$USERI4
 70
     0
  9
$USERI5
 70
     0
  9
$USERR1
 40
0.0
  9
$USERR2
 40
0.0
  9
$USERR3
 40
0.0
  9
$USERR4
 40
0.0
  9
$USERR5
 40
0.0
  9
$WORLDVIEW
 70
     1
  9
$SHADEDGE
 70
     3
  9
$SHADEDIF
 70
    70
  9
$TILEMODE
 70
     1
  9
$MAXACTVP
 70
    64
  9
$PINSBASE
 10
0.0
 20
0.0
 30
0.0
  9
$PLIMCHECK
 70
     0
  9
$PEXTMIN
 10
-0.5
 20
-0.5
 30
-0.5
  9
$PEXTMAX
 10
5.0
 20
5.0
 30
5.0
  9
$PLIMMIN
 10
-0.5
 20
-0.5
  9
$PLIMMAX
 10
5.0
 20
5.0
  9
$UNITMODE
 70
     0
  9
$VISRETAIN
 70
     1
  9
$PLINEGEN
 70
     0
  9
$PSLTSCALE
 70
     1
  9
$TREEDEPTH
 70
  3020
  9
$CMLSTYLE
  2
Standard
  9
$CMLJUST
 70
     0
  9
$CMLSCALE
 40
1.0
  9
$PROXYGRAPHICS
 70
     1
  9
$MEASUREMENT
 70
     1
  9
$CELWEIGHT
370
    18
  9
$ENDCAPS
280
     0
  9
$JOINSTYLE
280
     0
  9
$LWDISPLAY
290
     1
  9
$INSUNITS
 70
     4
  9
$HYPERLINKBASE
  1

  9
$STYLESHEET
  1

  9
$XEDIT
290
     1
  9
$CEPSNTYPE
380
     0
  9
$PSTYLEMODE
290
     1
  9
$FINGERPRINTGUID
  2
{72ea4a1a-ba95-4ac3-8b03-f9d36f993058}
  9
$VERSIONGUID
  2
{FAEB1C32-E019-11D5-929B-00C0DF256EC4}
  9
$EXTNAMES
290
     1
  9
$PSVPSCALE
 40
0.0
  9
$OLESTARTUP
290
     0
  9
$SORTENTS
280
   127
  9
$INDEXCTL
280
     0
  9
$HIDETEXT
280
     1
  9
$XCLIPFRAME
290
     0
  9
$HALOGAP
280
     0
  9
$OBSCOLOR
 70
   257
  9
$OBSLTYPE
280
     0
  9
$INTERSECTIONDISPLAY
280
     0
  9
$INTERSECTIONCOLOR
 70
   257
  9
$DIMASSOC
280
     2
  9
$PROJECTNAME
  1

  0
ENDSEC
  0
SECTION
  2
CLASSES
  0
CLASS
  1
ACDBDICTIONARYWDFLT
  2
AcDbDictionaryWithDefault
  3
ObjectDBX Classes
 90
        0
 91
        3
280
     0
281
     0
  0
CLASS
  1
VISUALSTYLE
  2
AcDbVisualStyle
  3
ObjectDBX Classes
 90
     4095
 91
        3
280
     0
281
     0
  0
CLASS
  1
MATERIAL
  2
AcDbMaterial
  3
ObjectDBX Classes
 90
     1153
 91
        3
280
     0
281
     0
  0
CLASS
  1
SCALE
  2
AcDbScale
  3
ObjectDBX Classes
 90
     1153
 91
        3
280
     0
281
     0
  0
CLASS
  1
TABLESTYLE
  2
AcDbTableStyle
  3
ObjectDBX Classes
 90
     4095
 91
        3
280
     0
281
     0
  0
CLASS
  1
MLEADERSTYLE
  2
AcDbMLeaderStyle
  3
ACDB_MLEADERSTYLE_CLASS
 90
     4095
 91
        3
280
     0
281
     0
  0
CLASS
  1
SUN
  2
AcDbSun
  3
SCENEOE
 90
     1153
 91
        3
280
     0
281
     0
  0
CLASS
  1
DIMASSOC
  2
AcDbDimAssoc
  3
"AcDbDimAssoc|Product Desc:     AcDim ARX App For Dimension|Company:          Autodesk, Inc.|WEB Address:      www.autodesk.com"
 90
        0
 91
        3
280
     0
281
     0
  0
CLASS
  1
DICTIONARYVAR
  2
AcDbDictionaryVar
  3
ObjectDBX Classes
 90
        0
 91
        3
280
     0
281
     0
  0
CLASS
  1
CELLSTYLEMAP
  2
AcDbCellStyleMap
  3
ObjectDBX Classes
 90
     1152
 91
        3
280
     0
281
     0
  0
ENDSEC
  0
SECTION
  2
TABLES
  0
TABLE
  2
VPORT
  5
8
102
{ACAD_XDICTIONARY
360
49A
102
}
330
0
100
AcDbSymbolTable
 70
    16
  0
VPORT
  5
29
330
8
100
AcDbSymbolTableRecord
100
AcDbViewportTableRecord
  2
*Active
 70
     0
 10
0.0
 20
0.0
 11
1.0
 21
1.0
 12
17.250935
 22
6.287451
 13
0.0
 23
0.0
 14
0.5
 24
0.5
 15
0.5
 25
0.5
 16
0.0
 26
0.0
 36
1.0
 17
0.0
 27
0.0
 37
0.0
 40
254.0
 41
0.069908
 42
50.0
 43
261.557172
 44
-261.557172
 50
0.0
 51
0.0
 71
     0
 72
   100
 73
     1
 74
     3
 75
     0
 76
     0
 77
     0
 78
     0
281
     0
 65
     1
110
0.0
120
0.0
130
0.0
111
1.0
121
0.0
131
0.0
112
0.0
122
1.0
132
0.0
 79
     0
146
0.0
  0
VPORT
  5
486
330
8
100
AcDbSymbolTableRecord
100
AcDbViewportTableRecord
  2
L1
 70
     0
 10
0.0
 20
0.0
 11
1.0
 21
1.0
 12
17.250935
 22
6.287451
 13
0.0
 23
0.0
 14
0.5
 24
0.5
 15
0.5
 25
0.5
 16
0.0
 26
0.0
 36
1.0
 17
0.0
 27
0.0
 37
0.0
 40
254.0
 41
0.069908
 42
50.0
 43
261.557172
 44
-261.557172
 50
0.0
 51
0.0
 71
     0
 72
   100
 73
     1
 74
     3
 75
     0
 76
     0
 77
     0
 78
     0
281
     0
 65
     1
110
0.0
120
0.0
130
0.0
111
1.0
121
0.0
131
0.0
112
0.0
122
1.0
132
0.0
 79
     0
146
0.0
  0
VPORT
  5
487
330
8
100
AcDbSymbolTableRecord
100
AcDbViewportTableRecord
  2
L2
 70
     0
 10
0.0
 20
0.0
 11
0.5
 21
1.0
 12
0.0
 22
0.0
 13
0.0
 23
0.0
 14
0.5
 24
0.5
 15
0.5
 25
0.5
 16
0.0
 26
-1.0
 36
0.0
 17
0.0
 27
0.0
 37
0.0
 40
1786.482694
 41
0.00994
 42
50.0
 43
924.270225
 44
-924.270225
 50
0.0
 51
0.0
 71
     0
 72
   100
 73
     1
 74
     3
 75
     0
 76
     0
 77
     0
 78
     0
281
     0
 65
     1
110
0.0
120
0.0
130
0.0
111
1.0
121
0.0
131
0.0
112
0.0
122
1.0
132
0.0
 79
     0
146
0.0
  0
VPORT
  5
488
330
8
100
AcDbSymbolTableRecord
100
AcDbViewportTableRecord
  2
L2
 70
     0
 10
0.5
 20
0.0
 11
1.0
 21
1.0
 12
0.0
 22
0.0
 13
0.0
 23
0.0
 14
0.5
 24
0.5
 15
0.5
 25
0.5
 16
1.0
 26
0.0
 36
0.0
 17
0.0
 27
0.0
 37
0.0
 40
1786.482694
 41
0.00994
 42
50.0
 43
902.224531
 44
-902.224531
 50
0.0
 51
0.0
 71
     0
 72
   100
 73
     1
 74
     3
 75
     0
 76
     0
 77
     0
 78
     0
281
     0
 65
     1
110
0.0
120
0.0
130
0.0
111
1.0
121
0.0
131
0.0
112
0.0
122
1.0
132
0.0
 79
     0
146
0.0
  0
VPORT
  5
489
330
8
100
AcDbSymbolTableRecord
100
AcDbViewportTableRecord
  2
L3
 70
     0
 10
0.0
 20
0.5
 11
1.0
 21
1.0
 12
17.250935
 22
6.287451
 13
0.0
 23
0.0
 14
0.5
 24
0.5
 15
0.5
 25
0.5
 16
0.0
 26
0.0
 36
1.0
 17
0.0
 27
0.0
 37
0.0
 40
254.0
 41
0.069908
 42
50.0
 43
261.557172
 44
-261.557172
 50
0.0
 51
0.0
 71
     0
 72
   100
 73
     1
 74
     3
 75
     0
 76
     0
 77
     0
 78
     0
281
     0
 65
     1
110
0.0
120
0.0
130
0.0
111
1.0
121
0.0
131
0.0
112
0.0
122
1.0
132
0.0
 79
     0
146
0.0
  0
VPORT
  5
48A
330
8
100
AcDbSymbolTableRecord
100
AcDbViewportTableRecord
  2
L3
 70
     0
 10
0.0
 20
0.0
 11
1.0
 21
0.5
 12
0.0
 22
0.0
 13
0.0
 23
0.0
 14
0.5
 24
0.5
 15
0.5
 25
0.5
 16
0.0
 26
-1.0
 36
0.0
 17
0.0
 27
0.0
 37
0.0
 40
1786.482694
 41
0.00994
 42
50.0
 43
924.270225
 44
-924.270225
 50
0.0
 51
0.0
 71
     0
 72
   100
 73
     1
 74
     3
 75
     0
 76
     0
 77
     0
 78
     0
281
     0
 65
     1
110
0.0
120
0.0
130
0.0
111
1.0
121
0.0
131
0.0
112
0.0
122
1.0
132
0.0
 79
     0
146
0.0
  0
VPORT
  5
48B
330
8
100
AcDbSymbolTableRecord
100
AcDbViewportTableRecord
  2
L4
 70
     0
 10
0.0
 20
0.5
 11
0.5
 21
1.0
 12
17.250935
 22
6.287451
 13
0.0
 23
0.0
 14
0.5
 24
0.5
 15
0.5
 25
0.5
 16
0.0
 26
0.0
 36
1.0
 17
0.0
 27
0.0
 37
0.0
 40
254.0
 41
0.069908
 42
50.0
 43
261.557172
 44
-261.557172
 50
0.0
 51
0.0
 71
     0
 72
   100
 73
     1
 74
     3
 75
     0
 76
     0
 77
     0
 78
     0
281
     0
 65
     1
110
0.0
120
0.0
130
0.0
111
1.0
121
0.0
131
0.0
112
0.0
122
1.0
132
0.0
 79
     0
146
0.0
  0
VPORT
  5
48C
330
8
100
AcDbSymbolTableRecord
100
AcDbViewportTableRecord
  2
L4
 70
     0
 10
0.0
 20
0.0
 11
0.5
 21
0.5
 12
0.0
 22
0.0
 13
0.0
 23
0.0
 14
0.5
 24
0.5
 15
0.5
 25
0.5
 16
0.0
 26
-1.0
 36
0.0
 17
0.0
 27
0.0
 37
0.0
 40
1786.482694
 41
0.00994
 42
50.0
 43
924.270225
 44
-924.270225
 50
0.0
 51
0.0
 71
     0
 72
   100
 73
     1
 74
     3
 75
     0
 76
     0
 77
     0
 78
     0
281
     0
 65
     1
110
0.0
120
0.0
130
0.0
111
1.0
121
0.0
131
0.0
112
0.0
122
1.0
132
0.0
 79
     0
146
0.0
  0
VPORT
  5
48D
330
8
100
AcDbSymbolTableRecord
100
AcDbViewportTableRecord
  2
L4
 70
     0
 10
0.5
 20
0.0
 11
1.0
 21
0.5
 12
0.0
 22
0.0
 13
0.0
 23
0.0
 14
0.5
 24
0.5
 15
0.5
 25
0.5
 16
1.0
 26
0.0
 36
0.0
 17
0.0
 27
0.0
 37
0.0
 40
1786.482694
 41
0.00994
 42
50.0
 43
902.224531
 44
-902.224531
 50
0.0
 51
0.0
 71
     0
 72
   100
 73
     1
 74
     3
 75
     0
 76
     0
 77
     0
 78
     0
281
     0
 65
     1
110
0.0
120
0.0
130
0.0
111
1.0
121
0.0
131
0.0
112
0.0
122
1.0
132
0.0
 79
     0
146
0.0
  0
VPORT
  5
48E
330
8
100
AcDbSymbolTableRecord
100
AcDbViewportTableRecord
  2
L4
 70
     0
 10
0.5
 20
0.5
 11
1.0
 21
1.0
 12
0.0
 22
0.0
 13
0.0
 23
0.0
 14
0.5
 24
0.5
 15
0.5
 25
0.5
 16
0.5773502691896258
 26
-0.5773502691896258
 36
0.5773502691896258
 17
0.0
 27
0.0
 37
0.0
 40
1756.251269
 41
0.010111
 42
50.0
 43
915.164678
 44
-915.164678
 50
0.0
 51
0.0
 71
     0
 72
   100
 73
     1
 74
     3
 75
     0
 76
     0
 77
     0
 78
     0
281
     0
 65
     1
110
0.0
120
0.0
130
0.0
111
1.0
121
0.0
131
0.0
112
0.0
122
1.0
132
0.0
 79
     0
146
0.0
  0
VPORT
  5
48F
330
8
100
AcDbSymbolTableRecord
100
AcDbViewportTableRecord
  2
L6
 70
     0
 10
0.0
 20
0.5
 11
0.333333
 21
1.0
 12
0.0
 22
0.0
 13
0.0
 23
0.0
 14
0.5
 24
0.5
 15
0.5
 25
0.5
 16
0.7188730927569433
 26
-0.5850486126764433
 36
0.3754192287502549
 17
0.0
 27
0.0
 37
0.0
 40
1854.2971
 41
0.009576
 42
50.0
 43
959.847851
 44
-959.847851
 50
0.0
 51
0.0
 71
     0
 72
   100
 73
     1
 74
     3
 75
     0
 76
     0
 77
     0
 78
     0
281
     0
 65
     1
110
0.0
120
0.0
130
0.0
111
1.0
121
0.0
131
0.0
112
0.0
122
1.0
132
0.0
 79
     0
146
0.0
  0
VPORT
  5
490
330
8
100
AcDbSymbolTableRecord
100
AcDbViewportTableRecord
  2
L6
 70
     0
 10
0.0
 20
0.0
 11
0.333333
 21
0.5
 12
0.0
 22
0.0
 13
0.0
 23
0.0
 14
0.5
 24
0.5
 15
0.5
 25
0.5
 16
-1.0
 26
0.0
 36
0.0
 17
0.0
 27
0.0
 37
0.0
 40
1786.482694
 41
0.00994
 42
50.0
 43
902.224531
 44
-902.224531
 50
0.0
 51
0.0
 71
     0
 72
   100
 73
     1
 74
     3
 75
     0
 76
     0
 77
     0
 78
     0
281
     0
 65
     1
110
0.0
120
0.0
130
0.0
111
1.0
121
0.0
131
0.0
112
0.0
122
1.0
132
0.0
 79
     0
146
0.0
  0
VPORT
  5
491
330
8
100
AcDbSymbolTableRecord
100
AcDbViewportTableRecord
  2
L6
 70
     0
 10
0.333333
 20
0.5
 11
0.666667
 21
1.0
 12
17.250935
 22
6.287451
 13
0.0
 23
0.0
 14
0.5
 24
0.5
 15
0.5
 25
0.5
 16
0.0
 26
0.0
 36
1.0
 17
0.0
 27
0.0
 37
0.0
 40
254.0
 41
0.069908
 42
50.0
 43
261.557172
 44
-261.557172
 50
0.0
 51
0.0
 71
     0
 72
   100
 73
     1
 74
     3
 75
     0
 76
     0
 77
     0
 78
     0
281
     0
 65
     1
110
0.0
120
0.0
130
0.0
111
1.0
121
0.0
131
0.0
112
0.0
122
1.0
132
0.0
 79
     0
146
0.0
  0
VPORT
  5
492
330
8
100
AcDbSymbolTableRecord
100
AcDbViewportTableRecord
  2
L6
 70
     0
 10
0.333333
 20
0.0
 11
0.666667
 21
0.5
 12
0.0
 22
0.0
 13
0.0
 23
0.0
 14
0.5
 24
0.5
 15
0.5
 25
0.5
 16
0.0
 26
-1.0
 36
0.0
 17
0.0
 27
0.0
 37
0.0
 40
1786.482694
 41
0.00994
 42
50.0
 43
924.270225
 44
-924.270225
 50
0.0
 51
0.0
 71
     0
 72
   100
 73
     1
 74
     3
 75
     0
 76
     0
 77
     0
 78
     0
281
     0
 65
     1
110
0.0
120
0.0
130
0.0
111
1.0
121
0.0
131
0.0
112
0.0
122
1.0
132
0.0
 79
     0
146
0.0
  0
VPORT
  5
493
330
8
100
AcDbSymbolTableRecord
100
AcDbViewportTableRecord
  2
L6
 70
     0
 10
0.666667
 20
0.5
 11
1.0
 21
1.0
 12
0.0
 22
0.0
 13
0.0
 23
0.0
 14
0.5
 24
0.5
 15
0.5
 25
0.5
 16
0.5773502691896258
 26
-0.5773502691896258
 36
0.5773502691896258
 17
0.0
 27
0.0
 37
0.0
 40
1756.251269
 41
0.010111
 42
50.0
 43
915.164678
 44
-915.164678
 50
0.0
 51
0.0
 71
     0
 72
   100
 73
     1
 74
     3
 75
     0
 76
     0
 77
     0
 78
     0
281
     0
 65
     1
110
0.0
120
0.0
130
0.0
111
1.0
121
0.0
131
0.0
112
0.0
122
1.0
132
0.0
 79
     0
146
0.0
  0
VPORT
  5
494
330
8
100
AcDbSymbolTableRecord
100
AcDbViewportTableRecord
  2
L6
 70
     0
 10
0.666667
 20
0.0
 11
1.0
 21
0.5
 12
0.0
 22
0.0
 13
0.0
 23
0.0
 14
0.5
 24
0.5
 15
0.5
 25
0.5
 16
1.0
 26
0.0
 36
0.0
 17
0.0
 27
0.0
 37
0.0
 40
1786.482694
 41
0.00994
 42
50.0
 43
902.224531
 44
-902.224531
 50
0.0
 51
0.0
 71
     0
 72
   100
 73
     1
 74
     3
 75
     0
 76
     0
 77
     0
 78
     0
281
     0
 65
     1
110
0.0
120
0.0
130
0.0
111
1.0
121
0.0
131
0.0
112
0.0
122
1.0
132
0.0
 79
     0
146
0.0
  0
ENDTAB
  0
TABLE
  2
LTYPE
  5
5
330
0
100
AcDbSymbolTable
 70
     6
  0
LTYPE
  5
14
330
5
100
AcDbSymbolTableRecord
100
AcDbLinetypeTableRecord
  2
ByBlock
 70
     0
  3

 72
    65
 73
     0
 40
0.0
  0
LTYPE
  5
15
330
5
100
AcDbSymbolTableRecord
100
AcDbLinetypeTableRecord
  2
ByLayer
 70
     0
  3

 72
    65
 73
     0
 40
0.0
  0
LTYPE
  5
16
330
5
100
AcDbSymbolTableRecord
100
AcDbLinetypeTableRecord
  2
Continuous
 70
     0
  3
Solid line
 72
    65
 73
     0
 40
0.0
  0
LTYPE
  5
6E
330
5
100
AcDbSymbolTableRecord
100
AcDbLinetypeTableRecord
  2
CENTER
 70
     0
  3
____ _ ____ _ ____ _ ____
 72
    65
 73
     4
 40
47.4
 49
22.0
 74
     4
 75
     0
340
0
 46
0.0
 50
0.0
 44
0.0
 45
0.0
 49
-8.5
 74
     4
 75
     0
340
0
 46
0.0
 50
0.0
 44
0.0
 45
0.0
 49
8.5
 74
     4
 75
     0
340
0
 46
0.0
 50
0.0
 44
0.0
 45
0.0
 49
-8.5
 74
     4
 75
     0
340
0
 46
0.0
 50
0.0
 44
0.0
 45
0.0
  0
LTYPE
  5
6F
330
5
100
AcDbSymbolTableRecord
100
AcDbLinetypeTableRecord
  2
DASHDOT
 70
     0
  3
_._._._._._._._._._._._._._._._.
 72
    65
 73
     4
 40
70.0
 49
31.0
 74
     4
 75
     0
340
0
 46
0.0
 50
0.0
 44
0.0
 45
0.0
 49
-13.0
 74
     4
 75
     0
340
0
 46
0.0
 50
0.0
 44
0.0
 45
0.0
 49
13.0
 74
     4
 75
     0
340
0
 46
0.0
 50
0.0
 44
0.0
 45
0.0
 49
-13.0
 74
     4
 75
     0
340
0
 46
0.0
 50
0.0
 44
0.0
 45
0.0
  0
LTYPE
  5
70
330
5
100
AcDbSymbolTableRecord
100
AcDbLinetypeTableRecord
  2
DASHED
 70
     0
  3
__ __ __ __ __ __ __ __ __
 72
    65
 73
     2
 40
25.72
 49
12.86
 74
     4
 75
     0
340
0
 46
0.0
 50
0.0
 44
0.0
 45
0.0
 49
-12.86
 74
     4
 75
     0
340
0
 46
0.0
 50
0.0
 44
0.0
 45
0.0
  0
LTYPE
  5
71
330
5
100
AcDbSymbolTableRecord
100
AcDbLinetypeTableRecord
  2
DOT
 70
     0
  3
.........................
 72
    65
 73
     2
 40
10.0
 49
0.0
 74
     4
 75
     0
340
0
 46
0.0
 50
0.0
 44
0.0
 45
0.0
 49
-10.0
 74
     4
 75
     0
340
0
 46
0.0
 50
0.0
 44
0.0
 45
0.0
  0
LTYPE
  5
72
330
5
100
AcDbSymbolTableRecord
100
AcDbLinetypeTableRecord
  2
PHANTOM
 70
     0
  3
____ _ _ ____ _ _ _____ _ _ ____
 72
    65
 73
     6
 40
50.5
 49
18.0
 74
     4
 75
     0
340
0
 46
0.0
 50
0.0
 44
0.0
 45
0.0
 49
-6.5
 74
     4
 75
     0
340
0
 46
0.0
 50
0.0
 44
0.0
 45
0.0
 49
6.5
 74
     4
 75
     0
340
0
 46
0.0
 50
0.0
 44
0.0
 45
0.0
 49
-6.5
 74
     4
 75
     0
340
0
 46
0.0
 50
0.0
 44
0.0
 45
0.0
 49
6.5
 74
     4
 75
     0
340
0
 46
0.0
 50
0.0
 44
0.0
 45
0.0
 49
-6.5
 74
     4
 75
     0
340
0
 46
0.0
 50
0.0
 44
0.0
 45
0.0
  0
ENDTAB
  0
TABLE
  2
LAYER
  5
99901
330
0
100
AcDbSymbolTable
 70
    19
  0
LAYER
  5
99902
102
{ACAD_XDICTIONARY
360
60E
102
}
330
2
100
AcDbSymbolTableRecord
100
AcDbLayerTableRecord
  2
0
 70
     0
 62
     7
  6
CONTINUOUS
370
    -3
390
F
  0
LAYER
  5
99903
102
{ACAD_XDICTIONARY
360
610
102
}
330
2
100
AcDbSymbolTableRecord
100
AcDbLayerTableRecord
  2
1
 70
     0
 62
     4
  6
CONTINUOUS
370
    -3
390
F
  0
LAYER
  5
99904
102
{ACAD_XDICTIONARY
360
612
102
}
330
2
100
AcDbSymbolTableRecord
100
AcDbLayerTableRecord
  2
2
 70
     0
 62
     7
  6
CONTINUOUS
370
    -3
390
F
  0
LAYER
  5
99905
102
{ACAD_XDICTIONARY
360
614
102
}
330
2
100
AcDbSymbolTableRecord
100
AcDbLayerTableRecord
  2
4
 70
     0
 62
     2
  6
CENTER
370
    -3
390
F
  0
LAYER
  5
99906
102
{ACAD_XDICTIONARY
360
616
102
}
330
2
100
AcDbSymbolTableRecord
100
AcDbLayerTableRecord
  2
SK2
 70
     0
 62
     7
  6
CONTINUOUS
370
    -3
390
F
  0
LAYER
  5
99907
102
{ACAD_XDICTIONARY
360
618
102
}
330
2
100
AcDbSymbolTableRecord
100
AcDbLayerTableRecord
  2
SK3
 70
     0
 62
     1
  6
DASHED
370
    -3
390
F
  0
LAYER
  5
99908
102
{ACAD_XDICTIONARY
360
61A
102
}
330
2
100
AcDbSymbolTableRecord
100
AcDbLayerTableRecord
  2
SK4
 70
     0
 62
     2
  6
CENTER
370
    -3
390
F
  0
LAYER
  5
99909
102
{ACAD_XDICTIONARY
360
61C
102
}
330
2
100
AcDbSymbolTableRecord
100
AcDbLayerTableRecord
  2
SK6
 70
     0
 62
     5
  6
CONTINUOUS
370
    -3
390
F
  0
LAYER
  5
9990A
102
{ACAD_XDICTIONARY
360
61E
102
}
330
2
100
AcDbSymbolTableRecord
100
AcDbLayerTableRecord
  2
CUT
 70
     0
 62
     1
  6
CONTINUOUS
370
    -3
390
F
  0
LAYER
  5
9990B
102
{ACAD_XDICTIONARY
360
620
102
}
330
2
100
AcDbSymbolTableRecord
100
AcDbLayerTableRecord
  2
NOCUT
 70
     0
 62
     7
  6
CONTINUOUS
370
    -3
390
F
  0
LAYER
  5
9990C
102
{ACAD_XDICTIONARY
360
622
102
}
330
2
100
AcDbSymbolTableRecord
100
AcDbLayerTableRecord
  2
80
 70
     0
 62
     6
  6
CONTINUOUS
370
    -3
390
F
  0
LAYER
  5
9990D
102
{ACAD_XDICTIONARY
360
624
102
}
330
2
100
AcDbSymbolTableRecord
100
AcDbLayerTableRecord
  2
81
 70
     0
 62
     3
  6
CONTINUOUS
370
    -3
390
F
  0
LAYER
  5
9990E
102
{ACAD_XDICTIONARY
360
626
102
}
330
2
100
AcDbSymbolTableRecord
100
AcDbLayerTableRecord
  2
SK1
 70
     0
 62
     4
  6
CONTINUOUS
370
    -3
390
F
  0
ENDTAB
  0
TABLE
  2
STYLE
  5
3
330
0
100
AcDbSymbolTable
 70
     3
  0
STYLE
  5
11
330
3
100
AcDbSymbolTableRecord
100
AcDbTextStyleTableRecord
  2
Standard
 70
     0
 40
0.0
 41
1.0
 50
0.0
 71
     0
 42
0.2
  3
txt
  4

  0
STYLE
  5
3D2
330
3
100
AcDbSymbolTableRecord
100
AcDbTextStyleTableRecord
  2
iso_b_vert
 70
     0
 40
0.0
 41
1.0
 50
0.0
 71
     0
 42
0.2
  3
simplex.shx
  4

  0
STYLE
  5
3D3
330
3
100
AcDbSymbolTableRecord
100
AcDbTextStyleTableRecord
  2
DWGDirectTextStyle
 70
     0
 40
0.0
 41
1.0
 50
0.0
 71
     0
 42
0.2
  3
simplex
  4

  0
ENDTAB
  0
TABLE
  2
VIEW
  5
6
330
0
100
AcDbSymbolTable
 70
     8
  0
VIEW
  5
47C
330
6
100
AcDbSymbolTableRecord
100
AcDbViewTableRecord
  2
Top
 70
     0
 40
254.0
 10
17.250935
 20
6.287451
 41
474.954082
 11
0.0
 21
0.0
 31
1.0
 12
0.0
 22
0.0
 32
0.0
 42
50.0
 43
261.557172
 44
-261.557172
 50
0.0
 71
     0
281
     0
 72
     0
  0
VIEW
  5
47D
330
6
100
AcDbSymbolTableRecord
100
AcDbViewTableRecord
  2
Front
 70
     0
 40
1786.482694
 10
0.0
 20
0.0
 41
474.954082
 11
0.0
 21
-1.0
 31
0.0
 12
0.0
 22
0.0
 32
0.0
 42
50.0
 43
924.270225
 44
-924.270225
 50
0.0
 71
     0
281
     0
 72
     0
  0
VIEW
  5
47E
330
6
100
AcDbSymbolTableRecord
100
AcDbViewTableRecord
  2
Right
 70
     0
 40
1786.482694
 10
0.0
 20
0.0
 41
254.0
 11
1.0
 21
0.0
 31
0.0
 12
0.0
 22
0.0
 32
0.0
 42
50.0
 43
902.224531
 44
-902.224531
 50
0.0
 71
     0
281
     0
 72
     0
  0
VIEW
  5
47F
330
6
100
AcDbSymbolTableRecord
100
AcDbViewTableRecord
  2
Back
 70
     0
 40
1786.482694
 10
0.0
 20
0.0
 41
474.954082
 11
0.0
 21
1.0
 31
0.0
 12
0.0
 22
0.0
 32
0.0
 42
50.0
 43
924.270225
 44
-924.270225
 50
0.0
 71
     0
281
     0
 72
     0
  0
VIEW
  5
480
330
6
100
AcDbSymbolTableRecord
100
AcDbViewTableRecord
  2
Bottom
 70
     0
 40
254.0
 10
0.0
 20
0.0
 41
474.954082
 11
0.0
 21
0.0
 31
-1.0
 12
0.0
 22
0.0
 32
0.0
 42
50.0
 43
893.241347
 44
-893.241347
 50
180.0
 71
     0
281
     0
 72
     0
  0
VIEW
  5
481
330
6
100
AcDbSymbolTableRecord
100
AcDbViewTableRecord
  2
Left
 70
     0
 40
1786.482694
 10
0.0
 20
0.0
 41
254.0
 11
-1.0
 21
0.0
 31
0.0
 12
0.0
 22
0.0
 32
0.0
 42
50.0
 43
902.224531
 44
-902.224531
 50
0.0
 71
     0
281
     0
 72
     0
  0
VIEW
  5
482
330
6
100
AcDbSymbolTableRecord
100
AcDbViewTableRecord
  2
Isometric
 70
     0
 40
1756.251269
 10
0.0
 20
0.0
 41
515.448374
 11
0.5773502691896258
 21
-0.5773502691896258
 31
0.5773502691896258
 12
0.0
 22
0.0
 32
0.0
 42
50.0
 43
915.164678
 44
-915.164678
 50
0.0
 71
     0
281
     0
 72
     0
  0
VIEW
  5
483
330
6
100
AcDbSymbolTableRecord
100
AcDbViewTableRecord
  2
Trimetric
 70
     0
 40
1854.2971
 10
0.0
 20
0.0
 41
496.803637
 11
0.7188730927569433
 21
-0.5850486126764433
 31
0.3754192287502549
 12
0.0
 22
0.0
 32
0.0
 42
50.0
 43
959.847851
 44
-959.847851
 50
0.0
 71
     0
281
     0
 72
     0
  0
ENDTAB
  0
TABLE
  2
UCS
  5
7
330
0
100
AcDbSymbolTable
 70
     0
  0
ENDTAB
  0
TABLE
  2
APPID
  5
9
330
0
100
AcDbSymbolTable
 70
     8
  0
APPID
  5
12
330
9
100
AcDbSymbolTableRecord
100
AcDbRegAppTableRecord
  2
ACAD
 70
     0
  0
APPID
  5
3E3
330
9
100
AcDbSymbolTableRecord
100
AcDbRegAppTableRecord
  2
ACAD_DSTYLE_DIMBREAK
 70
     0
  0
APPID
  5
495
330
9
100
AcDbSymbolTableRecord
100
AcDbRegAppTableRecord
  2
ACAD_DSTYLE_DIM_LINETYPE
 70
     0
  0
APPID
  5
496
330
9
100
AcDbSymbolTableRecord
100
AcDbRegAppTableRecord
  2
ACAD_DSTYLE_DIM_EXT1_LINETYPE
 70
     0
  0
APPID
  5
497
330
9
100
AcDbSymbolTableRecord
100
AcDbRegAppTableRecord
  2
ACAD_DSTYLE_DIM_EXT2_LINETYPE
 70
     0
  0
APPID
  5
498
330
9
100
AcDbSymbolTableRecord
100
AcDbRegAppTableRecord
  2
ACAD_DSTYLE_DIMFLIPARROW_SYMBOL
 70
     0
  0
APPID
  5
499
330
9
100
AcDbSymbolTableRecord
100
AcDbRegAppTableRecord
  2
ACAD_DSTYLE_DIMFLIPARROW_WHICH_SYMBOL
 70
     0
  0
APPID
  5
4D9
330
9
100
AcDbSymbolTableRecord
100
AcDbRegAppTableRecord
  2
ACAD_MLEADERVER
 70
     0
  0
ENDTAB
  0
TABLE
  2
DIMSTYLE
  5
A
330
0
100
AcDbSymbolTable
 70
     1
100
AcDbDimStyleTable
  0
DIMSTYLE
105
27
102
{ACAD_REACTORS
330
3E4
330
3FE
330
417
330
430
330
44A
330
462
102
}
330
A
100
AcDbSymbolTableRecord
100
AcDbDimStyleTableRecord
  2
Standard
 70
     0
178
     0
340
11
1001
ACAD_DSTYLE_DIMBREAK
1070
   391
1040
6.35
  0
ENDTAB
  0
TABLE
  2
BLOCK_RECORD
  5
1
330
0
100
AcDbSymbolTable
 70
    13
  0
BLOCK_RECORD
  5
1F
330
1
100
AcDbSymbolTableRecord
100
AcDbBlockTableRecord
  2
*Model_Space
340
22
  0
BLOCK_RECORD
  5
1B
330
1
100
AcDbSymbolTableRecord
100
AcDbBlockTableRecord
  2
*Paper_Space
340
1E
  0
BLOCK_RECORD
  5
23
330
1
100
AcDbSymbolTableRecord
100
AcDbBlockTableRecord
  2
*Paper_Space0
340
26
  0
BLOCK_RECORD
  5
3E8
330
1
100
AcDbSymbolTableRecord
100
AcDbBlockTableRecord
  2
*D1
340
0
  0
BLOCK_RECORD
  5
3F4
330
1
100
AcDbSymbolTableRecord
100
AcDbBlockTableRecord
  2
_U0
340
0
  0
BLOCK_RECORD
  5
401
330
1
100
AcDbSymbolTableRecord
100
AcDbBlockTableRecord
  2
*D3
340
0
  0
BLOCK_RECORD
  5
40D
330
1
100
AcDbSymbolTableRecord
100
AcDbBlockTableRecord
  2
_U1
340
0
  0
BLOCK_RECORD
  5
41A
330
1
100
AcDbSymbolTableRecord
100
AcDbBlockTableRecord
  2
*D5
340
0
  0
BLOCK_RECORD
  5
427
330
1
100
AcDbSymbolTableRecord
100
AcDbBlockTableRecord
  2
_U2
340
0
  0
BLOCK_RECORD
  5
433
330
1
100
AcDbSymbolTableRecord
100
AcDbBlockTableRecord
  2
*D7
340
0
  0
BLOCK_RECORD
  5
441
330
1
100
AcDbSymbolTableRecord
100
AcDbBlockTableRecord
  2
_U3
340
0
  0
BLOCK_RECORD
  5
44D
330
1
100
AcDbSymbolTableRecord
100
AcDbBlockTableRecord
  2
*D9
340
0
  0
BLOCK_RECORD
  5
459
330
1
100
AcDbSymbolTableRecord
100
AcDbBlockTableRecord
  2
_U4
340
0
  0
BLOCK_RECORD
  5
465
330
1
100
AcDbSymbolTableRecord
100
AcDbBlockTableRecord
  2
*D11
340
0
  0
BLOCK_RECORD
  5
473
330
1
100
AcDbSymbolTableRecord
100
AcDbBlockTableRecord
  2
_U5
340
0
  0
ENDTAB
  0
ENDSEC
  0
SECTION
  2
BLOCKS
  0
BLOCK
  5
20
330
1F
100
AcDbEntity
  8
0
100
AcDbBlockBegin
  2
*Model_Space
 70
     0
 10
0.0
 20
0.0
 30
0.0
  3
*Model_Space
  1

  0
ENDBLK
  5
21
330
1F
100
AcDbEntity
  8
0
100
AcDbBlockEnd
  0
BLOCK
  5
1C
330
1B
100
AcDbEntity
 67
     1
  8
0
100
AcDbBlockBegin
  2
*Paper_Space
 70
     0
 10
0.0
 20
0.0
 30
0.0
  3
*Paper_Space
  1

  0
ENDBLK
  5
1D
330
1B
100
AcDbEntity
 67
     1
  8
0
100
AcDbBlockEnd
  0
BLOCK
  5
24
330
23
100
AcDbEntity
  8
0
100
AcDbBlockBegin
  2
*Paper_Space0
 70
     0
 10
0.0
 20
0.0
 30
0.0
  3
*Paper_Space0
  1

  0
ENDBLK
  5
25
330
23
100
AcDbEntity
  8
0
100
AcDbBlockEnd
  0
BLOCK
  5
3E9
330
3E8
100
AcDbEntity
  8
0
100
AcDbBlockBegin
  2
*D1
 70
     1
 10
0.0
 20
0.0
 30
0.0
  3
*D1
  1

  0
LINE
  5
3EB
330
3E8
100
AcDbEntity
  8
SK2
370
    -2
100
AcDbLine
 10
-0.5875
 20
-31.0
 30
0.0
 11
-33.799875
 21
-31.0
 31
0.0
  0
LINE
  5
3EC
330
3E8
100
AcDbEntity
  8
SK2
370
    -2
100
AcDbLine
 10
-0.5875
 20
31.0
 30
0.0
 11
-33.799875
 21
31.0
 31
0.0
  0
LINE
  5
3ED
330
3E8
100
AcDbEntity
  8
SK2
370
    -2
100
AcDbLine
 10
-30.624875
 20
-27.825
 30
0.0
 11
-30.624875
 21
27.825
 31
0.0
  0
SOLID
  5
3EE
330
3E8
100
AcDbEntity
  8
SK2
100
AcDbTrace
 10
-31.154042
 20
-27.825
 30
0.0
 11
-30.095708
 21
-27.825
 31
0.0
 12
-30.624875
 22
-31.0
 32
0.0
 13
-30.624875
 23
-31.0
 33
0.0
  0
SOLID
  5
3EF
330
3E8
100
AcDbEntity
  8
SK2
100
AcDbTrace
 10
-30.095708
 20
27.825
 30
0.0
 11
-31.154042
 21
27.825
 31
0.0
 12
-30.624875
 22
31.0
 32
0.0
 13
-30.624875
 23
31.0
 33
0.0
  0
MTEXT
  5
3F0
330
3E8
100
AcDbEntity
  8
SK2
370
    18
100
AcDbMText
 10
-37.931334
 20
0.0
 30
0.0
 40
3.5001
 41
0.0
 71
     5
 72
     1
  1
\A1;62
  7
iso_b_vert
 11
5.730183352904034E-17
 21
1.0
 31
0.0
 73
     1
 44
1.0
  0
POINT
  5
3F1
330
3E8
100
AcDbEntity
  8
Defpoints
 62
     0
100
AcDbPoint
 10
1.0
 20
-31.0
 30
0.0
  0
POINT
  5
3F2
330
3E8
100
AcDbEntity
  8
Defpoints
 62
     0
100
AcDbPoint
 10
1.0
 20
31.0
 30
0.0
  0
POINT
  5
3F3
330
3E8
100
AcDbEntity
  8
Defpoints
 62
     0
100
AcDbPoint
 10
-30.624875
 20
31.0
 30
0.0
  0
ENDBLK
  5
3EA
330
3E8
100
AcDbEntity
  8
0
100
AcDbBlockEnd
  0
BLOCK
  5
3FC
330
3F4
100
AcDbEntity
  8
0
100
AcDbBlockBegin
  2
_U0
 70
     0
 10
0.0
 20
0.0
 30
0.0
  3
_U0
  1

  0
MTEXT
  5
3F5
330
3F4
100
AcDbEntity
  8
SK2
370
    13
100
AcDbMText
 10
-32.189553
 20
3.317129
 30
0.0
 40
3.5001
 41
0.0
 71
     7
 72
     5
  1
\W0.7335;60
  7
iso_b_vert
 11
6.123233995736766E-17
 21
1.0
 31
0.0
 73
     2
 44
1.084337
  0
MTEXT
  5
3F6
330
3F4
100
AcDbEntity
  8
SK2
370
    13
100
AcDbMText
 10
-32.189553
 20
-7.183171
 30
0.0
 40
3.5001
 41
0.0
 71
     7
 72
     5
  1
%%c
  7
iso_b_vert
 11
6.123233995736766E-17
 21
1.0
 31
0.0
 73
     2
 44
1.084337
  0
LINE
  5
3F7
330
3F4
100
AcDbEntity
  8
SK2
370
    13
100
AcDbLine
 10
-0.5875
 20
-31.0
 30
0.0
 11
-33.799875
 21
-31.0
 31
0.0
  0
LINE
  5
3F8
330
3F4
100
AcDbEntity
  8
SK2
370
    13
100
AcDbLine
 10
-0.5875
 20
31.0
 30
0.0
 11
-33.799875
 21
31.0
 31
0.0
  0
LINE
  5
3F9
330
3F4
100
AcDbEntity
  8
SK2
370
    13
100
AcDbLine
 10
-30.624875
 20
-31.0
 30
0.0
 11
-30.624875
 21
31.0
 31
0.0
  0
SOLID
  5
3FA
330
3F4
100
AcDbEntity
  8
SK2
370
    18
100
AcDbTrace
 10
-30.624875
 20
-31.0
 30
0.0
 11
-31.042872
 21
-27.825002
 31
0.0
 12
-30.206878
 22
-27.824998
 32
0.0
 13
-30.206878
 23
-27.824998
 33
0.0
  0
SOLID
  5
3FB
330
3F4
100
AcDbEntity
  8
SK2
370
    18
100
AcDbTrace
 10
-30.624875
 20
31.0
 30
0.0
 11
-30.206878
 21
27.825002
 31
0.0
 12
-31.042872
 22
27.824998
 32
0.0
 13
-31.042872
 23
27.824998
 33
0.0
  0
ENDBLK
  5
3FD
330
3F4
100
AcDbEntity
  8
0
100
AcDbBlockEnd
  0
BLOCK
  5
402
330
401
100
AcDbEntity
  8
0
100
AcDbBlockBegin
  2
*D3
 70
     1
 10
0.0
 20
0.0
 30
0.0
  3
*D3
  1

  0
LINE
  5
404
330
401
100
AcDbEntity
  8
SK2
370
    -2
100
AcDbLine
 10
4.6125
 20
-12.8
 30
0.0
 11
-23.799875
 21
-12.8
 31
0.0
  0
LINE
  5
405
330
401
100
AcDbEntity
  8
SK2
370
    -2
100
AcDbLine
 10
-0.5875
 20
12.8
 30
0.0
 11
-23.799875
 21
12.8
 31
0.0
  0
LINE
  5
406
330
401
100
AcDbEntity
  8
SK2
370
    -2
100
AcDbLine
 10
-20.624875
 20
-9.625
 30
0.0
 11
-20.624875
 21
9.625
 31
0.0
  0
SOLID
  5
407
330
401
100
AcDbEntity
  8
SK2
100
AcDbTrace
 10
-21.154042
 20
-9.625
 30
0.0
 11
-20.095708
 21
-9.625
 31
0.0
 12
-20.624875
 22
-12.8
 32
0.0
 13
-20.624875
 23
-12.8
 33
0.0
  0
SOLID
  5
408
330
401
100
AcDbEntity
  8
SK2
100
AcDbTrace
 10
-20.095708
 20
9.625
 30
0.0
 11
-21.154042
 21
9.625
 31
0.0
 12
-20.624875
 22
12.8
 32
0.0
 13
-20.624875
 23
12.8
 33
0.0
  0
MTEXT
  5
409
330
401
100
AcDbEntity
  8
SK2
370
    18
100
AcDbMText
 10
-27.931334
 20
0.0
 30
0.0
 40
3.5001
 41
0.0
 71
     5
 72
     1
  1
\A1;25.6
  7
iso_b_vert
 11
0.0
 21
1.0
 31
0.0
 73
     1
 44
1.0
  0
POINT
  5
40A
330
401
100
AcDbEntity
  8
Defpoints
 62
     0
100
AcDbPoint
 10
6.2
 20
-12.8
 30
0.0
  0
POINT
  5
40B
330
401
100
AcDbEntity
  8
Defpoints
 62
     0
100
AcDbPoint
 10
1.0
 20
12.8
 30
0.0
  0
POINT
  5
40C
330
401
100
AcDbEntity
  8
Defpoints
 62
     0
100
AcDbPoint
 10
-20.624875
 20
12.8
 30
0.0
  0
ENDBLK
  5
403
330
401
100
AcDbEntity
  8
0
100
AcDbBlockEnd
  0
BLOCK
  5
415
330
40D
100
AcDbEntity
  8
0
100
AcDbBlockBegin
  2
_U1
 70
     0
 10
0.0
 20
0.0
 30
0.0
  3
_U1
  1

  0
MTEXT
  5
40E
330
40D
100
AcDbEntity
  8
SK2
370
    13
100
AcDbMText
 10
-22.189553
 20
1.208202
 30
0.0
 40
3.5001
 41
0.0
 71
     7
 72
     5
  1
\W0.7724;25,4
  7
iso_b_vert
 11
6.123233995736766E-17
 21
1.0
 31
0.0
 73
     2
 44
1.084337
  0
MTEXT
  5
40F
330
40D
100
AcDbEntity
  8
SK2
370
    13
100
AcDbMText
 10
-22.189553
 20
-9.292098
 30
0.0
 40
3.5001
 41
0.0
 71
     7
 72
     5
  1
%%c
  7
iso_b_vert
 11
6.123233995736766E-17
 21
1.0
 31
0.0
 73
     2
 44
1.084337
  0
LINE
  5
410
330
40D
100
AcDbEntity
  8
SK2
370
    13
100
AcDbLine
 10
-0.5875
 20
-12.8
 30
0.0
 11
-23.799875
 21
-12.8
 31
0.0
  0
LINE
  5
411
330
40D
100
AcDbEntity
  8
SK2
370
    13
100
AcDbLine
 10
-0.5875
 20
12.8
 30
0.0
 11
-23.799875
 21
12.8
 31
0.0
  0
LINE
  5
412
330
40D
100
AcDbEntity
  8
SK2
370
    13
100
AcDbLine
 10
-20.624875
 20
-12.8
 30
0.0
 11
-20.624875
 21
12.8
 31
0.0
  0
SOLID
  5
413
330
40D
100
AcDbEntity
  8
SK2
370
    18
100
AcDbTrace
 10
-20.624875
 20
-12.8
 30
0.0
 11
-21.042872
 21
-9.625002
 31
0.0
 12
-20.206878
 22
-9.624998
 32
0.0
 13
-20.206878
 23
-9.624998
 33
0.0
  0
SOLID
  5
414
330
40D
100
AcDbEntity
  8
SK2
370
    18
100
AcDbTrace
 10
-20.624875
 20
12.8
 30
0.0
 11
-20.206878
 21
9.625002
 31
0.0
 12
-21.042872
 22
9.624998
 32
0.0
 13
-21.042872
 23
9.624998
 33
0.0
  0
ENDBLK
  5
416
330
40D
100
AcDbEntity
  8
0
100
AcDbBlockEnd
  0
BLOCK
  5
41B
330
41A
100
AcDbEntity
  8
0
100
AcDbBlockBegin
  2
*D5
 70
     1
 10
0.0
 20
0.0
 30
0.0
  3
*D5
  1

  0
LINE
  5
41D
330
41A
100
AcDbEntity
  8
SK2
370
    -2
100
AcDbLine
 10
-0.5875
 20
4.8725
 30
0.0
 11
-14.6749
 21
4.8725
 31
0.0
  0
LINE
  5
41E
330
41A
100
AcDbEntity
  8
SK2
370
    -2
100
AcDbLine
 10
-0.5875
 20
-4.8725
 30
0.0
 11
-14.6749
 21
-4.8725
 31
0.0
  0
LINE
  5
41F
330
41A
100
AcDbEntity
  8
SK2
370
    -2
100
AcDbLine
 10
-11.4999
 20
4.8725
 30
0.0
 11
-11.4999
 21
8.0475
 31
0.0
  0
LINE
  5
420
330
41A
100
AcDbEntity
  8
SK2
370
    -2
100
AcDbLine
 10
-11.4999
 20
-4.8725
 30
0.0
 11
-11.4999
 21
-8.0475
 31
0.0
  0
SOLID
  5
421
330
41A
100
AcDbEntity
  8
SK2
100
AcDbTrace
 10
-10.970733
 20
1.6975
 30
0.0
 11
-12.029067
 21
1.6975
 31
0.0
 12
-11.4999
 22
4.8725
 32
0.0
 13
-11.4999
 23
4.8725
 33
0.0
  0
SOLID
  5
422
330
41A
100
AcDbEntity
  8
SK2
100
AcDbTrace
 10
-12.029067
 20
-1.6975
 30
0.0
 11
-10.970733
 21
-1.6975
 31
0.0
 12
-11.4999
 22
-4.8725
 32
0.0
 13
-11.4999
 23
-4.8725
 33
0.0
  0
MTEXT
  5
423
330
41A
100
AcDbEntity
  8
SK2
370
    18
100
AcDbMText
 10
-18.806359
 20
0.0
 30
0.0
 40
3.5001
 41
0.0
 71
     5
 72
     1
  1
\A1;9.7
  7
iso_b_vert
 11
0.0
 21
1.0
 31
0.0
 73
     1
 44
1.0
  0
POINT
  5
424
330
41A
100
AcDbEntity
  8
Defpoints
 62
     0
100
AcDbPoint
 10
1.0
 20
4.8725
 30
0.0
  0
POINT
  5
425
330
41A
100
AcDbEntity
  8
Defpoints
 62
     0
100
AcDbPoint
 10
1.0
 20
-4.8725
 30
0.0
  0
POINT
  5
426
330
41A
100
AcDbEntity
  8
Defpoints
 62
     0
100
AcDbPoint
 10
-11.4999
 20
-4.8725
 30
0.0
  0
ENDBLK
  5
41C
330
41A
100
AcDbEntity
  8
0
100
AcDbBlockEnd
  0
BLOCK
  5
42E
330
427
100
AcDbEntity
  8
0
100
AcDbBlockBegin
  2
_U2
 70
     0
 10
0.0
 20
0.0
 30
0.0
  3
_U2
  1

  0
MTEXT
  5
428
330
427
100
AcDbEntity
  8
SK2
370
    13
100
AcDbMText
 10
-12.189553
 20
-2.549905
 30
0.0
 40
3.5001
 41
0.0
 71
     7
 72
     5
  1
\W0.7383;9,7
  7
iso_b_vert
 11
6.123233995736766E-17
 21
1.0
 31
0.0
 73
     2
 44
1.084337
  0
LINE
  5
429
330
427
100
AcDbEntity
  8
SK2
370
    13
100
AcDbLine
 10
-0.5875
 20
4.8725
 30
0.0
 11
-14.6749
 21
4.8725
 31
0.0
  0
LINE
  5
42A
330
427
100
AcDbEntity
  8
SK2
370
    13
100
AcDbLine
 10
-0.5875
 20
-4.8725
 30
0.0
 11
-14.6749
 21
-4.8725
 31
0.0
  0
LINE
  5
42B
330
427
100
AcDbEntity
  8
SK2
370
    13
100
AcDbLine
 10
-11.4999
 20
13.62275
 30
0.0
 11
-11.4999
 21
-13.62275
 31
0.0
  0
SOLID
  5
42C
330
427
100
AcDbEntity
  8
SK2
370
    18
100
AcDbTrace
 10
-11.4999
 20
4.8725
 30
0.0
 11
-11.917897
 21
8.047498
 31
0.0
 12
-11.081903
 22
8.047502
 32
0.0
 13
-11.081903
 23
8.047502
 33
0.0
  0
SOLID
  5
42D
330
427
100
AcDbEntity
  8
SK2
370
    18
100
AcDbTrace
 10
-11.4999
 20
-4.8725
 30
0.0
 11
-11.081903
 21
-8.047498
 31
0.0
 12
-11.917897
 22
-8.047502
 32
0.0
 13
-11.917897
 23
-8.047502
 33
0.0
  0
ENDBLK
  5
42F
330
427
100
AcDbEntity
  8
0
100
AcDbBlockEnd
  0
BLOCK
  5
434
330
433
100
AcDbEntity
  8
0
100
AcDbBlockBegin
  2
*D7
 70
     1
 10
0.0
 20
0.0
 30
0.0
  3
*D7
  1

  0
LINE
  5
436
330
433
100
AcDbEntity
  8
2
370
    -2
100
AcDbLine
 10
43.59724
 20
46.091711
 30
0.0
 11
43.59724
 21
52.179111
 31
0.0
  0
LINE
  5
437
330
433
100
AcDbEntity
  8
2
370
    -2
100
AcDbLine
 10
50.0
 20
40.6625
 30
0.0
 11
50.0
 21
52.179111
 31
0.0
  0
LINE
  5
438
330
433
100
AcDbEntity
  8
2
370
    -2
100
AcDbLine
 10
50.0
 20
49.004111
 30
0.0
 11
75.926239
 21
49.004111
 31
0.0
  0
LINE
  5
439
330
433
100
AcDbEntity
  8
2
370
    -2
100
AcDbLine
 10
40.42224
 20
49.004111
 30
0.0
 11
37.24724
 21
49.004111
 31
0.0
  0
LINE
  5
43A
330
433
100
AcDbEntity
  8
2
370
    -2
100
AcDbLine
 10
53.175
 20
49.004111
 30
0.0
 11
56.35
 21
49.004111
 31
0.0
  0
SOLID
  5
43B
330
433
100
AcDbEntity
  8
2
100
AcDbTrace
 10
40.42224
 20
48.474944
 30
0.0
 11
40.42224
 21
49.533277
 31
0.0
 12
43.59724
 22
49.004111
 32
0.0
 13
43.59724
 23
49.004111
 33
0.0
  0
SOLID
  5
43C
330
433
100
AcDbEntity
  8
2
100
AcDbTrace
 10
53.175
 20
49.533277
 30
0.0
 11
53.175
 21
48.474944
 31
0.0
 12
50.0
 22
49.004111
 32
0.0
 13
50.0
 23
49.004111
 33
0.0
  0
MTEXT
  5
43D
330
433
100
AcDbEntity
  8
2
370
    18
100
AcDbMText
 10
66.619723
 20
56.310569
 30
0.0
 40
3.5001
 41
0.0
 71
     5
 72
     1
  1
\A1;6.4
  7
iso_b_vert
 73
     1
 44
1.0
  0
POINT
  5
43E
330
433
100
AcDbEntity
  8
Defpoints
 62
     0
100
AcDbPoint
 10
43.59724
 20
44.504211
 30
0.0
  0
POINT
  5
43F
330
433
100
AcDbEntity
  8
Defpoints
 62
     0
100
AcDbPoint
 10
50.0
 20
39.075
 30
0.0
  0
POINT
  5
440
330
433
100
AcDbEntity
  8
Defpoints
 62
     0
100
AcDbPoint
 10
50.0
 20
49.004111
 30
0.0
  0
ENDBLK
  5
435
330
433
100
AcDbEntity
  8
0
100
AcDbBlockEnd
  0
BLOCK
  5
448
330
441
100
AcDbEntity
  8
0
100
AcDbBlockBegin
  2
_U3
 70
     0
 10
0.0
 20
0.0
 30
0.0
  3
_U3
  1

  0
MTEXT
  5
442
330
441
100
AcDbEntity
  8
2
370
    13
100
AcDbMText
 10
61.298005
 20
50.036774
 30
0.0
 40
3.5001
 41
0.0
 71
     7
 72
     5
  1
\W0.7852;6,403
  7
iso_b_vert
 73
     2
 44
1.084337
  0
LINE
  5
443
330
441
100
AcDbEntity
  8
2
370
    13
100
AcDbLine
 10
43.59724
 20
46.091711
 30
0.0
 11
43.59724
 21
52.179111
 31
0.0
  0
LINE
  5
444
330
441
100
AcDbEntity
  8
2
370
    13
100
AcDbLine
 10
50.0
 20
40.6625
 30
0.0
 11
50.0
 21
52.179111
 31
0.0
  0
LINE
  5
445
330
441
100
AcDbEntity
  8
2
370
    13
100
AcDbLine
 10
72.126946
 20
49.004111
 30
0.0
 11
34.84699
 21
49.004111
 31
0.0
  0
SOLID
  5
446
330
441
100
AcDbEntity
  8
2
370
    18
100
AcDbTrace
 10
43.59724
 20
49.004111
 30
0.0
 11
40.422242
 21
48.586114
 31
0.0
 12
40.422239
 22
49.422107
 32
0.0
 13
40.422239
 23
49.422107
 33
0.0
  0
SOLID
  5
447
330
441
100
AcDbEntity
  8
2
370
    18
100
AcDbTrace
 10
50.0
 20
49.004111
 30
0.0
 11
53.174998
 21
49.422107
 31
0.0
 12
53.175002
 22
48.586114
 32
0.0
 13
53.175002
 23
48.586114
 33
0.0
  0
ENDBLK
  5
449
330
441
100
AcDbEntity
  8
0
100
AcDbBlockEnd
  0
BLOCK
  5
44E
330
44D
100
AcDbEntity
  8
0
100
AcDbBlockBegin
  2
*D9
 70
     1
 10
0.0
 20
0.0
 30
0.0
  3
*D9
  1

  0
LINE
  5
450
330
44D
100
AcDbEntity
  8
2
370
    -2
100
AcDbLine
 10
0.0
 20
31.5875
 30
0.0
 11
0.0
 21
61.7499
 31
0.0
  0
LINE
  5
451
330
44D
100
AcDbEntity
  8
2
370
    -2
100
AcDbLine
 10
50.0
 20
40.6625
 30
0.0
 11
50.0
 21
61.7499
 31
0.0
  0
LINE
  5
452
330
44D
100
AcDbEntity
  8
2
370
    -2
100
AcDbLine
 10
3.175
 20
58.5749
 30
0.0
 11
46.825
 21
58.5749
 31
0.0
  0
SOLID
  5
453
330
44D
100
AcDbEntity
  8
2
100
AcDbTrace
 10
3.175
 20
59.104067
 30
0.0
 11
3.175
 21
58.045733
 31
0.0
 12
0.0
 22
58.5749
 32
0.0
 13
0.0
 23
58.5749
 33
0.0
  0
SOLID
  5
454
330
44D
100
AcDbEntity
  8
2
100
AcDbTrace
 10
46.825
 20
58.045733
 30
0.0
 11
46.825
 21
59.104067
 31
0.0
 12
50.0
 22
58.5749
 32
0.0
 13
50.0
 23
58.5749
 33
0.0
  0
MTEXT
  5
455
330
44D
100
AcDbEntity
  8
2
370
    18
100
AcDbMText
 10
25.0
 20
65.881359
 30
0.0
 40
3.5001
 41
0.0
 71
     5
 72
     1
  1
\A1;50
  7
iso_b_vert
 73
     1
 44
1.0
  0
POINT
  5
456
330
44D
100
AcDbEntity
  8
Defpoints
 62
     0
100
AcDbPoint
 10
0.0
 20
30.0
 30
0.0
  0
POINT
  5
457
330
44D
100
AcDbEntity
  8
Defpoints
 62
     0
100
AcDbPoint
 10
50.0
 20
39.075
 30
0.0
  0
POINT
  5
458
330
44D
100
AcDbEntity
  8
Defpoints
 62
     0
100
AcDbPoint
 10
50.0
 20
58.5749
 30
0.0
  0
ENDBLK
  5
44F
330
44D
100
AcDbEntity
  8
0
100
AcDbBlockEnd
  0
BLOCK
  5
460
330
459
100
AcDbEntity
  8
0
100
AcDbBlockBegin
  2
_U4
 70
     0
 10
0.0
 20
0.0
 30
0.0
  3
_U4
  1

  0
MTEXT
  5
45A
330
459
100
AcDbEntity
  8
2
370
    13
100
AcDbMText
 10
23.094979
 20
59.607563
 30
0.0
 40
3.5001
 41
0.0
 71
     7
 72
     5
  1
\W0.7335;50
  7
iso_b_vert
 73
     2
 44
1.084337
  0
LINE
  5
45B
330
459
100
AcDbEntity
  8
2
370
    13
100
AcDbLine
 10
0.0
 20
31.5875
 30
0.0
 11
0.0
 21
61.7499
 31
0.0
  0
LINE
  5
45C
330
459
100
AcDbEntity
  8
2
370
    13
100
AcDbLine
 10
50.0
 20
40.6625
 30
0.0
 11
50.0
 21
61.7499
 31
0.0
  0
LINE
  5
45D
330
459
100
AcDbEntity
  8
2
370
    13
100
AcDbLine
 10
0.0
 20
58.5749
 30
0.0
 11
50.0
 21
58.5749
 31
0.0
  0
SOLID
  5
45E
330
459
100
AcDbEntity
  8
2
370
    18
100
AcDbTrace
 10
0.0
 20
58.5749
 30
0.0
 11
3.174998
 21
58.992897
 31
0.0
 12
3.175002
 22
58.156903
 32
0.0
 13
3.175002
 23
58.156903
 33
0.0
  0
SOLID
  5
45F
330
459
100
AcDbEntity
  8
2
370
    18
100
AcDbTrace
 10
50.0
 20
58.5749
 30
0.0
 11
46.825002
 21
58.156903
 31
0.0
 12
46.824998
 22
58.992897
 32
0.0
 13
46.824998
 23
58.992897
 33
0.0
  0
ENDBLK
  5
461
330
459
100
AcDbEntity
  8
0
100
AcDbBlockEnd
  0
BLOCK
  5
466
330
465
100
AcDbEntity
  8
0
100
AcDbBlockBegin
  2
*D11
 70
     1
 10
0.0
 20
0.0
 30
0.0
  3
*D11
  1

  0
LINE
  5
468
330
465
100
AcDbEntity
  8
SK2
370
    -2
100
AcDbLine
 10
0.0
 20
-31.5875
 30
0.0
 11
0.0
 21
-60.6751
 31
0.0
  0
LINE
  5
469
330
465
100
AcDbEntity
  8
SK2
370
    -2
100
AcDbLine
 10
5.7
 20
-6.14118
 30
0.0
 11
5.7
 21
-60.6751
 31
0.0
  0
LINE
  5
46A
330
465
100
AcDbEntity
  8
SK2
370
    -2
100
AcDbLine
 10
0.0
 20
-57.5001
 30
0.0
 11
-24.79636
 21
-57.5001
 31
0.0
  0
LINE
  5
46B
330
465
100
AcDbEntity
  8
SK2
370
    -2
100
AcDbLine
 10
-3.175
 20
-57.5001
 30
0.0
 11
-6.35
 21
-57.5001
 31
0.0
  0
LINE
  5
46C
330
465
100
AcDbEntity
  8
SK2
370
    -2
100
AcDbLine
 10
8.875
 20
-57.5001
 30
0.0
 11
12.05
 21
-57.5001
 31
0.0
  0
SOLID
  5
46D
330
465
100
AcDbEntity
  8
SK2
100
AcDbTrace
 10
-3.175
 20
-58.029267
 30
0.0
 11
-3.175
 21
-56.970933
 31
0.0
 12
0.0
 22
-57.5001
 32
0.0
 13
0.0
 23
-57.5001
 33
0.0
  0
SOLID
  5
46E
330
465
100
AcDbEntity
  8
SK2
100
AcDbTrace
 10
8.875
 20
-56.970933
 30
0.0
 11
8.875
 21
-58.029267
 31
0.0
 12
5.7
 22
-57.5001
 32
0.0
 13
5.7
 23
-57.5001
 33
0.0
  0
MTEXT
  5
46F
330
465
100
AcDbEntity
  8
SK2
370
    18
100
AcDbMText
 10
-15.57318
 20
-50.193641
 30
0.0
 40
3.5001
 41
0.0
 71
     5
 72
     1
  1
\A1;5.7
  7
iso_b_vert
 73
     1
 44
1.0
  0
POINT
  5
470
330
465
100
AcDbEntity
  8
Defpoints
 62
     0
100
AcDbPoint
 10
0.0
 20
-30.0
 30
0.0
  0
POINT
  5
471
330
465
100
AcDbEntity
  8
Defpoints
 62
     0
100
AcDbPoint
 10
5.7
 20
-4.55368
 30
0.0
  0
POINT
  5
472
330
465
100
AcDbEntity
  8
Defpoints
 62
     0
100
AcDbPoint
 10
5.7
 20
-57.5001
 30
0.0
  0
ENDBLK
  5
467
330
465
100
AcDbEntity
  8
0
100
AcDbBlockEnd
  0
BLOCK
  5
47A
330
473
100
AcDbEntity
  8
0
100
AcDbBlockBegin
  2
_U5
 70
     0
 10
0.0
 20
0.0
 30
0.0
  3
_U5
  1

  0
MTEXT
  5
474
330
473
100
AcDbEntity
  8
SK2
370
    13
100
AcDbMText
 10
-16.341814
 20
-56.467437
 30
0.0
 40
3.5001
 41
0.0
 71
     7
 72
     5
  1
\W0.7383;5,7
  7
iso_b_vert
 73
     2
 44
1.084337
  0
LINE
  5
475
330
473
100
AcDbEntity
  8
SK2
370
    13
100
AcDbLine
 10
0.0
 20
-31.5875
 30
0.0
 11
0.0
 21
-60.6751
 31
0.0
  0
LINE
  5
476
330
473
100
AcDbEntity
  8
SK2
370
    13
100
AcDbLine
 10
5.7
 20
-6.14118
 30
0.0
 11
5.7
 21
-60.6751
 31
0.0
  0
LINE
  5
477
330
473
100
AcDbEntity
  8
SK2
370
    13
100
AcDbLine
 10
14.45025
 20
-57.5001
 30
0.0
 11
-16.52732
 21
-57.5001
 31
0.0
  0
SOLID
  5
478
330
473
100
AcDbEntity
  8
SK2
370
    18
100
AcDbTrace
 10
0.0
 20
-57.5001
 30
0.0
 11
-3.174998
 21
-57.918097
 31
0.0
 12
-3.175002
 22
-57.082103
 32
0.0
 13
-3.175002
 23
-57.082103
 33
0.0
  0
SOLID
  5
479
330
473
100
AcDbEntity
  8
SK2
370
    18
100
AcDbTrace
 10
5.7
 20
-57.5001
 30
0.0
 11
8.874998
 21
-57.082103
 31
0.0
 12
8.875002
 22
-57.918097
 32
0.0
 13
8.875002
 23
-57.918097
 33
0.0
  0
ENDBLK
  5
47B
330
473
100
AcDbEntity
  8
0
100
AcDbBlockEnd
  0
ENDSEC
  0
SECTION
  2
ENTITIES
  0
POINT
  5
73
330
1F
100
AcDbEntity
  8
80
370
    18
100
AcDbPoint
 10
0.0
 20
0.0
 30
0.0
  0
LINE
  5
77
330
1F
100
AcDbEntity
  8
80
370
    18
100
AcDbLine
 10
0.0
 20
1.0
 30
0.0
 11
0.0
 21
-1.0
 31
0.0
  0
LINE
  5
78
330
1F
100
AcDbEntity
  8
80
370
    18
100
AcDbLine
 10
-1.0
 20
0.0
 30
0.0
 11
1.0
 21
0.0
 31
0.0
  0
LINE
  5
79
330
1F
100
AcDbEntity
  8
NOCUT
370
    18
100
AcDbLine
 10
20.427088
 20
13.586638
 30
0.0
 11
18.0
 21
12.70325
 31
0.0
  0
LINE
  5
7A
330
1F
100
AcDbEntity
  8
NOCUT
370
    18
100
AcDbLine
 10
0.0
 20
30.0
 30
0.0
 11
0.0
 21
13.799
 31
0.0
  0
LINE
  5
7B
330
1F
100
AcDbEntity
  8
NOCUT
370
    18
100
AcDbLine
 10
22.082624
 20
41.115035
 30
0.0
 11
17.38868
 21
34.411389
 31
0.0
  0
LINE
  5
7C
330
1F
100
AcDbEntity
  8
NOCUT
370
    18
100
AcDbLine
 10
48.21934
 20
38.590632
 30
0.0
 11
45.649248
 21
41.25204
 31
0.0
  0
LINE
  5
7D
330
1F
100
AcDbEntity
  8
NOCUT
370
    18
100
AcDbLine
 10
44.7
 20
10.5
 30
0.0
 11
44.7
 21
27.686292
 31
0.0
  0
LINE
  5
7E
330
1F
100
AcDbEntity
  8
NOCUT
370
    18
100
AcDbLine
 10
1.0
 20
12.8
 30
0.0
 11
0.001
 21
13.799
 31
0.0
  0
LINE
  5
7F
330
1F
100
AcDbEntity
  8
NOCUT
370
    18
100
AcDbLine
 10
18.0
 20
12.70325
 30
0.0
 11
7.305858
 21
12.70325
 31
0.0
  0
LINE
  5
80
330
1F
100
AcDbEntity
  8
NOCUT
370
    18
100
AcDbLine
 10
44.947361
 20
41.557229
 30
0.0
 11
42.852905
 21
41.593788
 31
0.0
  0
LINE
  5
81
330
1F
100
AcDbEntity
  8
NOCUT
370
    18
100
AcDbLine
 10
23.0
 20
7.5
 30
0.0
 11
23.0
 21
11.174656
 31
0.0
  0
LINE
  5
82
330
1F
100
AcDbEntity
  8
NOCUT
370
    18
100
AcDbLine
 10
10.835464
 20
31.0
 30
0.0
 11
1.0
 21
31.0
 31
0.0
  0
LINE
  5
83
330
1F
100
AcDbEntity
  8
NOCUT
370
    18
100
AcDbLine
 10
23.0
 20
7.5
 30
0.0
 11
23.5
 21
7.0
 31
0.0
  0
LINE
  5
84
330
1F
100
AcDbEntity
  8
NOCUT
370
    18
100
AcDbLine
 10
41.602234
 20
42.061394
 30
0.0
 11
39.451536
 21
43.866044
 31
0.0
  0
LINE
  5
85
330
1F
100
AcDbEntity
  8
NOCUT
370
    18
100
AcDbLine
 10
48.5
 20
35.214214
 30
0.0
 11
48.5
 21
37.895974
 31
0.0
  0
LINE
  5
86
330
1F
100
AcDbEntity
  8
NOCUT
370
    18
100
AcDbLine
 10
6.2
 20
12.8
 30
0.0
 11
1.0
 21
12.8
 31
0.0
  0
LINE
  5
87
330
1F
100
AcDbEntity
  8
NOCUT
370
    18
100
AcDbLine
 10
22.882843
 20
11.457499
 30
0.0
 11
20.846738
 21
13.493603
 31
0.0
  0
LINE
  5
88
330
1F
100
AcDbEntity
  8
NOCUT
370
    18
100
AcDbLine
 10
38.808749
 20
44.1
 30
0.0
 11
27.816688
 21
44.1
 31
0.0
  0
LINE
  5
89
330
1F
100
AcDbEntity
  8
NOCUT
370
    18
100
AcDbLine
 10
31.5
 20
7.0
 30
0.0
 11
23.5
 21
7.0
 31
0.0
  0
LINE
  5
8A
330
1F
100
AcDbEntity
  8
NOCUT
370
    18
100
AcDbLine
 10
31.5
 20
7.0
 30
0.0
 11
32.0
 21
7.5
 31
0.0
  0
LINE
  5
8B
330
1F
100
AcDbEntity
  8
NOCUT
370
    18
100
AcDbLine
 10
32.0
 20
10.1
 30
0.0
 11
32.0
 21
7.5
 31
0.0
  0
LINE
  5
8C
330
1F
100
AcDbEntity
  8
NOCUT
370
    18
100
AcDbLine
 10
47.043146
 20
33.343146
 30
0.0
 11
48.207107
 21
34.507107
 31
0.0
  0
LINE
  5
8D
330
1F
100
AcDbEntity
  8
NOCUT
370
    18
100
AcDbLine
 10
44.7
 20
10.5
 30
0.0
 11
32.4
 21
10.5
 31
0.0
  0
LINE
  5
8E
330
1F
100
AcDbEntity
  8
NOCUT
370
    18
100
AcDbLine
 10
7.305858
 20
12.70325
 30
0.0
 11
6.2
 21
12.8
 31
0.0
  0
LINE
  5
8F
330
1F
100
AcDbEntity
  8
NOCUT
370
    18
100
AcDbLine
 10
1.0
 20
31.0
 30
0.0
 11
0.0
 21
30.0
 31
0.0
  0
LINE
  5
90
330
1F
100
AcDbEntity
  8
CUT
370
    18
100
AcDbLine
 10
34.150373
 20
35.623106
 30
0.0
 11
34.150373
 21
37.378044
 31
0.0
  0
LINE
  5
92
330
1F
100
AcDbEntity
  8
81
370
    18
100
AcDbLine
 10
49.0
 20
38.075
 30
0.0
 11
51.0
 21
38.075
 31
0.0
  0
LINE
  5
93
330
1F
100
AcDbEntity
  8
1
370
    13
100
AcDbLine
 10
1.0
 20
4.8725
 30
0.0
 11
1.0
 21
5.8725
 31
0.0
  0
LINE
  5
95
330
1F
100
AcDbEntity
  8
1
370
    13
100
AcDbLine
 10
1.0
 20
4.8725
 30
0.0
 11
0.015647
 21
5.856853
 31
0.0
  0
LINE
  5
96
102
{ACAD_REACTORS
330
419
102
}
330
1F
100
AcDbEntity
  8
1
370
    13
100
AcDbLine
 10
1.0
 20
4.8725
 30
0.0
 11
4.9
 21
4.8725
 31
0.0
  0
LINE
  5
97
330
1F
100
AcDbEntity
  8
1
370
    13
100
AcDbLine
 10
1.0
 20
-4.8725
 30
0.0
 11
0.015647
 21
-5.856853
 31
0.0
  0
LINE
  5
98
102
{ACAD_REACTORS
330
44C
102
}
330
1F
100
AcDbEntity
  8
1
370
    13
100
AcDbLine
 10
0.0
 20
30.0
 30
0.0
 11
0.0
 21
5.8725
 31
0.0
  0
LINE
  5
99
330
1F
100
AcDbEntity
  8
1
370
    13
100
AcDbLine
 10
35.132757
 20
32.479943
 30
0.0
 11
39.777728
 21
35.859662
 31
0.0
  0
LINE
  5
9A
330
1F
100
AcDbEntity
  8
1
370
    13
100
AcDbLine
 10
40.012599
 20
35.873491
 30
0.0
 11
35.293575
 21
32.439889
 31
0.0
  0
LINE
  5
9B
330
1F
100
AcDbEntity
  8
1
370
    13
100
AcDbLine
 10
44.7
 20
-11.514778
 30
0.0
 11
44.7
 21
-14.300481
 31
0.0
  0
LINE
  5
9C
330
1F
100
AcDbEntity
  8
1
370
    13
100
AcDbLine
 10
48.5
 20
-30.132194
 30
0.0
 11
48.5
 21
-30.90825
 31
0.0
  0
LINE
  5
9D
330
1F
100
AcDbEntity
  8
1
370
    13
100
AcDbLine
 10
48.5
 20
-26.904842
 30
0.0
 11
48.5
 21
-30.132194
 31
0.0
  0
LINE
  5
9E
330
1F
100
AcDbEntity
  8
1
370
    13
100
AcDbLine
 10
44.7
 20
17.945745
 30
0.0
 11
44.7
 21
16.824042
 31
0.0
  0
LINE
  5
9F
330
1F
100
AcDbEntity
  8
1
370
    13
100
AcDbLine
 10
48.5
 20
35.965694
 30
0.0
 11
48.5
 21
33.919844
 31
0.0
  0
LINE
  5
A0
330
1F
100
AcDbEntity
  8
1
370
    13
100
AcDbLine
 10
44.7
 20
19.856996
 30
0.0
 11
44.7
 21
18.794641
 31
0.0
  0
LINE
  5
A1
330
1F
100
AcDbEntity
  8
1
370
    13
100
AcDbLine
 10
44.7
 20
23.294277
 30
0.0
 11
44.7
 21
19.856996
 31
0.0
  0
LINE
  5
A2
330
1F
100
AcDbEntity
  8
1
370
    13
100
AcDbLine
 10
48.157836
 20
-35.289224
 30
0.0
 11
48.157836
 21
-33.635246
 31
0.0
  0
LINE
  5
A3
330
1F
100
AcDbEntity
  8
1
370
    13
100
AcDbLine
 10
48.5
 20
-33.561045
 30
0.0
 11
48.5
 21
-35.315964
 31
0.0
  0
LINE
  5
A4
330
1F
100
AcDbEntity
  8
1
370
    13
100
AcDbLine
 10
48.5
 20
-35.315964
 30
0.0
 11
48.5
 21
-37.091232
 31
0.0
  0
LINE
  5
A5
330
1F
100
AcDbEntity
  8
1
370
    13
100
AcDbLine
 10
40.881316
 20
-41.591168
 30
0.0
 11
40.945684
 21
-41.659111
 31
0.0
  0
LINE
  5
A6
330
1F
100
AcDbEntity
  8
1
370
    13
100
AcDbLine
 10
48.5
 20
-15.739161
 30
0.0
 11
48.5
 21
-26.904798
 31
0.0
  0
LINE
  5
A7
330
1F
100
AcDbEntity
  8
1
370
    13
100
AcDbLine
 10
48.5
 20
23.116874
 30
0.0
 11
48.5
 21
11.29361
 31
0.0
  0
LINE
  5
A8
330
1F
100
AcDbEntity
  8
1
370
    13
100
AcDbLine
 10
48.60036
 20
-16.604981
 30
0.0
 11
49.181667
 21
-13.478877
 31
0.0
  0
LINE
  5
AA
330
1F
100
AcDbEntity
  8
1
370
    13
100
AcDbLine
 10
49.077531
 20
32.055223
 30
0.0
 11
48.577353
 21
33.747486
 31
0.0
  0
LINE
  5
AB
330
1F
100
AcDbEntity
  8
1
370
    13
100
AcDbLine
 10
46.884525
 20
1.634927
 30
0.0
 11
46.534318
 21
2.221376
 31
0.0
  0
LINE
  5
AC
330
1F
100
AcDbEntity
  8
1
370
    13
100
AcDbLine
 10
46.881383
 20
1.506474
 30
0.0
 11
46.898446
 21
1.569508
 31
0.0
  0
LINE
  5
AD
330
1F
100
AcDbEntity
  8
1
370
    13
100
AcDbLine
 10
0.521264
 20
5.351264
 30
0.0
 11
0.25
 21
5.08
 31
0.0
  0
LINE
  5
AE
330
1F
100
AcDbEntity
  8
1
370
    13
100
AcDbLine
 10
0.25
 20
-5.08
 30
0.0
 11
0.521264
 21
-5.351264
 31
0.0
  0
LINE
  5
AF
330
1F
100
AcDbEntity
  8
1
370
    13
100
AcDbLine
 10
49.215496
 20
25.748212
 30
0.0
 11
49.460686
 21
26.776379
 31
0.0
  0
LINE
  5
B1
330
1F
100
AcDbEntity
  8
1
370
    13
100
AcDbLine
 10
49.999404
 20
-11.446785
 30
0.0
 11
49.230142
 21
-7.146708
 31
0.0
  0
LINE
  5
B2
330
1F
100
AcDbEntity
  8
1
370
    13
100
AcDbLine
 10
48.977634
 20
-34.498866
 30
0.0
 11
48.500009
 21
-33.947592
 31
0.0
  0
LINE
  5
B3
330
1F
100
AcDbEntity
  8
1
370
    13
100
AcDbLine
 10
48.590115
 20
23.3137
 30
0.0
 11
49.117206
 21
25.52397
 31
0.0
  0
LINE
  5
B4
330
1F
100
AcDbEntity
  8
1
370
    13
100
AcDbLine
 10
49.183139
 20
-7.132217
 30
0.0
 11
48.601832
 21
-3.882788
 31
0.0
  0
LINE
  5
B5
330
1F
100
AcDbEntity
  8
1
370
    13
100
AcDbLine
 10
44.523713
 20
28.461067
 30
0.0
 11
44.851149
 21
29.12086
 31
0.0
  0
LINE
  5
B6
330
1F
100
AcDbEntity
  8
1
370
    13
100
AcDbLine
 10
40.1932
 20
31.432464
 30
0.0
 11
39.865764
 21
30.772671
 31
0.0
  0
LINE
  5
B7
330
1F
100
AcDbEntity
  8
1
370
    13
100
AcDbLine
 10
41.372423
 20
30.525655
 30
0.0
 11
41.541142
 21
30.86563
 31
0.0
  0
LINE
  5
B8
330
1F
100
AcDbEntity
  8
1
370
    13
100
AcDbLine
 10
43.32783
 20
29.334304
 30
0.0
 11
42.880706
 21
28.433336
 31
0.0
  0
LINE
  5
B9
330
1F
100
AcDbEntity
  8
1
370
    13
100
AcDbLine
 10
49.805369
 20
-10.362248
 30
0.0
 11
49.997564
 21
-9.328675
 31
0.0
  0
LINE
  5
BA
330
1F
100
AcDbEntity
  8
1
370
    13
100
AcDbLine
 10
49.228302
 20
-13.465553
 30
0.0
 11
49.532425
 21
-11.830064
 31
0.0
  0
LINE
  5
BB
330
1F
100
AcDbEntity
  8
1
370
    13
100
AcDbLine
 10
49.968805
 20
29.197532
 30
0.0
 11
49.199543
 21
31.800194
 31
0.0
  0
LINE
  5
BC
330
1F
100
AcDbEntity
  8
1
370
    13
100
AcDbLine
 10
49.742523
 20
-35.273452
 30
0.0
 11
48.973261
 21
-34.385571
 31
0.0
  0
LINE
  5
BD
330
1F
100
AcDbEntity
  8
1
370
    13
100
AcDbLine
 10
22.082624
 20
41.115035
 30
0.0
 11
17.38868
 21
34.411389
 31
0.0
  0
LINE
  5
BE
330
1F
100
AcDbEntity
  8
1
370
    13
100
AcDbLine
 10
17.38868
 20
-34.411389
 30
0.0
 11
20.147929
 21
-38.352004
 31
0.0
  0
LINE
  5
BF
102
{ACAD_REACTORS
330
3E6
102
}
330
1F
100
AcDbEntity
  8
1
370
    13
100
AcDbLine
 10
1.0
 20
-31.0
 30
0.0
 11
10.835464
 21
-31.0
 31
0.0
  0
LINE
  5
C0
102
{ACAD_REACTORS
330
3E6
102
}
330
1F
100
AcDbEntity
  8
1
370
    13
100
AcDbLine
 10
10.835464
 20
31.0
 30
0.0
 11
1.0
 21
31.0
 31
0.0
  0
LINE
  5
C1
330
1F
100
AcDbEntity
  8
1
370
    13
100
AcDbLine
 10
0.0
 20
-30.0
 30
0.0
 11
1.0
 21
-31.0
 31
0.0
  0
LINE
  5
C2
330
1F
100
AcDbEntity
  8
1
370
    13
100
AcDbLine
 10
1.0
 20
31.0
 30
0.0
 11
0.0
 21
30.0
 31
0.0
  0
LINE
  5
C3
330
1F
100
AcDbEntity
  8
1
370
    13
100
AcDbLine
 10
41.602234
 20
42.061394
 30
0.0
 11
39.451536
 21
43.866044
 31
0.0
  0
LINE
  5
C4
330
1F
100
AcDbEntity
  8
1
370
    13
100
AcDbLine
 10
38.808749
 20
44.1
 30
0.0
 11
27.816688
 21
44.1
 31
0.0
  0
LINE
  5
C5
330
1F
100
AcDbEntity
  8
1
370
    13
100
AcDbLine
 10
44.947361
 20
41.557229
 30
0.0
 11
42.852905
 21
41.593788
 31
0.0
  0
LINE
  5
C6
330
1F
100
AcDbEntity
  8
1
370
    13
100
AcDbLine
 10
48.21934
 20
38.590632
 30
0.0
 11
45.649248
 21
41.25204
 31
0.0
  0
LINE
  5
C7
102
{ACAD_REACTORS
330
432
330
44C
102
}
330
1F
100
AcDbEntity
  8
81
370
    18
100
AcDbLine
 10
50.0
 20
37.075
 30
0.0
 11
50.0
 21
39.075
 31
0.0
  0
LINE
  5
C8
330
1F
100
AcDbEntity
  8
1
370
    13
100
AcDbLine
 10
1.0
 20
-5.8725
 30
0.0
 11
1.0
 21
-4.8725
 31
0.0
  0
LINE
  5
C9
102
{ACAD_REACTORS
330
419
102
}
330
1F
100
AcDbEntity
  8
1
370
    13
100
AcDbLine
 10
1.0
 20
-4.8725
 30
0.0
 11
4.9
 21
-4.8725
 31
0.0
  0
LINE
  5
CA
102
{ACAD_REACTORS
330
464
102
}
330
1F
100
AcDbEntity
  8
1
370
    13
100
AcDbLine
 10
0.0
 20
-30.0
 30
0.0
 11
0.0
 21
-5.8725
 31
0.0
  0
LINE
  5
CB
330
1F
100
AcDbEntity
  8
SK3
370
    18
100
AcDbLine
 10
7.305858
 20
12.70325
 30
0.0
 11
6.2
 21
12.8
 31
0.0
  0
LINE
  5
CC
330
1F
100
AcDbEntity
  8
SK3
370
    18
100
AcDbLine
 10
18.0
 20
12.70325
 30
0.0
 11
7.305858
 21
12.70325
 31
0.0
  0
LINE
  5
CD
330
1F
100
AcDbEntity
  8
SK3
370
    18
100
AcDbLine
 10
20.427088
 20
13.586638
 30
0.0
 11
18.0
 21
12.70325
 31
0.0
  0
LINE
  5
CE
330
1F
100
AcDbEntity
  8
SK3
370
    18
100
AcDbLine
 10
22.882843
 20
11.457499
 30
0.0
 11
20.846738
 21
13.493603
 31
0.0
  0
LINE
  5
CF
330
1F
100
AcDbEntity
  8
SK3
370
    18
100
AcDbLine
 10
23.0
 20
7.5
 30
0.0
 11
23.0
 21
11.174656
 31
0.0
  0
LINE
  5
D0
330
1F
100
AcDbEntity
  8
SK3
370
    18
100
AcDbLine
 10
23.0
 20
7.5
 30
0.0
 11
23.5
 21
7.0
 31
0.0
  0
LINE
  5
D1
330
1F
100
AcDbEntity
  8
SK3
370
    18
100
AcDbLine
 10
31.5
 20
7.0
 30
0.0
 11
23.5
 21
7.0
 31
0.0
  0
LINE
  5
D2
330
1F
100
AcDbEntity
  8
SK3
370
    18
100
AcDbLine
 10
31.5
 20
7.0
 30
0.0
 11
32.0
 21
7.5
 31
0.0
  0
LINE
  5
D3
330
1F
100
AcDbEntity
  8
SK3
370
    18
100
AcDbLine
 10
32.0
 20
10.1
 30
0.0
 11
32.0
 21
7.5
 31
0.0
  0
LINE
  5
D4
330
1F
100
AcDbEntity
  8
SK3
370
    18
100
AcDbLine
 10
44.7
 20
10.5
 30
0.0
 11
32.4
 21
10.5
 31
0.0
  0
LINE
  5
D5
330
1F
100
AcDbEntity
  8
SK3
370
    18
100
AcDbLine
 10
44.7
 20
10.5
 30
0.0
 11
32.4
 21
10.5
 31
0.0
  0
LINE
  5
D6
330
1F
100
AcDbEntity
  8
SK4
370
    18
100
AcDbLine
 10
-2.0
 20
0.0
 30
0.0
 11
52.0
 21
0.0
 31
0.0
  0
LINE
  5
D7
330
1F
100
AcDbEntity
  8
4
370
    18
100
AcDbLine
 10
-2.0
 20
0.0
 30
0.0
 11
52.0
 21
0.0
 31
0.0
  0
LINE
  5
D8
330
1F
100
AcDbEntity
  8
1
370
    18
100
AcDbLine
 10
45.666061
 20
-14.965019
 30
0.0
 11
45.126923
 21
-15.00994
 31
0.0
  0
LINE
  5
D9
330
1F
100
AcDbEntity
  8
1
370
    18
100
AcDbLine
 10
48.602309
 20
-15.475742
 30
0.0
 11
48.370614
 21
-15.327507
 31
0.0
  0
LINE
  5
DA
330
1F
100
AcDbEntity
  8
1
370
    18
100
AcDbLine
 10
48.500003
 20
-16.751458
 30
0.0
 11
48.602309
 21
-16.584505
 31
0.0
  0
LINE
  5
DB
330
1F
100
AcDbEntity
  8
1
370
    18
100
AcDbLine
 10
49.183615
 20
-12.542739
 30
0.0
 11
48.95192
 21
-12.394504
 31
0.0
  0
LINE
  5
DC
330
1F
100
AcDbEntity
  8
1
370
    18
100
AcDbLine
 10
44.642077
 20
36.497297
 30
0.0
 11
44.102939
 21
36.776507
 31
0.0
  0
LINE
  5
DD
330
1F
100
AcDbEntity
  8
1
370
    18
100
AcDbLine
 10
41.700563
 20
37.118538
 30
0.0
 11
41.161425
 21
36.992844
 31
0.0
  0
LINE
  5
DE
330
1F
100
AcDbEntity
  8
1
370
    18
100
AcDbLine
 10
45.666061
 20
36.832816
 30
0.0
 11
45.126923
 21
37.112026
 31
0.0
  0
LINE
  5
DF
330
1F
100
AcDbEntity
  8
1
370
    18
100
AcDbLine
 10
42.217918
 20
37.526187
 30
0.0
 11
41.67878
 21
37.400493
 31
0.0
  0
LINE
  5
E0
330
1F
100
AcDbEntity
  8
1
370
    18
100
AcDbLine
 10
48.577352
 20
33.747489
 30
0.0
 11
48.370614
 21
34.084563
 31
0.0
  0
LINE
  5
E1
330
1F
100
AcDbEntity
  8
1
370
    18
100
AcDbLine
 10
45.900971
 20
2.563453
 30
0.0
 11
45.827239
 21
2.589691
 31
0.0
  0
LINE
  5
E2
330
1F
100
AcDbEntity
  8
1
370
    18
100
AcDbLine
 10
46.191908
 20
2.111083
 30
0.0
 11
46.544261
 21
2.174649
 31
0.0
  0
LINE
  5
E3
330
1F
100
AcDbEntity
  8
1
370
    18
100
AcDbLine
 10
46.078953
 20
2.121054
 30
0.0
 11
46.191908
 21
2.111083
 31
0.0
  0
LINE
  5
E4
330
1F
100
AcDbEntity
  8
1
370
    18
100
AcDbLine
 10
46.898446
 20
1.569508
 30
0.0
 11
46.884518
 21
1.634938
 31
0.0
  0
LINE
  5
E5
330
1F
100
AcDbEntity
  8
1
370
    18
100
AcDbLine
 10
46.84742
 20
1.516887
 30
0.0
 11
46.898446
 21
1.569508
 31
0.0
  0
LINE
  5
E6
330
1F
100
AcDbEntity
  8
1
370
    18
100
AcDbLine
 10
50.0
 20
30.370261
 30
0.0
 11
49.710381
 21
30.822019
 31
0.0
  0
LINE
  5
E7
330
1F
100
AcDbEntity
  8
1
370
    18
100
AcDbLine
 10
49.997402
 20
29.048315
 30
0.0
 11
50.0
 21
29.099522
 31
0.0
  0
LINE
  5
E8
330
1F
100
AcDbEntity
  8
1
370
    18
100
AcDbLine
 10
44.699996
 20
21.411119
 30
0.0
 11
44.952313
 21
21.596233
 31
0.0
  0
LINE
  5
E9
330
1F
100
AcDbEntity
  8
1
370
    18
100
AcDbLine
 10
48.941119
 20
25.315778
 30
0.0
 11
49.215496
 21
25.748213
 31
0.0
  0
LINE
  5
EA
330
1F
100
AcDbEntity
  8
1
370
    18
100
AcDbLine
 10
40.553132
 20
-10.648275
 30
0.0
 11
41.227055
 21
-10.880871
 31
0.0
  0
LINE
  5
EB
330
1F
100
AcDbEntity
  8
1
370
    18
100
AcDbLine
 10
44.626097
 20
-7.370449
 30
0.0
 11
44.952313
 21
-7.412594
 31
0.0
  0
LINE
  5
EC
330
1F
100
AcDbEntity
  8
1
370
    18
100
AcDbLine
 10
42.923318
 20
-11.323613
 30
0.0
 11
43.59724
 21
-11.442816
 31
0.0
  0
LINE
  5
ED
330
1F
100
AcDbEntity
  8
1
370
    18
100
AcDbLine
 10
49.230738
 20
-7.15321
 30
0.0
 11
49.173125
 21
-7.076258
 31
0.0
  0
LINE
  5
EE
330
1F
100
AcDbEntity
  8
1
370
    18
100
AcDbLine
 10
48.941119
 20
-7.672855
 30
0.0
 11
49.230738
 21
-7.61652
 31
0.0
  0
LINE
  5
EF
330
1F
100
AcDbEntity
  8
1
370
    18
100
AcDbLine
 10
49.710381
 20
-11.841686
 30
0.0
 11
50.0
 21
-11.785351
 31
0.0
  0
LINE
  5
F0
330
1F
100
AcDbEntity
  8
1
370
    18
100
AcDbLine
 10
48.602309
 20
-34.360658
 30
0.0
 11
48.500002
 21
-33.975698
 31
0.0
  0
LINE
  5
F1
330
1F
100
AcDbEntity
  8
1
370
    18
100
AcDbLine
 10
48.370614
 20
-37.892289
 30
0.0
 11
48.602309
 21
-37.34665
 31
0.0
  0
LINE
  5
F2
330
1F
100
AcDbEntity
  8
1
370
    18
100
AcDbLine
 10
45.126923
 20
-40.797519
 30
0.0
 11
45.666061
 21
-40.577764
 31
0.0
  0
LINE
  5
F3
330
1F
100
AcDbEntity
  8
1
370
    18
100
AcDbLine
 10
41.891021
 20
-40.608838
 30
0.0
 11
42.217918
 21
-40.700012
 31
0.0
  0
LINE
  5
F4
330
1F
100
AcDbEntity
  8
1
370
    18
100
AcDbLine
 10
41.161425
 20
-42.205969
 30
0.0
 11
41.700563
 21
-42.461867
 31
0.0
  0
LINE
  5
F5
330
1F
100
AcDbEntity
  8
1
370
    18
100
AcDbLine
 10
44.102939
 20
-42.542392
 30
0.0
 11
44.642077
 21
-42.322637
 31
0.0
  0
LINE
  5
F6
330
1F
100
AcDbEntity
  8
1
370
    18
100
AcDbLine
 10
48.95192
 20
-38.043196
 30
0.0
 11
49.183615
 21
-37.497556
 31
0.0
  0
LINE
  5
F7
330
1F
100
AcDbEntity
  8
1
370
    18
100
AcDbLine
 10
49.183615
 20
-35.031601
 30
0.0
 11
48.97764
 21
-34.498873
 31
0.0
  0
LINE
  5
F8
330
1F
100
AcDbEntity
  8
1
370
    18
100
AcDbLine
 10
45.126923
 20
20.173342
 30
0.0
 11
45.666061
 21
20.445769
 31
0.0
  0
LINE
  5
F9
330
1F
100
AcDbEntity
  8
1
370
    18
100
AcDbLine
 10
48.370614
 20
22.967753
 30
0.0
 11
48.590116
 21
23.3137
 31
0.0
  0
LINE
  5
FA
330
1F
100
AcDbEntity
  8
1
370
    18
100
AcDbLine
 10
48.602309
 20
-3.88799
 30
0.0
 11
48.500003
 21
-3.788524
 31
0.0
  0
LINE
  5
FB
330
1F
100
AcDbEntity
  8
1
370
    18
100
AcDbLine
 10
48.370614
 20
-4.50253
 30
0.0
 11
48.602309
 21
-4.457462
 31
0.0
  0
LINE
  5
FC
330
1F
100
AcDbEntity
  8
1
370
    18
100
AcDbLine
 10
45.126923
 20
-4.230701
 30
0.0
 11
45.666061
 21
-4.326064
 31
0.0
  0
LINE
  5
FD
330
1F
100
AcDbEntity
  8
1
370
    18
100
AcDbLine
 10
41.67878
 20
-3.285345
 30
0.0
 11
42.217918
 21
-3.471422
 31
0.0
  0
LINE
  5
FE
330
1F
100
AcDbEntity
  8
1
370
    18
100
AcDbLine
 10
41.161425
 20
-6.463088
 30
0.0
 11
41.700563
 21
-6.649165
 31
0.0
  0
LINE
  5
FF
330
1F
100
AcDbEntity
  8
1
370
    18
100
AcDbLine
 10
44.102939
 20
-7.276209
 30
0.0
 11
44.642077
 21
-7.371572
 31
0.0
  0
LINE
  5
100
330
1F
100
AcDbEntity
  8
1
370
    18
100
AcDbLine
 10
48.95192
 20
-7.65278
 30
0.0
 11
49.183615
 21
-7.607713
 31
0.0
  0
LINE
  5
101
330
1F
100
AcDbEntity
  8
1
370
    18
100
AcDbLine
 10
42.126564
 20
30.754749
 30
0.0
 11
42.146865
 21
30.701451
 31
0.0
  0
LINE
  5
102
330
1F
100
AcDbEntity
  8
1
370
    18
100
AcDbLine
 10
42.126564
 20
30.754749
 30
0.0
 11
42.067797
 21
30.838147
 31
0.0
  0
LINE
  5
103
330
1F
100
AcDbEntity
  8
1
370
    18
100
AcDbLine
 10
41.404795
 20
30.777311
 30
0.0
 11
41.396836
 21
30.68779
 31
0.0
  0
LINE
  5
104
330
1F
100
AcDbEntity
  8
1
370
    18
100
AcDbLine
 10
41.408099
 20
30.633663
 30
0.0
 11
41.396836
 21
30.68779
 31
0.0
  0
LINE
  5
105
330
1F
100
AcDbEntity
  8
1
370
    18
100
AcDbLine
 10
40.862637
 20
30.29707
 30
0.0
 11
40.922748
 21
30.27867
 31
0.0
  0
LINE
  5
106
330
1F
100
AcDbEntity
  8
1
370
    18
100
AcDbLine
 10
40.862637
 20
30.29707
 30
0.0
 11
40.758889
 21
30.304886
 31
0.0
  0
LINE
  5
107
330
1F
100
AcDbEntity
  8
1
370
    18
100
AcDbLine
 10
40.581238
 20
29.750857
 30
0.0
 11
40.667107
 21
29.687282
 31
0.0
  0
LINE
  5
108
330
1F
100
AcDbEntity
  8
1
370
    18
100
AcDbLine
 10
40.724796
 20
29.66133
 30
0.0
 11
40.667107
 21
29.687282
 31
0.0
  0
LINE
  5
109
330
1F
100
AcDbEntity
  8
1
370
    18
100
AcDbLine
 10
40.862637
 20
29.021817
 30
0.0
 11
40.902447
 21
29.056715
 31
0.0
  0
LINE
  5
10A
330
1F
100
AcDbEntity
  8
1
370
    18
100
AcDbLine
 10
40.862637
 20
29.021817
 30
0.0
 11
40.817656
 21
28.946235
 31
0.0
  0
LINE
  5
10B
330
1F
100
AcDbEntity
  8
1
370
    18
100
AcDbLine
 10
41.303007
 20
28.453041
 30
0.0
 11
41.396836
 21
28.478987
 31
0.0
  0
LINE
  5
10C
330
1F
100
AcDbEntity
  8
1
370
    18
100
AcDbLine
 10
41.443261
 20
28.507163
 30
0.0
 11
41.396836
 21
28.478987
 31
0.0
  0
LINE
  5
10D
330
1F
100
AcDbEntity
  8
1
370
    18
100
AcDbLine
 10
42.126564
 20
28.204242
 30
0.0
 11
42.106264
 21
28.257541
 31
0.0
  0
LINE
  5
10E
330
1F
100
AcDbEntity
  8
1
370
    18
100
AcDbLine
 10
42.126564
 20
28.204242
 30
0.0
 11
42.185331
 21
28.120844
 31
0.0
  0
LINE
  5
10F
330
1F
100
AcDbEntity
  8
1
370
    18
100
AcDbLine
 10
42.848334
 20
28.18168
 30
0.0
 11
42.856293
 21
28.271201
 31
0.0
  0
LINE
  5
110
330
1F
100
AcDbEntity
  8
1
370
    18
100
AcDbLine
 10
42.84503
 20
28.325328
 30
0.0
 11
42.856293
 21
28.271201
 31
0.0
  0
LINE
  5
111
330
1F
100
AcDbEntity
  8
1
370
    18
100
AcDbLine
 10
43.390492
 20
28.661921
 30
0.0
 11
43.330381
 21
28.680321
 31
0.0
  0
LINE
  5
112
330
1F
100
AcDbEntity
  8
1
370
    18
100
AcDbLine
 10
43.390492
 20
28.661921
 30
0.0
 11
43.49424
 21
28.654105
 31
0.0
  0
LINE
  5
113
330
1F
100
AcDbEntity
  8
1
370
    18
100
AcDbLine
 10
43.671891
 20
29.208134
 30
0.0
 11
43.586022
 21
29.27171
 31
0.0
  0
LINE
  5
114
330
1F
100
AcDbEntity
  8
1
370
    18
100
AcDbLine
 10
43.528333
 20
29.297662
 30
0.0
 11
43.586022
 21
29.27171
 31
0.0
  0
LINE
  5
115
330
1F
100
AcDbEntity
  8
1
370
    18
100
AcDbLine
 10
43.390492
 20
29.937174
 30
0.0
 11
43.350682
 21
29.902276
 31
0.0
  0
LINE
  5
116
330
1F
100
AcDbEntity
  8
1
370
    18
100
AcDbLine
 10
43.390492
 20
29.937174
 30
0.0
 11
43.435473
 21
30.012756
 31
0.0
  0
LINE
  5
117
330
1F
100
AcDbEntity
  8
1
370
    18
100
AcDbLine
 10
42.950122
 20
30.50595
 30
0.0
 11
42.856293
 21
30.480004
 31
0.0
  0
LINE
  5
118
330
1F
100
AcDbEntity
  8
1
370
    18
100
AcDbLine
 10
42.809868
 20
30.451829
 30
0.0
 11
42.856293
 21
30.480004
 31
0.0
  0
LINE
  5
119
330
1F
100
AcDbEntity
  8
1
370
    18
100
AcDbLine
 10
45.873458
 20
-36.125934
 30
0.0
 11
46.191908
 21
-35.902037
 31
0.0
  0
LINE
  5
11A
330
1F
100
AcDbEntity
  8
1
370
    18
100
AcDbLine
 10
45.443558
 20
-36.235376
 30
0.0
 11
45.873458
 21
-36.125934
 31
0.0
  0
LINE
  5
11B
330
1F
100
AcDbEntity
  8
1
370
    18
100
AcDbLine
 10
45.959322
 20
-36.638612
 30
0.0
 11
46.405152
 21
-36.325156
 31
0.0
  0
LINE
  5
11C
330
1F
100
AcDbEntity
  8
1
370
    18
100
AcDbLine
 10
45.910961
 20
-36.660584
 30
0.0
 11
45.959322
 21
-36.638612
 31
0.0
  0
LINE
  5
11D
330
1F
100
AcDbEntity
  8
1
370
    18
100
AcDbLine
 10
44.952313
 20
-11.817983
 30
0.0
 11
44.699995
 21
-11.809691
 31
0.0
  0
LINE
  5
11E
330
1F
100
AcDbEntity
  8
1
370
    18
100
AcDbLine
 10
49.230738
 20
-12.537892
 30
0.0
 11
48.941119
 21
-12.352599
 31
0.0
  0
LINE
  5
11F
330
1F
100
AcDbEntity
  8
1
370
    18
100
AcDbLine
 10
49.161118
 20
-13.589376
 30
0.0
 11
49.230738
 21
-13.439958
 31
0.0
  0
LINE
  5
120
330
1F
100
AcDbEntity
  8
1
370
    18
100
AcDbLine
 10
50.0
 20
-8.656551
 30
0.0
 11
49.710381
 21
-8.471257
 31
0.0
  0
LINE
  5
121
330
1F
100
AcDbEntity
  8
1
370
    18
100
AcDbLine
 10
34.150373
 20
29.763154
 30
0.0
 11
34.439992
 21
29.133057
 31
0.0
  0
LINE
  5
122
330
1F
100
AcDbEntity
  8
1
370
    18
100
AcDbLine
 10
34.439992
 20
31.792955
 30
0.0
 11
34.150373
 21
31.245325
 31
0.0
  0
LINE
  5
123
330
1F
100
AcDbEntity
  8
1
370
    18
100
AcDbLine
 10
41.227055
 20
36.421307
 30
0.0
 11
40.553132
 21
36.26419
 31
0.0
  0
LINE
  5
124
330
1F
100
AcDbEntity
  8
1
370
    18
100
AcDbLine
 10
43.59724
 20
35.830794
 30
0.0
 11
42.923318
 21
36.179807
 31
0.0
  0
LINE
  5
125
330
1F
100
AcDbEntity
  8
1
370
    18
100
AcDbLine
 10
50.0
 20
28.988781
 30
0.0
 11
49.710381
 21
29.618879
 31
0.0
  0
LINE
  5
126
330
1F
100
AcDbEntity
  8
1
370
    18
100
AcDbLine
 10
49.710381
 20
26.95898
 30
0.0
 11
50.0
 21
27.50661
 31
0.0
  0
LINE
  5
127
330
1F
100
AcDbEntity
  8
1
370
    18
100
AcDbLine
 10
42.923318
 20
22.330628
 30
0.0
 11
43.59724
 21
22.487745
 31
0.0
  0
LINE
  5
128
330
1F
100
AcDbEntity
  8
1
370
    18
100
AcDbLine
 10
40.553132
 20
22.921141
 30
0.0
 11
41.227055
 21
22.572128
 31
0.0
  0
LINE
  5
129
330
1F
100
AcDbEntity
  8
1
370
    18
100
AcDbLine
 10
44.952313
 20
36.274797
 30
0.0
 11
44.27839
 21
36.62381
 31
0.0
  0
LINE
  5
12A
330
1F
100
AcDbEntity
  8
1
370
    18
100
AcDbLine
 10
41.911688
 20
36.960762
 30
0.0
 11
41.237765
 21
36.803645
 31
0.0
  0
LINE
  5
12B
330
1F
100
AcDbEntity
  8
1
370
    18
100
AcDbLine
 10
49.199541
 20
31.800199
 30
0.0
 11
48.941119
 21
32.221541
 31
0.0
  0
LINE
  5
12C
330
1F
100
AcDbEntity
  8
1
370
    18
100
AcDbLine
 10
44.723093
 20
28.120317
 30
0.0
 11
45.027273
 21
28.576129
 31
0.0
  0
LINE
  5
12D
330
1F
100
AcDbEntity
  8
1
370
    18
100
AcDbLine
 10
49.230738
 20
-35.05149
 30
0.0
 11
48.941119
 21
-34.350024
 31
0.0
  0
LINE
  5
12E
330
1F
100
AcDbEntity
  8
1
370
    18
100
AcDbLine
 10
48.941119
 20
-38.162876
 30
0.0
 11
49.230738
 21
-37.480827
 31
0.0
  0
LINE
  5
12F
330
1F
100
AcDbEntity
  8
1
370
    18
100
AcDbLine
 10
44.626096
 20
-42.338083
 30
0.0
 11
44.952313
 21
-42.123545
 31
0.0
  0
LINE
  5
130
330
1F
100
AcDbEntity
  8
1
370
    18
100
AcDbLine
 10
40.553132
 20
-44.330558
 30
0.0
 11
41.227055
 21
-44.650431
 31
0.0
  0
LINE
  5
131
330
1F
100
AcDbEntity
  8
1
370
    18
100
AcDbLine
 10
42.923318
 20
-44.707288
 30
0.0
 11
43.59724
 21
-44.432594
 31
0.0
  0
LINE
  5
132
330
1F
100
AcDbEntity
  8
1
370
    18
100
AcDbLine
 10
49.710381
 20
-38.362576
 30
0.0
 11
50.0
 21
-37.680526
 31
0.0
  0
LINE
  5
133
330
1F
100
AcDbEntity
  8
1
370
    18
100
AcDbLine
 10
50.0
 20
-35.939371
 30
0.0
 11
49.74253
 21
-35.273461
 31
0.0
  0
LINE
  5
134
330
1F
100
AcDbEntity
  8
1
370
    18
100
AcDbLine
 10
40.865943
 20
-7.15182
 30
0.0
 11
41.033484
 21
-5.751665
 31
0.0
  0
LINE
  5
135
330
1F
100
AcDbEntity
  8
1
370
    18
100
AcDbLine
 10
42.852905
 20
-32.266636
 30
0.0
 11
44.947361
 21
-33.043901
 31
0.0
  0
LINE
  5
136
330
1F
100
AcDbEntity
  8
1
370
    18
100
AcDbLine
 10
38.143193
 20
-33.370916
 30
0.0
 11
38.808749
 21
-33.652754
 31
0.0
  0
LINE
  5
137
330
1F
100
AcDbEntity
  8
1
370
    18
100
AcDbLine
 10
40.865943
 20
-42.210053
 30
0.0
 11
41.033485
 21
-41.842566
 31
0.0
  0
LINE
  5
138
330
1F
100
AcDbEntity
  8
1
370
    18
100
AcDbLine
 10
40.865943
 20
36.53455
 30
0.0
 11
41.033485
 21
37.114505
 31
0.0
  0
LINE
  5
139
330
1F
100
AcDbEntity
  8
1
370
    18
100
AcDbLine
 10
45.361227
 20
-32.895835
 30
0.0
 11
45.164631
 21
-32.868568
 31
0.0
  0
LINE
  5
13A
330
1F
100
AcDbEntity
  8
1
370
    18
100
AcDbLine
 10
45.037655
 20
-15.170018
 30
0.0
 11
45.669578
 21
-14.988204
 31
0.0
  0
LINE
  5
13B
330
1F
100
AcDbEntity
  8
1
370
    18
100
AcDbLine
 10
43.407187
 20
29.442838
 30
0.0
 11
43.321458
 21
29.321472
 31
0.0
  0
LINE
  5
13C
330
1F
100
AcDbEntity
  8
1
370
    18
100
AcDbLine
 10
42.553134
 20
29.063792
 30
0.0
 11
42.603485
 21
28.963436
 31
0.0
  0
LINE
  5
13D
330
1F
100
AcDbEntity
  8
1
370
    18
100
AcDbLine
 10
42.553134
 20
29.063792
 30
0.0
 11
42.5384
 21
29.128308
 31
0.0
  0
LINE
  5
13E
330
1F
100
AcDbEntity
  8
1
370
    18
100
AcDbLine
 10
41.875398
 20
29.37793
 30
0.0
 11
41.823405
 21
29.338536
 31
0.0
  0
LINE
  5
13F
330
1F
100
AcDbEntity
  8
1
370
    18
100
AcDbLine
 10
41.721161
 20
29.295633
 30
0.0
 11
41.823405
 21
29.338536
 31
0.0
  0
LINE
  5
140
330
1F
100
AcDbEntity
  8
1
370
    18
100
AcDbLine
 10
38.059443
 20
14.600688
 30
0.0
 11
38.064566
 21
14.550217
 31
0.0
  0
LINE
  5
141
330
1F
100
AcDbEntity
  8
1
370
    18
100
AcDbLine
 10
33.031455
 20
17.763557
 30
0.0
 11
33.1551
 21
17.600785
 31
0.0
  0
LINE
  5
142
330
1F
100
AcDbEntity
  8
1
370
    18
100
AcDbLine
 10
38.059443
 20
14.600688
 30
0.0
 11
37.924846
 21
14.602943
 31
0.0
  0
LINE
  5
143
330
1F
100
AcDbEntity
  8
1
370
    18
100
AcDbLine
 10
22.87056
 20
25.287697
 30
0.0
 11
22.082624
 21
26.300265
 31
0.0
  0
LINE
  5
144
330
1F
100
AcDbEntity
  8
1
370
    18
100
AcDbLine
 10
26.354881
 20
-5.729352
 30
0.0
 11
27.816688
 21
-6.156467
 31
0.0
  0
LINE
  5
145
330
1F
100
AcDbEntity
  8
1
370
    18
100
AcDbLine
 10
27.816688
 20
-6.156467
 30
0.0
 11
38.808749
 21
-9.219914
 31
0.0
  0
LINE
  5
146
330
1F
100
AcDbEntity
  8
1
370
    18
100
AcDbLine
 10
38.808749
 20
14.090485
 30
0.0
 11
38.064669
 21
14.550306
 31
0.0
  0
LINE
  5
147
330
1F
100
AcDbEntity
  8
1
370
    18
100
AcDbLine
 10
27.77092
 20
-6.292777
 30
0.0
 11
27.816688
 21
-6.156467
 31
0.0
  0
LINE
  5
148
330
1F
100
AcDbEntity
  8
1
370
    18
100
AcDbLine
 10
22.175009
 20
-4.216864
 30
0.0
 11
22.082624
 21
-4.066578
 31
0.0
  0
LINE
  5
149
330
1F
100
AcDbEntity
  8
1
370
    18
100
AcDbLine
 10
38.808749
 20
-9.219914
 30
0.0
 11
38.76298
 21
-9.344507
 31
0.0
  0
LINE
  5
14A
330
1F
100
AcDbEntity
  8
1
370
    18
100
AcDbLine
 10
38.76298
 20
-9.344507
 30
0.0
 11
27.77092
 21
-6.292777
 31
0.0
  0
LINE
  5
14B
330
1F
100
AcDbEntity
  8
1
370
    18
100
AcDbLine
 10
41.136036
 20
-3.407908
 30
0.0
 11
41.602234
 21
-2.993487
 31
0.0
  0
LINE
  5
14C
330
1F
100
AcDbEntity
  8
1
370
    18
100
AcDbLine
 10
40.865943
 20
-7.15182
 30
0.0
 11
40.079068
 21
-9.407603
 31
0.0
  0
LINE
  5
14D
330
1F
100
AcDbEntity
  8
1
370
    18
100
AcDbLine
 10
39.451536
 20
-9.325677
 30
0.0
 11
40.079068
 21
-9.407603
 31
0.0
  0
LINE
  5
14E
330
1F
100
AcDbEntity
  8
1
370
    18
100
AcDbLine
 10
41.602234
 20
13.139631
 30
0.0
 11
39.451536
 21
13.818528
 31
0.0
  0
LINE
  5
14F
330
1F
100
AcDbEntity
  8
1
370
    18
100
AcDbLine
 10
38.144791
 20
14.636296
 30
0.0
 11
38.059443
 21
14.600688
 31
0.0
  0
LINE
  5
150
330
1F
100
AcDbEntity
  8
1
370
    18
100
AcDbLine
 10
33.172553
 20
17.642405
 30
0.0
 11
33.078734
 21
17.818085
 31
0.0
  0
LINE
  5
151
330
1F
100
AcDbEntity
  8
1
370
    18
100
AcDbLine
 10
42.31773
 20
12.930281
 30
0.0
 11
42.928676
 21
12.592192
 31
0.0
  0
LINE
  5
152
330
1F
100
AcDbEntity
  8
1
370
    18
100
AcDbLine
 10
39.421842
 20
13.920595
 30
0.0
 11
41.57254
 21
13.242037
 31
0.0
  0
LINE
  5
153
330
1F
100
AcDbEntity
  8
1
370
    18
100
AcDbLine
 10
38.887463
 20
14.179364
 30
0.0
 11
39.421842
 21
13.920595
 31
0.0
  0
LINE
  5
154
330
1F
100
AcDbEntity
  8
1
370
    18
100
AcDbLine
 10
38.144796
 20
14.636301
 30
0.0
 11
38.887463
 21
14.179364
 31
0.0
  0
LINE
  5
155
330
1F
100
AcDbEntity
  8
1
370
    18
100
AcDbLine
 10
27.895402
 20
21.163541
 30
0.0
 11
33.055565
 21
17.821867
 31
0.0
  0
LINE
  5
156
330
1F
100
AcDbEntity
  8
1
370
    18
100
AcDbLine
 10
44.720229
 20
16.253377
 30
0.0
 11
44.610061
 21
16.966809
 31
0.0
  0
LINE
  5
157
330
1F
100
AcDbEntity
  8
1
370
    18
100
AcDbLine
 10
48.166565
 20
11.792773
 30
0.0
 11
47.002604
 21
12.946383
 31
0.0
  0
LINE
  5
158
330
1F
100
AcDbEntity
  8
1
370
    18
100
AcDbLine
 10
48.410061
 20
11.432265
 30
0.0
 11
48.166565
 21
11.792773
 31
0.0
  0
LINE
  5
159
330
1F
100
AcDbEntity
  8
1
370
    18
100
AcDbLine
 10
47.467205
 20
11.138207
 30
0.0
 11
48.409959
 21
10.595286
 31
0.0
  0
LINE
  5
15A
330
1F
100
AcDbEntity
  8
1
370
    18
100
AcDbLine
 10
42.928676
 20
12.592192
 30
0.0
 11
44.511533
 21
11.641305
 31
0.0
  0
LINE
  5
15B
330
1F
100
AcDbEntity
  8
1
370
    18
100
AcDbLine
 10
39.451536
 20
-9.325677
 30
0.0
 11
39.297359
 21
-9.458064
 31
0.0
  0
LINE
  5
15C
330
1F
100
AcDbEntity
  8
1
370
    18
100
AcDbLine
 10
39.297359
 20
-9.458064
 30
0.0
 11
38.76298
 21
-9.344507
 31
0.0
  0
LINE
  5
15D
330
1F
100
AcDbEntity
  8
1
370
    18
100
AcDbLine
 10
40.079068
 20
-9.407603
 30
0.0
 11
40.012599
 21
-9.448954
 31
0.0
  0
LINE
  5
15E
330
1F
100
AcDbEntity
  8
1
370
    18
100
AcDbLine
 10
40.012599
 20
-9.448954
 30
0.0
 11
39.777728
 21
-9.52035
 31
0.0
  0
LINE
  5
15F
330
1F
100
AcDbEntity
  8
1
370
    18
100
AcDbLine
 10
39.777728
 20
-9.52035
 30
0.0
 11
39.297359
 21
-9.458064
 31
0.0
  0
LINE
  5
160
330
1F
100
AcDbEntity
  8
1
370
    18
100
AcDbLine
 10
41.602234
 20
-2.993487
 30
0.0
 11
41.505171
 21
-3.131457
 31
0.0
  0
LINE
  5
161
330
1F
100
AcDbEntity
  8
1
370
    18
100
AcDbLine
 10
40.945688
 20
-5.465361
 30
0.0
 11
41.033487
 21
-5.751666
 31
0.0
  0
LINE
  5
162
330
1F
100
AcDbEntity
  8
1
370
    18
100
AcDbLine
 10
43.213328
 20
-3.653505
 30
0.0
 11
43.155428
 21
-3.581732
 31
0.0
  0
LINE
  5
163
330
1F
100
AcDbEntity
  8
1
370
    18
100
AcDbLine
 10
44.600867
 20
11.447823
 30
0.0
 11
44.516127
 21
11.629415
 31
0.0
  0
LINE
  5
164
330
1F
100
AcDbEntity
  8
1
370
    18
100
AcDbLine
 10
44.947361
 20
4.543018
 30
0.0
 11
44.998048
 21
4.541936
 31
0.0
  0
LINE
  5
165
330
1F
100
AcDbEntity
  8
1
370
    18
100
AcDbLine
 10
44.429891
 20
11.548903
 30
0.0
 11
44.516127
 21
11.629415
 31
0.0
  0
LINE
  5
166
330
1F
100
AcDbEntity
  8
1
370
    18
100
AcDbLine
 10
42.289546
 20
-2.944041
 30
0.0
 11
42.852905
 21
-3.198274
 31
0.0
  0
LINE
  5
167
330
1F
100
AcDbEntity
  8
1
370
    18
100
AcDbLine
 10
42.852905
 20
-3.198274
 30
0.0
 11
42.769023
 21
-3.332574
 31
0.0
  0
LINE
  5
168
330
1F
100
AcDbEntity
  8
1
370
    18
100
AcDbLine
 10
44.901092
 20
-4.096983
 30
0.0
 11
43.213328
 21
-3.653505
 31
0.0
  0
LINE
  5
169
330
1F
100
AcDbEntity
  8
1
370
    18
100
AcDbLine
 10
43.335239
 20
-3.527655
 30
0.0
 11
43.155408
 21
-3.581425
 31
0.0
  0
LINE
  5
16A
330
1F
100
AcDbEntity
  8
1
370
    18
100
AcDbLine
 10
43.335244
 20
-3.52767
 30
0.0
 11
44.947361
 21
-3.952973
 31
0.0
  0
LINE
  5
16B
330
1F
100
AcDbEntity
  8
1
370
    18
100
AcDbLine
 10
44.901092
 20
-4.096983
 30
0.0
 11
44.947361
 21
-3.952973
 31
0.0
  0
LINE
  5
16C
330
1F
100
AcDbEntity
  8
1
370
    18
100
AcDbLine
 10
42.852905
 20
12.500103
 30
0.0
 11
41.602234
 21
13.139631
 31
0.0
  0
LINE
  5
16D
330
1F
100
AcDbEntity
  8
1
370
    18
100
AcDbLine
 10
27.895402
 20
21.163541
 30
0.0
 11
27.816688
 21
21.101474
 31
0.0
  0
LINE
  5
16E
330
1F
100
AcDbEntity
  8
1
370
    18
100
AcDbLine
 10
33.031455
 20
17.763557
 30
0.0
 11
33.055552
 21
17.821875
 31
0.0
  0
LINE
  5
16F
330
1F
100
AcDbEntity
  8
1
370
    18
100
AcDbLine
 10
38.808749
 20
14.090485
 30
0.0
 11
38.887463
 21
14.179364
 31
0.0
  0
LINE
  5
170
330
1F
100
AcDbEntity
  8
1
370
    18
100
AcDbLine
 10
47.380998
 20
1.536446
 30
0.0
 11
47.941748
 21
1.898592
 31
0.0
  0
LINE
  5
171
330
1F
100
AcDbEntity
  8
1
370
    18
100
AcDbLine
 10
47.941748
 20
1.898592
 30
0.0
 11
48.157836
 21
2.14931
 31
0.0
  0
LINE
  5
172
330
1F
100
AcDbEntity
  8
1
370
    18
100
AcDbLine
 10
45.915424
 20
2.378802
 30
0.0
 11
45.66755
 21
3.045495
 31
0.0
  0
LINE
  5
173
330
1F
100
AcDbEntity
  8
1
370
    18
100
AcDbLine
 10
48.21934
 20
1.798592
 30
0.0
 11
47.941748
 21
1.898592
 31
0.0
  0
LINE
  5
174
330
1F
100
AcDbEntity
  8
1
370
    18
100
AcDbLine
 10
45.484604
 20
-4.203825
 30
0.0
 11
45.649248
 21
-4.055291
 31
0.0
  0
LINE
  5
175
330
1F
100
AcDbEntity
  8
1
370
    18
100
AcDbLine
 10
45.484604
 20
-4.203825
 30
0.0
 11
44.901092
 21
-4.096983
 31
0.0
  0
LINE
  5
176
330
1F
100
AcDbEntity
  8
1
370
    18
100
AcDbLine
 10
45.649248
 20
-4.055291
 30
0.0
 11
48.21934
 21
-4.233223
 31
0.0
  0
LINE
  5
177
330
1F
100
AcDbEntity
  8
1
370
    18
100
AcDbLine
 10
45.66755
 20
3.045495
 30
0.0
 11
45.649248
 21
3.118235
 31
0.0
  0
LINE
  5
178
330
1F
100
AcDbEntity
  8
1
370
    18
100
AcDbLine
 10
20.571624
 20
-37.905127
 30
0.0
 11
22.082624
 21
-40.144518
 31
0.0
  0
LINE
  5
179
330
1F
100
AcDbEntity
  8
1
370
    18
100
AcDbLine
 10
20.175612
 20
-37.342916
 30
0.0
 11
20.571624
 21
-37.905127
 31
0.0
  0
LINE
  5
17A
330
1F
100
AcDbEntity
  8
1
370
    18
100
AcDbLine
 10
19.09571
 20
-36.235071
 30
0.0
 11
19.142238
 21
-36.215255
 31
0.0
  0
LINE
  5
17B
330
1F
100
AcDbEntity
  8
1
370
    18
100
AcDbLine
 10
19.1191
 20
-36.370514
 30
0.0
 11
19.09571
 21
-36.235071
 31
0.0
  0
LINE
  5
17C
330
1F
100
AcDbEntity
  8
1
370
    18
100
AcDbLine
 10
20.571624
 20
34.929134
 30
0.0
 11
22.082624
 21
36.582724
 31
0.0
  0
LINE
  5
17D
330
1F
100
AcDbEntity
  8
1
370
    18
100
AcDbLine
 10
20.044014
 20
34.26199
 30
0.0
 11
20.571624
 21
34.929134
 31
0.0
  0
LINE
  5
17E
330
1F
100
AcDbEntity
  8
1
370
    18
100
AcDbLine
 10
20.571624
 20
-3.263006
 30
0.0
 11
22.082624
 21
-4.066578
 31
0.0
  0
LINE
  5
17F
330
1F
100
AcDbEntity
  8
1
370
    18
100
AcDbLine
 10
20.272182
 20
-3.168003
 30
0.0
 11
20.571624
 21
-3.263006
 31
0.0
  0
LINE
  5
180
330
1F
100
AcDbEntity
  8
1
370
    18
100
AcDbLine
 10
48.054695
 20
-4.380422
 30
0.0
 11
48.21934
 21
-4.233223
 31
0.0
  0
LINE
  5
181
330
1F
100
AcDbEntity
  8
1
370
    18
100
AcDbLine
 10
48.054695
 20
-4.380422
 30
0.0
 11
45.484604
 21
-4.203825
 31
0.0
  0
LINE
  5
182
330
1F
100
AcDbEntity
  8
1
370
    18
100
AcDbLine
 10
20.571624
 20
-3.263006
 30
0.0
 11
20.664009
 21
-3.414758
 31
0.0
  0
LINE
  5
183
330
1F
100
AcDbEntity
  8
1
370
    18
100
AcDbLine
 10
22.175009
 20
-4.216864
 30
0.0
 11
20.664009
 21
-3.414758
 31
0.0
  0
LINE
  5
184
330
1F
100
AcDbEntity
  8
1
370
    18
100
AcDbLine
 10
19.1191
 20
-5.509184
 30
0.0
 11
19.335968
 21
-5.482653
 31
0.0
  0
LINE
  5
185
330
1F
100
AcDbEntity
  8
1
370
    18
100
AcDbLine
 10
21.43643
 20
-16.57582
 30
0.0
 11
22.299491
 21
-19.718768
 31
0.0
  0
LINE
  5
186
330
1F
100
AcDbEntity
  8
1
370
    18
100
AcDbLine
 10
22.299491
 20
-19.718768
 30
0.0
 11
22.082624
 21
-19.777381
 31
0.0
  0
LINE
  5
187
330
1F
100
AcDbEntity
  8
1
370
    18
100
AcDbLine
 10
42.928676
 20
12.592192
 30
0.0
 11
42.852905
 21
12.500103
 31
0.0
  0
LINE
  5
188
330
1F
100
AcDbEntity
  8
1
370
    18
100
AcDbLine
 10
48.425719
 20
10.564374
 30
0.0
 11
48.259108
 21
10.427737
 31
0.0
  0
LINE
  5
189
330
1F
100
AcDbEntity
  8
1
370
    18
100
AcDbLine
 10
22.299491
 20
26.381152
 30
0.0
 11
22.082624
 21
26.300265
 31
0.0
  0
LINE
  5
18A
330
1F
100
AcDbEntity
  8
1
370
    18
100
AcDbLine
 10
19.308555
 20
-4.841829
 30
0.0
 11
19.335968
 21
-5.482653
 31
0.0
  0
LINE
  5
18B
330
1F
100
AcDbEntity
  8
1
370
    18
100
AcDbLine
 10
26.354881
 20
-43.187425
 30
0.0
 11
27.816688
 21
-43.41319
 31
0.0
  0
LINE
  5
18C
330
1F
100
AcDbEntity
  8
1
370
    18
100
AcDbLine
 10
27.895402
 20
-28.187116
 30
0.0
 11
27.816688
 21
-28.307455
 31
0.0
  0
LINE
  5
18D
330
1F
100
AcDbEntity
  8
1
370
    18
100
AcDbLine
 10
48.21934
 20
-4.233223
 30
0.0
 11
48.484056
 21
-4.200472
 31
0.0
  0
LINE
  5
18E
330
1F
100
AcDbEntity
  8
1
370
    18
100
AcDbLine
 10
48.479062
 20
2.036586
 30
0.0
 11
48.21934
 21
1.798592
 31
0.0
  0
LINE
  5
18F
330
1F
100
AcDbEntity
  8
1
370
    18
100
AcDbLine
 10
48.5
 20
2.058683
 30
0.0
 11
48.157836
 21
2.14931
 31
0.0
  0
LINE
  5
190
330
1F
100
AcDbEntity
  8
1
370
    18
100
AcDbLine
 10
48.274062
 20
-4.357928
 30
0.0
 11
48.054695
 21
-4.380422
 31
0.0
  0
LINE
  5
191
330
1F
100
AcDbEntity
  8
1
370
    18
100
AcDbLine
 10
48.5
 20
3.176131
 30
0.0
 11
48.157836
 21
3.202484
 31
0.0
  0
LINE
  5
192
330
1F
100
AcDbEntity
  8
1
370
    18
100
AcDbLine
 10
48.425061
 20
10.563825
 30
0.0
 11
48.500003
 21
10.454038
 31
0.0
  0
LINE
  5
193
330
1F
100
AcDbEntity
  8
1
370
    18
100
AcDbLine
 10
48.5
 20
4.343586
 30
0.0
 11
48.5
 21
3.176131
 31
0.0
  0
LINE
  5
194
330
1F
100
AcDbEntity
  8
1
370
    18
100
AcDbLine
 10
48.5
 20
5.796137
 30
0.0
 11
48.5
 21
4.343586
 31
0.0
  0
LINE
  5
195
330
1F
100
AcDbEntity
  8
1
370
    18
100
AcDbLine
 10
48.5
 20
7.98276
 30
0.0
 11
48.5
 21
5.796137
 31
0.0
  0
LINE
  5
196
330
1F
100
AcDbEntity
  8
1
370
    18
100
AcDbLine
 10
48.5
 20
10.454035
 30
0.0
 11
48.5
 21
7.98276
 31
0.0
  0
LINE
  5
197
330
1F
100
AcDbEntity
  8
1
370
    18
100
AcDbLine
 10
39.451536
 20
-33.634715
 30
0.0
 11
41.602234
 21
-32.323455
 31
0.0
  0
LINE
  5
198
330
1F
100
AcDbEntity
  8
1
370
    18
100
AcDbLine
 10
38.103495
 20
-31.428254
 30
0.0
 11
38.143194
 21
-33.370928
 31
0.0
  0
LINE
  5
199
330
1F
100
AcDbEntity
  8
1
370
    18
100
AcDbLine
 10
27.895402
 20
-28.187116
 30
0.0
 11
33.055565
 21
-30.93806
 31
0.0
  0
LINE
  5
19A
330
1F
100
AcDbEntity
  8
1
370
    18
100
AcDbLine
 10
44.720229
 20
-16.556959
 30
0.0
 11
44.610061
 21
-14.2884
 31
0.0
  0
LINE
  5
19B
330
1F
100
AcDbEntity
  8
1
370
    18
100
AcDbLine
 10
48.166565
 20
-26.064912
 30
0.0
 11
47.002604
 21
-24.06829
 31
0.0
  0
LINE
  5
19C
330
1F
100
AcDbEntity
  8
1
370
    18
100
AcDbLine
 10
48.238414
 20
-30.653618
 30
0.0
 11
48.410061
 21
-30.120113
 31
0.0
  0
LINE
  5
19D
330
1F
100
AcDbEntity
  8
1
370
    18
100
AcDbLine
 10
47.281071
 20
-30.639988
 30
0.0
 11
48.238462
 21
-30.653607
 31
0.0
  0
LINE
  5
19E
330
1F
100
AcDbEntity
  8
1
370
    18
100
AcDbLine
 10
44.999913
 20
-33.061144
 30
0.0
 11
44.947361
 21
-33.043901
 31
0.0
  0
LINE
  5
19F
330
1F
100
AcDbEntity
  8
1
370
    18
100
AcDbLine
 10
48.5
 20
11.289499
 30
0.0
 11
48.410061
 21
11.432265
 31
0.0
  0
LINE
  5
1A0
330
1F
100
AcDbEntity
  8
1
370
    18
100
AcDbLine
 10
48.480507
 20
11.347196
 30
0.0
 11
48.5
 21
11.289499
 31
0.0
  0
LINE
  5
1A1
330
1F
100
AcDbEntity
  8
1
370
    18
100
AcDbLine
 10
32.988176
 20
-31.074562
 30
0.0
 11
27.816688
 21
-28.307455
 31
0.0
  0
LINE
  5
1A2
330
1F
100
AcDbEntity
  8
1
370
    18
100
AcDbLine
 10
33.031455
 20
-31.026173
 30
0.0
 11
33.055552
 21
-30.938054
 31
0.0
  0
LINE
  5
1A3
330
1F
100
AcDbEntity
  8
1
370
    18
100
AcDbLine
 10
32.988175
 20
-31.074553
 30
0.0
 11
33.031455
 21
-31.026173
 31
0.0
  0
LINE
  5
1A4
330
1F
100
AcDbEntity
  8
1
370
    18
100
AcDbLine
 10
27.816688
 20
-43.41319
 30
0.0
 11
38.808749
 21
-43.851754
 31
0.0
  0
LINE
  5
1A5
330
1F
100
AcDbEntity
  8
1
370
    18
100
AcDbLine
 10
33.172515
 20
-30.962582
 30
0.0
 11
33.155089
 21
-31.026138
 31
0.0
  0
LINE
  5
1A6
330
1F
100
AcDbEntity
  8
1
370
    18
100
AcDbLine
 10
33.66219
 20
-29.353518
 30
0.0
 11
33.172514
 21
-30.962585
 31
0.0
  0
LINE
  5
1A7
330
1F
100
AcDbEntity
  8
1
370
    18
100
AcDbLine
 10
37.924646
 20
-33.263613
 30
0.0
 11
38.103783
 21
-33.376591
 31
0.0
  0
LINE
  5
1A8
330
1F
100
AcDbEntity
  8
1
370
    18
100
AcDbLine
 10
33.172552
 20
-30.962509
 30
0.0
 11
33.078733
 21
-30.911791
 31
0.0
  0
LINE
  5
1A9
330
1F
100
AcDbEntity
  8
1
370
    18
100
AcDbLine
 10
33.031455
 20
-31.026173
 30
0.0
 11
33.155098
 21
-31.026105
 31
0.0
  0
LINE
  5
1AA
330
1F
100
AcDbEntity
  8
1
370
    18
100
AcDbLine
 10
19.1191
 20
31.918644
 30
0.0
 11
19.335968
 21
31.977694
 31
0.0
  0
LINE
  5
1AB
330
1F
100
AcDbEntity
  8
1
370
    18
100
AcDbLine
 10
44.7
 20
16.824042
 30
0.0
 11
44.610061
 21
16.966809
 31
0.0
  0
LINE
  5
1AC
330
1F
100
AcDbEntity
  8
1
370
    18
100
AcDbLine
 10
5.634474
 20
-4.952642
 30
0.0
 11
5.7
 21
-4.55368
 31
0.0
  0
LINE
  5
1AD
330
1F
100
AcDbEntity
  8
1
370
    18
100
AcDbLine
 10
5.062058
 20
5.799623
 30
0.0
 11
4.9
 21
5.8725
 31
0.0
  0
LINE
  5
1AE
330
1F
100
AcDbEntity
  8
1
370
    18
100
AcDbLine
 10
0.015647
 20
5.856853
 30
0.0
 11
0.107735
 21
5.830322
 31
0.0
  0
LINE
  5
1AF
330
1F
100
AcDbEntity
  8
1
370
    18
100
AcDbLine
 10
0.201127
 20
-5.824848
 30
0.0
 11
0.049082
 21
-5.840606
 31
0.0
  0
LINE
  5
1B0
330
1F
100
AcDbEntity
  8
1
370
    18
100
AcDbLine
 10
46.100031
 20
-22.010828
 30
0.0
 11
47.043146
 21
-23.994551
 31
0.0
  0
LINE
  5
1B1
330
1F
100
AcDbEntity
  8
1
370
    18
100
AcDbLine
 10
47.002604
 20
-24.06829
 30
0.0
 11
47.043146
 21
-23.994551
 31
0.0
  0
LINE
  5
1B2
330
1F
100
AcDbEntity
  8
1
370
    18
100
AcDbLine
 10
44.610061
 20
-14.2884
 30
0.0
 11
44.7
 21
-14.300481
 31
0.0
  0
LINE
  5
1B3
330
1F
100
AcDbEntity
  8
1
370
    18
100
AcDbLine
 10
40.865943
 20
-42.210053
 30
0.0
 11
40.079068
 21
-43.13167
 31
0.0
  0
LINE
  5
1B4
330
1F
100
AcDbEntity
  8
1
370
    18
100
AcDbLine
 10
39.451536
 20
-43.635597
 30
0.0
 11
40.079068
 21
-43.13167
 31
0.0
  0
LINE
  5
1B5
330
1F
100
AcDbEntity
  8
1
370
    18
100
AcDbLine
 10
42.289546
 20
-40.429161
 30
0.0
 11
42.852905
 21
-40.403521
 31
0.0
  0
LINE
  5
1B6
330
1F
100
AcDbEntity
  8
1
370
    18
100
AcDbLine
 10
43.335244
 20
-40.47271
 30
0.0
 11
44.947361
 21
-40.541835
 31
0.0
  0
LINE
  5
1B7
330
1F
100
AcDbEntity
  8
1
370
    18
100
AcDbLine
 10
44.390014
 20
-34.47474
 30
0.0
 11
44.947361
 21
-33.13992
 31
0.0
  0
LINE
  5
1B8
330
1F
100
AcDbEntity
  8
1
370
    18
100
AcDbLine
 10
44.684779
 20
-37.218093
 30
0.0
 11
44.998048
 21
-37.499798
 31
0.0
  0
LINE
  5
1B9
330
1F
100
AcDbEntity
  8
1
370
    18
100
AcDbLine
 10
45.456426
 20
-32.119072
 30
0.0
 11
45.126378
 21
-33.019701
 31
0.0
  0
LINE
  5
1BA
330
1F
100
AcDbEntity
  8
1
370
    18
100
AcDbLine
 10
48.270028
 20
-31.081812
 30
0.0
 11
48.124914
 21
-30.844923
 31
0.0
  0
LINE
  5
1BB
330
1F
100
AcDbEntity
  8
1
370
    18
100
AcDbLine
 10
48.24489
 20
-31.45554
 30
0.0
 11
48.270028
 21
-31.081812
 31
0.0
  0
LINE
  5
1BC
330
1F
100
AcDbEntity
  8
1
370
    18
100
AcDbLine
 10
44.947361
 20
-33.13992
 30
0.0
 11
45.117751
 21
-33.034975
 31
0.0
  0
LINE
  5
1BD
330
1F
100
AcDbEntity
  8
1
370
    18
100
AcDbLine
 10
44.947361
 20
-37.837667
 30
0.0
 11
44.998048
 21
-37.499798
 31
0.0
  0
LINE
  5
1BE
330
1F
100
AcDbEntity
  8
1
370
    18
100
AcDbLine
 10
44.947361
 20
-33.13992
 30
0.0
 11
44.999913
 21
-33.061144
 31
0.0
  0
LINE
  5
1BF
330
1F
100
AcDbEntity
  8
1
370
    18
100
AcDbLine
 10
48.125126
 20
-30.844927
 30
0.0
 11
48.298022
 21
-30.75698
 31
0.0
  0
LINE
  5
1C0
330
1F
100
AcDbEntity
  8
1
370
    18
100
AcDbLine
 10
45.126386
 20
-33.019689
 30
0.0
 11
45.023535
 21
-33.043965
 31
0.0
  0
LINE
  5
1C1
330
1F
100
AcDbEntity
  8
1
370
    18
100
AcDbLine
 10
48.238387
 20
-30.653652
 30
0.0
 11
48.303155
 21
-30.736309
 31
0.0
  0
LINE
  5
1C2
330
1F
100
AcDbEntity
  8
1
370
    18
100
AcDbLine
 10
38.76298
 20
36.528712
 30
0.0
 11
27.77092
 21
38.149279
 31
0.0
  0
LINE
  5
1C3
330
1F
100
AcDbEntity
  8
1
370
    18
100
AcDbLine
 10
39.297359
 20
36.279189
 30
0.0
 11
38.76298
 21
36.528712
 31
0.0
  0
LINE
  5
1C4
330
1F
100
AcDbEntity
  8
1
370
    18
100
AcDbLine
 10
39.777728
 20
35.859662
 30
0.0
 11
39.297359
 21
36.279189
 31
0.0
  0
LINE
  5
1C5
330
1F
100
AcDbEntity
  8
1
370
    18
100
AcDbLine
 10
22.175009
 20
36.411862
 30
0.0
 11
20.664009
 21
34.75761
 31
0.0
  0
LINE
  5
1C6
330
1F
100
AcDbEntity
  8
1
370
    18
100
AcDbLine
 10
23.124973
 20
37.220037
 30
0.0
 11
22.175009
 21
36.411862
 31
0.0
  0
LINE
  5
1C7
330
1F
100
AcDbEntity
  8
1
370
    18
100
AcDbLine
 10
39.451536
 20
36.471396
 30
0.0
 11
40.079068
 21
35.922925
 31
0.0
  0
LINE
  5
1C8
330
1F
100
AcDbEntity
  8
1
370
    18
100
AcDbLine
 10
40.079068
 20
35.922925
 30
0.0
 11
40.012599
 21
35.873491
 31
0.0
  0
LINE
  5
1C9
330
1F
100
AcDbEntity
  8
1
370
    18
100
AcDbLine
 10
40.012599
 20
35.873491
 30
0.0
 11
39.777728
 21
35.859662
 31
0.0
  0
LINE
  5
1CA
330
1F
100
AcDbEntity
  8
1
370
    18
100
AcDbLine
 10
39.451536
 20
36.471396
 30
0.0
 11
39.297359
 21
36.279189
 31
0.0
  0
LINE
  5
1CB
330
1F
100
AcDbEntity
  8
1
370
    18
100
AcDbLine
 10
41.083976
 20
38.136122
 30
0.0
 11
41.602234
 21
37.944645
 31
0.0
  0
LINE
  5
1CC
330
1F
100
AcDbEntity
  8
1
370
    18
100
AcDbLine
 10
40.865943
 20
36.53455
 30
0.0
 11
40.079068
 21
35.922925
 31
0.0
  0
LINE
  5
1CD
330
1F
100
AcDbEntity
  8
1
370
    18
100
AcDbLine
 10
38.808749
 20
36.754063
 30
0.0
 11
39.451536
 21
36.471396
 31
0.0
  0
LINE
  5
1CE
330
1F
100
AcDbEntity
  8
1
370
    18
100
AcDbLine
 10
38.808749
 20
36.754063
 30
0.0
 11
38.76298
 21
36.528712
 31
0.0
  0
LINE
  5
1CF
330
1F
100
AcDbEntity
  8
1
370
    18
100
AcDbLine
 10
27.816688
 20
38.380851
 30
0.0
 11
38.808749
 21
36.754063
 31
0.0
  0
LINE
  5
1D0
330
1F
100
AcDbEntity
  8
1
370
    18
100
AcDbLine
 10
27.77092
 20
38.149279
 30
0.0
 11
27.816688
 21
38.380851
 31
0.0
  0
LINE
  5
1D1
330
1F
100
AcDbEntity
  8
1
370
    18
100
AcDbLine
 10
35.132781
 20
32.479963
 30
0.0
 11
35.293575
 21
32.439889
 31
0.0
  0
LINE
  5
1D2
330
1F
100
AcDbEntity
  8
1
370
    18
100
AcDbLine
 10
48.166565
 20
-26.064912
 30
0.0
 11
48.207107
 21
-25.987181
 31
0.0
  0
LINE
  5
1D3
330
1F
100
AcDbEntity
  8
1
370
    18
100
AcDbLine
 10
48.410061
 20
-30.120113
 30
0.0
 11
48.5
 21
-30.132194
 31
0.0
  0
LINE
  5
1D4
330
1F
100
AcDbEntity
  8
1
370
    18
100
AcDbLine
 10
48.297987
 20
-30.756975
 30
0.0
 11
48.5
 21
-30.90825
 31
0.0
  0
LINE
  5
1D5
330
1F
100
AcDbEntity
  8
1
370
    18
100
AcDbLine
 10
48.270028
 20
-31.081812
 30
0.0
 11
48.5
 21
-30.90825
 31
0.0
  0
LINE
  5
1D6
330
1F
100
AcDbEntity
  8
1
370
    18
100
AcDbLine
 10
48.410061
 20
-26.892761
 30
0.0
 11
48.5
 21
-26.904842
 31
0.0
  0
LINE
  5
1D7
330
1F
100
AcDbEntity
  8
1
370
    18
100
AcDbLine
 10
44.7
 20
17.945745
 30
0.0
 11
44.610061
 21
18.088511
 31
0.0
  0
LINE
  5
1D8
330
1F
100
AcDbEntity
  8
1
370
    18
100
AcDbLine
 10
48.157836
 20
-33.635246
 30
0.0
 11
48.5
 21
-33.561045
 31
0.0
  0
LINE
  5
1D9
330
1F
100
AcDbEntity
  8
1
370
    18
100
AcDbLine
 10
48.5
 20
-32.273135
 30
0.0
 11
48.5
 21
-33.561045
 31
0.0
  0
LINE
  5
1DA
330
1F
100
AcDbEntity
  8
1
370
    18
100
AcDbLine
 10
48.5
 20
-31.534776
 30
0.0
 11
48.5
 21
-32.273135
 31
0.0
  0
LINE
  5
1DB
330
1F
100
AcDbEntity
  8
1
370
    18
100
AcDbLine
 10
48.5
 20
-30.90825
 30
0.0
 11
48.5
 21
-31.534776
 31
0.0
  0
LINE
  5
1DC
330
1F
100
AcDbEntity
  8
1
370
    18
100
AcDbLine
 10
38.740054
 20
20.792593
 30
0.0
 11
38.406932
 21
20.806647
 31
0.0
  0
LINE
  5
1DD
330
1F
100
AcDbEntity
  8
1
370
    18
100
AcDbLine
 10
26.354881
 20
38.446457
 30
0.0
 11
27.816688
 21
38.380851
 31
0.0
  0
LINE
  5
1DE
330
1F
100
AcDbEntity
  8
1
370
    18
100
AcDbLine
 10
22.175009
 20
36.411862
 30
0.0
 11
22.082624
 21
36.582724
 31
0.0
  0
LINE
  5
1DF
330
1F
100
AcDbEntity
  8
1
370
    18
100
AcDbLine
 10
41.602234
 20
37.944645
 30
0.0
 11
41.505171
 21
37.698276
 31
0.0
  0
LINE
  5
1E0
330
1F
100
AcDbEntity
  8
1
370
    18
100
AcDbLine
 10
33.910358
 20
30.789064
 30
0.0
 11
34.145566
 21
30.129392
 31
0.0
  0
LINE
  5
1E1
330
1F
100
AcDbEntity
  8
1
370
    18
100
AcDbLine
 10
20.571624
 20
34.929134
 30
0.0
 11
20.664009
 21
34.75761
 31
0.0
  0
LINE
  5
1E2
330
1F
100
AcDbEntity
  8
1
370
    18
100
AcDbLine
 10
40.557563
 20
22.917982
 30
0.0
 11
40.702163
 21
22.056573
 31
0.0
  0
LINE
  5
1E3
330
1F
100
AcDbEntity
  8
1
370
    18
100
AcDbLine
 10
42.945549
 20
19.767953
 30
0.0
 11
44.582848
 21
18.879407
 31
0.0
  0
LINE
  5
1E4
330
1F
100
AcDbEntity
  8
1
370
    18
100
AcDbLine
 10
46.022004
 20
38.775111
 30
0.0
 11
45.66755
 21
39.379648
 31
0.0
  0
LINE
  5
1E5
330
1F
100
AcDbEntity
  8
1
370
    18
100
AcDbLine
 10
44.496924
 20
41.415172
 30
0.0
 11
44.947361
 21
41.517119
 31
0.0
  0
LINE
  5
1E6
330
1F
100
AcDbEntity
  8
1
370
    18
100
AcDbLine
 10
41.602234
 20
37.944645
 30
0.0
 11
42.762309
 21
37.445582
 31
0.0
  0
LINE
  5
1E7
330
1F
100
AcDbEntity
  8
1
370
    18
100
AcDbLine
 10
44.58285
 20
18.879371
 30
0.0
 11
44.699999
 21
18.78879
 31
0.0
  0
LINE
  5
1E8
330
1F
100
AcDbEntity
  8
1
370
    18
100
AcDbLine
 10
44.7
 20
18.788743
 30
0.0
 11
44.7
 21
17.945745
 31
0.0
  0
LINE
  5
1E9
330
1F
100
AcDbEntity
  8
1
370
    18
100
AcDbLine
 10
45.649248
 20
-38.116015
 30
0.0
 11
45.52047
 21
-37.816997
 31
0.0
  0
LINE
  5
1EA
330
1F
100
AcDbEntity
  8
1
370
    18
100
AcDbLine
 10
47.941748
 20
-35.888231
 30
0.0
 11
48.157836
 21
-35.289224
 31
0.0
  0
LINE
  5
1EB
330
1F
100
AcDbEntity
  8
1
370
    18
100
AcDbLine
 10
45.649248
 20
-40.27289
 30
0.0
 11
48.21934
 21
-37.767902
 31
0.0
  0
LINE
  5
1EC
330
1F
100
AcDbEntity
  8
1
370
    18
100
AcDbLine
 10
45.66755
 20
-38.125794
 30
0.0
 11
45.536735
 21
-37.826601
 31
0.0
  0
LINE
  5
1ED
330
1F
100
AcDbEntity
  8
1
370
    18
100
AcDbLine
 10
47.941748
 20
-35.888231
 30
0.0
 11
48.21934
 21
-36.070405
 31
0.0
  0
LINE
  5
1EE
330
1F
100
AcDbEntity
  8
1
370
    18
100
AcDbLine
 10
48.157836
 20
-35.289224
 30
0.0
 11
48.5
 21
-35.315964
 31
0.0
  0
LINE
  5
1EF
330
1F
100
AcDbEntity
  8
1
370
    18
100
AcDbLine
 10
45.329081
 20
41.344871
 30
0.0
 11
45.117751
 21
41.339503
 31
0.0
  0
LINE
  5
1F0
330
1F
100
AcDbEntity
  8
1
370
    18
100
AcDbLine
 10
44.947361
 20
41.517119
 30
0.0
 11
45.117751
 21
41.339503
 31
0.0
  0
LINE
  5
1F1
330
1F
100
AcDbEntity
  8
1
370
    18
100
AcDbLine
 10
40.809544
 20
-41.680776
 30
0.0
 11
40.945681
 21
-41.659107
 31
0.0
  0
LINE
  5
1F2
330
1F
100
AcDbEntity
  8
1
370
    18
100
AcDbLine
 10
48.270028
 20
37.946174
 30
0.0
 11
48.5
 21
37.790415
 31
0.0
  0
LINE
  5
1F3
330
1F
100
AcDbEntity
  8
1
370
    18
100
AcDbLine
 10
48.5
 20
37.790415
 30
0.0
 11
48.5
 21
36.031678
 31
0.0
  0
LINE
  5
1F4
330
1F
100
AcDbEntity
  8
1
370
    18
100
AcDbLine
 10
40.945688
 20
-41.659109
 30
0.0
 11
41.033487
 21
-41.842571
 31
0.0
  0
LINE
  5
1F5
330
1F
100
AcDbEntity
  8
1
370
    18
100
AcDbLine
 10
19.1191
 20
-36.370514
 30
0.0
 11
19.335968
 21
-36.412629
 31
0.0
  0
LINE
  5
1F6
330
1F
100
AcDbEntity
  8
1
370
    18
100
AcDbLine
 10
22.299491
 20
-40.455528
 30
0.0
 11
22.082624
 21
-40.413104
 31
0.0
  0
LINE
  5
1F7
330
1F
100
AcDbEntity
  8
1
370
    18
100
AcDbLine
 10
48.072388
 20
38.58512
 30
0.0
 11
48.21934
 21
38.555983
 31
0.0
  0
LINE
  5
1F8
330
1F
100
AcDbEntity
  8
1
370
    18
100
AcDbLine
 10
45.67413
 20
41.171051
 30
0.0
 11
45.649248
 21
41.248513
 31
0.0
  0
LINE
  5
1F9
330
1F
100
AcDbEntity
  8
1
370
    18
100
AcDbLine
 10
47.785739
 20
39.029163
 30
0.0
 11
48.21934
 21
38.555983
 31
0.0
  0
LINE
  5
1FA
330
1F
100
AcDbEntity
  8
1
370
    18
100
AcDbLine
 10
44.82945
 20
-14.599932
 30
0.0
 11
44.7
 21
-13.626992
 31
0.0
  0
LINE
  5
1FB
330
1F
100
AcDbEntity
  8
1
370
    18
100
AcDbLine
 10
47.043146
 20
-15.37087
 30
0.0
 11
45.799895
 21
-15.076623
 31
0.0
  0
LINE
  5
1FC
330
1F
100
AcDbEntity
  8
1
370
    18
100
AcDbLine
 10
22.473094
 20
-40.695179
 30
0.0
 11
22.082624
 21
-40.413104
 31
0.0
  0
LINE
  5
1FD
330
1F
100
AcDbEntity
  8
1
370
    18
100
AcDbLine
 10
48.207107
 20
-15.526201
 30
0.0
 11
47.043146
 21
-15.37087
 31
0.0
  0
LINE
  5
1FE
330
1F
100
AcDbEntity
  8
1
370
    18
100
AcDbLine
 10
44.82945
 20
17.891288
 30
0.0
 11
44.7
 21
17.240866
 31
0.0
  0
LINE
  5
1FF
330
1F
100
AcDbEntity
  8
1
370
    18
100
AcDbLine
 10
44.676519
 20
17.899938
 30
0.0
 11
44.829432
 21
17.891108
 31
0.0
  0
LINE
  5
200
330
1F
100
AcDbEntity
  8
1
370
    18
100
AcDbLine
 10
45.322669
 20
18.970548
 30
0.0
 11
45.799913
 21
20.243406
 31
0.0
  0
LINE
  5
201
330
1F
100
AcDbEntity
  8
1
370
    18
100
AcDbLine
 10
45.799943
 20
20.243347
 30
0.0
 11
45.669579
 21
20.493683
 31
0.0
  0
LINE
  5
202
330
1F
100
AcDbEntity
  8
1
370
    18
100
AcDbLine
 10
45.799943
 20
-15.076619
 30
0.0
 11
45.669579
 21
-14.988208
 31
0.0
  0
LINE
  5
203
330
1F
100
AcDbEntity
  8
1
370
    18
100
AcDbLine
 10
48.207107
 20
22.756657
 30
0.0
 11
47.043146
 21
21.676301
 31
0.0
  0
LINE
  5
204
330
1F
100
AcDbEntity
  8
1
370
    18
100
AcDbLine
 10
45.669561
 20
-14.9882
 30
0.0
 11
46.880564
 21
-15.274314
 31
0.0
  0
LINE
  5
205
330
1F
100
AcDbEntity
  8
1
370
    18
100
AcDbLine
 10
48.207107
 20
-15.526201
 30
0.0
 11
48.044525
 21
-15.428327
 31
0.0
  0
LINE
  5
206
330
1F
100
AcDbEntity
  8
1
370
    18
100
AcDbLine
 10
46.880564
 20
-15.274314
 30
0.0
 11
48.044525
 21
-15.428327
 31
0.0
  0
LINE
  5
207
330
1F
100
AcDbEntity
  8
1
370
    18
100
AcDbLine
 10
48.044525
 20
-15.428327
 30
0.0
 11
48.219041
 21
-15.481588
 31
0.0
  0
LINE
  5
208
330
1F
100
AcDbEntity
  8
1
370
    18
100
AcDbLine
 10
48.274112
 20
-4.357797
 30
0.0
 11
48.484165
 21
-4.200489
 31
0.0
  0
LINE
  5
209
330
1F
100
AcDbEntity
  8
1
370
    18
100
AcDbLine
 10
48.481328
 20
11.345248
 30
0.0
 11
48.378588
 21
11.532406
 31
0.0
  0
LINE
  5
20A
330
1F
100
AcDbEntity
  8
1
370
    18
100
AcDbLine
 10
48.402588
 20
-15.593672
 30
0.0
 11
48.219058
 21
-15.481579
 31
0.0
  0
LINE
  5
20B
330
1F
100
AcDbEntity
  8
CUT
370
    18
100
AcDbLine
 10
40.553132
 20
28.687073
 30
0.0
 11
34.439992
 21
34.927261
 31
0.0
  0
LINE
  5
20C
330
1F
100
AcDbEntity
  8
CUT
370
    18
100
AcDbLine
 10
34.439992
 20
38.07655
 30
0.0
 11
40.553132
 21
44.455188
 31
0.0
  0
LINE
  5
20D
330
1F
100
AcDbEntity
  8
CUT
370
    18
100
AcDbLine
 10
41.227055
 20
44.763993
 30
0.0
 11
42.923318
 21
44.791128
 31
0.0
  0
LINE
  5
20E
330
1F
100
AcDbEntity
  8
CUT
370
    18
100
AcDbLine
 10
43.59724
 20
44.504211
 30
0.0
 11
49.710381
 21
38.362746
 31
0.0
  0
LINE
  5
20F
330
1F
100
AcDbEntity
  8
CUT
370
    18
100
AcDbLine
 10
49.710381
 20
35.239043
 30
0.0
 11
43.59724
 21
28.762983
 31
0.0
  0
LINE
  5
210
330
1F
100
AcDbEntity
  8
CUT
370
    18
100
AcDbLine
 10
42.923318
 20
28.446123
 30
0.0
 11
41.227055
 21
28.403377
 31
0.0
  0
LINE
  5
211
330
1F
100
AcDbEntity
  8
1
370
    13
100
AcDbLine
 10
45.126923
 20
-15.00994
 30
0.0
 11
44.990518
 21
-15.043648
 31
0.0
  0
LINE
  5
212
330
1F
100
AcDbEntity
  8
1
370
    13
100
AcDbLine
 10
48.370614
 20
-15.327507
 30
0.0
 11
45.666061
 21
-14.965019
 31
0.0
  0
LINE
  5
213
330
1F
100
AcDbEntity
  8
1
370
    13
100
AcDbLine
 10
48.602309
 20
-16.584505
 30
0.0
 11
48.602309
 21
-15.475742
 31
0.0
  0
LINE
  5
214
330
1F
100
AcDbEntity
  8
1
370
    13
100
AcDbLine
 10
44.700058
 20
-11.824631
 30
0.0
 11
48.95192
 21
-12.394504
 31
0.0
  0
LINE
  5
215
330
1F
100
AcDbEntity
  8
1
370
    13
100
AcDbLine
 10
49.183615
 20
-12.542739
 30
0.0
 11
49.183615
 21
-13.458401
 31
0.0
  0
LINE
  5
216
330
1F
100
AcDbEntity
  8
1
370
    13
100
AcDbLine
 10
44.102939
 20
36.776507
 30
0.0
 11
41.700563
 21
37.118538
 31
0.0
  0
LINE
  5
217
330
1F
100
AcDbEntity
  8
1
370
    13
100
AcDbLine
 10
41.161425
 20
36.992844
 30
0.0
 11
40.95765
 21
36.843801
 31
0.0
  0
LINE
  5
218
330
1F
100
AcDbEntity
  8
1
370
    13
100
AcDbLine
 10
42.217918
 20
37.526187
 30
0.0
 11
45.126923
 21
37.112026
 31
0.0
  0
LINE
  5
219
330
1F
100
AcDbEntity
  8
1
370
    13
100
AcDbLine
 10
45.666061
 20
36.832816
 30
0.0
 11
48.370614
 21
34.084563
 31
0.0
  0
LINE
  5
21A
330
1F
100
AcDbEntity
  8
1
370
    13
100
AcDbLine
 10
40.968328
 20
36.880858
 30
0.0
 11
41.67878
 21
37.400493
 31
0.0
  0
LINE
  5
21B
330
1F
100
AcDbEntity
  8
1
370
    13
100
AcDbLine
 10
1.52
 20
4.872432
 30
0.0
 11
1.52
 21
-4.872831
 31
0.0
  0
LINE
  5
21C
330
1F
100
AcDbEntity
  8
1
370
    13
100
AcDbLine
 10
0.25
 20
5.08
 30
0.0
 11
0.25
 21
-5.08
 31
0.0
  0
LINE
  5
21D
330
1F
100
AcDbEntity
  8
1
370
    13
100
AcDbLine
 10
49.444077
 20
30.972689
 30
0.0
 11
49.710381
 21
30.822019
 31
0.0
  0
LINE
  5
21E
330
1F
100
AcDbEntity
  8
1
370
    13
100
AcDbLine
 10
50.0
 20
30.370261
 30
0.0
 11
50.0
 21
29.099522
 31
0.0
  0
LINE
  5
21F
330
1F
100
AcDbEntity
  8
1
370
    13
100
AcDbLine
 10
44.952313
 20
21.596233
 30
0.0
 11
48.941119
 21
25.315778
 31
0.0
  0
LINE
  5
220
330
1F
100
AcDbEntity
  8
1
370
    13
100
AcDbLine
 10
41.227055
 20
-10.880871
 30
0.0
 11
42.923318
 21
-11.323613
 31
0.0
  0
LINE
  5
221
330
1F
100
AcDbEntity
  8
1
370
    13
100
AcDbLine
 10
36.049658
 20
-8.591215
 30
0.0
 11
40.553132
 21
-10.648275
 31
0.0
  0
LINE
  5
222
330
1F
100
AcDbEntity
  8
1
370
    13
100
AcDbLine
 10
49.230738
 20
-7.15321
 30
0.0
 11
49.230738
 21
-7.61652
 31
0.0
  0
LINE
  5
223
330
1F
100
AcDbEntity
  8
1
370
    13
100
AcDbLine
 10
48.941119
 20
-7.672855
 30
0.0
 11
44.952313
 21
-7.412594
 31
0.0
  0
LINE
  5
224
330
1F
100
AcDbEntity
  8
1
370
    13
100
AcDbLine
 10
43.59724
 20
-11.442816
 30
0.0
 11
49.710381
 21
-11.841686
 31
0.0
  0
LINE
  5
225
330
1F
100
AcDbEntity
  8
1
370
    13
100
AcDbLine
 10
50.0
 20
-11.785351
 30
0.0
 11
50.0
 21
-11.453287
 31
0.0
  0
LINE
  5
226
330
1F
100
AcDbEntity
  8
1
370
    13
100
AcDbLine
 10
41.161425
 20
-42.205969
 30
0.0
 11
40.966405
 21
-41.99925
 31
0.0
  0
LINE
  5
227
330
1F
100
AcDbEntity
  8
1
370
    13
100
AcDbLine
 10
48.602309
 20
-37.34665
 30
0.0
 11
48.602309
 21
-34.360658
 31
0.0
  0
LINE
  5
228
330
1F
100
AcDbEntity
  8
1
370
    13
100
AcDbLine
 10
45.666061
 20
-40.577764
 30
0.0
 11
48.370614
 21
-37.892289
 31
0.0
  0
LINE
  5
229
330
1F
100
AcDbEntity
  8
1
370
    13
100
AcDbLine
 10
42.217918
 20
-40.700012
 30
0.0
 11
45.126923
 21
-40.797519
 31
0.0
  0
LINE
  5
22A
330
1F
100
AcDbEntity
  8
1
370
    13
100
AcDbLine
 10
44.102939
 20
-42.542392
 30
0.0
 11
41.700563
 21
-42.461867
 31
0.0
  0
LINE
  5
22B
330
1F
100
AcDbEntity
  8
1
370
    13
100
AcDbLine
 10
48.95192
 20
-38.043196
 30
0.0
 11
44.642077
 21
-42.322637
 31
0.0
  0
LINE
  5
22C
330
1F
100
AcDbEntity
  8
1
370
    13
100
AcDbLine
 10
49.183615
 20
-35.031601
 30
0.0
 11
49.183615
 21
-37.497556
 31
0.0
  0
LINE
  5
22D
330
1F
100
AcDbEntity
  8
1
370
    13
100
AcDbLine
 10
45.126923
 20
20.173342
 30
0.0
 11
44.699981
 21
20.09506
 31
0.0
  0
LINE
  5
22E
330
1F
100
AcDbEntity
  8
1
370
    13
100
AcDbLine
 10
48.370614
 20
22.967753
 30
0.0
 11
45.666061
 21
20.445769
 31
0.0
  0
LINE
  5
22F
330
1F
100
AcDbEntity
  8
1
370
    13
100
AcDbLine
 10
42.217918
 20
-3.471422
 30
0.0
 11
45.126923
 21
-4.230701
 31
0.0
  0
LINE
  5
230
330
1F
100
AcDbEntity
  8
1
370
    13
100
AcDbLine
 10
44.102939
 20
-7.276209
 30
0.0
 11
41.700563
 21
-6.649165
 31
0.0
  0
LINE
  5
231
330
1F
100
AcDbEntity
  8
1
370
    13
100
AcDbLine
 10
41.441075
 20
-3.176768
 30
0.0
 11
41.67878
 21
-3.285345
 31
0.0
  0
LINE
  5
232
330
1F
100
AcDbEntity
  8
1
370
    13
100
AcDbLine
 10
48.602309
 20
-4.457462
 30
0.0
 11
48.602309
 21
-3.88799
 31
0.0
  0
LINE
  5
233
330
1F
100
AcDbEntity
  8
1
370
    13
100
AcDbLine
 10
45.666061
 20
-4.326064
 30
0.0
 11
48.370614
 21
-4.50253
 31
0.0
  0
LINE
  5
234
330
1F
100
AcDbEntity
  8
1
370
    13
100
AcDbLine
 10
41.161425
 20
-6.463088
 30
0.0
 11
40.962364
 21
-6.372163
 31
0.0
  0
LINE
  5
235
330
1F
100
AcDbEntity
  8
1
370
    13
100
AcDbLine
 10
48.95192
 20
-7.65278
 30
0.0
 11
44.642077
 21
-7.371572
 31
0.0
  0
LINE
  5
236
330
1F
100
AcDbEntity
  8
1
370
    13
100
AcDbLine
 10
49.183615
 20
-7.137419
 30
0.0
 11
49.183615
 21
-7.607713
 31
0.0
  0
LINE
  5
237
330
1F
100
AcDbEntity
  8
1
370
    13
100
AcDbLine
 10
43.426333
 20
30.054715
 30
0.0
 11
43.350682
 21
29.902276
 31
0.0
  0
LINE
  5
238
330
1F
100
AcDbEntity
  8
1
370
    13
100
AcDbLine
 10
41.334583
 20
29.927482
 30
0.0
 11
40.902447
 21
29.056715
 31
0.0
  0
LINE
  5
239
330
1F
100
AcDbEntity
  8
1
370
    13
100
AcDbLine
 10
44.952313
 20
-11.817983
 30
0.0
 11
48.941119
 21
-12.352599
 31
0.0
  0
LINE
  5
23A
330
1F
100
AcDbEntity
  8
1
370
    13
100
AcDbLine
 10
49.230738
 20
-12.537892
 30
0.0
 11
49.230738
 21
-13.439958
 31
0.0
  0
LINE
  5
23B
330
1F
100
AcDbEntity
  8
1
370
    13
100
AcDbLine
 10
49.710381
 20
-8.471257
 30
0.0
 11
49.461079
 21
-8.437844
 31
0.0
  0
LINE
  5
23C
330
1F
100
AcDbEntity
  8
1
370
    13
100
AcDbLine
 10
50.0
 20
-9.30308
 30
0.0
 11
50.0
 21
-8.656551
 31
0.0
  0
LINE
  5
23D
330
1F
100
AcDbEntity
  8
1
370
    13
100
AcDbLine
 10
34.150373
 20
29.763154
 30
0.0
 11
34.150373
 21
31.245325
 31
0.0
  0
LINE
  5
23E
330
1F
100
AcDbEntity
  8
1
370
    13
100
AcDbLine
 10
34.439992
 20
31.792955
 30
0.0
 11
40.553132
 21
36.26419
 31
0.0
  0
LINE
  5
23F
330
1F
100
AcDbEntity
  8
1
370
    13
100
AcDbLine
 10
41.227055
 20
36.421307
 30
0.0
 11
42.923318
 21
36.179807
 31
0.0
  0
LINE
  5
240
330
1F
100
AcDbEntity
  8
1
370
    13
100
AcDbLine
 10
43.59724
 20
35.830794
 30
0.0
 11
49.710381
 21
29.618879
 31
0.0
  0
LINE
  5
241
330
1F
100
AcDbEntity
  8
1
370
    13
100
AcDbLine
 10
50.0
 20
28.988781
 30
0.0
 11
50.0
 21
27.50661
 31
0.0
  0
LINE
  5
242
330
1F
100
AcDbEntity
  8
1
370
    13
100
AcDbLine
 10
49.710381
 20
26.95898
 30
0.0
 11
43.59724
 21
22.487745
 31
0.0
  0
LINE
  5
243
330
1F
100
AcDbEntity
  8
1
370
    13
100
AcDbLine
 10
42.923318
 20
22.330628
 30
0.0
 11
41.227055
 21
22.572128
 31
0.0
  0
LINE
  5
244
330
1F
100
AcDbEntity
  8
1
370
    13
100
AcDbLine
 10
40.553132
 20
22.921141
 30
0.0
 11
34.439992
 21
29.133057
 31
0.0
  0
LINE
  5
245
330
1F
100
AcDbEntity
  8
1
370
    13
100
AcDbLine
 10
44.27839
 20
36.62381
 30
0.0
 11
41.911688
 21
36.960762
 31
0.0
  0
LINE
  5
246
330
1F
100
AcDbEntity
  8
1
370
    13
100
AcDbLine
 10
48.941119
 20
32.221541
 30
0.0
 11
44.952313
 21
36.274797
 31
0.0
  0
LINE
  5
247
330
1F
100
AcDbEntity
  8
1
370
    13
100
AcDbLine
 10
35.910574
 20
32.888822
 30
0.0
 11
34.439992
 21
31.792955
 31
0.0
  0
LINE
  5
248
330
1F
100
AcDbEntity
  8
1
370
    13
100
AcDbLine
 10
41.237765
 20
36.803645
 30
0.0
 11
40.804793
 21
36.486963
 31
0.0
  0
LINE
  5
249
330
1F
100
AcDbEntity
  8
1
370
    13
100
AcDbLine
 10
39.705221
 20
-43.431785
 30
0.0
 11
40.553132
 21
-44.330558
 31
0.0
  0
LINE
  5
24A
330
1F
100
AcDbEntity
  8
1
370
    13
100
AcDbLine
 10
48.499982
 20
-33.882426
 30
0.0
 11
48.941119
 21
-34.350024
 31
0.0
  0
LINE
  5
24B
330
1F
100
AcDbEntity
  8
1
370
    13
100
AcDbLine
 10
49.230738
 20
-35.05149
 30
0.0
 11
49.230738
 21
-37.480827
 31
0.0
  0
LINE
  5
24C
330
1F
100
AcDbEntity
  8
1
370
    13
100
AcDbLine
 10
48.941119
 20
-38.162876
 30
0.0
 11
44.952313
 21
-42.123545
 31
0.0
  0
LINE
  5
24D
330
1F
100
AcDbEntity
  8
1
370
    13
100
AcDbLine
 10
41.227055
 20
-44.650431
 30
0.0
 11
42.923318
 21
-44.707288
 31
0.0
  0
LINE
  5
24E
330
1F
100
AcDbEntity
  8
1
370
    13
100
AcDbLine
 10
43.59724
 20
-44.432594
 30
0.0
 11
49.710381
 21
-38.362576
 31
0.0
  0
LINE
  5
24F
330
1F
100
AcDbEntity
  8
1
370
    13
100
AcDbLine
 10
50.0
 20
-37.680526
 30
0.0
 11
50.0
 21
-35.939371
 31
0.0
  0
LINE
  5
250
330
1F
100
AcDbEntity
  8
1
370
    13
100
AcDbLine
 10
44.610061
 20
16.966809
 30
0.0
 11
44.610061
 21
18.088511
 31
0.0
  0
LINE
  5
251
330
1F
100
AcDbEntity
  8
1
370
    13
100
AcDbLine
 10
48.410061
 20
10.595235
 30
0.0
 11
48.410061
 21
11.432265
 31
0.0
  0
LINE
  5
252
330
1F
100
AcDbEntity
  8
1
370
    13
100
AcDbLine
 10
41.911768
 20
-3.060098
 30
0.0
 11
43.213328
 21
-3.653505
 31
0.0
  0
LINE
  5
253
330
1F
100
AcDbEntity
  8
1
370
    13
100
AcDbLine
 10
48.157836
 20
2.14931
 30
0.0
 11
48.157836
 21
3.202484
 31
0.0
  0
LINE
  5
254
330
1F
100
AcDbEntity
  8
1
370
    13
100
AcDbLine
 10
48.5
 20
2.058683
 30
0.0
 11
48.5
 21
-4.172421
 31
0.0
  0
LINE
  5
255
330
1F
100
AcDbEntity
  8
1
370
    13
100
AcDbLine
 10
48.5
 20
3.176131
 30
0.0
 11
48.5
 21
2.058683
 31
0.0
  0
LINE
  5
256
330
1F
100
AcDbEntity
  8
1
370
    13
100
AcDbLine
 10
44.610061
 20
-14.2884
 30
0.0
 11
44.610061
 21
-11.50891
 31
0.0
  0
LINE
  5
257
330
1F
100
AcDbEntity
  8
1
370
    13
100
AcDbLine
 10
48.410061
 20
-30.120113
 30
0.0
 11
48.410061
 21
-26.892761
 31
0.0
  0
LINE
  5
258
330
1F
100
AcDbEntity
  8
1
370
    13
100
AcDbLine
 10
48.5
 20
11.289499
 30
0.0
 11
48.5
 21
10.454042
 31
0.0
  0
LINE
  5
259
330
1F
100
AcDbEntity
  8
1
370
    13
100
AcDbLine
 10
1.0
 20
-5.8725
 30
0.0
 11
1.0
 21
-31.0
 31
0.0
  0
LINE
  5
25A
330
1F
100
AcDbEntity
  8
1
370
    13
100
AcDbLine
 10
4.9
 20
-5.8725
 30
0.0
 11
1.0
 21
-5.8725
 31
0.0
  0
LINE
  5
25B
330
1F
100
AcDbEntity
  8
1
370
    13
100
AcDbLine
 10
4.9
 20
5.8725
 30
0.0
 11
1.0
 21
5.8725
 31
0.0
  0
LINE
  5
25C
330
1F
100
AcDbEntity
  8
1
370
    13
100
AcDbLine
 10
1.0
 20
31.0
 30
0.0
 11
1.0
 21
5.8725
 31
0.0
  0
LINE
  5
25D
102
{ACAD_REACTORS
330
464
102
}
330
1F
100
AcDbEntity
  8
1
370
    13
100
AcDbLine
 10
5.7
 20
-4.55368
 30
0.0
 11
5.7
 21
4.55368
 31
0.0
  0
LINE
  5
25E
102
{ACAD_REACTORS
330
400
102
}
330
1F
100
AcDbEntity
  8
SK3
370
    18
100
AcDbLine
 10
6.2
 20
-12.8
 30
0.0
 11
1.0
 21
-12.8
 31
0.0
  0
LINE
  5
25F
330
1F
100
AcDbEntity
  8
SK3
370
    18
100
AcDbLine
 10
7.305858
 20
-12.70325
 30
0.0
 11
6.2
 21
-12.8
 31
0.0
  0
LINE
  5
260
330
1F
100
AcDbEntity
  8
SK3
370
    18
100
AcDbLine
 10
18.0
 20
-12.70325
 30
0.0
 11
7.305858
 21
-12.70325
 31
0.0
  0
LINE
  5
261
330
1F
100
AcDbEntity
  8
SK3
370
    18
100
AcDbLine
 10
20.427088
 20
-13.586638
 30
0.0
 11
18.0
 21
-12.70325
 31
0.0
  0
LINE
  5
262
330
1F
100
AcDbEntity
  8
SK3
370
    18
100
AcDbLine
 10
22.882843
 20
-11.457499
 30
0.0
 11
20.846738
 21
-13.493603
 31
0.0
  0
LINE
  5
263
330
1F
100
AcDbEntity
  8
SK3
370
    18
100
AcDbLine
 10
23.0
 20
-7.5
 30
0.0
 11
23.0
 21
-11.174656
 31
0.0
  0
LINE
  5
264
330
1F
100
AcDbEntity
  8
SK3
370
    18
100
AcDbLine
 10
23.0
 20
-7.5
 30
0.0
 11
23.5
 21
-7.0
 31
0.0
  0
LINE
  5
265
330
1F
100
AcDbEntity
  8
SK3
370
    18
100
AcDbLine
 10
31.5
 20
-7.0
 30
0.0
 11
23.5
 21
-7.0
 31
0.0
  0
LINE
  5
266
330
1F
100
AcDbEntity
  8
SK3
370
    18
100
AcDbLine
 10
31.5
 20
-7.0
 30
0.0
 11
32.0
 21
-7.5
 31
0.0
  0
LINE
  5
267
330
1F
100
AcDbEntity
  8
SK3
370
    18
100
AcDbLine
 10
32.0
 20
-10.1
 30
0.0
 11
32.0
 21
-7.5
 31
0.0
  0
LINE
  5
268
330
1F
100
AcDbEntity
  8
SK3
370
    18
100
AcDbLine
 10
44.7
 20
-10.5
 30
0.0
 11
32.4
 21
-10.5
 31
0.0
  0
LINE
  5
269
330
1F
100
AcDbEntity
  8
SK3
370
    18
100
AcDbLine
 10
44.7
 20
-10.5
 30
0.0
 11
32.4
 21
-10.5
 31
0.0
  0
LINE
  5
26A
102
{ACAD_REACTORS
330
400
102
}
330
1F
100
AcDbEntity
  8
SK3
370
    18
100
AcDbLine
 10
6.2
 20
12.8
 30
0.0
 11
1.0
 21
12.8
 31
0.0
  0
LINE
  5
26B
330
1F
100
AcDbEntity
  8
CUT
370
    18
100
AcDbLine
 10
50.0
 20
37.68056
 30
0.0
 11
50.0
 21
35.940397
 31
0.0
  0
LINE
  5
26C
102
{ACAD_REACTORS
330
484
102
}
330
1F
100
AcDbEntity
  8
2
370
    13
100
AcDbLine
 10
62.375125
 20
38.075
 30
0.0
 11
62.375125
 21
-10.85283
 31
0.0
  0
LINE
  5
26D
102
{ACAD_REACTORS
330
484
102
}
330
1F
100
AcDbEntity
  8
2
370
    13
100
AcDbLine
 10
52.5875
 20
38.075
 30
0.0
 11
65.550125
 21
38.075
 31
0.0
  0
LINE
  5
26E
330
1F
100
AcDbEntity
  8
2
 60
     1
370
    18
100
AcDbLine
 10
62.375125
 20
38.075
 30
0.0
 11
62.793122
 21
34.900002
 31
0.0
  0
LINE
  5
26F
330
1F
100
AcDbEntity
  8
2
 60
     1
370
    18
100
AcDbLine
 10
62.793122
 20
34.900002
 30
0.0
 11
61.957128
 21
34.899998
 31
0.0
  0
LINE
  5
270
330
1F
100
AcDbEntity
  8
2
 60
     1
370
    18
100
AcDbLine
 10
61.957128
 20
34.899998
 30
0.0
 11
62.375125
 21
38.075
 31
0.0
  0
LINE
  5
271
102
{ACAD_REACTORS
330
485
102
}
330
1F
100
AcDbEntity
  8
2
370
    13
100
AcDbLine
 10
48.842113
 20
39.232887
 30
0.0
 11
36.087745
 21
51.987255
 31
0.0
  0
LINE
  5
272
102
{ACAD_REACTORS
330
485
102
}
330
1F
100
AcDbEntity
  8
2
370
    13
100
AcDbLine
 10
50.0
 20
39.7125
 30
0.0
 11
50.0
 21
57.7499
 31
0.0
  0
LINE
  5
273
330
1F
100
AcDbEntity
  8
2
 60
     1
370
    18
100
AcDbLine
 10
38.332809
 20
49.742191
 30
0.0
 11
36.507354
 21
47.111022
 31
0.0
  0
LINE
  5
274
330
1F
100
AcDbEntity
  8
2
 60
     1
370
    18
100
AcDbLine
 10
36.507354
 20
47.111022
 30
0.0
 11
35.888556
 21
47.673137
 31
0.0
  0
LINE
  5
275
330
1F
100
AcDbEntity
  8
2
 60
     1
370
    18
100
AcDbLine
 10
35.888556
 20
47.673137
 30
0.0
 11
38.332809
 21
49.742191
 31
0.0
  0
LINE
  5
276
330
1F
100
AcDbEntity
  8
2
 60
     1
370
    18
100
AcDbLine
 10
50.0
 20
54.5749
 30
0.0
 11
53.191387
 21
54.840206
 31
0.0
  0
LINE
  5
277
330
1F
100
AcDbEntity
  8
2
 60
     1
370
    18
100
AcDbLine
 10
53.191387
 20
54.840206
 30
0.0
 11
53.151312
 21
54.005173
 31
0.0
  0
LINE
  5
278
330
1F
100
AcDbEntity
  8
2
 60
     1
370
    18
100
AcDbLine
 10
53.151312
 20
54.005173
 30
0.0
 11
50.0
 21
54.5749
 31
0.0
  0
ARC
  5
279
330
1F
100
AcDbEntity
  8
SK3
370
    18
100
AcDbCircle
 10
20.563896
 20
-13.210761
 30
0.0
 40
0.4
100
AcDbArc
 50
250.0
 51
315.0
  0
ARC
  5
27A
330
1F
100
AcDbEntity
  8
SK3
370
    18
100
AcDbCircle
 10
22.6
 20
-11.174656
 30
0.0
 40
0.4
100
AcDbArc
 50
315.0
 51
0.0
  0
ARC
  5
27B
330
1F
100
AcDbEntity
  8
SK3
370
    18
100
AcDbCircle
 10
32.4
 20
-10.1
 30
0.0
 40
0.4
100
AcDbArc
 50
180.0
 51
270.0
  0
ARC
  5
27C
330
1F
100
AcDbEntity
  8
SK3
370
    18
100
AcDbCircle
 10
20.563896
 20
13.210761
 30
0.0
 40
0.4
100
AcDbArc
 50
45.0
 51
110.0
  0
ARC
  5
27D
330
1F
100
AcDbEntity
  8
SK3
370
    18
100
AcDbCircle
 10
22.6
 20
11.174656
 30
0.0
 40
0.4
100
AcDbArc
 50
0.0
 51
45.0
  0
ARC
  5
27E
330
1F
100
AcDbEntity
  8
SK3
370
    18
100
AcDbCircle
 10
32.4
 20
10.1
 30
0.0
 40
0.4
100
AcDbArc
 50
90.0
 51
180.0
  0
ARC
  5
27F
330
1F
100
AcDbEntity
  8
1
370
    18
100
AcDbCircle
 10
45.764257
 20
1.61068
 30
0.0
 40
0.9625320322302385
100
AcDbArc
 50
35.868154
 51
81.834315
  0
ARC
  5
280
330
1F
100
AcDbEntity
  8
1
370
    18
100
AcDbCircle
 10
44.638035
 20
-35.401967
 30
0.0
 40
1.844907134194864
100
AcDbArc
 50
271.598292
 51
319.737105
  0
ARC
  5
281
330
1F
100
AcDbEntity
  8
1
370
    18
100
AcDbCircle
 10
42.801433
 20
29.36443
 30
0.0
 40
1.944817146534069
100
AcDbArc
 50
281.221565
 51
332.322267
  0
ARC
  5
282
330
1F
100
AcDbEntity
  8
1
370
    18
100
AcDbCircle
 10
42.582934
 20
30.316548
 30
0.0
 40
2.921397850978359
100
AcDbArc
 50
242.98711
 51
281.791042
  0
ARC
  5
283
330
1F
100
AcDbEntity
  8
1
370
    18
100
AcDbCircle
 10
42.520137
 20
30.35224
 30
0.0
 40
2.925564157160145
100
AcDbArc
 50
205.634192
 51
244.400415
  0
ARC
  5
284
330
1F
100
AcDbEntity
  8
1
370
    18
100
AcDbCircle
 10
41.629777
 20
29.947145
 30
0.0
 40
1.947686570173617
100
AcDbArc
 50
155.003385
 51
206.221583
  0
ARC
  5
285
330
1F
100
AcDbEntity
  8
1
370
    18
100
AcDbCircle
 10
41.58852
 20
29.868975
 30
0.0
 40
1.945330162244261
100
AcDbArc
 50
101.1415
 51
152.402331
  0
ARC
  5
286
330
1F
100
AcDbEntity
  8
1
370
    18
100
AcDbCircle
 10
41.806323
 20
28.915786
 30
0.0
 40
2.922790015774997
100
AcDbArc
 50
62.92869
 51
101.720012
  0
ARC
  5
287
330
1F
100
AcDbEntity
  8
1
370
    18
100
AcDbCircle
 10
41.870317
 20
28.882518
 30
0.0
 40
2.924178788395794
100
AcDbArc
 50
25.563244
 51
64.341997
  0
ARC
  5
288
330
1F
100
AcDbEntity
  8
1
370
    18
100
AcDbCircle
 10
42.760921
 20
29.286568
 30
0.0
 40
1.946506664873642
100
AcDbArc
 50
334.906669
 51
26.146204
  0
ARC
  5
289
330
1F
100
AcDbEntity
  8
1
370
    18
100
AcDbCircle
 10
42.605242
 20
29.248359
 30
0.0
 40
1.26848335479946
100
AcDbArc
 50
291.465266
 51
333.346478
  0
ARC
  5
28A
330
1F
100
AcDbEntity
  8
1
370
    18
100
AcDbCircle
 10
42.378195
 20
29.883957
 30
0.0
 40
1.943197798262824
100
AcDbArc
 50
242.932222
 51
290.83752
  0
ARC
  5
28B
330
1F
100
AcDbEntity
  8
1
370
    18
100
AcDbCircle
 10
42.312116
 20
29.938726
 30
0.0
 40
1.96368546644489
100
AcDbArc
 50
197.81715
 51
245.376996
  0
ARC
  5
28C
330
1F
100
AcDbEntity
  8
1
370
    18
100
AcDbCircle
 10
41.637611
 20
29.718414
 30
0.0
 40
1.254125178936467
100
AcDbArc
 50
132.74047
 51
197.663633
  0
ARC
  5
28D
330
1F
100
AcDbEntity
  8
1
370
    18
100
AcDbCircle
 10
41.852598
 20
29.361894
 30
0.0
 40
1.663997458456496
100
AcDbArc
 50
76.515305
 51
129.844544
  0
ARC
  5
28E
330
1F
100
AcDbEntity
  8
1
370
    18
100
AcDbCircle
 10
41.82567
 20
28.879683
 30
0.0
 40
2.140932800832517
100
AcDbArc
 50
34.014703
 51
78.824413
  0
ARC
  5
28F
330
1F
100
AcDbEntity
  8
1
370
    18
100
AcDbCircle
 10
42.457734
 20
29.258136
 30
0.0
 40
1.405876509489371
100
AcDbArc
 50
335.687829
 51
35.640321
  0
ARC
  5
290
330
1F
100
AcDbEntity
  8
1
370
    18
100
AcDbCircle
 10
42.691442
 20
31.142574
 30
0.0
 40
0.7008233154884347
100
AcDbArc
 50
219.008491
 51
279.728574
  0
ARC
  5
291
330
1F
100
AcDbEntity
  8
1
370
    18
100
AcDbCircle
 10
41.779604
 20
30.335745
 30
0.0
 40
0.5791912909148994
100
AcDbArc
 50
60.160109
 51
130.325241
  0
ARC
  5
292
330
1F
100
AcDbEntity
  8
1
370
    18
100
AcDbCircle
 10
40.968422
 20
30.725509
 30
0.0
 40
0.4491674455604489
100
AcDbArc
 50
264.163646
 51
348.200856
  0
ARC
  5
293
330
1F
100
AcDbEntity
  8
1
370
    18
100
AcDbCircle
 10
40.969075
 20
29.931993
 30
0.0
 40
0.42805129603494
100
AcDbArc
 50
119.408334
 51
205.03451
  0
ARC
  5
294
330
1F
100
AcDbEntity
  8
1
370
    18
100
AcDbCircle
 10
40.401632
 20
29.23797
 30
0.0
 40
0.532605412622114
100
AcDbArc
 50
340.103827
 51
52.644399
  0
ARC
  5
295
330
1F
100
AcDbEntity
  8
1
370
    18
100
AcDbCircle
 10
41.473802
 20
29.106534
 30
0.0
 40
0.6754428992472203
100
AcDbArc
 50
193.728651
 51
255.353014
  0
ARC
  5
296
330
1F
100
AcDbEntity
  8
1
370
    18
100
AcDbCircle
 10
41.561687
 20
27.816418
 30
0.0
 40
0.7008233154885284
100
AcDbArc
 50
39.008491
 51
99.728574
  0
ARC
  5
297
330
1F
100
AcDbEntity
  8
1
370
    18
100
AcDbCircle
 10
42.473524
 20
28.623246
 30
0.0
 40
0.5791912909148711
100
AcDbArc
 50
240.160109
 51
310.325241
  0
ARC
  5
298
330
1F
100
AcDbEntity
  8
1
370
    18
100
AcDbCircle
 10
43.284706
 20
28.233482
 30
0.0
 40
0.4491674455606497
100
AcDbArc
 50
84.163646
 51
168.200856
  0
ARC
  5
299
330
1F
100
AcDbEntity
  8
1
370
    18
100
AcDbCircle
 10
43.284054
 20
29.026999
 30
0.0
 40
0.4280512960346317
100
AcDbArc
 50
299.408334
 51
25.03451
  0
ARC
  5
29A
330
1F
100
AcDbEntity
  8
1
370
    18
100
AcDbCircle
 10
43.851496
 20
29.721022
 30
0.0
 40
0.5326054126220071
100
AcDbArc
 50
160.103827
 51
232.644399
  0
ARC
  5
29B
330
1F
100
AcDbEntity
  8
1
370
    18
100
AcDbCircle
 10
42.779327
 20
29.852458
 30
0.0
 40
0.6754428992468626
100
AcDbArc
 50
13.728651
 51
75.353014
  0
ARC
  5
29C
330
1F
100
AcDbEntity
  8
1
370
    18
100
AcDbCircle
 10
45.297259
 20
-34.910394
 30
0.0
 40
1.154814791783149
100
AcDbArc
 50
82.836731
 51
122.666816
  0
ARC
  5
29D
330
1F
100
AcDbEntity
  8
1
370
    18
100
AcDbCircle
 10
45.273412
 20
-35.021284
 30
0.0
 40
1.267851802099102
100
AcDbArc
 50
18.944438
 51
82.392358
  0
ARC
  5
29E
330
1F
100
AcDbEntity
  8
1
370
    18
100
AcDbCircle
 10
45.306974
 20
-35.033182
 30
0.0
 40
1.240168345547505
100
AcDbArc
 50
315.525298
 51
19.967783
  0
ARC
  5
29F
330
1F
100
AcDbEntity
  8
1
370
    18
100
AcDbCircle
 10
45.388648
 20
-34.990233
 30
0.0
 40
1.246352704444402
100
AcDbArc
 50
208.308068
 51
272.525032
  0
ARC
  5
2A0
330
1F
100
AcDbEntity
  8
1
370
    18
100
AcDbCircle
 10
45.155973
 20
-34.987137
 30
0.0
 40
1.666596827662385
100
AcDbArc
 50
62.385746
 51
97.397639
  0
ARC
  5
2A1
330
1F
100
AcDbEntity
  8
1
370
    18
100
AcDbCircle
 10
45.09079
 20
-35.114294
 30
0.0
 40
1.809482132500241
100
AcDbArc
 50
9.54034
 51
62.42316
  0
ARC
  5
2A2
330
1F
100
AcDbEntity
  8
1
370
    18
100
AcDbCircle
 10
45.182517
 20
-35.116196
 30
0.0
 40
1.719424356680533
100
AcDbArc
 50
315.322226
 51
10.109467
  0
ARC
  5
2A3
330
1F
100
AcDbEntity
  8
1
370
    18
100
AcDbCircle
 10
45.258427
 20
-35.130422
 30
0.0
 40
1.66348959507739
100
AcDbArc
 50
237.036839
 51
293.095725
  0
ARC
  5
2A4
330
1F
100
AcDbEntity
  8
1
370
    18
100
AcDbCircle
 10
42.919284
 20
28.96632
 30
0.0
 40
2.14929163325759
100
AcDbArc
 50
297.965442
 51
333.385161
  0
ARC
  5
2A5
330
1F
100
AcDbEntity
  8
1
370
    18
100
AcDbCircle
 10
42.539101
 20
29.751536
 30
0.0
 40
3.021274648358686
100
AcDbArc
 50
258.220058
 51
297.350452
  0
ARC
  5
2A6
330
1F
100
AcDbEntity
  8
1
370
    18
100
AcDbCircle
 10
42.61893
 20
30.469671
 30
0.0
 40
3.741209212920997
100
AcDbArc
 50
225.431381
 51
259.268593
  0
ARC
  5
2A7
330
1F
100
AcDbEntity
  8
1
370
    18
100
AcDbCircle
 10
42.013183
 20
29.929525
 30
0.0
 40
2.931781980414636
100
AcDbArc
 50
186.517052
 51
226.457173
  0
ARC
  5
2A8
330
1F
100
AcDbEntity
  8
1
370
    18
100
AcDbCircle
 10
41.194279
 20
29.810011
 30
0.0
 40
2.104762933888373
100
AcDbArc
 50
135.727186
 51
185.814813
  0
ARC
  5
2A9
330
1F
100
AcDbEntity
  8
1
370
    18
100
AcDbCircle
 10
41.500914
 20
29.412189
 30
0.0
 40
2.602994164789751
100
AcDbArc
 50
90.85373
 51
134.168669
  0
ARC
  5
2AA
330
1F
100
AcDbEntity
  8
1
370
    18
100
AcDbCircle
 10
41.570507
 20
28.369892
 30
0.0
 40
3.646612683446905
100
AcDbArc
 50
57.272181
 51
91.703077
  0
ARC
  5
2AB
330
1F
100
AcDbEntity
  8
1
370
    18
100
AcDbCircle
 10
41.787103
 20
28.589391
 30
0.0
 40
3.345460513719004
100
AcDbArc
 50
21.852266
 51
58.360443
  0
ARC
  5
2AC
330
1F
100
AcDbEntity
  8
1
370
    18
100
AcDbCircle
 10
42.785888
 20
28.977382
 30
0.0
 40
2.274055215276007
100
AcDbArc
 50
334.641781
 51
22.145817
  0
ARC
  5
2AD
330
1F
100
AcDbEntity
  8
1
370
    18
100
AcDbCircle
 10
42.911162
 20
29.808937
 30
0.0
 40
2.476798887645593
100
AcDbArc
 50
272.438234
 51
317.017473
  0
ARC
  5
2AE
330
1F
100
AcDbEntity
  8
1
370
    18
100
AcDbCircle
 10
42.815381
 20
30.849235
 30
0.0
 40
3.520605812868424
100
AcDbArc
 50
238.195339
 51
273.275372
  0
ARC
  5
2AF
330
1F
100
AcDbEntity
  8
1
370
    18
100
AcDbCircle
 10
42.628784
 20
30.671589
 30
0.0
 40
3.271936842717808
100
AcDbArc
 50
202.461135
 51
239.332878
  0
ARC
  5
2B0
330
1F
100
AcDbEntity
  8
1
370
    18
100
AcDbCircle
 10
41.647352
 20
30.279867
 30
0.0
 40
2.215335763965272
100
AcDbArc
 50
154.682329
 51
202.796236
  0
ARC
  5
2B1
330
1F
100
AcDbEntity
  8
1
370
    18
100
AcDbCircle
 10
44.931168
 20
-35.122269
 30
0.0
 40
2.267589349462257
100
AcDbArc
 50
31.610607
 51
79.067351
  0
ARC
  5
2B2
330
1F
100
AcDbEntity
  8
1
370
    18
100
AcDbCircle
 10
44.900797
 20
-35.162391
 30
0.0
 40
2.314556062922454
100
AcDbArc
 50
345.269098
 51
32.062385
  0
ARC
  5
2B3
330
1F
100
AcDbEntity
  8
1
370
    18
100
AcDbCircle
 10
45.08883
 20
-35.215155
 30
0.0
 40
2.119288560677442
100
AcDbArc
 50
295.640835
 51
345.356058
  0
ARC
  5
2B4
330
1F
100
AcDbEntity
  8
1
370
    18
100
AcDbCircle
 10
45.111783
 20
-35.236459
 30
0.0
 40
2.090182054064921
100
AcDbArc
 50
259.453617
 51
295.326319
  0
ARC
  5
2B5
330
1F
100
AcDbEntity
  8
1
370
    18
100
AcDbCircle
 10
44.49405
 20
-35.451138
 30
0.0
 40
2.091849629716199
100
AcDbArc
 50
298.317635
 51
334.727515
  0
ARC
  5
2B6
330
1F
100
AcDbEntity
  8
1
370
    18
100
AcDbCircle
 10
42.900343
 20
29.438877
 30
0.0
 40
0.560507640258806
100
AcDbArc
 50
238.019994
 51
294.032092
  0
ARC
  5
2B7
330
1F
100
AcDbEntity
  8
1
370
    18
100
AcDbCircle
 10
42.057702
 20
28.856847
 30
0.0
 40
0.5520522402081243
100
AcDbArc
 50
29.454339
 51
109.282726
  0
ARC
  5
2B8
330
1F
100
AcDbEntity
  8
1
370
    18
100
AcDbCircle
 10
41.822409
 20
29.882339
 30
0.0
 40
0.5953775235644352
100
AcDbArc
 50
192.779125
 51
260.208878
  0
ARC
  5
2B9
330
1F
100
AcDbEntity
  8
1
370
    18
100
AcDbCircle
 10
40.939709
 20
30.139462
 30
0.0
 40
0.4481758710647351
100
AcDbArc
 50
331.771835
 51
39.237649
  0
ARC
  5
2BA
330
1F
100
AcDbEntity
  8
1
370
    18
100
AcDbCircle
 10
39.517433
 20
16.133439
 30
0.0
 40
6.723940021723596
100
AcDbArc
 50
166.17881
 51
185.876438
  0
ARC
  5
2BB
330
1F
100
AcDbEntity
  8
1
370
    18
100
AcDbCircle
 10
36.556575
 20
15.828798
 30
0.0
 40
3.747450530721945
100
AcDbArc
 50
185.878002
 51
209.977218
  0
ARC
  5
2BC
330
1F
100
AcDbEntity
  8
1
370
    18
100
AcDbCircle
 10
35.256916
 20
15.080495
 30
0.0
 40
2.247761005510348
100
AcDbArc
 50
210.007396
 51
246.263698
  0
ARC
  5
2BD
330
1F
100
AcDbEntity
  8
1
370
    18
100
AcDbCircle
 10
35.193558
 20
15.056957
 30
0.0
 40
2.201246291742208
100
AcDbArc
 50
247.526806
 51
279.921086
  0
ARC
  5
2BE
330
1F
100
AcDbEntity
  8
1
370
    18
100
AcDbCircle
 10
34.996524
 20
16.12924
 30
0.0
 40
3.291454439127023
100
AcDbArc
 50
280.08371
 51
305.212677
  0
ARC
  5
2BF
330
1F
100
AcDbEntity
  8
1
370
    18
100
AcDbCircle
 10
33.840873
 20
17.830743
 30
0.0
 40
5.348102859915778
100
AcDbArc
 50
304.81712
 51
322.164992
  0
ARC
  5
2C0
330
1F
100
AcDbEntity
  8
1
370
    18
100
AcDbCircle
 10
33.767441
 20
17.816088
 30
0.0
 40
5.254166728894556
100
AcDbArc
 50
305.524401
 51
322.294728
  0
ARC
  5
2C1
330
1F
100
AcDbEntity
  8
1
370
    18
100
AcDbCircle
 10
34.958211
 20
16.103514
 30
0.0
 40
3.168567111983771
100
AcDbArc
 50
281.110631
 51
305.993846
  0
ARC
  5
2C2
330
1F
100
AcDbEntity
  8
1
370
    18
100
AcDbCircle
 10
35.179002
 20
15.005213
 30
0.0
 40
2.048310603757108
100
AcDbArc
 50
247.659279
 51
280.970603
  0
ARC
  5
2C3
330
1F
100
AcDbEntity
  8
1
370
    18
100
AcDbCircle
 10
35.238419
 20
15.010496
 30
0.0
 40
2.07645732153146
100
AcDbArc
 50
208.772083
 51
246.198097
  0
ARC
  5
2C4
330
1F
100
AcDbEntity
  8
1
370
    18
100
AcDbCircle
 10
36.564918
 20
15.745746
 30
0.0
 40
3.593088148466249
100
AcDbArc
 50
185.035565
 51
208.86772
  0
ARC
  5
2C5
330
1F
100
AcDbEntity
  8
1
370
    18
100
AcDbCircle
 10
39.547411
 20
16.010046
 30
0.0
 40
6.587268797419623
100
AcDbArc
 50
166.02596
 51
185.048564
  0
ARC
  5
2C6
330
1F
100
AcDbEntity
  8
1
370
    18
100
AcDbCircle
 10
34.498889
 20
15.731236
 30
0.0
 40
2.32630109494526
100
AcDbArc
 50
94.304341
 51
124.761721
  0
ARC
  5
2C7
330
1F
100
AcDbEntity
  8
1
370
    18
100
AcDbCircle
 10
34.56448
 20
15.089274
 30
0.0
 40
2.971425029774324
100
AcDbArc
 50
75.650745
 51
94.636464
  0
ARC
  5
2C8
330
1F
100
AcDbEntity
  8
1
370
    18
100
AcDbCircle
 10
34.409107
 20
14.504018
 30
0.0
 40
3.576934412258713
100
AcDbArc
 50
50.405263
 51
75.562948
  0
ARC
  5
2C9
330
1F
100
AcDbEntity
  8
1
370
    18
100
AcDbCircle
 10
34.423209
 20
14.484383
 30
0.0
 40
3.583152190975746
100
AcDbArc
 50
28.397359
 51
50.779137
  0
ARC
  5
2CA
330
1F
100
AcDbEntity
  8
1
370
    18
100
AcDbCircle
 10
34.86815
 20
14.726472
 30
0.0
 40
3.076618075477493
100
AcDbArc
 50
11.365619
 51
28.37218
  0
ARC
  5
2CB
330
1F
100
AcDbEntity
  8
1
370
    18
100
AcDbCircle
 10
35.347242
 20
14.827336
 30
0.0
 40
2.587047343469713
100
AcDbArc
 50
355.021079
 51
11.266573
  0
ARC
  5
2CC
330
1F
100
AcDbEntity
  8
1
370
    18
100
AcDbCircle
 10
37.589378
 20
38.111827
 30
0.0
 40
19.52183161113716
100
AcDbArc
 50
221.064805
 51
229.820875
  0
ARC
  5
2CD
330
1F
100
AcDbEntity
  8
1
370
    18
100
AcDbCircle
 10
42.373912
 20
43.661056
 30
0.0
 40
26.84860422129739
100
AcDbArc
 50
229.660215
 51
237.166697
  0
ARC
  5
2CE
330
1F
100
AcDbEntity
  8
1
370
    18
100
AcDbCircle
 10
37.123727
 20
29.176441
 30
0.0
 40
36.52919892735694
100
AcDbArc
 50
248.718005
 51
252.854393
  0
ARC
  5
2CF
330
1F
100
AcDbEntity
  8
1
370
    18
100
AcDbCircle
 10
30.517419
 20
12.447949
 30
0.0
 40
18.54387656554398
100
AcDbArc
 50
242.944324
 51
248.977684
  0
ARC
  5
2D0
330
1F
100
AcDbEntity
  8
1
370
    18
100
AcDbCircle
 10
39.72167
 20
-5.976277
 30
0.0
 40
3.360275129299684
100
AcDbArc
 50
260.881897
 51
265.388997
  0
ARC
  5
2D1
330
1F
100
AcDbEntity
  8
1
370
    18
100
AcDbCircle
 10
40.1469
 20
-3.369802
 30
0.0
 40
6.001204301790225
100
AcDbArc
 50
257.115847
 51
260.816891
  0
ARC
  5
2D2
330
1F
100
AcDbEntity
  8
1
370
    18
100
AcDbCircle
 10
41.108429
 20
18.543452
 30
0.0
 40
5.011731318180868
100
AcDbArc
 50
242.686466
 51
246.370748
  0
ARC
  5
2D3
330
1F
100
AcDbEntity
  8
1
370
    18
100
AcDbCircle
 10
40.496086
 20
17.105085
 30
0.0
 40
3.448556969076232
100
AcDbArc
 50
246.112902
 51
252.368441
  0
ARC
  5
2D4
330
1F
100
AcDbEntity
  8
1
370
    18
100
AcDbCircle
 10
215.592782
 20
304.475665
 30
0.0
 40
339.9423391858145
100
AcDbArc
 50
236.469809
 51
236.925161
  0
ARC
  5
2D5
330
1F
100
AcDbEntity
  8
1
370
    18
100
AcDbCircle
 10
235.047621
 20
334.348672
 30
0.0
 40
375.5918448266582
100
AcDbArc
 50
236.925217
 51
237.454029
  0
ARC
  5
2D6
330
1F
100
AcDbEntity
  8
1
370
    18
100
AcDbCircle
 10
31.19426
 20
13.314662
 30
0.0
 40
19.71550845974932
100
AcDbArc
 50
242.776037
 51
249.469827
  0
ARC
  5
2D7
330
1F
100
AcDbEntity
  8
1
370
    18
100
AcDbCircle
 10
38.41091
 20
32.069699
 30
0.0
 40
39.81066388233589
100
AcDbArc
 50
249.209473
 51
254.498428
  0
ARC
  5
2D8
330
1F
100
AcDbEntity
  8
1
370
    18
100
AcDbCircle
 10
42.948409
 20
-4.659687
 30
0.0
 40
2.2026453666023
100
AcDbArc
 50
145.367742
 51
179.504516
  0
ARC
  5
2D9
330
1F
100
AcDbEntity
  8
1
370
    18
100
AcDbCircle
 10
42.767337
 20
-4.710025
 30
0.0
 40
2.022681430210464
100
AcDbArc
 50
178.034154
 51
210.995829
  0
ARC
  5
2DA
330
1F
100
AcDbEntity
  8
1
370
    18
100
AcDbCircle
 10
35.369417
 20
14.693561
 30
0.0
 40
2.77597265936967
100
AcDbArc
 50
358.81795
 51
33.108519
  0
ARC
  5
2DB
330
1F
100
AcDbEntity
  8
1
370
    18
100
AcDbCircle
 10
34.150674
 20
13.978487
 30
0.0
 40
4.187961156644743
100
AcDbArc
 50
32.195455
 51
58.165482
  0
ARC
  5
2DC
330
1F
100
AcDbEntity
  8
1
370
    18
100
AcDbCircle
 10
34.216991
 20
14.195233
 30
0.0
 40
3.969262850562358
100
AcDbArc
 50
57.328439
 51
84.255971
  0
ARC
  5
2DD
330
1F
100
AcDbEntity
  8
1
370
    18
100
AcDbCircle
 10
34.331187
 20
15.701691
 30
0.0
 40
2.459220318516506
100
AcDbArc
 50
83.390395
 51
120.616469
  0
ARC
  5
2DE
330
1F
100
AcDbEntity
  8
1
370
    18
100
AcDbCircle
 10
39.94421
 20
8.303338
 30
0.0
 40
5.200211675000481
100
AcDbArc
 50
62.843171
 51
71.752182
  0
ARC
  5
2DF
330
1F
100
AcDbEntity
  8
1
370
    18
100
AcDbCircle
 10
42.292334
 20
42.981953
 30
0.0
 40
26.14028995123282
100
AcDbArc
 50
230.503679
 51
236.58108
  0
ARC
  5
2E0
330
1F
100
AcDbEntity
  8
1
370
    18
100
AcDbCircle
 10
39.26701
 20
39.365664
 30
0.0
 40
21.42555982805025
100
AcDbArc
 50
223.608977
 51
230.59587
  0
ARC
  5
2E1
330
1F
100
AcDbEntity
  8
1
370
    18
100
AcDbCircle
 10
33.884726
 20
34.288016
 30
0.0
 40
14.02626686802115
100
AcDbArc
 50
214.313341
 51
223.755209
  0
ARC
  5
2E2
330
1F
100
AcDbEntity
  8
1
370
    18
100
AcDbCircle
 10
51.662447
 20
46.262696
 30
0.0
 40
35.46066769485262
100
AcDbArc
 50
209.173367
 51
214.101778
  0
ARC
  5
2E3
330
1F
100
AcDbEntity
  8
1
370
    18
100
AcDbCircle
 10
36.87162
 20
38.139377
 30
0.0
 40
18.58670080194082
100
AcDbArc
 50
199.36047
 51
209.53397
  0
ARC
  5
2E4
330
1F
100
AcDbEntity
  8
1
370
    18
100
AcDbCircle
 10
50.074207
 20
17.998693
 30
0.0
 40
5.631270140858441
100
AcDbArc
 50
198.055188
 51
216.022758
  0
ARC
  5
2E5
330
1F
100
AcDbEntity
  8
1
370
    18
100
AcDbCircle
 10
56.251382
 20
22.328018
 30
0.0
 40
13.17402638388593
100
AcDbArc
 50
215.451482
 51
225.408579
  0
ARC
  5
2E6
330
1F
100
AcDbEntity
  8
1
370
    18
100
AcDbCircle
 10
43.040558
 20
2.909981
 30
0.0
 40
9.343387829963126
100
AcDbArc
 50
61.720499
 51
74.293839
  0
ARC
  5
2E7
330
1F
100
AcDbEntity
  8
1
370
    18
100
AcDbCircle
 10
44.978936
 20
10.018775
 30
0.0
 40
1.976153037059858
100
AcDbArc
 50
72.601102
 51
96.853868
  0
ARC
  5
2E8
330
1F
100
AcDbEntity
  8
1
370
    18
100
AcDbCircle
 10
44.752432
 20
11.725735
 30
0.0
 40
0.2552411325797109
100
AcDbArc
 50
92.093663
 51
199.31166
  0
ARC
  5
2E9
330
1F
100
AcDbEntity
  8
1
370
    18
100
AcDbCircle
 10
38.394852
 20
20.995688
 30
0.0
 40
0.104297892889319
100
AcDbArc
 50
102.590217
 51
191.883774
  0
ARC
  5
2EA
330
1F
100
AcDbEntity
  8
1
370
    18
100
AcDbCircle
 10
39.322542
 20
21.406314
 30
0.0
 40
1.116737781218449
100
AcDbArc
 50
202.76388
 51
237.487637
  0
ARC
  5
2EB
330
1F
100
AcDbEntity
  8
1
370
    18
100
AcDbCircle
 10
42.090345
 20
24.775208
 30
0.0
 40
5.470373575148716
100
AcDbArc
 50
231.998261
 51
243.513803
  0
ARC
  5
2EC
330
1F
100
AcDbEntity
  8
1
370
    18
100
AcDbCircle
 10
41.237202
 20
22.759932
 30
0.0
 40
3.28890979400994
100
AcDbArc
 50
241.158202
 51
258.630572
  0
ARC
  5
2ED
330
1F
100
AcDbEntity
  8
1
370
    18
100
AcDbCircle
 10
40.712265
 20
19.791971
 30
0.0
 40
0.2845667205087166
100
AcDbArc
 50
244.29676
 51
313.636492
  0
ARC
  5
2EE
330
1F
100
AcDbEntity
  8
1
370
    18
100
AcDbCircle
 10
40.668976
 20
19.667314
 30
0.0
 40
0.2530743210444805
100
AcDbArc
 50
341.263267
 51
59.870222
  0
ARC
  5
2EF
330
1F
100
AcDbEntity
  8
1
370
    18
100
AcDbCircle
 10
38.337678
 20
17.578766
 30
0.0
 40
3.371590274212105
100
AcDbArc
 50
43.186399
 51
59.249185
  0
ARC
  5
2F0
330
1F
100
AcDbEntity
  8
1
370
    18
100
AcDbCircle
 10
37.154259
 20
15.914051
 30
0.0
 40
5.409877344047351
100
AcDbArc
 50
57.492379
 51
70.934375
  0
ARC
  5
2F1
330
1F
100
AcDbEntity
  8
1
370
    18
100
AcDbCircle
 10
38.513788
 20
20.023496
 30
0.0
 40
1.083285316217743
100
AcDbArc
 50
67.89695
 51
97.514575
  0
ARC
  5
2F2
330
1F
100
AcDbEntity
  8
1
370
    18
100
AcDbCircle
 10
42.706543
 20
-4.62534
 30
0.0
 40
1.950972534502318
100
AcDbArc
 50
175.119733
 51
205.503871
  0
ARC
  5
2F3
330
1F
100
AcDbEntity
  8
1
370
    18
100
AcDbCircle
 10
42.214708
 20
-4.342537
 30
0.0
 40
1.403622517677823
100
AcDbArc
 50
120.364832
 51
161.111124
  0
ARC
  5
2F4
330
1F
100
AcDbEntity
  8
1
370
    18
100
AcDbCircle
 10
41.166832
 20
-6.249073
 30
0.0
 40
3.327608894333997
100
AcDbArc
 50
57.731207
 51
61.217626
  0
ARC
  5
2F5
330
1F
100
AcDbEntity
  8
1
370
    18
100
AcDbCircle
 10
41.259334
 20
-6.103525
 30
0.0
 40
3.155154906431252
100
AcDbArc
 50
53.060833
 51
57.740444
  0
ARC
  5
2F6
330
1F
100
AcDbEntity
  8
1
370
    18
100
AcDbCircle
 10
41.879343
 20
-3.907379
 30
0.0
 40
0.861428967523845
100
AcDbArc
 50
79.329902
 51
115.744743
  0
ARC
  5
2F7
330
1F
100
AcDbEntity
  8
1
370
    18
100
AcDbCircle
 10
41.622851
 20
-5.295608
 30
0.0
 40
2.273150391908228
100
AcDbArc
 50
59.720286
 51
79.455381
  0
ARC
  5
2F8
330
1F
100
AcDbEntity
  8
1
370
    18
100
AcDbCircle
 10
48.921421
 20
6.718441
 30
0.0
 40
4.486650648815449
100
AcDbArc
 50
189.056059
 51
209.019478
  0
ARC
  5
2F9
330
1F
100
AcDbEntity
  8
1
370
    18
100
AcDbCircle
 10
55.676187
 20
8.051936
 30
0.0
 40
11.36994018125361
100
AcDbArc
 50
182.49639
 51
190.334452
  0
ARC
  5
2FA
330
1F
100
AcDbEntity
  8
1
370
    18
100
AcDbCircle
 10
61.042841
 20
8.292463
 30
0.0
 40
16.74197894204375
100
AcDbArc
 50
169.137467
 51
182.518794
  0
ARC
  5
2FB
330
1F
100
AcDbEntity
  8
1
370
    18
100
AcDbCircle
 10
44.834505
 20
11.525311
 30
0.0
 40
0.2462743944871407
100
AcDbArc
 50
91.345373
 51
198.409565
  0
ARC
  5
2FC
330
1F
100
AcDbEntity
  8
1
370
    18
100
AcDbCircle
 10
45.00519
 20
9.238762
 30
0.0
 40
2.538895259588837
100
AcDbArc
 50
65.484034
 51
93.985594
  0
ARC
  5
2FD
330
1F
100
AcDbEntity
  8
1
370
    18
100
AcDbCircle
 10
42.138165
 20
1.134795
 30
0.0
 40
11.12750346238743
100
AcDbArc
 50
56.627866
 51
69.370224
  0
ARC
  5
2FE
330
1F
100
AcDbEntity
  8
1
370
    18
100
AcDbCircle
 10
-7248.90673
 20
112.073992
 30
0.0
 40
7297.873737826291
100
AcDbArc
 50
359.176918
 51
359.201945
  0
ARC
  5
2FF
330
1F
100
AcDbEntity
  8
1
370
    18
100
AcDbCircle
 10
4630.215763
 20
-58.515614
 30
0.0
 40
4582.473565242122
100
AcDbArc
 50
179.177813
 51
179.2283
  0
ARC
  5
300
330
1F
100
AcDbEntity
  8
1
370
    18
100
AcDbCircle
 10
42.161516
 20
2.844559
 30
0.0
 40
3.306902645763677
100
AcDbArc
 50
24.958089
 51
27.572068
  0
ARC
  5
301
330
1F
100
AcDbEntity
  8
1
370
    18
100
AcDbCircle
 10
42.749466
 20
3.153066
 30
0.0
 40
2.642930104286821
100
AcDbArc
 50
27.543252
 51
31.702168
  0
ARC
  5
302
330
1F
100
AcDbEntity
  8
1
370
    18
100
AcDbCircle
 10
60.447357
 20
8.559654
 30
0.0
 40
16.29401341612261
100
AcDbArc
 50
169.428856
 51
180.373929
  0
ARC
  5
303
330
1F
100
AcDbEntity
  8
1
370
    18
100
AcDbCircle
 10
57.236177
 20
8.481004
 30
0.0
 40
13.0825155108394
100
AcDbArc
 50
180.121266
 51
188.919348
  0
ARC
  5
304
330
1F
100
AcDbEntity
  8
1
370
    18
100
AcDbCircle
 10
49.43761
 20
7.097877
 30
0.0
 40
5.166201452576296
100
AcDbArc
 50
187.174757
 51
209.63898
  0
ARC
  5
305
330
1F
100
AcDbEntity
  8
1
370
    18
100
AcDbCircle
 10
42.004552
 20
-3.784169
 30
0.0
 40
0.8871512514551146
100
AcDbArc
 50
71.261683
 51
116.968052
  0
ARC
  5
306
330
1F
100
AcDbEntity
  8
1
370
    18
100
AcDbCircle
 10
41.422542
 20
-5.826339
 30
0.0
 40
2.990423353635582
100
AcDbArc
 50
50.236555
 51
55.166287
  0
ARC
  5
307
330
1F
100
AcDbEntity
  8
1
370
    18
100
AcDbCircle
 10
41.238895
 20
-6.091455
 30
0.0
 40
3.31293241468936
100
AcDbArc
 50
55.178279
 51
60.844295
  0
ARC
  5
308
330
1F
100
AcDbEntity
  8
1
370
    18
100
AcDbCircle
 10
293.194672
 20
425.765574
 30
0.0
 40
483.1763130082908
100
AcDbArc
 50
238.793985
 51
238.890022
  0
ARC
  5
309
330
1F
100
AcDbEntity
  8
1
370
    18
100
AcDbCircle
 10
297.565615
 20
433.009536
 30
0.0
 40
491.6368164809534
100
AcDbArc
 50
238.890083
 51
239.010326
  0
ARC
  5
30A
330
1F
100
AcDbEntity
  8
1
370
    18
100
AcDbCircle
 10
45.800047
 20
-1.013055
 30
0.0
 40
3.045971668611155
100
AcDbArc
 50
261.878418
 51
267.162271
  0
ARC
  5
30B
330
1F
100
AcDbEntity
  8
1
370
    18
100
AcDbCircle
 10
46.115749
 20
1.363872
 30
0.0
 40
5.443709142425373
100
AcDbArc
 50
257.606134
 51
262.123263
  0
ARC
  5
30C
330
1F
100
AcDbEntity
  8
1
370
    18
100
AcDbCircle
 10
41.452895
 20
1.936272
 30
0.0
 40
4.359635055707574
100
AcDbArc
 50
15.730637
 51
36.721619
  0
ARC
  5
30D
330
1F
100
AcDbEntity
  8
1
370
    18
100
AcDbCircle
 10
47.056175
 20
2.574304
 30
0.0
 40
1.087501352509563
100
AcDbArc
 50
244.815509
 51
287.378772
  0
ARC
  5
30E
330
1F
100
AcDbEntity
  8
1
370
    18
100
AcDbCircle
 10
47.697961
 20
3.213073
 30
0.0
 40
1.968107274941664
100
AcDbArc
 50
205.080746
 51
241.094376
  0
ARC
  5
30F
330
1F
100
AcDbEntity
  8
1
370
    18
100
AcDbCircle
 10
47.280497
 20
2.523793
 30
0.0
 40
1.163358809927754
100
AcDbArc
 50
242.684347
 51
281.605175
  0
ARC
  5
310
330
1F
100
AcDbEntity
  8
1
370
    18
100
AcDbCircle
 10
47.205046
 20
2.717213
 30
0.0
 40
1.368450851631926
100
AcDbArc
 50
283.070704
 51
317.833632
  0
ARC
  5
311
330
1F
100
AcDbEntity
  8
1
370
    18
100
AcDbCircle
 10
98.459447
 20
3.861505
 30
0.0
 40
79.8918048738014
100
AcDbArc
 50
186.735856
 51
191.342769
  0
ARC
  5
312
330
1F
100
AcDbEntity
  8
1
370
    18
100
AcDbCircle
 10
112.728551
 20
6.780005
 30
0.0
 40
94.45622677347566
100
AcDbArc
 50
191.376177
 51
196.329495
  0
ARC
  5
313
330
1F
100
AcDbEntity
  8
1
370
    18
100
AcDbCircle
 10
13.067284
 20
-42.467018
 30
0.0
 40
8.76269014542581
100
AcDbArc
 50
35.786283
 51
43.474885
  0
ARC
  5
314
330
1F
100
AcDbEntity
  8
1
370
    18
100
AcDbCircle
 10
18.710586
 20
-37.057871
 30
0.0
 40
0.9467444391324129
100
AcDbArc
 50
40.902593
 51
62.875071
  0
ARC
  5
315
330
1F
100
AcDbEntity
  8
1
370
    18
100
AcDbCircle
 10
26.926835
 20
-33.574018
 30
0.0
 40
8.29343818113042
100
AcDbArc
 50
199.705996
 51
214.937987
  0
ARC
  5
316
330
1F
100
AcDbEntity
  8
1
370
    18
100
AcDbCircle
 10
28.717334
 20
-32.248173
 30
0.0
 40
10.52071640855178
100
AcDbArc
 50
215.272869
 51
230.903167
  0
ARC
  5
317
330
1F
100
AcDbEntity
  8
1
370
    18
100
AcDbCircle
 10
25.692994
 20
30.243165
 30
0.0
 40
6.932671337422528
100
AcDbArc
 50
144.571005
 51
158.078054
  0
ARC
  5
318
330
1F
100
AcDbEntity
  8
1
370
    18
100
AcDbCircle
 10
20.639806
 20
32.148753
 30
0.0
 40
1.538017438932026
100
AcDbArc
 50
153.649067
 51
188.60457
  0
ARC
  5
319
330
1F
100
AcDbEntity
  8
1
370
    18
100
AcDbCircle
 10
35.386967
 20
37.530169
 30
0.0
 40
17.2085073694121
100
AcDbArc
 50
199.031637
 51
207.537793
  0
ARC
  5
31A
330
1F
100
AcDbEntity
  8
1
370
    18
100
AcDbCircle
 10
49.409218
 20
44.835159
 30
0.0
 40
33.01946441097543
100
AcDbArc
 50
207.528112
 51
214.147989
  0
ARC
  5
31B
330
1F
100
AcDbEntity
  8
1
370
    18
100
AcDbCircle
 10
20.20316
 20
-3.925577
 30
0.0
 40
0.7607117650304127
100
AcDbArc
 50
84.794198
 51
132.067194
  0
ARC
  5
31C
330
1F
100
AcDbEntity
  8
1
370
    18
100
AcDbCircle
 10
20.796634
 20
-4.559712
 30
0.0
 40
1.629172350742551
100
AcDbArc
 50
132.619347
 51
166.071835
  0
ARC
  5
31D
330
1F
100
AcDbEntity
  8
1
370
    18
100
AcDbCircle
 10
22.484651
 20
-5.0764
 30
0.0
 40
3.393263196015925
100
AcDbArc
 50
164.464468
 51
187.327582
  0
ARC
  5
31E
330
1F
100
AcDbEntity
  8
1
370
    18
100
AcDbCircle
 10
107.601651
 20
5.65589
 30
0.0
 40
88.98704587952192
100
AcDbArc
 50
190.67276
 51
194.467503
  0
ARC
  5
31F
330
1F
100
AcDbEntity
  8
1
370
    18
100
AcDbCircle
 10
97.809428
 20
3.801003
 30
0.0
 40
79.0206955393419
100
AcDbArc
 50
186.746911
 51
190.666027
  0
ARC
  5
320
330
1F
100
AcDbEntity
  8
1
370
    18
100
AcDbCircle
 10
21.551573
 20
-4.899025
 30
0.0
 40
2.243747888990872
100
AcDbArc
 50
149.472328
 51
178.5393
  0
ARC
  5
321
330
1F
100
AcDbEntity
  8
1
370
    18
100
AcDbCircle
 10
20.427681
 20
-4.23503
 30
0.0
 40
0.9383657836168957
100
AcDbArc
 50
110.267403
 51
149.537584
  0
ARC
  5
322
330
1F
100
AcDbEntity
  8
1
370
    18
100
AcDbCircle
 10
20.313659
 20
-4.036565
 30
0.0
 40
0.7137146664752151
100
AcDbArc
 50
60.601441
 51
107.198264
  0
ARC
  5
323
330
1F
100
AcDbEntity
  8
1
370
    18
100
AcDbCircle
 10
41.594044
 20
-14.137481
 30
0.0
 40
20.31019472462761
100
AcDbArc
 50
196.122275
 51
209.425408
  0
ARC
  5
324
330
1F
100
AcDbEntity
  8
1
370
    18
100
AcDbCircle
 10
35.910716
 20
-17.302301
 30
0.0
 40
13.80523933079189
100
AcDbArc
 50
209.573225
 51
221.794534
  0
ARC
  5
325
330
1F
100
AcDbEntity
  8
1
370
    18
100
AcDbCircle
 10
32.359
 20
-20.532487
 30
0.0
 40
9.004594071135207
100
AcDbArc
 50
221.532698
 51
239.705563
  0
ARC
  5
326
330
1F
100
AcDbEntity
  8
1
370
    18
100
AcDbCircle
 10
28.242668
 20
-36.04406
 30
0.0
 40
7.388599717531246
100
AcDbArc
 50
233.667528
 51
255.196783
  0
ARC
  5
327
330
1F
100
AcDbEntity
  8
1
370
    18
100
AcDbCircle
 10
28.328567
 20
-35.915875
 30
0.0
 40
7.542759880675464
100
AcDbArc
 50
214.098875
 51
233.718774
  0
ARC
  5
328
330
1F
100
AcDbEntity
  8
1
370
    18
100
AcDbCircle
 10
32.485214
 20
-20.508907
 30
0.0
 40
8.945460629299951
100
AcDbArc
 50
220.335294
 51
239.130234
  0
ARC
  5
329
330
1F
100
AcDbEntity
  8
1
370
    18
100
AcDbCircle
 10
36.486602
 20
-17.022758
 30
0.0
 40
14.25220010441806
100
AcDbArc
 50
206.695025
 51
220.606457
  0
ARC
  5
32A
330
1F
100
AcDbEntity
  8
1
370
    18
100
AcDbCircle
 10
42.485594
 20
-13.938723
 30
0.0
 40
20.99732493878884
100
AcDbArc
 50
195.97842
 51
206.859602
  0
ARC
  5
32B
330
1F
100
AcDbEntity
  8
1
370
    18
100
AcDbCircle
 10
42.283666
 20
-33.529804
 30
0.0
 40
1.385505968386201
100
AcDbArc
 50
65.741582
 51
119.460837
  0
ARC
  5
32C
330
1F
100
AcDbEntity
  8
1
370
    18
100
AcDbCircle
 10
39.112511
 20
-33.015493
 30
0.0
 40
0.7059554517987306
100
AcDbArc
 50
244.514309
 51
298.700804
  0
ARC
  5
32D
330
1F
100
AcDbEntity
  8
1
370
    18
100
AcDbCircle
 10
23.898927
 20
-32.088251
 30
0.0
 40
14.21989278801889
100
AcDbArc
 50
2.66026
 51
15.78611
  0
ARC
  5
32E
330
1F
100
AcDbEntity
  8
1
370
    18
100
AcDbCircle
 10
33.302506
 20
-29.370494
 30
0.0
 40
4.431988857065354
100
AcDbArc
 50
15.048713
 51
36.539934
  0
ARC
  5
32F
330
1F
100
AcDbEntity
  8
1
370
    18
100
AcDbCircle
 10
35.90558
 20
-27.391232
 30
0.0
 40
1.162852117165785
100
AcDbArc
 50
34.549124
 51
87.691912
  0
ARC
  5
330
330
1F
100
AcDbEntity
  8
1
370
    18
100
AcDbCircle
 10
36.06506
 20
-27.593935
 30
0.0
 40
1.369253494080982
100
AcDbArc
 50
94.719068
 51
136.846992
  0
ARC
  5
331
330
1F
100
AcDbEntity
  8
1
370
    18
100
AcDbCircle
 10
38.614706
 20
-30.159925
 30
0.0
 40
4.985949618975027
100
AcDbArc
 50
135.374332
 51
156.157887
  0
ARC
  5
332
330
1F
100
AcDbEntity
  8
1
370
    18
100
AcDbCircle
 10
47.532336
 20
-34.451348
 30
0.0
 40
14.88069557894797
100
AcDbArc
 50
154.923599
 51
166.239592
  0
ARC
  5
333
330
1F
100
AcDbEntity
  8
1
370
    18
100
AcDbCircle
 10
65.380088
 20
-14.560903
 30
0.0
 40
20.75605950380729
100
AcDbArc
 50
185.518514
 51
196.893544
  0
ARC
  5
334
330
1F
100
AcDbEntity
  8
1
370
    18
100
AcDbCircle
 10
62.156961
 20
-15.54878
 30
0.0
 40
17.38495309368184
100
AcDbArc
 50
196.865124
 51
209.343921
  0
ARC
  5
335
330
1F
100
AcDbEntity
  8
1
370
    18
100
AcDbCircle
 10
46.744249
 20
-26.932993
 30
0.0
 40
1.666297422998028
100
AcDbArc
 50
1.383513
 51
31.39693
  0
ARC
  5
336
330
1F
100
AcDbEntity
  8
1
370
    18
100
AcDbCircle
 10
47.742062
 20
-33.248982
 30
0.0
 40
2.649408519859779
100
AcDbArc
 50
100.020325
 51
138.696798
  0
ARC
  5
337
330
1F
100
AcDbEntity
  8
1
370
    18
100
AcDbCircle
 10
48.089074
 20
-33.545976
 30
0.0
 40
3.106128058099755
100
AcDbArc
 50
138.80625
 51
170.688463
  0
ARC
  5
338
330
1F
100
AcDbEntity
  8
1
370
    18
100
AcDbCircle
 10
39.878579
 20
-11.146812
 30
0.0
 40
1.586403808905659
100
AcDbArc
 50
161.733306
 51
212.830517
  0
ARC
  5
339
330
1F
100
AcDbEntity
  8
1
370
    18
100
AcDbCircle
 10
39.741266
 20
-11.278482
 30
0.0
 40
1.400104303667564
100
AcDbArc
 50
211.349209
 51
265.548442
  0
ARC
  5
33A
330
1F
100
AcDbEntity
  8
1
370
    18
100
AcDbCircle
 10
39.693956
 20
-11.488332
 30
0.0
 40
1.18761628335952
100
AcDbArc
 50
267.038376
 51
329.062222
  0
ARC
  5
33B
330
1F
100
AcDbEntity
  8
1
370
    18
100
AcDbCircle
 10
39.39885
 20
-11.322906
 30
0.0
 40
1.525814275815086
100
AcDbArc
 50
329.431187
 51
22.224052
  0
ARC
  5
33C
330
1F
100
AcDbEntity
  8
1
370
    18
100
AcDbCircle
 10
39.570792
 20
-11.042429
 30
0.0
 40
1.261410893177033
100
AcDbArc
 50
117.476988
 51
161.85367
  0
ARC
  5
33D
330
1F
100
AcDbEntity
  8
1
370
    18
100
AcDbCircle
 10
36.610088
 20
-32.272917
 30
0.0
 40
3.815003888009608
100
AcDbArc
 50
161.69257
 51
187.841498
  0
ARC
  5
33E
330
1F
100
AcDbEntity
  8
1
370
    18
100
AcDbCircle
 10
34.835372
 20
-32.478268
 30
0.0
 40
2.029234912722745
100
AcDbArc
 50
188.934244
 51
221.87487
  0
ARC
  5
33F
330
1F
100
AcDbEntity
  8
1
370
    18
100
AcDbCircle
 10
34.936965
 20
-32.285056
 30
0.0
 40
2.235145747698505
100
AcDbArc
 50
223.824777
 51
260.87931
  0
ARC
  5
340
330
1F
100
AcDbEntity
  8
1
370
    18
100
AcDbCircle
 10
35.208219
 20
-30.824189
 30
0.0
 40
3.720716925700958
100
AcDbArc
 50
260.32099
 51
285.71099
  0
ARC
  5
341
330
1F
100
AcDbEntity
  8
1
370
    18
100
AcDbCircle
 10
34.979841
 20
-29.892643
 30
0.0
 40
4.679413987381804
100
AcDbArc
 50
285.314235
 51
311.881528
  0
ARC
  5
342
330
1F
100
AcDbEntity
  8
1
370
    18
100
AcDbCircle
 10
34.83451
 20
-29.950176
 30
0.0
 40
4.530928227511914
100
AcDbArc
 50
286.701095
 51
312.999442
  0
ARC
  5
343
330
1F
100
AcDbEntity
  8
1
370
    18
100
AcDbCircle
 10
35.163602
 20
-31.116041
 30
0.0
 40
3.319728039094081
100
AcDbArc
 50
259.98689
 51
287.043435
  0
ARC
  5
344
330
1F
100
AcDbEntity
  8
1
370
    18
100
AcDbCircle
 10
34.91734
 20
-32.433824
 30
0.0
 40
1.979244250013991
100
AcDbArc
 50
220.767031
 51
260.374304
  0
ARC
  5
345
330
1F
100
AcDbEntity
  8
1
370
    18
100
AcDbCircle
 10
35.002935
 20
-32.453212
 30
0.0
 40
2.032636755455666
100
AcDbArc
 50
187.059404
 51
218.777241
  0
ARC
  5
346
330
1F
100
AcDbEntity
  8
1
370
    18
100
AcDbCircle
 10
37.008223
 20
-32.262338
 30
0.0
 40
4.046583594794726
100
AcDbArc
 50
162.212115
 51
186.252035
  0
ARC
  5
347
330
1F
100
AcDbEntity
  8
1
370
    18
100
AcDbCircle
 10
42.012188
 20
-32.077892
 30
0.0
 40
8.783204137851703
100
AcDbArc
 50
147.076475
 51
161.929923
  0
ARC
  5
348
330
1F
100
AcDbEntity
  8
1
370
    18
100
AcDbCircle
 10
37.240616
 20
-28.946053
 30
0.0
 40
3.075951556006626
100
AcDbArc
 50
129.096607
 51
147.736165
  0
ARC
  5
349
330
1F
100
AcDbEntity
  8
1
370
    18
100
AcDbCircle
 10
36.017899
 20
-27.402366
 30
0.0
 40
1.107111562982567
100
AcDbArc
 50
90.609395
 51
130.36799
  0
ARC
  5
34A
330
1F
100
AcDbEntity
  8
1
370
    18
100
AcDbCircle
 10
35.902837
 20
-27.341954
 30
0.0
 40
1.05172109969261
100
AcDbArc
 50
35.710347
 51
84.364008
  0
ARC
  5
34B
330
1F
100
AcDbEntity
  8
1
370
    18
100
AcDbCircle
 10
34.256065
 20
-28.691943
 30
0.0
 40
3.179701738889832
100
AcDbArc
 50
21.084419
 51
38.142968
  0
ARC
  5
34C
330
1F
100
AcDbEntity
  8
1
370
    18
100
AcDbCircle
 10
29.02842
 20
-30.687126
 30
0.0
 40
8.775136665203297
100
AcDbArc
 50
8.371007
 51
20.960355
  0
ARC
  5
34D
330
1F
100
AcDbEntity
  8
1
370
    18
100
AcDbCircle
 10
16.74627
 20
-32.509225
 30
0.0
 40
21.19170526753813
100
AcDbArc
 50
357.959312
 51
8.41054
  0
ARC
  5
34E
330
1F
100
AcDbEntity
  8
1
370
    18
100
AcDbCircle
 10
47.976047
 20
16.935753
 30
0.0
 40
3.277951477199002
100
AcDbArc
 50
181.952984
 51
205.24942
  0
ARC
  5
34F
330
1F
100
AcDbEntity
  8
1
370
    18
100
AcDbCircle
 10
3.760889
 20
-4.304701
 30
0.0
 40
1.982460328282528
100
AcDbArc
 50
317.615206
 51
340.923103
  0
ARC
  5
350
330
1F
100
AcDbEntity
  8
1
370
    18
100
AcDbCircle
 10
4.699673
 20
-5.24677
 30
0.0
 40
0.6570147031629741
100
AcDbArc
 50
287.752426
 51
323.118031
  0
ARC
  5
351
330
1F
100
AcDbEntity
  8
1
370
    18
100
AcDbCircle
 10
3.786548
 20
4.323838
 30
0.0
 40
1.950606841430728
100
AcDbArc
 50
30.647572
 51
49.163398
  0
ARC
  5
352
330
1F
100
AcDbEntity
  8
1
370
    18
100
AcDbCircle
 10
4.212324
 20
4.514238
 30
0.0
 40
1.488198678425697
100
AcDbArc
 50
1.518711
 51
32.697662
  0
ARC
  5
353
330
1F
100
AcDbEntity
  8
1
370
    18
100
AcDbCircle
 10
-0.005678
 20
15.410168
 30
0.0
 40
9.590541962250946
100
AcDbArc
 50
271.94241
 51
276.019186
  0
ARC
  5
354
330
1F
100
AcDbEntity
  8
1
370
    18
100
AcDbCircle
 10
0.253958
 20
7.476417
 30
0.0
 40
1.652576624158936
100
AcDbArc
 50
264.923723
 51
272.269249
  0
ARC
  5
355
330
1F
100
AcDbEntity
  8
1
370
    18
100
AcDbCircle
 10
0.181122
 20
-12.880468
 30
0.0
 40
7.055648223268977
100
AcDbArc
 50
83.335239
 51
89.837552
  0
ARC
  5
356
330
1F
100
AcDbEntity
  8
1
370
    18
100
AcDbCircle
 10
64.226707
 20
-14.87531
 30
0.0
 40
19.48055437161794
100
AcDbArc
 50
189.413059
 51
201.486948
  0
ARC
  5
357
330
1F
100
AcDbEntity
  8
1
370
    18
100
AcDbCircle
 10
67.337352
 20
-14.336907
 30
0.0
 40
22.63738174176518
100
AcDbArc
 50
179.907806
 51
189.469767
  0
ARC
  5
358
330
1F
100
AcDbEntity
  8
1
370
    18
100
AcDbCircle
 10
38.836635
 20
-42.87087
 30
0.0
 40
0.9812805915528021
100
AcDbArc
 50
268.371523
 51
308.802021
  0
ARC
  5
359
330
1F
100
AcDbEntity
  8
1
370
    18
100
AcDbCircle
 10
44.966733
 20
-44.599364
 30
0.0
 40
5.075138061271259
100
AcDbArc
 50
131.524286
 51
143.808208
  0
ARC
  5
35A
330
1F
100
AcDbEntity
  8
1
370
    18
100
AcDbCircle
 10
41.195523
 20
-41.915462
 30
0.0
 40
0.4509067708165471
100
AcDbArc
 50
136.054689
 51
175.091053
  0
ARC
  5
35B
330
1F
100
AcDbEntity
  8
1
370
    18
100
AcDbCircle
 10
40.814639
 20
-41.563077
 30
0.0
 40
0.3549753331844018
100
AcDbArc
 50
263.440591
 51
308.061694
  0
ARC
  5
35C
330
1F
100
AcDbEntity
  8
1
370
    18
100
AcDbCircle
 10
39.433963
 20
-11.072895
 30
0.0
 40
1.081099279316829
100
AcDbArc
 50
101.654051
 51
161.802763
  0
ARC
  5
35D
330
1F
100
AcDbEntity
  8
1
370
    18
100
AcDbCircle
 10
39.357142
 20
-11.340592
 30
0.0
 40
1.346735924638041
100
AcDbArc
 50
338.157682
 51
33.714488
  0
ARC
  5
35E
330
1F
100
AcDbEntity
  8
1
370
    18
100
AcDbCircle
 10
39.61806
 20
-11.437911
 30
0.0
 40
1.068361750257793
100
AcDbArc
 50
272.852426
 51
337.796064
  0
ARC
  5
35F
330
1F
100
AcDbEntity
  8
1
370
    18
100
AcDbCircle
 10
39.639635
 20
-11.247991
 30
0.0
 40
1.257355643475108
100
AcDbArc
 50
215.333842
 51
271.4397
  0
ARC
  5
360
330
1F
100
AcDbEntity
  8
1
370
    18
100
AcDbCircle
 10
39.704165
 20
-11.155968
 30
0.0
 40
1.363741707521337
100
AcDbArc
 50
162.032262
 51
216.920117
  0
ARC
  5
361
330
1F
100
AcDbEntity
  8
1
370
    18
100
AcDbCircle
 10
42.628335
 20
-41.88019
 30
0.0
 40
1.49005473413896
100
AcDbArc
 50
103.142107
 51
133.521997
  0
ARC
  5
362
330
1F
100
AcDbEntity
  8
1
370
    18
100
AcDbCircle
 10
42.066682
 20
-47.727602
 30
0.0
 40
7.364981134113185
100
AcDbArc
 50
80.08154
 51
81.693724
  0
ARC
  5
363
330
1F
100
AcDbEntity
  8
1
370
    18
100
AcDbCircle
 10
41.764213
 20
-49.799509
 30
0.0
 40
9.458849326857564
100
AcDbArc
 50
81.693851
 51
83.390743
  0
ARC
  5
364
330
1F
100
AcDbEntity
  8
1
370
    18
100
AcDbCircle
 10
49.07138
 20
-35.976687
 30
0.0
 40
4.916404484921798
100
AcDbArc
 50
162.211933
 51
183.964767
  0
ARC
  5
365
330
1F
100
AcDbEntity
  8
1
370
    18
100
AcDbCircle
 10
46.693137
 20
-36.147321
 30
0.0
 40
2.53206134248177
100
AcDbArc
 50
183.833825
 51
205.04371
  0
ARC
  5
366
330
1F
100
AcDbEntity
  8
1
370
    18
100
AcDbCircle
 10
45.720356
 20
-36.600265
 30
0.0
 40
1.459001887629301
100
AcDbArc
 50
205.099742
 51
238.007313
  0
ARC
  5
367
330
1F
100
AcDbEntity
  8
1
370
    18
100
AcDbCircle
 10
33.751028
 20
-57.40958
 30
0.0
 40
22.85583218153707
100
AcDbArc
 50
59.006379
 51
59.519796
  0
ARC
  5
368
330
1F
100
AcDbEntity
  8
1
370
    18
100
AcDbCircle
 10
52.449381
 20
-25.743601
 30
0.0
 40
13.9187111630626
100
AcDbArc
 50
237.632588
 51
239.30552
  0
ARC
  5
369
330
1F
100
AcDbEntity
  8
1
370
    18
100
AcDbCircle
 10
46.046948
 20
-36.186048
 30
0.0
 40
1.708982692749349
100
AcDbArc
 50
193.087972
 51
217.149316
  0
ARC
  5
36A
330
1F
100
AcDbEntity
  8
1
370
    18
100
AcDbCircle
 10
47.62121
 20
-35.829733
 30
0.0
 40
3.323050363759382
100
AcDbArc
 50
174.1174
 51
192.925427
  0
ARC
  5
36B
330
1F
100
AcDbEntity
  8
1
370
    18
100
AcDbCircle
 10
50.503654
 20
-36.153397
 30
0.0
 40
6.22354498649158
100
AcDbArc
 50
149.929292
 51
173.873094
  0
ARC
  5
36C
330
1F
100
AcDbEntity
  8
1
370
    18
100
AcDbCircle
 10
47.731151
 20
-33.370533
 30
0.0
 40
2.596252300069537
100
AcDbArc
 50
114.109287
 51
151.182205
  0
ARC
  5
36D
330
1F
100
AcDbEntity
  8
1
370
    18
100
AcDbCircle
 10
47.644734
 20
-33.227151
 30
0.0
 40
2.430163491905834
100
AcDbArc
 50
78.598844
 51
113.63042
  0
ARC
  5
36E
330
1F
100
AcDbEntity
  8
1
370
    18
100
AcDbCircle
 10
96.415094
 20
-34.357129
 30
0.0
 40
48.25751473090078
100
AcDbArc
 50
176.552887
 51
177.744193
  0
ARC
  5
36F
330
1F
100
AcDbEntity
  8
1
370
    18
100
AcDbCircle
 10
125.040241
 20
-35.470688
 30
0.0
 40
76.90431156277096
100
AcDbArc
 50
177.754639
 51
178.632416
  0
ARC
  5
370
330
1F
100
AcDbEntity
  8
1
370
    18
100
AcDbCircle
 10
35.417733
 20
30.6157
 30
0.0
 40
1.88591351990259
100
AcDbArc
 50
98.691299
 51
126.85114
  0
ARC
  5
371
330
1F
100
AcDbEntity
  8
1
370
    18
100
AcDbCircle
 10
35.180705
 20
30.94961
 30
0.0
 40
1.476602211528662
100
AcDbArc
 50
127.26204
 51
160.566856
  0
ARC
  5
372
330
1F
100
AcDbEntity
  8
1
370
    18
100
AcDbCircle
 10
35.270673
 20
30.936919
 30
0.0
 40
1.565771144379325
100
AcDbArc
 50
161.224249
 51
193.196883
  0
ARC
  5
373
330
1F
100
AcDbEntity
  8
1
370
    18
100
AcDbCircle
 10
35.762159
 20
31.054316
 30
0.0
 40
2.071080305271589
100
AcDbArc
 50
193.254739
 51
219.784808
  0
ARC
  5
374
330
1F
100
AcDbEntity
  8
1
370
    18
100
AcDbCircle
 10
26.432697
 20
32.129028
 30
0.0
 40
6.071195131000629
100
AcDbArc
 50
99.964838
 51
123.012539
  0
ARC
  5
375
330
1F
100
AcDbEntity
  8
1
370
    18
100
AcDbCircle
 10
26.702908
 20
30.700693
 30
0.0
 40
7.524765108964478
100
AcDbArc
 50
81.840289
 51
100.109284
  0
ARC
  5
376
330
1F
100
AcDbEntity
  8
1
370
    18
100
AcDbCircle
 10
41.018353
 20
37.854985
 30
0.0
 40
0.2886943482885233
100
AcDbArc
 50
76.861261
 51
142.191768
  0
ARC
  5
377
330
1F
100
AcDbEntity
  8
1
370
    18
100
AcDbCircle
 10
41.781859
 20
37.803868
 30
0.0
 40
1.017488928173567
100
AcDbArc
 50
167.045769
 51
222.649627
  0
ARC
  5
378
330
1F
100
AcDbEntity
  8
1
370
    18
100
AcDbCircle
 10
137.205356
 20
27.355681
 30
0.0
 40
103.7600565964211
100
AcDbArc
 50
210.376837
 51
210.937199
  0
ARC
  5
379
330
1F
100
AcDbEntity
  8
1
370
    18
100
AcDbCircle
 10
133.002005
 20
24.89338
 30
0.0
 40
98.88860092498808
100
AcDbArc
 50
209.628465
 51
210.37759
  0
ARC
  5
37A
330
1F
100
AcDbEntity
  8
1
370
    18
100
AcDbCircle
 10
47.578516
 20
-30.165848
 30
0.0
 40
0.9220983442679267
100
AcDbArc
 50
321.784091
 51
2.09158
  0
ARC
  5
37B
330
1F
100
AcDbEntity
  8
1
370
    18
100
AcDbCircle
 10
46.802675
 20
-26.941011
 30
0.0
 40
1.697709882936411
100
AcDbArc
 50
1.220774
 51
34.182676
  0
ARC
  5
37C
330
1F
100
AcDbEntity
  8
1
370
    18
100
AcDbCircle
 10
37.528967
 20
16.222592
 30
0.0
 40
4.727752436778569
100
AcDbArc
 50
57.866028
 51
75.157343
  0
ARC
  5
37D
330
1F
100
AcDbEntity
  8
1
370
    18
100
AcDbCircle
 10
39.282314
 20
18.689844
 30
0.0
 40
1.714550989966848
100
AcDbArc
 50
35.098585
 51
63.637391
  0
ARC
  5
37E
330
1F
100
AcDbEntity
  8
1
370
    18
100
AcDbCircle
 10
40.599869
 20
19.61294
 30
0.0
 40
0.1058344933002046
100
AcDbArc
 50
320.558097
 51
36.360386
  0
ARC
  5
37F
330
1F
100
AcDbEntity
  8
1
370
    18
100
AcDbCircle
 10
26.631934
 20
31.666725
 30
0.0
 40
6.78538962327807
100
AcDbArc
 50
92.340086
 51
114.063993
  0
ARC
  5
380
330
1F
100
AcDbEntity
  8
1
370
    18
100
AcDbCircle
 10
26.095852
 20
32.873826
 30
0.0
 40
5.464607346283238
100
AcDbArc
 50
114.09243
 51
137.256866
  0
ARC
  5
381
330
1F
100
AcDbEntity
  8
1
370
    18
100
AcDbCircle
 10
40.960509
 20
37.679927
 30
0.0
 40
0.2011933121935328
100
AcDbArc
 50
79.432253
 51
166.491077
  0
ARC
  5
382
330
1F
100
AcDbEntity
  8
1
370
    18
100
AcDbCircle
 10
40.853013
 20
36.660936
 30
0.0
 40
1.225309871792942
100
AcDbArc
 50
57.843145
 51
83.232387
  0
ARC
  5
383
330
1F
100
AcDbEntity
  8
1
370
    18
100
AcDbCircle
 10
35.26339
 20
30.986376
 30
0.0
 40
1.367343127009092
100
AcDbArc
 50
137.715139
 51
188.296903
  0
ARC
  5
384
330
1F
100
AcDbEntity
  8
1
370
    18
100
AcDbCircle
 10
35.484351
 20
30.736018
 30
0.0
 40
1.699649982141898
100
AcDbArc
 50
97.308478
 51
136.482929
  0
ARC
  5
385
330
1F
100
AcDbEntity
  8
1
370
    18
100
AcDbCircle
 10
43.752159
 20
41.733665
 30
0.0
 40
4.618800392506865
100
AcDbArc
 50
240.890025
 51
243.405196
  0
ARC
  5
386
330
1F
100
AcDbEntity
  8
1
370
    18
100
AcDbCircle
 10
43.72137
 20
41.668593
 30
0.0
 40
4.546830211683948
100
AcDbArc
 50
243.385047
 51
246.961857
  0
ARC
  5
387
330
1F
100
AcDbEntity
  8
1
370
    18
100
AcDbCircle
 10
20.944809
 20
32.229847
 30
0.0
 40
1.628481866625739
100
AcDbArc
 50
150.349001
 51
188.907494
  0
ARC
  5
388
330
1F
100
AcDbEntity
  8
1
370
    18
100
AcDbCircle
 10
25.40376
 20
30.400614
 30
0.0
 40
6.438063164551538
100
AcDbArc
 50
137.409361
 51
155.841375
  0
ARC
  5
389
330
1F
100
AcDbEntity
  8
1
370
    18
100
AcDbCircle
 10
42.371408
 20
22.301069
 30
0.0
 40
1.687055135046827
100
AcDbArc
 50
188.332899
 51
220.368453
  0
ARC
  5
38A
330
1F
100
AcDbEntity
  8
1
370
    18
100
AcDbCircle
 10
46.899453
 20
26.792725
 30
0.0
 40
8.061065491884706
100
AcDbArc
 50
223.848784
 51
240.626947
  0
ARC
  5
38B
330
1F
100
AcDbEntity
  8
1
370
    18
100
AcDbCircle
 10
-351.627272
 20
5.304838
 30
0.0
 40
396.4426319663202
100
AcDbArc
 50
1.89954
 51
1.962244
  0
ARC
  5
38C
330
1F
100
AcDbEntity
  8
1
370
    18
100
AcDbCircle
 10
446.65147
 20
32.393693
 30
0.0
 40
402.2958275485317
100
AcDbArc
 50
181.986888
 51
182.037802
  0
ARC
  5
38D
330
1F
100
AcDbEntity
  8
1
370
    18
100
AcDbCircle
 10
54.050511
 20
44.309359
 30
0.0
 40
9.75114458665455
100
AcDbArc
 50
214.579455
 51
224.809246
  0
ARC
  5
38E
330
1F
100
AcDbEntity
  8
1
370
    18
100
AcDbCircle
 10
51.785749
 20
41.906518
 30
0.0
 40
6.45190934978823
100
AcDbArc
 50
223.84457
 51
236.442881
  0
ARC
  5
38F
330
1F
100
AcDbEntity
  8
1
370
    18
100
AcDbCircle
 10
44.432511
 20
38.87205
 30
0.0
 40
1.333975871122739
100
AcDbArc
 50
24.200892
 51
67.297161
  0
ARC
  5
390
330
1F
100
AcDbEntity
  8
1
370
    18
100
AcDbCircle
 10
44.608553
 20
40.973919
 30
0.0
 40
0.4551545059165985
100
AcDbArc
 50
104.19683
 51
179.645173
  0
ARC
  5
391
330
1F
100
AcDbEntity
  8
1
370
    18
100
AcDbCircle
 10
45.0117
 20
41.080114
 30
0.0
 40
0.8644964480511397
100
AcDbArc
 50
186.867881
 51
224.879731
  0
ARC
  5
392
330
1F
100
AcDbEntity
  8
1
370
    18
100
AcDbCircle
 10
45.51601
 20
41.543829
 30
0.0
 40
1.549292006093298
100
AcDbArc
 50
223.871267
 51
248.46696
  0
ARC
  5
393
330
1F
100
AcDbEntity
  8
1
370
    18
100
AcDbCircle
 10
47.844912
 20
35.991749
 30
0.0
 40
0.6556057247821013
100
AcDbArc
 50
357.722329
 51
55.171846
  0
ARC
  5
394
330
1F
100
AcDbEntity
  8
1
370
    18
100
AcDbCircle
 10
47.019968
 20
-33.721808
 30
0.0
 40
4.608253377830128
100
AcDbArc
 50
243.271724
 51
248.388978
  0
ARC
  5
395
330
1F
100
AcDbEntity
  8
1
370
    18
100
AcDbCircle
 10
46.523005
 20
-34.979744
 30
0.0
 40
3.255709897665934
100
AcDbArc
 50
248.366574
 51
254.432301
  0
ARC
  5
396
330
1F
100
AcDbEntity
  8
1
370
    18
100
AcDbCircle
 10
44.984254
 20
-39.587758
 30
0.0
 40
0.954789646573866
100
AcDbArc
 50
267.785539
 51
314.145474
  0
ARC
  5
397
330
1F
100
AcDbEntity
  8
1
370
    18
100
AcDbCircle
 10
41.100525
 20
-30.813298
 30
0.0
 40
8.518055584281601
100
AcDbArc
 50
309.816191
 51
323.431364
  0
ARC
  5
398
330
1F
100
AcDbEntity
  8
1
370
    18
100
AcDbCircle
 10
44.487078
 20
-34.918451
 30
0.0
 40
3.196494060050069
100
AcDbArc
 50
296.890843
 51
310.307676
  0
ARC
  5
399
330
1F
100
AcDbEntity
  8
1
370
    18
100
AcDbCircle
 10
45.671951
 20
-37.363587
 30
0.0
 40
0.482354093351728
100
AcDbArc
 50
253.720311
 51
302.740815
  0
ARC
  5
39A
330
1F
100
AcDbEntity
  8
1
370
    18
100
AcDbCircle
 10
45.813268
 20
-37.643636
 30
0.0
 40
0.5036966424797089
100
AcDbArc
 50
253.184061
 51
302.927486
  0
ARC
  5
39B
330
1F
100
AcDbEntity
  8
1
370
    18
100
AcDbCircle
 10
44.583931
 20
-35.082894
 30
0.0
 40
3.340784045512462
100
AcDbArc
 50
296.739505
 51
310.343281
  0
ARC
  5
39C
330
1F
100
AcDbEntity
  8
1
370
    18
100
AcDbCircle
 10
40.988473
 20
-30.713861
 30
0.0
 40
8.998777447793755
100
AcDbArc
 50
309.783117
 51
323.469373
  0
ARC
  5
39D
330
1F
100
AcDbEntity
  8
1
370
    18
100
AcDbCircle
 10
47.554402
 20
-37.095568
 30
0.0
 40
0.9456080765605267
100
AcDbArc
 50
314.683158
 51
0.260472
  0
ARC
  5
39E
330
1F
100
AcDbEntity
  8
1
370
    18
100
AcDbCircle
 10
47.213205
 20
-35.266687
 30
0.0
 40
1.287737727159921
100
AcDbArc
 50
321.38153
 51
357.806977
  0
ARC
  5
39F
330
1F
100
AcDbEntity
  8
1
370
    18
100
AcDbCircle
 10
44.835004
 20
40.66638
 30
0.0
 40
0.5362371788018915
100
AcDbArc
 50
139.185698
 51
188.703286
  0
ARC
  5
3A0
330
1F
100
AcDbEntity
  8
1
370
    18
100
AcDbCircle
 10
45.246174
 20
40.169274
 30
0.0
 40
1.17725423791997
100
AcDbArc
 50
96.262725
 51
133.947444
  0
ARC
  5
3A1
330
1F
100
AcDbEntity
  8
1
370
    18
100
AcDbCircle
 10
45.231563
 20
40.721903
 30
0.0
 40
0.6305547355245792
100
AcDbArc
 50
45.422847
 51
81.103254
  0
ARC
  5
3A2
330
1F
100
AcDbEntity
  8
1
370
    18
100
AcDbCircle
 10
13.109598
 20
8.467044
 30
0.0
 40
46.15193169098654
100
AcDbArc
 50
42.977821
 51
45.122437
  0
ARC
  5
3A3
330
1F
100
AcDbEntity
  8
1
370
    18
100
AcDbCircle
 10
26.154012
 20
20.271496
 30
0.0
 40
28.56228392772002
100
AcDbArc
 50
39.88002
 51
43.491825
  0
ARC
  5
3A4
330
1F
100
AcDbEntity
  8
1
370
    18
100
AcDbCircle
 10
47.313991
 20
38.000492
 30
0.0
 40
0.9575779379741032
100
AcDbArc
 50
356.748196
 51
37.627676
  0
ARC
  5
3A5
330
1F
100
AcDbEntity
  8
1
370
    18
100
AcDbCircle
 10
-333.38462
 20
49.322168
 30
0.0
 40
381.8241523253671
100
AcDbArc
 50
358.194956
 51
358.292688
  0
ARC
  5
3A6
330
1F
100
AcDbEntity
  8
1
370
    18
100
AcDbCircle
 10
-210.427328
 20
45.494774
 30
0.0
 40
258.807318643498
100
AcDbArc
 50
358.015006
 51
358.184439
  0
ARC
  5
3A7
330
1F
100
AcDbEntity
  8
1
370
    18
100
AcDbCircle
 10
29.277346
 20
-31.941582
 30
0.0
 40
11.00807552745239
100
AcDbArc
 50
218.813905
 51
230.662662
  0
ARC
  5
3A8
330
1F
100
AcDbEntity
  8
1
370
    18
100
AcDbCircle
 10
27.289346
 20
-33.543216
 30
0.0
 40
8.455161866426831
100
AcDbArc
 50
199.838389
 51
218.800986
  0
ARC
  5
3A9
330
1F
100
AcDbEntity
  8
1
370
    18
100
AcDbCircle
 10
47.355621
 20
37.80511
 30
0.0
 40
1.144473303596127
100
AcDbArc
 50
359.264268
 51
41.002001
  0
ARC
  5
3AA
330
1F
100
AcDbEntity
  8
1
370
    18
100
AcDbCircle
 10
-34.207085
 20
-38.338386
 30
0.0
 40
112.7322531883768
100
AcDbArc
 50
43.337514
 51
44.130015
  0
ARC
  5
3AB
330
1F
100
AcDbEntity
  8
1
370
    18
100
AcDbCircle
 10
-125.188726
 20
-125.312462
 30
0.0
 40
238.5962530475647
100
AcDbArc
 50
43.908404
 51
44.273735
  0
ARC
  5
3AC
330
1F
100
AcDbEntity
  8
1
370
    18
100
AcDbCircle
 10
45.017117
 20
40.648053
 30
0.0
 40
0.8718614146369253
100
AcDbArc
 50
43.52812
 51
94.589039
  0
ARC
  5
3AD
330
1F
100
AcDbEntity
  8
1
370
    18
100
AcDbCircle
 10
45.397271
 20
-14.944266
 30
0.0
 40
0.4238307649634536
100
AcDbArc
 50
250.524529
 51
341.806176
  0
ARC
  5
3AE
330
1F
100
AcDbEntity
  8
1
370
    18
100
AcDbCircle
 10
45.848034
 20
-14.510143
 30
0.0
 40
1.022549631605097
100
AcDbArc
 50
185.043034
 51
234.618872
  0
ARC
  5
3AF
330
1F
100
AcDbEntity
  8
1
370
    18
100
AcDbCircle
 10
48.213276
 20
-15.825611
 30
0.0
 40
0.2994737324076338
100
AcDbArc
 50
16.778536
 51
91.180302
  0
ARC
  5
3B0
330
1F
100
AcDbEntity
  8
1
370
    18
100
AcDbCircle
 10
20.602536
 20
29.613955
 30
0.0
 40
26.91406790950646
100
AcDbArc
 50
334.178809
 51
336.705406
  0
ARC
  5
3B1
330
1F
100
AcDbEntity
  8
1
370
    18
100
AcDbCircle
 10
52.989186
 20
15.261601
 30
0.0
 40
8.74664338048776
100
AcDbArc
 50
132.828663
 51
145.280333
  0
ARC
  5
3B2
330
1F
100
AcDbEntity
  8
1
370
    18
100
AcDbCircle
 10
47.503685
 20
23.559282
 30
0.0
 40
1.067243469845521
100
AcDbArc
 50
311.231379
 51
321.252719
  0
ARC
  5
3B3
330
1F
100
AcDbEntity
  8
1
370
    18
100
AcDbCircle
 10
47.691278
 20
23.410699
 30
0.0
 40
0.8279424763651536
100
AcDbArc
 50
321.146822
 51
336.339492
  0
ARC
  5
3B4
330
1F
100
AcDbEntity
  8
CUT
370
    18
100
AcDbCircle
 10
49.037436
 20
37.674479
 30
0.0
 40
0.9625827647423962
100
AcDbArc
 50
0.36194
 51
45.644913
  0
ARC
  5
3B5
330
1F
100
AcDbEntity
  8
CUT
370
    18
100
AcDbCircle
 10
48.964263
 20
35.957622
 30
0.0
 40
1.035880574227171
100
AcDbArc
 50
316.077147
 51
359.0472
  0
ARC
  5
3B6
330
1F
100
AcDbEntity
  8
CUT
370
    18
100
AcDbCircle
 10
42.879779
 20
29.413829
 30
0.0
 40
0.9686854118447782
100
AcDbArc
 50
272.576118
 51
317.787205
  0
ARC
  5
3B7
330
1F
100
AcDbEntity
  8
CUT
370
    18
100
AcDbCircle
 10
41.22062
 20
29.330392
 30
0.0
 40
0.927037553991822
100
AcDbArc
 50
223.943705
 51
270.397705
  0
ARC
  5
3B8
330
1F
100
AcDbEntity
  8
CUT
370
    18
100
AcDbCircle
 10
35.151407
 20
35.631555
 30
0.0
 40
1.001070150904033
100
AcDbArc
 50
180.483537
 51
224.711767
  0
ARC
  5
3B9
330
1F
100
AcDbEntity
  8
CUT
370
    18
100
AcDbCircle
 10
35.166618
 20
37.365977
 30
0.0
 40
1.016316502371873
100
AcDbArc
 50
135.639939
 51
179.319714
  0
ARC
  5
3BA
330
1F
100
AcDbEntity
  8
CUT
370
    18
100
AcDbCircle
 10
41.256685
 20
43.809558
 30
0.0
 40
0.9548948242420229
100
AcDbArc
 50
91.778169
 51
137.458289
  0
ARC
  5
3BB
330
1F
100
AcDbEntity
  8
CUT
370
    18
100
AcDbCircle
 10
42.92392
 20
43.857615
 30
0.0
 40
0.9335128096716093
100
AcDbArc
 50
43.840034
 51
90.036911
  0
ARC
  5
3BC
330
1F
100
AcDbEntity
  8
1
370
    13
100
AcDbCircle
 10
4.9
 20
-4.0725
 30
0.0
 40
0.8
100
AcDbArc
 50
270.0
 51
360.0
  0
ARC
  5
3BD
330
1F
100
AcDbEntity
  8
1
370
    13
100
AcDbCircle
 10
4.9
 20
4.0725
 30
0.0
 40
0.8
100
AcDbArc
 50
0.0
 51
90.0
  0
ARC
  5
3BE
330
1F
100
AcDbEntity
  8
1
370
    13
100
AcDbCircle
 10
10.835464
 20
-39.0
 30
0.0
 40
8.0
100
AcDbArc
 50
35.0
 51
90.0
  0
ARC
  5
3BF
330
1F
100
AcDbEntity
  8
1
370
    13
100
AcDbCircle
 10
10.835464
 20
39.0
 30
0.0
 40
8.0
100
AcDbArc
 50
270.0
 51
325.0
  0
ARC
  5
3C0
330
1F
100
AcDbEntity
  8
1
370
    13
100
AcDbCircle
 10
38.808749
 20
43.1
 30
0.0
 40
1.0
100
AcDbArc
 50
50.0
 51
90.0
  0
ARC
  5
3C1
330
1F
100
AcDbEntity
  8
1
370
    13
100
AcDbCircle
 10
27.816688
 20
37.1
 30
0.0
 40
7.0
100
AcDbArc
 50
90.0
 51
145.0
  0
ARC
  5
3C2
330
1F
100
AcDbEntity
  8
1
370
    13
100
AcDbCircle
 10
42.88781
 20
43.593483
 30
0.0
 40
2.0
100
AcDbArc
 50
230.0
 51
269.0
  0
ARC
  5
3C3
330
1F
100
AcDbEntity
  8
1
370
    13
100
AcDbCircle
 10
47.5
 20
37.895974
 30
0.0
 40
1.0
100
AcDbArc
 50
0.0
 51
44.0
  0
ARC
  5
3C4
330
1F
100
AcDbEntity
  8
1
370
    13
100
AcDbCircle
 10
44.929909
 20
40.557381
 30
0.0
 40
1.0
100
AcDbArc
 50
63.180574
 51
89.0
  0
ARC
  5
3C5
330
1F
100
AcDbEntity
  8
NOCUT
370
    18
100
AcDbCircle
 10
47.5
 20
37.895974
 30
0.0
 40
1.0
100
AcDbArc
 50
0.0
 51
44.0
  0
ARC
  5
3C6
330
1F
100
AcDbEntity
  8
NOCUT
370
    18
100
AcDbCircle
 10
42.88781
 20
43.593483
 30
0.0
 40
2.0
100
AcDbArc
 50
230.0
 51
269.0
  0
ARC
  5
3C7
330
1F
100
AcDbEntity
  8
NOCUT
370
    18
100
AcDbCircle
 10
38.808749
 20
43.1
 30
0.0
 40
1.0
100
AcDbArc
 50
50.0
 51
90.0
  0
ARC
  5
3C8
330
1F
100
AcDbEntity
  8
NOCUT
370
    18
100
AcDbCircle
 10
10.835464
 20
39.0
 30
0.0
 40
8.0
100
AcDbArc
 50
270.0
 51
325.0
  0
ARC
  5
3C9
330
1F
100
AcDbEntity
  8
NOCUT
370
    18
100
AcDbCircle
 10
44.929909
 20
40.557381
 30
0.0
 40
1.0
100
AcDbArc
 50
44.0
 51
89.0
  0
ARC
  5
3CA
330
1F
100
AcDbEntity
  8
NOCUT
370
    18
100
AcDbCircle
 10
22.6
 20
11.174656
 30
0.0
 40
0.4
100
AcDbArc
 50
0.0
 51
45.0
  0
ARC
  5
3CB
330
1F
100
AcDbEntity
  8
NOCUT
370
    18
100
AcDbCircle
 10
32.4
 20
10.1
 30
0.0
 40
0.4
100
AcDbArc
 50
90.0
 51
180.0
  0
ARC
  5
3CC
330
1F
100
AcDbEntity
  8
NOCUT
370
    18
100
AcDbCircle
 10
47.5
 20
35.214214
 30
0.0
 40
1.0
100
AcDbArc
 50
315.0
 51
0.0
  0
ARC
  5
3CD
330
1F
100
AcDbEntity
  8
NOCUT
370
    18
100
AcDbCircle
 10
27.816688
 20
37.1
 30
0.0
 40
7.0
100
AcDbArc
 50
90.0
 51
145.0
  0
ARC
  5
3CE
330
1F
100
AcDbEntity
  8
NOCUT
370
    18
100
AcDbCircle
 10
20.563896
 20
13.210761
 30
0.0
 40
0.4
100
AcDbArc
 50
45.0
 51
110.0
  0
ARC
  5
3CF
330
1F
100
AcDbEntity
  8
NOCUT
370
    18
100
AcDbCircle
 10
52.7
 20
27.686292
 30
0.0
 40
8.0
100
AcDbArc
 50
135.0
 51
180.0
  0
ARC
  5
3D0
102
{ACAD_REACTORS
330
485
102
}
330
1F
100
AcDbEntity
  8
2
370
    13
100
AcDbCircle
 10
50.0
 20
38.075
 30
0.0
 40
16.4999
100
AcDbArc
 50
62.062036
 51
162.937964
  0
MTEXT
  5
3D1
102
{ACAD_REACTORS
330
484
102
}
330
1F
100
AcDbEntity
  8
2
370
    18
100
AcDbMText
 10
60.810447
 20
-7.330431
 30
0.0
 40
3.5001
 41
0.0
 71
     7
 72
     5
  1
%%c
  7
iso_b_vert
 11
7.273661547324616E-16
 21
1.0
 31
0.0
 73
     2
 44
1.084337
  0
MTEXT
  5
3D4
102
{ACAD_REACTORS
330
484
102
}
330
1F
100
AcDbEntity
  8
2
370
    18
100
AcDbMText
 10
60.810447
 20
1.392474
 30
0.0
 40
3.5001
 41
0.0
 71
     7
 72
     5
  1
\W0.7485;76,2
  7
iso_b_vert
 11
7.273661547324616E-16
 21
1.0
 31
0.0
 73
     2
 44
1.084337
  0
LINE
  5
3D5
102
{ACAD_REACTORS
330
3D8
102
}
330
1F
100
AcDbEntity
  8
2
 60
     1
370
    18
100
AcDbLine
 10
62.375125
 20
38.075
 30
0.0
 11
62.793122
 21
34.900002
 31
0.0
  0
LINE
  5
3D6
102
{ACAD_REACTORS
330
3D8
102
}
330
1F
100
AcDbEntity
  8
2
 60
     1
370
    18
100
AcDbLine
 10
62.793122
 20
34.900002
 30
0.0
 11
61.957128
 21
34.899998
 31
0.0
  0
LINE
  5
3D7
102
{ACAD_REACTORS
330
3D8
102
}
330
1F
100
AcDbEntity
  8
2
 60
     1
370
    18
100
AcDbLine
 10
61.957128
 20
34.899998
 30
0.0
 11
62.375125
 21
38.075
 31
0.0
  0
HATCH
  5
3D8
102
{ACAD_REACTORS
330
484
102
}
330
1F
100
AcDbEntity
  8
2
370
    13
100
AcDbHatch
 10
0.0
 20
0.0
 30
0.0
210
0.0
220
0.0
230
1.0
  2
ANSI31
 70
     0
 71
     1
 91
        1
 92
        0
 93
        3
 72
     1
 10
62.375125
 20
38.075
 11
62.79312167983716
 21
34.90000153538755
 72
     1
 10
62.79312167983716
 20
34.90000153538755
 11
61.95712832016284
 21
34.89999846461247
 72
     1
 10
61.95712832016284
 20
34.89999846461247
 11
62.375125
 21
38.075
 97
        3
330
3D5
330
3D6
330
3D7
 75
     0
 76
     1
 52
0.0
 41
0.0062
 77
     0
 78
     1
 53
44.99999999999986
 43
0.0
 44
0.0
 45
-0.0139193969876572
 46
0.0139193969876572
 79
     0
 98
        0
  0
MTEXT
  5
3D9
102
{ACAD_REACTORS
330
485
102
}
330
1F
100
AcDbEntity
  8
2
370
    13
100
AcDbMText
 10
40.407228
 20
52.988837
 30
0.0
 40
3.5001
 41
0.0
 71
     7
 72
     5
  1
\W0.9173;45%%d
  7
iso_b_vert
 11
0.9238795325112867
 21
0.3826834323650899
 31
0.0
 73
     2
 44
1.084337
  0
LINE
  5
3DA
102
{ACAD_REACTORS
330
3DD
102
}
330
1F
100
AcDbEntity
  8
2
 60
     1
370
    18
100
AcDbLine
 10
38.332809
 20
49.742191
 30
0.0
 11
36.507354
 21
47.111022
 31
0.0
  0
LINE
  5
3DB
102
{ACAD_REACTORS
330
3DD
102
}
330
1F
100
AcDbEntity
  8
2
 60
     1
370
    18
100
AcDbLine
 10
36.507354
 20
47.111022
 30
0.0
 11
35.888556
 21
47.673137
 31
0.0
  0
LINE
  5
3DC
102
{ACAD_REACTORS
330
3DD
102
}
330
1F
100
AcDbEntity
  8
2
 60
     1
370
    18
100
AcDbLine
 10
35.888556
 20
47.673137
 30
0.0
 11
38.332809
 21
49.742191
 31
0.0
  0
HATCH
  5
3DD
102
{ACAD_REACTORS
330
485
102
}
330
1F
100
AcDbEntity
  8
2
370
    13
100
AcDbHatch
 10
0.0
 20
0.0
 30
0.0
210
0.0
220
0.0
230
1.0
  2
ANSI31
 70
     0
 71
     1
 91
        1
 92
        0
 93
        3
 72
     1
 10
38.33280882110009
 20
49.74219117889992
 11
36.50735444326627
 21
47.11102170714526
 72
     1
 10
36.50735444326627
 20
47.11102170714526
 11
35.88855619892028
 21
47.67313702469436
 72
     1
 10
35.88855619892028
 20
47.67313702469436
 11
38.33280882110009
 21
49.74219117889992
 97
        3
330
3DA
330
3DB
330
3DC
 75
     0
 76
     1
 52
0.0
 41
0.0062
 77
     0
 78
     1
 53
44.99999999999986
 43
0.0
 44
0.0
 45
-0.0139193969876572
 46
0.0139193969876572
 79
     0
 98
        0
  0
LINE
  5
3DE
102
{ACAD_REACTORS
330
3E1
102
}
330
1F
100
AcDbEntity
  8
2
 60
     1
370
    18
100
AcDbLine
 10
50.0
 20
54.5749
 30
0.0
 11
53.191387
 21
54.840206
 31
0.0
  0
LINE
  5
3DF
102
{ACAD_REACTORS
330
3E1
102
}
330
1F
100
AcDbEntity
  8
2
 60
     1
370
    18
100
AcDbLine
 10
53.191387
 20
54.840206
 30
0.0
 11
53.151312
 21
54.005173
 31
0.0
  0
LINE
  5
3E0
102
{ACAD_REACTORS
330
3E1
102
}
330
1F
100
AcDbEntity
  8
2
 60
     1
370
    18
100
AcDbLine
 10
53.151312
 20
54.005173
 30
0.0
 11
50.0
 21
54.5749
 31
0.0
  0
HATCH
  5
3E1
102
{ACAD_REACTORS
330
485
102
}
330
1F
100
AcDbEntity
  8
2
370
    13
100
AcDbHatch
 10
0.0
 20
0.0
 30
0.0
210
0.0
220
0.0
230
1.0
  2
ANSI31
 70
     0
 71
     1
 91
        1
 92
        0
 93
        3
 72
     1
 10
50.0
 20
54.5749
 11
53.19138675991299
 21
54.84020552820941
 72
     1
 10
53.19138675991299
 20
54.84020552820941
 11
53.15131201248602
 21
54.00517324617017
 72
     1
 10
53.15131201248602
 20
54.00517324617017
 11
50.0
 21
54.5749
 97
        3
330
3DE
330
3DF
330
3E0
 75
     0
 76
     1
 52
0.0
 41
0.0062
 77
     0
 78
     1
 53
44.99999999999984
 43
0.0
 44
0.0
 45
-0.0139193969876571
 46
0.0139193969876572
 79
     0
 98
        0
  0
MTEXT
  5
3E2
330
1F
100
AcDbEntity
  8
SK6
370
    13
100
AcDbMText
 10
0.168275
 20
69.424246
 30
0.0
 40
3.175
 41
0.0
 71
     7
 72
     5
  1
\W0.7856;300A05R-IS45SD13F-C
  7
iso_b_vert
 73
     2
 44
1.084337
  0
DIMENSION
  5
3E4
102
{ACAD_REACTORS
330
3E6
102
}
102
{ACAD_XDICTIONARY
360
3E5
102
}
330
1F
100
AcDbEntity
  8
SK2
370
    13
100
AcDbDimension
  2
_U0
 10
-30.624875
 20
31.0
 30
0.0
 11
-30.624875
 21
0.0
 31
0.0
 70
   160
  1
%%c\C95;60
 71
     1
 42
62.0
 52
90.0
  3
Standard
100
AcDbAlignedDimension
 13
1.0
 23
-31.0
 33
0.0
 14
1.0
 24
31.0
 34
0.0
 50
90.0
100
AcDbRotatedDimension
1001
ACAD
1000
DSTYLE
1002
{
1070
   371
1070
    13
1070
   372
1070
    13
1070
     3
1000

1070
   170
1070
     0
1070
   144
1040
1.0
1070
   277
1070
     2
1070
   284
1070
     8
1070
   278
1070
    44
1070
   146
1040
0.907117
1070
   345
1005
16
1070
   347
1005
16
1070
   346
1005
16
1070
   344
1005
0
1070
   343
1005
0
1070
   172
1070
     1
1070
    76
1070
     0
1070
    75
1070
     0
1070
   282
1070
     0
1070
   281
1070
     0
1070
    71
1070
     0
1070
    74
1070
     0
1070
   279
1070
     0
1070
   173
1070
     1
1070
   340
1005
3D2
1070
   271
1070
     1
1070
   272
1070
     2
1070
    77
1070
     1
1070
    73
1070
     0
1070
   171
1070
     3
1070
   274
1070
     4
1070
   177
1070
    95
1070
   176
1070
    95
1070
   178
1070
    95
1070
    78
1070
     8
1070
    48
1040
-0.1
1070
    41
1040
3.175
1070
   147
1040
1.75005
1070
    42
1040
1.5875
1070
    44
1040
3.175
1070
   140
1040
3.5001
1002
}
1001
ACAD_DSTYLE_DIM_LINETYPE
1070
   380
1005
16
1001
ACAD_DSTYLE_DIM_EXT1_LINETYPE
1070
   381
1005
16
1001
ACAD_DSTYLE_DIM_EXT2_LINETYPE
1070
   382
1005
16
  0
DIMENSION
  5
3FE
102
{ACAD_REACTORS
330
400
102
}
102
{ACAD_XDICTIONARY
360
3FF
102
}
330
1F
100
AcDbEntity
  8
SK2
370
    13
100
AcDbDimension
  2
_U1
 10
-20.624875
 20
12.8
 30
0.0
 11
-20.624875
 21
0.0
 31
0.0
 70
   160
  1
%%c\C95;25,4
 71
     1
 42
25.6
 52
90.0
  3
Standard
100
AcDbAlignedDimension
 13
6.2
 23
-12.8
 33
0.0
 14
1.0
 24
12.8
 34
0.0
 50
90.0
100
AcDbRotatedDimension
1001
ACAD
1000
DSTYLE
1002
{
1070
   371
1070
    13
1070
   372
1070
    13
1070
     3
1000

1070
   170
1070
     0
1070
   144
1040
1.0
1070
   277
1070
     2
1070
   284
1070
     8
1070
   278
1070
    44
1070
   146
1040
0.907117
1070
   345
1005
16
1070
   347
1005
16
1070
   346
1005
16
1070
   344
1005
0
1070
   343
1005
0
1070
   172
1070
     1
1070
    76
1070
     0
1070
    75
1070
     0
1070
   282
1070
     0
1070
   281
1070
     0
1070
    71
1070
     0
1070
    74
1070
     0
1070
   279
1070
     0
1070
   173
1070
     1
1070
   340
1005
3D2
1070
   271
1070
     1
1070
   272
1070
     2
1070
    77
1070
     1
1070
    73
1070
     0
1070
   171
1070
     3
1070
   274
1070
     4
1070
   177
1070
    95
1070
   176
1070
    95
1070
   178
1070
    95
1070
    78
1070
     8
1070
    48
1040
-0.1
1070
    41
1040
3.175
1070
   147
1040
1.75005
1070
    42
1040
1.5875
1070
    44
1040
3.175
1070
   140
1040
3.5001
1002
}
1001
ACAD_DSTYLE_DIM_LINETYPE
1070
   380
1005
16
1001
ACAD_DSTYLE_DIM_EXT1_LINETYPE
1070
   381
1005
16
1001
ACAD_DSTYLE_DIM_EXT2_LINETYPE
1070
   382
1005
16
  0
DIMENSION
  5
417
102
{ACAD_REACTORS
330
419
102
}
102
{ACAD_XDICTIONARY
360
418
102
}
330
1F
100
AcDbEntity
  8
SK2
370
    13
100
AcDbDimension
  2
_U2
 10
-11.4999
 20
-4.8725
 30
0.0
 11
-11.4999
 21
0.0
 31
0.0
 70
   160
  1
\C95;9,7
 71
     1
 42
9.745
 52
90.0
  3
Standard
100
AcDbAlignedDimension
 13
1.0
 23
4.8725
 33
0.0
 14
1.0
 24
-4.8725
 34
0.0
 50
90.0
100
AcDbRotatedDimension
1001
ACAD
1000
DSTYLE
1002
{
1070
   371
1070
    13
1070
   372
1070
    13
1070
     3
1000

1070
   170
1070
     0
1070
   144
1040
1.0
1070
   277
1070
     2
1070
   284
1070
     8
1070
   278
1070
    44
1070
   146
1040
0.907117
1070
   345
1005
16
1070
   347
1005
16
1070
   346
1005
16
1070
   344
1005
0
1070
   343
1005
0
1070
   172
1070
     1
1070
    76
1070
     0
1070
    75
1070
     0
1070
   282
1070
     0
1070
   281
1070
     0
1070
    71
1070
     0
1070
    74
1070
     0
1070
   279
1070
     0
1070
   173
1070
     1
1070
   340
1005
3D2
1070
   271
1070
     1
1070
   272
1070
     2
1070
    77
1070
     1
1070
    73
1070
     0
1070
   171
1070
     3
1070
   274
1070
     4
1070
   177
1070
    95
1070
   176
1070
    95
1070
   178
1070
    95
1070
    78
1070
     8
1070
    48
1040
-0.1
1070
    41
1040
3.175
1070
   147
1040
1.75005
1070
    42
1040
1.5875
1070
    44
1040
3.175
1070
   140
1040
3.5001
1002
}
1001
ACAD_DSTYLE_DIM_LINETYPE
1070
   380
1005
16
1001
ACAD_DSTYLE_DIM_EXT1_LINETYPE
1070
   381
1005
16
1001
ACAD_DSTYLE_DIM_EXT2_LINETYPE
1070
   382
1005
16
1001
ACAD_DSTYLE_DIM_LINETYPE
1070
   385
1070
     0
1001
ACAD_DSTYLE_DIM_LINETYPE
1070
   386
1070
     3
  0
DIMENSION
  5
430
102
{ACAD_REACTORS
330
432
102
}
102
{ACAD_XDICTIONARY
360
431
102
}
330
1F
100
AcDbEntity
  8
2
370
    13
100
AcDbDimension
  2
_U3
 10
50.0
 20
49.004111
 30
0.0
 11
66.619723
 21
49.004111
 31
0.0
 70
   160
  1
\C254;6,403
 71
     1
 42
6.40276
 52
90.0
  3
Standard
100
AcDbAlignedDimension
 13
43.59724
 23
44.504211
 33
0.0
 14
50.0
 24
39.075
 34
0.0
100
AcDbRotatedDimension
1001
ACAD
1000
DSTYLE
1002
{
1070
   371
1070
    13
1070
   372
1070
    13
1070
     3
1000

1070
   170
1070
     0
1070
   144
1040
1.0
1070
   277
1070
     2
1070
   284
1070
     8
1070
   278
1070
    44
1070
   146
1040
0.907117
1070
   345
1005
16
1070
   347
1005
16
1070
   346
1005
16
1070
   344
1005
0
1070
   343
1005
0
1070
   172
1070
     1
1070
    76
1070
     0
1070
    75
1070
     0
1070
   282
1070
     0
1070
   281
1070
     0
1070
    71
1070
     0
1070
    74
1070
     0
1070
   279
1070
     0
1070
   173
1070
     1
1070
   340
1005
3D2
1070
   271
1070
     1
1070
   272
1070
     2
1070
    77
1070
     1
1070
    73
1070
     1
1070
   171
1070
     3
1070
   274
1070
     4
1070
   177
1070
   254
1070
   176
1070
   254
1070
   178
1070
   254
1070
    78
1070
     8
1070
    48
1040
-0.1
1070
    41
1040
3.175
1070
   147
1040
1.75005
1070
    42
1040
1.5875
1070
    44
1040
3.175
1070
   140
1040
3.5001
1002
}
1001
ACAD_DSTYLE_DIM_LINETYPE
1070
   380
1005
16
1001
ACAD_DSTYLE_DIM_EXT1_LINETYPE
1070
   381
1005
16
1001
ACAD_DSTYLE_DIM_EXT2_LINETYPE
1070
   382
1005
16
  0
DIMENSION
  5
44A
102
{ACAD_REACTORS
330
44C
102
}
102
{ACAD_XDICTIONARY
360
44B
102
}
330
1F
100
AcDbEntity
  8
2
370
    13
100
AcDbDimension
  2
_U4
 10
50.0
 20
58.5749
 30
0.0
 11
25.0
 21
58.5749
 31
0.0
 70
   160
 71
     1
 42
50.0
 52
90.0
  3
Standard
100
AcDbAlignedDimension
 13
0.0
 23
30.0
 33
0.0
 14
50.0
 24
39.075
 34
0.0
100
AcDbRotatedDimension
1001
ACAD
1000
DSTYLE
1002
{
1070
   371
1070
    13
1070
   372
1070
    13
1070
   170
1070
     0
1070
   144
1040
1.0
1070
   277
1070
     2
1070
   284
1070
     8
1070
   278
1070
    44
1070
   146
1040
0.907117
1070
   345
1005
16
1070
   347
1005
16
1070
   346
1005
16
1070
   344
1005
0
1070
   343
1005
0
1070
   172
1070
     1
1070
    76
1070
     0
1070
    75
1070
     0
1070
   282
1070
     0
1070
   281
1070
     0
1070
    71
1070
     0
1070
    74
1070
     0
1070
   279
1070
     0
1070
   173
1070
     1
1070
   340
1005
3D2
1070
   271
1070
     1
1070
   272
1070
     2
1070
    77
1070
     1
1070
    73
1070
     1
1070
   171
1070
     3
1070
   274
1070
     4
1070
   177
1070
   254
1070
   176
1070
   254
1070
   178
1070
   254
1070
    78
1070
     8
1070
    48
1040
-0.1
1070
    41
1040
3.175
1070
   147
1040
1.75005
1070
    42
1040
1.5875
1070
    44
1040
3.175
1070
   140
1040
3.5001
1002
}
1001
ACAD_DSTYLE_DIM_LINETYPE
1070
   380
1005
16
1001
ACAD_DSTYLE_DIM_EXT1_LINETYPE
1070
   381
1005
16
1001
ACAD_DSTYLE_DIM_EXT2_LINETYPE
1070
   382
1005
16
  0
DIMENSION
  5
462
102
{ACAD_REACTORS
330
464
102
}
102
{ACAD_XDICTIONARY
360
463
102
}
330
1F
100
AcDbEntity
  8
SK2
370
    13
100
AcDbDimension
  2
_U5
 10
5.7
 20
-57.5001
 30
0.0
 11
-15.57318
 21
-57.5001
 31
0.0
 70
   160
  1
\C95;5,7
 71
     1
 42
5.7
 52
90.0
  3
Standard
100
AcDbAlignedDimension
 13
0.0
 23
-30.0
 33
0.0
 14
5.7
 24
-4.55368
 34
0.0
100
AcDbRotatedDimension
1001
ACAD
1000
DSTYLE
1002
{
1070
   371
1070
    13
1070
   372
1070
    13
1070
     3
1000

1070
   170
1070
     0
1070
   144
1040
1.0
1070
   277
1070
     2
1070
   284
1070
     8
1070
   278
1070
    44
1070
   146
1040
0.907117
1070
   345
1005
16
1070
   347
1005
16
1070
   346
1005
16
1070
   344
1005
0
1070
   343
1005
0
1070
   172
1070
     1
1070
    76
1070
     0
1070
    75
1070
     0
1070
   282
1070
     0
1070
   281
1070
     0
1070
    71
1070
     0
1070
    74
1070
     0
1070
   279
1070
     0
1070
   173
1070
     1
1070
   340
1005
3D2
1070
   271
1070
     1
1070
   272
1070
     2
1070
    77
1070
     1
1070
    73
1070
     1
1070
   171
1070
     3
1070
   274
1070
     4
1070
   177
1070
    95
1070
   176
1070
    95
1070
   178
1070
    95
1070
    78
1070
     8
1070
    48
1040
-0.1
1070
    41
1040
3.175
1070
   147
1040
1.75005
1070
    42
1040
1.5875
1070
    44
1040
3.175
1070
   140
1040
3.5001
1002
}
1001
ACAD_DSTYLE_DIM_LINETYPE
1070
   380
1005
16
1001
ACAD_DSTYLE_DIM_EXT1_LINETYPE
1070
   381
1005
16
1001
ACAD_DSTYLE_DIM_EXT2_LINETYPE
1070
   382
1005
16
  0
ENDSEC
  0
SECTION
  2
OBJECTS
  0
DICTIONARY
  5
C
330
0
100
AcDbDictionary
281
     1
  3
ACAD_DETAILVIEWSTYLE
350
4DF
  3
ACAD_GROUP
350
D
  3
ACAD_LAYOUT
350
1A
  3
ACAD_MATERIAL
350
43
  3
ACAD_MLEADERSTYLE
350
6B
  3
ACAD_MLINESTYLE
350
17
  3
ACAD_PLOTSETTINGS
350
19
  3
ACAD_PLOTSTYLENAME
350
E
  3
ACAD_SCALELIST
350
47
  3
ACAD_SECTIONVIEWSTYLE
350
4E0
  3
ACAD_TABLESTYLE
350
69
  3
ACAD_VISUALSTYLE
350
2A
  3
ACDB_RECOMPOSE_DATA
350
4DC
  3
AcDbVariableDictionary
350
49C
  0
DICTIONARY
  5
49A
330
8
100
AcDbDictionary
280
     1
281
     1
  3
ACAD_XREC_ROUNDTRIP
360
49B
  0
DICTIONARY
  5
3E5
330
3E4
100
AcDbDictionary
280
     1
281
     1
  3
ACAD_DIMASSOC
360
3E6
  0
DICTIONARY
  5
3FF
330
3FE
100
AcDbDictionary
280
     1
281
     1
  3
ACAD_DIMASSOC
360
400
  0
DICTIONARY
  5
418
330
417
100
AcDbDictionary
280
     1
281
     1
  3
ACAD_DIMASSOC
360
419
  0
DICTIONARY
  5
431
330
430
100
AcDbDictionary
280
     1
281
     1
  3
ACAD_DIMASSOC
360
432
  0
DICTIONARY
  5
44B
330
44A
100
AcDbDictionary
280
     1
281
     1
  3
ACAD_DIMASSOC
360
44C
  0
DICTIONARY
  5
463
330
462
100
AcDbDictionary
280
     1
281
     1
  3
ACAD_DIMASSOC
360
464
  0
DICTIONARY
  5
4DF
102
{ACAD_REACTORS
330
C
102
}
330
C
100
AcDbDictionary
281
     1
  0
DICTIONARY
  5
D
102
{ACAD_REACTORS
330
C
102
}
330
C
100
AcDbDictionary
281
     1
  3
ANNOTATION
350
484
  3
ANNOTATION2
350
485
  0
DICTIONARY
  5
1A
102
{ACAD_REACTORS
330
C
102
}
330
C
100
AcDbDictionary
281
     1
  3
Layout1
350
1E
  3
Layout2
350
26
  3
Model
350
22
  0
DICTIONARY
  5
43
102
{ACAD_REACTORS
330
C
102
}
330
C
100
AcDbDictionary
281
     1
  3
ByBlock
350
45
  3
ByLayer
350
44
  3
Global
350
46
  0
DICTIONARY
  5
6B
102
{ACAD_REACTORS
330
C
102
}
330
C
100
AcDbDictionary
281
     1
  3
Standard
350
6C
  0
DICTIONARY
  5
17
102
{ACAD_REACTORS
330
C
102
}
330
C
100
AcDbDictionary
281
     1
  3
Standard
350
18
  0
DICTIONARY
  5
19
102
{ACAD_REACTORS
330
C
102
}
330
C
100
AcDbDictionary
281
     1
  0
ACDBDICTIONARYWDFLT
  5
E
102
{ACAD_REACTORS
330
C
102
}
330
C
100
AcDbDictionary
281
     1
  3
Normal
350
F
100
AcDbDictionaryWithDefault
340
F
  0
DICTIONARY
  5
47
102
{ACAD_REACTORS
330
C
102
}
330
C
100
AcDbDictionary
281
     1
  3
A0
350
48
  3
A1
350
49
  3
A2
350
4A
  3
A3
350
4B
  3
A4
350
4C
  3
A5
350
4D
  3
A6
350
4E
  3
A7
350
4F
  3
A8
350
50
  3
A9
350
51
  3
B0
350
52
  3
B1
350
53
  3
B2
350
54
  3
B3
350
55
  3
B4
350
56
  3
B5
350
57
  3
B6
350
58
  3
B7
350
59
  3
B8
350
5A
  3
B9
350
5B
  3
C0
350
5C
  3
C1
350
5D
  3
C2
350
5E
  3
C3
350
5F
  3
C4
350
60
  3
C5
350
61
  3
C6
350
62
  3
C7
350
63
  3
C8
350
64
  3
C9
350
65
  3
D0
350
66
  3
D1
350
67
  3
D2
350
68
  0
DICTIONARY
  5
4E0
102
{ACAD_REACTORS
330
C
102
}
330
C
100
AcDbDictionary
281
     1
  0
DICTIONARY
  5
69
102
{ACAD_REACTORS
330
C
102
}
330
C
100
AcDbDictionary
281
     1
  3
Standard
350
6A
  0
DICTIONARY
  5
2A
102
{ACAD_REACTORS
330
C
102
}
330
C
100
AcDbDictionary
281
     1
  3
2dWireframe
350
2F
  3
Basic
350
32
  3
Brighten
350
36
  3
ColorChange
350
3A
  3
Conceptual
350
34
  3
Dim
350
35
  3
EdgeColorOff
350
3D
  3
Facepattern
350
39
  3
Flat
350
2B
  3
FlatWithEdges
350
2C
  3
Gouraud
350
2D
  3
GouraudWithEdges
350
2E
  3
Hidden
350
31
  3
JitterOff
350
3B
  3
Linepattern
350
38
  3
OverhangOff
350
3C
  3
Realistic
350
33
  3
Shaded
350
42
  3
Shaded with edges
350
41
  3
Shades of Gray
350
3E
  3
Sketchy
350
3F
  3
Thicken
350
37
  3
Wireframe
350
30
  3
X-Ray
350
40
  0
XRECORD
  5
4DC
102
{ACAD_REACTORS
330
C
102
}
330
C
100
AcDbXrecord
280
     1
 90
        1
330
6A
  0
DICTIONARY
  5
49C
102
{ACAD_REACTORS
330
C
102
}
330
C
100
AcDbDictionary
281
     1
  3
CANNOSCALE
350
49D
  3
CMLEADERSTYLE
350
4DE
  3
CTABLESTYLE
350
4DD
  3
MSLTSCALE
350
49E
  3
XCLIPFRAME
350
49F
  0
XRECORD
  5
49B
102
{ACAD_REACTORS
330
49A
102
}
330
49A
100
AcDbXrecord
280
     1
102
VTR_0.000_0.000_1.000_1.000_VISUALSTYLE
340
2F
102
VTR_0.000_0.000_1.000_1.000_GRIDDISPLAY
 70
     3
102
VTR_0.000_0.000_1.000_1.000_GRIDMAJOR
 70
     5
102
VTR_0.000_0.000_1.000_1.000_DEFAULTLIGHTING
280
     1
102
VTR_0.000_0.000_1.000_1.000_DEFAULTLIGHTINGTYPE
 70
     1
102
VTR_0.000_0.000_1.000_1.000_BRIGHTNESS
141
0.0
102
VTR_0.000_0.000_1.000_1.000_CONTRAST
142
0.0
102
VTR_0.000_0.000_0.500_1.000_VISUALSTYLE
340
2F
102
VTR_0.000_0.000_0.500_1.000_GRIDDISPLAY
 70
     3
102
VTR_0.000_0.000_0.500_1.000_GRIDMAJOR
 70
     5
102
VTR_0.000_0.000_0.500_1.000_DEFAULTLIGHTING
280
     1
102
VTR_0.000_0.000_0.500_1.000_DEFAULTLIGHTINGTYPE
 70
     1
102
VTR_0.000_0.000_0.500_1.000_BRIGHTNESS
141
0.0
102
VTR_0.000_0.000_0.500_1.000_CONTRAST
142
0.0
102
VTR_0.500_0.000_1.000_1.000_VISUALSTYLE
340
2F
102
VTR_0.500_0.000_1.000_1.000_GRIDDISPLAY
 70
     3
102
VTR_0.500_0.000_1.000_1.000_GRIDMAJOR
 70
     5
102
VTR_0.500_0.000_1.000_1.000_DEFAULTLIGHTING
280
     1
102
VTR_0.500_0.000_1.000_1.000_DEFAULTLIGHTINGTYPE
 70
     1
102
VTR_0.500_0.000_1.000_1.000_BRIGHTNESS
141
0.0
102
VTR_0.500_0.000_1.000_1.000_CONTRAST
142
0.0
102
VTR_0.000_0.500_1.000_1.000_VISUALSTYLE
340
2F
102
VTR_0.000_0.500_1.000_1.000_GRIDDISPLAY
 70
     3
102
VTR_0.000_0.500_1.000_1.000_GRIDMAJOR
 70
     5
102
VTR_0.000_0.500_1.000_1.000_DEFAULTLIGHTING
280
     1
102
VTR_0.000_0.500_1.000_1.000_DEFAULTLIGHTINGTYPE
 70
     1
102
VTR_0.000_0.500_1.000_1.000_BRIGHTNESS
141
0.0
102
VTR_0.000_0.500_1.000_1.000_CONTRAST
142
0.0
102
VTR_0.000_0.000_1.000_0.500_VISUALSTYLE
340
2F
102
VTR_0.000_0.000_1.000_0.500_GRIDDISPLAY
 70
     3
102
VTR_0.000_0.000_1.000_0.500_GRIDMAJOR
 70
     5
102
VTR_0.000_0.000_1.000_0.500_DEFAULTLIGHTING
280
     1
102
VTR_0.000_0.000_1.000_0.500_DEFAULTLIGHTINGTYPE
 70
     1
102
VTR_0.000_0.000_1.000_0.500_BRIGHTNESS
141
0.0
102
VTR_0.000_0.000_1.000_0.500_CONTRAST
142
0.0
102
VTR_0.000_0.500_0.500_1.000_VISUALSTYLE
340
2F
102
VTR_0.000_0.500_0.500_1.000_GRIDDISPLAY
 70
     3
102
VTR_0.000_0.500_0.500_1.000_GRIDMAJOR
 70
     5
102
VTR_0.000_0.500_0.500_1.000_DEFAULTLIGHTING
280
     1
102
VTR_0.000_0.500_0.500_1.000_DEFAULTLIGHTINGTYPE
 70
     1
102
VTR_0.000_0.500_0.500_1.000_BRIGHTNESS
141
0.0
102
VTR_0.000_0.500_0.500_1.000_CONTRAST
142
0.0
102
VTR_0.000_0.000_0.500_0.500_VISUALSTYLE
340
2F
102
VTR_0.000_0.000_0.500_0.500_GRIDDISPLAY
 70
     3
102
VTR_0.000_0.000_0.500_0.500_GRIDMAJOR
 70
     5
102
VTR_0.000_0.000_0.500_0.500_DEFAULTLIGHTING
280
     1
102
VTR_0.000_0.000_0.500_0.500_DEFAULTLIGHTINGTYPE
 70
     1
102
VTR_0.000_0.000_0.500_0.500_BRIGHTNESS
141
0.0
102
VTR_0.000_0.000_0.500_0.500_CONTRAST
142
0.0
102
VTR_0.500_0.000_1.000_0.500_VISUALSTYLE
340
2F
102
VTR_0.500_0.000_1.000_0.500_GRIDDISPLAY
 70
     3
102
VTR_0.500_0.000_1.000_0.500_GRIDMAJOR
 70
     5
102
VTR_0.500_0.000_1.000_0.500_DEFAULTLIGHTING
280
     1
102
VTR_0.500_0.000_1.000_0.500_DEFAULTLIGHTINGTYPE
 70
     1
102
VTR_0.500_0.000_1.000_0.500_BRIGHTNESS
141
0.0
102
VTR_0.500_0.000_1.000_0.500_CONTRAST
142
0.0
102
VTR_0.500_0.500_1.000_1.000_VISUALSTYLE
340
2F
102
VTR_0.500_0.500_1.000_1.000_GRIDDISPLAY
 70
     3
102
VTR_0.500_0.500_1.000_1.000_GRIDMAJOR
 70
     5
102
VTR_0.500_0.500_1.000_1.000_DEFAULTLIGHTING
280
     1
102
VTR_0.500_0.500_1.000_1.000_DEFAULTLIGHTINGTYPE
 70
     1
102
VTR_0.500_0.500_1.000_1.000_BRIGHTNESS
141
0.0
102
VTR_0.500_0.500_1.000_1.000_CONTRAST
142
0.0
102
VTR_0.000_0.500_0.333_1.000_VISUALSTYLE
340
2F
102
VTR_0.000_0.500_0.333_1.000_GRIDDISPLAY
 70
     3
102
VTR_0.000_0.500_0.333_1.000_GRIDMAJOR
 70
     5
102
VTR_0.000_0.500_0.333_1.000_DEFAULTLIGHTING
280
     1
102
VTR_0.000_0.500_0.333_1.000_DEFAULTLIGHTINGTYPE
 70
     1
102
VTR_0.000_0.500_0.333_1.000_BRIGHTNESS
141
0.0
102
VTR_0.000_0.500_0.333_1.000_CONTRAST
142
0.0
102
VTR_0.000_0.000_0.333_0.500_VISUALSTYLE
340
2F
102
VTR_0.000_0.000_0.333_0.500_GRIDDISPLAY
 70
     3
102
VTR_0.000_0.000_0.333_0.500_GRIDMAJOR
 70
     5
102
VTR_0.000_0.000_0.333_0.500_DEFAULTLIGHTING
280
     1
102
VTR_0.000_0.000_0.333_0.500_DEFAULTLIGHTINGTYPE
 70
     1
102
VTR_0.000_0.000_0.333_0.500_BRIGHTNESS
141
0.0
102
VTR_0.000_0.000_0.333_0.500_CONTRAST
142
0.0
102
VTR_0.333_0.500_0.667_1.000_VISUALSTYLE
340
2F
102
VTR_0.333_0.500_0.667_1.000_GRIDDISPLAY
 70
     3
102
VTR_0.333_0.500_0.667_1.000_GRIDMAJOR
 70
     5
102
VTR_0.333_0.500_0.667_1.000_DEFAULTLIGHTING
280
     1
102
VTR_0.333_0.500_0.667_1.000_DEFAULTLIGHTINGTYPE
 70
     1
102
VTR_0.333_0.500_0.667_1.000_BRIGHTNESS
141
0.0
102
VTR_0.333_0.500_0.667_1.000_CONTRAST
142
0.0
102
VTR_0.333_0.000_0.667_0.500_VISUALSTYLE
340
2F
102
VTR_0.333_0.000_0.667_0.500_GRIDDISPLAY
 70
     3
102
VTR_0.333_0.000_0.667_0.500_GRIDMAJOR
 70
     5
102
VTR_0.333_0.000_0.667_0.500_DEFAULTLIGHTING
280
     1
102
VTR_0.333_0.000_0.667_0.500_DEFAULTLIGHTINGTYPE
 70
     1
102
VTR_0.333_0.000_0.667_0.500_BRIGHTNESS
141
0.0
102
VTR_0.333_0.000_0.667_0.500_CONTRAST
142
0.0
102
VTR_0.667_0.500_1.000_1.000_VISUALSTYLE
340
2F
102
VTR_0.667_0.500_1.000_1.000_GRIDDISPLAY
 70
     3
102
VTR_0.667_0.500_1.000_1.000_GRIDMAJOR
 70
     5
102
VTR_0.667_0.500_1.000_1.000_DEFAULTLIGHTING
280
     1
102
VTR_0.667_0.500_1.000_1.000_DEFAULTLIGHTINGTYPE
 70
     1
102
VTR_0.667_0.500_1.000_1.000_BRIGHTNESS
141
0.0
102
VTR_0.667_0.500_1.000_1.000_CONTRAST
142
0.0
102
VTR_0.667_0.000_1.000_0.500_VISUALSTYLE
340
2F
102
VTR_0.667_0.000_1.000_0.500_GRIDDISPLAY
 70
     3
102
VTR_0.667_0.000_1.000_0.500_GRIDMAJOR
 70
     5
102
VTR_0.667_0.000_1.000_0.500_DEFAULTLIGHTING
280
     1
102
VTR_0.667_0.000_1.000_0.500_DEFAULTLIGHTINGTYPE
 70
     1
102
VTR_0.667_0.000_1.000_0.500_BRIGHTNESS
141
0.0
102
VTR_0.667_0.000_1.000_0.500_CONTRAST
142
0.0
  0
DIMASSOC
  5
3E6
102
{ACAD_REACTORS
330
3E5
102
}
330
3E5
100
AcDbDimAssoc
330
3E4
 90
        3
 70
     0
 71
     1
  1
AcDbOsnapPointRef
 72
    13
331
BF
 73
     2
 91
        1
 40
0.0
 10
1.0
 20
-31.0
 30
0.0
 75
     0
  1
AcDbOsnapPointRef
 72
     1
331
C0
 73
     2
 91
        2
 40
1.0
 10
1.0
 20
31.0
 30
0.0
 75
     0
  0
DIMASSOC
  5
400
102
{ACAD_REACTORS
330
3FF
102
}
330
3FF
100
AcDbDimAssoc
330
3FE
 90
        3
 70
     0
 71
     1
  1
AcDbOsnapPointRef
 72
    13
331
25E
 73
     2
 91
        1
 40
0.0
 10
6.2
 20
-12.8
 30
0.0
 75
     0
  1
AcDbOsnapPointRef
 72
     1
331
26A
 73
     2
 91
        2
 40
1.0
 10
1.0
 20
12.8
 30
0.0
 75
     0
  0
DIMASSOC
  5
419
102
{ACAD_REACTORS
330
418
102
}
330
418
100
AcDbDimAssoc
330
417
 90
        3
 70
     0
 71
     1
  1
AcDbOsnapPointRef
 72
    13
331
96
 73
     2
 91
        1
 40
0.0
 10
1.0
 20
4.8725
 30
0.0
 75
     0
  1
AcDbOsnapPointRef
 72
    13
331
C9
 73
     2
 91
        2
 40
0.0
 10
1.0
 20
-4.8725
 30
0.0
 75
     0
  0
DIMASSOC
  5
432
102
{ACAD_REACTORS
330
431
102
}
330
431
100
AcDbDimAssoc
330
430
 90
        3
 70
     0
 71
     1
  1
AcDbOsnapPointRef
 72
     4
331
75
 73
     3
 91
        1
 40
0.0
 10
43.59724
 20
44.504211
 30
0.0
 75
     0
  1
AcDbOsnapPointRef
 72
     1
331
C7
 73
     2
 91
        2
 40
1.0
 10
50.0
 20
39.075
 30
0.0
 75
     0
  0
DIMASSOC
  5
44C
102
{ACAD_REACTORS
330
44B
102
}
330
44B
100
AcDbDimAssoc
330
44A
 90
        3
 70
     0
 71
     1
  1
AcDbOsnapPointRef
 72
    13
331
98
 73
     2
 91
        1
 40
0.0
 10
0.0
 20
30.0
 30
0.0
 75
     0
  1
AcDbOsnapPointRef
 72
     1
331
C7
 73
     2
 91
        2
 40
1.0
 10
50.0
 20
39.075
 30
0.0
 75
     0
  0
DIMASSOC
  5
464
102
{ACAD_REACTORS
330
463
102
}
330
463
100
AcDbDimAssoc
330
462
 90
        3
 70
     0
 71
     1
  1
AcDbOsnapPointRef
 72
    13
331
CA
 73
     2
 91
        1
 40
0.0
 10
0.0
 20
-30.0
 30
0.0
 75
     0
  1
AcDbOsnapPointRef
 72
    13
331
25D
 73
     2
 91
        2
 40
0.0
 10
5.7
 20
-4.55368
 30
0.0
 75
     0
  0
GROUP
  5
484
102
{ACAD_REACTORS
330
D
102
}
330
D
100
AcDbGroup
300

 70
     0
 71
     1
340
3D1
340
3D4
340
26C
340
26D
340
3D8
  0
GROUP
  5
485
102
{ACAD_REACTORS
330
D
102
}
330
D
100
AcDbGroup
300

 70
     0
 71
     1
340
3D9
340
271
340
272
340
3D0
340
3DD
340
3E1
  0
LAYOUT
  5
1E
102
{ACAD_REACTORS
330
1A
102
}
330
1A
100
AcDbPlotSettings
  1

  2
none_device
  4

  6

 40
0.0
 41
0.0
 42
0.0
 43
0.0
 44
0.0
 45
0.0
 46
0.0
 47
0.0
 48
0.0
 49
0.0
140
0.0
141
0.0
142
1.0
143
1.0
 70
   688
 72
     0
 73
     0
 74
     5
  7

 75
    16
 76
     0
 77
     2
 78
   300
147
1.0
148
0.0
149
0.0
100
AcDbLayout
  1
Layout1
 70
     1
 71
     1
 10
-0.5
 20
-0.5
 11
5.0
 21
5.0
 12
0.0
 22
0.0
 32
0.0
 14
-0.5
 24
-0.5
 34
-0.5
 15
5.0
 25
5.0
 35
5.0
146
0.0
 13
0.0
 23
0.0
 33
0.0
 16
1.0
 26
0.0
 36
0.0
 17
0.0
 27
1.0
 37
0.0
 76
     0
330
1B
  0
LAYOUT
  5
26
102
{ACAD_REACTORS
330
1A
102
}
330
1A
100
AcDbPlotSettings
  1

  2
none_device
  4

  6

 40
0.0
 41
0.0
 42
0.0
 43
0.0
 44
0.0
 45
0.0
 46
0.0
 47
0.0
 48
0.0
 49
0.0
140
0.0
141
0.0
142
1.0
143
1.0
 70
   688
 72
     0
 73
     0
 74
     5
  7

 75
    16
 76
     0
 77
     2
 78
   300
147
1.0
148
0.0
149
0.0
100
AcDbLayout
  1
Layout2
 70
     1
 71
     2
 10
0.0
 20
0.0
 11
0.0
 21
0.0
 12
0.0
 22
0.0
 32
0.0
 14
0.0
 24
0.0
 34
0.0
 15
0.0
 25
0.0
 35
0.0
146
0.0
 13
0.0
 23
0.0
 33
0.0
 16
1.0
 26
0.0
 36
0.0
 17
0.0
 27
1.0
 37
0.0
 76
     0
330
23
  0
LAYOUT
  5
22
102
{ACAD_REACTORS
330
1A
102
}
330
1A
100
AcDbPlotSettings
  1

  2
none_device
  4
Letter_(8.50_x_11.00_Inches)
  6

 40
6.35
 41
6.35
 42
6.350005
 43
6.350005
 44
215.9
 45
279.4
 46
0.0
 47
0.0
 48
0.0
 49
0.0
140
0.0
141
0.0
142
1.0
143
1.0
 70
  1712
 72
     0
 73
     0
 74
     0
  7

 75
     0
 76
     0
 77
     2
 78
   300
147
1.0
148
0.0
149
0.0
100
AcDbLayout
  1
Model
 70
     1
 71
     0
 10
-0.5
 20
-0.5
 11
5.0
 21
5.0
 12
0.0
 22
0.0
 32
0.0
 14
-0.5
 24
-0.5
 34
-0.5
 15
5.0
 25
5.0
 35
5.0
146
0.0
 13
0.0
 23
0.0
 33
0.0
 16
1.0
 26
0.0
 36
0.0
 17
0.0
 27
1.0
 37
0.0
 76
     0
330
1F
331
29
  0
MATERIAL
  5
45
102
{ACAD_REACTORS
330
43
102
}
102
{ACAD_XDICTIONARY
360
4D2
102
}
330
43
100
AcDbMaterial
  1
ByBlock
  0
MATERIAL
  5
44
102
{ACAD_REACTORS
330
43
102
}
102
{ACAD_XDICTIONARY
360
4D0
102
}
330
43
100
AcDbMaterial
  1
ByLayer
  0
MATERIAL
  5
46
102
{ACAD_REACTORS
330
43
102
}
102
{ACAD_XDICTIONARY
360
4D4
102
}
330
43
100
AcDbMaterial
  1
Global
  0
MLEADERSTYLE
  5
6C
102
{ACAD_REACTORS
330
6B
102
}
102
{ACAD_XDICTIONARY
360
4DA
102
}
330
6B
100
AcDbMLeaderStyle
170
     2
171
     1
172
     0
 90
        2
 40
0.0
 41
0.0
173
     1
 91
-1056964608
340
14
 92
       -2
290
     1
 42
0.09
291
     1
 43
0.36
  3
Standard
341
0
 44
0.18
300

342
11
174
     1
178
     6
175
     1
176
     0
 93
-1056964608
 45
0.18
292
     0
297
     0
 46
0.18
343
0
 94
-1056964608
 47
1.0
 49
1.0
140
1.0
293
     1
141
0.0
294
     1
177
     0
142
1.0
295
     0
296
     0
143
0.125
1001
ACAD_MLEADERVER
1070
     2
  0
MLINESTYLE
  5
18
102
{ACAD_REACTORS
330
17
102
}
330
17
100
AcDbMlineStyle
  2
Standard
 70
     0
  3

 62
   256
 51
90.0
 52
90.0
 71
     2
 49
0.5
 62
   256
  6
BYLAYER
 49
-0.5
 62
   256
  6
BYLAYER
  0
ACDBPLACEHOLDER
  5
F
102
{ACAD_REACTORS
330
E
102
}
330
E
  0
SCALE
  5
48
102
{ACAD_REACTORS
330
47
102
}
330
47
100
AcDbScale
 70
     0
300
1:1
140
1.0
141
1.0
290
     1
  0
SCALE
  5
49
102
{ACAD_REACTORS
330
47
102
}
330
47
100
AcDbScale
 70
     0
300
1:2
140
1.0
141
2.0
290
     0
  0
SCALE
  5
4A
102
{ACAD_REACTORS
330
47
102
}
330
47
100
AcDbScale
 70
     0
300
1:4
140
1.0
141
4.0
290
     0
  0
SCALE
  5
4B
102
{ACAD_REACTORS
330
47
102
}
330
47
100
AcDbScale
 70
     0
300
1:5
140
1.0
141
5.0
290
     0
  0
SCALE
  5
4C
102
{ACAD_REACTORS
330
47
102
}
330
47
100
AcDbScale
 70
     0
300
1:8
140
1.0
141
8.0
290
     0
  0
SCALE
  5
4D
102
{ACAD_REACTORS
330
47
102
}
330
47
100
AcDbScale
 70
     0
300
1:10
140
1.0
141
10.0
290
     0
  0
SCALE
  5
4E
102
{ACAD_REACTORS
330
47
102
}
330
47
100
AcDbScale
 70
     0
300
1:16
140
1.0
141
16.0
290
     0
  0
SCALE
  5
4F
102
{ACAD_REACTORS
330
47
102
}
330
47
100
AcDbScale
 70
     0
300
1:20
140
1.0
141
20.0
290
     0
  0
SCALE
  5
50
102
{ACAD_REACTORS
330
47
102
}
330
47
100
AcDbScale
 70
     0
300
1:30
140
1.0
141
30.0
290
     0
  0
SCALE
  5
51
102
{ACAD_REACTORS
330
47
102
}
330
47
100
AcDbScale
 70
     0
300
1:40
140
1.0
141
40.0
290
     0
  0
SCALE
  5
52
102
{ACAD_REACTORS
330
47
102
}
330
47
100
AcDbScale
 70
     0
300
1:50
140
1.0
141
50.0
290
     0
  0
SCALE
  5
53
102
{ACAD_REACTORS
330
47
102
}
330
47
100
AcDbScale
 70
     0
300
1:100
140
1.0
141
100.0
290
     0
  0
SCALE
  5
54
102
{ACAD_REACTORS
330
47
102
}
330
47
100
AcDbScale
 70
     0
300
2:1
140
2.0
141
1.0
290
     0
  0
SCALE
  5
55
102
{ACAD_REACTORS
330
47
102
}
330
47
100
AcDbScale
 70
     0
300
4:1
140
4.0
141
1.0
290
     0
  0
SCALE
  5
56
102
{ACAD_REACTORS
330
47
102
}
330
47
100
AcDbScale
 70
     0
300
8:1
140
8.0
141
1.0
290
     0
  0
SCALE
  5
57
102
{ACAD_REACTORS
330
47
102
}
330
47
100
AcDbScale
 70
     0
300
10:1
140
10.0
141
1.0
290
     0
  0
SCALE
  5
58
102
{ACAD_REACTORS
330
47
102
}
330
47
100
AcDbScale
 70
     0
300
100:1
140
100.0
141
1.0
290
     0
  0
SCALE
  5
59
102
{ACAD_REACTORS
330
47
102
}
330
47
100
AcDbScale
 70
     0
300
1/128" = 1'-0"
140
0.007812
141
12.0
290
     0
  0
SCALE
  5
5A
102
{ACAD_REACTORS
330
47
102
}
330
47
100
AcDbScale
 70
     0
300
1/64" = 1'-0"
140
0.015625
141
12.0
290
     0
  0
SCALE
  5
5B
102
{ACAD_REACTORS
330
47
102
}
330
47
100
AcDbScale
 70
     0
300
1/32" = 1'-0"
140
0.03125
141
12.0
290
     0
  0
SCALE
  5
5C
102
{ACAD_REACTORS
330
47
102
}
330
47
100
AcDbScale
 70
     0
300
1/16" = 1'-0"
140
0.0625
141
12.0
290
     0
  0
SCALE
  5
5D
102
{ACAD_REACTORS
330
47
102
}
330
47
100
AcDbScale
 70
     0
300
3/32" = 1'-0"
140
0.09375
141
12.0
290
     0
  0
SCALE
  5
5E
102
{ACAD_REACTORS
330
47
102
}
330
47
100
AcDbScale
 70
     0
300
1/8" = 1'-0"
140
0.125
141
12.0
290
     0
  0
SCALE
  5
5F
102
{ACAD_REACTORS
330
47
102
}
330
47
100
AcDbScale
 70
     0
300
3/16" = 1'-0"
140
0.1875
141
12.0
290
     0
  0
SCALE
  5
60
102
{ACAD_REACTORS
330
47
102
}
330
47
100
AcDbScale
 70
     0
300
1/4" = 1'-0"
140
0.25
141
12.0
290
     0
  0
SCALE
  5
61
102
{ACAD_REACTORS
330
47
102
}
330
47
100
AcDbScale
 70
     0
300
3/8" = 1'-0"
140
0.375
141
12.0
290
     0
  0
SCALE
  5
62
102
{ACAD_REACTORS
330
47
102
}
330
47
100
AcDbScale
 70
     0
300
1/2" = 1'-0"
140
0.5
141
12.0
290
     0
  0
SCALE
  5
63
102
{ACAD_REACTORS
330
47
102
}
330
47
100
AcDbScale
 70
     0
300
3/4" = 1'-0"
140
0.75
141
12.0
290
     0
  0
SCALE
  5
64
102
{ACAD_REACTORS
330
47
102
}
330
47
100
AcDbScale
 70
     0
300
1" = 1'-0"
140
1.0
141
12.0
290
     0
  0
SCALE
  5
65
102
{ACAD_REACTORS
330
47
102
}
330
47
100
AcDbScale
 70
     0
300
1-1/2" = 1'-0"
140
1.5
141
12.0
290
     0
  0
SCALE
  5
66
102
{ACAD_REACTORS
330
47
102
}
330
47
100
AcDbScale
 70
     0
300
3" = 1'-0"
140
3.0
141
12.0
290
     0
  0
SCALE
  5
67
102
{ACAD_REACTORS
330
47
102
}
330
47
100
AcDbScale
 70
     0
300
6" = 1'-0"
140
6.0
141
12.0
290
     0
  0
SCALE
  5
68
102
{ACAD_REACTORS
330
47
102
}
330
47
100
AcDbScale
 70
     0
300
1'-0" = 1'-0"
140
12.0
141
12.0
290
     0
  0
TABLESTYLE
  5
6A
102
{ACAD_REACTORS
330
69
102
}
102
{ACAD_XDICTIONARY
360
4D6
102
}
330
69
100
AcDbTableStyle
  3
Standard
 70
     0
 71
     0
 40
0.06
 41
0.06
280
     0
281
     0
  7
Standard
140
0.18
170
     2
 62
     0
 63
   257
283
     0
274
    -2
284
     1
 64
     0
275
    -2
285
     1
 65
     0
276
    -2
286
     1
 66
     0
277
    -2
287
     1
 67
     0
278
    -2
288
     1
 68
     0
279
    -2
289
     1
 69
     0
  7
Standard
140
0.25
170
     5
 62
     0
 63
   257
283
     0
274
    -2
284
     1
 64
     0
275
    -2
285
     1
 65
     0
276
    -2
286
     1
 66
     0
277
    -2
287
     1
 67
     0
278
    -2
288
     1
 68
     0
279
    -2
289
     1
 69
     0
  7
Standard
140
0.18
170
     5
 62
     0
 63
   257
283
     0
274
    -2
284
     1
 64
     0
275
    -2
285
     1
 65
     0
276
    -2
286
     1
 66
     0
277
    -2
287
     1
 67
     0
278
    -2
288
     1
 68
     0
279
    -2
289
     1
 69
     0
  0
VISUALSTYLE
  5
2F
102
{ACAD_REACTORS
330
2A
102
}
102
{ACAD_XDICTIONARY
360
4A8
102
}
330
2A
100
AcDbVisualStyle
  2
2dWireframe
 70
     4
 71
     0
 72
     2
 73
     0
 90
        0
 40
0.6
 41
30.0
 62
     5
 63
     7
421
 16777215
 74
     1
 91
        4
 64
     7
 65
   257
 75
     1
175
     1
 42
1.0
 92
        0
 66
   257
 43
1.0
 76
     1
 77
     6
 78
     2
 67
     7
 79
     5
170
     0
171
     0
290
     0
174
     0
 93
        1
 44
0.0
173
     0
291
     0
 45
0.0
1001
ACAD
1000
AcDbSavedByObjectVersion
1070
     0
  0
VISUALSTYLE
  5
32
102
{ACAD_REACTORS
330
2A
102
}
102
{ACAD_XDICTIONARY
360
4AE
102
}
330
2A
100
AcDbVisualStyle
  2
Basic
 70
     7
 71
     1
 72
     0
 73
     1
 90
        0
 40
0.6
 41
30.0
 62
     5
 63
     7
421
 16777215
 74
     0
 91
        4
 64
     7
 65
   257
 75
     1
175
     1
 42
1.0
 92
        8
 66
     7
 43
1.0
 76
     1
 77
     6
 78
     2
 67
     7
 79
     5
170
     0
171
     0
290
     0
174
     0
 93
        1
 44
0.0
173
     0
291
     1
 45
0.0
1001
ACAD
1000
AcDbSavedByObjectVersion
1070
     0
  0
VISUALSTYLE
  5
36
102
{ACAD_REACTORS
330
2A
102
}
102
{ACAD_XDICTIONARY
360
4B6
102
}
330
2A
100
AcDbVisualStyle
  2
Brighten
 70
    12
 71
     2
 72
     2
 73
     0
 90
        0
 40
0.6
 41
30.0
 62
     5
 63
     7
421
 16777215
 74
     1
 91
        4
 64
     7
 65
   257
 75
     1
175
     1
 42
1.0
 92
        8
 66
     7
 43
1.0
 76
     1
 77
     6
 78
     2
 67
     7
 79
     5
170
     0
171
     0
290
     0
174
     0
 93
        1
 44
50.0
173
     0
291
     1
 45
0.0
1001
ACAD
1000
AcDbSavedByObjectVersion
1070
     0
  0
VISUALSTYLE
  5
3A
102
{ACAD_REACTORS
330
2A
102
}
102
{ACAD_XDICTIONARY
360
4BE
102
}
330
2A
100
AcDbVisualStyle
  2
ColorChange
 70
    16
 71
     2
 72
     2
 73
     3
 90
        0
 40
0.6
 41
30.0
 62
     5
 63
     8
421
  8421504
 74
     1
 91
        4
 64
     7
 65
   257
 75
     1
175
     1
 42
1.0
 92
        8
 66
     8
424
  8421504
 43
1.0
 76
     1
 77
     6
 78
     2
 67
     7
 79
     5
170
     0
171
     0
290
     0
174
     0
 93
        1
 44
0.0
173
     0
291
     1
 45
0.0
1001
ACAD
1000
AcDbSavedByObjectVersion
1070
     0
  0
VISUALSTYLE
  5
34
102
{ACAD_REACTORS
330
2A
102
}
102
{ACAD_XDICTIONARY
360
4B2
102
}
330
2A
100
AcDbVisualStyle
  2
Conceptual
 70
     9
 71
     3
 72
     2
 73
     0
 90
        0
 40
0.6
 41
30.0
 62
     5
 63
     7
421
 16777215
 74
     2
 91
        2
 64
     7
 65
   257
 75
     1
175
     1
 42
179.0
 92
        8
 66
     7
 43
1.0
 76
     1
 77
     6
 78
     2
 67
     7
 79
     3
170
     0
171
     0
290
     0
174
     0
 93
        1
 44
0.0
173
     0
291
     0
 45
0.0
1001
ACAD
1000
AcDbSavedByObjectVersion
1070
     0
  0
VISUALSTYLE
  5
35
102
{ACAD_REACTORS
330
2A
102
}
102
{ACAD_XDICTIONARY
360
4B4
102
}
330
2A
100
AcDbVisualStyle
  2
Dim
 70
    11
 71
     2
 72
     2
 73
     0
 90
        0
 40
0.6
 41
30.0
 62
     5
 63
     7
421
 16777215
 74
     1
 91
        4
 64
     7
 65
   257
 75
     1
175
     1
 42
1.0
 92
        8
 66
     7
 43
1.0
 76
     1
 77
     6
 78
     2
 67
     7
 79
     5
170
     0
171
     0
290
     0
174
     0
 93
        1
 44
-50.0
173
     0
291
     1
 45
0.0
1001
ACAD
1000
AcDbSavedByObjectVersion
1070
     0
  0
VISUALSTYLE
  5
3D
102
{ACAD_REACTORS
330
2A
102
}
102
{ACAD_XDICTIONARY
360
4C4
102
}
330
2A
100
AcDbVisualStyle
  2
EdgeColorOff
 70
    22
 71
     2
 72
     2
 73
     0
 90
        0
 40
0.6
 41
30.0
 62
     5
 63
     7
421
 16777215
 74
     1
 91
        4
 64
     7
 65
   257
 75
     1
175
     1
 42
1.0
 92
        8
 66
     7
 43
1.0
 76
     1
 77
     6
 78
     2
 67
     7
 79
     5
170
     0
171
     0
290
     0
174
     0
 93
        1
 44
0.0
173
     0
291
     1
 45
0.0
1001
ACAD
1000
AcDbSavedByObjectVersion
1070
     0
  0
VISUALSTYLE
  5
39
102
{ACAD_REACTORS
330
2A
102
}
102
{ACAD_XDICTIONARY
360
4BC
102
}
330
2A
100
AcDbVisualStyle
  2
Facepattern
 70
    15
 71
     2
 72
     2
 73
     0
 90
        0
 40
0.6
 41
30.0
 62
     5
 63
     7
421
 16777215
 74
     1
 91
        4
 64
     7
 65
   257
 75
     1
175
     1
 42
1.0
 92
        8
 66
     7
 43
1.0
 76
     1
 77
     6
 78
     2
 67
     7
 79
     5
170
     0
171
     0
290
     0
174
     0
 93
        1
 44
0.0
173
     0
291
     1
 45
0.0
1001
ACAD
1000
AcDbSavedByObjectVersion
1070
     0
  0
VISUALSTYLE
  5
2B
102
{ACAD_REACTORS
330
2A
102
}
102
{ACAD_XDICTIONARY
360
4A0
102
}
330
2A
100
AcDbVisualStyle
  2
Flat
 70
     0
 71
     2
 72
     1
 73
     1
 90
        2
 40
0.6
 41
30.0
 62
     5
 63
     7
421
 16777215
 74
     0
 91
        0
 64
     7
 65
   257
 75
     1
175
     1
 42
1.0
 92
        8
 66
     7
 43
1.0
 76
     1
 77
     6
 78
     2
 67
     7
 79
     5
170
     0
171
     0
290
     0
174
     0
 93
       13
 44
0.0
173
     0
291
     1
 45
0.0
1001
ACAD
1000
AcDbSavedByObjectVersion
1070
     0
  0
VISUALSTYLE
  5
2C
102
{ACAD_REACTORS
330
2A
102
}
102
{ACAD_XDICTIONARY
360
4A2
102
}
330
2A
100
AcDbVisualStyle
  2
FlatWithEdges
 70
     1
 71
     2
 72
     1
 73
     1
 90
        2
 40
0.6
 41
30.0
 62
     5
 63
     7
421
 16777215
 74
     1
 91
        0
 64
     7
 65
   257
 75
     1
175
     1
 42
1.0
 92
        0
 66
   257
 43
1.0
 76
     1
 77
     6
 78
     2
 67
     7
 79
     5
170
     0
171
     0
290
     0
174
     0
 93
       13
 44
0.0
173
     0
291
     1
 45
0.0
1001
ACAD
1000
AcDbSavedByObjectVersion
1070
     0
  0
VISUALSTYLE
  5
2D
102
{ACAD_REACTORS
330
2A
102
}
102
{ACAD_XDICTIONARY
360
4A4
102
}
330
2A
100
AcDbVisualStyle
  2
Gouraud
 70
     2
 71
     2
 72
     2
 73
     1
 90
        2
 40
0.6
 41
30.0
 62
     5
 63
     7
421
 16777215
 74
     0
 91
        0
 64
     7
 65
   257
 75
     1
175
     1
 42
1.0
 92
        0
 66
     7
 43
1.0
 76
     1
 77
     6
 78
     2
 67
     7
 79
     5
170
     0
171
     0
290
     0
174
     0
 93
       13
 44
0.0
173
     0
291
     1
 45
0.0
1001
ACAD
1000
AcDbSavedByObjectVersion
1070
     0
  0
VISUALSTYLE
  5
2E
102
{ACAD_REACTORS
330
2A
102
}
102
{ACAD_XDICTIONARY
360
4A6
102
}
330
2A
100
AcDbVisualStyle
  2
GouraudWithEdges
 70
     3
 71
     2
 72
     2
 73
     1
 90
        2
 40
0.6
 41
30.0
 62
     5
 63
     7
421
 16777215
 74
     1
 91
        0
 64
     7
 65
   257
 75
     1
175
     1
 42
1.0
 92
        0
 66
   257
 43
1.0
 76
     1
 77
     6
 78
     2
 67
     7
 79
     5
170
     0
171
     0
290
     0
174
     0
 93
       13
 44
0.0
173
     0
291
     1
 45
0.0
1001
ACAD
1000
AcDbSavedByObjectVersion
1070
     0
  0
VISUALSTYLE
  5
31
102
{ACAD_REACTORS
330
2A
102
}
102
{ACAD_XDICTIONARY
360
4AC
102
}
330
2A
100
AcDbVisualStyle
  2
Hidden
 70
     6
 71
     1
 72
     2
 73
     2
 90
        0
 40
0.6
 41
30.0
 62
     5
 63
     7
421
 16777215
 74
     2
 91
        2
 64
     7
 65
   257
 75
     2
175
     1
 42
40.0
 92
        0
 66
   257
 43
1.0
 76
     1
 77
     6
 78
     2
 67
     7
 79
     3
170
     0
171
     0
290
     0
174
     0
 93
        1
 44
0.0
173
     0
291
     0
 45
0.0
1001
ACAD
1000
AcDbSavedByObjectVersion
1070
     0
  0
VISUALSTYLE
  5
3B
102
{ACAD_REACTORS
330
2A
102
}
102
{ACAD_XDICTIONARY
360
4C0
102
}
330
2A
100
AcDbVisualStyle
  2
JitterOff
 70
    20
 71
     2
 72
     2
 73
     0
 90
        0
 40
0.6
 41
30.0
 62
     5
 63
     7
421
 16777215
 74
     1
 91
        4
 64
     7
 65
   257
 75
     1
175
     1
 42
1.0
 92
       10
 66
     7
 43
1.0
 76
     1
 77
     6
 78
     2
 67
     7
 79
     5
170
     0
171
     0
290
     0
174
     0
 93
        1
 44
0.0
173
     0
291
     1
 45
0.0
1001
ACAD
1000
AcDbSavedByObjectVersion
1070
     0
  0
VISUALSTYLE
  5
38
102
{ACAD_REACTORS
330
2A
102
}
102
{ACAD_XDICTIONARY
360
4BA
102
}
330
2A
100
AcDbVisualStyle
  2
Linepattern
 70
    14
 71
     2
 72
     2
 73
     0
 90
        0
 40
0.6
 41
30.0
 62
     5
 63
     7
421
 16777215
 74
     1
 91
        4
 64
     7
 65
   257
 75
     7
175
     7
 42
1.0
 92
        8
 66
     7
 43
1.0
 76
     1
 77
     6
 78
     2
 67
     7
 79
     5
170
     0
171
     0
290
     0
174
     0
 93
        1
 44
0.0
173
     0
291
     1
 45
0.0
1001
ACAD
1000
AcDbSavedByObjectVersion
1070
     0
  0
VISUALSTYLE
  5
3C
102
{ACAD_REACTORS
330
2A
102
}
102
{ACAD_XDICTIONARY
360
4C2
102
}
330
2A
100
AcDbVisualStyle
  2
OverhangOff
 70
    21
 71
     2
 72
     2
 73
     0
 90
        0
 40
0.6
 41
30.0
 62
     5
 63
     7
421
 16777215
 74
     1
 91
        4
 64
     7
 65
   257
 75
     1
175
     1
 42
1.0
 92
        9
 66
     7
 43
1.0
 76
     1
 77
     6
 78
     2
 67
     7
 79
     5
170
     0
171
     0
290
     0
174
     0
 93
        1
 44
0.0
173
     0
291
     1
 45
0.0
1001
ACAD
1000
AcDbSavedByObjectVersion
1070
     0
  0
VISUALSTYLE
  5
33
102
{ACAD_REACTORS
330
2A
102
}
102
{ACAD_XDICTIONARY
360
4B0
102
}
330
2A
100
AcDbVisualStyle
  2
Realistic
 70
     8
 71
     2
 72
     3
 73
     0
 90
        2
 40
0.6
 41
30.0
 62
     5
 63
     7
421
 16777215
 74
     0
 91
        0
 64
     7
 65
   257
 75
     1
175
     1
 42
1.0
 92
        8
 66
   257
 43
1.0
 76
     1
 77
     6
 78
     2
 67
     7
 79
     3
170
     0
171
     0
290
     0
174
     0
 93
       13
 44
0.0
173
     0
291
     0
 45
0.0
1001
ACAD
1000
AcDbSavedByObjectVersion
1070
     0
  0
VISUALSTYLE
  5
42
102
{ACAD_REACTORS
330
2A
102
}
102
{ACAD_XDICTIONARY
360
4CE
102
}
330
2A
100
AcDbVisualStyle
  2
Shaded
 70
    27
 71
     2
 72
     2
 73
     1
 90
        2
 40
0.6
 41
30.0
 62
     5
 63
     7
421
 16777215
 74
     0
 91
        4
 64
     7
 65
   257
 75
     1
175
     1
 42
1.0
 92
        8
 66
   257
 43
1.0
 76
     1
 77
     6
 78
     2
 67
     8
425
  7895160
 79
     3
170
     0
171
     0
290
     0
174
     0
 93
        5
 44
0.0
173
     0
291
     0
 45
0.0
1001
ACAD
1000
AcDbSavedByObjectVersion
1070
     0
  0
VISUALSTYLE
  5
41
102
{ACAD_REACTORS
330
2A
102
}
102
{ACAD_XDICTIONARY
360
4CC
102
}
330
2A
100
AcDbVisualStyle
  2
Shaded with edges
 70
    26
 71
     2
 72
     2
 73
     1
 90
        2
 40
0.6
 41
30.0
 62
     5
 63
     7
421
 16777215
 74
     1
 91
       10
 64
     7
 65
   257
 75
     2
175
     1
 42
1.0
 92
        8
 66
   257
 43
1.0
 76
     1
 77
     6
 78
     2
 67
     7
 79
     3
170
     0
171
     0
290
     0
174
     0
 93
        5
 44
0.0
173
     0
291
     0
 45
0.0
1001
ACAD
1000
AcDbSavedByObjectVersion
1070
     0
  0
VISUALSTYLE
  5
3E
102
{ACAD_REACTORS
330
2A
102
}
102
{ACAD_XDICTIONARY
360
4C6
102
}
330
2A
100
AcDbVisualStyle
  2
Shades of Gray
 70
    23
 71
     2
 72
     2
 73
     3
 90
        0
 40
0.6
 41
30.0
 62
     5
 63
     7
421
 16777215
 74
     2
 91
        2
 64
     7
 65
     7
 75
     1
175
     1
 42
40.0
 92
        8
 66
     7
 43
1.0
 76
     1
 77
     6
 78
     2
 67
     7
 79
     3
170
     0
171
     0
290
     0
174
     0
 93
        1
 44
0.0
173
     0
291
     0
 45
0.0
1001
ACAD
1000
AcDbSavedByObjectVersion
1070
     0
  0
VISUALSTYLE
  5
3F
102
{ACAD_REACTORS
330
2A
102
}
102
{ACAD_XDICTIONARY
360
4C8
102
}
330
2A
100
AcDbVisualStyle
  2
Sketchy
 70
    24
 71
     1
 72
     2
 73
     2
 90
        0
 40
0.6
 41
30.0
 62
     5
 63
     7
421
 16777215
 74
     2
 91
        2
 64
     7
 65
     7
 75
     1
175
     1
 42
40.0
 92
       11
 66
     7
 43
1.0
 76
     1
 77
     6
 78
     2
 67
     7
 79
     6
170
     0
171
     0
290
     0
174
     0
 93
        1
 44
0.0
173
     0
291
     0
 45
0.0
1001
ACAD
1000
AcDbSavedByObjectVersion
1070
     0
  0
VISUALSTYLE
  5
37
102
{ACAD_REACTORS
330
2A
102
}
102
{ACAD_XDICTIONARY
360
4B8
102
}
330
2A
100
AcDbVisualStyle
  2
Thicken
 70
    13
 71
     2
 72
     2
 73
     0
 90
        0
 40
0.6
 41
30.0
 62
     5
 63
     7
421
 16777215
 74
     1
 91
        4
 64
     7
 65
   257
 75
     1
175
     1
 42
1.0
 92
       12
 66
     7
 43
1.0
 76
     1
 77
     6
 78
     2
 67
     7
 79
     5
170
     0
171
     0
290
     0
174
     0
 93
        1
 44
0.0
173
     0
291
     1
 45
0.0
1001
ACAD
1000
AcDbSavedByObjectVersion
1070
     0
  0
VISUALSTYLE
  5
30
102
{ACAD_REACTORS
330
2A
102
}
102
{ACAD_XDICTIONARY
360
4AA
102
}
330
2A
100
AcDbVisualStyle
  2
Wireframe
 70
     5
 71
     0
 72
     2
 73
     0
 90
        0
 40
0.6
 41
30.0
 62
     5
 63
     7
421
 16777215
 74
     1
 91
        4
 64
     7
 65
   257
 75
     1
175
     1
 42
1.0
 92
        0
 66
   257
 43
1.0
 76
     1
 77
     6
 78
     2
 67
     7
 79
     3
170
     0
171
     0
290
     0
174
     0
 93
        1
 44
0.0
173
     0
291
     0
 45
0.0
1001
ACAD
1000
AcDbSavedByObjectVersion
1070
     0
  0
VISUALSTYLE
  5
40
102
{ACAD_REACTORS
330
2A
102
}
102
{ACAD_XDICTIONARY
360
4CA
102
}
330
2A
100
AcDbVisualStyle
  2
X-Ray
 70
    25
 71
     2
 72
     2
 73
     1
 90
        1
 40
0.5
 41
30.0
 62
     5
 63
     7
421
 16777215
 74
     1
 91
        0
 64
     7
 65
   257
 75
     1
175
     1
 42
1.0
 92
        8
 66
     7
 43
1.0
 76
     1
 77
     6
 78
     2
 67
     7
 79
     3
170
     0
171
     0
290
     0
174
     0
 93
       13
 44
0.0
173
     0
291
     0
 45
0.0
1001
ACAD
1000
AcDbSavedByObjectVersion
1070
     0
  0
DICTIONARYVAR
  5
49D
102
{ACAD_REACTORS
330
49C
102
}
330
49C
100
DictionaryVariables
280
     0
  1
1:1
  0
DICTIONARYVAR
  5
4DE
102
{ACAD_REACTORS
330
49C
102
}
330
49C
100
DictionaryVariables
280
     0
  1
Standard
  0
DICTIONARYVAR
  5
4DD
102
{ACAD_REACTORS
330
49C
102
}
330
49C
100
DictionaryVariables
280
     0
  1
Standard
  0
DICTIONARYVAR
  5
49E
102
{ACAD_REACTORS
330
49C
102
}
330
49C
100
DictionaryVariables
280
     0
  1
1
  0
DICTIONARYVAR
  5
49F
102
{ACAD_REACTORS
330
49C
102
}
330
49C
100
DictionaryVariables
280
     0
  1
2
  0
DICTIONARY
  5
4D2
330
45
100
AcDbDictionary
280
     1
281
     1
  3
ACAD_XREC_ROUNDTRIP
360
4D3
  0
DICTIONARY
  5
4D0
330
44
100
AcDbDictionary
280
     1
281
     1
  3
ACAD_XREC_ROUNDTRIP
360
4D1
  0
DICTIONARY
  5
4D4
330
46
100
AcDbDictionary
280
     1
281
     1
  3
ACAD_XREC_ROUNDTRIP
360
4D5
  0
DICTIONARY
  5
4DA
330
6C
100
AcDbDictionary
280
     1
281
     1
  3
ACAD_XREC_ROUNDTRIP
360
4DB
  0
DICTIONARY
  5
4D6
330
6A
100
AcDbDictionary
280
     1
281
     1
  3
ACAD_ROUNDTRIP_2008_TABLESTYLE_CELLSTYLEMAP
360
4D8
  3
ACAD_XREC_ROUNDTRIP
360
4D7
  0
DICTIONARY
  5
4A8
330
2F
100
AcDbDictionary
280
     1
281
     1
  3
ACAD_XREC_ROUNDTRIP
360
4A9
  0
DICTIONARY
  5
4AE
330
32
100
AcDbDictionary
280
     1
281
     1
  3
ACAD_XREC_ROUNDTRIP
360
4AF
  0
DICTIONARY
  5
4B6
330
36
100
AcDbDictionary
280
     1
281
     1
  3
ACAD_XREC_ROUNDTRIP
360
4B7
  0
DICTIONARY
  5
4BE
330
3A
100
AcDbDictionary
280
     1
281
     1
  3
ACAD_XREC_ROUNDTRIP
360
4BF
  0
DICTIONARY
  5
4B2
330
34
100
AcDbDictionary
280
     1
281
     1
  3
ACAD_XREC_ROUNDTRIP
360
4B3
  0
DICTIONARY
  5
4B4
330
35
100
AcDbDictionary
280
     1
281
     1
  3
ACAD_XREC_ROUNDTRIP
360
4B5
  0
DICTIONARY
  5
4C4
330
3D
100
AcDbDictionary
280
     1
281
     1
  3
ACAD_XREC_ROUNDTRIP
360
4C5
  0
DICTIONARY
  5
4BC
330
39
100
AcDbDictionary
280
     1
281
     1
  3
ACAD_XREC_ROUNDTRIP
360
4BD
  0
DICTIONARY
  5
4A0
330
2B
100
AcDbDictionary
280
     1
281
     1
  3
ACAD_XREC_ROUNDTRIP
360
4A1
  0
DICTIONARY
  5
4A2
330
2C
100
AcDbDictionary
280
     1
281
     1
  3
ACAD_XREC_ROUNDTRIP
360
4A3
  0
DICTIONARY
  5
4A4
330
2D
100
AcDbDictionary
280
     1
281
     1
  3
ACAD_XREC_ROUNDTRIP
360
4A5
  0
DICTIONARY
  5
4A6
330
2E
100
AcDbDictionary
280
     1
281
     1
  3
ACAD_XREC_ROUNDTRIP
360
4A7
  0
DICTIONARY
  5
4AC
330
31
100
AcDbDictionary
280
     1
281
     1
  3
ACAD_XREC_ROUNDTRIP
360
4AD
  0
DICTIONARY
  5
4C0
330
3B
100
AcDbDictionary
280
     1
281
     1
  3
ACAD_XREC_ROUNDTRIP
360
4C1
  0
DICTIONARY
  5
4BA
330
38
100
AcDbDictionary
280
     1
281
     1
  3
ACAD_XREC_ROUNDTRIP
360
4BB
  0
DICTIONARY
  5
4C2
330
3C
100
AcDbDictionary
280
     1
281
     1
  3
ACAD_XREC_ROUNDTRIP
360
4C3
  0
DICTIONARY
  5
4B0
330
33
100
AcDbDictionary
280
     1
281
     1
  3
ACAD_XREC_ROUNDTRIP
360
4B1
  0
DICTIONARY
  5
4CE
330
42
100
AcDbDictionary
280
     1
281
     1
  3
ACAD_XREC_ROUNDTRIP
360
4CF
  0
DICTIONARY
  5
4CC
330
41
100
AcDbDictionary
280
     1
281
     1
  3
ACAD_XREC_ROUNDTRIP
360
4CD
  0
DICTIONARY
  5
4C6
330
3E
100
AcDbDictionary
280
     1
281
     1
  3
ACAD_XREC_ROUNDTRIP
360
4C7
  0
DICTIONARY
  5
4C8
330
3F
100
AcDbDictionary
280
     1
281
     1
  3
ACAD_XREC_ROUNDTRIP
360
4C9
  0
DICTIONARY
  5
4B8
330
37
100
AcDbDictionary
280
     1
281
     1
  3
ACAD_XREC_ROUNDTRIP
360
4B9
  0
DICTIONARY
  5
4AA
330
30
100
AcDbDictionary
280
     1
281
     1
  3
ACAD_XREC_ROUNDTRIP
360
4AB
  0
DICTIONARY
  5
4CA
330
40
100
AcDbDictionary
280
     1
281
     1
  3
ACAD_XREC_ROUNDTRIP
360
4CB
  0
XRECORD
  5
4D3
102
{ACAD_REACTORS
330
4D2
102
}
330
4D2
100
AcDbXrecord
280
     1
102
MATERIAL
148
0.0
149
0.0
149
0.0
 93
        0
 94
      127
282
     0
 72
     1
 77
     1
171
     1
175
     1
179
     1
273
     0
  0
XRECORD
  5
4D1
102
{ACAD_REACTORS
330
4D0
102
}
330
4D0
100
AcDbXrecord
280
     1
102
MATERIAL
148
0.0
149
0.0
149
0.0
 93
        0
 94
      127
282
     0
 72
     1
 77
     1
171
     1
175
     1
179
     1
273
     0
  0
XRECORD
  5
4D5
102
{ACAD_REACTORS
330
4D4
102
}
330
4D4
100
AcDbXrecord
280
     1
102
MATERIAL
148
0.0
149
0.0
149
0.0
 93
        0
 94
      127
282
     0
 72
     1
 77
     1
171
     1
175
     1
179
     1
273
     0
  0
XRECORD
  5
4DB
102
{ACAD_REACTORS
330
4DA
102
}
330
4DA
100
AcDbXrecord
280
     1
102
ACAD_ROUNDTRIP_2010_MLEADER_STYLE
  0
CELLSTYLEMAP
  5
4D8
102
{ACAD_REACTORS
330
4D6
102
}
330
4D6
100
AcDbCellStyleMap
 90
        3
300
CELLSTYLE
  1
TABLEFORMAT_BEGIN
 90
        5
170
     1
 91
        0
 92
    32768
 62
   257
 93
        1
300
CONTENTFORMAT
  1
CONTENTFORMAT_BEGIN
 90
        0
 91
        0
 92
        4
 93
        0
300

 40
0.0
140
1.0
 94
        5
 62
     0
340
11
144
0.25
309
CONTENTFORMAT_END
171
     1
301
MARGIN
  1
CELLMARGIN_BEGIN
 40
0.06
 40
0.06
 40
0.06
 40
0.06
 40
0.06
 40
0.06
309
CELLMARGIN_END
 94
        6
 95
        1
302
GRIDFORMAT
  1
GRIDFORMAT_BEGIN
 90
        0
 91
        1
 62
     0
 92
       -2
340
14
 93
        0
 40
0.045
309
GRIDFORMAT_END
 95
        2
302
GRIDFORMAT
  1
GRIDFORMAT_BEGIN
 90
        0
 91
        1
 62
     0
 92
       -2
340
14
 93
        0
 40
0.045
309
GRIDFORMAT_END
 95
        4
302
GRIDFORMAT
  1
GRIDFORMAT_BEGIN
 90
        0
 91
        1
 62
     0
 92
       -2
340
14
 93
        0
 40
0.045
309
GRIDFORMAT_END
 95
        8
302
GRIDFORMAT
  1
GRIDFORMAT_BEGIN
 90
        0
 91
        1
 62
     0
 92
       -2
340
14
 93
        0
 40
0.045
309
GRIDFORMAT_END
 95
       16
302
GRIDFORMAT
  1
GRIDFORMAT_BEGIN
 90
        0
 91
        1
 62
     0
 92
       -2
340
14
 93
        0
 40
0.045
309
GRIDFORMAT_END
 95
       32
302
GRIDFORMAT
  1
GRIDFORMAT_BEGIN
 90
        0
 91
        1
 62
     0
 92
       -2
340
14
 93
        0
 40
0.045
309
GRIDFORMAT_END
309
TABLEFORMAT_END
  1
CELLSTYLE_BEGIN
 90
        1
 91
        1
300
_TITLE
309
CELLSTYLE_END
300
CELLSTYLE
  1
TABLEFORMAT_BEGIN
 90
        5
170
     1
 91
        0
 92
        0
 62
   257
 93
        1
300
CONTENTFORMAT
  1
CONTENTFORMAT_BEGIN
 90
        0
 91
        0
 92
        4
 93
        0
300

 40
0.0
140
1.0
 94
        5
 62
     0
340
11
144
0.18
309
CONTENTFORMAT_END
171
     1
301
MARGIN
  1
CELLMARGIN_BEGIN
 40
0.06
 40
0.06
 40
0.06
 40
0.06
 40
0.06
 40
0.06
309
CELLMARGIN_END
 94
        6
 95
        1
302
GRIDFORMAT
  1
GRIDFORMAT_BEGIN
 90
        0
 91
        1
 62
     0
 92
       -2
340
14
 93
        0
 40
0.045
309
GRIDFORMAT_END
 95
        2
302
GRIDFORMAT
  1
GRIDFORMAT_BEGIN
 90
        0
 91
        1
 62
     0
 92
       -2
340
14
 93
        0
 40
0.045
309
GRIDFORMAT_END
 95
        4
302
GRIDFORMAT
  1
GRIDFORMAT_BEGIN
 90
        0
 91
        1
 62
     0
 92
       -2
340
14
 93
        0
 40
0.045
309
GRIDFORMAT_END
 95
        8
302
GRIDFORMAT
  1
GRIDFORMAT_BEGIN
 90
        0
 91
        1
 62
     0
 92
       -2
340
14
 93
        0
 40
0.045
309
GRIDFORMAT_END
 95
       16
302
GRIDFORMAT
  1
GRIDFORMAT_BEGIN
 90
        0
 91
        1
 62
     0
 92
       -2
340
14
 93
        0
 40
0.045
309
GRIDFORMAT_END
 95
       32
302
GRIDFORMAT
  1
GRIDFORMAT_BEGIN
 90
        0
 91
        1
 62
     0
 92
       -2
340
14
 93
        0
 40
0.045
309
GRIDFORMAT_END
309
TABLEFORMAT_END
  1
CELLSTYLE_BEGIN
 90
        2
 91
        1
300
_HEADER
309
CELLSTYLE_END
300
CELLSTYLE
  1
TABLEFORMAT_BEGIN
 90
        5
170
     1
 91
        0
 92
        0
 62
   257
 93
        1
300
CONTENTFORMAT
  1
CONTENTFORMAT_BEGIN
 90
        0
 91
        0
 92
        4
 93
        0
300

 40
0.0
140
1.0
 94
        2
 62
     0
340
11
144
0.18
309
CONTENTFORMAT_END
171
     1
301
MARGIN
  1
CELLMARGIN_BEGIN
 40
0.06
 40
0.06
 40
0.06
 40
0.06
 40
0.06
 40
0.06
309
CELLMARGIN_END
 94
        6
 95
        1
302
GRIDFORMAT
  1
GRIDFORMAT_BEGIN
 90
        0
 91
        1
 62
     0
 92
       -2
340
14
 93
        0
 40
0.045
309
GRIDFORMAT_END
 95
        2
302
GRIDFORMAT
  1
GRIDFORMAT_BEGIN
 90
        0
 91
        1
 62
     0
 92
       -2
340
14
 93
        0
 40
0.045
309
GRIDFORMAT_END
 95
        4
302
GRIDFORMAT
  1
GRIDFORMAT_BEGIN
 90
        0
 91
        1
 62
     0
 92
       -2
340
14
 93
        0
 40
0.045
309
GRIDFORMAT_END
 95
        8
302
GRIDFORMAT
  1
GRIDFORMAT_BEGIN
 90
        0
 91
        1
 62
     0
 92
       -2
340
14
 93
        0
 40
0.045
309
GRIDFORMAT_END
 95
       16
302
GRIDFORMAT
  1
GRIDFORMAT_BEGIN
 90
        0
 91
        1
 62
     0
 92
       -2
340
14
 93
        0
 40
0.045
309
GRIDFORMAT_END
 95
       32
302
GRIDFORMAT
  1
GRIDFORMAT_BEGIN
 90
        0
 91
        1
 62
     0
 92
       -2
340
14
 93
        0
 40
0.045
309
GRIDFORMAT_END
309
TABLEFORMAT_END
  1
CELLSTYLE_BEGIN
 90
        3
 91
        2
300
_DATA
309
CELLSTYLE_END
  0
XRECORD
  5
4D7
102
{ACAD_REACTORS
330
4D6
102
}
330
4D6
100
AcDbXrecord
280
     1
102
ACAD_ROUNDTRIP_PRE2007_TABLESTYLE
 90
        4
 91
        0
  1

 92
        4
 93
        0
  2

 94
        4
 95
        0
  3

  0
XRECORD
  5
4A9
102
{ACAD_REACTORS
330
4A8
102
}
330
4A8
100
AcDbXrecord
280
     1
102
RTVSPropertyOp0
 70
     1
102
RTVSPropertyOp1
 70
     1
102
RTVSPropertyOp2
 70
     1
102
RTVSPropertyOp3
 70
     1
102
RTVSPropertyOp4
 70
     1
102
RTVSPropertyOp5
 70
     1
102
RTVSPropertyOp6
 70
     1
102
RTVSPropertyOp7
 70
     1
102
RTVSPropertyOp8
 70
     1
102
RTVSPropertyOp9
 70
     1
102
RTVSPropertyOp10
 70
     1
102
RTVSPropertyOp11
 70
     1
102
RTVSPropertyOp12
 70
     1
102
RTVSPropertyOp13
 70
     1
102
RTVSPropertyOp14
 70
     1
102
RTVSPropertyOp15
 70
     1
102
RTVSPropertyOp16
 70
     1
102
RTVSPropertyOp17
 70
     1
102
RTVSPropertyOp18
 70
     1
102
RTVSPropertyOp19
 70
     1
102
RTVSPropertyOp20
 70
     1
102
RTVSPropertyOp21
 70
     1
102
RTVSPropertyOp22
 70
     1
102
RTVSPropertyOp23
 70
     1
102
RTVSPropertyOp24
 70
     1
102
RTVSPropertyOp25
 70
     1
102
RTVSPropertyOp26
 70
     1
102
RTVSPropertyOp27
 70
     1
102
RTVSPropertyOp28
 70
     1
102
RTVSPropertyOp29
 70
     1
102
RTVSPropertyOp30
 70
     1
102
RTVSPropertyOp31
 70
     1
102
RTVSPropertyOp32
 70
     1
102
RTVSPropertyOp33
 70
     1
102
RTVSPropertyOp34
 70
     1
102
RTVSPropertyOp35
 70
     1
102
RTVSPropertyOp36
 70
     1
102
RTVSPropertyOp37
 70
     1
102
RTVSPropertyOp38
 70
     1
102
RTVSPropertyOp39
 70
     1
102
RTVSPropertyOp40
 70
     1
102
RTVSPropertyOp41
 70
     1
102
RTVSPropertyOp42
 70
     1
102
RTVSPropertyOp43
 70
     1
102
RTVSPropertyOp44
 70
     1
102
RTVSPropertyOp45
 70
     1
102
RTVSPropertyOp46
 70
     1
102
RTVSPropertyOp47
 70
     1
102
RTVSPropertyOp48
 70
     1
102
RTVSPropertyOp49
 70
     1
102
RTVSPropertyOp50
 70
     1
102
RTVSPropertyOp51
 70
     0
102
RTVSPropertyOp52
 70
     0
102
RTVSPropertyOp53
 70
     1
102
RTVSPropertyOp54
 70
     1
102
RTVSPropertyOp55
 70
     1
102
RTVSPropertyOp56
 70
     1
102
RTVSPropertyOp57
 70
     1
102
RTVSPost2010Prop28
280
     1
102
RTVSPost2010PropOp28
 70
     1
102
RTVSPost2010Prop29
280
     1
102
RTVSPost2010PropOp29
 70
     1
102
RTVSPost2010Prop30
280
     0
102
RTVSPost2010PropOp30
 70
     1
102
RTVSPost2010Prop31
280
     0
102
RTVSPost2010PropOp31
 70
     1
102
RTVSPost2010Prop32
280
     0
102
RTVSPost2010PropOp32
 70
     1
102
RTVSPost2010Prop33
280
     0
102
RTVSPost2010PropOp33
 70
     1
102
RTVSPost2010Prop34
280
     0
102
RTVSPost2010PropOp34
 70
     1
102
RTVSPost2010Prop35
280
     0
102
RTVSPost2010PropOp35
 70
     1
102
RTVSPost2010Prop36
280
     0
102
RTVSPost2010PropOp36
 70
     1
102
RTVSPost2010Prop37
 90
       50
102
RTVSPost2010PropOp37
 70
     1
102
RTVSPost2010Prop38
140
0.0
102
RTVSPost2010PropOp38
 70
     1
102
RTVSPost2010Prop39
140
1.0
102
RTVSPost2010PropOp39
 70
     1
102
RTVSPost2010Prop40
 90
        0
102
RTVSPost2010PropOp40
 70
     1
102
RTVSPost2010Prop41ColorIndex
 90
       18
102
RTVSPost2010Prop41ColorRGB
 90
        0
102
RTVSPost2010PropOp41
 70
     1
102
RTVSPost2010Prop42
 90
       50
102
RTVSPost2010PropOp42
 70
     1
102
RTVSPost2010Prop43
 90
        3
102
RTVSPost2010PropOp43
 70
     1
102
RTVSPost2010Prop44ColorIndex
 90
        5
102
RTVSPost2010Prop44ColorRGB
 90
      255
102
RTVSPost2010PropOp44
 70
     1
102
RTVSPost2010Prop45
280
     0
102
RTVSPost2010PropOp45
 70
     1
102
RTVSPost2010Prop46
 90
       50
102
RTVSPost2010PropOp46
 70
     1
102
RTVSPost2010Prop47
 90
       50
102
RTVSPost2010PropOp47
 70
     1
102
RTVSPost2010Prop48
 90
       50
102
RTVSPost2010PropOp48
 70
     1
102
RTVSPost2010Prop49
280
     0
102
RTVSPost2010PropOp49
 70
     1
102
RTVSPost2010Prop50
 90
       50
102
RTVSPost2010PropOp50
 70
     1
102
RTVSPost2010Prop51ColorIndex
 90
      256
102
RTVSPost2010Prop51ColorRGB
 90
-16777216
102
RTVSPost2010PropOp51
 70
     0
102
RTVSPost2010Prop52
140
1.0
102
RTVSPost2010PropOp52
 70
     0
102
RTVSPost2010Prop53
 90
        2
102
RTVSPost2010PropOp53
 70
     1
102
RTVSPost2010Prop54
  1
strokes_ogs.tif
102
RTVSPost2010PropOp54
 70
     1
102
RTVSPost2010Prop55
280
     0
102
RTVSPost2010PropOp55
 70
     1
102
RTVSPost2010Prop56
140
1.0
102
RTVSPost2010PropOp56
 70
     1
102
RTVSPost2010Prop57
140
1.0
102
RTVSPost2010PropOp57
 70
     1
  0
XRECORD
  5
4AF
102
{ACAD_REACTORS
330
4AE
102
}
330
4AE
100
AcDbXrecord
280
     1
102
RTVSPropertyOp0
 70
     1
102
RTVSPropertyOp1
 70
     1
102
RTVSPropertyOp2
 70
     1
102
RTVSPropertyOp3
 70
     1
102
RTVSPropertyOp4
 70
     1
102
RTVSPropertyOp5
 70
     1
102
RTVSPropertyOp6
 70
     1
102
RTVSPropertyOp7
 70
     1
102
RTVSPropertyOp8
 70
     1
102
RTVSPropertyOp9
 70
     1
102
RTVSPropertyOp10
 70
     1
102
RTVSPropertyOp11
 70
     1
102
RTVSPropertyOp12
 70
     1
102
RTVSPropertyOp13
 70
     1
102
RTVSPropertyOp14
 70
     1
102
RTVSPropertyOp15
 70
     1
102
RTVSPropertyOp16
 70
     1
102
RTVSPropertyOp17
 70
     1
102
RTVSPropertyOp18
 70
     1
102
RTVSPropertyOp19
 70
     1
102
RTVSPropertyOp20
 70
     1
102
RTVSPropertyOp21
 70
     1
102
RTVSPropertyOp22
 70
     1
102
RTVSPropertyOp23
 70
     1
102
RTVSPropertyOp24
 70
     1
102
RTVSPropertyOp25
 70
     1
102
RTVSPropertyOp26
 70
     1
102
RTVSPropertyOp27
 70
     1
102
RTVSPropertyOp28
 70
     1
102
RTVSPropertyOp29
 70
     1
102
RTVSPropertyOp30
 70
     1
102
RTVSPropertyOp31
 70
     1
102
RTVSPropertyOp32
 70
     1
102
RTVSPropertyOp33
 70
     1
102
RTVSPropertyOp34
 70
     1
102
RTVSPropertyOp35
 70
     1
102
RTVSPropertyOp36
 70
     1
102
RTVSPropertyOp37
 70
     1
102
RTVSPropertyOp38
 70
     1
102
RTVSPropertyOp39
 70
     1
102
RTVSPropertyOp40
 70
     1
102
RTVSPropertyOp41
 70
     1
102
RTVSPropertyOp42
 70
     1
102
RTVSPropertyOp43
 70
     1
102
RTVSPropertyOp44
 70
     1
102
RTVSPropertyOp45
 70
     1
102
RTVSPropertyOp46
 70
     1
102
RTVSPropertyOp47
 70
     1
102
RTVSPropertyOp48
 70
     1
102
RTVSPropertyOp49
 70
     1
102
RTVSPropertyOp50
 70
     1
102
RTVSPropertyOp51
 70
     0
102
RTVSPropertyOp52
 70
     0
102
RTVSPropertyOp53
 70
     1
102
RTVSPropertyOp54
 70
     1
102
RTVSPropertyOp55
 70
     1
102
RTVSPropertyOp56
 70
     1
102
RTVSPropertyOp57
 70
     1
102
RTVSPost2010Prop28
280
     0
102
RTVSPost2010PropOp28
 70
     1
102
RTVSPost2010Prop29
280
     1
102
RTVSPost2010PropOp29
 70
     1
102
RTVSPost2010Prop30
280
     1
102
RTVSPost2010PropOp30
 70
     1
102
RTVSPost2010Prop31
280
     0
102
RTVSPost2010PropOp31
 70
     1
102
RTVSPost2010Prop32
280
     0
102
RTVSPost2010PropOp32
 70
     1
102
RTVSPost2010Prop33
280
     0
102
RTVSPost2010PropOp33
 70
     1
102
RTVSPost2010Prop34
280
     0
102
RTVSPost2010PropOp34
 70
     1
102
RTVSPost2010Prop35
280
     0
102
RTVSPost2010PropOp35
 70
     1
102
RTVSPost2010Prop36
280
     0
102
RTVSPost2010PropOp36
 70
     1
102
RTVSPost2010Prop37
 90
       50
102
RTVSPost2010PropOp37
 70
     1
102
RTVSPost2010Prop38
140
0.0
102
RTVSPost2010PropOp38
 70
     1
102
RTVSPost2010Prop39
140
1.0
102
RTVSPost2010PropOp39
 70
     1
102
RTVSPost2010Prop40
 90
        0
102
RTVSPost2010PropOp40
 70
     1
102
RTVSPost2010Prop41ColorIndex
 90
       18
102
RTVSPost2010Prop41ColorRGB
 90
        0
102
RTVSPost2010PropOp41
 70
     1
102
RTVSPost2010Prop42
 90
       50
102
RTVSPost2010PropOp42
 70
     1
102
RTVSPost2010Prop43
 90
        3
102
RTVSPost2010PropOp43
 70
     1
102
RTVSPost2010Prop44ColorIndex
 90
        5
102
RTVSPost2010Prop44ColorRGB
 90
      255
102
RTVSPost2010PropOp44
 70
     1
102
RTVSPost2010Prop45
280
     0
102
RTVSPost2010PropOp45
 70
     1
102
RTVSPost2010Prop46
 90
       50
102
RTVSPost2010PropOp46
 70
     1
102
RTVSPost2010Prop47
 90
       50
102
RTVSPost2010PropOp47
 70
     1
102
RTVSPost2010Prop48
 90
       50
102
RTVSPost2010PropOp48
 70
     1
102
RTVSPost2010Prop49
280
     0
102
RTVSPost2010PropOp49
 70
     1
102
RTVSPost2010Prop50
 90
       50
102
RTVSPost2010PropOp50
 70
     1
102
RTVSPost2010Prop51ColorIndex
 90
      256
102
RTVSPost2010Prop51ColorRGB
 90
-16777216
102
RTVSPost2010PropOp51
 70
     0
102
RTVSPost2010Prop52
140
1.0
102
RTVSPost2010PropOp52
 70
     0
102
RTVSPost2010Prop53
 90
        2
102
RTVSPost2010PropOp53
 70
     1
102
RTVSPost2010Prop54
  1
strokes_ogs.tif
102
RTVSPost2010PropOp54
 70
     1
102
RTVSPost2010Prop55
280
     0
102
RTVSPost2010PropOp55
 70
     1
102
RTVSPost2010Prop56
140
1.0
102
RTVSPost2010PropOp56
 70
     1
102
RTVSPost2010Prop57
140
1.0
102
RTVSPost2010PropOp57
 70
     1
  0
XRECORD
  5
4B7
102
{ACAD_REACTORS
330
4B6
102
}
330
4B6
100
AcDbXrecord
280
     1
102
RTVSPropertyOp0
 70
     1
102
RTVSPropertyOp1
 70
     1
102
RTVSPropertyOp2
 70
     1
102
RTVSPropertyOp3
 70
     1
102
RTVSPropertyOp4
 70
     1
102
RTVSPropertyOp5
 70
     1
102
RTVSPropertyOp6
 70
     1
102
RTVSPropertyOp7
 70
     1
102
RTVSPropertyOp8
 70
     1
102
RTVSPropertyOp9
 70
     1
102
RTVSPropertyOp10
 70
     1
102
RTVSPropertyOp11
 70
     1
102
RTVSPropertyOp12
 70
     1
102
RTVSPropertyOp13
 70
     1
102
RTVSPropertyOp14
 70
     1
102
RTVSPropertyOp15
 70
     1
102
RTVSPropertyOp16
 70
     1
102
RTVSPropertyOp17
 70
     1
102
RTVSPropertyOp18
 70
     1
102
RTVSPropertyOp19
 70
     1
102
RTVSPropertyOp20
 70
     1
102
RTVSPropertyOp21
 70
     1
102
RTVSPropertyOp22
 70
     1
102
RTVSPropertyOp23
 70
     1
102
RTVSPropertyOp24
 70
     1
102
RTVSPropertyOp25
 70
     1
102
RTVSPropertyOp26
 70
     1
102
RTVSPropertyOp27
 70
     1
102
RTVSPropertyOp28
 70
     1
102
RTVSPropertyOp29
 70
     1
102
RTVSPropertyOp30
 70
     1
102
RTVSPropertyOp31
 70
     1
102
RTVSPropertyOp32
 70
     1
102
RTVSPropertyOp33
 70
     1
102
RTVSPropertyOp34
 70
     1
102
RTVSPropertyOp35
 70
     1
102
RTVSPropertyOp36
 70
     1
102
RTVSPropertyOp37
 70
     1
102
RTVSPropertyOp38
 70
     1
102
RTVSPropertyOp39
 70
     1
102
RTVSPropertyOp40
 70
     1
102
RTVSPropertyOp41
 70
     1
102
RTVSPropertyOp42
 70
     1
102
RTVSPropertyOp43
 70
     1
102
RTVSPropertyOp44
 70
     1
102
RTVSPropertyOp45
 70
     1
102
RTVSPropertyOp46
 70
     1
102
RTVSPropertyOp47
 70
     1
102
RTVSPropertyOp48
 70
     1
102
RTVSPropertyOp49
 70
     1
102
RTVSPropertyOp50
 70
     1
102
RTVSPropertyOp51
 70
     0
102
RTVSPropertyOp52
 70
     0
102
RTVSPropertyOp53
 70
     1
102
RTVSPropertyOp54
 70
     1
102
RTVSPropertyOp55
 70
     1
102
RTVSPropertyOp56
 70
     1
102
RTVSPropertyOp57
 70
     1
102
RTVSPost2010Prop28
280
     0
102
RTVSPost2010PropOp28
 70
     1
102
RTVSPost2010Prop29
280
     1
102
RTVSPost2010PropOp29
 70
     1
102
RTVSPost2010Prop30
280
     1
102
RTVSPost2010PropOp30
 70
     1
102
RTVSPost2010Prop31
280
     0
102
RTVSPost2010PropOp31
 70
     1
102
RTVSPost2010Prop32
280
     0
102
RTVSPost2010PropOp32
 70
     1
102
RTVSPost2010Prop33
280
     0
102
RTVSPost2010PropOp33
 70
     1
102
RTVSPost2010Prop34
280
     0
102
RTVSPost2010PropOp34
 70
     1
102
RTVSPost2010Prop35
280
     0
102
RTVSPost2010PropOp35
 70
     1
102
RTVSPost2010Prop36
280
     0
102
RTVSPost2010PropOp36
 70
     1
102
RTVSPost2010Prop37
 90
       50
102
RTVSPost2010PropOp37
 70
     1
102
RTVSPost2010Prop38
140
0.0
102
RTVSPost2010PropOp38
 70
     1
102
RTVSPost2010Prop39
140
1.0
102
RTVSPost2010PropOp39
 70
     1
102
RTVSPost2010Prop40
 90
        0
102
RTVSPost2010PropOp40
 70
     1
102
RTVSPost2010Prop41ColorIndex
 90
       18
102
RTVSPost2010Prop41ColorRGB
 90
        0
102
RTVSPost2010PropOp41
 70
     1
102
RTVSPost2010Prop42
 90
       50
102
RTVSPost2010PropOp42
 70
     1
102
RTVSPost2010Prop43
 90
        3
102
RTVSPost2010PropOp43
 70
     1
102
RTVSPost2010Prop44ColorIndex
 90
        5
102
RTVSPost2010Prop44ColorRGB
 90
      255
102
RTVSPost2010PropOp44
 70
     1
102
RTVSPost2010Prop45
280
     0
102
RTVSPost2010PropOp45
 70
     1
102
RTVSPost2010Prop46
 90
       50
102
RTVSPost2010PropOp46
 70
     1
102
RTVSPost2010Prop47
 90
       50
102
RTVSPost2010PropOp47
 70
     1
102
RTVSPost2010Prop48
 90
       50
102
RTVSPost2010PropOp48
 70
     1
102
RTVSPost2010Prop49
280
     0
102
RTVSPost2010PropOp49
 70
     1
102
RTVSPost2010Prop50
 90
       50
102
RTVSPost2010PropOp50
 70
     1
102
RTVSPost2010Prop51ColorIndex
 90
      256
102
RTVSPost2010Prop51ColorRGB
 90
-16777216
102
RTVSPost2010PropOp51
 70
     0
102
RTVSPost2010Prop52
140
1.0
102
RTVSPost2010PropOp52
 70
     0
102
RTVSPost2010Prop53
 90
        2
102
RTVSPost2010PropOp53
 70
     1
102
RTVSPost2010Prop54
  1
strokes_ogs.tif
102
RTVSPost2010PropOp54
 70
     1
102
RTVSPost2010Prop55
280
     0
102
RTVSPost2010PropOp55
 70
     1
102
RTVSPost2010Prop56
140
1.0
102
RTVSPost2010PropOp56
 70
     1
102
RTVSPost2010Prop57
140
1.0
102
RTVSPost2010PropOp57
 70
     1
  0
XRECORD
  5
4BF
102
{ACAD_REACTORS
330
4BE
102
}
330
4BE
100
AcDbXrecord
280
     1
102
RTVSPropertyOp0
 70
     1
102
RTVSPropertyOp1
 70
     1
102
RTVSPropertyOp2
 70
     1
102
RTVSPropertyOp3
 70
     1
102
RTVSPropertyOp4
 70
     1
102
RTVSPropertyOp5
 70
     1
102
RTVSPropertyOp6
 70
     1
102
RTVSPropertyOp7
 70
     1
102
RTVSPropertyOp8
 70
     1
102
RTVSPropertyOp9
 70
     1
102
RTVSPropertyOp10
 70
     1
102
RTVSPropertyOp11
 70
     1
102
RTVSPropertyOp12
 70
     1
102
RTVSPropertyOp13
 70
     1
102
RTVSPropertyOp14
 70
     1
102
RTVSPropertyOp15
 70
     1
102
RTVSPropertyOp16
 70
     1
102
RTVSPropertyOp17
 70
     1
102
RTVSPropertyOp18
 70
     1
102
RTVSPropertyOp19
 70
     1
102
RTVSPropertyOp20
 70
     1
102
RTVSPropertyOp21
 70
     1
102
RTVSPropertyOp22
 70
     1
102
RTVSPropertyOp23
 70
     1
102
RTVSPropertyOp24
 70
     1
102
RTVSPropertyOp25
 70
     1
102
RTVSPropertyOp26
 70
     1
102
RTVSPropertyOp27
 70
     1
102
RTVSPropertyOp28
 70
     1
102
RTVSPropertyOp29
 70
     1
102
RTVSPropertyOp30
 70
     1
102
RTVSPropertyOp31
 70
     1
102
RTVSPropertyOp32
 70
     1
102
RTVSPropertyOp33
 70
     1
102
RTVSPropertyOp34
 70
     1
102
RTVSPropertyOp35
 70
     1
102
RTVSPropertyOp36
 70
     1
102
RTVSPropertyOp37
 70
     1
102
RTVSPropertyOp38
 70
     1
102
RTVSPropertyOp39
 70
     1
102
RTVSPropertyOp40
 70
     1
102
RTVSPropertyOp41
 70
     1
102
RTVSPropertyOp42
 70
     1
102
RTVSPropertyOp43
 70
     1
102
RTVSPropertyOp44
 70
     1
102
RTVSPropertyOp45
 70
     1
102
RTVSPropertyOp46
 70
     1
102
RTVSPropertyOp47
 70
     1
102
RTVSPropertyOp48
 70
     1
102
RTVSPropertyOp49
 70
     1
102
RTVSPropertyOp50
 70
     1
102
RTVSPropertyOp51
 70
     0
102
RTVSPropertyOp52
 70
     0
102
RTVSPropertyOp53
 70
     1
102
RTVSPropertyOp54
 70
     1
102
RTVSPropertyOp55
 70
     1
102
RTVSPropertyOp56
 70
     1
102
RTVSPropertyOp57
 70
     1
102
RTVSPost2010Prop28
280
     0
102
RTVSPost2010PropOp28
 70
     1
102
RTVSPost2010Prop29
280
     1
102
RTVSPost2010PropOp29
 70
     1
102
RTVSPost2010Prop30
280
     1
102
RTVSPost2010PropOp30
 70
     1
102
RTVSPost2010Prop31
280
     0
102
RTVSPost2010PropOp31
 70
     1
102
RTVSPost2010Prop32
280
     0
102
RTVSPost2010PropOp32
 70
     1
102
RTVSPost2010Prop33
280
     0
102
RTVSPost2010PropOp33
 70
     1
102
RTVSPost2010Prop34
280
     0
102
RTVSPost2010PropOp34
 70
     1
102
RTVSPost2010Prop35
280
     0
102
RTVSPost2010PropOp35
 70
     1
102
RTVSPost2010Prop36
280
     0
102
RTVSPost2010PropOp36
 70
     1
102
RTVSPost2010Prop37
 90
       50
102
RTVSPost2010PropOp37
 70
     1
102
RTVSPost2010Prop38
140
0.0
102
RTVSPost2010PropOp38
 70
     1
102
RTVSPost2010Prop39
140
1.0
102
RTVSPost2010PropOp39
 70
     1
102
RTVSPost2010Prop40
 90
        0
102
RTVSPost2010PropOp40
 70
     1
102
RTVSPost2010Prop41ColorIndex
 90
       18
102
RTVSPost2010Prop41ColorRGB
 90
        0
102
RTVSPost2010PropOp41
 70
     1
102
RTVSPost2010Prop42
 90
       50
102
RTVSPost2010PropOp42
 70
     1
102
RTVSPost2010Prop43
 90
        3
102
RTVSPost2010PropOp43
 70
     1
102
RTVSPost2010Prop44ColorIndex
 90
        5
102
RTVSPost2010Prop44ColorRGB
 90
      255
102
RTVSPost2010PropOp44
 70
     1
102
RTVSPost2010Prop45
280
     0
102
RTVSPost2010PropOp45
 70
     1
102
RTVSPost2010Prop46
 90
       50
102
RTVSPost2010PropOp46
 70
     1
102
RTVSPost2010Prop47
 90
       50
102
RTVSPost2010PropOp47
 70
     1
102
RTVSPost2010Prop48
 90
       50
102
RTVSPost2010PropOp48
 70
     1
102
RTVSPost2010Prop49
280
     0
102
RTVSPost2010PropOp49
 70
     1
102
RTVSPost2010Prop50
 90
       50
102
RTVSPost2010PropOp50
 70
     1
102
RTVSPost2010Prop51ColorIndex
 90
      256
102
RTVSPost2010Prop51ColorRGB
 90
-16777216
102
RTVSPost2010PropOp51
 70
     0
102
RTVSPost2010Prop52
140
1.0
102
RTVSPost2010PropOp52
 70
     0
102
RTVSPost2010Prop53
 90
        2
102
RTVSPost2010PropOp53
 70
     1
102
RTVSPost2010Prop54
  1
strokes_ogs.tif
102
RTVSPost2010PropOp54
 70
     1
102
RTVSPost2010Prop55
280
     0
102
RTVSPost2010PropOp55
 70
     1
102
RTVSPost2010Prop56
140
1.0
102
RTVSPost2010PropOp56
 70
     1
102
RTVSPost2010Prop57
140
1.0
102
RTVSPost2010PropOp57
 70
     1
  0
XRECORD
  5
4B3
102
{ACAD_REACTORS
330
4B2
102
}
330
4B2
100
AcDbXrecord
280
     1
102
RTVSPropertyOp0
 70
     1
102
RTVSPropertyOp1
 70
     1
102
RTVSPropertyOp2
 70
     1
102
RTVSPropertyOp3
 70
     1
102
RTVSPropertyOp4
 70
     1
102
RTVSPropertyOp5
 70
     1
102
RTVSPropertyOp6
 70
     1
102
RTVSPropertyOp7
 70
     1
102
RTVSPropertyOp8
 70
     1
102
RTVSPropertyOp9
 70
     1
102
RTVSPropertyOp10
 70
     1
102
RTVSPropertyOp11
 70
     1
102
RTVSPropertyOp12
 70
     1
102
RTVSPropertyOp13
 70
     1
102
RTVSPropertyOp14
 70
     1
102
RTVSPropertyOp15
 70
     1
102
RTVSPropertyOp16
 70
     1
102
RTVSPropertyOp17
 70
     1
102
RTVSPropertyOp18
 70
     1
102
RTVSPropertyOp19
 70
     1
102
RTVSPropertyOp20
 70
     1
102
RTVSPropertyOp21
 70
     1
102
RTVSPropertyOp22
 70
     1
102
RTVSPropertyOp23
 70
     1
102
RTVSPropertyOp24
 70
     1
102
RTVSPropertyOp25
 70
     1
102
RTVSPropertyOp26
 70
     1
102
RTVSPropertyOp27
 70
     1
102
RTVSPropertyOp28
 70
     1
102
RTVSPropertyOp29
 70
     1
102
RTVSPropertyOp30
 70
     1
102
RTVSPropertyOp31
 70
     1
102
RTVSPropertyOp32
 70
     1
102
RTVSPropertyOp33
 70
     1
102
RTVSPropertyOp34
 70
     1
102
RTVSPropertyOp35
 70
     1
102
RTVSPropertyOp36
 70
     1
102
RTVSPropertyOp37
 70
     1
102
RTVSPropertyOp38
 70
     1
102
RTVSPropertyOp39
 70
     1
102
RTVSPropertyOp40
 70
     1
102
RTVSPropertyOp41
 70
     1
102
RTVSPropertyOp42
 70
     1
102
RTVSPropertyOp43
 70
     1
102
RTVSPropertyOp44
 70
     1
102
RTVSPropertyOp45
 70
     1
102
RTVSPropertyOp46
 70
     1
102
RTVSPropertyOp47
 70
     1
102
RTVSPropertyOp48
 70
     1
102
RTVSPropertyOp49
 70
     1
102
RTVSPropertyOp50
 70
     1
102
RTVSPropertyOp51
 70
     0
102
RTVSPropertyOp52
 70
     0
102
RTVSPropertyOp53
 70
     1
102
RTVSPropertyOp54
 70
     1
102
RTVSPropertyOp55
 70
     1
102
RTVSPropertyOp56
 70
     1
102
RTVSPropertyOp57
 70
     1
102
RTVSPost2010Prop28
280
     0
102
RTVSPost2010PropOp28
 70
     1
102
RTVSPost2010Prop29
280
     1
102
RTVSPost2010PropOp29
 70
     1
102
RTVSPost2010Prop30
280
     1
102
RTVSPost2010PropOp30
 70
     1
102
RTVSPost2010Prop31
280
     0
102
RTVSPost2010PropOp31
 70
     1
102
RTVSPost2010Prop32
280
     0
102
RTVSPost2010PropOp32
 70
     1
102
RTVSPost2010Prop33
280
     0
102
RTVSPost2010PropOp33
 70
     1
102
RTVSPost2010Prop34
280
     0
102
RTVSPost2010PropOp34
 70
     1
102
RTVSPost2010Prop35
280
     0
102
RTVSPost2010PropOp35
 70
     1
102
RTVSPost2010Prop36
280
     0
102
RTVSPost2010PropOp36
 70
     1
102
RTVSPost2010Prop37
 90
       50
102
RTVSPost2010PropOp37
 70
     1
102
RTVSPost2010Prop38
140
0.0
102
RTVSPost2010PropOp38
 70
     1
102
RTVSPost2010Prop39
140
1.0
102
RTVSPost2010PropOp39
 70
     1
102
RTVSPost2010Prop40
 90
        0
102
RTVSPost2010PropOp40
 70
     1
102
RTVSPost2010Prop41ColorIndex
 90
       18
102
RTVSPost2010Prop41ColorRGB
 90
        0
102
RTVSPost2010PropOp41
 70
     1
102
RTVSPost2010Prop42
 90
       50
102
RTVSPost2010PropOp42
 70
     1
102
RTVSPost2010Prop43
 90
        3
102
RTVSPost2010PropOp43
 70
     1
102
RTVSPost2010Prop44ColorIndex
 90
        5
102
RTVSPost2010Prop44ColorRGB
 90
      255
102
RTVSPost2010PropOp44
 70
     1
102
RTVSPost2010Prop45
280
     0
102
RTVSPost2010PropOp45
 70
     1
102
RTVSPost2010Prop46
 90
       50
102
RTVSPost2010PropOp46
 70
     1
102
RTVSPost2010Prop47
 90
       50
102
RTVSPost2010PropOp47
 70
     1
102
RTVSPost2010Prop48
 90
       50
102
RTVSPost2010PropOp48
 70
     1
102
RTVSPost2010Prop49
280
     0
102
RTVSPost2010PropOp49
 70
     1
102
RTVSPost2010Prop50
 90
       50
102
RTVSPost2010PropOp50
 70
     1
102
RTVSPost2010Prop51ColorIndex
 90
      256
102
RTVSPost2010Prop51ColorRGB
 90
-16777216
102
RTVSPost2010PropOp51
 70
     0
102
RTVSPost2010Prop52
140
1.0
102
RTVSPost2010PropOp52
 70
     0
102
RTVSPost2010Prop53
 90
        2
102
RTVSPost2010PropOp53
 70
     1
102
RTVSPost2010Prop54
  1
strokes_ogs.tif
102
RTVSPost2010PropOp54
 70
     1
102
RTVSPost2010Prop55
280
     0
102
RTVSPost2010PropOp55
 70
     1
102
RTVSPost2010Prop56
140
1.0
102
RTVSPost2010PropOp56
 70
     1
102
RTVSPost2010Prop57
140
1.0
102
RTVSPost2010PropOp57
 70
     1
  0
XRECORD
  5
4B5
102
{ACAD_REACTORS
330
4B4
102
}
330
4B4
100
AcDbXrecord
280
     1
102
RTVSPropertyOp0
 70
     1
102
RTVSPropertyOp1
 70
     1
102
RTVSPropertyOp2
 70
     1
102
RTVSPropertyOp3
 70
     1
102
RTVSPropertyOp4
 70
     1
102
RTVSPropertyOp5
 70
     1
102
RTVSPropertyOp6
 70
     1
102
RTVSPropertyOp7
 70
     1
102
RTVSPropertyOp8
 70
     1
102
RTVSPropertyOp9
 70
     1
102
RTVSPropertyOp10
 70
     1
102
RTVSPropertyOp11
 70
     1
102
RTVSPropertyOp12
 70
     1
102
RTVSPropertyOp13
 70
     1
102
RTVSPropertyOp14
 70
     1
102
RTVSPropertyOp15
 70
     1
102
RTVSPropertyOp16
 70
     1
102
RTVSPropertyOp17
 70
     1
102
RTVSPropertyOp18
 70
     1
102
RTVSPropertyOp19
 70
     1
102
RTVSPropertyOp20
 70
     1
102
RTVSPropertyOp21
 70
     1
102
RTVSPropertyOp22
 70
     1
102
RTVSPropertyOp23
 70
     1
102
RTVSPropertyOp24
 70
     1
102
RTVSPropertyOp25
 70
     1
102
RTVSPropertyOp26
 70
     1
102
RTVSPropertyOp27
 70
     1
102
RTVSPropertyOp28
 70
     1
102
RTVSPropertyOp29
 70
     1
102
RTVSPropertyOp30
 70
     1
102
RTVSPropertyOp31
 70
     1
102
RTVSPropertyOp32
 70
     1
102
RTVSPropertyOp33
 70
     1
102
RTVSPropertyOp34
 70
     1
102
RTVSPropertyOp35
 70
     1
102
RTVSPropertyOp36
 70
     1
102
RTVSPropertyOp37
 70
     1
102
RTVSPropertyOp38
 70
     1
102
RTVSPropertyOp39
 70
     1
102
RTVSPropertyOp40
 70
     1
102
RTVSPropertyOp41
 70
     1
102
RTVSPropertyOp42
 70
     1
102
RTVSPropertyOp43
 70
     1
102
RTVSPropertyOp44
 70
     1
102
RTVSPropertyOp45
 70
     1
102
RTVSPropertyOp46
 70
     1
102
RTVSPropertyOp47
 70
     1
102
RTVSPropertyOp48
 70
     1
102
RTVSPropertyOp49
 70
     1
102
RTVSPropertyOp50
 70
     1
102
RTVSPropertyOp51
 70
     0
102
RTVSPropertyOp52
 70
     0
102
RTVSPropertyOp53
 70
     1
102
RTVSPropertyOp54
 70
     1
102
RTVSPropertyOp55
 70
     1
102
RTVSPropertyOp56
 70
     1
102
RTVSPropertyOp57
 70
     1
102
RTVSPost2010Prop28
280
     0
102
RTVSPost2010PropOp28
 70
     1
102
RTVSPost2010Prop29
280
     1
102
RTVSPost2010PropOp29
 70
     1
102
RTVSPost2010Prop30
280
     1
102
RTVSPost2010PropOp30
 70
     1
102
RTVSPost2010Prop31
280
     0
102
RTVSPost2010PropOp31
 70
     1
102
RTVSPost2010Prop32
280
     0
102
RTVSPost2010PropOp32
 70
     1
102
RTVSPost2010Prop33
280
     0
102
RTVSPost2010PropOp33
 70
     1
102
RTVSPost2010Prop34
280
     0
102
RTVSPost2010PropOp34
 70
     1
102
RTVSPost2010Prop35
280
     0
102
RTVSPost2010PropOp35
 70
     1
102
RTVSPost2010Prop36
280
     0
102
RTVSPost2010PropOp36
 70
     1
102
RTVSPost2010Prop37
 90
       50
102
RTVSPost2010PropOp37
 70
     1
102
RTVSPost2010Prop38
140
0.0
102
RTVSPost2010PropOp38
 70
     1
102
RTVSPost2010Prop39
140
1.0
102
RTVSPost2010PropOp39
 70
     1
102
RTVSPost2010Prop40
 90
        0
102
RTVSPost2010PropOp40
 70
     1
102
RTVSPost2010Prop41ColorIndex
 90
       18
102
RTVSPost2010Prop41ColorRGB
 90
        0
102
RTVSPost2010PropOp41
 70
     1
102
RTVSPost2010Prop42
 90
       50
102
RTVSPost2010PropOp42
 70
     1
102
RTVSPost2010Prop43
 90
        3
102
RTVSPost2010PropOp43
 70
     1
102
RTVSPost2010Prop44ColorIndex
 90
        5
102
RTVSPost2010Prop44ColorRGB
 90
      255
102
RTVSPost2010PropOp44
 70
     1
102
RTVSPost2010Prop45
280
     0
102
RTVSPost2010PropOp45
 70
     1
102
RTVSPost2010Prop46
 90
       50
102
RTVSPost2010PropOp46
 70
     1
102
RTVSPost2010Prop47
 90
       50
102
RTVSPost2010PropOp47
 70
     1
102
RTVSPost2010Prop48
 90
       50
102
RTVSPost2010PropOp48
 70
     1
102
RTVSPost2010Prop49
280
     0
102
RTVSPost2010PropOp49
 70
     1
102
RTVSPost2010Prop50
 90
       50
102
RTVSPost2010PropOp50
 70
     1
102
RTVSPost2010Prop51ColorIndex
 90
      256
102
RTVSPost2010Prop51ColorRGB
 90
-16777216
102
RTVSPost2010PropOp51
 70
     0
102
RTVSPost2010Prop52
140
1.0
102
RTVSPost2010PropOp52
 70
     0
102
RTVSPost2010Prop53
 90
        2
102
RTVSPost2010PropOp53
 70
     1
102
RTVSPost2010Prop54
  1
strokes_ogs.tif
102
RTVSPost2010PropOp54
 70
     1
102
RTVSPost2010Prop55
280
     0
102
RTVSPost2010PropOp55
 70
     1
102
RTVSPost2010Prop56
140
1.0
102
RTVSPost2010PropOp56
 70
     1
102
RTVSPost2010Prop57
140
1.0
102
RTVSPost2010PropOp57
 70
     1
  0
XRECORD
  5
4C5
102
{ACAD_REACTORS
330
4C4
102
}
330
4C4
100
AcDbXrecord
280
     1
102
RTVSPropertyOp0
 70
     0
102
RTVSPropertyOp1
 70
     0
102
RTVSPropertyOp2
 70
     0
102
RTVSPropertyOp3
 70
     0
102
RTVSPropertyOp4
 70
     0
102
RTVSPropertyOp5
 70
     0
102
RTVSPropertyOp6
 70
     0
102
RTVSPropertyOp7
 70
     0
102
RTVSPropertyOp8
 70
     0
102
RTVSPropertyOp9
 70
     0
102
RTVSPropertyOp10
 70
     0
102
RTVSPropertyOp11
 70
     0
102
RTVSPropertyOp12
 70
     0
102
RTVSPropertyOp13
 70
     0
102
RTVSPropertyOp14
 70
     2
102
RTVSPropertyOp15
 70
     0
102
RTVSPropertyOp16
 70
     0
102
RTVSPropertyOp17
 70
     0
102
RTVSPropertyOp18
 70
     0
102
RTVSPropertyOp19
 70
     0
102
RTVSPropertyOp20
 70
     0
102
RTVSPropertyOp21
 70
     0
102
RTVSPropertyOp22
 70
     0
102
RTVSPropertyOp23
 70
     0
102
RTVSPropertyOp24
 70
     0
102
RTVSPropertyOp25
 70
     0
102
RTVSPropertyOp26
 70
     0
102
RTVSPropertyOp27
 70
     0
102
RTVSPropertyOp28
 70
     0
102
RTVSPropertyOp29
 70
     0
102
RTVSPropertyOp30
 70
     0
102
RTVSPropertyOp31
 70
     0
102
RTVSPropertyOp32
 70
     0
102
RTVSPropertyOp33
 70
     0
102
RTVSPropertyOp34
 70
     0
102
RTVSPropertyOp35
 70
     0
102
RTVSPropertyOp36
 70
     0
102
RTVSPropertyOp37
 70
     0
102
RTVSPropertyOp38
 70
     0
102
RTVSPropertyOp39
 70
     0
102
RTVSPropertyOp40
 70
     0
102
RTVSPropertyOp41
 70
     0
102
RTVSPropertyOp42
 70
     0
102
RTVSPropertyOp43
 70
     0
102
RTVSPropertyOp44
 70
     0
102
RTVSPropertyOp45
 70
     0
102
RTVSPropertyOp46
 70
     0
102
RTVSPropertyOp47
 70
     0
102
RTVSPropertyOp48
 70
     0
102
RTVSPropertyOp49
 70
     0
102
RTVSPropertyOp50
 70
     0
102
RTVSPropertyOp51
 70
     0
102
RTVSPropertyOp52
 70
     0
102
RTVSPropertyOp53
 70
     0
102
RTVSPropertyOp54
 70
     0
102
RTVSPropertyOp55
 70
     0
102
RTVSPropertyOp56
 70
     0
102
RTVSPropertyOp57
 70
     0
102
RTVSPost2010Prop28
280
     0
102
RTVSPost2010PropOp28
 70
     0
102
RTVSPost2010Prop29
280
     1
102
RTVSPost2010PropOp29
 70
     0
102
RTVSPost2010Prop30
280
     1
102
RTVSPost2010PropOp30
 70
     0
102
RTVSPost2010Prop31
280
     0
102
RTVSPost2010PropOp31
 70
     0
102
RTVSPost2010Prop32
280
     0
102
RTVSPost2010PropOp32
 70
     0
102
RTVSPost2010Prop33
280
     0
102
RTVSPost2010PropOp33
 70
     0
102
RTVSPost2010Prop34
280
     0
102
RTVSPost2010PropOp34
 70
     0
102
RTVSPost2010Prop35
280
     0
102
RTVSPost2010PropOp35
 70
     0
102
RTVSPost2010Prop36
280
     0
102
RTVSPost2010PropOp36
 70
     0
102
RTVSPost2010Prop37
 90
       50
102
RTVSPost2010PropOp37
 70
     0
102
RTVSPost2010Prop38
140
0.0
102
RTVSPost2010PropOp38
 70
     0
102
RTVSPost2010Prop39
140
1.0
102
RTVSPost2010PropOp39
 70
     0
102
RTVSPost2010Prop40
 90
        0
102
RTVSPost2010PropOp40
 70
     0
102
RTVSPost2010Prop41ColorIndex
 90
       18
102
RTVSPost2010Prop41ColorRGB
 90
        0
102
RTVSPost2010PropOp41
 70
     0
102
RTVSPost2010Prop42
 90
       50
102
RTVSPost2010PropOp42
 70
     0
102
RTVSPost2010Prop43
 90
        3
102
RTVSPost2010PropOp43
 70
     0
102
RTVSPost2010Prop44ColorIndex
 90
        5
102
RTVSPost2010Prop44ColorRGB
 90
      255
102
RTVSPost2010PropOp44
 70
     0
102
RTVSPost2010Prop45
280
     0
102
RTVSPost2010PropOp45
 70
     0
102
RTVSPost2010Prop46
 90
       50
102
RTVSPost2010PropOp46
 70
     0
102
RTVSPost2010Prop47
 90
       50
102
RTVSPost2010PropOp47
 70
     0
102
RTVSPost2010Prop48
 90
       50
102
RTVSPost2010PropOp48
 70
     0
102
RTVSPost2010Prop49
280
     0
102
RTVSPost2010PropOp49
 70
     0
102
RTVSPost2010Prop50
 90
       50
102
RTVSPost2010PropOp50
 70
     0
102
RTVSPost2010Prop51ColorIndex
 90
      256
102
RTVSPost2010Prop51ColorRGB
 90
-16777216
102
RTVSPost2010PropOp51
 70
     0
102
RTVSPost2010Prop52
140
1.0
102
RTVSPost2010PropOp52
 70
     0
102
RTVSPost2010Prop53
 90
        2
102
RTVSPost2010PropOp53
 70
     0
102
RTVSPost2010Prop54
  1
strokes_ogs.tif
102
RTVSPost2010PropOp54
 70
     0
102
RTVSPost2010Prop55
280
     0
102
RTVSPost2010PropOp55
 70
     0
102
RTVSPost2010Prop56
140
1.0
102
RTVSPost2010PropOp56
 70
     0
102
RTVSPost2010Prop57
140
1.0
102
RTVSPost2010PropOp57
 70
     0
  0
XRECORD
  5
4BD
102
{ACAD_REACTORS
330
4BC
102
}
330
4BC
100
AcDbXrecord
280
     1
102
RTVSPropertyOp0
 70
     1
102
RTVSPropertyOp1
 70
     1
102
RTVSPropertyOp2
 70
     1
102
RTVSPropertyOp3
 70
     1
102
RTVSPropertyOp4
 70
     1
102
RTVSPropertyOp5
 70
     1
102
RTVSPropertyOp6
 70
     1
102
RTVSPropertyOp7
 70
     1
102
RTVSPropertyOp8
 70
     1
102
RTVSPropertyOp9
 70
     1
102
RTVSPropertyOp10
 70
     1
102
RTVSPropertyOp11
 70
     1
102
RTVSPropertyOp12
 70
     1
102
RTVSPropertyOp13
 70
     1
102
RTVSPropertyOp14
 70
     1
102
RTVSPropertyOp15
 70
     1
102
RTVSPropertyOp16
 70
     1
102
RTVSPropertyOp17
 70
     1
102
RTVSPropertyOp18
 70
     1
102
RTVSPropertyOp19
 70
     1
102
RTVSPropertyOp20
 70
     1
102
RTVSPropertyOp21
 70
     1
102
RTVSPropertyOp22
 70
     1
102
RTVSPropertyOp23
 70
     1
102
RTVSPropertyOp24
 70
     1
102
RTVSPropertyOp25
 70
     1
102
RTVSPropertyOp26
 70
     1
102
RTVSPropertyOp27
 70
     1
102
RTVSPropertyOp28
 70
     1
102
RTVSPropertyOp29
 70
     1
102
RTVSPropertyOp30
 70
     1
102
RTVSPropertyOp31
 70
     1
102
RTVSPropertyOp32
 70
     1
102
RTVSPropertyOp33
 70
     1
102
RTVSPropertyOp34
 70
     1
102
RTVSPropertyOp35
 70
     1
102
RTVSPropertyOp36
 70
     1
102
RTVSPropertyOp37
 70
     1
102
RTVSPropertyOp38
 70
     1
102
RTVSPropertyOp39
 70
     1
102
RTVSPropertyOp40
 70
     1
102
RTVSPropertyOp41
 70
     1
102
RTVSPropertyOp42
 70
     1
102
RTVSPropertyOp43
 70
     1
102
RTVSPropertyOp44
 70
     1
102
RTVSPropertyOp45
 70
     1
102
RTVSPropertyOp46
 70
     1
102
RTVSPropertyOp47
 70
     1
102
RTVSPropertyOp48
 70
     1
102
RTVSPropertyOp49
 70
     1
102
RTVSPropertyOp50
 70
     1
102
RTVSPropertyOp51
 70
     0
102
RTVSPropertyOp52
 70
     0
102
RTVSPropertyOp53
 70
     1
102
RTVSPropertyOp54
 70
     1
102
RTVSPropertyOp55
 70
     1
102
RTVSPropertyOp56
 70
     1
102
RTVSPropertyOp57
 70
     1
102
RTVSPost2010Prop28
280
     0
102
RTVSPost2010PropOp28
 70
     1
102
RTVSPost2010Prop29
280
     1
102
RTVSPost2010PropOp29
 70
     1
102
RTVSPost2010Prop30
280
     1
102
RTVSPost2010PropOp30
 70
     1
102
RTVSPost2010Prop31
280
     0
102
RTVSPost2010PropOp31
 70
     1
102
RTVSPost2010Prop32
280
     0
102
RTVSPost2010PropOp32
 70
     1
102
RTVSPost2010Prop33
280
     0
102
RTVSPost2010PropOp33
 70
     1
102
RTVSPost2010Prop34
280
     0
102
RTVSPost2010PropOp34
 70
     1
102
RTVSPost2010Prop35
280
     0
102
RTVSPost2010PropOp35
 70
     1
102
RTVSPost2010Prop36
280
     0
102
RTVSPost2010PropOp36
 70
     1
102
RTVSPost2010Prop37
 90
       50
102
RTVSPost2010PropOp37
 70
     1
102
RTVSPost2010Prop38
140
0.0
102
RTVSPost2010PropOp38
 70
     1
102
RTVSPost2010Prop39
140
1.0
102
RTVSPost2010PropOp39
 70
     1
102
RTVSPost2010Prop40
 90
        0
102
RTVSPost2010PropOp40
 70
     1
102
RTVSPost2010Prop41ColorIndex
 90
       18
102
RTVSPost2010Prop41ColorRGB
 90
        0
102
RTVSPost2010PropOp41
 70
     1
102
RTVSPost2010Prop42
 90
       50
102
RTVSPost2010PropOp42
 70
     1
102
RTVSPost2010Prop43
 90
        3
102
RTVSPost2010PropOp43
 70
     1
102
RTVSPost2010Prop44ColorIndex
 90
        5
102
RTVSPost2010Prop44ColorRGB
 90
      255
102
RTVSPost2010PropOp44
 70
     1
102
RTVSPost2010Prop45
280
     0
102
RTVSPost2010PropOp45
 70
     1
102
RTVSPost2010Prop46
 90
       50
102
RTVSPost2010PropOp46
 70
     1
102
RTVSPost2010Prop47
 90
       50
102
RTVSPost2010PropOp47
 70
     1
102
RTVSPost2010Prop48
 90
       50
102
RTVSPost2010PropOp48
 70
     1
102
RTVSPost2010Prop49
280
     0
102
RTVSPost2010PropOp49
 70
     1
102
RTVSPost2010Prop50
 90
       50
102
RTVSPost2010PropOp50
 70
     1
102
RTVSPost2010Prop51ColorIndex
 90
      256
102
RTVSPost2010Prop51ColorRGB
 90
-16777216
102
RTVSPost2010PropOp51
 70
     0
102
RTVSPost2010Prop52
140
1.0
102
RTVSPost2010PropOp52
 70
     0
102
RTVSPost2010Prop53
 90
        2
102
RTVSPost2010PropOp53
 70
     1
102
RTVSPost2010Prop54
  1
strokes_ogs.tif
102
RTVSPost2010PropOp54
 70
     1
102
RTVSPost2010Prop55
280
     0
102
RTVSPost2010PropOp55
 70
     1
102
RTVSPost2010Prop56
140
1.0
102
RTVSPost2010PropOp56
 70
     1
102
RTVSPost2010Prop57
140
1.0
102
RTVSPost2010PropOp57
 70
     1
  0
XRECORD
  5
4A1
102
{ACAD_REACTORS
330
4A0
102
}
330
4A0
100
AcDbXrecord
280
     1
102
RTVSPropertyOp0
 70
     1
102
RTVSPropertyOp1
 70
     1
102
RTVSPropertyOp2
 70
     1
102
RTVSPropertyOp3
 70
     1
102
RTVSPropertyOp4
 70
     1
102
RTVSPropertyOp5
 70
     1
102
RTVSPropertyOp6
 70
     1
102
RTVSPropertyOp7
 70
     1
102
RTVSPropertyOp8
 70
     1
102
RTVSPropertyOp9
 70
     1
102
RTVSPropertyOp10
 70
     1
102
RTVSPropertyOp11
 70
     1
102
RTVSPropertyOp12
 70
     1
102
RTVSPropertyOp13
 70
     1
102
RTVSPropertyOp14
 70
     1
102
RTVSPropertyOp15
 70
     1
102
RTVSPropertyOp16
 70
     1
102
RTVSPropertyOp17
 70
     1
102
RTVSPropertyOp18
 70
     1
102
RTVSPropertyOp19
 70
     1
102
RTVSPropertyOp20
 70
     1
102
RTVSPropertyOp21
 70
     1
102
RTVSPropertyOp22
 70
     1
102
RTVSPropertyOp23
 70
     1
102
RTVSPropertyOp24
 70
     1
102
RTVSPropertyOp25
 70
     1
102
RTVSPropertyOp26
 70
     1
102
RTVSPropertyOp27
 70
     1
102
RTVSPropertyOp28
 70
     1
102
RTVSPropertyOp29
 70
     1
102
RTVSPropertyOp30
 70
     1
102
RTVSPropertyOp31
 70
     1
102
RTVSPropertyOp32
 70
     1
102
RTVSPropertyOp33
 70
     1
102
RTVSPropertyOp34
 70
     1
102
RTVSPropertyOp35
 70
     1
102
RTVSPropertyOp36
 70
     1
102
RTVSPropertyOp37
 70
     1
102
RTVSPropertyOp38
 70
     1
102
RTVSPropertyOp39
 70
     1
102
RTVSPropertyOp40
 70
     1
102
RTVSPropertyOp41
 70
     1
102
RTVSPropertyOp42
 70
     1
102
RTVSPropertyOp43
 70
     1
102
RTVSPropertyOp44
 70
     1
102
RTVSPropertyOp45
 70
     1
102
RTVSPropertyOp46
 70
     1
102
RTVSPropertyOp47
 70
     1
102
RTVSPropertyOp48
 70
     1
102
RTVSPropertyOp49
 70
     1
102
RTVSPropertyOp50
 70
     1
102
RTVSPropertyOp51
 70
     0
102
RTVSPropertyOp52
 70
     0
102
RTVSPropertyOp53
 70
     1
102
RTVSPropertyOp54
 70
     1
102
RTVSPropertyOp55
 70
     1
102
RTVSPropertyOp56
 70
     1
102
RTVSPropertyOp57
 70
     1
102
RTVSPost2010Prop28
280
     0
102
RTVSPost2010PropOp28
 70
     1
102
RTVSPost2010Prop29
280
     1
102
RTVSPost2010PropOp29
 70
     1
102
RTVSPost2010Prop30
280
     1
102
RTVSPost2010PropOp30
 70
     1
102
RTVSPost2010Prop31
280
     0
102
RTVSPost2010PropOp31
 70
     1
102
RTVSPost2010Prop32
280
     0
102
RTVSPost2010PropOp32
 70
     1
102
RTVSPost2010Prop33
280
     0
102
RTVSPost2010PropOp33
 70
     1
102
RTVSPost2010Prop34
280
     0
102
RTVSPost2010PropOp34
 70
     1
102
RTVSPost2010Prop35
280
     0
102
RTVSPost2010PropOp35
 70
     1
102
RTVSPost2010Prop36
280
     0
102
RTVSPost2010PropOp36
 70
     1
102
RTVSPost2010Prop37
 90
       50
102
RTVSPost2010PropOp37
 70
     1
102
RTVSPost2010Prop38
140
0.0
102
RTVSPost2010PropOp38
 70
     1
102
RTVSPost2010Prop39
140
1.0
102
RTVSPost2010PropOp39
 70
     1
102
RTVSPost2010Prop40
 90
        0
102
RTVSPost2010PropOp40
 70
     1
102
RTVSPost2010Prop41ColorIndex
 90
       18
102
RTVSPost2010Prop41ColorRGB
 90
        0
102
RTVSPost2010PropOp41
 70
     1
102
RTVSPost2010Prop42
 90
       50
102
RTVSPost2010PropOp42
 70
     1
102
RTVSPost2010Prop43
 90
        3
102
RTVSPost2010PropOp43
 70
     1
102
RTVSPost2010Prop44ColorIndex
 90
        5
102
RTVSPost2010Prop44ColorRGB
 90
      255
102
RTVSPost2010PropOp44
 70
     1
102
RTVSPost2010Prop45
280
     0
102
RTVSPost2010PropOp45
 70
     1
102
RTVSPost2010Prop46
 90
       50
102
RTVSPost2010PropOp46
 70
     1
102
RTVSPost2010Prop47
 90
       50
102
RTVSPost2010PropOp47
 70
     1
102
RTVSPost2010Prop48
 90
       50
102
RTVSPost2010PropOp48
 70
     1
102
RTVSPost2010Prop49
280
     0
102
RTVSPost2010PropOp49
 70
     1
102
RTVSPost2010Prop50
 90
       50
102
RTVSPost2010PropOp50
 70
     1
102
RTVSPost2010Prop51ColorIndex
 90
      256
102
RTVSPost2010Prop51ColorRGB
 90
-16777216
102
RTVSPost2010PropOp51
 70
     0
102
RTVSPost2010Prop52
140
1.0
102
RTVSPost2010PropOp52
 70
     0
102
RTVSPost2010Prop53
 90
        2
102
RTVSPost2010PropOp53
 70
     1
102
RTVSPost2010Prop54
  1
strokes_ogs.tif
102
RTVSPost2010PropOp54
 70
     1
102
RTVSPost2010Prop55
280
     0
102
RTVSPost2010PropOp55
 70
     1
102
RTVSPost2010Prop56
140
1.0
102
RTVSPost2010PropOp56
 70
     1
102
RTVSPost2010Prop57
140
1.0
102
RTVSPost2010PropOp57
 70
     1
  0
XRECORD
  5
4A3
102
{ACAD_REACTORS
330
4A2
102
}
330
4A2
100
AcDbXrecord
280
     1
102
RTVSPropertyOp0
 70
     1
102
RTVSPropertyOp1
 70
     1
102
RTVSPropertyOp2
 70
     1
102
RTVSPropertyOp3
 70
     1
102
RTVSPropertyOp4
 70
     1
102
RTVSPropertyOp5
 70
     1
102
RTVSPropertyOp6
 70
     1
102
RTVSPropertyOp7
 70
     1
102
RTVSPropertyOp8
 70
     1
102
RTVSPropertyOp9
 70
     1
102
RTVSPropertyOp10
 70
     1
102
RTVSPropertyOp11
 70
     1
102
RTVSPropertyOp12
 70
     1
102
RTVSPropertyOp13
 70
     1
102
RTVSPropertyOp14
 70
     1
102
RTVSPropertyOp15
 70
     1
102
RTVSPropertyOp16
 70
     1
102
RTVSPropertyOp17
 70
     1
102
RTVSPropertyOp18
 70
     1
102
RTVSPropertyOp19
 70
     1
102
RTVSPropertyOp20
 70
     1
102
RTVSPropertyOp21
 70
     1
102
RTVSPropertyOp22
 70
     1
102
RTVSPropertyOp23
 70
     1
102
RTVSPropertyOp24
 70
     1
102
RTVSPropertyOp25
 70
     1
102
RTVSPropertyOp26
 70
     1
102
RTVSPropertyOp27
 70
     1
102
RTVSPropertyOp28
 70
     1
102
RTVSPropertyOp29
 70
     1
102
RTVSPropertyOp30
 70
     1
102
RTVSPropertyOp31
 70
     1
102
RTVSPropertyOp32
 70
     1
102
RTVSPropertyOp33
 70
     1
102
RTVSPropertyOp34
 70
     1
102
RTVSPropertyOp35
 70
     1
102
RTVSPropertyOp36
 70
     1
102
RTVSPropertyOp37
 70
     1
102
RTVSPropertyOp38
 70
     1
102
RTVSPropertyOp39
 70
     1
102
RTVSPropertyOp40
 70
     1
102
RTVSPropertyOp41
 70
     1
102
RTVSPropertyOp42
 70
     1
102
RTVSPropertyOp43
 70
     1
102
RTVSPropertyOp44
 70
     1
102
RTVSPropertyOp45
 70
     1
102
RTVSPropertyOp46
 70
     1
102
RTVSPropertyOp47
 70
     1
102
RTVSPropertyOp48
 70
     1
102
RTVSPropertyOp49
 70
     1
102
RTVSPropertyOp50
 70
     1
102
RTVSPropertyOp51
 70
     0
102
RTVSPropertyOp52
 70
     0
102
RTVSPropertyOp53
 70
     1
102
RTVSPropertyOp54
 70
     1
102
RTVSPropertyOp55
 70
     1
102
RTVSPropertyOp56
 70
     1
102
RTVSPropertyOp57
 70
     1
102
RTVSPost2010Prop28
280
     0
102
RTVSPost2010PropOp28
 70
     1
102
RTVSPost2010Prop29
280
     1
102
RTVSPost2010PropOp29
 70
     1
102
RTVSPost2010Prop30
280
     1
102
RTVSPost2010PropOp30
 70
     1
102
RTVSPost2010Prop31
280
     0
102
RTVSPost2010PropOp31
 70
     1
102
RTVSPost2010Prop32
280
     0
102
RTVSPost2010PropOp32
 70
     1
102
RTVSPost2010Prop33
280
     0
102
RTVSPost2010PropOp33
 70
     1
102
RTVSPost2010Prop34
280
     0
102
RTVSPost2010PropOp34
 70
     1
102
RTVSPost2010Prop35
280
     0
102
RTVSPost2010PropOp35
 70
     1
102
RTVSPost2010Prop36
280
     0
102
RTVSPost2010PropOp36
 70
     1
102
RTVSPost2010Prop37
 90
       50
102
RTVSPost2010PropOp37
 70
     1
102
RTVSPost2010Prop38
140
0.0
102
RTVSPost2010PropOp38
 70
     1
102
RTVSPost2010Prop39
140
1.0
102
RTVSPost2010PropOp39
 70
     1
102
RTVSPost2010Prop40
 90
        0
102
RTVSPost2010PropOp40
 70
     1
102
RTVSPost2010Prop41ColorIndex
 90
       18
102
RTVSPost2010Prop41ColorRGB
 90
        0
102
RTVSPost2010PropOp41
 70
     1
102
RTVSPost2010Prop42
 90
       50
102
RTVSPost2010PropOp42
 70
     1
102
RTVSPost2010Prop43
 90
        3
102
RTVSPost2010PropOp43
 70
     1
102
RTVSPost2010Prop44ColorIndex
 90
        5
102
RTVSPost2010Prop44ColorRGB
 90
      255
102
RTVSPost2010PropOp44
 70
     1
102
RTVSPost2010Prop45
280
     0
102
RTVSPost2010PropOp45
 70
     1
102
RTVSPost2010Prop46
 90
       50
102
RTVSPost2010PropOp46
 70
     1
102
RTVSPost2010Prop47
 90
       50
102
RTVSPost2010PropOp47
 70
     1
102
RTVSPost2010Prop48
 90
       50
102
RTVSPost2010PropOp48
 70
     1
102
RTVSPost2010Prop49
280
     0
102
RTVSPost2010PropOp49
 70
     1
102
RTVSPost2010Prop50
 90
       50
102
RTVSPost2010PropOp50
 70
     1
102
RTVSPost2010Prop51ColorIndex
 90
      256
102
RTVSPost2010Prop51ColorRGB
 90
-16777216
102
RTVSPost2010PropOp51
 70
     0
102
RTVSPost2010Prop52
140
1.0
102
RTVSPost2010PropOp52
 70
     0
102
RTVSPost2010Prop53
 90
        2
102
RTVSPost2010PropOp53
 70
     1
102
RTVSPost2010Prop54
  1
strokes_ogs.tif
102
RTVSPost2010PropOp54
 70
     1
102
RTVSPost2010Prop55
280
     0
102
RTVSPost2010PropOp55
 70
     1
102
RTVSPost2010Prop56
140
1.0
102
RTVSPost2010PropOp56
 70
     1
102
RTVSPost2010Prop57
140
1.0
102
RTVSPost2010PropOp57
 70
     1
  0
XRECORD
  5
4A5
102
{ACAD_REACTORS
330
4A4
102
}
330
4A4
100
AcDbXrecord
280
     1
102
RTVSPropertyOp0
 70
     1
102
RTVSPropertyOp1
 70
     1
102
RTVSPropertyOp2
 70
     1
102
RTVSPropertyOp3
 70
     1
102
RTVSPropertyOp4
 70
     1
102
RTVSPropertyOp5
 70
     1
102
RTVSPropertyOp6
 70
     1
102
RTVSPropertyOp7
 70
     1
102
RTVSPropertyOp8
 70
     1
102
RTVSPropertyOp9
 70
     1
102
RTVSPropertyOp10
 70
     1
102
RTVSPropertyOp11
 70
     1
102
RTVSPropertyOp12
 70
     1
102
RTVSPropertyOp13
 70
     1
102
RTVSPropertyOp14
 70
     1
102
RTVSPropertyOp15
 70
     1
102
RTVSPropertyOp16
 70
     1
102
RTVSPropertyOp17
 70
     1
102
RTVSPropertyOp18
 70
     1
102
RTVSPropertyOp19
 70
     1
102
RTVSPropertyOp20
 70
     1
102
RTVSPropertyOp21
 70
     1
102
RTVSPropertyOp22
 70
     1
102
RTVSPropertyOp23
 70
     1
102
RTVSPropertyOp24
 70
     1
102
RTVSPropertyOp25
 70
     1
102
RTVSPropertyOp26
 70
     1
102
RTVSPropertyOp27
 70
     1
102
RTVSPropertyOp28
 70
     1
102
RTVSPropertyOp29
 70
     1
102
RTVSPropertyOp30
 70
     1
102
RTVSPropertyOp31
 70
     1
102
RTVSPropertyOp32
 70
     1
102
RTVSPropertyOp33
 70
     1
102
RTVSPropertyOp34
 70
     1
102
RTVSPropertyOp35
 70
     1
102
RTVSPropertyOp36
 70
     1
102
RTVSPropertyOp37
 70
     1
102
RTVSPropertyOp38
 70
     1
102
RTVSPropertyOp39
 70
     1
102
RTVSPropertyOp40
 70
     1
102
RTVSPropertyOp41
 70
     1
102
RTVSPropertyOp42
 70
     1
102
RTVSPropertyOp43
 70
     1
102
RTVSPropertyOp44
 70
     1
102
RTVSPropertyOp45
 70
     1
102
RTVSPropertyOp46
 70
     1
102
RTVSPropertyOp47
 70
     1
102
RTVSPropertyOp48
 70
     1
102
RTVSPropertyOp49
 70
     1
102
RTVSPropertyOp50
 70
     1
102
RTVSPropertyOp51
 70
     0
102
RTVSPropertyOp52
 70
     0
102
RTVSPropertyOp53
 70
     1
102
RTVSPropertyOp54
 70
     1
102
RTVSPropertyOp55
 70
     1
102
RTVSPropertyOp56
 70
     1
102
RTVSPropertyOp57
 70
     1
102
RTVSPost2010Prop28
280
     0
102
RTVSPost2010PropOp28
 70
     1
102
RTVSPost2010Prop29
280
     1
102
RTVSPost2010PropOp29
 70
     1
102
RTVSPost2010Prop30
280
     1
102
RTVSPost2010PropOp30
 70
     1
102
RTVSPost2010Prop31
280
     0
102
RTVSPost2010PropOp31
 70
     1
102
RTVSPost2010Prop32
280
     0
102
RTVSPost2010PropOp32
 70
     1
102
RTVSPost2010Prop33
280
     0
102
RTVSPost2010PropOp33
 70
     1
102
RTVSPost2010Prop34
280
     0
102
RTVSPost2010PropOp34
 70
     1
102
RTVSPost2010Prop35
280
     0
102
RTVSPost2010PropOp35
 70
     1
102
RTVSPost2010Prop36
280
     0
102
RTVSPost2010PropOp36
 70
     1
102
RTVSPost2010Prop37
 90
       50
102
RTVSPost2010PropOp37
 70
     1
102
RTVSPost2010Prop38
140
0.0
102
RTVSPost2010PropOp38
 70
     1
102
RTVSPost2010Prop39
140
1.0
102
RTVSPost2010PropOp39
 70
     1
102
RTVSPost2010Prop40
 90
        0
102
RTVSPost2010PropOp40
 70
     1
102
RTVSPost2010Prop41ColorIndex
 90
       18
102
RTVSPost2010Prop41ColorRGB
 90
        0
102
RTVSPost2010PropOp41
 70
     1
102
RTVSPost2010Prop42
 90
       50
102
RTVSPost2010PropOp42
 70
     1
102
RTVSPost2010Prop43
 90
        3
102
RTVSPost2010PropOp43
 70
     1
102
RTVSPost2010Prop44ColorIndex
 90
        5
102
RTVSPost2010Prop44ColorRGB
 90
      255
102
RTVSPost2010PropOp44
 70
     1
102
RTVSPost2010Prop45
280
     0
102
RTVSPost2010PropOp45
 70
     1
102
RTVSPost2010Prop46
 90
       50
102
RTVSPost2010PropOp46
 70
     1
102
RTVSPost2010Prop47
 90
       50
102
RTVSPost2010PropOp47
 70
     1
102
RTVSPost2010Prop48
 90
       50
102
RTVSPost2010PropOp48
 70
     1
102
RTVSPost2010Prop49
280
     0
102
RTVSPost2010PropOp49
 70
     1
102
RTVSPost2010Prop50
 90
       50
102
RTVSPost2010PropOp50
 70
     1
102
RTVSPost2010Prop51ColorIndex
 90
      256
102
RTVSPost2010Prop51ColorRGB
 90
-16777216
102
RTVSPost2010PropOp51
 70
     0
102
RTVSPost2010Prop52
140
1.0
102
RTVSPost2010PropOp52
 70
     0
102
RTVSPost2010Prop53
 90
        2
102
RTVSPost2010PropOp53
 70
     1
102
RTVSPost2010Prop54
  1
strokes_ogs.tif
102
RTVSPost2010PropOp54
 70
     1
102
RTVSPost2010Prop55
280
     0
102
RTVSPost2010PropOp55
 70
     1
102
RTVSPost2010Prop56
140
1.0
102
RTVSPost2010PropOp56
 70
     1
102
RTVSPost2010Prop57
140
1.0
102
RTVSPost2010PropOp57
 70
     1
  0
XRECORD
  5
4A7
102
{ACAD_REACTORS
330
4A6
102
}
330
4A6
100
AcDbXrecord
280
     1
102
RTVSPropertyOp0
 70
     1
102
RTVSPropertyOp1
 70
     1
102
RTVSPropertyOp2
 70
     1
102
RTVSPropertyOp3
 70
     1
102
RTVSPropertyOp4
 70
     1
102
RTVSPropertyOp5
 70
     1
102
RTVSPropertyOp6
 70
     1
102
RTVSPropertyOp7
 70
     1
102
RTVSPropertyOp8
 70
     1
102
RTVSPropertyOp9
 70
     1
102
RTVSPropertyOp10
 70
     1
102
RTVSPropertyOp11
 70
     1
102
RTVSPropertyOp12
 70
     1
102
RTVSPropertyOp13
 70
     1
102
RTVSPropertyOp14
 70
     1
102
RTVSPropertyOp15
 70
     1
102
RTVSPropertyOp16
 70
     1
102
RTVSPropertyOp17
 70
     1
102
RTVSPropertyOp18
 70
     1
102
RTVSPropertyOp19
 70
     1
102
RTVSPropertyOp20
 70
     1
102
RTVSPropertyOp21
 70
     1
102
RTVSPropertyOp22
 70
     1
102
RTVSPropertyOp23
 70
     1
102
RTVSPropertyOp24
 70
     1
102
RTVSPropertyOp25
 70
     1
102
RTVSPropertyOp26
 70
     1
102
RTVSPropertyOp27
 70
     1
102
RTVSPropertyOp28
 70
     1
102
RTVSPropertyOp29
 70
     1
102
RTVSPropertyOp30
 70
     1
102
RTVSPropertyOp31
 70
     1
102
RTVSPropertyOp32
 70
     1
102
RTVSPropertyOp33
 70
     1
102
RTVSPropertyOp34
 70
     1
102
RTVSPropertyOp35
 70
     1
102
RTVSPropertyOp36
 70
     1
102
RTVSPropertyOp37
 70
     1
102
RTVSPropertyOp38
 70
     1
102
RTVSPropertyOp39
 70
     1
102
RTVSPropertyOp40
 70
     1
102
RTVSPropertyOp41
 70
     1
102
RTVSPropertyOp42
 70
     1
102
RTVSPropertyOp43
 70
     1
102
RTVSPropertyOp44
 70
     1
102
RTVSPropertyOp45
 70
     1
102
RTVSPropertyOp46
 70
     1
102
RTVSPropertyOp47
 70
     1
102
RTVSPropertyOp48
 70
     1
102
RTVSPropertyOp49
 70
     1
102
RTVSPropertyOp50
 70
     1
102
RTVSPropertyOp51
 70
     0
102
RTVSPropertyOp52
 70
     0
102
RTVSPropertyOp53
 70
     1
102
RTVSPropertyOp54
 70
     1
102
RTVSPropertyOp55
 70
     1
102
RTVSPropertyOp56
 70
     1
102
RTVSPropertyOp57
 70
     1
102
RTVSPost2010Prop28
280
     0
102
RTVSPost2010PropOp28
 70
     1
102
RTVSPost2010Prop29
280
     1
102
RTVSPost2010PropOp29
 70
     1
102
RTVSPost2010Prop30
280
     1
102
RTVSPost2010PropOp30
 70
     1
102
RTVSPost2010Prop31
280
     0
102
RTVSPost2010PropOp31
 70
     1
102
RTVSPost2010Prop32
280
     0
102
RTVSPost2010PropOp32
 70
     1
102
RTVSPost2010Prop33
280
     0
102
RTVSPost2010PropOp33
 70
     1
102
RTVSPost2010Prop34
280
     0
102
RTVSPost2010PropOp34
 70
     1
102
RTVSPost2010Prop35
280
     0
102
RTVSPost2010PropOp35
 70
     1
102
RTVSPost2010Prop36
280
     0
102
RTVSPost2010PropOp36
 70
     1
102
RTVSPost2010Prop37
 90
       50
102
RTVSPost2010PropOp37
 70
     1
102
RTVSPost2010Prop38
140
0.0
102
RTVSPost2010PropOp38
 70
     1
102
RTVSPost2010Prop39
140
1.0
102
RTVSPost2010PropOp39
 70
     1
102
RTVSPost2010Prop40
 90
        0
102
RTVSPost2010PropOp40
 70
     1
102
RTVSPost2010Prop41ColorIndex
 90
       18
102
RTVSPost2010Prop41ColorRGB
 90
        0
102
RTVSPost2010PropOp41
 70
     1
102
RTVSPost2010Prop42
 90
       50
102
RTVSPost2010PropOp42
 70
     1
102
RTVSPost2010Prop43
 90
        3
102
RTVSPost2010PropOp43
 70
     1
102
RTVSPost2010Prop44ColorIndex
 90
        5
102
RTVSPost2010Prop44ColorRGB
 90
      255
102
RTVSPost2010PropOp44
 70
     1
102
RTVSPost2010Prop45
280
     0
102
RTVSPost2010PropOp45
 70
     1
102
RTVSPost2010Prop46
 90
       50
102
RTVSPost2010PropOp46
 70
     1
102
RTVSPost2010Prop47
 90
       50
102
RTVSPost2010PropOp47
 70
     1
102
RTVSPost2010Prop48
 90
       50
102
RTVSPost2010PropOp48
 70
     1
102
RTVSPost2010Prop49
280
     0
102
RTVSPost2010PropOp49
 70
     1
102
RTVSPost2010Prop50
 90
       50
102
RTVSPost2010PropOp50
 70
     1
102
RTVSPost2010Prop51ColorIndex
 90
      256
102
RTVSPost2010Prop51ColorRGB
 90
-16777216
102
RTVSPost2010PropOp51
 70
     0
102
RTVSPost2010Prop52
140
1.0
102
RTVSPost2010PropOp52
 70
     0
102
RTVSPost2010Prop53
 90
        2
102
RTVSPost2010PropOp53
 70
     1
102
RTVSPost2010Prop54
  1
strokes_ogs.tif
102
RTVSPost2010PropOp54
 70
     1
102
RTVSPost2010Prop55
280
     0
102
RTVSPost2010PropOp55
 70
     1
102
RTVSPost2010Prop56
140
1.0
102
RTVSPost2010PropOp56
 70
     1
102
RTVSPost2010Prop57
140
1.0
102
RTVSPost2010PropOp57
 70
     1
  0
XRECORD
  5
4AD
102
{ACAD_REACTORS
330
4AC
102
}
330
4AC
100
AcDbXrecord
280
     1
102
RTVSPropertyOp0
 70
     1
102
RTVSPropertyOp1
 70
     1
102
RTVSPropertyOp2
 70
     1
102
RTVSPropertyOp3
 70
     1
102
RTVSPropertyOp4
 70
     1
102
RTVSPropertyOp5
 70
     1
102
RTVSPropertyOp6
 70
     1
102
RTVSPropertyOp7
 70
     1
102
RTVSPropertyOp8
 70
     1
102
RTVSPropertyOp9
 70
     1
102
RTVSPropertyOp10
 70
     1
102
RTVSPropertyOp11
 70
     1
102
RTVSPropertyOp12
 70
     1
102
RTVSPropertyOp13
 70
     1
102
RTVSPropertyOp14
 70
     1
102
RTVSPropertyOp15
 70
     1
102
RTVSPropertyOp16
 70
     1
102
RTVSPropertyOp17
 70
     1
102
RTVSPropertyOp18
 70
     1
102
RTVSPropertyOp19
 70
     1
102
RTVSPropertyOp20
 70
     1
102
RTVSPropertyOp21
 70
     1
102
RTVSPropertyOp22
 70
     1
102
RTVSPropertyOp23
 70
     1
102
RTVSPropertyOp24
 70
     1
102
RTVSPropertyOp25
 70
     1
102
RTVSPropertyOp26
 70
     1
102
RTVSPropertyOp27
 70
     1
102
RTVSPropertyOp28
 70
     1
102
RTVSPropertyOp29
 70
     1
102
RTVSPropertyOp30
 70
     1
102
RTVSPropertyOp31
 70
     1
102
RTVSPropertyOp32
 70
     1
102
RTVSPropertyOp33
 70
     1
102
RTVSPropertyOp34
 70
     1
102
RTVSPropertyOp35
 70
     1
102
RTVSPropertyOp36
 70
     1
102
RTVSPropertyOp37
 70
     1
102
RTVSPropertyOp38
 70
     1
102
RTVSPropertyOp39
 70
     1
102
RTVSPropertyOp40
 70
     1
102
RTVSPropertyOp41
 70
     1
102
RTVSPropertyOp42
 70
     1
102
RTVSPropertyOp43
 70
     1
102
RTVSPropertyOp44
 70
     1
102
RTVSPropertyOp45
 70
     1
102
RTVSPropertyOp46
 70
     1
102
RTVSPropertyOp47
 70
     1
102
RTVSPropertyOp48
 70
     1
102
RTVSPropertyOp49
 70
     1
102
RTVSPropertyOp50
 70
     1
102
RTVSPropertyOp51
 70
     0
102
RTVSPropertyOp52
 70
     0
102
RTVSPropertyOp53
 70
     1
102
RTVSPropertyOp54
 70
     1
102
RTVSPropertyOp55
 70
     1
102
RTVSPropertyOp56
 70
     1
102
RTVSPropertyOp57
 70
     1
102
RTVSPost2010Prop28
280
     0
102
RTVSPost2010PropOp28
 70
     1
102
RTVSPost2010Prop29
280
     1
102
RTVSPost2010PropOp29
 70
     1
102
RTVSPost2010Prop30
280
     1
102
RTVSPost2010PropOp30
 70
     1
102
RTVSPost2010Prop31
280
     0
102
RTVSPost2010PropOp31
 70
     1
102
RTVSPost2010Prop32
280
     0
102
RTVSPost2010PropOp32
 70
     1
102
RTVSPost2010Prop33
280
     0
102
RTVSPost2010PropOp33
 70
     1
102
RTVSPost2010Prop34
280
     0
102
RTVSPost2010PropOp34
 70
     1
102
RTVSPost2010Prop35
280
     0
102
RTVSPost2010PropOp35
 70
     1
102
RTVSPost2010Prop36
280
     0
102
RTVSPost2010PropOp36
 70
     1
102
RTVSPost2010Prop37
 90
       50
102
RTVSPost2010PropOp37
 70
     1
102
RTVSPost2010Prop38
140
0.0
102
RTVSPost2010PropOp38
 70
     1
102
RTVSPost2010Prop39
140
1.0
102
RTVSPost2010PropOp39
 70
     1
102
RTVSPost2010Prop40
 90
        0
102
RTVSPost2010PropOp40
 70
     1
102
RTVSPost2010Prop41ColorIndex
 90
       18
102
RTVSPost2010Prop41ColorRGB
 90
        0
102
RTVSPost2010PropOp41
 70
     1
102
RTVSPost2010Prop42
 90
       50
102
RTVSPost2010PropOp42
 70
     1
102
RTVSPost2010Prop43
 90
        3
102
RTVSPost2010PropOp43
 70
     1
102
RTVSPost2010Prop44ColorIndex
 90
        5
102
RTVSPost2010Prop44ColorRGB
 90
      255
102
RTVSPost2010PropOp44
 70
     1
102
RTVSPost2010Prop45
280
     0
102
RTVSPost2010PropOp45
 70
     1
102
RTVSPost2010Prop46
 90
       50
102
RTVSPost2010PropOp46
 70
     1
102
RTVSPost2010Prop47
 90
       50
102
RTVSPost2010PropOp47
 70
     1
102
RTVSPost2010Prop48
 90
       50
102
RTVSPost2010PropOp48
 70
     1
102
RTVSPost2010Prop49
280
     0
102
RTVSPost2010PropOp49
 70
     1
102
RTVSPost2010Prop50
 90
       50
102
RTVSPost2010PropOp50
 70
     1
102
RTVSPost2010Prop51ColorIndex
 90
      256
102
RTVSPost2010Prop51ColorRGB
 90
-16777216
102
RTVSPost2010PropOp51
 70
     0
102
RTVSPost2010Prop52
140
1.0
102
RTVSPost2010PropOp52
 70
     0
102
RTVSPost2010Prop53
 90
        2
102
RTVSPost2010PropOp53
 70
     1
102
RTVSPost2010Prop54
  1
strokes_ogs.tif
102
RTVSPost2010PropOp54
 70
     1
102
RTVSPost2010Prop55
280
     0
102
RTVSPost2010PropOp55
 70
     1
102
RTVSPost2010Prop56
140
1.0
102
RTVSPost2010PropOp56
 70
     1
102
RTVSPost2010Prop57
140
1.0
102
RTVSPost2010PropOp57
 70
     1
  0
XRECORD
  5
4C1
102
{ACAD_REACTORS
330
4C0
102
}
330
4C0
100
AcDbXrecord
280
     1
102
RTVSPropertyOp0
 70
     0
102
RTVSPropertyOp1
 70
     0
102
RTVSPropertyOp2
 70
     0
102
RTVSPropertyOp3
 70
     0
102
RTVSPropertyOp4
 70
     0
102
RTVSPropertyOp5
 70
     0
102
RTVSPropertyOp6
 70
     0
102
RTVSPropertyOp7
 70
     0
102
RTVSPropertyOp8
 70
     0
102
RTVSPropertyOp9
 70
     0
102
RTVSPropertyOp10
 70
     0
102
RTVSPropertyOp11
 70
     0
102
RTVSPropertyOp12
 70
     0
102
RTVSPropertyOp13
 70
     0
102
RTVSPropertyOp14
 70
     2
102
RTVSPropertyOp15
 70
     0
102
RTVSPropertyOp16
 70
     0
102
RTVSPropertyOp17
 70
     0
102
RTVSPropertyOp18
 70
     0
102
RTVSPropertyOp19
 70
     0
102
RTVSPropertyOp20
 70
     0
102
RTVSPropertyOp21
 70
     0
102
RTVSPropertyOp22
 70
     0
102
RTVSPropertyOp23
 70
     0
102
RTVSPropertyOp24
 70
     0
102
RTVSPropertyOp25
 70
     0
102
RTVSPropertyOp26
 70
     0
102
RTVSPropertyOp27
 70
     0
102
RTVSPropertyOp28
 70
     0
102
RTVSPropertyOp29
 70
     0
102
RTVSPropertyOp30
 70
     0
102
RTVSPropertyOp31
 70
     0
102
RTVSPropertyOp32
 70
     0
102
RTVSPropertyOp33
 70
     0
102
RTVSPropertyOp34
 70
     0
102
RTVSPropertyOp35
 70
     0
102
RTVSPropertyOp36
 70
     0
102
RTVSPropertyOp37
 70
     0
102
RTVSPropertyOp38
 70
     0
102
RTVSPropertyOp39
 70
     0
102
RTVSPropertyOp40
 70
     0
102
RTVSPropertyOp41
 70
     0
102
RTVSPropertyOp42
 70
     0
102
RTVSPropertyOp43
 70
     0
102
RTVSPropertyOp44
 70
     0
102
RTVSPropertyOp45
 70
     0
102
RTVSPropertyOp46
 70
     0
102
RTVSPropertyOp47
 70
     0
102
RTVSPropertyOp48
 70
     0
102
RTVSPropertyOp49
 70
     0
102
RTVSPropertyOp50
 70
     0
102
RTVSPropertyOp51
 70
     0
102
RTVSPropertyOp52
 70
     0
102
RTVSPropertyOp53
 70
     0
102
RTVSPropertyOp54
 70
     0
102
RTVSPropertyOp55
 70
     0
102
RTVSPropertyOp56
 70
     0
102
RTVSPropertyOp57
 70
     0
102
RTVSPost2010Prop28
280
     0
102
RTVSPost2010PropOp28
 70
     0
102
RTVSPost2010Prop29
280
     1
102
RTVSPost2010PropOp29
 70
     0
102
RTVSPost2010Prop30
280
     1
102
RTVSPost2010PropOp30
 70
     0
102
RTVSPost2010Prop31
280
     0
102
RTVSPost2010PropOp31
 70
     0
102
RTVSPost2010Prop32
280
     0
102
RTVSPost2010PropOp32
 70
     0
102
RTVSPost2010Prop33
280
     0
102
RTVSPost2010PropOp33
 70
     0
102
RTVSPost2010Prop34
280
     0
102
RTVSPost2010PropOp34
 70
     0
102
RTVSPost2010Prop35
280
     0
102
RTVSPost2010PropOp35
 70
     0
102
RTVSPost2010Prop36
280
     0
102
RTVSPost2010PropOp36
 70
     0
102
RTVSPost2010Prop37
 90
       50
102
RTVSPost2010PropOp37
 70
     0
102
RTVSPost2010Prop38
140
0.0
102
RTVSPost2010PropOp38
 70
     0
102
RTVSPost2010Prop39
140
1.0
102
RTVSPost2010PropOp39
 70
     0
102
RTVSPost2010Prop40
 90
        0
102
RTVSPost2010PropOp40
 70
     0
102
RTVSPost2010Prop41ColorIndex
 90
       18
102
RTVSPost2010Prop41ColorRGB
 90
        0
102
RTVSPost2010PropOp41
 70
     0
102
RTVSPost2010Prop42
 90
       50
102
RTVSPost2010PropOp42
 70
     0
102
RTVSPost2010Prop43
 90
        3
102
RTVSPost2010PropOp43
 70
     0
102
RTVSPost2010Prop44ColorIndex
 90
        5
102
RTVSPost2010Prop44ColorRGB
 90
      255
102
RTVSPost2010PropOp44
 70
     0
102
RTVSPost2010Prop45
280
     0
102
RTVSPost2010PropOp45
 70
     0
102
RTVSPost2010Prop46
 90
       50
102
RTVSPost2010PropOp46
 70
     0
102
RTVSPost2010Prop47
 90
       50
102
RTVSPost2010PropOp47
 70
     0
102
RTVSPost2010Prop48
 90
       50
102
RTVSPost2010PropOp48
 70
     0
102
RTVSPost2010Prop49
280
     0
102
RTVSPost2010PropOp49
 70
     0
102
RTVSPost2010Prop50
 90
       50
102
RTVSPost2010PropOp50
 70
     0
102
RTVSPost2010Prop51ColorIndex
 90
      256
102
RTVSPost2010Prop51ColorRGB
 90
-16777216
102
RTVSPost2010PropOp51
 70
     0
102
RTVSPost2010Prop52
140
1.0
102
RTVSPost2010PropOp52
 70
     0
102
RTVSPost2010Prop53
 90
        2
102
RTVSPost2010PropOp53
 70
     0
102
RTVSPost2010Prop54
  1
strokes_ogs.tif
102
RTVSPost2010PropOp54
 70
     0
102
RTVSPost2010Prop55
280
     0
102
RTVSPost2010PropOp55
 70
     0
102
RTVSPost2010Prop56
140
1.0
102
RTVSPost2010PropOp56
 70
     0
102
RTVSPost2010Prop57
140
1.0
102
RTVSPost2010PropOp57
 70
     0
  0
XRECORD
  5
4BB
102
{ACAD_REACTORS
330
4BA
102
}
330
4BA
100
AcDbXrecord
280
     1
102
RTVSPropertyOp0
 70
     1
102
RTVSPropertyOp1
 70
     1
102
RTVSPropertyOp2
 70
     1
102
RTVSPropertyOp3
 70
     1
102
RTVSPropertyOp4
 70
     1
102
RTVSPropertyOp5
 70
     1
102
RTVSPropertyOp6
 70
     1
102
RTVSPropertyOp7
 70
     1
102
RTVSPropertyOp8
 70
     1
102
RTVSPropertyOp9
 70
     1
102
RTVSPropertyOp10
 70
     1
102
RTVSPropertyOp11
 70
     1
102
RTVSPropertyOp12
 70
     1
102
RTVSPropertyOp13
 70
     1
102
RTVSPropertyOp14
 70
     1
102
RTVSPropertyOp15
 70
     1
102
RTVSPropertyOp16
 70
     1
102
RTVSPropertyOp17
 70
     1
102
RTVSPropertyOp18
 70
     1
102
RTVSPropertyOp19
 70
     1
102
RTVSPropertyOp20
 70
     1
102
RTVSPropertyOp21
 70
     1
102
RTVSPropertyOp22
 70
     1
102
RTVSPropertyOp23
 70
     1
102
RTVSPropertyOp24
 70
     1
102
RTVSPropertyOp25
 70
     1
102
RTVSPropertyOp26
 70
     1
102
RTVSPropertyOp27
 70
     1
102
RTVSPropertyOp28
 70
     1
102
RTVSPropertyOp29
 70
     1
102
RTVSPropertyOp30
 70
     1
102
RTVSPropertyOp31
 70
     1
102
RTVSPropertyOp32
 70
     1
102
RTVSPropertyOp33
 70
     1
102
RTVSPropertyOp34
 70
     1
102
RTVSPropertyOp35
 70
     1
102
RTVSPropertyOp36
 70
     1
102
RTVSPropertyOp37
 70
     1
102
RTVSPropertyOp38
 70
     1
102
RTVSPropertyOp39
 70
     1
102
RTVSPropertyOp40
 70
     1
102
RTVSPropertyOp41
 70
     1
102
RTVSPropertyOp42
 70
     1
102
RTVSPropertyOp43
 70
     1
102
RTVSPropertyOp44
 70
     1
102
RTVSPropertyOp45
 70
     1
102
RTVSPropertyOp46
 70
     1
102
RTVSPropertyOp47
 70
     1
102
RTVSPropertyOp48
 70
     1
102
RTVSPropertyOp49
 70
     1
102
RTVSPropertyOp50
 70
     1
102
RTVSPropertyOp51
 70
     0
102
RTVSPropertyOp52
 70
     0
102
RTVSPropertyOp53
 70
     1
102
RTVSPropertyOp54
 70
     1
102
RTVSPropertyOp55
 70
     1
102
RTVSPropertyOp56
 70
     1
102
RTVSPropertyOp57
 70
     1
102
RTVSPost2010Prop28
280
     0
102
RTVSPost2010PropOp28
 70
     1
102
RTVSPost2010Prop29
280
     1
102
RTVSPost2010PropOp29
 70
     1
102
RTVSPost2010Prop30
280
     1
102
RTVSPost2010PropOp30
 70
     1
102
RTVSPost2010Prop31
280
     0
102
RTVSPost2010PropOp31
 70
     1
102
RTVSPost2010Prop32
280
     0
102
RTVSPost2010PropOp32
 70
     1
102
RTVSPost2010Prop33
280
     0
102
RTVSPost2010PropOp33
 70
     1
102
RTVSPost2010Prop34
280
     0
102
RTVSPost2010PropOp34
 70
     1
102
RTVSPost2010Prop35
280
     0
102
RTVSPost2010PropOp35
 70
     1
102
RTVSPost2010Prop36
280
     0
102
RTVSPost2010PropOp36
 70
     1
102
RTVSPost2010Prop37
 90
       50
102
RTVSPost2010PropOp37
 70
     1
102
RTVSPost2010Prop38
140
0.0
102
RTVSPost2010PropOp38
 70
     1
102
RTVSPost2010Prop39
140
1.0
102
RTVSPost2010PropOp39
 70
     1
102
RTVSPost2010Prop40
 90
        0
102
RTVSPost2010PropOp40
 70
     1
102
RTVSPost2010Prop41ColorIndex
 90
       18
102
RTVSPost2010Prop41ColorRGB
 90
        0
102
RTVSPost2010PropOp41
 70
     1
102
RTVSPost2010Prop42
 90
       50
102
RTVSPost2010PropOp42
 70
     1
102
RTVSPost2010Prop43
 90
        3
102
RTVSPost2010PropOp43
 70
     1
102
RTVSPost2010Prop44ColorIndex
 90
        5
102
RTVSPost2010Prop44ColorRGB
 90
      255
102
RTVSPost2010PropOp44
 70
     1
102
RTVSPost2010Prop45
280
     0
102
RTVSPost2010PropOp45
 70
     1
102
RTVSPost2010Prop46
 90
       50
102
RTVSPost2010PropOp46
 70
     1
102
RTVSPost2010Prop47
 90
       50
102
RTVSPost2010PropOp47
 70
     1
102
RTVSPost2010Prop48
 90
       50
102
RTVSPost2010PropOp48
 70
     1
102
RTVSPost2010Prop49
280
     0
102
RTVSPost2010PropOp49
 70
     1
102
RTVSPost2010Prop50
 90
       50
102
RTVSPost2010PropOp50
 70
     1
102
RTVSPost2010Prop51ColorIndex
 90
      256
102
RTVSPost2010Prop51ColorRGB
 90
-16777216
102
RTVSPost2010PropOp51
 70
     0
102
RTVSPost2010Prop52
140
1.0
102
RTVSPost2010PropOp52
 70
     0
102
RTVSPost2010Prop53
 90
        2
102
RTVSPost2010PropOp53
 70
     1
102
RTVSPost2010Prop54
  1
strokes_ogs.tif
102
RTVSPost2010PropOp54
 70
     1
102
RTVSPost2010Prop55
280
     0
102
RTVSPost2010PropOp55
 70
     1
102
RTVSPost2010Prop56
140
1.0
102
RTVSPost2010PropOp56
 70
     1
102
RTVSPost2010Prop57
140
1.0
102
RTVSPost2010PropOp57
 70
     1
  0
XRECORD
  5
4C3
102
{ACAD_REACTORS
330
4C2
102
}
330
4C2
100
AcDbXrecord
280
     1
102
RTVSPropertyOp0
 70
     0
102
RTVSPropertyOp1
 70
     0
102
RTVSPropertyOp2
 70
     0
102
RTVSPropertyOp3
 70
     0
102
RTVSPropertyOp4
 70
     0
102
RTVSPropertyOp5
 70
     0
102
RTVSPropertyOp6
 70
     0
102
RTVSPropertyOp7
 70
     0
102
RTVSPropertyOp8
 70
     0
102
RTVSPropertyOp9
 70
     0
102
RTVSPropertyOp10
 70
     0
102
RTVSPropertyOp11
 70
     0
102
RTVSPropertyOp12
 70
     0
102
RTVSPropertyOp13
 70
     0
102
RTVSPropertyOp14
 70
     2
102
RTVSPropertyOp15
 70
     0
102
RTVSPropertyOp16
 70
     0
102
RTVSPropertyOp17
 70
     0
102
RTVSPropertyOp18
 70
     0
102
RTVSPropertyOp19
 70
     0
102
RTVSPropertyOp20
 70
     0
102
RTVSPropertyOp21
 70
     0
102
RTVSPropertyOp22
 70
     0
102
RTVSPropertyOp23
 70
     0
102
RTVSPropertyOp24
 70
     0
102
RTVSPropertyOp25
 70
     0
102
RTVSPropertyOp26
 70
     0
102
RTVSPropertyOp27
 70
     0
102
RTVSPropertyOp28
 70
     0
102
RTVSPropertyOp29
 70
     0
102
RTVSPropertyOp30
 70
     0
102
RTVSPropertyOp31
 70
     0
102
RTVSPropertyOp32
 70
     0
102
RTVSPropertyOp33
 70
     0
102
RTVSPropertyOp34
 70
     0
102
RTVSPropertyOp35
 70
     0
102
RTVSPropertyOp36
 70
     0
102
RTVSPropertyOp37
 70
     0
102
RTVSPropertyOp38
 70
     0
102
RTVSPropertyOp39
 70
     0
102
RTVSPropertyOp40
 70
     0
102
RTVSPropertyOp41
 70
     0
102
RTVSPropertyOp42
 70
     0
102
RTVSPropertyOp43
 70
     0
102
RTVSPropertyOp44
 70
     0
102
RTVSPropertyOp45
 70
     0
102
RTVSPropertyOp46
 70
     0
102
RTVSPropertyOp47
 70
     0
102
RTVSPropertyOp48
 70
     0
102
RTVSPropertyOp49
 70
     0
102
RTVSPropertyOp50
 70
     0
102
RTVSPropertyOp51
 70
     0
102
RTVSPropertyOp52
 70
     0
102
RTVSPropertyOp53
 70
     0
102
RTVSPropertyOp54
 70
     0
102
RTVSPropertyOp55
 70
     0
102
RTVSPropertyOp56
 70
     0
102
RTVSPropertyOp57
 70
     0
102
RTVSPost2010Prop28
280
     0
102
RTVSPost2010PropOp28
 70
     0
102
RTVSPost2010Prop29
280
     1
102
RTVSPost2010PropOp29
 70
     0
102
RTVSPost2010Prop30
280
     1
102
RTVSPost2010PropOp30
 70
     0
102
RTVSPost2010Prop31
280
     0
102
RTVSPost2010PropOp31
 70
     0
102
RTVSPost2010Prop32
280
     0
102
RTVSPost2010PropOp32
 70
     0
102
RTVSPost2010Prop33
280
     0
102
RTVSPost2010PropOp33
 70
     0
102
RTVSPost2010Prop34
280
     0
102
RTVSPost2010PropOp34
 70
     0
102
RTVSPost2010Prop35
280
     0
102
RTVSPost2010PropOp35
 70
     0
102
RTVSPost2010Prop36
280
     0
102
RTVSPost2010PropOp36
 70
     0
102
RTVSPost2010Prop37
 90
       50
102
RTVSPost2010PropOp37
 70
     0
102
RTVSPost2010Prop38
140
0.0
102
RTVSPost2010PropOp38
 70
     0
102
RTVSPost2010Prop39
140
1.0
102
RTVSPost2010PropOp39
 70
     0
102
RTVSPost2010Prop40
 90
        0
102
RTVSPost2010PropOp40
 70
     0
102
RTVSPost2010Prop41ColorIndex
 90
       18
102
RTVSPost2010Prop41ColorRGB
 90
        0
102
RTVSPost2010PropOp41
 70
     0
102
RTVSPost2010Prop42
 90
       50
102
RTVSPost2010PropOp42
 70
     0
102
RTVSPost2010Prop43
 90
        3
102
RTVSPost2010PropOp43
 70
     0
102
RTVSPost2010Prop44ColorIndex
 90
        5
102
RTVSPost2010Prop44ColorRGB
 90
      255
102
RTVSPost2010PropOp44
 70
     0
102
RTVSPost2010Prop45
280
     0
102
RTVSPost2010PropOp45
 70
     0
102
RTVSPost2010Prop46
 90
       50
102
RTVSPost2010PropOp46
 70
     0
102
RTVSPost2010Prop47
 90
       50
102
RTVSPost2010PropOp47
 70
     0
102
RTVSPost2010Prop48
 90
       50
102
RTVSPost2010PropOp48
 70
     0
102
RTVSPost2010Prop49
280
     0
102
RTVSPost2010PropOp49
 70
     0
102
RTVSPost2010Prop50
 90
       50
102
RTVSPost2010PropOp50
 70
     0
102
RTVSPost2010Prop51ColorIndex
 90
      256
102
RTVSPost2010Prop51ColorRGB
 90
-16777216
102
RTVSPost2010PropOp51
 70
     0
102
RTVSPost2010Prop52
140
1.0
102
RTVSPost2010PropOp52
 70
     0
102
RTVSPost2010Prop53
 90
        2
102
RTVSPost2010PropOp53
 70
     0
102
RTVSPost2010Prop54
  1
strokes_ogs.tif
102
RTVSPost2010PropOp54
 70
     0
102
RTVSPost2010Prop55
280
     0
102
RTVSPost2010PropOp55
 70
     0
102
RTVSPost2010Prop56
140
1.0
102
RTVSPost2010PropOp56
 70
     0
102
RTVSPost2010Prop57
140
1.0
102
RTVSPost2010PropOp57
 70
     0
  0
XRECORD
  5
4B1
102
{ACAD_REACTORS
330
4B0
102
}
330
4B0
100
AcDbXrecord
280
     1
102
RTVSPropertyOp0
 70
     1
102
RTVSPropertyOp1
 70
     1
102
RTVSPropertyOp2
 70
     1
102
RTVSPropertyOp3
 70
     1
102
RTVSPropertyOp4
 70
     1
102
RTVSPropertyOp5
 70
     1
102
RTVSPropertyOp6
 70
     1
102
RTVSPropertyOp7
 70
     1
102
RTVSPropertyOp8
 70
     1
102
RTVSPropertyOp9
 70
     1
102
RTVSPropertyOp10
 70
     1
102
RTVSPropertyOp11
 70
     1
102
RTVSPropertyOp12
 70
     1
102
RTVSPropertyOp13
 70
     1
102
RTVSPropertyOp14
 70
     1
102
RTVSPropertyOp15
 70
     1
102
RTVSPropertyOp16
 70
     1
102
RTVSPropertyOp17
 70
     1
102
RTVSPropertyOp18
 70
     1
102
RTVSPropertyOp19
 70
     1
102
RTVSPropertyOp20
 70
     1
102
RTVSPropertyOp21
 70
     1
102
RTVSPropertyOp22
 70
     1
102
RTVSPropertyOp23
 70
     1
102
RTVSPropertyOp24
 70
     1
102
RTVSPropertyOp25
 70
     1
102
RTVSPropertyOp26
 70
     1
102
RTVSPropertyOp27
 70
     1
102
RTVSPropertyOp28
 70
     1
102
RTVSPropertyOp29
 70
     1
102
RTVSPropertyOp30
 70
     1
102
RTVSPropertyOp31
 70
     1
102
RTVSPropertyOp32
 70
     1
102
RTVSPropertyOp33
 70
     1
102
RTVSPropertyOp34
 70
     1
102
RTVSPropertyOp35
 70
     1
102
RTVSPropertyOp36
 70
     1
102
RTVSPropertyOp37
 70
     1
102
RTVSPropertyOp38
 70
     1
102
RTVSPropertyOp39
 70
     1
102
RTVSPropertyOp40
 70
     1
102
RTVSPropertyOp41
 70
     1
102
RTVSPropertyOp42
 70
     1
102
RTVSPropertyOp43
 70
     1
102
RTVSPropertyOp44
 70
     1
102
RTVSPropertyOp45
 70
     1
102
RTVSPropertyOp46
 70
     1
102
RTVSPropertyOp47
 70
     1
102
RTVSPropertyOp48
 70
     1
102
RTVSPropertyOp49
 70
     1
102
RTVSPropertyOp50
 70
     1
102
RTVSPropertyOp51
 70
     0
102
RTVSPropertyOp52
 70
     0
102
RTVSPropertyOp53
 70
     1
102
RTVSPropertyOp54
 70
     1
102
RTVSPropertyOp55
 70
     1
102
RTVSPropertyOp56
 70
     1
102
RTVSPropertyOp57
 70
     1
102
RTVSPost2010Prop28
280
     0
102
RTVSPost2010PropOp28
 70
     1
102
RTVSPost2010Prop29
280
     1
102
RTVSPost2010PropOp29
 70
     1
102
RTVSPost2010Prop30
280
     1
102
RTVSPost2010PropOp30
 70
     1
102
RTVSPost2010Prop31
280
     0
102
RTVSPost2010PropOp31
 70
     1
102
RTVSPost2010Prop32
280
     0
102
RTVSPost2010PropOp32
 70
     1
102
RTVSPost2010Prop33
280
     0
102
RTVSPost2010PropOp33
 70
     1
102
RTVSPost2010Prop34
280
     0
102
RTVSPost2010PropOp34
 70
     1
102
RTVSPost2010Prop35
280
     0
102
RTVSPost2010PropOp35
 70
     1
102
RTVSPost2010Prop36
280
     0
102
RTVSPost2010PropOp36
 70
     1
102
RTVSPost2010Prop37
 90
       50
102
RTVSPost2010PropOp37
 70
     1
102
RTVSPost2010Prop38
140
0.0
102
RTVSPost2010PropOp38
 70
     1
102
RTVSPost2010Prop39
140
1.0
102
RTVSPost2010PropOp39
 70
     1
102
RTVSPost2010Prop40
 90
        0
102
RTVSPost2010PropOp40
 70
     1
102
RTVSPost2010Prop41ColorIndex
 90
       18
102
RTVSPost2010Prop41ColorRGB
 90
        0
102
RTVSPost2010PropOp41
 70
     1
102
RTVSPost2010Prop42
 90
       50
102
RTVSPost2010PropOp42
 70
     1
102
RTVSPost2010Prop43
 90
        3
102
RTVSPost2010PropOp43
 70
     1
102
RTVSPost2010Prop44ColorIndex
 90
        5
102
RTVSPost2010Prop44ColorRGB
 90
      255
102
RTVSPost2010PropOp44
 70
     1
102
RTVSPost2010Prop45
280
     0
102
RTVSPost2010PropOp45
 70
     1
102
RTVSPost2010Prop46
 90
       50
102
RTVSPost2010PropOp46
 70
     1
102
RTVSPost2010Prop47
 90
       50
102
RTVSPost2010PropOp47
 70
     1
102
RTVSPost2010Prop48
 90
       50
102
RTVSPost2010PropOp48
 70
     1
102
RTVSPost2010Prop49
280
     0
102
RTVSPost2010PropOp49
 70
     1
102
RTVSPost2010Prop50
 90
       50
102
RTVSPost2010PropOp50
 70
     1
102
RTVSPost2010Prop51ColorIndex
 90
      256
102
RTVSPost2010Prop51ColorRGB
 90
-16777216
102
RTVSPost2010PropOp51
 70
     0
102
RTVSPost2010Prop52
140
1.0
102
RTVSPost2010PropOp52
 70
     0
102
RTVSPost2010Prop53
 90
        2
102
RTVSPost2010PropOp53
 70
     1
102
RTVSPost2010Prop54
  1
strokes_ogs.tif
102
RTVSPost2010PropOp54
 70
     1
102
RTVSPost2010Prop55
280
     0
102
RTVSPost2010PropOp55
 70
     1
102
RTVSPost2010Prop56
140
1.0
102
RTVSPost2010PropOp56
 70
     1
102
RTVSPost2010Prop57
140
1.0
102
RTVSPost2010PropOp57
 70
     1
  0
XRECORD
  5
4CF
102
{ACAD_REACTORS
330
4CE
102
}
330
4CE
100
AcDbXrecord
280
     1
102
RTVSPropertyOp0
 70
     1
102
RTVSPropertyOp1
 70
     1
102
RTVSPropertyOp2
 70
     1
102
RTVSPropertyOp3
 70
     1
102
RTVSPropertyOp4
 70
     1
102
RTVSPropertyOp5
 70
     1
102
RTVSPropertyOp6
 70
     1
102
RTVSPropertyOp7
 70
     1
102
RTVSPropertyOp8
 70
     1
102
RTVSPropertyOp9
 70
     1
102
RTVSPropertyOp10
 70
     1
102
RTVSPropertyOp11
 70
     1
102
RTVSPropertyOp12
 70
     1
102
RTVSPropertyOp13
 70
     1
102
RTVSPropertyOp14
 70
     1
102
RTVSPropertyOp15
 70
     1
102
RTVSPropertyOp16
 70
     1
102
RTVSPropertyOp17
 70
     1
102
RTVSPropertyOp18
 70
     1
102
RTVSPropertyOp19
 70
     1
102
RTVSPropertyOp20
 70
     1
102
RTVSPropertyOp21
 70
     1
102
RTVSPropertyOp22
 70
     1
102
RTVSPropertyOp23
 70
     1
102
RTVSPropertyOp24
 70
     1
102
RTVSPropertyOp25
 70
     1
102
RTVSPropertyOp26
 70
     1
102
RTVSPropertyOp27
 70
     1
102
RTVSPropertyOp28
 70
     1
102
RTVSPropertyOp29
 70
     1
102
RTVSPropertyOp30
 70
     1
102
RTVSPropertyOp31
 70
     1
102
RTVSPropertyOp32
 70
     1
102
RTVSPropertyOp33
 70
     1
102
RTVSPropertyOp34
 70
     1
102
RTVSPropertyOp35
 70
     1
102
RTVSPropertyOp36
 70
     1
102
RTVSPropertyOp37
 70
     1
102
RTVSPropertyOp38
 70
     1
102
RTVSPropertyOp39
 70
     1
102
RTVSPropertyOp40
 70
     1
102
RTVSPropertyOp41
 70
     1
102
RTVSPropertyOp42
 70
     1
102
RTVSPropertyOp43
 70
     1
102
RTVSPropertyOp44
 70
     1
102
RTVSPropertyOp45
 70
     1
102
RTVSPropertyOp46
 70
     1
102
RTVSPropertyOp47
 70
     1
102
RTVSPropertyOp48
 70
     1
102
RTVSPropertyOp49
 70
     1
102
RTVSPropertyOp50
 70
     1
102
RTVSPropertyOp51
 70
     0
102
RTVSPropertyOp52
 70
     0
102
RTVSPropertyOp53
 70
     1
102
RTVSPropertyOp54
 70
     1
102
RTVSPropertyOp55
 70
     1
102
RTVSPropertyOp56
 70
     1
102
RTVSPropertyOp57
 70
     1
102
RTVSPost2010Prop28
280
     0
102
RTVSPost2010PropOp28
 70
     1
102
RTVSPost2010Prop29
280
     1
102
RTVSPost2010PropOp29
 70
     1
102
RTVSPost2010Prop30
280
     1
102
RTVSPost2010PropOp30
 70
     1
102
RTVSPost2010Prop31
280
     0
102
RTVSPost2010PropOp31
 70
     1
102
RTVSPost2010Prop32
280
     0
102
RTVSPost2010PropOp32
 70
     1
102
RTVSPost2010Prop33
280
     0
102
RTVSPost2010PropOp33
 70
     1
102
RTVSPost2010Prop34
280
     0
102
RTVSPost2010PropOp34
 70
     1
102
RTVSPost2010Prop35
280
     0
102
RTVSPost2010PropOp35
 70
     1
102
RTVSPost2010Prop36
280
     0
102
RTVSPost2010PropOp36
 70
     1
102
RTVSPost2010Prop37
 90
       50
102
RTVSPost2010PropOp37
 70
     1
102
RTVSPost2010Prop38
140
0.0
102
RTVSPost2010PropOp38
 70
     1
102
RTVSPost2010Prop39
140
1.0
102
RTVSPost2010PropOp39
 70
     1
102
RTVSPost2010Prop40
 90
        0
102
RTVSPost2010PropOp40
 70
     1
102
RTVSPost2010Prop41ColorIndex
 90
       18
102
RTVSPost2010Prop41ColorRGB
 90
        0
102
RTVSPost2010PropOp41
 70
     1
102
RTVSPost2010Prop42
 90
       50
102
RTVSPost2010PropOp42
 70
     1
102
RTVSPost2010Prop43
 90
        3
102
RTVSPost2010PropOp43
 70
     1
102
RTVSPost2010Prop44ColorIndex
 90
        5
102
RTVSPost2010Prop44ColorRGB
 90
      255
102
RTVSPost2010PropOp44
 70
     1
102
RTVSPost2010Prop45
280
     0
102
RTVSPost2010PropOp45
 70
     1
102
RTVSPost2010Prop46
 90
       50
102
RTVSPost2010PropOp46
 70
     1
102
RTVSPost2010Prop47
 90
       50
102
RTVSPost2010PropOp47
 70
     1
102
RTVSPost2010Prop48
 90
       50
102
RTVSPost2010PropOp48
 70
     1
102
RTVSPost2010Prop49
280
     0
102
RTVSPost2010PropOp49
 70
     1
102
RTVSPost2010Prop50
 90
       50
102
RTVSPost2010PropOp50
 70
     1
102
RTVSPost2010Prop51ColorIndex
 90
      256
102
RTVSPost2010Prop51ColorRGB
 90
-16777216
102
RTVSPost2010PropOp51
 70
     0
102
RTVSPost2010Prop52
140
1.0
102
RTVSPost2010PropOp52
 70
     0
102
RTVSPost2010Prop53
 90
        2
102
RTVSPost2010PropOp53
 70
     1
102
RTVSPost2010Prop54
  1
strokes_ogs.tif
102
RTVSPost2010PropOp54
 70
     1
102
RTVSPost2010Prop55
280
     0
102
RTVSPost2010PropOp55
 70
     1
102
RTVSPost2010Prop56
140
1.0
102
RTVSPost2010PropOp56
 70
     1
102
RTVSPost2010Prop57
140
1.0
102
RTVSPost2010PropOp57
 70
     1
  0
XRECORD
  5
4CD
102
{ACAD_REACTORS
330
4CC
102
}
330
4CC
100
AcDbXrecord
280
     1
102
RTVSPropertyOp0
 70
     1
102
RTVSPropertyOp1
 70
     1
102
RTVSPropertyOp2
 70
     1
102
RTVSPropertyOp3
 70
     1
102
RTVSPropertyOp4
 70
     1
102
RTVSPropertyOp5
 70
     1
102
RTVSPropertyOp6
 70
     1
102
RTVSPropertyOp7
 70
     1
102
RTVSPropertyOp8
 70
     1
102
RTVSPropertyOp9
 70
     1
102
RTVSPropertyOp10
 70
     1
102
RTVSPropertyOp11
 70
     1
102
RTVSPropertyOp12
 70
     1
102
RTVSPropertyOp13
 70
     1
102
RTVSPropertyOp14
 70
     1
102
RTVSPropertyOp15
 70
     1
102
RTVSPropertyOp16
 70
     1
102
RTVSPropertyOp17
 70
     1
102
RTVSPropertyOp18
 70
     1
102
RTVSPropertyOp19
 70
     1
102
RTVSPropertyOp20
 70
     1
102
RTVSPropertyOp21
 70
     1
102
RTVSPropertyOp22
 70
     1
102
RTVSPropertyOp23
 70
     1
102
RTVSPropertyOp24
 70
     1
102
RTVSPropertyOp25
 70
     1
102
RTVSPropertyOp26
 70
     1
102
RTVSPropertyOp27
 70
     1
102
RTVSPropertyOp28
 70
     1
102
RTVSPropertyOp29
 70
     1
102
RTVSPropertyOp30
 70
     1
102
RTVSPropertyOp31
 70
     1
102
RTVSPropertyOp32
 70
     1
102
RTVSPropertyOp33
 70
     1
102
RTVSPropertyOp34
 70
     1
102
RTVSPropertyOp35
 70
     1
102
RTVSPropertyOp36
 70
     1
102
RTVSPropertyOp37
 70
     1
102
RTVSPropertyOp38
 70
     1
102
RTVSPropertyOp39
 70
     1
102
RTVSPropertyOp40
 70
     1
102
RTVSPropertyOp41
 70
     1
102
RTVSPropertyOp42
 70
     1
102
RTVSPropertyOp43
 70
     1
102
RTVSPropertyOp44
 70
     1
102
RTVSPropertyOp45
 70
     1
102
RTVSPropertyOp46
 70
     1
102
RTVSPropertyOp47
 70
     1
102
RTVSPropertyOp48
 70
     1
102
RTVSPropertyOp49
 70
     1
102
RTVSPropertyOp50
 70
     1
102
RTVSPropertyOp51
 70
     0
102
RTVSPropertyOp52
 70
     0
102
RTVSPropertyOp53
 70
     1
102
RTVSPropertyOp54
 70
     1
102
RTVSPropertyOp55
 70
     1
102
RTVSPropertyOp56
 70
     1
102
RTVSPropertyOp57
 70
     1
102
RTVSPost2010Prop28
280
     0
102
RTVSPost2010PropOp28
 70
     1
102
RTVSPost2010Prop29
280
     1
102
RTVSPost2010PropOp29
 70
     1
102
RTVSPost2010Prop30
280
     1
102
RTVSPost2010PropOp30
 70
     1
102
RTVSPost2010Prop31
280
     0
102
RTVSPost2010PropOp31
 70
     1
102
RTVSPost2010Prop32
280
     0
102
RTVSPost2010PropOp32
 70
     1
102
RTVSPost2010Prop33
280
     0
102
RTVSPost2010PropOp33
 70
     1
102
RTVSPost2010Prop34
280
     0
102
RTVSPost2010PropOp34
 70
     1
102
RTVSPost2010Prop35
280
     0
102
RTVSPost2010PropOp35
 70
     1
102
RTVSPost2010Prop36
280
     0
102
RTVSPost2010PropOp36
 70
     1
102
RTVSPost2010Prop37
 90
       50
102
RTVSPost2010PropOp37
 70
     1
102
RTVSPost2010Prop38
140
0.0
102
RTVSPost2010PropOp38
 70
     1
102
RTVSPost2010Prop39
140
1.0
102
RTVSPost2010PropOp39
 70
     1
102
RTVSPost2010Prop40
 90
        0
102
RTVSPost2010PropOp40
 70
     1
102
RTVSPost2010Prop41ColorIndex
 90
       18
102
RTVSPost2010Prop41ColorRGB
 90
        0
102
RTVSPost2010PropOp41
 70
     1
102
RTVSPost2010Prop42
 90
       50
102
RTVSPost2010PropOp42
 70
     1
102
RTVSPost2010Prop43
 90
        3
102
RTVSPost2010PropOp43
 70
     1
102
RTVSPost2010Prop44ColorIndex
 90
        5
102
RTVSPost2010Prop44ColorRGB
 90
      255
102
RTVSPost2010PropOp44
 70
     1
102
RTVSPost2010Prop45
280
     0
102
RTVSPost2010PropOp45
 70
     1
102
RTVSPost2010Prop46
 90
       50
102
RTVSPost2010PropOp46
 70
     1
102
RTVSPost2010Prop47
 90
       50
102
RTVSPost2010PropOp47
 70
     1
102
RTVSPost2010Prop48
 90
       50
102
RTVSPost2010PropOp48
 70
     1
102
RTVSPost2010Prop49
280
     0
102
RTVSPost2010PropOp49
 70
     1
102
RTVSPost2010Prop50
 90
       50
102
RTVSPost2010PropOp50
 70
     1
102
RTVSPost2010Prop51ColorIndex
 90
      256
102
RTVSPost2010Prop51ColorRGB
 90
-16777216
102
RTVSPost2010PropOp51
 70
     0
102
RTVSPost2010Prop52
140
1.0
102
RTVSPost2010PropOp52
 70
     0
102
RTVSPost2010Prop53
 90
        2
102
RTVSPost2010PropOp53
 70
     1
102
RTVSPost2010Prop54
  1
strokes_ogs.tif
102
RTVSPost2010PropOp54
 70
     1
102
RTVSPost2010Prop55
280
     0
102
RTVSPost2010PropOp55
 70
     1
102
RTVSPost2010Prop56
140
1.0
102
RTVSPost2010PropOp56
 70
     1
102
RTVSPost2010Prop57
140
1.0
102
RTVSPost2010PropOp57
 70
     1
  0
XRECORD
  5
4C7
102
{ACAD_REACTORS
330
4C6
102
}
330
4C6
100
AcDbXrecord
280
     1
102
RTVSPropertyOp0
 70
     1
102
RTVSPropertyOp1
 70
     1
102
RTVSPropertyOp2
 70
     1
102
RTVSPropertyOp3
 70
     1
102
RTVSPropertyOp4
 70
     1
102
RTVSPropertyOp5
 70
     1
102
RTVSPropertyOp6
 70
     1
102
RTVSPropertyOp7
 70
     1
102
RTVSPropertyOp8
 70
     1
102
RTVSPropertyOp9
 70
     1
102
RTVSPropertyOp10
 70
     1
102
RTVSPropertyOp11
 70
     1
102
RTVSPropertyOp12
 70
     1
102
RTVSPropertyOp13
 70
     1
102
RTVSPropertyOp14
 70
     1
102
RTVSPropertyOp15
 70
     1
102
RTVSPropertyOp16
 70
     1
102
RTVSPropertyOp17
 70
     1
102
RTVSPropertyOp18
 70
     1
102
RTVSPropertyOp19
 70
     1
102
RTVSPropertyOp20
 70
     1
102
RTVSPropertyOp21
 70
     1
102
RTVSPropertyOp22
 70
     1
102
RTVSPropertyOp23
 70
     1
102
RTVSPropertyOp24
 70
     1
102
RTVSPropertyOp25
 70
     1
102
RTVSPropertyOp26
 70
     1
102
RTVSPropertyOp27
 70
     1
102
RTVSPropertyOp28
 70
     1
102
RTVSPropertyOp29
 70
     1
102
RTVSPropertyOp30
 70
     1
102
RTVSPropertyOp31
 70
     1
102
RTVSPropertyOp32
 70
     1
102
RTVSPropertyOp33
 70
     1
102
RTVSPropertyOp34
 70
     1
102
RTVSPropertyOp35
 70
     1
102
RTVSPropertyOp36
 70
     1
102
RTVSPropertyOp37
 70
     1
102
RTVSPropertyOp38
 70
     1
102
RTVSPropertyOp39
 70
     1
102
RTVSPropertyOp40
 70
     1
102
RTVSPropertyOp41
 70
     1
102
RTVSPropertyOp42
 70
     1
102
RTVSPropertyOp43
 70
     1
102
RTVSPropertyOp44
 70
     1
102
RTVSPropertyOp45
 70
     1
102
RTVSPropertyOp46
 70
     1
102
RTVSPropertyOp47
 70
     1
102
RTVSPropertyOp48
 70
     1
102
RTVSPropertyOp49
 70
     1
102
RTVSPropertyOp50
 70
     1
102
RTVSPropertyOp51
 70
     0
102
RTVSPropertyOp52
 70
     0
102
RTVSPropertyOp53
 70
     1
102
RTVSPropertyOp54
 70
     1
102
RTVSPropertyOp55
 70
     1
102
RTVSPropertyOp56
 70
     1
102
RTVSPropertyOp57
 70
     1
102
RTVSPost2010Prop28
280
     0
102
RTVSPost2010PropOp28
 70
     1
102
RTVSPost2010Prop29
280
     1
102
RTVSPost2010PropOp29
 70
     1
102
RTVSPost2010Prop30
280
     1
102
RTVSPost2010PropOp30
 70
     1
102
RTVSPost2010Prop31
280
     0
102
RTVSPost2010PropOp31
 70
     1
102
RTVSPost2010Prop32
280
     0
102
RTVSPost2010PropOp32
 70
     1
102
RTVSPost2010Prop33
280
     0
102
RTVSPost2010PropOp33
 70
     1
102
RTVSPost2010Prop34
280
     0
102
RTVSPost2010PropOp34
 70
     1
102
RTVSPost2010Prop35
280
     0
102
RTVSPost2010PropOp35
 70
     1
102
RTVSPost2010Prop36
280
     0
102
RTVSPost2010PropOp36
 70
     1
102
RTVSPost2010Prop37
 90
       50
102
RTVSPost2010PropOp37
 70
     1
102
RTVSPost2010Prop38
140
0.0
102
RTVSPost2010PropOp38
 70
     1
102
RTVSPost2010Prop39
140
1.0
102
RTVSPost2010PropOp39
 70
     1
102
RTVSPost2010Prop40
 90
        0
102
RTVSPost2010PropOp40
 70
     1
102
RTVSPost2010Prop41ColorIndex
 90
       18
102
RTVSPost2010Prop41ColorRGB
 90
        0
102
RTVSPost2010PropOp41
 70
     1
102
RTVSPost2010Prop42
 90
       50
102
RTVSPost2010PropOp42
 70
     1
102
RTVSPost2010Prop43
 90
        3
102
RTVSPost2010PropOp43
 70
     1
102
RTVSPost2010Prop44ColorIndex
 90
        5
102
RTVSPost2010Prop44ColorRGB
 90
      255
102
RTVSPost2010PropOp44
 70
     1
102
RTVSPost2010Prop45
280
     0
102
RTVSPost2010PropOp45
 70
     1
102
RTVSPost2010Prop46
 90
       50
102
RTVSPost2010PropOp46
 70
     1
102
RTVSPost2010Prop47
 90
       50
102
RTVSPost2010PropOp47
 70
     1
102
RTVSPost2010Prop48
 90
       50
102
RTVSPost2010PropOp48
 70
     1
102
RTVSPost2010Prop49
280
     0
102
RTVSPost2010PropOp49
 70
     1
102
RTVSPost2010Prop50
 90
       50
102
RTVSPost2010PropOp50
 70
     1
102
RTVSPost2010Prop51ColorIndex
 90
      256
102
RTVSPost2010Prop51ColorRGB
 90
-16777216
102
RTVSPost2010PropOp51
 70
     0
102
RTVSPost2010Prop52
140
1.0
102
RTVSPost2010PropOp52
 70
     0
102
RTVSPost2010Prop53
 90
        2
102
RTVSPost2010PropOp53
 70
     1
102
RTVSPost2010Prop54
  1
strokes_ogs.tif
102
RTVSPost2010PropOp54
 70
     1
102
RTVSPost2010Prop55
280
     0
102
RTVSPost2010PropOp55
 70
     1
102
RTVSPost2010Prop56
140
1.0
102
RTVSPost2010PropOp56
 70
     1
102
RTVSPost2010Prop57
140
1.0
102
RTVSPost2010PropOp57
 70
     1
  0
XRECORD
  5
4C9
102
{ACAD_REACTORS
330
4C8
102
}
330
4C8
100
AcDbXrecord
280
     1
102
RTVSPropertyOp0
 70
     1
102
RTVSPropertyOp1
 70
     1
102
RTVSPropertyOp2
 70
     1
102
RTVSPropertyOp3
 70
     1
102
RTVSPropertyOp4
 70
     1
102
RTVSPropertyOp5
 70
     1
102
RTVSPropertyOp6
 70
     1
102
RTVSPropertyOp7
 70
     1
102
RTVSPropertyOp8
 70
     1
102
RTVSPropertyOp9
 70
     1
102
RTVSPropertyOp10
 70
     1
102
RTVSPropertyOp11
 70
     1
102
RTVSPropertyOp12
 70
     1
102
RTVSPropertyOp13
 70
     1
102
RTVSPropertyOp14
 70
     1
102
RTVSPropertyOp15
 70
     1
102
RTVSPropertyOp16
 70
     1
102
RTVSPropertyOp17
 70
     1
102
RTVSPropertyOp18
 70
     1
102
RTVSPropertyOp19
 70
     1
102
RTVSPropertyOp20
 70
     1
102
RTVSPropertyOp21
 70
     1
102
RTVSPropertyOp22
 70
     1
102
RTVSPropertyOp23
 70
     1
102
RTVSPropertyOp24
 70
     1
102
RTVSPropertyOp25
 70
     1
102
RTVSPropertyOp26
 70
     1
102
RTVSPropertyOp27
 70
     1
102
RTVSPropertyOp28
 70
     1
102
RTVSPropertyOp29
 70
     1
102
RTVSPropertyOp30
 70
     1
102
RTVSPropertyOp31
 70
     1
102
RTVSPropertyOp32
 70
     1
102
RTVSPropertyOp33
 70
     1
102
RTVSPropertyOp34
 70
     1
102
RTVSPropertyOp35
 70
     1
102
RTVSPropertyOp36
 70
     1
102
RTVSPropertyOp37
 70
     1
102
RTVSPropertyOp38
 70
     1
102
RTVSPropertyOp39
 70
     1
102
RTVSPropertyOp40
 70
     1
102
RTVSPropertyOp41
 70
     1
102
RTVSPropertyOp42
 70
     1
102
RTVSPropertyOp43
 70
     1
102
RTVSPropertyOp44
 70
     1
102
RTVSPropertyOp45
 70
     1
102
RTVSPropertyOp46
 70
     1
102
RTVSPropertyOp47
 70
     1
102
RTVSPropertyOp48
 70
     1
102
RTVSPropertyOp49
 70
     1
102
RTVSPropertyOp50
 70
     1
102
RTVSPropertyOp51
 70
     0
102
RTVSPropertyOp52
 70
     0
102
RTVSPropertyOp53
 70
     1
102
RTVSPropertyOp54
 70
     1
102
RTVSPropertyOp55
 70
     1
102
RTVSPropertyOp56
 70
     1
102
RTVSPropertyOp57
 70
     1
102
RTVSPost2010Prop28
280
     0
102
RTVSPost2010PropOp28
 70
     1
102
RTVSPost2010Prop29
280
     1
102
RTVSPost2010PropOp29
 70
     1
102
RTVSPost2010Prop30
280
     1
102
RTVSPost2010PropOp30
 70
     1
102
RTVSPost2010Prop31
280
     0
102
RTVSPost2010PropOp31
 70
     1
102
RTVSPost2010Prop32
280
     0
102
RTVSPost2010PropOp32
 70
     1
102
RTVSPost2010Prop33
280
     0
102
RTVSPost2010PropOp33
 70
     1
102
RTVSPost2010Prop34
280
     0
102
RTVSPost2010PropOp34
 70
     1
102
RTVSPost2010Prop35
280
     0
102
RTVSPost2010PropOp35
 70
     1
102
RTVSPost2010Prop36
280
     0
102
RTVSPost2010PropOp36
 70
     1
102
RTVSPost2010Prop37
 90
       50
102
RTVSPost2010PropOp37
 70
     1
102
RTVSPost2010Prop38
140
0.0
102
RTVSPost2010PropOp38
 70
     1
102
RTVSPost2010Prop39
140
1.0
102
RTVSPost2010PropOp39
 70
     1
102
RTVSPost2010Prop40
 90
        0
102
RTVSPost2010PropOp40
 70
     1
102
RTVSPost2010Prop41ColorIndex
 90
       18
102
RTVSPost2010Prop41ColorRGB
 90
        0
102
RTVSPost2010PropOp41
 70
     1
102
RTVSPost2010Prop42
 90
       50
102
RTVSPost2010PropOp42
 70
     1
102
RTVSPost2010Prop43
 90
        3
102
RTVSPost2010PropOp43
 70
     1
102
RTVSPost2010Prop44ColorIndex
 90
        5
102
RTVSPost2010Prop44ColorRGB
 90
      255
102
RTVSPost2010PropOp44
 70
     1
102
RTVSPost2010Prop45
280
     0
102
RTVSPost2010PropOp45
 70
     1
102
RTVSPost2010Prop46
 90
       50
102
RTVSPost2010PropOp46
 70
     1
102
RTVSPost2010Prop47
 90
       50
102
RTVSPost2010PropOp47
 70
     1
102
RTVSPost2010Prop48
 90
       50
102
RTVSPost2010PropOp48
 70
     1
102
RTVSPost2010Prop49
280
     0
102
RTVSPost2010PropOp49
 70
     1
102
RTVSPost2010Prop50
 90
       50
102
RTVSPost2010PropOp50
 70
     1
102
RTVSPost2010Prop51ColorIndex
 90
      256
102
RTVSPost2010Prop51ColorRGB
 90
-16777216
102
RTVSPost2010PropOp51
 70
     0
102
RTVSPost2010Prop52
140
1.0
102
RTVSPost2010PropOp52
 70
     0
102
RTVSPost2010Prop53
 90
        2
102
RTVSPost2010PropOp53
 70
     1
102
RTVSPost2010Prop54
  1
strokes_ogs.tif
102
RTVSPost2010PropOp54
 70
     1
102
RTVSPost2010Prop55
280
     0
102
RTVSPost2010PropOp55
 70
     1
102
RTVSPost2010Prop56
140
1.0
102
RTVSPost2010PropOp56
 70
     1
102
RTVSPost2010Prop57
140
1.0
102
RTVSPost2010PropOp57
 70
     1
  0
XRECORD
  5
4B9
102
{ACAD_REACTORS
330
4B8
102
}
330
4B8
100
AcDbXrecord
280
     1
102
RTVSPropertyOp0
 70
     1
102
RTVSPropertyOp1
 70
     1
102
RTVSPropertyOp2
 70
     1
102
RTVSPropertyOp3
 70
     1
102
RTVSPropertyOp4
 70
     1
102
RTVSPropertyOp5
 70
     1
102
RTVSPropertyOp6
 70
     1
102
RTVSPropertyOp7
 70
     1
102
RTVSPropertyOp8
 70
     1
102
RTVSPropertyOp9
 70
     1
102
RTVSPropertyOp10
 70
     1
102
RTVSPropertyOp11
 70
     1
102
RTVSPropertyOp12
 70
     1
102
RTVSPropertyOp13
 70
     1
102
RTVSPropertyOp14
 70
     1
102
RTVSPropertyOp15
 70
     1
102
RTVSPropertyOp16
 70
     1
102
RTVSPropertyOp17
 70
     1
102
RTVSPropertyOp18
 70
     1
102
RTVSPropertyOp19
 70
     1
102
RTVSPropertyOp20
 70
     1
102
RTVSPropertyOp21
 70
     1
102
RTVSPropertyOp22
 70
     1
102
RTVSPropertyOp23
 70
     1
102
RTVSPropertyOp24
 70
     1
102
RTVSPropertyOp25
 70
     1
102
RTVSPropertyOp26
 70
     1
102
RTVSPropertyOp27
 70
     1
102
RTVSPropertyOp28
 70
     1
102
RTVSPropertyOp29
 70
     1
102
RTVSPropertyOp30
 70
     1
102
RTVSPropertyOp31
 70
     1
102
RTVSPropertyOp32
 70
     1
102
RTVSPropertyOp33
 70
     1
102
RTVSPropertyOp34
 70
     1
102
RTVSPropertyOp35
 70
     1
102
RTVSPropertyOp36
 70
     1
102
RTVSPropertyOp37
 70
     1
102
RTVSPropertyOp38
 70
     1
102
RTVSPropertyOp39
 70
     1
102
RTVSPropertyOp40
 70
     1
102
RTVSPropertyOp41
 70
     1
102
RTVSPropertyOp42
 70
     1
102
RTVSPropertyOp43
 70
     1
102
RTVSPropertyOp44
 70
     1
102
RTVSPropertyOp45
 70
     1
102
RTVSPropertyOp46
 70
     1
102
RTVSPropertyOp47
 70
     1
102
RTVSPropertyOp48
 70
     1
102
RTVSPropertyOp49
 70
     1
102
RTVSPropertyOp50
 70
     1
102
RTVSPropertyOp51
 70
     0
102
RTVSPropertyOp52
 70
     0
102
RTVSPropertyOp53
 70
     1
102
RTVSPropertyOp54
 70
     1
102
RTVSPropertyOp55
 70
     1
102
RTVSPropertyOp56
 70
     1
102
RTVSPropertyOp57
 70
     1
102
RTVSPost2010Prop28
280
     0
102
RTVSPost2010PropOp28
 70
     1
102
RTVSPost2010Prop29
280
     1
102
RTVSPost2010PropOp29
 70
     1
102
RTVSPost2010Prop30
280
     1
102
RTVSPost2010PropOp30
 70
     1
102
RTVSPost2010Prop31
280
     0
102
RTVSPost2010PropOp31
 70
     1
102
RTVSPost2010Prop32
280
     0
102
RTVSPost2010PropOp32
 70
     1
102
RTVSPost2010Prop33
280
     0
102
RTVSPost2010PropOp33
 70
     1
102
RTVSPost2010Prop34
280
     0
102
RTVSPost2010PropOp34
 70
     1
102
RTVSPost2010Prop35
280
     0
102
RTVSPost2010PropOp35
 70
     1
102
RTVSPost2010Prop36
280
     0
102
RTVSPost2010PropOp36
 70
     1
102
RTVSPost2010Prop37
 90
       50
102
RTVSPost2010PropOp37
 70
     1
102
RTVSPost2010Prop38
140
0.0
102
RTVSPost2010PropOp38
 70
     1
102
RTVSPost2010Prop39
140
1.0
102
RTVSPost2010PropOp39
 70
     1
102
RTVSPost2010Prop40
 90
        0
102
RTVSPost2010PropOp40
 70
     1
102
RTVSPost2010Prop41ColorIndex
 90
       18
102
RTVSPost2010Prop41ColorRGB
 90
        0
102
RTVSPost2010PropOp41
 70
     1
102
RTVSPost2010Prop42
 90
       50
102
RTVSPost2010PropOp42
 70
     1
102
RTVSPost2010Prop43
 90
        3
102
RTVSPost2010PropOp43
 70
     1
102
RTVSPost2010Prop44ColorIndex
 90
        5
102
RTVSPost2010Prop44ColorRGB
 90
      255
102
RTVSPost2010PropOp44
 70
     1
102
RTVSPost2010Prop45
280
     0
102
RTVSPost2010PropOp45
 70
     1
102
RTVSPost2010Prop46
 90
       50
102
RTVSPost2010PropOp46
 70
     1
102
RTVSPost2010Prop47
 90
       50
102
RTVSPost2010PropOp47
 70
     1
102
RTVSPost2010Prop48
 90
       50
102
RTVSPost2010PropOp48
 70
     1
102
RTVSPost2010Prop49
280
     0
102
RTVSPost2010PropOp49
 70
     1
102
RTVSPost2010Prop50
 90
       50
102
RTVSPost2010PropOp50
 70
     1
102
RTVSPost2010Prop51ColorIndex
 90
      256
102
RTVSPost2010Prop51ColorRGB
 90
-16777216
102
RTVSPost2010PropOp51
 70
     0
102
RTVSPost2010Prop52
140
1.0
102
RTVSPost2010PropOp52
 70
     0
102
RTVSPost2010Prop53
 90
        2
102
RTVSPost2010PropOp53
 70
     1
102
RTVSPost2010Prop54
  1
strokes_ogs.tif
102
RTVSPost2010PropOp54
 70
     1
102
RTVSPost2010Prop55
280
     0
102
RTVSPost2010PropOp55
 70
     1
102
RTVSPost2010Prop56
140
1.0
102
RTVSPost2010PropOp56
 70
     1
102
RTVSPost2010Prop57
140
1.0
102
RTVSPost2010PropOp57
 70
     1
  0
XRECORD
  5
4AB
102
{ACAD_REACTORS
330
4AA
102
}
330
4AA
100
AcDbXrecord
280
     1
102
RTVSPropertyOp0
 70
     1
102
RTVSPropertyOp1
 70
     1
102
RTVSPropertyOp2
 70
     1
102
RTVSPropertyOp3
 70
     1
102
RTVSPropertyOp4
 70
     1
102
RTVSPropertyOp5
 70
     1
102
RTVSPropertyOp6
 70
     1
102
RTVSPropertyOp7
 70
     1
102
RTVSPropertyOp8
 70
     1
102
RTVSPropertyOp9
 70
     1
102
RTVSPropertyOp10
 70
     1
102
RTVSPropertyOp11
 70
     1
102
RTVSPropertyOp12
 70
     1
102
RTVSPropertyOp13
 70
     1
102
RTVSPropertyOp14
 70
     1
102
RTVSPropertyOp15
 70
     1
102
RTVSPropertyOp16
 70
     1
102
RTVSPropertyOp17
 70
     1
102
RTVSPropertyOp18
 70
     1
102
RTVSPropertyOp19
 70
     1
102
RTVSPropertyOp20
 70
     1
102
RTVSPropertyOp21
 70
     1
102
RTVSPropertyOp22
 70
     1
102
RTVSPropertyOp23
 70
     1
102
RTVSPropertyOp24
 70
     1
102
RTVSPropertyOp25
 70
     1
102
RTVSPropertyOp26
 70
     1
102
RTVSPropertyOp27
 70
     1
102
RTVSPropertyOp28
 70
     1
102
RTVSPropertyOp29
 70
     1
102
RTVSPropertyOp30
 70
     1
102
RTVSPropertyOp31
 70
     1
102
RTVSPropertyOp32
 70
     1
102
RTVSPropertyOp33
 70
     1
102
RTVSPropertyOp34
 70
     1
102
RTVSPropertyOp35
 70
     1
102
RTVSPropertyOp36
 70
     1
102
RTVSPropertyOp37
 70
     1
102
RTVSPropertyOp38
 70
     1
102
RTVSPropertyOp39
 70
     1
102
RTVSPropertyOp40
 70
     1
102
RTVSPropertyOp41
 70
     1
102
RTVSPropertyOp42
 70
     1
102
RTVSPropertyOp43
 70
     1
102
RTVSPropertyOp44
 70
     1
102
RTVSPropertyOp45
 70
     1
102
RTVSPropertyOp46
 70
     1
102
RTVSPropertyOp47
 70
     1
102
RTVSPropertyOp48
 70
     1
102
RTVSPropertyOp49
 70
     1
102
RTVSPropertyOp50
 70
     1
102
RTVSPropertyOp51
 70
     0
102
RTVSPropertyOp52
 70
     0
102
RTVSPropertyOp53
 70
     1
102
RTVSPropertyOp54
 70
     1
102
RTVSPropertyOp55
 70
     1
102
RTVSPropertyOp56
 70
     1
102
RTVSPropertyOp57
 70
     1
102
RTVSPost2010Prop28
280
     0
102
RTVSPost2010PropOp28
 70
     1
102
RTVSPost2010Prop29
280
     1
102
RTVSPost2010PropOp29
 70
     1
102
RTVSPost2010Prop30
280
     1
102
RTVSPost2010PropOp30
 70
     1
102
RTVSPost2010Prop31
280
     0
102
RTVSPost2010PropOp31
 70
     1
102
RTVSPost2010Prop32
280
     0
102
RTVSPost2010PropOp32
 70
     1
102
RTVSPost2010Prop33
280
     0
102
RTVSPost2010PropOp33
 70
     1
102
RTVSPost2010Prop34
280
     0
102
RTVSPost2010PropOp34
 70
     1
102
RTVSPost2010Prop35
280
     0
102
RTVSPost2010PropOp35
 70
     1
102
RTVSPost2010Prop36
280
     0
102
RTVSPost2010PropOp36
 70
     1
102
RTVSPost2010Prop37
 90
       50
102
RTVSPost2010PropOp37
 70
     1
102
RTVSPost2010Prop38
140
0.0
102
RTVSPost2010PropOp38
 70
     1
102
RTVSPost2010Prop39
140
1.0
102
RTVSPost2010PropOp39
 70
     1
102
RTVSPost2010Prop40
 90
        0
102
RTVSPost2010PropOp40
 70
     1
102
RTVSPost2010Prop41ColorIndex
 90
       18
102
RTVSPost2010Prop41ColorRGB
 90
        0
102
RTVSPost2010PropOp41
 70
     1
102
RTVSPost2010Prop42
 90
       50
102
RTVSPost2010PropOp42
 70
     1
102
RTVSPost2010Prop43
 90
        3
102
RTVSPost2010PropOp43
 70
     1
102
RTVSPost2010Prop44ColorIndex
 90
        5
102
RTVSPost2010Prop44ColorRGB
 90
      255
102
RTVSPost2010PropOp44
 70
     1
102
RTVSPost2010Prop45
280
     0
102
RTVSPost2010PropOp45
 70
     1
102
RTVSPost2010Prop46
 90
       50
102
RTVSPost2010PropOp46
 70
     1
102
RTVSPost2010Prop47
 90
       50
102
RTVSPost2010PropOp47
 70
     1
102
RTVSPost2010Prop48
 90
       50
102
RTVSPost2010PropOp48
 70
     1
102
RTVSPost2010Prop49
280
     0
102
RTVSPost2010PropOp49
 70
     1
102
RTVSPost2010Prop50
 90
       50
102
RTVSPost2010PropOp50
 70
     1
102
RTVSPost2010Prop51ColorIndex
 90
      256
102
RTVSPost2010Prop51ColorRGB
 90
-16777216
102
RTVSPost2010PropOp51
 70
     0
102
RTVSPost2010Prop52
140
1.0
102
RTVSPost2010PropOp52
 70
     0
102
RTVSPost2010Prop53
 90
        2
102
RTVSPost2010PropOp53
 70
     1
102
RTVSPost2010Prop54
  1
strokes_ogs.tif
102
RTVSPost2010PropOp54
 70
     1
102
RTVSPost2010Prop55
280
     0
102
RTVSPost2010PropOp55
 70
     1
102
RTVSPost2010Prop56
140
1.0
102
RTVSPost2010PropOp56
 70
     1
102
RTVSPost2010Prop57
140
1.0
102
RTVSPost2010PropOp57
 70
     1
  0
XRECORD
  5
4CB
102
{ACAD_REACTORS
330
4CA
102
}
330
4CA
100
AcDbXrecord
280
     1
102
RTVSPropertyOp0
 70
     1
102
RTVSPropertyOp1
 70
     1
102
RTVSPropertyOp2
 70
     1
102
RTVSPropertyOp3
 70
     1
102
RTVSPropertyOp4
 70
     1
102
RTVSPropertyOp5
 70
     1
102
RTVSPropertyOp6
 70
     1
102
RTVSPropertyOp7
 70
     1
102
RTVSPropertyOp8
 70
     1
102
RTVSPropertyOp9
 70
     1
102
RTVSPropertyOp10
 70
     1
102
RTVSPropertyOp11
 70
     1
102
RTVSPropertyOp12
 70
     1
102
RTVSPropertyOp13
 70
     1
102
RTVSPropertyOp14
 70
     1
102
RTVSPropertyOp15
 70
     1
102
RTVSPropertyOp16
 70
     1
102
RTVSPropertyOp17
 70
     1
102
RTVSPropertyOp18
 70
     1
102
RTVSPropertyOp19
 70
     1
102
RTVSPropertyOp20
 70
     1
102
RTVSPropertyOp21
 70
     1
102
RTVSPropertyOp22
 70
     1
102
RTVSPropertyOp23
 70
     1
102
RTVSPropertyOp24
 70
     1
102
RTVSPropertyOp25
 70
     1
102
RTVSPropertyOp26
 70
     1
102
RTVSPropertyOp27
 70
     1
102
RTVSPropertyOp28
 70
     1
102
RTVSPropertyOp29
 70
     1
102
RTVSPropertyOp30
 70
     1
102
RTVSPropertyOp31
 70
     1
102
RTVSPropertyOp32
 70
     1
102
RTVSPropertyOp33
 70
     1
102
RTVSPropertyOp34
 70
     1
102
RTVSPropertyOp35
 70
     1
102
RTVSPropertyOp36
 70
     1
102
RTVSPropertyOp37
 70
     1
102
RTVSPropertyOp38
 70
     1
102
RTVSPropertyOp39
 70
     1
102
RTVSPropertyOp40
 70
     1
102
RTVSPropertyOp41
 70
     1
102
RTVSPropertyOp42
 70
     1
102
RTVSPropertyOp43
 70
     1
102
RTVSPropertyOp44
 70
     1
102
RTVSPropertyOp45
 70
     1
102
RTVSPropertyOp46
 70
     1
102
RTVSPropertyOp47
 70
     1
102
RTVSPropertyOp48
 70
     1
102
RTVSPropertyOp49
 70
     1
102
RTVSPropertyOp50
 70
     1
102
RTVSPropertyOp51
 70
     0
102
RTVSPropertyOp52
 70
     0
102
RTVSPropertyOp53
 70
     1
102
RTVSPropertyOp54
 70
     1
102
RTVSPropertyOp55
 70
     1
102
RTVSPropertyOp56
 70
     1
102
RTVSPropertyOp57
 70
     1
102
RTVSPost2010Prop28
280
     0
102
RTVSPost2010PropOp28
 70
     1
102
RTVSPost2010Prop29
280
     1
102
RTVSPost2010PropOp29
 70
     1
102
RTVSPost2010Prop30
280
     1
102
RTVSPost2010PropOp30
 70
     1
102
RTVSPost2010Prop31
280
     0
102
RTVSPost2010PropOp31
 70
     1
102
RTVSPost2010Prop32
280
     0
102
RTVSPost2010PropOp32
 70
     1
102
RTVSPost2010Prop33
280
     0
102
RTVSPost2010PropOp33
 70
     1
102
RTVSPost2010Prop34
280
     0
102
RTVSPost2010PropOp34
 70
     1
102
RTVSPost2010Prop35
280
     0
102
RTVSPost2010PropOp35
 70
     1
102
RTVSPost2010Prop36
280
     0
102
RTVSPost2010PropOp36
 70
     1
102
RTVSPost2010Prop37
 90
       50
102
RTVSPost2010PropOp37
 70
     1
102
RTVSPost2010Prop38
140
0.0
102
RTVSPost2010PropOp38
 70
     1
102
RTVSPost2010Prop39
140
1.0
102
RTVSPost2010PropOp39
 70
     1
102
RTVSPost2010Prop40
 90
        0
102
RTVSPost2010PropOp40
 70
     1
102
RTVSPost2010Prop41ColorIndex
 90
       18
102
RTVSPost2010Prop41ColorRGB
 90
        0
102
RTVSPost2010PropOp41
 70
     1
102
RTVSPost2010Prop42
 90
       50
102
RTVSPost2010PropOp42
 70
     1
102
RTVSPost2010Prop43
 90
        3
102
RTVSPost2010PropOp43
 70
     1
102
RTVSPost2010Prop44ColorIndex
 90
        5
102
RTVSPost2010Prop44ColorRGB
 90
      255
102
RTVSPost2010PropOp44
 70
     1
102
RTVSPost2010Prop45
280
     0
102
RTVSPost2010PropOp45
 70
     1
102
RTVSPost2010Prop46
 90
       50
102
RTVSPost2010PropOp46
 70
     1
102
RTVSPost2010Prop47
 90
       50
102
RTVSPost2010PropOp47
 70
     1
102
RTVSPost2010Prop48
 90
       50
102
RTVSPost2010PropOp48
 70
     1
102
RTVSPost2010Prop49
280
     0
102
RTVSPost2010PropOp49
 70
     1
102
RTVSPost2010Prop50
 90
       50
102
RTVSPost2010PropOp50
 70
     1
102
RTVSPost2010Prop51ColorIndex
 90
      256
102
RTVSPost2010Prop51ColorRGB
 90
-16777216
102
RTVSPost2010PropOp51
 70
     0
102
RTVSPost2010Prop52
140
1.0
102
RTVSPost2010PropOp52
 70
     0
102
RTVSPost2010Prop53
 90
        2
102
RTVSPost2010PropOp53
 70
     1
102
RTVSPost2010Prop54
  1
strokes_ogs.tif
102
RTVSPost2010PropOp54
 70
     1
102
RTVSPost2010Prop55
280
     0
102
RTVSPost2010PropOp55
 70
     1
102
RTVSPost2010Prop56
140
1.0
102
RTVSPost2010PropOp56
 70
     1
102
RTVSPost2010Prop57
140
1.0
102
RTVSPost2010PropOp57
 70
     1
  0
ENDSEC
  0
EOF
